0
SECTION
2
HEADER
9
$ACADVER
1
AC1015
9
$DWGCODEPAGE
3
ANSI_1252
9
$HANDSEED
5
293
9
$ANGBASE
50
0
9
$ANGDIR
70
0
9
$ATTMODE
70
1
9
$AUNITS
70
0
9
$AUPREC
70
0
9
$CECOLOR
62
256
9
$CELTSCALE
40
1
9
$CELTYPE
6
ByLayer
9
$CELWEIGHT
370
18
9
$CLAYER
8
0
9
$CMLJUST
70
0
9
$CMLSCALE
40
1
9
$CMLSTYLE
2
Standard
9
$DIMSTYLE
2
Standard
9
$TEXTSIZE
40
0.2
9
$TEXTSTYLE
7
Standard
9
$LUNITS
70
2
9
$LUPREC
70
4
9
$EXTNAMES
290
1
9
$INSUNITS
70
4
9
$LTSCALE
40
1
9
$LWDISPLAY
290
1
9
$PDMODE
70
0
9
$PDSIZE
40
0
9
$PLINEGEN
70
0
0
ENDSEC
0
SECTION
2
CLASSES
0
CLASS
1
RASTERVARIABLES
2
AcDbRasterVariables
3
ISM
90
0
280
0
281
0
0
ENDSEC
0
SECTION
2
TABLES
0
TABLE
2
VPORT
5
289
100
AcDbSymbolTable
0
VPORT
5
1
100
AcDbSymbolTableRecord
100
AcDbViewportTableRecord
2
*Active
70
0
10
0
20
0
11
1
21
1
12
-1
22
1
13
0
23
0
14
0.5
24
0.5
15
10
25
10
16
0
26
0
36
1
17
0
27
0
37
0
0
ENDTAB
0
TABLE
2
LTYPE
5
28a
100
AcDbSymbolTable
0
LTYPE
5
14
100
AcDbSymbolTableRecord
100
AcDbLinetypeTableRecord
70
0
2
ByBlock
3

72
65
73
0
40
0
0
LTYPE
5
15
100
AcDbSymbolTableRecord
100
AcDbLinetypeTableRecord
70
0
2
ByLayer
3

72
65
73
0
40
0
0
LTYPE
5
16
100
AcDbSymbolTableRecord
100
AcDbLinetypeTableRecord
70
0
2
CONTINUOUS
3
Solid line
72
65
73
0
40
0
0
LTYPE
5
6A
100
AcDbSymbolTableRecord
100
AcDbLinetypeTableRecord
70
0
2
CENTER
3
____ _ ____ _ ____ _ ____
72
65
73
4
40
47.5
49
22
74
0
49
-8.5
74
0
49
8.5
74
0
49
-8.5
74
0
0
LTYPE
5
6B
100
AcDbSymbolTableRecord
100
AcDbLinetypeTableRecord
70
0
2
DASHED
3
__ __ __ __ __ __ __ __ __
72
65
73
2
40
25.72
49
12.86
74
0
49
-12.86
74
0
0
ENDTAB
0
TABLE
2
LAYER
5
28b
100
AcDbSymbolTable
0
LAYER
5
10
100
AcDbSymbolTableRecord
100
AcDbLayerTableRecord
2
0
70
0
62
7
6
CONTINUOUS
290
1
370
-3
390
0
0
LAYER
5
6D
100
AcDbSymbolTableRecord
100
AcDbLayerTableRecord
2
1
70
0
62
4
6
CONTINUOUS
290
1
370
-3
390
0
0
LAYER
5
76
100
AcDbSymbolTableRecord
100
AcDbLayerTableRecord
2
80
70
0
62
-6
6
CONTINUOUS
290
1
370
-3
390
0
0
LAYER
5
78
100
AcDbSymbolTableRecord
100
AcDbLayerTableRecord
2
81
70
0
62
-3
6
CONTINUOUS
290
1
370
-3
390
0
0
LAYER
5
121
100
AcDbSymbolTableRecord
100
AcDbLayerTableRecord
2
4
70
0
62
-2
6
CENTER
290
1
370
-3
390
0
0
LAYER
5
1DD
100
AcDbSymbolTableRecord
100
AcDbLayerTableRecord
2
2
70
0
62
7
6
CONTINUOUS
290
1
370
-3
390
0
0
LAYER
5
275
100
AcDbSymbolTableRecord
100
AcDbLayerTableRecord
2
SK1
70
0
62
4
6
CONTINUOUS
290
1
370
-3
390
0
0
LAYER
5
276
100
AcDbSymbolTableRecord
100
AcDbLayerTableRecord
2
SK4
70
0
62
2
6
CENTER
290
1
370
-3
390
0
0
LAYER
5
277
100
AcDbSymbolTableRecord
100
AcDbLayerTableRecord
2
SK6
70
0
62
5
6
CONTINUOUS
290
1
370
-3
390
0
0
LAYER
5
278
100
AcDbSymbolTableRecord
100
AcDbLayerTableRecord
2
SK2
70
0
62
7
6
CONTINUOUS
290
1
370
-3
390
0
0
ENDTAB
0
TABLE
2
STYLE
5
28c
100
AcDbSymbolTable
0
STYLE
5
11
100
AcDbSymbolTableRecord
100
AcDbTextStyleTableRecord
2
Standard
3
txt
70
0
71
0
40
0
41
1
42
0
50
0
0
STYLE
5
1D8
100
AcDbSymbolTableRecord
100
AcDbTextStyleTableRecord
2
iso_b_vert
3
simplex.shx
70
0
71
0
40
0
41
1
42
0
50
0
0
STYLE
5
1D9
100
AcDbSymbolTableRecord
100
AcDbTextStyleTableRecord
2
DWGDirectTextStyle
3
simplex
70
0
71
0
40
0
41
1
42
0
50
0
0
ENDTAB
0
TABLE
2
DIMSTYLE
5
28d
100
AcDbSymbolTable
100
AcDbDimStyleTable
0
DIMSTYLE
105
27
100
AcDbSymbolTableRecord
100
AcDbDimStyleTableRecord
2
Standard
70
0
3
<>
41
0.18
42
0.0625
44
0.18
140
0.18
147
0.09
73
0
74
0
77
1
271
2
275
0
278
52
280
0
340
11
0
ENDTAB
0
TABLE
2
VIEW
5
28e
100
AcDbSymbolTable
0
ENDTAB
0
TABLE
2
UCS
5
28f
100
AcDbSymbolTable
0
ENDTAB
0
TABLE
2
APPID
5
290
100
AcDbSymbolTable
0
APPID
5
12
100
AcDbSymbolTableRecord
100
AcDbRegAppTableRecord
2
ACAD
70
0
0
ENDTAB
0
TABLE
2
BLOCK_RECORD
5
291
100
AcDbSymbolTable
0
BLOCK_RECORD
5
1F
100
AcDbSymbolTableRecord
100
AcDbBlockTableRecord
2
*Model_Space
340
0
70
0
0
BLOCK_RECORD
5
1B
100
AcDbSymbolTableRecord
100
AcDbBlockTableRecord
2
*Paper_Space
340
0
70
0
0
BLOCK_RECORD
5
23
100
AcDbSymbolTableRecord
100
AcDbBlockTableRecord
2
*Paper_Space0
340
0
70
0
0
BLOCK_RECORD
5
1DB
100
AcDbSymbolTableRecord
100
AcDbBlockTableRecord
2
DimnDraft3D1
340
0
70
0
0
BLOCK_RECORD
5
1EA
100
AcDbSymbolTableRecord
100
AcDbBlockTableRecord
2
DimnDraft3D2
340
0
70
0
0
BLOCK_RECORD
5
1F9
100
AcDbSymbolTableRecord
100
AcDbBlockTableRecord
2
_CLOSED
340
0
70
0
0
BLOCK_RECORD
5
200
100
AcDbSymbolTableRecord
100
AcDbBlockTableRecord
2
DimnDraft3D3
340
0
70
0
0
BLOCK_RECORD
5
20E
100
AcDbSymbolTableRecord
100
AcDbBlockTableRecord
2
DimnDraft3D4
340
0
70
0
0
ENDTAB
0
ENDSEC
0
SECTION
2
BLOCKS
0
BLOCK
5
20
100
AcDbEntity
8
0
100
AcDbBlockBegin
2
*Model_Space
70
0
10
0
20
0
30
0
3
*Model_Space
0
ENDBLK
5
21
100
AcDbEntity
8
0
100
AcDbBlockEnd
0
BLOCK
5
1C
100
AcDbEntity
8
0
100
AcDbBlockBegin
2
*Paper_Space
70
0
10
0
20
0
30
0
3
*Paper_Space
0
ENDBLK
5
1D
100
AcDbEntity
8
0
100
AcDbBlockEnd
0
BLOCK
5
24
100
AcDbEntity
8
0
100
AcDbBlockBegin
2
*Paper_Space0
70
0
10
0
20
0
30
0
3
*Paper_Space0
0
ENDBLK
5
25
100
AcDbEntity
8
0
100
AcDbBlockEnd
0
BLOCK
5
1E7
100
AcDbEntity
8
0
100
AcDbBlockBegin
2
DimnDraft3D1
70
0
10
0
20
0
30
0
3
DimnDraft3D1
0
MTEXT
5
1DC
100
AcDbEntity
8
2
62
256
6
ByLayer
370
18
48
1
60
0
100
AcDbMText
10
33.855445
20
-31.232262
30
0
210
0
220
0
230
1
1
\W0.6139;61
40
3.50012
41
0
44
1.084337
50
90
71
7
72
5
7
iso_b_vert
0
LINE
5
1DE
100
AcDbEntity
8
2
62
256
6
ByLayer
370
13
48
1
60
0
100
AcDbLine
10
1.5875
20
0
30
0
11
37.905475
21
0
31
0
39
0
210
0
220
0
230
1
0
LINE
5
1DF
100
AcDbEntity
8
2
62
256
6
ByLayer
370
13
48
1
60
0
100
AcDbLine
10
15.5875
20
-61
30
0
11
37.905475
21
-61
31
0
39
0
210
0
220
0
230
1
0
LINE
5
1E0
100
AcDbEntity
8
2
62
256
6
ByLayer
370
13
48
1
60
0
100
AcDbLine
10
34.730475
20
0
30
0
11
34.730475
21
-61
31
0
39
0
210
0
220
0
230
1
0
LINE
5
1E1
100
AcDbEntity
8
2
62
256
6
ByLayer
370
13
48
1
60
0
100
AcDbLine
10
34.730475
20
0
30
0
11
35.148472
21
-3.174998
31
0
39
0
210
0
220
0
230
1
0
LINE
5
1E2
100
AcDbEntity
8
2
62
256
6
ByLayer
370
13
48
1
60
0
100
AcDbLine
10
34.730475
20
0
30
0
11
34.312478
21
-3.175002
31
0
39
0
210
0
220
0
230
1
0
LINE
5
1E3
100
AcDbEntity
8
2
62
256
6
ByLayer
370
13
48
1
60
0
100
AcDbLine
10
35.148472
20
-3.174998
30
0
11
34.312478
21
-3.175002
31
0
39
0
210
0
220
0
230
1
0
LINE
5
1E4
100
AcDbEntity
8
2
62
256
6
ByLayer
370
13
48
1
60
0
100
AcDbLine
10
34.730475
20
-61
30
0
11
34.312478
21
-57.825002
31
0
39
0
210
0
220
0
230
1
0
LINE
5
1E5
100
AcDbEntity
8
2
62
256
6
ByLayer
370
13
48
1
60
0
100
AcDbLine
10
34.730475
20
-61
30
0
11
35.148472
21
-57.824998
31
0
39
0
210
0
220
0
230
1
0
LINE
5
1E6
100
AcDbEntity
8
2
62
256
6
ByLayer
370
13
48
1
60
0
100
AcDbLine
10
34.312478
20
-57.825002
30
0
11
35.148472
21
-57.824998
31
0
39
0
210
0
220
0
230
1
0
ENDBLK
5
1E8
100
AcDbEntity
8
0
100
AcDbBlockEnd
0
BLOCK
5
1F6
100
AcDbEntity
8
0
100
AcDbBlockBegin
2
DimnDraft3D2
70
0
10
0
20
0
30
0
3
DimnDraft3D2
0
MTEXT
5
1EB
100
AcDbEntity
8
SK2
62
256
6
ByLayer
370
18
48
1
60
0
100
AcDbMText
10
-16.020564
20
-47.55081
30
0
210
0
220
0
230
1
1
\W0.7279;35.75
40
3.50012
41
0
44
1.084337
50
90
71
7
72
5
7
iso_b_vert
0
LINE
5
1ED
100
AcDbEntity
8
SK2
62
256
6
ByLayer
370
13
48
1
60
0
100
AcDbLine
10
5.6825
20
-25.25
30
0
11
-18.320534
21
-25.25
31
0
39
0
210
0
220
0
230
1
0
LINE
5
1EE
100
AcDbEntity
8
SK2
62
256
6
ByLayer
370
13
48
1
60
0
100
AcDbLine
10
12.4125
20
-61
30
0
11
-18.320534
21
-61
31
0
39
0
210
0
220
0
230
1
0
LINE
5
1EF
100
AcDbEntity
8
SK2
62
256
6
ByLayer
370
13
48
1
60
0
100
AcDbLine
10
-15.145534
20
-25.25
30
0
11
-15.145534
21
-61
31
0
39
0
210
0
220
0
230
1
0
LINE
5
1F0
100
AcDbEntity
8
SK2
62
256
6
ByLayer
370
13
48
1
60
0
100
AcDbLine
10
-15.145534
20
-25.25
30
0
11
-14.727537
21
-28.424998
31
0
39
0
210
0
220
0
230
1
0
LINE
5
1F1
100
AcDbEntity
8
SK2
62
256
6
ByLayer
370
13
48
1
60
0
100
AcDbLine
10
-15.145534
20
-25.25
30
0
11
-15.563531
21
-28.425002
31
0
39
0
210
0
220
0
230
1
0
LINE
5
1F2
100
AcDbEntity
8
SK2
62
256
6
ByLayer
370
13
48
1
60
0
100
AcDbLine
10
-14.727537
20
-28.424998
30
0
11
-15.563531
21
-28.425002
31
0
39
0
210
0
220
0
230
1
0
LINE
5
1F3
100
AcDbEntity
8
SK2
62
256
6
ByLayer
370
13
48
1
60
0
100
AcDbLine
10
-15.145534
20
-61
30
0
11
-15.563531
21
-57.825002
31
0
39
0
210
0
220
0
230
1
0
LINE
5
1F4
100
AcDbEntity
8
SK2
62
256
6
ByLayer
370
13
48
1
60
0
100
AcDbLine
10
-15.145534
20
-61
30
0
11
-14.727537
21
-57.824998
31
0
39
0
210
0
220
0
230
1
0
LINE
5
1F5
100
AcDbEntity
8
SK2
62
256
6
ByLayer
370
13
48
1
60
0
100
AcDbLine
10
-15.563531
20
-57.825002
30
0
11
-14.727537
21
-57.824998
31
0
39
0
210
0
220
0
230
1
0
ENDBLK
5
1F7
100
AcDbEntity
8
0
100
AcDbBlockEnd
0
BLOCK
5
1FA
100
AcDbEntity
8
0
100
AcDbBlockBegin
2
_CLOSED
70
0
10
0
20
0
30
0
3
_CLOSED
0
LINE
5
1FC
100
AcDbEntity
8
0
62
256
6
ByLayer
370
-2
48
1
60
0
100
AcDbLine
10
-1
20
0.166667
30
0
11
0
21
0
31
0
39
0
210
0
220
0
230
1
0
LINE
5
1FD
100
AcDbEntity
8
0
62
256
6
ByLayer
370
-2
48
1
60
0
100
AcDbLine
10
0
20
0
30
0
11
-1
21
-0.166667
31
0
39
0
210
0
220
0
230
1
0
LINE
5
1FE
100
AcDbEntity
8
0
62
256
6
ByLayer
370
-2
48
1
60
0
100
AcDbLine
10
-1
20
0.166667
30
0
11
-1
21
-0.166667
31
0
39
0
210
0
220
0
230
1
0
LINE
5
1FF
100
AcDbEntity
8
0
62
256
6
ByLayer
370
-2
48
1
60
0
100
AcDbLine
10
0
20
0
30
0
11
-1
21
0
31
0
39
0
210
0
220
0
230
1
0
ENDBLK
5
1FB
100
AcDbEntity
8
0
100
AcDbBlockEnd
0
BLOCK
5
20B
100
AcDbEntity
8
0
100
AcDbBlockBegin
2
DimnDraft3D3
70
0
10
0
20
0
30
0
3
DimnDraft3D3
0
MTEXT
5
201
100
AcDbEntity
8
2
62
256
6
ByLayer
370
18
48
1
60
0
100
AcDbMText
10
6.164902
20
-72.795396
30
0
210
0
220
0
230
1
1
\W0.5613;14
40
3.50012
41
0
44
1.084337
50
0
71
7
72
5
7
iso_b_vert
0
LINE
5
202
100
AcDbEntity
8
2
62
256
6
ByLayer
370
13
48
1
60
0
100
AcDbLine
10
14
20
-62.5875
30
0
11
14
21
-76.845426
31
0
39
0
210
0
220
0
230
1
0
LINE
5
203
100
AcDbEntity
8
2
62
256
6
ByLayer
370
13
48
1
60
0
100
AcDbLine
10
0
20
-1.5875
30
0
11
0
21
-76.845426
31
0
39
0
210
0
220
0
230
1
0
LINE
5
204
100
AcDbEntity
8
2
62
256
6
ByLayer
370
13
48
1
60
0
100
AcDbLine
10
14
20
-73.670426
30
0
11
0
21
-73.670426
31
0
39
0
210
0
220
0
230
1
0
LINE
5
205
100
AcDbEntity
8
2
62
256
6
ByLayer
370
13
48
1
60
0
100
AcDbLine
10
14
20
-73.670426
30
0
11
10.825002
21
-74.088423
31
0
39
0
210
0
220
0
230
1
0
LINE
5
206
100
AcDbEntity
8
2
62
256
6
ByLayer
370
13
48
1
60
0
100
AcDbLine
10
14
20
-73.670426
30
0
11
10.824999
21
-73.252429
31
0
39
0
210
0
220
0
230
1
0
LINE
5
207
100
AcDbEntity
8
2
62
256
6
ByLayer
370
13
48
1
60
0
100
AcDbLine
10
10.825002
20
-74.088423
30
0
11
10.824999
21
-73.252429
31
0
39
0
210
0
220
0
230
1
0
LINE
5
208
100
AcDbEntity
8
2
62
256
6
ByLayer
370
13
48
1
60
0
100
AcDbLine
10
0
20
-73.670426
30
0
11
3.174998
21
-73.252429
31
0
39
0
210
0
220
0
230
1
0
LINE
5
209
100
AcDbEntity
8
2
62
256
6
ByLayer
370
13
48
1
60
0
100
AcDbLine
10
0
20
-73.670426
30
0
11
3.175002
21
-74.088423
31
0
39
0
210
0
220
0
230
1
0
LINE
5
20A
100
AcDbEntity
8
2
62
256
6
ByLayer
370
13
48
1
60
0
100
AcDbLine
10
3.174998
20
-73.252429
30
0
11
3.175002
21
-74.088423
31
0
39
0
210
0
220
0
230
1
0
ENDBLK
5
20C
100
AcDbEntity
8
0
100
AcDbBlockEnd
0
BLOCK
5
219
100
AcDbEntity
8
0
100
AcDbBlockBegin
2
DimnDraft3D4
70
0
10
0
20
0
30
0
3
DimnDraft3D4
0
MTEXT
5
20F
100
AcDbEntity
8
SK2
62
256
6
ByLayer
370
18
48
1
60
0
100
AcDbMText
10
-17.584965
20
-1.353994
30
0
210
0
220
0
230
1
1
\W0.7183;40
40
3.50012
41
0
44
1.084337
50
90
71
7
72
5
7
iso_b_vert
0
LINE
5
210
100
AcDbEntity
8
SK2
62
256
6
ByLayer
370
13
48
1
60
0
100
AcDbLine
10
-1.0875
20
20
30
0
11
-19.884935
21
20
31
0
39
0
210
0
220
0
230
1
0
LINE
5
211
100
AcDbEntity
8
SK2
62
256
6
ByLayer
370
13
48
1
60
0
100
AcDbLine
10
-1.0875
20
-20
30
0
11
-19.884935
21
-20
31
0
39
0
210
0
220
0
230
1
0
LINE
5
212
100
AcDbEntity
8
SK2
62
256
6
ByLayer
370
13
48
1
60
0
100
AcDbLine
10
-16.709935
20
20
30
0
11
-16.709935
21
-20
31
0
39
0
210
0
220
0
230
1
0
LINE
5
213
100
AcDbEntity
8
SK2
62
256
6
ByLayer
370
13
48
1
60
0
100
AcDbLine
10
-16.709935
20
20
30
0
11
-16.291939
21
16.825002
31
0
39
0
210
0
220
0
230
1
0
LINE
5
214
100
AcDbEntity
8
SK2
62
256
6
ByLayer
370
13
48
1
60
0
100
AcDbLine
10
-16.709935
20
20
30
0
11
-17.127932
21
16.824998
31
0
39
0
210
0
220
0
230
1
0
LINE
5
215
100
AcDbEntity
8
SK2
62
256
6
ByLayer
370
13
48
1
60
0
100
AcDbLine
10
-16.291939
20
16.825002
30
0
11
-17.127932
21
16.824998
31
0
39
0
210
0
220
0
230
1
0
LINE
5
216
100
AcDbEntity
8
SK2
62
256
6
ByLayer
370
13
48
1
60
0
100
AcDbLine
10
-16.709935
20
-20
30
0
11
-17.127932
21
-16.825002
31
0
39
0
210
0
220
0
230
1
0
LINE
5
217
100
AcDbEntity
8
SK2
62
256
6
ByLayer
370
13
48
1
60
0
100
AcDbLine
10
-16.709935
20
-20
30
0
11
-16.291939
21
-16.824998
31
0
39
0
210
0
220
0
230
1
0
LINE
5
218
100
AcDbEntity
8
SK2
62
256
6
ByLayer
370
13
48
1
60
0
100
AcDbLine
10
-17.127932
20
-16.825002
30
0
11
-16.291939
21
-16.824998
31
0
39
0
210
0
220
0
230
1
0
ENDBLK
5
21A
100
AcDbEntity
8
0
100
AcDbBlockEnd
0
ENDSEC
0
SECTION
2
ENTITIES
0
ARC
5
124
100
AcDbEntity
8
1
62
256
6
ByLayer
370
18
48
1
60
0
100
AcDbCircle
39
0
10
0.240519
20
5.25
30
0
40
0.204499999999988
210
0
220
0
230
1
100
AcDbArc
50
300
51
60
0
ARC
5
125
100
AcDbEntity
8
1
62
256
6
ByLayer
370
18
48
1
60
0
100
AcDbCircle
39
0
10
-0.174981
20
4.60077
30
0
40
0.149999999999843
210
0
220
0
230
1
100
AcDbArc
50
120
51
180
0
ARC
5
126
100
AcDbEntity
8
1
62
256
6
ByLayer
370
18
48
1
60
0
100
AcDbCircle
39
0
10
-0.174981
20
4.39923
30
0
40
0.150000000000217
210
0
220
0
230
1
100
AcDbArc
50
180
51
240
0
ARC
5
127
100
AcDbEntity
8
1
62
256
6
ByLayer
370
18
48
1
60
0
100
AcDbCircle
39
0
10
0.240519
20
3.75
30
0
40
0.204500000000003
210
0
220
0
230
1
100
AcDbArc
50
300
51
60
0
ARC
5
128
100
AcDbEntity
8
1
62
256
6
ByLayer
370
18
48
1
60
0
100
AcDbCircle
39
0
10
-0.174981
20
3.10077
30
0
40
0.14999999999964
210
0
220
0
230
1
100
AcDbArc
50
120
51
180
0
ARC
5
129
100
AcDbEntity
8
1
62
256
6
ByLayer
370
18
48
1
60
0
100
AcDbCircle
39
0
10
-0.174981
20
2.89923
30
0
40
0.150000000000768
210
0
220
0
230
1
100
AcDbArc
50
180
51
240
0
ARC
5
12A
100
AcDbEntity
8
1
62
256
6
ByLayer
370
18
48
1
60
0
100
AcDbCircle
39
0
10
0.240519
20
2.25
30
0
40
0.204499999999997
210
0
220
0
230
1
100
AcDbArc
50
300
51
60
0
ARC
5
12B
100
AcDbEntity
8
1
62
256
6
ByLayer
370
18
48
1
60
0
100
AcDbCircle
39
0
10
-0.174981
20
1.60077
30
0
40
0.150000000000713
210
0
220
0
230
1
100
AcDbArc
50
120
51
180
0
ARC
5
12C
100
AcDbEntity
8
1
62
256
6
ByLayer
370
18
48
1
60
0
100
AcDbCircle
39
0
10
-0.174981
20
1.39923
30
0
40
0.150000000000799
210
0
220
0
230
1
100
AcDbArc
50
180
51
240
0
ARC
5
12D
100
AcDbEntity
8
1
62
256
6
ByLayer
370
18
48
1
60
0
100
AcDbCircle
39
0
10
0.240519
20
0.75
30
0
40
0.204500000000015
210
0
220
0
230
1
100
AcDbArc
50
300
51
60
0
ARC
5
12E
100
AcDbEntity
8
1
62
256
6
ByLayer
370
18
48
1
60
0
100
AcDbCircle
39
0
10
-0.174981
20
0.10077
30
0
40
0.150000000000333
210
0
220
0
230
1
100
AcDbArc
50
120
51
180
0
ARC
5
12F
100
AcDbEntity
8
1
62
256
6
ByLayer
370
18
48
1
60
0
100
AcDbCircle
39
0
10
-0.174981
20
-0.10077
30
0
40
0.150000000000783
210
0
220
0
230
1
100
AcDbArc
50
180
51
240
0
ARC
5
130
100
AcDbEntity
8
1
62
256
6
ByLayer
370
18
48
1
60
0
100
AcDbCircle
39
0
10
0.240519
20
-0.75
30
0
40
0.204499999999974
210
0
220
0
230
1
100
AcDbArc
50
300
51
60
0
ARC
5
131
100
AcDbEntity
8
1
62
256
6
ByLayer
370
18
48
1
60
0
100
AcDbCircle
39
0
10
-0.174981
20
-1.39923
30
0
40
0.150000000000321
210
0
220
0
230
1
100
AcDbArc
50
120
51
180
0
ARC
5
132
100
AcDbEntity
8
1
62
256
6
ByLayer
370
18
48
1
60
0
100
AcDbCircle
39
0
10
-0.174981
20
-1.60077
30
0
40
0.150000000000789
210
0
220
0
230
1
100
AcDbArc
50
180
51
240
0
ARC
5
133
100
AcDbEntity
8
1
62
256
6
ByLayer
370
18
48
1
60
0
100
AcDbCircle
39
0
10
0.240519
20
-2.25
30
0
40
0.204499999999988
210
0
220
0
230
1
100
AcDbArc
50
300
51
60
0
ARC
5
134
100
AcDbEntity
8
1
62
256
6
ByLayer
370
18
48
1
60
0
100
AcDbCircle
39
0
10
-0.174981
20
-2.89923
30
0
40
0.149999999999603
210
0
220
0
230
1
100
AcDbArc
50
120
51
180
0
ARC
5
135
100
AcDbEntity
8
1
62
256
6
ByLayer
370
18
48
1
60
0
100
AcDbCircle
39
0
10
-0.174981
20
-3.10077
30
0
40
0.150000000000321
210
0
220
0
230
1
100
AcDbArc
50
180
51
240
0
ARC
5
136
100
AcDbEntity
8
1
62
256
6
ByLayer
370
18
48
1
60
0
100
AcDbCircle
39
0
10
0.240519
20
-3.75
30
0
40
0.204499999999996
210
0
220
0
230
1
100
AcDbArc
50
300
51
60
0
ARC
5
137
100
AcDbEntity
8
1
62
256
6
ByLayer
370
18
48
1
60
0
100
AcDbCircle
39
0
10
-0.174981
20
-4.39923
30
0
40
0.150000000000425
210
0
220
0
230
1
100
AcDbArc
50
120
51
180
0
ARC
5
138
100
AcDbEntity
8
1
62
256
6
ByLayer
370
18
48
1
60
0
100
AcDbCircle
39
0
10
-0.174981
20
-4.60077
30
0
40
0.149999999999661
210
0
220
0
230
1
100
AcDbArc
50
180
51
240
0
ARC
5
139
100
AcDbEntity
8
1
62
256
6
ByLayer
370
18
48
1
60
0
100
AcDbCircle
39
0
10
0.240519
20
-5.25
30
0
40
0.20449999999999
210
0
220
0
230
1
100
AcDbArc
50
300
51
60
0
ARC
5
13A
100
AcDbEntity
8
1
62
256
6
ByLayer
370
18
48
1
60
0
100
AcDbCircle
39
0
10
2.17
20
-21.85
30
0
40
1.6
210
0
220
0
230
1
100
AcDbArc
50
0
51
90
0
ARC
5
13B
100
AcDbEntity
8
1
62
256
6
ByLayer
370
18
48
1
60
0
100
AcDbCircle
39
0
10
-0.174981
20
-16.60077
30
0
40
0.150000000000021
210
0
220
0
230
1
100
AcDbArc
50
180
51
240
0
ARC
5
13C
100
AcDbEntity
8
1
62
256
6
ByLayer
370
18
48
1
60
0
100
AcDbCircle
39
0
10
0.240519
20
-17.25
30
0
40
0.204499999999996
210
0
220
0
230
1
100
AcDbArc
50
300
51
60
0
ARC
5
13D
100
AcDbEntity
8
1
62
256
6
ByLayer
370
18
48
1
60
0
100
AcDbCircle
39
0
10
-0.174981
20
-17.89923
30
0
40
0.150000000000452
210
0
220
0
230
1
100
AcDbArc
50
120
51
180
0
ARC
5
13E
100
AcDbEntity
8
1
62
256
6
ByLayer
370
18
48
1
60
0
100
AcDbCircle
39
0
10
-0.174981
20
-18.10077
30
0
40
0.150000000000492
210
0
220
0
230
1
100
AcDbArc
50
180
51
240
0
ARC
5
13F
100
AcDbEntity
8
1
62
256
6
ByLayer
370
18
48
1
60
0
100
AcDbCircle
39
0
10
0.240519
20
-18.75
30
0
40
0.204500000000023
210
0
220
0
230
1
100
AcDbArc
50
300
51
60
0
ELLIPSE
5
140
100
AcDbEntity
8
1
62
256
6
ByLayer
370
18
48
1
60
0
100
AcDbEllipse
10
14
20
-35.515031
30
0
11
1.2
21
1.46952762458685E-16
31
0
210
0
220
0
230
-1
40
0.544639
41
0
42
6.28318530717959
0
ELLIPSE
5
141
100
AcDbEntity
8
1
62
256
6
ByLayer
370
18
48
1
60
0
100
AcDbEllipse
10
14
20
-35.515031
30
0
11
0.866025403784439
21
1.06054021204601E-16
31
0
210
0
220
0
230
-1
40
0.544639
41
0.706661608543829
42
1.75385915974042
0
ELLIPSE
5
142
100
AcDbEntity
8
1
62
256
6
ByLayer
370
18
48
1
60
0
100
AcDbEllipse
10
14
20
-35.515031
30
0
11
0.866025403784439
21
1.06054021204601E-16
31
0
210
0
220
0
230
-1
40
0.544639
41
1.75385915974042
42
2.80105671093702
0
ELLIPSE
5
143
100
AcDbEntity
8
1
62
256
6
ByLayer
370
18
48
1
60
0
100
AcDbEllipse
10
14
20
-35.515031
30
0
11
0.866025403784439
21
1.06054021204601E-16
31
0
210
0
220
0
230
-1
40
0.544639
41
2.80105671093702
42
-2.43493104504597
0
ELLIPSE
5
144
100
AcDbEntity
8
1
62
256
6
ByLayer
370
18
48
1
60
0
100
AcDbEllipse
10
14
20
-35.515031
30
0
11
0.866025403784439
21
1.06054021204601E-16
31
0
210
0
220
0
230
-1
40
0.544639
41
-2.43493104504597
42
-1.38773349384937
0
ELLIPSE
5
145
100
AcDbEntity
8
1
62
256
6
ByLayer
370
18
48
1
60
0
100
AcDbEllipse
10
14
20
-35.515031
30
0
11
0.866025403784439
21
1.06054021204601E-16
31
0
210
0
220
0
230
-1
40
0.544639
41
-1.38773349384937
42
-0.340535942652777
0
ELLIPSE
5
146
100
AcDbEntity
8
1
62
256
6
ByLayer
370
18
48
1
60
0
100
AcDbEllipse
10
14
20
-35.515031
30
0
11
0.866025403784439
21
1.06054021204601E-16
31
0
210
0
220
0
230
-1
40
0.544639
41
-0.340535942652777
42
0.706661608543829
0
ELLIPSE
5
147
100
AcDbEntity
8
1
62
256
6
ByLayer
370
18
48
1
60
0
100
AcDbEllipse
10
-112.3
20
5.561555
30
0
11
-2.94891266239756E-14
21
-160.536630305354
31
0
210
0
220
0
230
1
40
0.809784
41
1.389027815922
42
1.48089435054376
0
ELLIPSE
5
148
100
AcDbEntity
8
1
62
256
6
ByLayer
370
18
48
1
60
0
100
AcDbEllipse
10
-112.3
20
2.383524
30
0
11
-2.94891266417322E-14
21
-160.53663040202
31
0
210
0
220
0
230
1
40
0.809784
41
1.38902781602949
42
1.48089435059491
0
ELLIPSE
5
149
100
AcDbEntity
8
1
62
256
6
ByLayer
370
18
48
1
60
0
100
AcDbEllipse
10
140.3
20
-49.602313
30
0
11
129.999999581791
21
-1.47302959286526E-13
31
0
210
0
220
0
230
1
40
0.649408
41
2.95982414247858
42
3.01853156193652
0
ELLIPSE
5
14A
100
AcDbEntity
8
1
62
256
6
ByLayer
370
18
48
1
60
0
100
AcDbEllipse
10
-112.3
20
-49.602313
30
0
11
129.999999622873
21
-1.47302959333076E-13
31
0
210
0
220
0
230
1
40
0.649408
41
0.123061091634593
42
0.181768511082952
0
ELLIPSE
5
14B
100
AcDbEntity
8
1
62
256
6
ByLayer
370
18
48
1
60
0
100
AcDbEllipse
10
14
20
-35.515031
30
0
11
1.25
21
1.53075794227797E-16
31
0
210
0
220
0
230
-1
40
0.544639
41
0
42
6.28318530717959
0
ELLIPSE
5
14C
100
AcDbEntity
8
1
62
256
6
ByLayer
370
18
48
1
60
0
100
AcDbEllipse
10
140.300002
20
-46.344109
30
0
11
130.000002302973
21
-1.47302962369896E-13
31
0
210
0
220
0
230
1
40
0.445229
41
3.01853156320706
42
3.05169067814427
0
ELLIPSE
5
14D
100
AcDbEntity
8
1
62
256
6
ByLayer
370
18
48
1
60
0
100
AcDbEllipse
10
-112.300003
20
-46.344109
30
0
11
130.000002742627
21
-1.47302962868068E-13
31
0
210
0
220
0
230
1
40
0.445229
41
0.0899019752964512
42
0.123061090176606
0
ELLIPSE
5
14E
100
AcDbEntity
8
1
62
256
6
ByLayer
370
18
48
1
60
0
100
AcDbEllipse
10
13.295549
20
-43.632184
30
0
11
1.50116067938822
21
-0.0381746852422899
31
0
210
0
220
0
230
1
40
0.574205
41
0.166034370899542
42
3.06407548873313
0
ELLIPSE
5
14F
100
AcDbEntity
8
1
62
256
6
ByLayer
370
18
48
1
60
0
100
AcDbEllipse
10
13.029887
20
-40.697529
30
0
11
1.49813538022934
21
0.196374199006757
31
0
210
0
220
0
230
1
40
0.757239
41
0
42
6.28318530717959
0
ELLIPSE
5
150
100
AcDbEntity
8
1
62
256
6
ByLayer
370
18
48
1
60
0
100
AcDbEllipse
10
15.420622
20
-42.263726
30
0
11
1.50110406334883
21
-0.0664447837635587
31
0
210
0
220
0
230
1
40
0.658678
41
0
42
6.28318530717959
0
ELLIPSE
5
151
100
AcDbEntity
8
1
62
256
6
ByLayer
370
18
48
1
60
0
100
AcDbEllipse
10
13.175102
20
-39.843457
30
0
11
0.223145022297162
21
-6.05042148826951
31
0
210
0
220
0
230
1
40
0.247699
41
-0.205626231734808
42
0.187355997938687
0
ELLIPSE
5
152
100
AcDbEntity
8
1
62
256
6
ByLayer
370
18
48
1
60
0
100
AcDbEllipse
10
13.144828
20
-48.712799
30
0
11
0.150000000000028
21
-1.69964953569722E-16
31
0
210
0
220
0
230
1
40
0.839575
41
0.349065850399609
42
1.39626340159569
0
ELLIPSE
5
153
100
AcDbEntity
8
1
62
256
6
ByLayer
370
18
48
1
60
0
100
AcDbEllipse
10
13.475
20
-48.737986
30
0
11
0.150000000000381
21
-1.69964953570122E-16
31
0
210
0
220
0
230
1
40
0.839575
41
-2.79252680318888
42
-1.5707963267949
0
ELLIPSE
5
154
100
AcDbEntity
8
1
62
256
6
ByLayer
370
18
48
1
60
0
100
AcDbEllipse
10
14.525
20
-48.737986
30
0
11
0.150000000000344
21
-1.6996495357008E-16
31
0
210
0
220
0
230
1
40
0.839575
41
-1.5707963267949
42
-0.349065850400702
0
ELLIPSE
5
155
100
AcDbEntity
8
1
62
256
6
ByLayer
370
18
48
1
60
0
100
AcDbEllipse
10
14.855172
20
-48.712799
30
0
11
0.149999999999726
21
-1.6996495356938E-16
31
0
210
0
220
0
230
1
40
0.839575
41
1.74532925199249
42
2.79252680319011
0
POINT
5
6C
100
AcDbEntity
8
1
62
256
6
ByLayer
370
13
48
1
60
1
100
AcDbPoint
10
211.035849
20
207.552409
30
0
39
0
210
0
220
0
230
1
50
360
0
POINT
5
6E
100
AcDbEntity
8
1
62
256
6
ByLayer
370
13
48
1
60
1
100
AcDbPoint
10
227.035849
20
207.552409
30
0
39
0
210
0
220
0
230
1
50
360
0
POINT
5
6F
100
AcDbEntity
8
1
62
256
6
ByLayer
370
13
48
1
60
1
100
AcDbPoint
10
203.710868
20
174.696231
30
0
39
0
210
0
220
0
230
1
50
360
0
POINT
5
70
100
AcDbEntity
8
1
62
256
6
ByLayer
370
13
48
1
60
1
100
AcDbPoint
10
203.710868
20
169.819684
30
0
39
0
210
0
220
0
230
1
50
360
0
POINT
5
71
100
AcDbEntity
8
1
62
256
6
ByLayer
370
13
48
1
60
1
100
AcDbPoint
10
204.276427
20
159.551311
30
0
39
0
210
0
220
0
230
1
50
360
0
POINT
5
72
100
AcDbEntity
8
1
62
256
6
ByLayer
370
13
48
1
60
1
100
AcDbPoint
10
204.544269
20
167.976438
30
0
39
0
210
0
220
0
230
1
50
360
0
POINT
5
73
100
AcDbEntity
8
1
62
256
6
ByLayer
370
13
48
1
60
1
100
AcDbPoint
10
212.535849
20
214.919701
30
0
39
0
210
0
220
0
230
1
50
360
0
POINT
5
74
100
AcDbEntity
8
1
62
256
6
ByLayer
370
13
48
1
60
1
100
AcDbPoint
10
199.175441
20
214.919701
30
0
39
0
210
0
220
0
230
1
50
360
0
POINT
5
75
100
AcDbEntity
8
80
62
256
6
ByLayer
370
18
48
1
60
0
100
AcDbPoint
10
0
20
0
30
0
39
0
210
0
220
0
230
1
50
360
0
POINT
5
77
100
AcDbEntity
8
81
62
256
6
ByLayer
370
18
48
1
60
0
100
AcDbPoint
10
14
20
-61
30
0
39
0
210
0
220
0
230
1
50
360
0
SPLINE
5
156
100
AcDbEntity
8
1
62
256
6
ByLayer
370
18
48
1
60
0
100
AcDbSpline
70
4
71
8
72
18
73
9
40
0
40
0
40
0
40
0
40
0
40
0
40
0
40
0
40
0
40
1
40
1
40
1
40
1
40
1
40
1
40
1
40
1
40
1
41
1
10
10.9000002475711
20
-52.46373835154
30
0
41
1
10
10.9000002475711
20
-52.58883613876
30
0
41
1
10
10.9000002475711
20
-52.72157795521
30
0
41
1
10
10.9000002475711
20
-52.86085235942
30
0
41
1
10
10.9000002475711
20
-53.00545281611
30
0
41
1
10
10.9000002475711
20
-53.15409844817
30
0
41
1
10
10.9000002475711
20
-53.30545773803
30
0
41
1
10
10.9000002475711
20
-53.45817385767
30
0
41
1
10
10.9000002475711
20
-53.61088997724
30
0
0
SPLINE
5
157
100
AcDbEntity
8
1
62
256
6
ByLayer
370
18
48
1
60
0
100
AcDbSpline
70
4
71
8
72
18
73
9
40
0
40
0
40
0
40
0
40
0
40
0
40
0
40
0
40
0
40
1
40
1
40
1
40
1
40
1
40
1
40
1
40
1
40
1
41
1
10
17.1000002475711
20
-52.46373835154
30
0
41
1
10
17.1000002475711
20
-52.58883613876
30
0
41
1
10
17.1000002475711
20
-52.72157795521
30
0
41
1
10
17.1000002475711
20
-52.86085235942
30
0
41
1
10
17.1000002475711
20
-53.00545281611
30
0
41
1
10
17.1000002475711
20
-53.15409844817
30
0
41
1
10
17.1000002475711
20
-53.30545773803
30
0
41
1
10
17.1000002475711
20
-53.45817385767
30
0
41
1
10
17.1000002475711
20
-53.61088997724
30
0
0
SPLINE
5
158
100
AcDbEntity
8
1
62
256
6
ByLayer
370
18
48
1
60
0
100
AcDbSpline
70
4
71
3
72
12
73
8
40
0
40
0
40
0
40
0
40
0.5
40
0.5
40
0.75
40
0.75
40
1
40
1
40
1
40
1
41
1
10
14.1576530639829
20
-35.0512405533602
30
0
41
1
10
14.0243687446988
20
-35.0427282813034
30
0
41
1
10
13.8890860353337
20
-35.0469688934238
30
0
41
1
10
13.6808807453571
20
-35.0870323720912
30
0
41
1
10
13.6115532214243
20
-35.1057734740219
30
0
41
1
10
13.475366295203
20
-35.1516321659583
30
0
41
1
10
13.4080835087163
20
-35.1787595097236
30
0
41
1
10
13.3413584760298
20
-35.2087751188664
30
0
0
SPLINE
5
159
100
AcDbEntity
8
1
62
256
6
ByLayer
370
18
48
1
60
0
100
AcDbSpline
70
4
71
3
72
14
73
10
40
0
40
0
40
0
40
0
40
0.25
40
0.25
40
0.5
40
0.5
40
0.75
40
0.75
40
1
40
1
40
1
40
1
41
1
10
14.1576530639822
20
-35.0512405533642
30
0
41
1
10
14.2112303292283
20
-35.0590974947069
30
0
41
1
10
14.2661042383789
20
-35.070308666915
30
0
41
1
10
14.3761002958305
20
-35.1018998468911
30
0
41
1
10
14.4314062709753
20
-35.1223439955229
30
0
41
1
10
14.5427397627365
20
-35.1741242130555
30
0
41
1
10
14.5991626131829
20
-35.2057835037823
30
0
41
1
10
14.7091294758888
20
-35.2766067933249
30
0
41
1
10
14.7630610659828
20
-35.3157973952798
30
0
41
1
10
14.8162945879521
20
-35.3574959512928
30
0
0
SPLINE
5
15A
100
AcDbEntity
8
1
62
256
6
ByLayer
370
18
48
1
60
0
100
AcDbSpline
70
4
71
3
72
12
73
8
40
0
40
0
40
0
40
0
40
0.499999999999995
40
0.499999999999995
40
0.749999999999997
40
0.749999999999997
40
1
40
1
40
1
40
1
41
1
10
13.3413584760304
20
-35.2087751188641
30
0
41
1
10
13.315616934158
20
-35.2502681302459
30
0
41
1
10
13.2894894380923
20
-35.3052637768857
30
0
41
1
10
13.2492782173069
20
-35.4234412047005
30
0
41
1
10
13.2358888150891
20
-35.4681924367274
30
0
41
1
10
13.2095866853065
20
-35.5651454050416
30
0
41
1
10
13.1965921884674
20
-35.617515739332
30
0
41
1
10
13.183705412048
20
-35.6725650822993
30
0
0
SPLINE
5
15B
100
AcDbEntity
8
1
62
256
6
ByLayer
370
18
48
1
60
0
100
AcDbSpline
70
4
71
3
72
12
73
8
40
0
40
0
40
0
40
0
40
0.499999999999994
40
0.499999999999994
40
0.749999999999997
40
0.749999999999997
40
1
40
1
40
1
40
1
41
1
10
14.6586415239698
20
-35.821285914722
30
0
41
1
10
14.6843830658421
20
-35.7113239722692
30
0
41
1
10
14.7105105619079
20
-35.6125938347237
30
0
41
1
10
14.7507217826933
20
-35.4941813714625
30
0
41
1
10
14.7641111849111
20
-35.460153666904
30
0
41
1
10
14.7904133146937
20
-35.4023533624061
30
0
41
1
10
14.8034078115327
20
-35.3782682563568
30
0
41
1
10
14.8162945879521
20
-35.3574959512906
30
0
0
SPLINE
5
15C
100
AcDbEntity
8
1
62
256
6
ByLayer
370
18
48
1
60
0
100
AcDbSpline
70
4
71
3
72
14
73
10
40
0
40
0
40
0
40
0
40
0.25
40
0.25
40
0.5
40
0.5
40
0.75
40
0.75
40
1
40
1
40
1
40
1
41
1
10
13.1837054120481
20
-35.672565082301
30
0
41
1
10
13.2372826772942
20
-35.6804220236436
30
0
41
1
10
13.2921565864448
20
-35.6916331958518
30
0
41
1
10
13.4021526438964
20
-35.7232243758279
30
0
41
1
10
13.4574586190412
20
-35.7436685244597
30
0
41
1
10
13.5687921108024
20
-35.7954487419923
30
0
41
1
10
13.6252149612488
20
-35.8271080327191
30
0
41
1
10
13.7351818239547
20
-35.8979313222616
30
0
41
1
10
13.7891134140486
20
-35.9371219242166
30
0
41
1
10
13.842346936018
20
-35.9788204802296
30
0
0
SPLINE
5
15D
100
AcDbEntity
8
1
62
256
6
ByLayer
370
18
48
1
60
0
100
AcDbSpline
70
4
71
3
72
12
73
8
40
0
40
0
40
0
40
0
40
0.500000000000002
40
0.500000000000002
40
0.750000000000001
40
0.750000000000001
40
1
40
1
40
1
40
1
41
1
10
13.8423469360173
20
-35.9788204802259
30
0
41
1
10
13.9756312553013
20
-35.9188638212116
30
0
41
1
10
14.1109139646664
20
-35.8708887181856
30
0
41
1
10
14.3191192546431
20
-35.8305902040718
30
0
41
1
10
14.3884467785758
20
-35.8225726296095
30
0
41
1
10
14.5246337047972
20
-35.8158666014895
30
0
41
1
10
14.5919164912839
20
-35.8170244859652
30
0
41
1
10
14.6586415239703
20
-35.8212859147235
30
0
0
SPLINE
5
15E
100
AcDbEntity
8
1
62
256
6
ByLayer
370
18
48
1
60
0
100
AcDbSpline
70
4
71
11
72
24
73
12
40
0
40
0
40
0
40
0
40
0
40
0
40
0
40
0
40
0
40
0
40
0
40
0
40
1
40
1
40
1
40
1
40
1
40
1
40
1
40
1
40
1
40
1
40
1
40
1
41
1
10
16.8087491139211
20
-50.56750549571
30
0
41
1
10
16.807162450961
20
-50.56750549571
30
0
41
1
10
16.8055757880111
20
-50.56754504476
30
0
41
1
10
16.8039896621011
20
-50.56762414285
30
0
41
1
10
16.8024046102411
20
-50.56774277325
30
0
41
1
10
16.8008211691811
20
-50.56790090249
30
0
41
1
10
16.7992398750611
20
-50.56809848039
30
0
41
1
10
16.7976612631611
20
-50.56833544007
30
0
41
1
10
16.796085867591
20
-50.56861169799
30
0
41
1
10
16.7945142209911
20
-50.568927154
30
0
41
1
10
16.7929468542611
20
-50.56928169139
30
0
41
1
10
16.7913842962911
20
-50.56967517698
30
0
0
SPLINE
5
15F
100
AcDbEntity
8
1
62
256
6
ByLayer
370
18
48
1
60
0
100
AcDbSpline
70
4
71
11
72
24
73
12
40
0
40
0
40
0
40
0
40
0
40
0
40
0
40
0
40
0
40
0
40
0
40
0
40
1
40
1
40
1
40
1
40
1
40
1
40
1
40
1
40
1
40
1
40
1
40
1
41
1
10
14.8999340813701
20
-51.04598288235
30
0
41
1
10
14.895551234341
20
-51.04708657716
30
0
41
1
10
14.8912062204731
20
-51.04849669951
30
0
41
1
10
14.8869107107871
20
-51.05021031036
30
0
41
1
10
14.882676250373
20
-51.05222345074
30
0
41
1
10
14.8785142084431
20
-51.05453115426
30
0
41
1
10
14.874435729098
20
-51.05712746552
30
0
41
1
10
14.87045168322
20
-51.06000546426
30
0
41
1
10
14.866572621868
20
-51.06315729498
30
0
41
1
10
14.8628087315531
20
-51.06657420194
30
0
41
1
10
14.859169791752
20
-51.07024656919
30
0
41
1
10
14.855665134967
20
-51.07416396513
30
0
0
SPLINE
5
160
100
AcDbEntity
8
1
62
256
6
ByLayer
370
18
48
1
60
0
100
AcDbSpline
70
4
71
2
72
6
73
3
40
0
40
0
40
0
40
1
40
1
40
1
41
1
10
14.7330855993941
20
-51.2347269968571
30
0
41
1
10
14.7432340534729
20
-51.2000203688437
30
0
41
1
10
14.7638878157181
20
-51.176749786949
30
0
0
SPLINE
5
161
100
AcDbEntity
8
1
62
256
6
ByLayer
370
18
48
1
60
0
100
AcDbSpline
70
4
71
5
72
12
73
6
40
0
40
0
40
0
40
0
40
0
40
0
40
1
40
1
40
1
40
1
40
1
40
1
41
1
10
14.677732771273
20
-51.46155550938
30
0
41
1
10
14.6869002244661
20
-51.41589653154
30
0
41
1
10
14.6971492772541
20
-51.37036469313
30
0
41
1
10
14.7079718961091
20
-51.32498448326
30
0
41
1
10
14.7200723638881
20
-51.27975480636
30
0
41
1
10
14.7330855994011
20
-51.23472699687
30
0
0
SPLINE
5
162
100
AcDbEntity
8
1
62
256
6
ByLayer
370
18
48
1
60
0
100
AcDbSpline
70
4
71
3
72
18
73
14
40
0
40
0
40
0
40
0
40
0.103739464592859
40
0.199808779020836
40
0.28808073633596
40
0.368515733443443
40
0.441135514245711
40
0.506008928281291
40
0.624127612812564
40
0.73098122424742
40
0.827902228243958
40
0.91674348216654
40
1
40
1
40
1
40
1
41
1
10
14.677732771309
20
-51.46155550937
30
0
41
1
10
14.6752189363896
20
-51.4728081803335
30
0
41
1
10
14.670377131124
20
-51.4944815372835
30
0
41
1
10
14.6604102052403
20
-51.5251533923949
30
0
41
1
10
14.6493280424804
20
-51.5529203864591
30
0
41
1
10
14.6373642514751
20
-51.5777391797719
30
0
41
1
10
14.6249550189852
20
-51.5996276617821
30
0
41
1
10
14.60848553624
20
-51.6244727552058
30
0
41
1
10
14.5865863724683
20
-51.6510270850484
30
0
41
1
10
14.5574324108227
20
-51.6775135104873
30
0
41
1
10
14.5264767279041
20
-51.69767807957
30
0
41
1
10
14.4943645957628
20
-51.7121608105203
30
0
41
1
10
14.4717002618989
20
-51.7165165078986
30
0
41
1
10
14.460735834543
20
-51.71862368333
30
0
0
SPLINE
5
163
100
AcDbEntity
8
1
62
256
6
ByLayer
370
18
48
1
60
0
100
AcDbSpline
70
4
71
5
72
12
73
6
40
0
40
0
40
0
40
0
40
0
40
0
40
1
40
1
40
1
40
1
40
1
40
1
41
1
10
14.4607358346291
20
-51.71862368339
30
0
41
1
10
14.4229217842241
20
-51.7236829194
30
0
41
1
10
14.384741864009
20
-51.72732943722
30
0
41
1
10
14.3467380183791
20
-51.73015907185
30
0
41
1
10
14.308315358216
20
-51.73135530433
30
0
41
1
10
14.270000248269
20
-51.73135530418
30
0
0
SPLINE
5
164
100
AcDbEntity
8
1
62
256
6
ByLayer
370
18
48
1
60
0
100
AcDbSpline
70
4
71
5
72
12
73
6
40
0
40
0
40
0
40
0
40
0
40
0
40
1
40
1
40
1
40
1
40
1
40
1
41
1
10
13.5392646605131
20
-51.71862368339
30
0
41
1
10
13.577078710918
20
-51.7236829194
30
0
41
1
10
13.6152586311331
20
-51.72732943722
30
0
41
1
10
13.6532624767631
20
-51.73015907185
30
0
41
1
10
13.6916851369261
20
-51.73135530433
30
0
41
1
10
13.7300002468731
20
-51.73135530418
30
0
0
SPLINE
5
165
100
AcDbEntity
8
1
62
256
6
ByLayer
370
18
48
1
60
0
100
AcDbSpline
70
4
71
2
72
10
73
7
40
0
40
0
40
0
40
0.5
40
0.5
40
0.75
40
0.75
40
1
40
1
40
1
41
1
10
13.3222677238331
20
-51.4615555093678
30
0
41
1
10
13.3406646270558
20
-51.5527325897192
30
0
41
1
10
13.3883456602581
20
-51.6191689906524
30
0
41
1
10
13.4160452182598
20
-51.6577641891513
30
0
41
1
10
13.4513471740555
20
-51.6829431154559
30
0
41
1
10
13.4923931658352
20
-51.7122189439143
30
0
41
1
10
13.5392646605991
20
-51.718623683329
30
0
0
SPLINE
5
166
100
AcDbEntity
8
1
62
256
6
ByLayer
370
18
48
1
60
0
100
AcDbSpline
70
4
71
5
72
12
73
6
40
0
40
0
40
0
40
0
40
0
40
0
40
1
40
1
40
1
40
1
40
1
40
1
41
1
10
13.3222677238691
20
-51.46155550938
30
0
41
1
10
13.3131002706761
20
-51.41589653154
30
0
41
1
10
13.302851217888
20
-51.37036469313
30
0
41
1
10
13.292028599033
20
-51.32498448326
30
0
41
1
10
13.279928131254
20
-51.27975480636
30
0
41
1
10
13.266914895741
20
-51.23472699687
30
0
0
SPLINE
5
167
100
AcDbEntity
8
1
62
256
6
ByLayer
370
18
48
1
60
0
100
AcDbSpline
70
4
71
3
72
9
73
5
40
0
40
0
40
0
40
0
40
0.555143750782279
40
1
40
1
40
1
40
1
41
1
10
13.2669168701643
20
-51.23472699686
30
0
41
1
10
13.2630763594347
20
-51.2233271695244
30
0
41
1
10
13.2561583121284
20
-51.2027922588467
30
0
41
1
10
13.242283729468
20
-51.1847679938648
30
0
41
1
10
13.2361115346662
20
-51.17674978695
30
0
0
SPLINE
5
168
100
AcDbEntity
8
1
62
256
6
ByLayer
370
18
48
1
60
0
100
AcDbSpline
70
4
71
11
72
24
73
12
40
0
40
0
40
0
40
0
40
0
40
0
40
0
40
0
40
0
40
0
40
0
40
0
40
1
40
1
40
1
40
1
40
1
40
1
40
1
40
1
40
1
40
1
40
1
40
1
41
1
10
13.100066413772
20
-51.04598288235
30
0
41
1
10
13.1044492608011
20
-51.04708657716
30
0
41
1
10
13.108794274669
20
-51.04849669951
30
0
41
1
10
13.1130897843551
20
-51.05021031036
30
0
41
1
10
13.1173242447691
20
-51.05222345074
30
0
41
1
10
13.121486286699
20
-51.05453115426
30
0
41
1
10
13.1255647660441
20
-51.05712746552
30
0
41
1
10
13.1295488119221
20
-51.06000546426
30
0
41
1
10
13.1334278732741
20
-51.06315729498
30
0
41
1
10
13.137191763589
20
-51.06657420194
30
0
41
1
10
13.1408307033901
20
-51.07024656919
30
0
41
1
10
13.1443353601751
20
-51.07416396513
30
0
0
SPLINE
5
169
100
AcDbEntity
8
1
62
256
6
ByLayer
370
18
48
1
60
0
100
AcDbSpline
70
4
71
11
72
24
73
12
40
0
40
0
40
0
40
0
40
0
40
0
40
0
40
0
40
0
40
0
40
0
40
0
40
1
40
1
40
1
40
1
40
1
40
1
40
1
40
1
40
1
40
1
40
1
40
1
41
1
10
11.1912513812211
20
-50.56750549571
30
0
41
1
10
11.1928380441811
20
-50.56750549571
30
0
41
1
10
11.1944247071311
20
-50.56754504476
30
0
41
1
10
11.196010833041
20
-50.56762414285
30
0
41
1
10
11.1975958849011
20
-50.56774277325
30
0
41
1
10
11.199179325961
20
-50.56790090249
30
0
41
1
10
11.200760620081
20
-50.56809848039
30
0
41
1
10
11.2023392319811
20
-50.56833544007
30
0
41
1
10
11.2039146275511
20
-50.56861169799
30
0
41
1
10
11.205486274151
20
-50.568927154
30
0
41
1
10
11.207053640881
20
-50.56928169139
30
0
41
1
10
11.2086161988511
20
-50.56967517698
30
0
0
SPLINE
5
16A
100
AcDbEntity
8
1
62
256
6
ByLayer
370
18
48
1
60
0
100
AcDbSpline
70
4
71
2
72
6
73
3
40
0
40
0
40
0
40
1
40
1
40
1
41
1
10
10.8551043071768
20
-54.4628184855278
30
0
41
1
10
10.8998065693333
20
-54.4065303801887
30
0
41
1
10
10.9000002475711
20
-54.33412745616
30
0
0
SPLINE
5
16B
100
AcDbEntity
8
1
62
256
6
ByLayer
370
18
48
1
60
0
100
AcDbSpline
70
4
71
3
72
12
73
8
40
0
40
0
40
0
40
0
40
0.147996116890278
40
0.32195122448285
40
0.521908954896899
40
0.747911058510297
40
1
40
1
40
1
40
1
41
1
10
17.144896250245
20
-54.4628185635107
30
0
41
1
10
17.1407817489357
20
-54.4573393632193
30
0
41
1
10
17.1318310496707
20
-54.4454198934383
30
0
41
1
10
17.1200391107152
20
-54.4242507145139
30
0
41
1
10
17.1095409167345
20
-54.3985090980331
30
0
41
1
10
17.1016396077674
20
-54.3679477123165
30
0
41
1
10
17.100566223884
20
-54.345803635639
30
0
41
1
10
17.1000002475711
20
-54.33412745616
30
0
0
SPLINE
5
16C
100
AcDbEntity
8
1
62
256
6
ByLayer
370
18
48
1
60
0
100
AcDbSpline
70
4
71
9
72
20
73
10
40
0
40
0
40
0
40
0
40
0
40
0
40
0
40
0
40
0
40
0
40
1
40
1
40
1
40
1
40
1
40
1
40
1
40
1
40
1
40
1
41
1
10
14.000000495142
20
-61
30
0
41
1
10
15.0039295111265
20
-60.9999996922004
30
0
41
1
10
16.0078652218821
20
-60.7182968474212
30
0
41
1
10
16.9214393032874
20
-60.1548828693006
30
0
41
1
10
17.6543841167599
20
-59.3435807895343
30
0
41
1
10
18.1314099846818
20
-58.3519373481853
30
0
41
1
10
18.307876824845
20
-57.2729324274268
30
0
41
1
10
18.1778807748795
20
-56.2074844913861
30
0
41
1
10
17.7714002245051
20
-55.2472726754994
30
0
41
1
10
17.14481839674
20
-54.4628807486277
30
0
0
SPLINE
5
16D
100
AcDbEntity
8
1
62
256
6
ByLayer
370
18
48
1
60
0
100
AcDbSpline
70
4
71
9
72
20
73
10
40
0
40
0
40
0
40
0
40
0
40
0
40
0
40
0
40
0
40
0
40
1
40
1
40
1
40
1
40
1
40
1
40
1
40
1
40
1
40
1
41
1
10
14.0000000000001
20
-61
30
0
41
1
10
12.9960709729229
20
-60.9999996922004
30
0
41
1
10
11.9921352510744
20
-60.718296841196
30
0
41
1
10
11.0785611615717
20
-60.1548828506246
30
0
41
1
10
10.3456163459881
20
-59.3435807536771
30
0
41
1
10
9.86859048410633
20
-58.3519372934006
30
0
41
1
10
9.69212365859809
20
-57.2729323558933
30
0
41
1
10
9.82211973031716
20
-56.207484408979
30
0
41
1
10
10.2286003065676
20
-55.2472725906221
30
0
41
1
10
10.8551821607117
20
-54.462880670625
30
0
0
SPLINE
5
16E
100
AcDbEntity
8
1
62
256
6
ByLayer
370
18
48
1
60
0
100
AcDbSpline
70
4
71
9
72
20
73
10
40
0
40
0
40
0
40
0
40
0
40
0
40
0
40
0
40
0
40
0
40
1
40
1
40
1
40
1
40
1
40
1
40
1
40
1
40
1
40
1
41
1
10
10.8183747197337
20
-30.5596635216397
30
0
41
1
10
10.4568057596541
20
-31.0262841896005
30
0
41
1
10
10.1722263571026
20
-31.55256148066
30
0
41
1
10
9.97588565123868
20
-32.1239779282514
30
0
41
1
10
9.87583887527765
20
-32.7235413148125
30
0
41
1
10
9.87629404344639
20
-33.3326278150253
30
0
41
1
10
9.97723765752573
20
-33.9320408833142
30
0
41
1
10
10.1744332983586
20
-34.5031629799253
30
0
41
1
10
10.4597998091013
20
-35.0290139628339
30
0
41
1
10
10.8220663613485
20
-35.4950932219037
30
0
0
SPLINE
5
16F
100
AcDbEntity
8
1
62
256
6
ByLayer
370
18
48
1
60
0
100
AcDbSpline
70
4
71
9
72
20
73
10
40
0
40
0
40
0
40
0
40
0
40
0
40
0
40
0
40
0
40
0
40
1
40
1
40
1
40
1
40
1
40
1
40
1
40
1
40
1
40
1
41
1
10
17.1816257142591
20
-30.5596634427239
30
0
41
1
10
17.5431946859126
20
-31.0262841017165
30
0
41
1
10
17.8277741015178
20
-31.5525613857174
30
0
41
1
10
18.0241148215548
20
-32.1239778284389
30
0
41
1
10
18.1241616123871
20
-32.7235412125185
30
0
41
1
10
18.1237064593259
20
-33.3326277127426
30
0
41
1
10
18.0227628601141
20
-33.9320407835351
30
0
41
1
10
17.8255672334473
20
-34.5031628850375
30
0
41
1
10
17.5402007357475
20
-35.0290138750242
30
0
41
1
10
17.1779341950607
20
-35.4950931430795
30
0
0
SPLINE
5
170
100
AcDbEntity
8
1
62
256
6
ByLayer
370
18
48
1
60
0
100
AcDbSpline
70
4
71
3
72
8
73
4
40
0
40
0
40
0
40
0
40
1
40
1
40
1
40
1
41
1
10
0.342769052838321
20
-9.92710219507401
30
0
41
1
10
0.200228104510103
20
-10.0093982499619
30
0
41
1
10
0.0693189021619389
20
-10.084978713177
30
0
41
1
10
-0.0469703231316601
20
-10.1521183287041
30
0
0
SPLINE
5
171
100
AcDbEntity
8
1
62
256
6
ByLayer
370
18
48
1
60
0
100
AcDbSpline
70
4
71
3
72
8
73
4
40
0
40
0
40
0
40
0
40
1
40
1
40
1
40
1
41
1
10
0.126148905032636
20
-5.55216789572151
30
0
41
1
10
0.0001260536855057
20
-5.62492722287081
30
0
41
1
10
-0.12529012920433
20
-5.697336289823
30
0
41
1
10
-0.249980947161589
20
-5.76932656713609
30
0
0
SPLINE
5
172
100
AcDbEntity
8
1
62
256
6
ByLayer
370
18
48
1
60
0
100
AcDbSpline
70
4
71
3
72
10
73
6
40
0
40
0
40
0
40
0
40
0.5
40
0.5
40
1
40
1
40
1
40
1
41
1
10
-0.324980947161635
20
-5.89923037770382
30
0
41
1
10
-0.324980947161635
20
-5.86925980150144
30
0
41
1
10
-0.315419205835042
20
-5.84050503820623
30
0
41
1
10
-0.287575493106857
20
-5.79678996467402
30
0
41
1
10
-0.269423016056408
20
-5.78055145084608
30
0
41
1
10
-0.249980947161618
20
-5.76932656713606
30
0
0
SPLINE
5
173
100
AcDbEntity
8
1
62
256
6
ByLayer
370
18
48
1
60
0
100
AcDbSpline
70
4
71
3
72
10
73
6
40
0
40
0
40
0
40
0
40
0.5
40
0.5
40
1
40
1
40
1
40
1
41
1
10
-0.249980947161674
20
-6.23067343286397
30
0
41
1
10
-0.269221301634218
20
-6.21956500902994
30
0
41
1
10
-0.287683543961549
20
-6.20323581555749
30
0
41
1
10
-0.315955426925626
20
-6.15845317404336
30
0
41
1
10
-0.324980948528577
20
-6.1297133937862
30
0
41
1
10
-0.324980947161635
20
-6.10076961521227
30
0
0
SPLINE
5
174
100
AcDbEntity
8
1
62
256
6
ByLayer
370
18
48
1
60
0
100
AcDbSpline
70
4
71
3
72
8
73
4
40
0
40
0
40
0
40
0
40
1
40
1
40
1
40
1
41
1
10
-0.249980947161589
20
-6.23067343286402
30
0
41
1
10
-0.0532711848776728
20
-6.34424386707087
30
0
41
1
10
0.144388484030287
20
-6.45836273012281
30
0
41
1
10
0.342769052838435
20
-6.57289780492618
30
0
0
SPLINE
5
175
100
AcDbEntity
8
1
62
256
6
ByLayer
370
18
48
1
60
0
100
AcDbSpline
70
4
71
3
72
18
73
14
40
0
40
0
40
0
40
0
40
0.249999999999983
40
0.249999999999983
40
0.374999999999982
40
0.374999999999982
40
0.49999999999998
40
0.49999999999998
40
0.624999999999979
40
0.624999999999979
40
0.749999999999977
40
0.749999999999977
40
1
40
1
40
1
40
1
41
1
10
0.3427690528396
20
-6.57289780491917
30
0
41
1
10
0.370516593263943
20
-6.5889178548521
30
0
41
1
10
0.397303986572211
20
-6.61292698995098
30
0
41
1
10
0.427069711749255
20
-6.66393798432316
30
0
41
1
10
0.434841942706157
20
-6.683025676819
30
0
41
1
10
0.444310147221302
20
-6.72323929480859
30
0
41
1
10
0.445902567674125
20
-6.74420182497156
30
0
41
1
10
0.443169313479928
20
-6.78389511560468
30
0
41
1
10
0.438900918789216
20
-6.80280522841383
30
0
41
1
10
0.426637846290561
20
-6.83662304318071
30
0
41
1
10
0.418504222063291
20
-6.85201367673579
30
0
41
1
10
0.39091860496319
20
-6.89234207927848
30
0
41
1
10
0.367782685192395
20
-6.9126605677032
30
0
41
1
10
0.342769052829738
20
-6.9271021950795
30
0
0
SPLINE
5
176
100
AcDbEntity
8
1
62
256
6
ByLayer
370
18
48
1
60
0
100
AcDbSpline
70
4
71
3
72
8
73
4
40
0
40
0
40
0
40
0
40
1
40
1
40
1
40
1
41
1
10
0.342769052829823
20
-6.9271021950789
30
0
41
1
10
0.141559860419534
20
-7.04327037648039
30
0
41
1
10
-0.056390648460706
20
-7.15755715606863
30
0
41
1
10
-0.249980947161589
20
-7.26932656713609
30
0
0
SPLINE
5
177
100
AcDbEntity
8
1
62
256
6
ByLayer
370
18
48
1
60
0
100
AcDbSpline
70
4
71
3
72
12
73
8
40
0
40
0
40
0
40
0
40
0.250000000000002
40
0.250000000000002
40
0.500000000000004
40
0.500000000000004
40
1
40
1
40
1
40
1
41
1
10
-0.324980947162743
20
-7.39923037770154
30
0
41
1
10
-0.324980947162487
20
-7.38337657086751
30
0
41
1
10
-0.32245017569295
20
-7.36837825477244
30
0
41
1
10
-0.314111654910022
20
-7.34142317214582
30
0
41
1
10
-0.308330050423763
20
-7.32935310050175
30
0
41
1
10
-0.287609551000998
20
-7.29688749110633
30
0
41
1
10
-0.269931169711413
20
-7.28084483349562
30
0
41
1
10
-0.249980947161589
20
-7.26932656713609
30
0
0
SPLINE
5
178
100
AcDbEntity
8
1
62
256
6
ByLayer
370
18
48
1
60
0
100
AcDbSpline
70
4
71
3
72
12
73
8
40
0
40
0
40
0
40
0
40
0.500000000000018
40
0.500000000000018
40
0.750000000000009
40
0.750000000000009
40
1
40
1
40
1
40
1
41
1
10
-0.24998094716193
20
-7.73067343286525
30
0
41
1
10
-0.269423441542216
20
-7.71944830350114
30
0
41
1
10
-0.289029564075833
20
-7.7019604148874
30
0
41
1
10
-0.310297262082088
20
-7.66692217929651
30
0
41
1
10
-0.315981866199195
20
-7.65376622660906
30
0
41
1
10
-0.323277724085642
20
-7.62718865316555
30
0
41
1
10
-0.324980946025534
20
-7.61364114856787
30
0
41
1
10
-0.324980947161635
20
-7.60076963553601
30
0
0
SPLINE
5
179
100
AcDbEntity
8
1
62
256
6
ByLayer
370
18
48
1
60
0
100
AcDbSpline
70
4
71
3
72
8
73
4
40
0
40
0
40
0
40
0
40
1
40
1
40
1
40
1
41
1
10
-0.249980947161589
20
-7.73067343286402
30
0
41
1
10
-0.0525430838766567
20
-7.8446642363798
30
0
41
1
10
0.145053884700047
20
-7.95874689937861
30
0
41
1
10
0.342769052838435
20
-8.07289780492619
30
0
0
SPLINE
5
17A
100
AcDbEntity
8
1
62
256
6
ByLayer
370
18
48
1
60
0
100
AcDbSpline
70
4
71
3
72
20
73
16
40
0
40
0
40
0
40
0
40
0.124999999999996
40
0.124999999999996
40
0.249999999999991
40
0.249999999999991
40
0.374999999999987
40
0.374999999999987
40
0.499999999999983
40
0.499999999999983
40
0.624999999999978
40
0.624999999999978
40
0.749999999999974
40
0.749999999999974
40
1
40
1
40
1
40
1
41
1
10
0.342769052838492
20
-8.07289780491905
30
0
41
1
10
0.358292509144576
20
-8.08186027659576
30
0
41
1
10
0.373840112708251
20
-8.09359617355815
30
0
41
1
10
0.402117274927377
20
-8.12302489792029
30
0
41
1
10
0.414983786794977
20
-8.14098160453824
30
0
41
1
10
0.434460540703327
20
-8.18137308670546
30
0
41
1
10
0.440646639176236
20
-8.20301629896775
30
0
41
1
10
0.446015310825459
20
-8.24454042772558
30
0
41
1
10
0.445321800639761
20
-8.26441983775581
30
0
41
1
10
0.439548347044024
20
-8.30039282960806
30
0
41
1
10
0.434428159406991
20
-8.31691561693788
30
0
41
1
10
0.421597423724762
20
-8.34637979558786
30
0
41
1
10
0.413807258685125
20
-8.35960033832487
30
0
41
1
10
0.387312012959114
20
-8.39544835043756
30
0
41
1
10
0.366333953146267
20
-8.41349699353793
30
0
41
1
10
0.34276905283852
20
-8.42710219507407
30
0
0
SPLINE
5
17B
100
AcDbEntity
8
1
62
256
6
ByLayer
370
18
48
1
60
0
100
AcDbSpline
70
4
71
3
72
8
73
4
40
0
40
0
40
0
40
0
40
1
40
1
40
1
40
1
41
1
10
0.342769052838435
20
-8.42710219507393
30
0
41
1
10
0.13606648263891
20
-8.54644197962082
30
0
41
1
10
-0.0625363391941676
20
-8.66110537226797
30
0
41
1
10
-0.249980947161589
20
-8.76932656713612
30
0
0
SPLINE
5
17C
100
AcDbEntity
8
1
62
256
6
ByLayer
370
18
48
1
60
0
100
AcDbSpline
70
4
71
3
72
10
73
6
40
0
40
0
40
0
40
0
40
0.5
40
0.5
40
1
40
1
40
1
40
1
41
1
10
-0.324980947161635
20
-8.89923037769219
30
0
41
1
10
-0.324980947159105
20
-8.86655406122381
30
0
41
1
10
-0.315260525494239
20
-8.84047279882154
30
0
41
1
10
-0.288469123361011
20
-8.79798193556161
30
0
41
1
10
-0.27064111094171
20
-8.78125471825561
30
0
41
1
10
-0.249980947161788
20
-8.76932656713578
30
0
0
SPLINE
5
17D
100
AcDbEntity
8
1
62
256
6
ByLayer
370
18
48
1
60
0
100
AcDbSpline
70
4
71
3
72
14
73
10
40
0
40
0
40
0
40
0
40
0.25
40
0.25
40
0.5
40
0.5
40
0.75
40
0.75
40
1
40
1
40
1
40
1
41
1
10
-0.249980947161049
20
-9.23067343286618
30
0
41
1
10
-0.260244164922398
20
-9.22474796132906
30
0
41
1
10
-0.27077857752252
20
-9.21705150636521
30
0
41
1
10
-0.290763328836363
20
-9.19717036212282
30
0
41
1
10
-0.299849915215674
20
-9.18511528382069
30
0
41
1
10
-0.313591135542993
20
-9.1598768593976
30
0
41
1
10
-0.318241784056966
20
-9.14694235130665
30
0
41
1
10
-0.323900489139618
20
-9.12264559791512
30
0
41
1
10
-0.324980945088129
20
-9.11142868840236
30
0
41
1
10
-0.324980947161635
20
-9.10076965147613
30
0
0
SPLINE
5
17E
100
AcDbEntity
8
1
62
256
6
ByLayer
370
18
48
1
60
0
100
AcDbSpline
70
4
71
3
72
8
73
4
40
0
40
0
40
0
40
0
40
1
40
1
40
1
40
1
41
1
10
-0.249980947161305
20
-9.23067343286419
30
0
41
1
10
-0.0525671006114408
20
-9.34465037031151
30
0
41
1
10
0.145035952120622
20
-9.45873654599905
30
0
41
1
10
0.342769052838435
20
-9.57289780492619
30
0
0
SPLINE
5
17F
100
AcDbEntity
8
1
62
256
6
ByLayer
370
18
48
1
60
0
100
AcDbSpline
70
4
71
3
72
18
73
14
40
0
40
0
40
0
40
0
40
0.124999999999994
40
0.124999999999994
40
0.249999999999987
40
0.249999999999987
40
0.374999999999981
40
0.374999999999981
40
0.499999999999974
40
0.499999999999974
40
0.749999999999987
40
0.749999999999987
40
1
40
1
40
1
40
1
41
1
10
0.342769052837866
20
-9.57289780492366
30
0
41
1
10
0.361659745428653
20
-9.5838043513759
30
0
41
1
10
0.381427263361985
20
-9.59943461143865
30
0
41
1
10
0.415201412962375
20
-9.64040468492169
30
0
41
1
10
0.428156283129027
20
-9.66518180396042
30
0
41
1
10
0.442739500660735
20
-9.71115740671533
30
0
41
1
10
0.445111268805221
20
-9.73216305181924
30
0
41
1
10
0.444921672841474
20
-9.76989222185938
30
0
41
1
10
0.442344734563534
20
-9.78660417650858
30
0
41
1
10
0.430207127453428
20
-9.83277421407419
30
0
41
1
10
0.416682839155016
20
-9.85712203954077
30
0
41
1
10
0.383930349616719
20
-9.89812835961135
30
0
41
1
10
0.364451801694401
20
-9.91458365418586
30
0
41
1
10
0.342769052838747
20
-9.92710219507444
30
0
0
SPLINE
5
180
100
AcDbEntity
8
1
62
256
6
ByLayer
370
18
48
1
60
0
100
AcDbSpline
70
4
71
3
72
22
73
18
40
0
40
0
40
0
40
0
40
0.249999999999999
40
0.249999999999999
40
0.312499999999999
40
0.312499999999999
40
0.374999999999999
40
0.374999999999999
40
0.5
40
0.5
40
0.625
40
0.625
40
0.6875
40
0.6875
40
0.75
40
0.75
40
1
40
1
40
1
40
1
41
1
10
13.64335391382
20
10.6135198841349
30
0
41
1
10
13.5354542622424
20
10.3450294879538
30
0
41
1
10
13.4356830192788
20
10.0294095431643
30
0
41
1
10
13.3223536730215
20
9.57656211938803
30
0
41
1
10
13.300265489209
20
9.48303346729458
30
0
41
1
10
13.2573115957594
20
9.28989384664618
30
0
41
1
10
13.2364182851192
20
9.19009641728033
30
0
41
1
10
13.1765295997883
20
8.88570747386797
30
0
41
1
10
13.1400134345554
20
8.67486905837094
30
0
41
1
10
13.0739566565252
20
8.23759053344489
30
0
41
1
10
13.0444150143186
20
8.01115141002876
30
0
41
1
10
13.0056768070973
20
7.65939712630629
30
0
41
1
10
12.9936668561645
20
7.53980083449477
30
0
41
1
10
12.9717324987557
20
7.29790244185833
30
0
41
1
10
12.9618596722248
20
7.17624147153052
30
0
41
1
10
12.9179063813454
20
6.56444912345845
30
0
41
1
10
12.8998402554891
20
6.0640215954021
30
0
41
1
10
12.8998402554891
20
5.55216789572148
30
0
0
SPLINE
5
181
100
AcDbEntity
8
1
62
256
6
ByLayer
370
18
48
1
60
0
100
AcDbSpline
70
4
71
3
72
16
73
12
40
0
40
0
40
0
40
0
40
0.250000000000001
40
0.250000000000001
40
0.500000000000001
40
0.500000000000001
40
0.625000000000001
40
0.625000000000001
40
0.750000000000001
40
0.750000000000001
40
1
40
1
40
1
40
1
41
1
10
13.3928440755886
20
-10.2038310711914
30
0
41
1
10
13.3349094497136
20
-9.99456475696385
30
0
41
1
10
13.2807675675004
20
-9.77203140048258
30
0
41
1
10
13.1803189250502
20
-9.30110592070076
30
0
41
1
10
13.1340105823521
20
-9.05271432916439
30
0
41
1
10
13.0709431349955
20
-8.660076801439
30
0
41
1
10
13.0509319881394
20
-8.525405034572
30
0
41
1
10
13.0134840337218
20
-8.25132521818452
30
0
41
1
10
12.9960803092062
20
-8.11224395690934
30
0
41
1
10
12.9478685672227
20
-7.68891876567017
30
0
41
1
10
12.9210418889904
20
-7.39862462684397
30
0
41
1
10
12.8998402554891
20
-7.0999999999994
30
0
0
SPLINE
5
182
100
AcDbEntity
8
1
62
256
6
ByLayer
370
18
48
1
60
0
100
AcDbSpline
70
4
71
3
72
8
73
4
40
0
40
0
40
0
40
0
40
1
40
1
40
1
40
1
41
1
10
0.342769052838293
20
9.92710219507387
30
0
41
1
10
0.200228104510074
20
10.0093982499617
30
0
41
1
10
0.0693189021619389
20
10.0849787131768
30
0
41
1
10
-0.0469703231316601
20
10.1521183287039
30
0
0
SPLINE
5
183
100
AcDbEntity
8
1
62
256
6
ByLayer
370
18
48
1
60
0
100
AcDbSpline
70
4
71
3
72
18
73
14
40
0
40
0
40
0
40
0
40
0.125000000000006
40
0.125000000000006
40
0.250000000000013
40
0.250000000000013
40
0.375000000000019
40
0.375000000000019
40
0.500000000000026
40
0.500000000000026
40
0.750000000000013
40
0.750000000000013
40
1
40
1
40
1
40
1
41
1
10
0.342769052837809
20
9.57289780492351
30
0
41
1
10
0.361659745428597
20
9.58380435137576
30
0
41
1
10
0.3814272633619
20
9.59943461143848
30
0
41
1
10
0.41520141296229
20
9.64040468492152
30
0
41
1
10
0.428156283128971
20
9.66518180396025
30
0
41
1
10
0.442739500660707
20
9.71115740671516
30
0
41
1
10
0.445111268805192
20
9.73216305181907
30
0
41
1
10
0.444921672841474
20
9.76989222185921
30
0
41
1
10
0.442344734563534
20
9.7866041765084
30
0
41
1
10
0.430207127453428
20
9.83277421407402
30
0
41
1
10
0.416682839154959
20
9.85712203954063
30
0
41
1
10
0.383930349616662
20
9.89812835961121
30
0
41
1
10
0.364451801694372
20
9.91458365418572
30
0
41
1
10
0.342769052838719
20
9.92710219507433
30
0
0
SPLINE
5
184
100
AcDbEntity
8
1
62
256
6
ByLayer
370
18
48
1
60
0
100
AcDbSpline
70
4
71
3
72
8
73
4
40
0
40
0
40
0
40
0
40
1
40
1
40
1
40
1
41
1
10
-0.249980947161589
20
9.23067343286391
30
0
41
1
10
-0.0525671006116397
20
9.34465037031129
30
0
41
1
10
0.14503595212048
20
9.45873654599887
30
0
41
1
10
0.342769052838378
20
9.57289780492604
30
0
0
SPLINE
5
185
100
AcDbEntity
8
1
62
256
6
ByLayer
370
18
48
1
60
0
100
AcDbSpline
70
4
71
3
72
14
73
10
40
0
40
0
40
0
40
0
40
0.25
40
0.25
40
0.5
40
0.5
40
0.75
40
0.75
40
1
40
1
40
1
40
1
41
1
10
-0.324980947166495
20
9.10076962228254
30
0
41
1
10
-0.324980947167461
20
9.11136059578067
30
0
41
1
10
-0.323881994656603
20
9.12274977248734
30
0
41
1
10
-0.318229425941354
20
9.1469705127077
30
0
41
1
10
-0.313571777695813
20
9.15991639605667
30
0
41
1
10
-0.299850214227604
20
9.18511074688456
30
0
41
1
10
-0.290682009752572
20
9.1972589844824
30
0
41
1
10
-0.270776707340417
20
9.21704560963468
30
0
41
1
10
-0.260190127137861
20
9.22477916006085
30
0
41
1
10
-0.249980947161532
20
9.23067343286817
30
0
0
SPLINE
5
186
100
AcDbEntity
8
1
62
256
6
ByLayer
370
18
48
1
60
0
100
AcDbSpline
70
4
71
3
72
12
73
8
40
0
40
0
40
0
40
0
40
0.500000000000033
40
0.500000000000033
40
0.750000000000016
40
0.750000000000016
40
1
40
1
40
1
40
1
41
1
10
-0.249980947162157
20
8.76932656713521
30
0
41
1
10
-0.270604914733127
20
8.78123382036407
30
0
41
1
10
-0.288263389710096
20
8.79770683350699
30
0
41
1
10
-0.308536328216036
20
8.8297829468986
30
0
41
1
10
-0.314161023968069
20
8.84158814262511
30
0
41
1
10
-0.322390682705589
20
8.86818056431352
30
0
41
1
10
-0.324980951347328
20
8.88288598383085
30
0
41
1
10
-0.324980947161663
20
8.89923041611746
30
0
0
SPLINE
5
187
100
AcDbEntity
8
1
62
256
6
ByLayer
370
18
48
1
60
0
100
AcDbSpline
70
4
71
3
72
8
73
4
40
0
40
0
40
0
40
0
40
1
40
1
40
1
40
1
41
1
10
0.342769052838406
20
8.42710219507381
30
0
41
1
10
0.136066482638881
20
8.54644197962071
30
0
41
1
10
-0.062536339194196
20
8.66110537226785
30
0
41
1
10
-0.249980947161618
20
8.76932656713598
30
0
0
SPLINE
5
188
100
AcDbEntity
8
1
62
256
6
ByLayer
370
18
48
1
60
0
100
AcDbSpline
70
4
71
3
72
20
73
16
40
0
40
0
40
0
40
0
40
0.125000000000004
40
0.125000000000004
40
0.250000000000007
40
0.250000000000007
40
0.375000000000011
40
0.375000000000011
40
0.500000000000015
40
0.500000000000015
40
0.625000000000018
40
0.625000000000018
40
0.750000000000022
40
0.750000000000022
40
1
40
1
40
1
40
1
41
1
10
0.342769052838492
20
8.07289780491894
30
0
41
1
10
0.358292509144548
20
8.08186027659565
30
0
41
1
10
0.373840112708223
20
8.09359617355807
30
0
41
1
10
0.402117274927349
20
8.12302489792017
30
0
41
1
10
0.414983786794977
20
8.14098160453815
30
0
41
1
10
0.434460540703299
20
8.18137308670535
30
0
41
1
10
0.440646639176236
20
8.20301629896764
30
0
41
1
10
0.446015310825459
20
8.2445404277255
30
0
41
1
10
0.445321800639761
20
8.26441983775572
30
0
41
1
10
0.439548347044024
20
8.30039282960797
30
0
41
1
10
0.434428159406991
20
8.31691561693776
30
0
41
1
10
0.421597423724734
20
8.34637979558778
30
0
41
1
10
0.413807258685097
20
8.35960033832478
30
0
41
1
10
0.387312012959086
20
8.39544835043745
30
0
41
1
10
0.366333953146238
20
8.41349699353785
30
0
41
1
10
0.342769052838492
20
8.42710219507396
30
0
0
SPLINE
5
189
100
AcDbEntity
8
1
62
256
6
ByLayer
370
18
48
1
60
0
100
AcDbSpline
70
4
71
3
72
8
73
4
40
0
40
0
40
0
40
0
40
1
40
1
40
1
40
1
41
1
10
-0.249980947161589
20
7.73067343286391
30
0
41
1
10
-0.0525430838766852
20
7.84466423637968
30
0
41
1
10
0.145053884700019
20
7.9587468993785
30
0
41
1
10
0.342769052838406
20
8.07289780492607
30
0
0
SPLINE
5
18A
100
AcDbEntity
8
1
62
256
6
ByLayer
370
18
48
1
60
0
100
AcDbSpline
70
4
71
3
72
12
73
8
40
0
40
0
40
0
40
0
40
0.25
40
0.25
40
0.5
40
0.5
40
1
40
1
40
1
40
1
41
1
10
-0.32498094716172
20
7.60076962228351
30
0
41
1
10
-0.3249809471628
20
7.61355284176673
30
0
41
1
10
-0.323278187877378
20
7.62715829572264
30
0
41
1
10
-0.316025131018819
20
7.65363711598724
30
0
41
1
10
-0.310349374009036
20
7.66682045254657
30
0
41
1
10
-0.289065322062754
20
7.7019330942563
30
0
41
1
10
-0.269481467385617
20
7.71941480226337
30
0
41
1
10
-0.249980947161646
20
7.73067343286402
30
0
0
SPLINE
5
18B
100
AcDbEntity
8
1
62
256
6
ByLayer
370
18
48
1
60
0
100
AcDbSpline
70
4
71
3
72
10
73
6
40
0
40
0
40
0
40
0
40
0.5
40
0.5
40
1
40
1
40
1
40
1
41
1
10
-0.249980947159912
20
7.26932656713424
30
0
41
1
10
-0.269739875690163
20
7.28073438983967
30
0
41
1
10
-0.287604165308864
20
7.29692770850377
30
0
41
1
10
-0.315076899640474
20
7.33987593818725
30
0
41
1
10
-0.324980951061207
20
7.36726670859449
30
0
41
1
10
-0.324980947161663
20
7.39923039600359
30
0
0
SPLINE
5
18C
100
AcDbEntity
8
1
62
256
6
ByLayer
370
18
48
1
60
0
100
AcDbSpline
70
4
71
3
72
8
73
4
40
0
40
0
40
0
40
0
40
1
40
1
40
1
40
1
41
1
10
0.342769052838406
20
6.92710219507382
30
0
41
1
10
0.141559860425758
20
7.0432703764767
30
0
41
1
10
-0.0563906484567838
20
7.15755715606625
30
0
41
1
10
-0.249980947159855
20
7.26932656713498
30
0
0
SPLINE
5
18D
100
AcDbEntity
8
1
62
256
6
ByLayer
370
18
48
1
60
0
100
AcDbSpline
70
4
71
3
72
18
73
14
40
0
40
0
40
0
40
0
40
0.25
40
0.25
40
0.375000000000005
40
0.375000000000005
40
0.50000000000001
40
0.50000000000001
40
0.625000000000015
40
0.625000000000015
40
0.75000000000002
40
0.75000000000002
40
1
40
1
40
1
40
1
41
1
10
0.342769052839571
20
6.57289780491908
30
0
41
1
10
0.370516593263091
20
6.5889178548515
30
0
41
1
10
0.39730398657062
20
6.6129269899495
30
0
41
1
10
0.427069711747407
20
6.6639379843192
30
0
41
1
10
0.43484194270448
20
6.6830256768142
30
0
41
1
10
0.444310147220449
20
6.72323929480245
30
0
41
1
10
0.445902567673869
20
6.74420182496473
30
0
41
1
10
0.443169313481121
20
6.78389511559718
30
0
41
1
10
0.438900918791177
20
6.80280522840624
30
0
41
1
10
0.426637846294
20
6.83662304317306
30
0
41
1
10
0.418504222067497
20
6.85201367672832
30
0
41
1
10
0.390918604969443
20
6.89234207927166
30
0
41
1
10
0.367782685199955
20
6.91266056769703
30
0
41
1
10
0.342769052838605
20
6.92710219507427
30
0
0
SPLINE
5
18E
100
AcDbEntity
8
1
62
256
6
ByLayer
370
18
48
1
60
0
100
AcDbSpline
70
4
71
3
72
8
73
4
40
0
40
0
40
0
40
0
40
1
40
1
40
1
40
1
41
1
10
-0.249980947161589
20
6.23067343286391
30
0
41
1
10
-0.0532711848777012
20
6.34424386707076
30
0
41
1
10
0.144388484030287
20
6.4583627301227
30
0
41
1
10
0.342769052838435
20
6.57289780492607
30
0
0
SPLINE
5
18F
100
AcDbEntity
8
1
62
256
6
ByLayer
370
18
48
1
60
0
100
AcDbSpline
70
4
71
3
72
10
73
6
40
0
40
0
40
0
40
0
40
0.5
40
0.5
40
1
40
1
40
1
40
1
41
1
10
-0.324980947161663
20
6.10076962229388
30
0
41
1
10
-0.324980947162089
20
6.12931852219353
30
0
41
1
10
-0.315985583490686
20
6.15835355448564
30
0
41
1
10
-0.287820516916668
20
6.20307039555908
30
0
41
1
10
-0.269391712225229
20
6.21946662242925
30
0
41
1
10
-0.249980947161589
20
6.23067343286391
30
0
0
SPLINE
5
190
100
AcDbEntity
8
1
62
256
6
ByLayer
370
18
48
1
60
0
100
AcDbSpline
70
4
71
3
72
10
73
6
40
0
40
0
40
0
40
0
40
0.5
40
0.5
40
1
40
1
40
1
40
1
41
1
10
-0.249980947161618
20
5.76932656713598
30
0
41
1
10
-0.269347069078066
20
5.78050760283759
30
0
41
1
10
-0.287503923385969
20
5.79667268399606
30
0
41
1
10
-0.315507104250031
20
5.84064795806287
30
0
41
1
10
-0.324980950420411
20
5.8688566349698
30
0
41
1
10
-0.324980947161663
20
5.89923039379701
30
0
0
SPLINE
5
191
100
AcDbEntity
8
1
62
256
6
ByLayer
370
18
48
1
60
0
100
AcDbSpline
70
4
71
3
72
8
73
4
40
0
40
0
40
0
40
0
40
1
40
1
40
1
40
1
41
1
10
0.126148905032522
20
5.55216789572145
30
0
41
1
10
0.0001260536854204
20
5.62492722287075
30
0
41
1
10
-0.125290129204359
20
5.69733628982289
30
0
41
1
10
-0.249980947161589
20
5.76932656713598
30
0
0
SPLINE
5
192
100
AcDbEntity
8
1
62
256
6
ByLayer
370
18
48
1
60
0
100
AcDbSpline
70
4
71
3
72
116
73
112
40
0
40
0
40
0
40
0
40
0.0312500000000017
40
0.0312500000000017
40
0.0468750000000025
40
0.0468750000000025
40
0.0625000000000032
40
0.0625000000000032
40
0.0937500000000048
40
0.0937500000000048
40
0.109375000000005
40
0.109375000000005
40
0.117187500000006
40
0.117187500000006
40
0.125000000000006
40
0.125000000000006
40
0.156250000000007
40
0.156250000000007
40
0.171875000000008
40
0.171875000000008
40
0.179687500000008
40
0.179687500000008
40
0.187500000000008
40
0.187500000000008
40
0.218750000000009
40
0.218750000000009
40
0.234375000000009
40
0.234375000000009
40
0.25000000000001
40
0.25000000000001
40
0.28125000000001
40
0.28125000000001
40
0.289062500000011
40
0.289062500000011
40
0.296875000000011
40
0.296875000000011
40
0.312500000000011
40
0.312500000000011
40
0.343750000000011
40
0.343750000000011
40
0.359375000000012
40
0.359375000000012
40
0.375000000000012
40
0.375000000000012
40
0.406250000000012
40
0.406250000000012
40
0.414062500000012
40
0.414062500000012
40
0.421875000000012
40
0.421875000000012
40
0.437500000000012
40
0.437500000000012
40
0.468750000000012
40
0.468750000000012
40
0.484375000000012
40
0.484375000000012
40
0.500000000000012
40
0.500000000000012
40
0.531250000000012
40
0.531250000000012
40
0.562500000000011
40
0.562500000000011
40
0.578125000000011
40
0.578125000000011
40
0.593750000000011
40
0.593750000000011
40
0.625000000000011
40
0.625000000000011
40
0.640625000000011
40
0.640625000000011
40
0.648437500000011
40
0.648437500000011
40
0.656250000000011
40
0.656250000000011
40
0.68750000000001
40
0.68750000000001
40
0.70312500000001
40
0.70312500000001
40
0.71093750000001
40
0.71093750000001
40
0.718750000000009
40
0.718750000000009
40
0.750000000000008
40
0.750000000000008
40
0.765625000000008
40
0.765625000000008
40
0.781250000000007
40
0.781250000000007
40
0.796875000000007
40
0.796875000000007
40
0.812500000000006
40
0.812500000000006
40
0.843750000000005
40
0.843750000000005
40
0.859375000000005
40
0.859375000000005
40
0.875000000000004
40
0.875000000000004
40
0.906250000000003
40
0.906250000000003
40
0.921875000000003
40
0.921875000000003
40
0.937500000000002
40
0.937500000000002
40
0.968750000000001
40
0.968750000000001
40
0.984375
40
0.984375
40
0.9921875
40
0.9921875
40
1
40
1
40
1
40
1
41
1
10
15.3883781417158
20
14.036621858284
30
0
41
1
10
15.3142031523714
20
13.9760817883591
30
0
41
1
10
15.2399778812914
20
13.8825663351309
30
0
41
1
10
15.1288761413829
20
13.6936710353438
30
0
41
1
10
15.0918837150548
20
13.6225562949432
30
0
41
1
10
15.0180633191964
20
13.4635974733362
30
0
41
1
10
14.9812257361216
20
13.3756178212159
30
0
41
1
10
14.8732389509388
20
13.0915528819132
30
0
41
1
10
14.8038624531388
20
12.8740418868452
30
0
41
1
10
14.704343584099
20
12.5058067641895
30
0
41
1
10
14.6719330498511
20
12.3760274698494
30
0
41
1
10
14.624588867905
20
12.1704600320156
30
0
41
1
10
14.6089842296786
20
12.0999432328297
30
0
41
1
10
14.5784912978938
20
11.9564564312808
30
0
41
1
10
14.5635835732734
20
11.8834162182578
30
0
41
1
10
14.4907524639078
20
11.5118220868589
30
0
41
1
10
14.4379146628741
20
11.1942365088921
30
0
41
1
10
14.3675040050029
20
10.6873261115764
30
0
41
1
10
14.3455152352204
20
10.5132387235243
30
0
41
1
10
14.314915922357
20
10.244146902091
30
0
41
1
10
14.3051072525795
20
10.1530238050638
30
0
41
1
10
14.2865049208476
20
9.96998488177206
30
0
41
1
10
14.2776844274965
20
9.87784547286671
30
0
41
1
10
14.2359797494933
20
9.41409087000349
30
0
41
1
10
14.2102442946007
20
9.0333733399163
30
0
41
1
10
14.1835164278636
20
8.44767286229964
30
0
41
1
10
14.1765949686382
20
8.24998839014219
30
0
41
1
10
14.1669150755032
20
7.84953207588717
30
0
41
1
10
14.1642296716881
20
7.64963745799918
30
0
41
1
10
14.1624756958982
20
7.05225508671407
30
0
41
1
10
14.1696586076873
20
6.65645607773973
30
0
41
1
10
14.1890113622186
20
6.1647854083339
30
0
41
1
10
14.1934035326099
20
6.06660629100679
30
0
41
1
10
14.2032414018296
20
5.87056286881278
30
0
41
1
10
14.2087011702547
20
5.77250074507199
30
0
41
1
10
14.2265014305447
20
5.48158737914636
30
0
41
1
10
14.2402880991542
20
5.29127534373475
30
0
41
1
10
14.2871227367452
20
4.73088677047798
30
0
41
1
10
14.3256126040687
20
4.37127830670059
30
0
41
1
10
14.393758301335
20
3.85297622175383
30
0
41
1
10
14.4183109538215
20
3.68327910325667
30
0
41
1
10
14.4698751386573
20
3.3573760747351
30
0
41
1
10
14.4969744576886
20
3.2003992309663
30
0
41
1
10
14.5819489487704
20
2.74692834145722
30
0
41
1
10
14.6434752470093
20
2.4677596793
30
0
41
1
10
14.7259852028623
20
2.14825076966682
30
0
41
1
10
14.7427913237803
20
2.08576557686402
30
0
41
1
10
14.7766377960389
20
1.96493719971605
30
0
41
1
10
14.7937141260917
20
1.90644773908457
30
0
41
1
10
14.8453729590739
20
1.73665033877279
30
0
41
1
10
14.8803841356684
20
1.63100248053036
30
0
41
1
10
14.9869445751202
20
1.33630054296705
30
0
41
1
10
15.0600050347605
20
1.16931326016953
30
0
41
1
10
15.1721825549529
20
0.964547781294783
30
0
41
1
10
15.209599863847
20
0.90473365428042
30
0
41
1
10
15.2840371611628
20
0.802111867889607
30
0
41
1
10
15.3211197289931
20
0.759190711917569
30
0
41
1
10
15.431892162431
20
0.655317307606055
30
0
41
1
10
15.5051292648029
20
0.619055282269926
30
0
41
1
10
15.6499958234597
20
0.615653471492152
30
0
41
1
10
15.71955647286
20
0.648540544804263
30
0
41
1
10
15.8198719293117
20
0.747879198558621
30
0
41
1
10
15.8526378450608
20
0.789375715165647
30
0
41
1
10
15.9168542093727
20
0.889400980477149
30
0
41
1
10
15.9483633626786
20
0.948057916384471
30
0
41
1
10
16.0405731194792
20
1.14975984571905
30
0
41
1
10
16.0976299563072
20
1.3152520945772
30
0
41
1
10
16.1773502591375
20
1.60851469361251
30
0
41
1
10
16.2029413968251
20
1.71381658813573
30
0
41
1
10
16.2399104973662
20
1.88329243404482
30
0
41
1
10
16.2519970120842
20
1.94170759733203
30
0
41
1
10
16.2757032807849
20
2.06245242645534
30
0
41
1
10
16.2873516783762
20
2.12494914207872
30
0
41
1
10
16.3440125449036
20
2.44499980044833
30
0
41
1
10
16.384326176127
20
2.72476219955803
30
0
41
1
10
16.4382164671907
20
3.17891906501589
30
0
41
1
10
16.4550758373458
20
3.33609056391708
30
0
41
1
10
16.4787648444606
20
3.58069687658278
30
0
41
1
10
16.4863940983253
20
3.66370928556645
30
0
41
1
10
16.5011227771019
20
3.8327436080688
30
0
41
1
10
16.5082254024823
20
3.91883504928538
30
0
41
1
10
16.5420843667096
20
4.35247031993617
30
0
41
1
10
16.5642317927371
20
4.71281834234091
30
0
41
1
10
16.5907820607828
20
5.27298535047268
30
0
41
1
10
16.5985114274832
20
5.46300112886783
30
0
41
1
10
16.6117479297972
20
5.84976861374602
30
0
41
1
10
16.6172619839187
20
6.04716679451622
30
0
41
1
10
16.6259066447776
20
6.4426970931907
30
0
41
1
10
16.6290651470606
20
6.64142158540113
30
0
41
1
10
16.6330944898836
20
7.04078116474028
30
0
41
1
10
16.6339641726463
20
7.24193598174068
30
0
41
1
10
16.6330937635514
20
7.84483571714708
30
0
41
1
10
16.6279457685437
20
8.2406576544532
30
0
41
1
10
16.6134797932178
20
8.82555913126646
30
0
41
1
10
16.6075245448944
20
9.01904539673416
30
0
41
1
10
16.5932537049759
20
9.40300565519183
30
0
41
1
10
16.5848855558915
20
9.59442859619733
30
0
41
1
10
16.5564519987524
20
10.1552117504331
30
0
41
1
10
16.5331380758041
20
10.511632460849
30
0
41
1
10
16.491247211937
20
11.0208507257232
30
0
41
1
10
16.4761225318829
20
11.1863295916473
30
0
41
1
10
16.4433887195401
20
11.5085874849046
30
0
41
1
10
16.425719300471
20
11.6657079185553
30
0
41
1
10
16.3698112547452
20
12.1147907341526
30
0
41
1
10
16.3284185846288
20
12.3877336544167
30
0
41
1
10
16.2595618784186
20
12.7583046482674
30
0
41
1
10
16.2354760986554
20
12.875317334311
30
0
41
1
10
16.1975176134802
20
13.0408324722087
30
0
41
1
10
16.1845394089844
20
13.094399114649
30
0
41
1
10
16.1582053271668
20
13.1971597660215
30
0
41
1
10
16.1448223456649
20
13.2464809452491
30
0
41
1
10
16.1312206955962
20
13.2937793044036
30
0
0
SPLINE
5
193
100
AcDbEntity
8
1
62
256
6
ByLayer
370
18
48
1
60
0
100
AcDbSpline
70
4
71
3
72
8
73
4
40
0
40
0
40
0
40
0
40
1
40
1
40
1
40
1
41
1
10
15.1562542990783
20
14.2687457009217
30
0
41
1
10
14.6956886401635
20
13.1870554391351
30
0
41
1
10
14.1877821183167
20
11.9682392199281
30
0
41
1
10
13.64335391382
20
10.6135198841349
30
0
0
SPLINE
5
194
100
AcDbEntity
8
1
62
256
6
ByLayer
370
18
48
1
60
0
100
AcDbSpline
70
4
71
3
72
10
73
6
40
0
40
0
40
0
40
0
40
0.5
40
0.5
40
1
40
1
40
1
40
1
41
1
10
15.05216829991
20
-16.0011158354113
30
0
41
1
10
14.7946296621651
20
-15.1224520569846
30
0
41
1
10
14.525663392961
20
-14.199828010748
30
0
41
1
10
13.9706502554476
20
-12.2674371051596
30
0
41
1
10
13.6845955710757
20
-11.2576699319564
30
0
41
1
10
13.3928440755886
20
-10.2038310711914
30
0
0
SPLINE
5
195
100
AcDbEntity
8
1
62
256
6
ByLayer
370
18
48
1
60
0
100
AcDbSpline
70
4
71
3
72
20
73
16
40
0
40
0
40
0
40
0
40
0.250000000000002
40
0.250000000000002
40
0.312500000000003
40
0.312500000000003
40
0.375000000000004
40
0.375000000000004
40
0.500000000000003
40
0.500000000000003
40
0.625000000000003
40
0.625000000000003
40
0.750000000000002
40
0.750000000000002
40
1
40
1
40
1
40
1
41
1
10
15.5583200265044
20
-21
30
0
41
1
10
15.5583200265044
20
-20.5049254353803
30
0
41
1
10
15.5474450489817
20
-20.0201618109727
30
0
41
1
10
15.520450348317
20
-19.426631302003
30
0
41
1
10
15.5143698803555
20
-19.3085550763744
30
0
41
1
10
15.5008040729001
20
-19.0736856879364
30
0
41
1
10
15.4932923170369
20
-18.956570156653
30
0
41
1
10
15.4688905290387
20
-18.6116239804715
30
0
41
1
10
15.450092529479
20
-18.3890242475671
30
0
41
1
10
15.4074117434233
20
-17.9580851778723
30
0
41
1
10
15.383528981768
20
-17.7497470584221
30
0
41
1
10
15.3304013828876
20
-17.3474895270783
30
0
41
1
10
15.3009676315288
20
-17.1526785685214
30
0
41
1
10
15.2062114432746
20
-16.6037959884767
30
0
41
1
10
15.1341565057832
20
-16.2808411123243
30
0
41
1
10
15.0521682999101
20
-16.0011158354113
30
0
0
SPLINE
5
196
100
AcDbEntity
8
1
62
256
6
ByLayer
370
18
48
1
60
0
100
AcDbSpline
70
2053
71
3
72
111
73
107
40
0
40
0
40
0
40
0
40
0.0312499999999996
40
0.0312499999999996
40
0.0468749999999993
40
0.0468749999999993
40
0.0546874999999993
40
0.0546874999999993
40
0.0624999999999992
40
0.0624999999999992
40
0.0937499999999995
40
0.0937499999999995
40
0.1015625
40
0.1015625
40
0.109375
40
0.109375
40
0.125
40
0.125
40
0.15625
40
0.15625
40
0.1640625
40
0.1640625
40
0.171875
40
0.171875
40
0.1875
40
0.203125
40
0.203125
40
0.21875
40
0.21875
40
0.25
40
0.25
40
0.265625
40
0.265625
40
0.28125
40
0.28125
40
0.3125
40
0.3125
40
0.328125
40
0.328125
40
0.34375
40
0.34375
40
0.375
40
0.375
40
0.390625
40
0.390625
40
0.40625
40
0.40625
40
0.421875
40
0.421875
40
0.4375
40
0.4375
40
0.46875
40
0.46875
40
0.484375
40
0.484375
40
0.5
40
0.5
40
0.53125
40
0.53125
40
0.5390625
40
0.5390625
40
0.546875
40
0.546875
40
0.5625
40
0.578125
40
0.578125
40
0.5859375
40
0.5859375
40
0.593750000000001
40
0.593750000000001
40
0.625000000000001
40
0.625000000000001
40
0.640625000000001
40
0.640625000000001
40
0.656250000000001
40
0.656250000000001
40
0.687500000000002
40
0.687500000000002
40
0.703125000000002
40
0.703125000000002
40
0.718750000000002
40
0.718750000000002
40
0.750000000000002
40
0.750000000000002
40
0.781250000000002
40
0.781250000000002
40
0.796875000000002
40
0.796875000000002
40
0.812500000000002
40
0.812500000000002
40
0.843750000000002
40
0.843750000000002
40
0.859375000000002
40
0.859375000000002
40
0.875000000000002
40
0.875000000000002
40
0.906250000000001
40
0.906250000000001
40
0.921875000000001
40
0.921875000000001
40
0.937500000000001
40
0.953125000000001
40
0.953125000000001
40
0.96875
40
0.96875
40
1
40
1
40
1
40
1
41
1
10
16.6337286134538
20
-7.36729208785475
30
0
41
1
10
16.6337286134538
20
-6.91750491438077
30
0
41
1
10
16.6280148763007
20
-6.47536861015146
30
0
41
1
10
16.6110300366173
20
-5.82316658696499
30
0
41
1
10
16.6039516890234
20
-5.60761360522596
30
0
41
1
10
16.5910974292061
20
-5.28712110721898
30
0
41
1
10
16.5864256093069
20
-5.18049181535224
30
0
41
1
10
16.576371008106
20
-4.96958054235694
30
0
41
1
10
16.5710005672056
20
-4.86550628833447
30
0
41
1
10
16.5424312611893
20
-4.35190188945936
30
0
41
1
10
16.5141431419827
20
-3.9624775787299
30
0
41
1
10
16.471342456217
20
-3.50230880752704
30
0
41
1
10
16.4624063654017
20
-3.4116177346624
30
0
41
1
10
16.4437495288915
20
-3.23296505820878
30
0
41
1
10
16.4340032737212
20
-3.14480291608183
30
0
41
1
10
16.403844921465
20
-2.88712030878935
30
0
41
1
10
16.3824560658754
20
-2.72371831229501
30
0
41
1
10
16.314307842095
20
-2.25790013991175
30
0
41
1
10
16.2636063122694
20
-1.97964242340984
30
0
41
1
10
16.1926465564395
20
-1.67316932570802
30
0
41
1
10
16.1780723749575
20
-1.61398872456221
30
0
41
1
10
16.1484620340203
20
-1.50109283673748
30
0
41
1
10
16.1333868865195
20
-1.44720277061913
30
0
41
1
10
16.08733923293
20
-1.29306823391511
30
0
41
1
10
16.0237521089792
20
-1.10761566268971
30
0
41
1
10
15.9555950185265
20
-0.961697199518056
30
0
41
1
10
15.885015554741
20
-0.835814998655707
30
0
41
1
10
15.8483175893471
20
-0.782735091114347
30
0
41
1
10
15.7364663363917
20
-0.656868642271434
30
0
41
1
10
15.6592476191933
20
-0.616060272031433
30
0
41
1
10
15.5393386415296
20
-0.617950046376791
30
0
41
1
10
15.4986880572917
20
-0.629170887617704
30
0
41
1
10
15.415996714737
20
-0.673453969227069
30
0
41
1
10
15.3745149500659
20
-0.706244426883245
30
0
41
1
10
15.2502282809449
20
-0.835144067138856
30
0
41
1
10
15.1673510232501
20
-0.961611507462663
30
0
41
1
10
15.0435359984775
20
-1.21287302191658
30
0
41
1
10
15.0021572508164
20
-1.30752648455467
30
0
41
1
10
14.9213018182954
20
-1.51420783249967
30
0
41
1
10
14.8816894303615
20
-1.62640671230827
30
0
41
1
10
14.7654662382599
20
-1.98909109199803
30
0
41
1
10
14.6914324230276
20
-2.26540108695954
30
0
41
1
10
14.586817247143
20
-2.73432417679749
30
0
41
1
10
14.5534444163769
20
-2.89798461286608
30
0
41
1
10
14.4902999698444
20
-3.2371990378623
30
0
41
1
10
14.4604421684976
20
-3.41313725264368
30
0
41
1
10
14.4043083693967
20
-3.7776497237567
30
0
41
1
10
14.3780319365053
20
-3.96622327948216
30
0
41
1
10
14.3293101887027
20
-4.35635167637486
30
0
41
1
10
14.3067657035913
20
-4.55907990843392
30
0
41
1
10
14.2465725690185
20
-5.17514584228024
30
0
41
1
10
14.2159548505213
20
-5.59805395427335
30
0
41
1
10
14.1847676853147
20
-6.25058080556772
30
0
41
1
10
14.1768418389277
20
-6.4711384283186
30
0
41
1
10
14.1661861254616
20
-6.91860209064495
30
0
41
1
10
14.1635498904223
20
-7.14164647795562
30
0
41
1
10
14.1634693846003
20
-7.80831474791503
30
0
41
1
10
14.1737916996794
20
-8.24971085073275
30
0
41
1
10
14.1997037678544
20
-8.79758259542652
30
0
41
1
10
14.2055608192115
20
-8.90727277009779
30
0
41
1
10
14.2184959423231
20
-9.12449169029335
30
0
41
1
10
14.2255656710289
20
-9.23196359820906
30
0
41
1
10
14.2485254668844
20
-9.55104042497447
30
0
41
1
10
14.2837995719127
20
-9.96758871161177
30
0
41
1
10
14.3279836997832
20
-10.3667364186274
30
0
41
1
10
14.3643893956874
20
-10.6595214493055
30
0
41
1
10
14.3770700414493
20
-10.7560185442554
30
0
41
1
10
14.4035197962608
20
-10.9467839947993
30
0
41
1
10
14.4172921350722
20
-11.0410389110757
30
0
41
1
10
14.4880587742588
20
-11.5015757289955
30
0
41
1
10
14.5512864486048
20
-11.8402271507386
30
0
41
1
10
14.6547371680768
20
-12.305075242667
30
0
41
1
10
14.6906669851705
20
-12.4527834253045
30
0
41
1
10
14.7653275910059
20
-12.7333293781789
30
0
41
1
10
14.8035193960522
20
-12.8641251968464
30
0
41
1
10
14.9200576439394
20
-13.2281381737006
30
0
41
1
10
15.0004702755472
20
-13.4337226171483
30
0
41
1
10
15.1243897013261
20
-13.6860777691781
30
0
41
1
10
15.1664044588124
20
-13.7609320730253
30
0
41
1
10
15.2497468703589
20
-13.8886233249355
30
0
41
1
10
15.2912597336387
20
-13.9419109433705
30
0
41
1
10
15.4152219519766
20
-14.0707231385183
30
0
41
1
10
15.4971275862889
20
-14.1155025468515
30
0
41
1
10
15.6589034716977
20
-14.1189774179193
30
0
41
1
10
15.7362110386722
20
-14.0776542447892
30
0
41
1
10
15.8471841261303
20
-13.9532959062873
30
0
41
1
10
15.8833412755754
20
-13.9013726323698
30
0
41
1
10
15.9540247820624
20
-13.7760531054708
30
0
41
1
10
15.9886923821309
20
-13.7022012939095
30
0
41
1
10
16.0882304425204
20
-13.452414166772
30
0
41
1
10
16.1492693922593
20
-13.2478706384165
30
0
41
1
10
16.2337275924212
20
-12.884416712513
30
0
41
1
10
16.260690217945
20
-12.7537610126569
30
0
41
1
10
16.3123045052281
20
-12.4726720976881
30
0
41
1
10
16.3365376940588
20
-12.3245085237779
30
0
41
1
10
16.4048170043277
20
-11.8584666833783
30
0
41
1
10
16.4445288522913
20
-11.5189889643753
30
0
41
1
10
16.4962069750272
20
-10.9657005284772
30
0
41
1
10
16.5121466565499
20
-10.7730949294759
30
0
41
1
10
16.5408016707036
20
-10.3812617314257
30
0
41
1
10
16.5664224526973
20
-9.98108092598056
30
0
41
1
10
16.5863456173923
20
-9.56450786887103
30
0
41
1
10
16.6034975701654
20
-9.13964905923976
30
0
41
1
10
16.6107040517471
20
-8.92244869123675
30
0
41
1
10
16.6280146832381
20
-8.26211310569676
30
0
41
1
10
16.6337286134538
20
-7.81707926132873
30
0
41
1
10
16.6337286134538
20
-7.36729208785475
30
0
0
SPLINE
5
197
100
AcDbEntity
8
1
62
256
6
ByLayer
370
18
48
1
60
0
100
AcDbSpline
70
4
71
3
72
25
73
21
40
0
40
0
40
0
40
0
40
0.125000000000001
40
0.125000000000001
40
0.250000000000001
40
0.250000000000001
40
0.375000000000001
40
0.375000000000001
40
0.437500000000001
40
0.437500000000001
40
0.5
40
0.562499999999999
40
0.562499999999999
40
0.624999999999999
40
0.624999999999999
40
0.749999999999999
40
0.749999999999999
40
0.875
40
0.875
40
1
40
1
40
1
40
1
41
1
10
2.17000000000004
20
-17.327962600606
30
0
41
1
10
2.27947633516587
20
-17.327962600606
30
0
41
1
10
2.3868931617568
20
-17.3372222496459
30
0
41
1
10
2.59780975316855
20
-17.3733528447611
30
0
41
1
10
2.70238484820359
20
-17.4007333324901
30
0
41
1
10
2.8991463146582
20
-17.4710114745757
30
0
41
1
10
2.99205036817278
20
-17.5138257166828
30
0
41
1
10
3.12334791830938
20
-17.5893405278007
30
0
41
1
10
3.16569743466263
20
-17.6164091368174
30
0
41
1
10
3.24592494967385
20
-17.6731143558501
30
0
41
1
10
3.32217417409882
20
-17.7326563337544
30
0
41
1
10
3.39071766346237
20
-17.7976929611376
30
0
41
1
10
3.45542017042646
20
-17.8654684384515
30
0
41
1
10
3.48596281537482
20
-17.9008933732012
30
0
41
1
10
3.57022203602125
20
-18.00936223337
30
0
41
1
10
3.61710500279139
20
-18.0849483070445
30
0
41
1
10
3.69307456930585
20
-18.2423914308225
30
0
41
1
10
3.72216545475447
20
-18.3248953344652
30
0
41
1
10
3.76041910124567
20
-18.4903051390677
30
0
41
1
10
3.77000000000007
20
-18.5737866653694
30
0
41
1
10
3.77000000000007
20
-18.6580476610588
30
0
0
SPLINE
5
198
100
AcDbEntity
8
1
62
256
6
ByLayer
370
18
48
1
60
0
100
AcDbSpline
70
4
71
3
72
8
73
4
40
0
40
0
40
0
40
0
40
1
40
1
40
1
40
1
41
1
10
3.76873254456223
20
-16.00111583541
30
0
41
1
10
3.76946274699097
20
-16.0617785662041
30
0
41
1
10
3.77000000000007
20
-16.1244828578593
30
0
41
1
10
3.77000000000007
20
-16.1891854532602
30
0
0
SPLINE
5
199
100
AcDbEntity
8
1
62
256
6
ByLayer
370
18
48
1
60
0
100
AcDbSpline
70
4
71
3
72
36
73
32
40
0
40
0
40
0
40
0
40
0.0078125000000002
40
0.0078125000000002
40
0.0156250000000003
40
0.0156250000000003
40
0.0312500000000008
40
0.0312500000000008
40
0.0468750000000013
40
0.0468750000000013
40
0.0625000000000017
40
0.0625000000000017
40
0.0937500000000013
40
0.0937500000000013
40
0.125000000000001
40
0.125000000000001
40
0.15625
40
0.15625
40
0.1875
40
0.1875
40
0.250000000000001
40
0.250000000000001
40
0.375000000000001
40
0.375000000000001
40
0.500000000000001
40
0.500000000000001
40
0.625000000000001
40
0.625000000000001
40
0.750000000000001
40
0.750000000000001
40
1
40
1
40
1
40
1
41
1
10
2.17000000000007
20
-10.4731197956173
30
0
41
1
10
2.19453306747565
20
-10.4731197956173
30
0
41
1
10
2.21848926844234
20
-10.475303698828
30
0
41
1
10
2.265391058224
20
-10.4834955886186
30
0
41
1
10
2.28843977889605
20
-10.4895811055788
30
0
41
1
10
2.35335198377942
20
-10.5117102597398
30
0
41
1
10
2.3926714192734
20
-10.5319376205886
30
0
41
1
10
2.46353606641509
20
-10.5768068215312
30
0
41
1
10
2.49531773824361
20
-10.6015043454093
30
0
41
1
10
2.55451078091031
20
-10.6535734799781
30
0
41
1
10
2.58184620186268
20
-10.6809863299843
30
0
41
1
10
2.65791940829146
20
-10.7643811069129
30
0
41
1
10
2.70160231479218
20
-10.8221112789698
30
0
41
1
10
2.78157336425713
20
-10.939656827148
30
0
41
1
10
2.81769635863824
20
-10.9995258367236
30
0
41
1
10
2.88492019257291
20
-11.120566033821
30
0
41
1
10
2.91601544753041
20
-11.1818359653931
30
0
41
1
10
2.97409230181617
20
-11.3043089215264
30
0
41
1
10
3.00113075475693
20
-11.3656337665867
30
0
41
1
10
3.07771769708552
20
-11.5496838320745
30
0
41
1
10
3.12280973530366
20
-11.6724753723117
30
0
41
1
10
3.24636574315329
20
-12.0403201555506
30
0
41
1
10
3.31330732750777
20
-12.284817864999
30
0
41
1
10
3.42934070374824
20
-12.7706109864128
30
0
41
1
10
3.47811635484183
20
-13.0119469922517
30
0
41
1
10
3.56243773633597
20
-13.490757567647
30
0
41
1
10
3.59790293384879
20
-13.7282927990643
30
0
41
1
10
3.65791278671995
20
-14.1975307773926
30
0
41
1
10
3.68247350765566
20
-14.4294617881994
30
0
41
1
10
3.74215809345574
20
-15.1170935551844
30
0
41
1
10
3.76347852719209
20
-15.5646299668807
30
0
41
1
10
3.76873254456208
20
-16.0011158354114
30
0
0
SPLINE
5
19A
100
AcDbEntity
8
1
62
256
6
ByLayer
370
18
48
1
60
0
100
AcDbSpline
70
4
71
3
72
12
73
8
40
0
40
0
40
0
40
0
40
0.249999999999999
40
0.249999999999999
40
0.499999999999998
40
0.499999999999998
40
1
40
1
40
1
40
1
41
1
10
-0.324980947161606
20
-10.3992303777079
30
0
41
1
10
-0.324980947162089
20
-10.382160386372
30
0
41
1
10
-0.322272682190032
20
-10.36771321376
30
0
41
1
10
-0.314112329532691
20
-10.3415186347891
30
0
41
1
10
-0.308560266702472
20
-10.3298545571438
30
0
41
1
10
-0.288558618445933
20
-10.2981073391071
30
0
41
1
10
-0.271062951512903
20
-10.2814982680234
30
0
41
1
10
-0.249980947161618
20
-10.2693265671361
30
0
0
SPLINE
5
19B
100
AcDbEntity
8
1
62
256
6
ByLayer
370
18
48
1
60
0
100
AcDbSpline
70
4
71
3
72
14
73
10
40
0
40
0
40
0
40
0
40
0.25
40
0.25
40
0.5
40
0.5
40
0.75
40
0.75
40
1
40
1
40
1
40
1
41
1
10
-0.249980947161561
20
-10.7306734328641
30
0
41
1
10
-0.261170454548619
20
-10.7242131677621
30
0
41
1
10
-0.273714893758097
20
-10.7149334060329
30
0
41
1
10
-0.296507637462554
20
-10.6902851252669
30
0
41
1
10
-0.305604265762213
20
-10.6757872382091
30
0
41
1
10
-0.317090744544686
20
-10.6507185917273
30
0
41
1
10
-0.32029541658784
20
-10.6394071207653
30
0
41
1
10
-0.324248578481189
20
-10.618889378167
30
0
41
1
10
-0.324980944492751
20
-10.6094813158658
30
0
41
1
10
-0.324980947161606
20
-10.6007696682495
30
0
0
SPLINE
5
19C
100
AcDbEntity
8
1
62
256
6
ByLayer
370
18
48
1
60
0
100
AcDbSpline
70
4
71
3
72
8
73
4
40
0
40
0
40
0
40
0
40
1
40
1
40
1
40
1
41
1
10
-0.249980947161589
20
-10.730673432864
30
0
41
1
10
-0.0526311005795606
20
-10.8446134199127
30
0
41
1
10
0.14495640268521
20
-10.9586906181111
30
0
41
1
10
0.342769052838406
20
-11.0728978049262
30
0
0
SPLINE
5
19D
100
AcDbEntity
8
1
62
256
6
ByLayer
370
18
48
1
60
0
100
AcDbSpline
70
4
71
3
72
22
73
18
40
0
40
0
40
0
40
0
40
0.0625000000000023
40
0.0625000000000023
40
0.125000000000004
40
0.125000000000004
40
0.187500000000007
40
0.187500000000007
40
0.250000000000009
40
0.250000000000009
40
0.375000000000004
40
0.375000000000004
40
0.499999999999998
40
0.499999999999998
40
0.749999999999999
40
0.749999999999999
40
1
40
1
40
1
40
1
41
1
10
0.342769052838378
20
-11.0728978049261
30
0
41
1
10
0.35405059545127
20
-11.0794112065905
30
0
41
1
10
0.366209629257383
20
-11.0878490587059
30
0
41
1
10
0.39052077189578
20
-11.1100338146446
30
0
41
1
10
0.40217957738966
20
-11.1236871566762
30
0
41
1
10
0.42023907538703
20
-11.1510567178539
30
0
41
1
10
0.426716865430279
20
-11.1644252779558
30
0
41
1
10
0.436131893586492
20
-11.188940397959
30
0
41
1
10
0.439120072139303
20
-11.2000710535236
30
0
41
1
10
0.445319628398352
20
-11.2316415550311
30
0
41
1
10
0.445676858959757
20
-11.2496418556063
30
0
41
1
10
0.443105753875841
20
-11.2823802755194
30
0
41
1
10
0.440018994658715
20
-11.2971638179408
30
0
41
1
10
0.427264174779765
20
-11.3381142409964
30
0
41
1
10
0.414383428423577
20
-11.3604758779005
30
0
41
1
10
0.382981648139662
20
-11.3987889432571
30
0
41
1
10
0.364323351058317
20
-11.4146578151945
30
0
41
1
10
0.342769052838406
20
-11.427102195074
30
0
0
SPLINE
5
19E
100
AcDbEntity
8
1
62
256
6
ByLayer
370
18
48
1
60
0
100
AcDbSpline
70
4
71
3
72
8
73
4
40
0
40
0
40
0
40
0
40
1
40
1
40
1
40
1
41
1
10
0.342769052838406
20
-11.427102195074
30
0
41
1
10
0.14042882657094
20
-11.5439233791774
30
0
41
1
10
-0.0572098387455071
20
-11.6580301158001
30
0
41
1
10
-0.249980947161618
20
-11.7693265671361
30
0
0
SPLINE
5
19F
100
AcDbEntity
8
1
62
256
6
ByLayer
370
18
48
1
60
0
100
AcDbSpline
70
4
71
3
72
12
73
8
40
0
40
0
40
0
40
0
40
0.250000000000006
40
0.250000000000006
40
0.500000000000012
40
0.500000000000012
40
1
40
1
40
1
40
1
41
1
10
-0.324980947161606
20
-11.8992303777034
30
0
41
1
10
-0.324980947161578
20
-11.882281072652
30
0
41
1
10
-0.322258331788333
20
-11.8676586519618
30
0
41
1
10
-0.314110184966495
20
-11.8415202652741
30
0
41
1
10
-0.308588305166694
20
-11.8299276392253
30
0
41
1
10
-0.288794763919753
20
-11.7984256267749
30
0
41
1
10
-0.271268222819202
20
-11.7816167814671
30
0
41
1
10
-0.249980947161731
20
-11.769326567136
30
0
0
SPLINE
5
1A0
100
AcDbEntity
8
1
62
256
6
ByLayer
370
18
48
1
60
0
100
AcDbSpline
70
4
71
3
72
18
73
14
40
0
40
0
40
0
40
0
40
0.125000000000004
40
0.125000000000004
40
0.250000000000008
40
0.250000000000008
40
0.375000000000013
40
0.375000000000013
40
0.500000000000017
40
0.500000000000017
40
0.750000000000009
40
0.750000000000009
40
1
40
1
40
1
40
1
41
1
10
-0.249980947105939
20
-12.2306734328961
30
0
41
1
10
-0.255633945171439
20
-12.2274096729445
30
0
41
1
10
-0.261545722398665
20
-12.22353075228
30
0
41
1
10
-0.274089073361097
20
-12.2136471429456
30
0
41
1
10
-0.280558475671285
20
-12.2076881627031
30
0
41
1
10
-0.292389202618949
20
-12.1945432345728
30
0
41
1
10
-0.297726742185944
20
-12.1873734755298
30
0
41
1
10
-0.306407273047228
20
-12.1735286661002
30
0
41
1
10
-0.309705607901066
20
-12.1670655127171
30
0
41
1
10
-0.317845872191214
20
-12.1484469794849
30
0
41
1
10
-0.320694136903228
20
-12.137775026115
30
0
41
1
10
-0.324336623178027
20
-12.1179339928977
30
0
41
1
10
-0.324980944532314
20
-12.1090654184485
30
0
41
1
10
-0.324980947161606
20
-12.1007696698377
30
0
0
SPLINE
5
1A1
100
AcDbEntity
8
1
62
256
6
ByLayer
370
18
48
1
60
0
100
AcDbSpline
70
4
71
3
72
8
73
4
40
0
40
0
40
0
40
0
40
1
40
1
40
1
40
1
41
1
10
-0.24998094710665
20
-12.2306734328957
30
0
41
1
10
-0.052763289380465
20
-12.3445371006729
30
0
41
1
10
0.144826582216609
20
-12.4586156662286
30
0
41
1
10
0.342769052838378
20
-12.5728978049261
30
0
0
SPLINE
5
1A2
100
AcDbEntity
8
1
62
256
6
ByLayer
370
18
48
1
60
0
100
AcDbSpline
70
4
71
3
72
22
73
18
40
0
40
0
40
0
40
0
40
0.0625000000000027
40
0.0625000000000027
40
0.125000000000005
40
0.125000000000005
40
0.187500000000008
40
0.187500000000008
40
0.250000000000011
40
0.250000000000011
40
0.37500000000001
40
0.37500000000001
40
0.500000000000009
40
0.500000000000009
40
0.750000000000004
40
0.750000000000004
40
1
40
1
40
1
40
1
41
1
10
0.342769052838378
20
-12.5728978049261
30
0
41
1
10
0.354608181839438
20
-12.5797331292418
30
0
41
1
10
0.367641788104066
20
-12.588796950966
30
0
41
1
10
0.393933820837418
20
-12.6135796136968
30
0
41
1
10
0.406050000047884
20
-12.6287545713997
30
0
41
1
10
0.423576796837779
20
-12.65731337312
30
0
41
1
10
0.429373222380747
20
-12.6705238773507
30
0
41
1
10
0.437772772863923
20
-12.6945624553125
30
0
41
1
10
0.440407220383833
20
-12.705598953901
30
0
41
1
10
0.445588571768411
20
-12.736119363009
30
0
41
1
10
0.445625738411962
20
-12.7535773835825
30
0
41
1
10
0.442516530023795
20
-12.7857570881227
30
0
41
1
10
0.439280452881775
20
-12.8000626434378
30
0
41
1
10
0.426421000815168
20
-12.8396056103107
30
0
41
1
10
0.413679423890955
20
-12.8615037472978
30
0
41
1
10
0.382525012517647
20
-12.899170731647
30
0
41
1
10
0.363925974973881
20
-12.9148872403836
30
0
41
1
10
0.342769052839571
20
-12.9271021950733
30
0
0
SPLINE
5
1A3
100
AcDbEntity
8
1
62
256
6
ByLayer
370
18
48
1
60
0
100
AcDbSpline
70
4
71
3
72
8
73
4
40
0
40
0
40
0
40
0
40
1
40
1
40
1
40
1
41
1
10
0.342769052839515
20
-12.9271021950733
30
0
41
1
10
0.139093450173078
20
-13.0446943591002
30
0
41
1
10
-0.058561441859041
20
-13.1588104642216
30
0
41
1
10
-0.249980947161618
20
-13.2693265671361
30
0
0
SPLINE
5
1A4
100
AcDbEntity
8
1
62
256
6
ByLayer
370
18
48
1
60
0
100
AcDbSpline
70
4
71
3
72
12
73
8
40
0
40
0
40
0
40
0
40
0.25
40
0.25
40
0.5
40
0.5
40
1
40
1
40
1
40
1
41
1
10
-0.324980947161606
20
-13.3992303777038
30
0
41
1
10
-0.324980947161606
20
-13.382332687634
30
0
41
1
10
-0.322317549925117
20
-13.3679129498828
30
0
41
1
10
-0.314174146943316
20
-13.3416620797113
30
0
41
1
10
-0.308592611466111
20
-13.3299280767301
30
0
41
1
10
-0.288720362393775
20
-13.298320078643
30
0
41
1
10
-0.271353500686416
20
-13.281666016667
30
0
41
1
10
-0.249980947161618
20
-13.2693265671361
30
0
0
SPLINE
5
1A5
100
AcDbEntity
8
1
62
256
6
ByLayer
370
18
48
1
60
0
100
AcDbSpline
70
4
71
3
72
18
73
14
40
0
40
0
40
0
40
0
40
0.125000000000004
40
0.125000000000004
40
0.250000000000007
40
0.250000000000007
40
0.375000000000011
40
0.375000000000011
40
0.500000000000014
40
0.500000000000014
40
0.750000000000007
40
0.750000000000007
40
1
40
1
40
1
40
1
41
1
10
-0.249980947185236
20
-13.7306734328504
30
0
41
1
10
-0.255879787461282
20
-13.7272677358277
30
0
41
1
10
-0.262132384433073
20
-13.7231502516311
30
0
41
1
10
-0.275412231696265
20
-13.7125101634691
30
0
41
1
10
-0.282361551212858
20
-13.7059304146115
30
0
41
1
10
-0.294715763793477
20
-13.6916154260129
30
0
41
1
10
-0.299993431987815
20
-13.684047825987
30
0
41
1
10
-0.30810619654369
20
-13.6703472663304
30
0
41
1
10
-0.31118953250396
20
-13.6639225594934
30
0
41
1
10
-0.318524863889849
20
-13.6461505958499
30
0
41
1
10
-0.32112981406209
20
-13.6358528996719
30
0
41
1
10
-0.324389075210064
20
-13.6171262393291
30
0
41
1
10
-0.32498094465879
20
-13.6086863494071
30
0
41
1
10
-0.324980947161606
20
-13.600769669718
30
0
0
SPLINE
5
1A6
100
AcDbEntity
8
1
62
256
6
ByLayer
370
18
48
1
60
0
100
AcDbSpline
70
4
71
3
72
8
73
4
40
0
40
0
40
0
40
0
40
1
40
1
40
1
40
1
41
1
10
-0.249980947183275
20
-13.7306734328515
30
0
41
1
10
-0.0530000040877496
20
-13.8444004333729
30
0
41
1
10
0.144595422321999
20
-13.9584822060012
30
0
41
1
10
0.342769052838406
20
-14.0728978049262
30
0
0
SPLINE
5
1A7
100
AcDbEntity
8
1
62
256
6
ByLayer
370
18
48
1
60
0
100
AcDbSpline
70
4
71
3
72
24
73
20
40
0
40
0
40
0
40
0
40
0.062500000000001
40
0.062500000000001
40
0.0937500000000025
40
0.0937500000000025
40
0.125000000000004
40
0.125000000000004
40
0.187500000000009
40
0.187500000000009
40
0.250000000000014
40
0.250000000000014
40
0.375000000000015
40
0.375000000000015
40
0.500000000000016
40
0.500000000000016
40
0.750000000000008
40
0.750000000000008
40
1
40
1
40
1
40
1
41
1
10
0.34276905283474
20
-14.0728978049181
30
0
41
1
10
0.355492163966943
20
-14.0802434965546
30
0
41
1
10
0.370101104686711
20
-14.090516817362
30
0
41
1
10
0.391579881066747
20
-14.1117885239883
30
0
41
1
10
0.398484982044266
20
-14.1197537295975
30
0
41
1
10
0.410274648123959
20
-14.1355431801381
30
0
41
1
10
0.415157671611183
20
-14.1432678560082
30
0
41
1
10
0.427372229456665
20
-14.1652254088807
30
0
41
1
10
0.432321891040061
20
-14.1780120112319
30
0
41
1
10
0.439549508736491
20
-14.2014461443952
30
0
41
1
10
0.44168115763722
20
-14.2118967014106
30
0
41
1
10
0.445788200762848
20
-14.2412797940188
30
0
41
1
10
0.445442817618101
20
-14.2583164448054
30
0
41
1
10
0.441818702447762
20
-14.2892602049516
30
0
41
1
10
0.438463981017179
20
-14.3031082300084
30
0
41
1
10
0.425407582488702
20
-14.3414669139582
30
0
41
1
10
0.412753784859859
20
-14.3628334233236
30
0
41
1
10
0.381951448311071
20
-14.3996431149245
30
0
41
1
10
0.363680833357307
20
-14.4150287729628
30
0
41
1
10
0.342769052840339
20
-14.4271021950738
30
0
0
SPLINE
5
1A8
100
AcDbEntity
8
1
62
256
6
ByLayer
370
18
48
1
60
0
100
AcDbSpline
70
4
71
3
72
8
73
4
40
0
40
0
40
0
40
0
40
1
40
1
40
1
40
1
41
1
10
0.342769052839799
20
-14.4271021950732
30
0
41
1
10
0.136951465371538
20
-14.5459310346019
30
0
41
1
10
-0.0607307434435143
20
-14.6600629110753
30
0
41
1
10
-0.249980947161618
20
-14.7693265671361
30
0
0
SPLINE
5
1A9
100
AcDbEntity
8
1
62
256
6
ByLayer
370
18
48
1
60
0
100
AcDbSpline
70
4
71
3
72
12
73
8
40
0
40
0
40
0
40
0
40
0.249999999999995
40
0.249999999999995
40
0.49999999999999
40
0.49999999999999
40
1
40
1
40
1
40
1
41
1
10
-0.324980947162857
20
-14.8992303777025
30
0
41
1
10
-0.324980947162714
20
-14.8822327202224
30
0
41
1
10
-0.32230376507232
20
-14.8679024610084
30
0
41
1
10
-0.314253239814178
20
-14.8418833678347
30
0
41
1
10
-0.308779232189181
20
-14.8302966226743
30
0
41
1
10
-0.289069242120007
20
-14.7987354246533
30
0
41
1
10
-0.2715674655295
20
-14.7817895493241
30
0
41
1
10
-0.249980947163209
20
-14.7693265671344
30
0
0
SPLINE
5
1AA
100
AcDbEntity
8
1
62
256
6
ByLayer
370
18
48
1
60
0
100
AcDbSpline
70
4
71
3
72
18
73
14
40
0
40
0
40
0
40
0
40
0.125000000000008
40
0.125000000000008
40
0.250000000000017
40
0.250000000000017
40
0.375000000000025
40
0.375000000000025
40
0.500000000000034
40
0.500000000000034
40
0.750000000000017
40
0.750000000000017
40
1
40
1
40
1
40
1
41
1
10
-0.249980947169291
20
-15.2306734328595
30
0
41
1
10
-0.256081154466159
20
-15.2271514765341
30
0
41
1
10
-0.262717445722132
20
-15.2227905443194
30
0
41
1
10
-0.277142436186693
20
-15.2109958839184
30
0
41
1
10
-0.285001470129515
20
-15.2032301173288
30
0
41
1
10
-0.297781574311443
20
-15.1875029750969
30
0
41
1
10
-0.302626773518824
20
-15.1799265663384
30
0
41
1
10
-0.310060604035868
20
-15.1664412681964
30
0
41
1
10
-0.312734553913771
20
-15.1604407626018
30
0
41
1
10
-0.319279714209955
20
-15.1434857839012
30
0
41
1
10
-0.321537832798214
20
-15.1339462395638
30
0
41
1
10
-0.324437343072702
20
-15.1163386422425
30
0
41
1
10
-0.324980944828553
20
-15.1083205516147
30
0
41
1
10
-0.324980947162743
20
-15.1007696686657
30
0
0
SPLINE
5
1AB
100
AcDbEntity
8
1
62
256
6
ByLayer
370
18
48
1
60
0
100
AcDbSpline
70
4
71
3
72
8
73
4
40
0
40
0
40
0
40
0
40
1
40
1
40
1
40
1
41
1
10
-0.249980947168865
20
-15.2306734328598
30
0
41
1
10
-0.0534841279736042
20
-15.3441209243171
30
0
41
1
10
0.144124364079033
20
-15.4582102403979
30
0
41
1
10
0.342769052838406
20
-15.5728978049262
30
0
0
SPLINE
5
1AC
100
AcDbEntity
8
1
62
256
6
ByLayer
370
18
48
1
60
0
100
AcDbSpline
70
4
71
3
72
26
73
22
40
0
40
0
40
0
40
0
40
0.0312499999999991
40
0.0312499999999991
40
0.0624999999999982
40
0.0624999999999982
40
0.0937499999999973
40
0.0937499999999973
40
0.124999999999996
40
0.124999999999996
40
0.1875
40
0.1875
40
0.250000000000004
40
0.250000000000004
40
0.375000000000003
40
0.375000000000003
40
0.500000000000003
40
0.500000000000003
40
0.750000000000001
40
0.750000000000001
40
1
40
1
40
1
40
1
41
1
10
0.342769052838406
20
-15.5728978049261
30
0
41
1
10
0.349594124357822
20
-15.5768382618051
30
0
41
1
10
0.356954877171091
20
-15.5815885538066
30
0
41
1
10
0.37278990119998
20
-15.5937177583002
30
0
41
1
10
0.381285818620341
20
-15.6011915260059
30
0
41
1
10
0.397454220776666
20
-15.6183542733495
30
0
41
1
10
0.404609871674069
20
-15.6275380928635
30
0
41
1
10
0.415901574081147
20
-15.6443416507406
30
0
41
1
10
0.420288786491739
20
-15.652186781863
30
0
41
1
10
0.430951862660237
20
-15.6737574524049
30
0
41
1
10
0.435119125430219
20
-15.6860916729491
30
0
41
1
10
0.441074256374066
20
-15.7083938363465
30
0
41
1
10
0.442799242142513
20
-15.7184741707156
30
0
41
1
10
0.445882914634183
20
-15.7469103630901
30
0
41
1
10
0.445142323119455
20
-15.7632161318621
30
0
41
1
10
0.441022492344729
20
-15.7929385564271
30
0
41
1
10
0.43754577643935
20
-15.8063404779236
30
0
41
1
10
0.424260602356412
20
-15.8435596603406
30
0
41
1
10
0.411612191613756
20
-15.8644703135801
30
0
41
1
10
0.381069122415539
20
-15.9004060928586
30
0
41
1
10
0.363218614943719
20
-15.9152956348877
30
0
41
1
10
0.342769052838406
20
-15.927102195074
30
0
0
SPLINE
5
1AD
100
AcDbEntity
8
1
62
256
6
ByLayer
370
18
48
1
60
0
100
AcDbSpline
70
4
71
3
72
8
73
4
40
0
40
0
40
0
40
0
40
1
40
1
40
1
40
1
41
1
10
0.342769052838406
20
-15.927102195074
30
0
41
1
10
0.132896815745426
20
-16.048271987655
30
0
41
1
10
-0.0648365548912295
20
-16.1624334024199
30
0
41
1
10
-0.249980947161618
20
-16.2693265671361
30
0
0
SPLINE
5
1AE
100
AcDbEntity
8
1
62
256
6
ByLayer
370
18
48
1
60
0
100
AcDbSpline
70
4
71
3
72
12
73
8
40
0
40
0
40
0
40
0
40
0.250000000000001
40
0.250000000000001
40
0.500000000000001
40
0.500000000000001
40
1
40
1
40
1
40
1
41
1
10
-0.324980947161606
20
-16.3992303777038
30
0
41
1
10
-0.324980947161606
20
-16.3824490524556
30
0
41
1
10
-0.322353063383247
20
-16.3681078840146
30
0
41
1
10
-0.314291634352571
20
-16.3419618637764
30
0
41
1
10
-0.308805749579364
20
-16.3303458305287
30
0
41
1
10
-0.289084674083284
20
-16.2987466783825
30
0
41
1
10
-0.27170552398556
20
-16.2818692574135
30
0
41
1
10
-0.249980947161589
20
-16.2693265671362
30
0
0
SPLINE
5
1AF
100
AcDbEntity
8
1
62
256
6
ByLayer
370
18
48
1
60
0
100
AcDbSpline
70
4
71
3
72
8
73
4
40
0
40
0
40
0
40
0
40
1
40
1
40
1
40
1
41
1
10
-0.32498099999998
20
-16.4314008169766
30
0
41
1
10
-0.0501439137499915
20
-16.6609383700201
30
0
41
1
10
0.224852057199996
20
-16.8903609384219
30
0
41
1
10
0.500000000000057
20
-17.1196735250023
30
0
0
SPLINE
5
1B0
100
AcDbEntity
8
1
62
256
6
ByLayer
370
18
48
1
60
0
100
AcDbSpline
70
4
71
3
72
8
73
4
40
0
40
0
40
0
40
0
40
1
40
1
40
1
40
1
41
1
10
-0.0469703231319443
20
-10.1521183287043
30
0
41
1
10
-0.115112466683058
20
-10.1914602136266
30
0
41
1
10
-0.182784534593082
20
-10.2305307002511
30
0
41
1
10
-0.249980947161589
20
-10.2693265671361
30
0
0
SPLINE
5
1B1
100
AcDbEntity
8
1
62
256
6
ByLayer
370
18
48
1
60
0
100
AcDbSpline
70
4
71
3
72
9
73
5
40
0
40
0
40
0
40
0
40
0.999292586041592
40
1
40
1
40
1
40
1
41
1
10
0.342769052838293
20
18.9271021950738
30
0
41
1
10
-0.0434394769974915
20
19.1500797937379
30
0
41
1
10
-0.23787802212172
20
19.2623389401062
30
0
41
1
10
-0.237740711892006
20
19.2622596640081
30
0
41
1
10
-0.237739845779983
20
19.2622591639581
30
0
0
SPLINE
5
1B2
100
AcDbEntity
8
1
62
256
6
ByLayer
370
18
48
1
60
0
100
AcDbSpline
70
4
71
3
72
30
73
26
40
0
40
0
40
0
40
0
40
0.015624999999996
40
0.015624999999996
40
0.0312499999999921
40
0.0312499999999921
40
0.0390624999999921
40
0.0390624999999921
40
0.0468749999999921
40
0.0468749999999921
40
0.0624999999999934
40
0.0624999999999934
40
0.0937499999999934
40
0.0937499999999934
40
0.124999999999993
40
0.124999999999993
40
0.187499999999993
40
0.187499999999993
40
0.249999999999994
40
0.249999999999994
40
0.499999999999996
40
0.499999999999996
40
0.749999999999998
40
0.749999999999998
40
1
40
1
40
1
40
1
41
1
10
0.342769052844517
20
18.5728978049296
30
0
41
1
10
0.347171951280103
20
18.5754398195268
30
0
41
1
10
0.351960418968986
20
18.578405995617
30
0
41
1
10
0.362777228869447
20
18.5859371497907
30
0
41
1
10
0.368887800440831
20
18.5905116721255
30
0
41
1
10
0.379817395547917
20
18.6002003847112
30
0
41
1
10
0.383684111845895
20
18.603873799216
30
0
41
1
10
0.391157562605287
20
18.6115906793189
30
0
41
1
10
0.394657280740944
20
18.6155242596522
30
0
41
1
10
0.403675823340763
20
18.6263537691197
30
0
41
1
10
0.40799203260184
20
18.6324622716739
30
0
41
1
10
0.418659317700502
20
18.648735187959
30
0
41
1
10
0.422837359929815
20
18.6569874846892
30
0
41
1
10
0.429873212522125
20
18.6723064010642
30
0
41
1
10
0.43244870274637
20
18.6790960893602
30
0
41
1
10
0.438742659264335
20
18.697999306862
30
0
41
1
10
0.44107272149239
20
18.7087665577518
30
0
41
1
10
0.444156752008155
20
18.7287007453874
30
0
41
1
10
0.444833293181233
20
18.7377933366809
30
0
41
1
10
0.445598279075114
20
18.7805244811046
30
0
41
1
10
0.438596852656076
20
18.8064686815959
30
0
41
1
10
0.419591814375679
20
18.8517667571322
30
0
41
1
10
0.407057571212391
20
18.8706572738758
30
0
41
1
10
0.377955530591635
20
18.9029851967484
30
0
41
1
10
0.361336931577284
20
18.9163820252856
30
0
41
1
10
0.342769052838321
20
18.9271021950739
30
0
0
SPLINE
5
1B3
100
AcDbEntity
8
1
62
256
6
ByLayer
370
18
48
1
60
0
100
AcDbSpline
70
4
71
3
72
8
73
4
40
0
40
0
40
0
40
0
40
1
40
1
40
1
40
1
41
1
10
-0.24998094716409
20
18.2306734328625
30
0
41
1
10
-0.0602000624355412
20
18.3402434777476
30
0
41
1
10
0.137660453241693
20
18.4544782997358
30
0
41
1
10
0.342769052844545
20
18.5728978049296
30
0
0
SPLINE
5
1B4
100
AcDbEntity
8
1
62
256
6
ByLayer
370
18
48
1
60
0
100
AcDbSpline
70
4
71
3
72
22
73
18
40
0
40
0
40
0
40
0
40
0.500000000000006
40
0.500000000000006
40
0.625000000000008
40
0.625000000000008
40
0.75000000000001
40
0.75000000000001
40
0.812500000000011
40
0.812500000000011
40
0.843750000000004
40
0.843750000000004
40
0.874999999999997
40
0.874999999999997
40
0.937499999999998
40
0.937499999999998
40
1
40
1
40
1
40
1
41
1
10
-0.324980947161691
20
18.1007696736902
30
0
41
1
10
-0.324980942713637
20
18.1137518803148
30
0
41
1
10
-0.32378697269283
20
18.1278012981292
30
0
41
1
10
-0.316461247037779
20
18.1508365404435
30
0
41
1
10
-0.314676140574079
20
18.1557309360371
30
0
41
1
10
-0.309877142831397
20
18.1666369849615
30
0
41
1
10
-0.307015946513985
20
18.1725080306411
30
0
41
1
10
-0.29993794281225
20
18.1838699189831
30
0
41
1
10
-0.297061244389255
20
18.1881873513923
30
0
41
1
10
-0.290809955665537
20
18.1961373598804
30
0
41
1
10
-0.288344686571094
20
18.1990897237153
30
0
41
1
10
-0.282576626494119
20
18.2053705283388
30
0
41
1
10
-0.279276769685623
20
18.2086541663266
30
0
41
1
10
-0.270235529332211
20
18.2169304518466
30
0
41
1
10
-0.265307390123979
20
18.2206340696715
30
0
41
1
10
-0.256901453626
20
18.2265288472598
30
0
41
1
10
-0.253317987424708
20
18.2287467917696
30
0
41
1
10
-0.249980947164119
20
18.2306734328625
30
0
0
SPLINE
5
1B5
100
AcDbEntity
8
1
62
256
6
ByLayer
370
18
48
1
60
0
100
AcDbSpline
70
4
71
3
72
12
73
8
40
0
40
0
40
0
40
0
40
0.499999999999999
40
0.499999999999999
40
0.75
40
0.75
40
1
40
1
40
1
40
1
41
1
10
-0.249980947161674
20
17.769326567136
30
0
41
1
10
-0.272414825236666
20
17.7822787726816
30
0
41
1
10
-0.289849679960582
20
17.7996215327343
30
0
41
1
10
-0.309329969157886
20
17.8313737108875
30
0
41
1
10
-0.314672522354101
20
17.8429531170883
30
0
41
1
10
-0.322455514656213
20
17.8686997670905
30
0
41
1
10
-0.324980947161691
20
17.8827821226977
30
0
41
1
10
-0.324980947161691
20
17.8992303777037
30
0
0
SPLINE
5
1B6
100
AcDbEntity
8
1
62
256
6
ByLayer
370
18
48
1
60
0
100
AcDbSpline
70
4
71
3
72
8
73
4
40
0
40
0
40
0
40
0
40
1
40
1
40
1
40
1
41
1
10
0.342769052838293
20
17.4271021950738
30
0
41
1
10
0.122384349147381
20
17.5543413630751
30
0
41
1
10
-0.0754822092163749
20
17.66857967381
30
0
41
1
10
-0.249980947161703
20
17.769326567136
30
0
0
SPLINE
5
1B7
100
AcDbEntity
8
1
62
256
6
ByLayer
370
18
48
1
60
0
100
AcDbSpline
70
4
71
3
72
28
73
24
40
0
40
0
40
0
40
0
40
0.0312500000000019
40
0.0312500000000019
40
0.0468749999999989
40
0.0468749999999989
40
0.0624999999999959
40
0.0624999999999959
40
0.093749999999993
40
0.093749999999993
40
0.12499999999999
40
0.12499999999999
40
0.187499999999991
40
0.187499999999991
40
0.249999999999992
40
0.249999999999992
40
0.374999999999992
40
0.374999999999992
40
0.499999999999991
40
0.499999999999991
40
0.749999999999995
40
0.749999999999995
40
1
40
1
40
1
40
1
41
1
10
0.342769052838293
20
17.072897804926
30
0
41
1
10
0.35021978800927
20
17.0771994888827
30
0
41
1
10
0.358549452454554
20
17.0825539799038
30
0
41
1
10
0.372864218035488
20
17.093979869987
30
0
41
1
10
0.377987963333567
20
17.0984317564578
30
0
41
1
10
0.38816627188163
20
17.1083280814276
30
0
41
1
10
0.393183542585518
20
17.1137579495875
30
0
41
1
10
0.406502037973326
20
17.1297408233558
30
0
41
1
10
0.412744887295247
20
17.1393052009069
30
0
41
1
10
0.422483911889941
20
17.1561710776414
30
0
41
1
10
0.426016499717008
20
17.1635944235194
30
0
41
1
10
0.434672051565315
20
17.1840851392541
30
0
41
1
10
0.437986803453413
20
17.1957274100746
30
0
41
1
10
0.442636637049844
20
17.2170226031547
30
0
41
1
10
0.443877476648481
20
17.2266145363653
30
0
41
1
10
0.445780954070045
20
17.2535938389764
30
0
41
1
10
0.444634637795843
20
17.2691943605649
30
0
41
1
10
0.439866649629721
20
17.2978762065491
30
0
41
1
10
0.43616006970484
20
17.3109072275389
30
0
41
1
10
0.422428671235537
20
17.3468944380383
30
0
41
1
10
0.409842691366521
20
17.36691560185
30
0
41
1
10
0.379945598133048
20
17.4013274297263
30
0
41
1
10
0.362582983642881
20
17.4156626167901
30
0
41
1
10
0.342769052838321
20
17.4271021950739
30
0
0
SPLINE
5
1B8
100
AcDbEntity
8
1
62
256
6
ByLayer
370
18
48
1
60
0
100
AcDbSpline
70
4
71
3
72
8
73
4
40
0
40
0
40
0
40
0
40
1
40
1
40
1
40
1
41
1
10
-0.249980947157013
20
16.7306734328666
30
0
41
1
10
-0.0547247618711424
20
16.8434046440023
30
0
41
1
10
0.142923239003125
20
16.9575167705119
30
0
41
1
10
0.342769052838321
20
17.072897804926
30
0
0
SPLINE
5
1B9
100
AcDbEntity
8
1
62
256
6
ByLayer
370
18
48
1
60
0
100
AcDbSpline
70
4
71
3
72
20
73
16
40
0
40
0
40
0
40
0
40
0.249999999999999
40
0.249999999999999
40
0.499999999999998
40
0.499999999999998
40
0.624999999999997
40
0.624999999999997
40
0.749999999999997
40
0.749999999999997
40
0.812499999999996
40
0.812499999999996
40
0.874999999999996
40
0.874999999999996
40
1
40
1
40
1
40
1
41
1
10
-0.324980947161691
20
16.6007696742416
30
0
41
1
10
-0.324980944714099
20
16.607837442378
30
0
41
1
10
-0.324500996960722
20
16.6153798571387
30
0
41
1
10
-0.321956071445697
20
16.6318825954064
30
0
41
1
10
-0.319966113323659
20
16.6407981042995
30
0
41
1
10
-0.314369069028913
20
16.6564624937185
30
0
41
1
10
-0.312057921716644
20
16.662085122696
30
0
41
1
10
-0.305703740350026
20
16.6746698177185
30
0
41
1
10
-0.301711034698144
20
16.6816998750711
30
0
41
1
10
-0.292329218117658
20
16.6943481376133
30
0
41
1
10
-0.288588938352291
20
16.6989035673294
30
0
41
1
10
-0.280264486169727
20
16.7077856175684
30
0
41
1
10
-0.275807648856784
20
16.7119602336365
30
0
41
1
10
-0.263376019538526
20
16.7224405493047
30
0
41
1
10
-0.256236858595713
20
16.7270615807137
30
0
41
1
10
-0.24998094715707
20
16.7306734328665
30
0
0
SPLINE
5
1BA
100
AcDbEntity
8
1
62
256
6
ByLayer
370
18
48
1
60
0
100
AcDbSpline
70
4
71
3
72
12
73
8
40
0
40
0
40
0
40
0
40
0.499999999999998
40
0.499999999999998
40
0.749999999999999
40
0.749999999999999
40
1
40
1
40
1
40
1
41
1
10
-0.24998094716247
20
16.2693265671352
30
0
41
1
10
-0.271790390976662
20
16.2819182553922
30
0
41
1
10
-0.289240949627924
20
16.2989278931104
30
0
41
1
10
-0.308904019991445
20
16.3305383497191
30
0
41
1
10
-0.314354285966374
20
16.3421324331949
30
0
41
1
10
-0.322353048377465
20
16.3681407231553
30
0
41
1
10
-0.324980947161663
20
16.382518693589
30
0
41
1
10
-0.324980947161691
20
16.3992303777035
30
0
0
SPLINE
5
1BB
100
AcDbEntity
8
1
62
256
6
ByLayer
370
18
48
1
60
0
100
AcDbSpline
70
4
71
3
72
8
73
4
40
0
40
0
40
0
40
0
40
1
40
1
40
1
40
1
41
1
10
0.342769052838293
20
15.9271021950738
30
0
41
1
10
0.13289681574534
20
16.0482719876549
30
0
41
1
10
-0.0648365548913148
20
16.1624334024197
30
0
41
1
10
-0.249980947161703
20
16.269326567136
30
0
0
SPLINE
5
1BC
100
AcDbEntity
8
1
62
256
6
ByLayer
370
18
48
1
60
0
100
AcDbSpline
70
4
71
3
72
26
73
22
40
0
40
0
40
0
40
0
40
0.0312499999999997
40
0.0312499999999997
40
0.0624999999999993
40
0.0624999999999993
40
0.093749999999999
40
0.093749999999999
40
0.124999999999999
40
0.124999999999999
40
0.187500000000004
40
0.187500000000004
40
0.250000000000009
40
0.250000000000009
40
0.37500000000001
40
0.37500000000001
40
0.500000000000012
40
0.500000000000012
40
0.750000000000006
40
0.750000000000006
40
1
40
1
40
1
40
1
41
1
10
0.342769052838293
20
15.572897804926
30
0
41
1
10
0.349594124357736
20
15.576838261805
30
0
41
1
10
0.356954877171006
20
15.5815885538064
30
0
41
1
10
0.372789901199866
20
15.5937177583001
30
0
41
1
10
0.381285818620228
20
15.6011915260058
30
0
41
1
10
0.397454220776581
20
15.6183542733494
30
0
41
1
10
0.404609871673983
20
15.6275380928634
30
0
41
1
10
0.415901574081033
20
15.6443416507404
30
0
41
1
10
0.420288786491625
20
15.6521867818629
30
0
41
1
10
0.430951862660123
20
15.6737574524047
30
0
41
1
10
0.435119125430134
20
15.686091672949
30
0
41
1
10
0.441074256373952
20
15.7083938363464
30
0
41
1
10
0.442799242142399
20
15.7184741707154
30
0
41
1
10
0.445882914634098
20
15.74691036309
30
0
41
1
10
0.44514232311937
20
15.763216131862
30
0
41
1
10
0.441022492344644
20
15.792938556427
30
0
41
1
10
0.437545776439265
20
15.8063404779235
30
0
41
1
10
0.424260602356327
20
15.8435596603404
30
0
41
1
10
0.411612191613642
20
15.86447031358
30
0
41
1
10
0.381069122415454
20
15.9004060928585
30
0
41
1
10
0.363218614943634
20
15.9152956348875
30
0
41
1
10
0.342769052838321
20
15.9271021950739
30
0
0
SPLINE
5
1BD
100
AcDbEntity
8
1
62
256
6
ByLayer
370
18
48
1
60
0
100
AcDbSpline
70
4
71
3
72
8
73
4
40
0
40
0
40
0
40
0
40
1
40
1
40
1
40
1
41
1
10
-0.249980947159656
20
15.2306734328651
30
0
41
1
10
-0.0534841279674652
20
15.3441209243206
30
0
41
1
10
0.144124364082074
20
15.4582102403996
30
0
41
1
10
0.342769052838321
20
15.572897804926
30
0
0
SPLINE
5
1BE
100
AcDbEntity
8
1
62
256
6
ByLayer
370
18
48
1
60
0
100
AcDbSpline
70
4
71
3
72
18
73
14
40
0
40
0
40
0
40
0
40
0.250000000000006
40
0.250000000000006
40
0.500000000000011
40
0.500000000000011
40
0.625000000000008
40
0.625000000000008
40
0.750000000000006
40
0.750000000000006
40
0.875000000000003
40
0.875000000000003
40
1
40
1
40
1
40
1
41
1
10
-0.324980947176982
20
15.1007696733175
30
0
41
1
10
-0.324980944602686
20
15.1083379719955
30
0
41
1
10
-0.324432712680618
20
15.116420417677
30
0
41
1
10
-0.321494646794122
20
15.1341539514462
30
0
41
1
10
-0.319182438023034
20
15.1438135323921
30
0
41
1
10
-0.31259759882218
20
15.1607560309804
30
0
41
1
10
-0.309874417347146
20
15.1668188717233
30
0
41
1
10
-0.302439168976974
20
15.1802249766799
30
0
41
1
10
-0.297509190612317
20
15.1878765947346
30
0
41
1
10
-0.284807946299424
20
15.203428403464
30
0
41
1
10
-0.276922579050222
20
15.2111916961386
30
0
41
1
10
-0.262620965309196
20
15.2228530278961
30
0
41
1
10
-0.256002024866206
20
15.2271971620467
30
0
41
1
10
-0.249980947147094
20
15.2306734328874
30
0
0
SPLINE
5
1BF
100
AcDbEntity
8
1
62
256
6
ByLayer
370
18
48
1
60
0
100
AcDbSpline
70
4
71
3
72
12
73
8
40
0
40
0
40
0
40
0
40
0.499999999999999
40
0.499999999999999
40
0.749999999999999
40
0.749999999999999
40
1
40
1
40
1
40
1
41
1
10
-0.249980947161674
20
14.769326567136
30
0
41
1
10
-0.271516642800947
20
14.7817602068105
30
0
41
1
10
-0.289005300634443
20
14.7986536555467
30
0
41
1
10
-0.308758860239379
20
14.8302537328972
30
0
41
1
10
-0.314253887073903
20
14.8418692188385
30
0
41
1
10
-0.322334268365722
20
14.8680173504828
30
0
41
1
10
-0.324980947161691
20
14.8824182338688
30
0
41
1
10
-0.324980947161691
20
14.8992303777036
30
0
0
SPLINE
5
1C0
100
AcDbEntity
8
1
62
256
6
ByLayer
370
18
48
1
60
0
100
AcDbSpline
70
4
71
3
72
8
73
4
40
0
40
0
40
0
40
0
40
1
40
1
40
1
40
1
41
1
10
0.342769052839714
20
14.4271021950731
30
0
41
1
10
0.136951465371453
20
14.5459310346018
30
0
41
1
10
-0.0607307434435995
20
14.6600629110752
30
0
41
1
10
-0.249980947161674
20
14.769326567136
30
0
0
SPLINE
5
1C1
100
AcDbEntity
8
1
62
256
6
ByLayer
370
18
48
1
60
0
100
AcDbSpline
70
4
71
3
72
24
73
20
40
0
40
0
40
0
40
0
40
0.0624999999999906
40
0.0624999999999906
40
0.0937499999999886
40
0.0937499999999886
40
0.124999999999987
40
0.124999999999987
40
0.187499999999983
40
0.187499999999983
40
0.249999999999979
40
0.249999999999979
40
0.374999999999983
40
0.374999999999983
40
0.499999999999987
40
0.499999999999987
40
0.749999999999994
40
0.749999999999994
40
1
40
1
40
1
40
1
41
1
10
0.342769052834626
20
14.0728978049179
30
0
41
1
10
0.355492163966858
20
14.0802434965545
30
0
41
1
10
0.370101104686626
20
14.0905168173618
30
0
41
1
10
0.39157988106669
20
14.1117885239882
30
0
41
1
10
0.398484982044181
20
14.1197537295974
30
0
41
1
10
0.410274648123902
20
14.135543180138
30
0
41
1
10
0.415157671611098
20
14.1432678560081
30
0
41
1
10
0.42737222945658
20
14.1652254088806
30
0
41
1
10
0.432321891040004
20
14.1780120112318
30
0
41
1
10
0.439549508736405
20
14.2014461443951
30
0
41
1
10
0.441681157637134
20
14.2118967014104
30
0
41
1
10
0.445788200762763
20
14.2412797940188
30
0
41
1
10
0.445442817618016
20
14.2583164448053
30
0
41
1
10
0.441818702447677
20
14.2892602049515
30
0
41
1
10
0.438463981017094
20
14.3031082300083
30
0
41
1
10
0.425407582488617
20
14.3414669139581
30
0
41
1
10
0.412753784859774
20
14.3628334233235
30
0
41
1
10
0.381951448310986
20
14.3996431149243
30
0
41
1
10
0.363680833357222
20
14.4150287729627
30
0
41
1
10
0.342769052840254
20
14.4271021950737
30
0
0
SPLINE
5
1C2
100
AcDbEntity
8
1
62
256
6
ByLayer
370
18
48
1
60
0
100
AcDbSpline
70
4
71
3
72
8
73
4
40
0
40
0
40
0
40
0
40
1
40
1
40
1
40
1
41
1
10
-0.249980947161703
20
13.7306734328638
30
0
41
1
10
-0.0530000040733398
20
13.8444004333811
30
0
41
1
10
0.144595422329161
20
13.9584822060053
30
0
41
1
10
0.342769052838321
20
14.072897804926
30
0
0
SPLINE
5
1C3
100
AcDbEntity
8
1
62
256
6
ByLayer
370
18
48
1
60
0
100
AcDbSpline
70
4
71
3
72
18
73
14
40
0
40
0
40
0
40
0
40
0.249999999999976
40
0.249999999999976
40
0.499999999999952
40
0.499999999999952
40
0.624999999999964
40
0.624999999999964
40
0.749999999999976
40
0.749999999999976
40
0.874999999999988
40
0.874999999999988
40
1
40
1
40
1
40
1
41
1
10
-0.32498094716226
20
13.600769667036
30
0
41
1
10
-0.324980944779583
20
13.6087580826515
30
0
41
1
10
-0.324375091817615
20
13.6172515822332
30
0
41
1
10
-0.321101652115971
20
13.6359691257659
30
0
41
1
10
-0.318480845447766
20
13.6462848088004
30
0
41
1
10
-0.311140598526805
20
13.6640271324653
30
0
41
1
10
-0.308065534855757
20
13.67042906028
30
0
41
1
10
-0.299905142428798
20
13.684183591263
30
0
41
1
10
-0.294738072321366
20
13.6915917814672
30
0
41
1
10
-0.282309515722432
20
13.7059884988997
30
0
41
1
10
-0.27530700366836
20
13.7125990917556
30
0
41
1
10
-0.262137194402385
20
13.7231417450231
30
0
41
1
10
-0.255819243409434
20
13.727302690991
30
0
41
1
10
-0.249980947137715
20
13.7306734329127
30
0
0
SPLINE
5
1C4
100
AcDbEntity
8
1
62
256
6
ByLayer
370
18
48
1
60
0
100
AcDbSpline
70
4
71
3
72
12
73
8
40
0
40
0
40
0
40
0
40
0.50000000000001
40
0.50000000000001
40
0.750000000000005
40
0.750000000000005
40
1
40
1
40
1
40
1
41
1
10
-0.249980947161703
20
13.269326567136
30
0
41
1
10
-0.271365093900783
20
13.2816727100122
30
0
41
1
10
-0.288886118499477
20
13.2985023885229
30
0
41
1
10
-0.308718668188675
20
13.3301698901521
30
0
41
1
10
-0.314220321073321
20
13.3417949276563
30
0
41
1
10
-0.322302273623109
20
13.3678797646459
30
0
41
1
10
-0.324980947161691
20
13.3822418326897
30
0
41
1
10
-0.324980947161691
20
13.3992303777037
30
0
0
SPLINE
5
1C5
100
AcDbEntity
8
1
62
256
6
ByLayer
370
18
48
1
60
0
100
AcDbSpline
70
4
71
3
72
8
73
4
40
0
40
0
40
0
40
0
40
1
40
1
40
1
40
1
41
1
10
0.342769052839429
20
12.9271021950732
30
0
41
1
10
0.139093450172993
20
13.0446943591001
30
0
41
1
10
-0.0585614418591263
20
13.1588104642214
30
0
41
1
10
-0.249980947161703
20
13.269326567136
30
0
0
SPLINE
5
1C6
100
AcDbEntity
8
1
62
256
6
ByLayer
370
18
48
1
60
0
100
AcDbSpline
70
4
71
3
72
22
73
18
40
0
40
0
40
0
40
0
40
0.0625000000000003
40
0.0625000000000003
40
0.125000000000001
40
0.125000000000001
40
0.187500000000001
40
0.187500000000001
40
0.250000000000001
40
0.250000000000001
40
0.375000000000002
40
0.375000000000002
40
0.500000000000002
40
0.500000000000002
40
0.750000000000001
40
0.750000000000001
40
1
40
1
40
1
40
1
41
1
10
0.342769052838321
20
12.572897804926
30
0
41
1
10
0.354608181839779
20
12.579733129242
30
0
41
1
10
0.367641788105828
20
12.5887969509675
30
0
41
1
10
0.393933820836622
20
12.6135796136961
30
0
41
1
10
0.406050000047941
20
12.6287545713999
30
0
41
1
10
0.42357679683721
20
12.657313373119
30
0
41
1
10
0.429373222380377
20
12.67052387735
30
0
41
1
10
0.437772772863497
20
12.6945624553112
30
0
41
1
10
0.44040722038352
20
12.7055989538998
30
0
41
1
10
0.445588571768298
20
12.7361193630081
30
0
41
1
10
0.445625738411906
20
12.7535773835816
30
0
41
1
10
0.442516530023823
20
12.785757088122
30
0
41
1
10
0.439280452881803
20
12.8000626434372
30
0
41
1
10
0.426421000815253
20
12.8396056103102
30
0
41
1
10
0.413679423891011
20
12.8615037472975
30
0
41
1
10
0.382525012517647
20
12.8991707316468
30
0
41
1
10
0.363925974973853
20
12.9148872403835
30
0
41
1
10
0.342769052839486
20
12.9271021950732
30
0
0
SPLINE
5
1C7
100
AcDbEntity
8
1
62
256
6
ByLayer
370
18
48
1
60
0
100
AcDbSpline
70
4
71
3
72
8
73
4
40
0
40
0
40
0
40
0
40
1
40
1
40
1
40
1
41
1
10
-0.249980947161703
20
12.2306734328638
30
0
41
1
10
-0.0527632894172427
20
12.3445371006516
30
0
41
1
10
0.144826582198135
20
12.4586156662178
30
0
41
1
10
0.342769052838321
20
12.572897804926
30
0
0
SPLINE
5
1C8
100
AcDbEntity
8
1
62
256
6
ByLayer
370
18
48
1
60
0
100
AcDbSpline
70
4
71
3
72
16
73
12
40
0
40
0
40
0
40
0
40
0.25
40
0.25
40
0.5
40
0.5
40
0.625
40
0.625
40
0.75
40
0.75
40
1
40
1
40
1
40
1
41
1
10
-0.324980947189687
20
12.1007696222697
30
0
41
1
10
-0.324980947191165
20
12.1091375518883
30
0
41
1
10
-0.324309016993084
20
12.1181205982701
30
0
41
1
10
-0.320686052162699
20
12.1377824738948
30
0
41
1
10
-0.317786456289212
20
12.1486027991512
30
0
41
1
10
-0.309681694932891
20
12.1671101461962
30
0
41
1
10
-0.306333788099465
20
12.1736485913715
30
0
41
1
10
-0.297771572636009
20
12.187299242956
30
0
41
1
10
-0.292433481716586
20
12.1944924874515
30
0
41
1
10
-0.274589605548357
20
12.214323171248
30
0
41
1
10
-0.261321720492333
20
12.2241258343667
30
0
41
1
10
-0.249980947142348
20
12.2306734329092
30
0
0
SPLINE
5
1C9
100
AcDbEntity
8
1
62
256
6
ByLayer
370
18
48
1
60
0
100
AcDbSpline
70
4
71
3
72
12
73
8
40
0
40
0
40
0
40
0
40
0.500000000000013
40
0.500000000000013
40
0.750000000000007
40
0.750000000000007
40
1
40
1
40
1
40
1
41
1
10
-0.249980947161674
20
11.769326567136
30
0
41
1
10
-0.271180770286776
20
11.781566290724
30
0
41
1
10
-0.288598490316701
20
11.7981560037921
30
0
41
1
10
-0.308577748339104
20
11.8298896356489
30
0
41
1
10
-0.314125680259309
20
11.8415504008792
30
0
41
1
10
-0.322280802532987
20
11.8677503986238
30
0
41
1
10
-0.324980952094279
20
11.882334966346
30
0
41
1
10
-0.324980947161691
20
11.899230421496
30
0
0
SPLINE
5
1CA
100
AcDbEntity
8
1
62
256
6
ByLayer
370
18
48
1
60
0
100
AcDbSpline
70
4
71
3
72
8
73
4
40
0
40
0
40
0
40
0
40
1
40
1
40
1
40
1
41
1
10
0.342769052838321
20
11.4271021950739
30
0
41
1
10
0.140428826570854
20
11.5439233791773
30
0
41
1
10
-0.0572098387455924
20
11.6580301158
30
0
41
1
10
-0.249980947161674
20
11.769326567136
30
0
0
SPLINE
5
1CB
100
AcDbEntity
8
1
62
256
6
ByLayer
370
18
48
1
60
0
100
AcDbSpline
70
4
71
3
72
22
73
18
40
0
40
0
40
0
40
0
40
0.0625000000000055
40
0.0625000000000055
40
0.125000000000011
40
0.125000000000011
40
0.187500000000016
40
0.187500000000016
40
0.250000000000022
40
0.250000000000022
40
0.375000000000019
40
0.375000000000019
40
0.500000000000016
40
0.500000000000016
40
0.750000000000008
40
0.750000000000008
40
1
40
1
40
1
40
1
41
1
10
0.342769052838321
20
11.072897804926
30
0
41
1
10
0.354050595451184
20
11.0794112065904
30
0
41
1
10
0.366209629257327
20
11.0878490587058
30
0
41
1
10
0.390520771895666
20
11.1100338146445
30
0
41
1
10
0.402179577389575
20
11.1236871566761
30
0
41
1
10
0.420239075386945
20
11.1510567178538
30
0
41
1
10
0.426716865430194
20
11.1644252779557
30
0
41
1
10
0.436131893586406
20
11.1889403979589
30
0
41
1
10
0.439120072139218
20
11.2000710535235
30
0
41
1
10
0.445319628398266
20
11.231641555031
30
0
41
1
10
0.445676858959672
20
11.2496418556062
30
0
41
1
10
0.443105753875756
20
11.2823802755192
30
0
41
1
10
0.440018994658629
20
11.2971638179407
30
0
41
1
10
0.42726417477968
20
11.3381142409963
30
0
41
1
10
0.414383428423491
20
11.3604758779004
30
0
41
1
10
0.382981648139577
20
11.3987889432569
30
0
41
1
10
0.364323351058232
20
11.4146578151944
30
0
41
1
10
0.342769052838321
20
11.4271021950739
30
0
0
SPLINE
5
1CC
100
AcDbEntity
8
1
62
256
6
ByLayer
370
18
48
1
60
0
100
AcDbSpline
70
4
71
3
72
8
73
4
40
0
40
0
40
0
40
0
40
1
40
1
40
1
40
1
41
1
10
-0.249980947161703
20
10.7306734328638
30
0
41
1
10
-0.0526311005796458
20
10.8446134199125
30
0
41
1
10
0.144956402685125
20
10.9586906181109
30
0
41
1
10
0.342769052838321
20
11.072897804926
30
0
0
SPLINE
5
1CD
100
AcDbEntity
8
1
62
256
6
ByLayer
370
18
48
1
60
0
100
AcDbSpline
70
4
71
3
72
14
73
10
40
0
40
0
40
0
40
0
40
0.25
40
0.25
40
0.5
40
0.5
40
0.75
40
0.75
40
1
40
1
40
1
40
1
41
1
10
-0.324980947161691
20
10.6007696222962
30
0
41
1
10
-0.324980947161691
20
10.6094638429982
30
0
41
1
10
-0.324257414918662
20
10.6188504811584
30
0
41
1
10
-0.320279451864934
20
10.6394830025955
30
0
41
1
10
-0.317087137316179
20
10.6507433672038
30
0
41
1
10
-0.305544085308469
20
10.6759015823237
30
0
41
1
10
-0.296574052598146
20
10.6902248775749
30
0
41
1
10
-0.273553804333744
20
10.7150959876526
30
0
41
1
10
-0.261125044145842
20
10.7242393854776
30
0
41
1
10
-0.24998094715778
20
10.7306734328728
30
0
0
SPLINE
5
1CE
100
AcDbEntity
8
1
62
256
6
ByLayer
370
18
48
1
60
0
100
AcDbSpline
70
4
71
3
72
12
73
8
40
0
40
0
40
0
40
0
40
0.5
40
0.5
40
0.75
40
0.75
40
1
40
1
40
1
40
1
41
1
10
-0.249980947163323
20
10.269326567137
30
0
41
1
10
-0.271072889936448
20
10.2815040059751
30
0
41
1
10
-0.28843599571573
20
10.2979819796639
30
0
41
1
10
-0.308444760829559
20
10.329637044846
30
0
41
1
10
-0.314074872656761
20
10.3414150937224
30
0
41
1
10
-0.322278016727211
20
10.3677137080054
30
0
41
1
10
-0.324980951859572
20
10.382197579641
30
0
41
1
10
-0.324980947161691
20
10.3992304190756
30
0
0
SPLINE
5
1CF
100
AcDbEntity
8
1
62
256
6
ByLayer
370
18
48
1
60
0
100
AcDbSpline
70
4
71
3
72
8
73
4
40
0
40
0
40
0
40
0
40
1
40
1
40
1
40
1
41
1
10
-0.0469703231316601
20
10.1521183287039
30
0
41
1
10
-0.115112466683485
20
10.1914602136267
30
0
41
1
10
-0.182784534594219
20
10.2305307002516
30
0
41
1
10
-0.249980947163436
20
10.269326567137
30
0
0
SPLINE
5
1D0
100
AcDbEntity
8
1
62
256
6
ByLayer
370
18
48
1
60
0
100
AcDbSpline
70
4
71
3
72
28
73
24
40
0
40
0
40
0
40
0
40
0.0625000000000037
40
0.0625000000000037
40
0.125000000000007
40
0.125000000000007
40
0.250000000000012
40
0.250000000000012
40
0.312500000000012
40
0.312500000000012
40
0.375000000000012
40
0.375000000000012
40
0.500000000000009
40
0.500000000000009
40
0.562500000000008
40
0.562500000000008
40
0.625000000000006
40
0.625000000000006
40
0.750000000000004
40
0.750000000000004
40
0.875000000000002
40
0.875000000000002
40
1
40
1
40
1
40
1
41
1
10
3.77000000000007
20
-19.3041826059483
30
0
41
1
10
3.77000000000007
20
-19.2616731689436
30
0
41
1
10
3.767577001185
20
-19.2187677565009
30
0
41
1
10
3.75796946038875
20
-19.1339877911784
30
0
41
1
10
3.75080708739685
20
-19.0920042582325
30
0
41
1
10
3.72237134231273
20
-18.9672510917689
30
0
41
1
10
3.69421423497414
20
-18.8856677082107
30
0
41
1
10
3.63754375187043
20
-18.7657801351541
30
0
41
1
10
3.61615690014952
20
-18.7261635637379
30
0
41
1
10
3.56932272275262
20
-18.6494306448034
30
0
41
1
10
3.54379074318413
20
-18.6121067594412
30
0
41
1
10
3.46086478880395
20
-18.5032556002653
30
0
41
1
10
3.397208759644
20
-18.4348153205845
30
0
41
1
10
3.28810752051024
20
-18.3388677463933
30
0
41
1
10
3.2495741534274
20
-18.308160296627
30
0
41
1
10
3.16964451115945
20
-18.250486626367
30
0
41
1
10
3.12805158003866
20
-18.2233413694229
30
0
41
1
10
2.99835203863887
20
-18.1470181709016
30
0
41
1
10
2.90486875215308
20
-18.1027055218959
30
0
41
1
10
2.70562589196587
20
-18.0298945408953
30
0
41
1
10
2.60277700334072
20
-18.0023651212049
30
0
41
1
10
2.39065459511548
20
-17.9649751314483
30
0
41
1
10
2.2804373338399
20
-17.9551807963971
30
0
41
1
10
2.17000000000007
20
-17.9551807963971
30
0
0
SPLINE
5
1D1
100
AcDbEntity
8
1
62
256
6
ByLayer
370
18
48
1
60
0
100
AcDbSpline
70
4
71
3
72
26
73
22
40
0
40
0
40
0
40
0
40
0.125
40
0.125
40
0.25
40
0.25
40
0.375
40
0.375
40
0.500000000000001
40
0.500000000000001
40
0.625000000000001
40
0.625000000000001
40
0.687500000000001
40
0.687500000000001
40
0.750000000000001
40
0.750000000000001
40
0.812500000000001
40
0.812500000000001
40
0.875000000000001
40
0.875000000000001
40
1
40
1
40
1
40
1
41
1
10
12.4271400525472
20
-26.6365595849913
30
0
41
1
10
12.4024768246567
20
-26.5502268911779
30
0
41
1
10
12.3705724631755
20
-26.4642024859976
30
0
41
1
10
12.2941818116297
20
-26.2977861729828
30
0
41
1
10
12.2496371005545
20
-26.2169455100846
30
0
41
1
10
12.1476067763207
20
-26.0600894550065
30
0
41
1
10
12.0901323330304
20
-25.9840698979208
30
0
41
1
10
11.9608533032172
20
-25.8373740604456
30
0
41
1
10
11.8896724968191
20
-25.7675363281968
30
0
41
1
10
11.7357463589241
20
-25.6379695781912
30
0
41
1
10
11.6526877336884
20
-25.5778323602379
30
0
41
1
10
11.5173993925482
20
-25.4957825984498
30
0
41
1
10
11.4703890306282
20
-25.4697688298415
30
0
41
1
10
11.3743226011699
20
-25.421747475181
30
0
41
1
10
11.3250653230013
20
-25.3996045862141
30
0
41
1
10
11.2239437937955
20
-25.3592967668
30
0
41
1
10
11.1720806420882
20
-25.3411301588945
30
0
41
1
10
11.0654920178456
20
-25.3091645349599
30
0
41
1
10
11.0104128365195
20
-25.2953096604212
30
0
41
1
10
10.8441240981939
20
-25.2618679726569
30
0
41
1
10
10.7313691061817
20
-25.25
30
0
41
1
10
10.6164561775407
20
-25.25
30
0
0
SPLINE
5
1D2
100
AcDbEntity
8
1
62
256
6
ByLayer
370
18
48
1
60
0
100
AcDbSpline
70
4
71
3
72
28
73
24
40
0
40
0
40
0
40
0
40
0.124999999999999
40
0.124999999999999
40
0.187499999999998
40
0.187499999999998
40
0.249999999999997
40
0.249999999999997
40
0.374999999999996
40
0.374999999999996
40
0.499999999999995
40
0.499999999999995
40
0.624999999999993
40
0.624999999999993
40
0.687499999999995
40
0.687499999999995
40
0.749999999999996
40
0.749999999999996
40
0.874999999999998
40
0.874999999999998
40
0.937499999999999
40
0.937499999999999
40
1
40
1
40
1
40
1
41
1
10
10.8250000000001
20
-26.85
30
0
41
1
10
10.8250000000001
20
-26.7442997874771
30
0
41
1
10
10.8146286964868
20
-26.6403679928563
30
0
41
1
10
10.7841528162951
20
-26.4870141349616
30
0
41
1
10
10.7714892096076
20
-26.4363233077962
30
0
41
1
10
10.7410380646439
20
-26.3358153370079
30
0
41
1
10
10.7231654707113
20
-26.2858646546596
30
0
41
1
10
10.6629511420419
20
-26.1405703875116
30
0
41
1
10
10.613823605848
20
-26.0486916573497
30
0
41
1
10
10.497765175074
20
-25.8748103377904
30
0
41
1
10
10.4302245555756
20
-25.7924951583439
30
0
41
1
10
10.2827057050091
20
-25.6449517183615
30
0
41
1
10
10.2022181418519
20
-25.5787416743507
30
0
41
1
10
10.0711567193636
20
-25.4910364011129
30
0
41
1
10
10.0257580948649
20
-25.4638095312875
30
0
41
1
10
9.93348468242326
20
-25.4144558534087
30
0
41
1
10
9.88636904510116
20
-25.3921588640487
30
0
41
1
10
9.7421298740436
20
-25.3322991535447
30
0
41
1
10
9.64156206413824
20
-25.3015892686602
30
0
41
1
10
9.48658729570073
20
-25.2706498098016
30
0
41
1
10
9.43461927769886
20
-25.2629211934591
30
0
41
1
10
9.33006891789265
20
-25.2525896262241
30
0
41
1
10
9.27704949366313
20
-25.2500000000001
30
0
41
1
10
9.22500000000005
20
-25.2500000000001
30
0
0
SPLINE
5
1D3
100
AcDbEntity
8
1
62
256
6
ByLayer
370
18
48
1
60
0
100
AcDbSpline
70
4
71
3
72
10
73
6
40
0
40
0
40
0
40
0
40
0.5
40
0.5
40
1
40
1
40
1
40
1
41
1
10
12.4271400525449
20
-26.6365595849919
30
0
41
1
10
12.431968086456
20
-26.6718374118255
30
0
41
1
10
12.4356281784735
20
-26.7075548139305
30
0
41
1
10
12.4404812166087
20
-26.7789311877293
30
0
41
1
10
12.4416799734958
20
-26.8145160403786
30
0
41
1
10
12.4416799734958
20
-26.85
30
0
0
SPLINE
5
1D4
100
AcDbEntity
8
1
62
256
6
ByLayer
370
18
48
1
60
0
100
AcDbSpline
70
4
71
3
72
24
73
20
40
0
40
0
40
0
40
0
40
0.0625
40
0.0625
40
0.125
40
0.125
40
0.25
40
0.25
40
0.375
40
0.375
40
0.5
40
0.5
40
0.625
40
0.625
40
0.75
40
0.75
40
0.875
40
0.875
40
1
40
1
40
1
40
1
41
1
10
13.6734896996923
20
-45.7777018864083
30
0
41
1
10
13.7305083548217
20
-45.7306304079603
30
0
41
1
10
13.7795803739523
20
-45.6795648643932
30
0
41
1
10
13.871525800371
20
-45.5752214204322
30
0
41
1
10
13.9140573293809
20
-45.5217434567457
30
0
41
1
10
14.0357341112709
20
-45.3600947799214
30
0
41
1
10
14.1093469798967
20
-45.2502828950544
30
0
41
1
10
14.2457705864993
20
-45.0352372969859
30
0
41
1
10
14.3085136310551
20
-44.9296693393734
30
0
41
1
10
14.4247970029711
20
-44.7234189228058
30
0
41
1
10
14.4782814742652
20
-44.6227133763369
30
0
41
1
10
14.5754469876204
20
-44.4265949173107
30
0
41
1
10
14.6191488278778
20
-44.3311220809681
30
0
41
1
10
14.6946824872605
20
-44.146004023762
30
0
41
1
10
14.7258980693954
20
-44.057858795082
30
0
41
1
10
14.7728734508056
20
-43.8904515223365
30
0
41
1
10
14.7886669878184
20
-43.8111884832678
30
0
41
1
10
14.8006075230017
20
-43.6617512219046
30
0
41
1
10
14.7966286833524
20
-43.5914323067441
30
0
41
1
10
14.7796881707203
20
-43.5273727083802
30
0
0
SPLINE
5
1D5
100
AcDbEntity
8
1
62
256
6
ByLayer
370
18
48
1
60
0
100
AcDbSpline
70
4
71
3
72
24
73
20
40
0
40
0
40
0
40
0
40
0.124999999999999
40
0.124999999999999
40
0.249999999999999
40
0.249999999999999
40
0.374999999999998
40
0.374999999999998
40
0.499999999999998
40
0.499999999999998
40
0.624999999999997
40
0.624999999999997
40
0.749999999999996
40
0.749999999999996
40
0.874999999999996
40
0.874999999999996
40
0.937499999999998
40
0.937499999999998
40
1
40
1
40
1
40
1
41
1
10
11.8005934837314
20
-43.5273727083802
30
0
41
1
10
11.7900552463696
20
-43.5927240885289
30
0
41
1
10
11.7932913307702
20
-43.6631645816508
30
0
41
1
10
11.8199698279581
20
-43.8139689204376
30
0
41
1
10
11.8434984073286
20
-43.8943334844641
30
0
41
1
10
11.9070030182995
20
-44.0649243818547
30
0
41
1
10
11.9466520269831
20
-44.1541496037227
30
0
41
1
10
12.0375413130455
20
-44.3380624667052
30
0
41
1
10
12.0889245256359
20
-44.4330772313676
30
0
41
1
10
12.2018369005842
20
-44.6289312917667
30
0
41
1
10
12.2633610986183
20
-44.7297774838678
30
0
41
1
10
12.3962279991137
20
-44.9369072455423
30
0
41
1
10
12.4674709004124
20
-45.0430858828594
30
0
41
1
10
12.6188660952231
20
-45.2564160384039
30
0
41
1
10
12.699018100859
20
-45.3641052435301
30
0
41
1
10
12.83107651459
20
-45.5240771409182
30
0
41
1
10
12.8770891488117
20
-45.577130295352
30
0
41
1
10
12.9761367446329
20
-45.6810290012103
30
0
41
1
10
13.0286299414658
20
-45.7316948658268
30
0
41
1
10
13.0875442805095
20
-45.7777018864083
30
0
0
SPLINE
5
1D6
100
AcDbEntity
8
1
62
256
6
ByLayer
370
18
48
1
60
0
100
AcDbSpline
70
4
71
3
72
8
73
4
40
0
40
0
40
0
40
0
40
1
40
1
40
1
40
1
41
1
10
0.500000000000057
20
-19.9275844679396
30
0
41
1
10
0.269189935619437
20
-19.6970895228466
30
0
41
1
10
0.0383798781595317
20
-19.4665945708424
30
0
41
1
10
-0.192430172134436
20
-19.2360996116821
30
0
0
LINE
5
79
100
AcDbEntity
8
1
62
256
6
ByLayer
370
18
48
1
60
0
100
AcDbLine
10
13.73
20
-51.731355
30
0
11
13.73
21
-48.863903
31
0
39
0
210
0
220
0
230
1
0
LINE
5
7A
100
AcDbEntity
8
1
62
256
6
ByLayer
370
18
48
1
60
0
100
AcDbLine
10
17.1
20
-53.61089
30
0
11
10.9
21
-53.61089
31
0
39
0
210
0
220
0
230
1
0
LINE
5
7B
100
AcDbEntity
8
1
62
256
6
ByLayer
370
18
48
1
60
0
100
AcDbLine
10
13.539265
20
-51.718624
30
0
11
13.539265
21
-48.863838
31
0
39
0
210
0
220
0
230
1
0
LINE
5
7C
100
AcDbEntity
8
1
62
256
6
ByLayer
370
18
48
1
60
0
100
AcDbLine
10
14.27
20
-51.731355
30
0
11
14.27
21
-48.863903
31
0
39
0
210
0
220
0
230
1
0
LINE
5
7D
100
AcDbEntity
8
1
62
256
6
ByLayer
370
18
48
1
60
0
100
AcDbLine
10
13.087471
20
-35.939462
30
0
11
12.859339
21
-35.793968
31
0
39
0
210
0
220
0
230
1
0
LINE
5
7E
100
AcDbEntity
8
1
62
256
6
ByLayer
370
18
48
1
60
0
100
AcDbLine
10
14.658642
20
-35.250151
30
0
11
14.658642
21
-35.821286
31
0
39
0
210
0
220
0
230
1
0
LINE
5
7F
100
AcDbEntity
8
1
62
256
6
ByLayer
370
18
48
1
60
0
100
AcDbLine
10
13.842347
20
-35.071798
30
0
11
13.842347
21
-35.97882
31
0
39
0
210
0
220
0
230
1
0
LINE
5
80
100
AcDbEntity
8
1
62
256
6
ByLayer
370
18
48
1
60
0
100
AcDbLine
10
11.191251
20
-50.567505
30
0
11
10.9
21
-50.567505
31
0
39
0
210
0
220
0
230
1
0
LINE
5
81
100
AcDbEntity
8
1
62
256
6
ByLayer
370
18
48
1
60
0
100
AcDbLine
10
11.191251
20
-50.567505
30
0
11
11.191251
21
-48.295615
31
0
39
0
210
0
220
0
230
1
0
LINE
5
82
100
AcDbEntity
8
1
62
256
6
ByLayer
370
18
48
1
60
0
100
AcDbLine
10
10.9
20
-48.252467
30
0
11
10.9
21
-50.567505
31
0
39
0
210
0
220
0
230
1
0
LINE
5
83
100
AcDbEntity
8
1
62
256
6
ByLayer
370
18
48
1
60
0
100
AcDbLine
10
16.808749
20
-50.567505
30
0
11
17.1
21
-50.567505
31
0
39
0
210
0
220
0
230
1
0
LINE
5
84
100
AcDbEntity
8
1
62
256
6
ByLayer
370
18
48
1
60
0
100
AcDbLine
10
16.791384
20
-50.569675
30
0
11
14.899934
21
-51.045983
31
0
39
0
210
0
220
0
230
1
0
LINE
5
85
100
AcDbEntity
8
1
62
256
6
ByLayer
370
18
48
1
60
0
100
AcDbLine
10
14.855665
20
-51.074164
30
0
11
14.763883
21
-51.176756
31
0
39
0
210
0
220
0
230
1
0
LINE
5
86
100
AcDbEntity
8
1
62
256
6
ByLayer
370
18
48
1
60
0
100
AcDbLine
10
14.27
20
-51.731355
30
0
11
14
21
-51.731355
31
0
39
0
210
0
220
0
230
1
0
LINE
5
87
100
AcDbEntity
8
1
62
256
6
ByLayer
370
18
48
1
60
0
100
AcDbLine
10
13.73
20
-51.731355
30
0
11
14
21
-51.731355
31
0
39
0
210
0
220
0
230
1
0
LINE
5
88
100
AcDbEntity
8
1
62
256
6
ByLayer
370
18
48
1
60
0
100
AcDbLine
10
13.144335
20
-51.074164
30
0
11
13.236118
21
-51.176756
31
0
39
0
210
0
220
0
230
1
0
LINE
5
89
100
AcDbEntity
8
1
62
256
6
ByLayer
370
18
48
1
60
0
100
AcDbLine
10
11.208616
20
-50.569675
30
0
11
13.100066
21
-51.045983
31
0
39
0
210
0
220
0
230
1
0
LINE
5
8A
100
AcDbEntity
8
1
62
256
6
ByLayer
370
18
48
1
60
0
100
AcDbLine
10
17.1
20
-52.463738
30
0
11
10.9
21
-52.463738
31
0
39
0
210
0
220
0
230
1
0
LINE
5
8B
100
AcDbEntity
8
1
62
256
6
ByLayer
370
18
48
1
60
0
100
AcDbLine
10
17.1
20
-50.567505
30
0
11
17.1
21
-52.463738
31
0
39
0
210
0
220
0
230
1
0
LINE
5
8C
100
AcDbEntity
8
1
62
256
6
ByLayer
370
18
48
1
60
0
100
AcDbLine
10
10.9
20
-50.567505
30
0
11
10.9
21
-52.463738
31
0
39
0
210
0
220
0
230
1
0
LINE
5
8D
100
AcDbEntity
8
1
62
256
6
ByLayer
370
18
48
1
60
0
100
AcDbLine
10
11.208616
20
-50.569675
30
0
11
11.208616
21
-48.298118
31
0
39
0
210
0
220
0
230
1
0
LINE
5
8E
100
AcDbEntity
8
1
62
256
6
ByLayer
370
18
48
1
60
0
100
AcDbLine
10
16.791384
20
-50.569675
30
0
11
16.791384
21
-48.298118
31
0
39
0
210
0
220
0
230
1
0
LINE
5
8F
100
AcDbEntity
8
1
62
256
6
ByLayer
370
18
48
1
60
0
100
AcDbLine
10
16.808749
20
-50.567505
30
0
11
16.808749
21
-48.295615
31
0
39
0
210
0
220
0
230
1
0
LINE
5
90
100
AcDbEntity
8
1
62
256
6
ByLayer
370
18
48
1
60
0
100
AcDbLine
10
17.1
20
-48.252467
30
0
11
17.1
21
-50.567505
31
0
39
0
210
0
220
0
230
1
0
LINE
5
91
100
AcDbEntity
8
1
62
256
6
ByLayer
370
18
48
1
60
0
100
AcDbLine
10
13.100066
20
-51.045983
30
0
11
13.100066
21
-48.578277
31
0
39
0
210
0
220
0
230
1
0
LINE
5
92
100
AcDbEntity
8
1
62
256
6
ByLayer
370
18
48
1
60
0
100
AcDbLine
10
14.899934
20
-51.045983
30
0
11
14.899934
21
-48.578277
31
0
39
0
210
0
220
0
230
1
0
LINE
5
93
100
AcDbEntity
8
1
62
256
6
ByLayer
370
18
48
1
60
0
100
AcDbLine
10
14.855665
20
-51.074164
30
0
11
14.855665
21
-48.584801
31
0
39
0
210
0
220
0
230
1
0
LINE
5
94
100
AcDbEntity
8
1
62
256
6
ByLayer
370
18
48
1
60
0
100
AcDbLine
10
13.144335
20
-51.074164
30
0
11
13.144335
21
-48.584801
31
0
39
0
210
0
220
0
230
1
0
LINE
5
95
100
AcDbEntity
8
1
62
256
6
ByLayer
370
18
48
1
60
0
100
AcDbLine
10
14.763882
20
-48.612823
30
0
11
14.763882
21
-51.176755
31
0
39
0
210
0
220
0
230
1
0
LINE
5
96
100
AcDbEntity
8
1
62
256
6
ByLayer
370
18
48
1
60
0
100
AcDbLine
10
13.236118
20
-48.612823
30
0
11
13.236118
21
-51.176755
31
0
39
0
210
0
220
0
230
1
0
LINE
5
97
100
AcDbEntity
8
1
62
256
6
ByLayer
370
18
48
1
60
0
100
AcDbLine
10
14.733083
20
-48.639622
30
0
11
14.733083
21
-51.234732
31
0
39
0
210
0
220
0
230
1
0
LINE
5
98
100
AcDbEntity
8
1
62
256
6
ByLayer
370
18
48
1
60
0
100
AcDbLine
10
13.266918
20
-48.639622
30
0
11
13.266918
21
-51.234732
31
0
39
0
210
0
220
0
230
1
0
LINE
5
99
100
AcDbEntity
8
1
62
256
6
ByLayer
370
18
48
1
60
0
100
AcDbLine
10
14.677733
20
-51.461556
30
0
11
14.677733
21
-48.753861
31
0
39
0
210
0
220
0
230
1
0
LINE
5
9A
100
AcDbEntity
8
1
62
256
6
ByLayer
370
18
48
1
60
0
100
AcDbLine
10
13.322268
20
-51.461556
30
0
11
13.322268
21
-48.753861
31
0
39
0
210
0
220
0
230
1
0
LINE
5
9B
100
AcDbEntity
8
1
62
256
6
ByLayer
370
18
48
1
60
0
100
AcDbLine
10
14.460736
20
-51.718624
30
0
11
14.460736
21
-48.863838
31
0
39
0
210
0
220
0
230
1
0
LINE
5
9C
100
AcDbEntity
8
1
62
256
6
ByLayer
370
18
48
1
60
0
100
AcDbLine
10
17.1
20
-53.61089
30
0
11
17.1
21
-54.334128
31
0
39
0
210
0
220
0
230
1
0
LINE
5
9D
100
AcDbEntity
8
1
62
256
6
ByLayer
370
18
48
1
60
0
100
AcDbLine
10
10.9
20
-53.61089
30
0
11
10.9
21
-54.334128
31
0
39
0
210
0
220
0
230
1
0
LINE
5
9E
100
AcDbEntity
8
1
62
256
6
ByLayer
370
18
48
1
60
0
100
AcDbLine
10
1.5
20
-10.61352
30
0
11
0.5
21
-10.61352
31
0
39
0
210
0
220
0
230
1
0
LINE
5
9F
100
AcDbEntity
8
1
62
256
6
ByLayer
370
18
48
1
60
0
100
AcDbLine
10
1.5
20
-5.552168
30
0
11
0.5
21
-5.552168
31
0
39
0
210
0
220
0
230
1
0
LINE
5
A0
100
AcDbEntity
8
1
62
256
6
ByLayer
370
18
48
1
60
0
100
AcDbLine
10
0.5
20
-5.552168
30
0
11
0.5
21
-10.61352
31
0
39
0
210
0
220
0
230
1
0
LINE
5
A1
100
AcDbEntity
8
1
62
256
6
ByLayer
370
18
48
1
60
0
100
AcDbLine
10
-0.04697
20
-10.152118
30
0
11
0.5
21
-10.61352
31
0
39
0
210
0
220
0
230
1
0
LINE
5
A2
100
AcDbEntity
8
1
62
256
6
ByLayer
370
18
48
1
60
0
100
AcDbLine
10
0.126149
20
-5.552168
30
0
11
0.5
21
-5.552168
31
0
39
0
210
0
220
0
230
1
0
LINE
5
A3
100
AcDbEntity
8
1
62
256
6
ByLayer
370
18
48
1
60
0
100
AcDbLine
10
-0.324981
20
-6.10077
30
0
11
-0.324981
21
-5.89923
31
0
39
0
210
0
220
0
230
1
0
LINE
5
A4
100
AcDbEntity
8
1
62
256
6
ByLayer
370
18
48
1
60
0
100
AcDbLine
10
-0.324981
20
-7.60077
30
0
11
-0.324981
21
-7.39923
31
0
39
0
210
0
220
0
230
1
0
LINE
5
A5
100
AcDbEntity
8
1
62
256
6
ByLayer
370
18
48
1
60
0
100
AcDbLine
10
-0.324981
20
-9.10077
30
0
11
-0.324981
21
-8.89923
31
0
39
0
210
0
220
0
230
1
0
LINE
5
A6
100
AcDbEntity
8
1
62
256
6
ByLayer
370
18
48
1
60
0
100
AcDbLine
10
-0.249981
20
4.730673
30
0
11
0.342769
21
5.072898
31
0
39
0
210
0
220
0
230
1
0
LINE
5
A7
100
AcDbEntity
8
1
62
256
6
ByLayer
370
18
48
1
60
0
100
AcDbLine
10
-0.324981
20
4.39923
30
0
11
-0.324981
21
4.60077
31
0
39
0
210
0
220
0
230
1
0
LINE
5
A8
100
AcDbEntity
8
1
62
256
6
ByLayer
370
18
48
1
60
0
100
AcDbLine
10
0.342769
20
3.927102
30
0
11
-0.249981
21
4.269327
31
0
39
0
210
0
220
0
230
1
0
LINE
5
A9
100
AcDbEntity
8
1
62
256
6
ByLayer
370
18
48
1
60
0
100
AcDbLine
10
-0.249981
20
3.230673
30
0
11
0.342769
21
3.572898
31
0
39
0
210
0
220
0
230
1
0
LINE
5
AA
100
AcDbEntity
8
1
62
256
6
ByLayer
370
18
48
1
60
0
100
AcDbLine
10
-0.324981
20
2.89923
30
0
11
-0.324981
21
3.10077
31
0
39
0
210
0
220
0
230
1
0
LINE
5
AB
100
AcDbEntity
8
1
62
256
6
ByLayer
370
18
48
1
60
0
100
AcDbLine
10
0.342769
20
2.427102
30
0
11
-0.249981
21
2.769327
31
0
39
0
210
0
220
0
230
1
0
LINE
5
AC
100
AcDbEntity
8
1
62
256
6
ByLayer
370
18
48
1
60
0
100
AcDbLine
10
-0.249981
20
1.730673
30
0
11
0.342769
21
2.072898
31
0
39
0
210
0
220
0
230
1
0
LINE
5
AD
100
AcDbEntity
8
1
62
256
6
ByLayer
370
18
48
1
60
0
100
AcDbLine
10
-0.324981
20
1.39923
30
0
11
-0.324981
21
1.60077
31
0
39
0
210
0
220
0
230
1
0
LINE
5
AE
100
AcDbEntity
8
1
62
256
6
ByLayer
370
18
48
1
60
0
100
AcDbLine
10
0.342769
20
0.927102
30
0
11
-0.249981
21
1.269327
31
0
39
0
210
0
220
0
230
1
0
LINE
5
AF
100
AcDbEntity
8
1
62
256
6
ByLayer
370
18
48
1
60
0
100
AcDbLine
10
-0.249981
20
0.230673
30
0
11
0.342769
21
0.572898
31
0
39
0
210
0
220
0
230
1
0
LINE
5
B0
100
AcDbEntity
8
1
62
256
6
ByLayer
370
18
48
1
60
0
100
AcDbLine
10
-0.324981
20
-0.10077
30
0
11
-0.324981
21
0.10077
31
0
39
0
210
0
220
0
230
1
0
LINE
5
B1
100
AcDbEntity
8
1
62
256
6
ByLayer
370
18
48
1
60
0
100
AcDbLine
10
-0.249981
20
-0.230673
30
0
11
0.342769
21
-0.572898
31
0
39
0
210
0
220
0
230
1
0
LINE
5
B2
100
AcDbEntity
8
1
62
256
6
ByLayer
370
18
48
1
60
0
100
AcDbLine
10
0.342769
20
-0.927102
30
0
11
-0.249981
21
-1.269327
31
0
39
0
210
0
220
0
230
1
0
LINE
5
B3
100
AcDbEntity
8
1
62
256
6
ByLayer
370
18
48
1
60
0
100
AcDbLine
10
-0.324981
20
-1.60077
30
0
11
-0.324981
21
-1.39923
31
0
39
0
210
0
220
0
230
1
0
LINE
5
B4
100
AcDbEntity
8
1
62
256
6
ByLayer
370
18
48
1
60
0
100
AcDbLine
10
-0.249981
20
-1.730673
30
0
11
0.342769
21
-2.072898
31
0
39
0
210
0
220
0
230
1
0
LINE
5
B5
100
AcDbEntity
8
1
62
256
6
ByLayer
370
18
48
1
60
0
100
AcDbLine
10
0.342769
20
-2.427102
30
0
11
-0.249981
21
-2.769327
31
0
39
0
210
0
220
0
230
1
0
LINE
5
B6
100
AcDbEntity
8
1
62
256
6
ByLayer
370
18
48
1
60
0
100
AcDbLine
10
-0.324981
20
-3.10077
30
0
11
-0.324981
21
-2.89923
31
0
39
0
210
0
220
0
230
1
0
LINE
5
B7
100
AcDbEntity
8
1
62
256
6
ByLayer
370
18
48
1
60
0
100
AcDbLine
10
-0.249981
20
-3.230673
30
0
11
0.342769
21
-3.572898
31
0
39
0
210
0
220
0
230
1
0
LINE
5
B8
100
AcDbEntity
8
1
62
256
6
ByLayer
370
18
48
1
60
0
100
AcDbLine
10
0.342769
20
-3.927102
30
0
11
-0.249981
21
-4.269327
31
0
39
0
210
0
220
0
230
1
0
LINE
5
B9
100
AcDbEntity
8
1
62
256
6
ByLayer
370
18
48
1
60
0
100
AcDbLine
10
-0.324981
20
-4.60077
30
0
11
-0.324981
21
-4.39923
31
0
39
0
210
0
220
0
230
1
0
LINE
5
BA
100
AcDbEntity
8
1
62
256
6
ByLayer
370
18
48
1
60
0
100
AcDbLine
10
-0.249981
20
-4.730673
30
0
11
0.342769
21
-5.072898
31
0
39
0
210
0
220
0
230
1
0
LINE
5
BB
100
AcDbEntity
8
1
62
256
6
ByLayer
370
18
48
1
60
0
100
AcDbLine
10
0.342769
20
-5.427102
30
0
11
0.126149
21
-5.552168
31
0
39
0
210
0
220
0
230
1
0
LINE
5
BC
100
AcDbEntity
8
1
62
256
6
ByLayer
370
18
48
1
60
0
100
AcDbLine
10
0.5
20
5.552168
30
0
11
0.5
21
-5.552168
31
0
39
0
210
0
220
0
230
1
0
LINE
5
BD
100
AcDbEntity
8
1
62
256
6
ByLayer
370
18
48
1
60
0
100
AcDbLine
10
0.126149
20
5.552168
30
0
11
0.5
21
5.552168
31
0
39
0
210
0
220
0
230
1
0
LINE
5
BE
100
AcDbEntity
8
1
62
256
6
ByLayer
370
18
48
1
60
0
100
AcDbLine
10
0.342769
20
5.427102
30
0
11
0.126149
21
5.552168
31
0
39
0
210
0
220
0
230
1
0
LINE
5
BF
100
AcDbEntity
8
1
62
256
6
ByLayer
370
18
48
1
60
0
100
AcDbLine
10
12.89984
20
5.552168
30
0
11
0.5
21
5.552168
31
0
39
0
210
0
220
0
230
1
0
LINE
5
C0
100
AcDbEntity
8
1
62
256
6
ByLayer
370
18
48
1
60
0
100
AcDbLine
10
13.643354
20
10.61352
30
0
11
0.5
21
10.61352
31
0
39
0
210
0
220
0
230
1
0
LINE
5
C1
100
AcDbEntity
8
1
62
256
6
ByLayer
370
18
48
1
60
0
100
AcDbLine
10
0.5
20
10.61352
30
0
11
0.5
21
5.552168
31
0
39
0
210
0
220
0
230
1
0
LINE
5
C2
100
AcDbEntity
8
1
62
256
6
ByLayer
370
18
48
1
60
0
100
AcDbLine
10
12.89984
20
-7.1
30
0
11
1.5
21
-7.1
31
0
39
0
210
0
220
0
230
1
0
LINE
5
C3
100
AcDbEntity
8
1
62
256
6
ByLayer
370
18
48
1
60
0
100
AcDbLine
10
13.392844
20
-10.203831
30
0
11
1.5
21
-10.203831
31
0
39
0
210
0
220
0
230
1
0
LINE
5
C4
100
AcDbEntity
8
1
62
256
6
ByLayer
370
18
48
1
60
0
100
AcDbLine
10
1.5
20
-7.1
30
0
11
1.5
21
-10.203831
31
0
39
0
210
0
220
0
230
1
0
LINE
5
C5
100
AcDbEntity
8
1
62
256
6
ByLayer
370
18
48
1
60
0
100
AcDbLine
10
12.89984
20
5.552168
30
0
11
12.89984
21
-7.1
31
0
39
0
210
0
220
0
230
1
0
LINE
5
C6
100
AcDbEntity
8
1
62
256
6
ByLayer
370
18
48
1
60
0
100
AcDbLine
10
1.5
20
-7.1
30
0
11
1.5
21
-5.552168
31
0
39
0
210
0
220
0
230
1
0
LINE
5
C7
100
AcDbEntity
8
1
62
256
6
ByLayer
370
18
48
1
60
0
100
AcDbLine
10
-0.04697
20
10.152118
30
0
11
0.5
21
10.61352
31
0
39
0
210
0
220
0
230
1
0
LINE
5
C8
100
AcDbEntity
8
1
62
256
6
ByLayer
370
18
48
1
60
0
100
AcDbLine
10
-0.324981
20
8.89923
30
0
11
-0.324981
21
9.10077
31
0
39
0
210
0
220
0
230
1
0
LINE
5
C9
100
AcDbEntity
8
1
62
256
6
ByLayer
370
18
48
1
60
0
100
AcDbLine
10
-0.324981
20
7.39923
30
0
11
-0.324981
21
7.60077
31
0
39
0
210
0
220
0
230
1
0
LINE
5
CA
100
AcDbEntity
8
1
62
256
6
ByLayer
370
18
48
1
60
0
100
AcDbLine
10
-0.324981
20
5.89923
30
0
11
-0.324981
21
6.10077
31
0
39
0
210
0
220
0
230
1
0
LINE
5
CB
100
AcDbEntity
8
1
62
256
6
ByLayer
370
18
48
1
60
0
100
AcDbLine
10
17.175
20
12.25
30
0
11
17.175
21
-8.851572
31
0
39
0
210
0
220
0
230
1
0
LINE
5
CC
100
AcDbEntity
8
1
62
256
6
ByLayer
370
18
48
1
60
0
100
AcDbLine
10
16.131221
20
13.293779
30
0
11
17.175
21
12.25
31
0
39
0
210
0
220
0
230
1
0
LINE
5
CD
100
AcDbEntity
8
1
62
256
6
ByLayer
370
18
48
1
60
0
100
AcDbLine
10
15.156254
20
14.268746
30
0
11
15.388378
21
14.036622
31
0
39
0
210
0
220
0
230
1
0
LINE
5
CE
100
AcDbEntity
8
1
62
256
6
ByLayer
370
18
48
1
60
0
100
AcDbLine
10
15.55832
20
-23.458528
30
0
11
15.55832
21
-21
31
0
39
0
210
0
220
0
230
1
0
LINE
5
CF
100
AcDbEntity
8
1
62
256
6
ByLayer
370
18
48
1
60
0
100
AcDbLine
10
2.17
20
-17.327963
30
0
11
2.17
21
-10.47312
31
0
39
0
210
0
220
0
230
1
0
LINE
5
D0
100
AcDbEntity
8
1
62
256
6
ByLayer
370
18
48
1
60
0
100
AcDbLine
10
2.17
20
-10.47312
30
0
11
1.5
21
-10.47312
31
0
39
0
210
0
220
0
230
1
0
LINE
5
D1
100
AcDbEntity
8
1
62
256
6
ByLayer
370
18
48
1
60
0
100
AcDbLine
10
15.052168
20
-16.001116
30
0
11
3.768733
21
-16.001116
31
0
39
0
210
0
220
0
230
1
0
LINE
5
D2
100
AcDbEntity
8
1
62
256
6
ByLayer
370
18
48
1
60
0
100
AcDbLine
10
1.5
20
-10.203831
30
0
11
1.5
21
-10.47312
31
0
39
0
210
0
220
0
230
1
0
LINE
5
D3
100
AcDbEntity
8
1
62
256
6
ByLayer
370
18
48
1
60
0
100
AcDbLine
10
2.17
20
-17.327963
30
0
11
1.5
21
-17.327963
31
0
39
0
210
0
220
0
230
1
0
LINE
5
D4
100
AcDbEntity
8
1
62
256
6
ByLayer
370
18
48
1
60
0
100
AcDbLine
10
1.5
20
-10.47312
30
0
11
1.5
21
-17.327963
31
0
39
0
210
0
220
0
230
1
0
LINE
5
D5
100
AcDbEntity
8
1
62
256
6
ByLayer
370
18
48
1
60
0
100
AcDbLine
10
0.5
20
-10.61352
30
0
11
0.5
21
-17.119674
31
0
39
0
210
0
220
0
230
1
0
LINE
5
D6
100
AcDbEntity
8
1
62
256
6
ByLayer
370
18
48
1
60
0
100
AcDbLine
10
-0.324981
20
-10.60077
30
0
11
-0.324981
21
-10.39923
31
0
39
0
210
0
220
0
230
1
0
LINE
5
D7
100
AcDbEntity
8
1
62
256
6
ByLayer
370
18
48
1
60
0
100
AcDbLine
10
-0.324981
20
-12.10077
30
0
11
-0.324981
21
-11.89923
31
0
39
0
210
0
220
0
230
1
0
LINE
5
D8
100
AcDbEntity
8
1
62
256
6
ByLayer
370
18
48
1
60
0
100
AcDbLine
10
-0.324981
20
-13.60077
30
0
11
-0.324981
21
-13.39923
31
0
39
0
210
0
220
0
230
1
0
LINE
5
D9
100
AcDbEntity
8
1
62
256
6
ByLayer
370
18
48
1
60
0
100
AcDbLine
10
-0.324981
20
-15.10077
30
0
11
-0.324981
21
-14.89923
31
0
39
0
210
0
220
0
230
1
0
LINE
5
DA
100
AcDbEntity
8
1
62
256
6
ByLayer
370
18
48
1
60
0
100
AcDbLine
10
-0.324981
20
-16.431401
30
0
11
-0.324981
21
-16.39923
31
0
39
0
210
0
220
0
230
1
0
LINE
5
DB
100
AcDbEntity
8
1
62
256
6
ByLayer
370
18
48
1
60
0
100
AcDbLine
10
1.5
20
-17.119674
30
0
11
0.5
21
-17.119674
31
0
39
0
210
0
220
0
230
1
0
LINE
5
DC
100
AcDbEntity
8
1
62
256
6
ByLayer
370
18
48
1
60
0
100
AcDbLine
10
-0.237236
20
19.262764
30
0
11
0.5
21
20
31
0
39
0
210
0
220
0
230
1
0
LINE
5
DD
100
AcDbEntity
8
1
62
256
6
ByLayer
370
18
48
1
60
0
100
AcDbLine
10
-0.324981
20
17.89923
30
0
11
-0.324981
21
18.10077
31
0
39
0
210
0
220
0
230
1
0
LINE
5
DE
100
AcDbEntity
8
1
62
256
6
ByLayer
370
18
48
1
60
0
100
AcDbLine
10
-0.324981
20
16.39923
30
0
11
-0.324981
21
16.60077
31
0
39
0
210
0
220
0
230
1
0
LINE
5
DF
100
AcDbEntity
8
1
62
256
6
ByLayer
370
18
48
1
60
0
100
AcDbLine
10
-0.324981
20
14.89923
30
0
11
-0.324981
21
15.10077
31
0
39
0
210
0
220
0
230
1
0
LINE
5
E0
100
AcDbEntity
8
1
62
256
6
ByLayer
370
18
48
1
60
0
100
AcDbLine
10
-0.324981
20
13.39923
30
0
11
-0.324981
21
13.60077
31
0
39
0
210
0
220
0
230
1
0
LINE
5
E1
100
AcDbEntity
8
1
62
256
6
ByLayer
370
18
48
1
60
0
100
AcDbLine
10
-0.324981
20
11.89923
30
0
11
-0.324981
21
12.10077
31
0
39
0
210
0
220
0
230
1
0
LINE
5
E2
100
AcDbEntity
8
1
62
256
6
ByLayer
370
18
48
1
60
0
100
AcDbLine
10
-0.324981
20
10.39923
30
0
11
-0.324981
21
10.60077
31
0
39
0
210
0
220
0
230
1
0
LINE
5
E3
100
AcDbEntity
8
1
62
256
6
ByLayer
370
18
48
1
60
0
100
AcDbLine
10
0.5
20
20
30
0
11
0.5
21
10.61352
31
0
39
0
210
0
220
0
230
1
0
LINE
5
E4
100
AcDbEntity
8
1
62
256
6
ByLayer
370
18
48
1
60
0
100
AcDbLine
10
15.156254
20
14.268746
30
0
11
9.425
21
20
31
0
39
0
210
0
220
0
230
1
0
LINE
5
E5
100
AcDbEntity
8
1
62
256
6
ByLayer
370
18
48
1
60
0
100
AcDbLine
10
0.5
20
20
30
0
11
9.425
21
20
31
0
39
0
210
0
220
0
230
1
0
LINE
5
E6
100
AcDbEntity
8
1
62
256
6
ByLayer
370
18
48
1
60
0
100
AcDbLine
10
15.388388
20
14.036612
30
0
11
16.131221
21
13.293779
31
0
39
0
210
0
220
0
230
1
0
LINE
5
E7
100
AcDbEntity
8
1
62
256
6
ByLayer
370
18
48
1
60
0
100
AcDbLine
10
3.77
20
-21
30
0
11
3.77
21
-16.189185
31
0
39
0
210
0
220
0
230
1
0
LINE
5
E8
100
AcDbEntity
8
1
62
256
6
ByLayer
370
18
48
1
60
0
100
AcDbLine
10
15.55832
20
-21
30
0
11
3.77
21
-21
31
0
39
0
210
0
220
0
230
1
0
LINE
5
E9
100
AcDbEntity
8
1
62
256
6
ByLayer
370
18
48
1
60
0
100
AcDbLine
10
17.175
20
-12.029603
30
0
11
17.175
21
-8.851594
31
0
39
0
210
0
220
0
230
1
0
LINE
5
EA
100
AcDbEntity
8
1
62
256
6
ByLayer
370
18
48
1
60
0
100
AcDbLine
10
0.5
20
-17.119659
30
0
11
0.5
21
-17.743822
31
0
39
0
210
0
220
0
230
1
0
LINE
5
EB
100
AcDbEntity
8
1
62
256
6
ByLayer
370
18
48
1
60
0
100
AcDbLine
10
0.5
20
-17.743822
30
0
11
1.5
21
-17.743822
31
0
39
0
210
0
220
0
230
1
0
LINE
5
EC
100
AcDbEntity
8
1
62
256
6
ByLayer
370
18
48
1
60
0
100
AcDbLine
10
1.5
20
-17.955181
30
0
11
1.5
21
-17.743822
31
0
39
0
210
0
220
0
230
1
0
LINE
5
ED
100
AcDbEntity
8
1
62
256
6
ByLayer
370
18
48
1
60
0
100
AcDbLine
10
1.5
20
-17.955181
30
0
11
2.17
21
-17.955181
31
0
39
0
210
0
220
0
230
1
0
LINE
5
EE
100
AcDbEntity
8
1
62
256
6
ByLayer
370
18
48
1
60
0
100
AcDbLine
10
4.711555
20
-23.458557
30
0
11
7.27
21
-25.25
31
0
39
0
210
0
220
0
230
1
0
LINE
5
EF
100
AcDbEntity
8
1
62
256
6
ByLayer
370
18
48
1
60
0
100
AcDbLine
10
7.27
20
-25.25
30
0
11
10.616456
21
-25.25
31
0
39
0
210
0
220
0
230
1
0
LINE
5
F0
100
AcDbEntity
8
1
62
256
6
ByLayer
370
18
48
1
60
0
100
AcDbLine
10
12.42714
20
-26.63656
30
0
11
15.55832
21
-26.63656
31
0
39
0
210
0
220
0
230
1
0
LINE
5
F1
100
AcDbEntity
8
1
62
256
6
ByLayer
370
18
48
1
60
0
100
AcDbLine
10
12.44168
20
-26.85
30
0
11
10.825
21
-26.85
31
0
39
0
210
0
220
0
230
1
0
LINE
5
F2
100
AcDbEntity
8
1
62
256
6
ByLayer
370
18
48
1
60
0
100
AcDbLine
10
15.55832
20
-34.341235
30
0
11
15.55832
21
-26.63656
31
0
39
0
210
0
220
0
230
1
0
LINE
5
F3
100
AcDbEntity
8
1
62
256
6
ByLayer
370
18
48
1
60
0
100
AcDbLine
10
12.44168
20
-34.341235
30
0
11
12.44168
21
-26.85
31
0
39
0
210
0
220
0
230
1
0
LINE
5
F4
100
AcDbEntity
8
1
62
256
6
ByLayer
370
18
48
1
60
0
100
AcDbLine
10
12.44168
20
-34.341235
30
0
11
15.55832
21
-34.341235
31
0
39
0
210
0
220
0
230
1
0
LINE
5
F5
100
AcDbEntity
8
1
62
256
6
ByLayer
370
18
48
1
60
0
100
AcDbLine
10
16.71688
20
-39.239331
30
0
11
11.28312
21
-39.239331
31
0
39
0
210
0
220
0
230
1
0
LINE
5
F6
100
AcDbEntity
8
1
62
256
6
ByLayer
370
18
48
1
60
0
100
AcDbLine
10
10.825
20
-26.85
30
0
11
10.825
21
-41.147614
31
0
39
0
210
0
220
0
230
1
0
LINE
5
F7
100
AcDbEntity
8
1
62
256
6
ByLayer
370
18
48
1
60
0
100
AcDbLine
10
4.711513
20
-23.458528
30
0
11
3.77
21
-22.799274
31
0
39
0
210
0
220
0
230
1
0
LINE
5
F8
100
AcDbEntity
8
1
62
256
6
ByLayer
370
18
48
1
60
0
100
AcDbLine
10
15.55832
20
-23.458528
30
0
11
4.711513
21
-23.458528
31
0
39
0
210
0
220
0
230
1
0
LINE
5
F9
100
AcDbEntity
8
1
62
256
6
ByLayer
370
18
48
1
60
0
100
AcDbLine
10
3.77
20
-22.799274
30
0
11
3.77
21
-21
31
0
39
0
210
0
220
0
230
1
0
LINE
5
FA
100
AcDbEntity
8
1
62
256
6
ByLayer
370
18
48
1
60
0
100
AcDbLine
10
17.175
20
-12.029603
30
0
11
17.175
21
-41.147614
31
0
39
0
210
0
220
0
230
1
0
LINE
5
FB
100
AcDbEntity
8
1
62
256
6
ByLayer
370
18
48
1
60
0
100
AcDbLine
10
2.17
20
-20.25
30
0
11
2.17
21
-17.955181
31
0
39
0
210
0
220
0
230
1
0
LINE
5
FC
100
AcDbEntity
8
1
62
256
6
ByLayer
370
18
48
1
60
0
100
AcDbLine
10
1.5
20
-17.955181
30
0
11
1.5
21
-20.25
31
0
39
0
210
0
220
0
230
1
0
LINE
5
FD
100
AcDbEntity
8
1
62
256
6
ByLayer
370
18
48
1
60
0
100
AcDbLine
10
2.17
20
-20.25
30
0
11
1.5
21
-20.25
31
0
39
0
210
0
220
0
230
1
0
LINE
5
FE
100
AcDbEntity
8
1
62
256
6
ByLayer
370
18
48
1
60
0
100
AcDbLine
10
0.5
20
-17.743822
30
0
11
0.5
21
-20
31
0
39
0
210
0
220
0
230
1
0
LINE
5
FF
100
AcDbEntity
8
1
62
256
6
ByLayer
370
18
48
1
60
0
100
AcDbLine
10
1.5
20
-20
30
0
11
0.5
21
-20
31
0
39
0
210
0
220
0
230
1
0
LINE
5
100
100
AcDbEntity
8
1
62
256
6
ByLayer
370
18
48
1
60
0
100
AcDbLine
10
10.825
20
-43.527373
30
0
11
10.825
21
-41.147614
31
0
39
0
210
0
220
0
230
1
0
LINE
5
101
100
AcDbEntity
8
1
62
256
6
ByLayer
370
18
48
1
60
0
100
AcDbLine
10
11.800593
20
-43.527373
30
0
11
10.825
21
-43.527373
31
0
39
0
210
0
220
0
230
1
0
LINE
5
102
100
AcDbEntity
8
1
62
256
6
ByLayer
370
18
48
1
60
0
100
AcDbLine
10
17.175
20
-43.527373
30
0
11
14.779688
21
-43.527373
31
0
39
0
210
0
220
0
230
1
0
LINE
5
103
100
AcDbEntity
8
1
62
256
6
ByLayer
370
18
48
1
60
0
100
AcDbLine
10
17.175
20
-41.147614
30
0
11
17.175
21
-43.527373
31
0
39
0
210
0
220
0
230
1
0
LINE
5
104
100
AcDbEntity
8
1
62
256
6
ByLayer
370
18
48
1
60
0
100
AcDbLine
10
17.175
20
-45.777702
30
0
11
13.67349
21
-45.777702
31
0
39
0
210
0
220
0
230
1
0
LINE
5
105
100
AcDbEntity
8
1
62
256
6
ByLayer
370
18
48
1
60
0
100
AcDbLine
10
17.175
20
-43.527373
30
0
11
17.175
21
-45.777702
31
0
39
0
210
0
220
0
230
1
0
LINE
5
106
100
AcDbEntity
8
1
62
256
6
ByLayer
370
18
48
1
60
0
100
AcDbLine
10
13.087544
20
-45.777702
30
0
11
10.825
21
-45.777702
31
0
39
0
210
0
220
0
230
1
0
LINE
5
107
100
AcDbEntity
8
1
62
256
6
ByLayer
370
18
48
1
60
0
100
AcDbLine
10
10.825
20
-45.777702
30
0
11
10.825
21
-43.527373
31
0
39
0
210
0
220
0
230
1
0
LINE
5
108
100
AcDbEntity
8
1
62
256
6
ByLayer
370
18
48
1
60
0
100
AcDbLine
10
10.825
20
-48.241493
30
0
11
13.170875
21
-48.588776
31
0
39
0
210
0
220
0
230
1
0
LINE
5
109
100
AcDbEntity
8
1
62
256
6
ByLayer
370
18
48
1
60
0
100
AcDbLine
10
13.285781
20
-48.669726
30
0
11
13.334046
21
-48.781059
31
0
39
0
210
0
220
0
230
1
0
LINE
5
10A
100
AcDbEntity
8
1
62
256
6
ByLayer
370
18
48
1
60
0
100
AcDbLine
10
13.475
20
-48.863923
30
0
11
14.525
21
-48.863923
31
0
39
0
210
0
220
0
230
1
0
LINE
5
10B
100
AcDbEntity
8
1
62
256
6
ByLayer
370
18
48
1
60
0
100
AcDbLine
10
14.665954
20
-48.781059
30
0
11
14.714219
21
-48.669726
31
0
39
0
210
0
220
0
230
1
0
LINE
5
10C
100
AcDbEntity
8
1
62
256
6
ByLayer
370
18
48
1
60
0
100
AcDbLine
10
14.829125
20
-48.588776
30
0
11
17.175
21
-48.241493
31
0
39
0
210
0
220
0
230
1
0
LINE
5
10D
100
AcDbEntity
8
1
62
256
6
ByLayer
370
18
48
1
60
0
100
AcDbLine
10
17.175
20
-45.777702
30
0
11
17.175
21
-48.241493
31
0
39
0
210
0
220
0
230
1
0
LINE
5
10E
100
AcDbEntity
8
1
62
256
6
ByLayer
370
18
48
1
60
0
100
AcDbLine
10
10.825
20
-48.241493
30
0
11
10.825
21
-45.777702
31
0
39
0
210
0
220
0
230
1
0
LINE
5
10F
100
AcDbEntity
8
1
62
256
6
ByLayer
370
18
48
1
60
0
100
AcDbLine
10
-0.324981
20
-16.431401
30
0
11
-0.324981
21
-16.60077
31
0
39
0
210
0
220
0
230
1
0
LINE
5
110
100
AcDbEntity
8
1
62
256
6
ByLayer
370
18
48
1
60
0
100
AcDbLine
10
0.342769
20
-17.072898
30
0
11
-0.249981
21
-16.730673
31
0
39
0
210
0
220
0
230
1
0
LINE
5
111
100
AcDbEntity
8
1
62
256
6
ByLayer
370
18
48
1
60
0
100
AcDbLine
10
-0.249981
20
-17.769327
30
0
11
0.342769
21
-17.427102
31
0
39
0
210
0
220
0
230
1
0
LINE
5
112
100
AcDbEntity
8
1
62
256
6
ByLayer
370
18
48
1
60
0
100
AcDbLine
10
-0.324981
20
-17.89923
30
0
11
-0.324981
21
-18.10077
31
0
39
0
210
0
220
0
230
1
0
LINE
5
113
100
AcDbEntity
8
1
62
256
6
ByLayer
370
18
48
1
60
0
100
AcDbLine
10
0.342769
20
-18.572898
30
0
11
-0.249981
21
-18.230673
31
0
39
0
210
0
220
0
230
1
0
LINE
5
114
100
AcDbEntity
8
1
62
256
6
ByLayer
370
18
48
1
60
0
100
AcDbLine
10
-0.19243
20
-19.2361
30
0
11
0.342769
21
-18.927102
31
0
39
0
210
0
220
0
230
1
0
LINE
5
115
100
AcDbEntity
8
1
62
256
6
ByLayer
370
18
48
1
60
0
100
AcDbLine
10
10.825
20
-54.507026
30
0
11
10.825
21
-48.241516
31
0
39
0
210
0
220
0
230
1
0
LINE
5
116
100
AcDbEntity
8
1
62
256
6
ByLayer
370
18
48
1
60
0
100
AcDbLine
10
17.175
20
-48.241516
30
0
11
17.175
21
-54.507026
31
0
39
0
210
0
220
0
230
1
0
LINE
5
117
100
AcDbEntity
8
SK1
62
256
6
ByLayer
370
18
48
1
60
0
100
AcDbLine
10
-6.824981
20
5.9325
30
0
11
-0.325106
21
5.9325
31
0
39
0
210
0
220
0
230
1
0
LINE
5
119
100
AcDbEntity
8
SK1
62
256
6
ByLayer
370
18
48
1
60
0
100
AcDbLine
10
-6.824981
20
5.9325
30
0
11
-6.824981
21
-5.9325
31
0
39
0
210
0
220
0
230
1
0
LINE
5
11A
100
AcDbEntity
8
SK1
62
256
6
ByLayer
370
18
48
1
60
0
100
AcDbLine
10
-0.325106
20
-5.9325
30
0
11
-6.824981
21
-5.9325
31
0
39
0
210
0
220
0
230
1
0
LINE
5
11B
100
AcDbEntity
8
SK1
62
256
6
ByLayer
370
18
48
1
60
0
100
AcDbLine
10
-7.824981
20
5.664551
30
0
11
-7.824981
21
-5.664551
31
0
39
0
210
0
220
0
230
1
0
LINE
5
11C
100
AcDbEntity
8
SK1
62
256
6
ByLayer
370
18
48
1
60
0
100
AcDbLine
10
-6.824981
20
-5.9325
30
0
11
-7.824981
21
-5.664551
31
0
39
0
210
0
220
0
230
1
0
LINE
5
11D
100
AcDbEntity
8
SK1
62
256
6
ByLayer
370
18
48
1
60
0
100
AcDbLine
10
-7.824981
20
5.664551
30
0
11
-6.824981
21
5.9325
31
0
39
0
210
0
220
0
230
1
0
LINE
5
11E
100
AcDbEntity
8
SK4
62
256
6
ByLayer
370
13
48
0.05
60
0
100
AcDbLine
10
-9.824981
20
0
30
0
11
19.175019
21
0
31
0
39
0
210
0
220
0
230
1
0
LINE
5
120
100
AcDbEntity
8
4
62
256
6
ByLayer
370
13
48
0.05
60
0
100
AcDbLine
10
-0.324981
20
0
30
0
11
21.175019
21
0
31
0
39
0
210
0
220
0
230
1
0
LINE
5
122
100
AcDbEntity
8
80
62
256
6
ByLayer
370
18
48
1
60
0
100
AcDbLine
10
0
20
0
30
0
11
-9.36952
21
0
31
0
39
0
210
0
220
0
230
1
0
LINE
5
123
100
AcDbEntity
8
81
62
256
6
ByLayer
370
18
48
1
60
0
100
AcDbLine
10
14
20
-61
30
0
11
14
21
-65.87434
31
0
39
0
210
0
220
0
230
1
0
MTEXT
5
1D7
100
AcDbEntity
8
SK6
62
256
6
ByLayer
370
18
48
1
60
0
100
AcDbMText
10
-13.804016
20
-87.225829
30
0
210
0
220
0
230
1
1
\W0.7618;SL70-L123L35A-HP-M
40
3.175
41
0
44
1.084337
50
0
71
7
72
5
7
iso_b_vert
0
DIMENSION
5
1E9
100
AcDbEntity
8
2
62
256
6
ByLayer
370
13
48
1
60
0
100
AcDbDimension
2
DimnDraft3D1
10
34.730475
20
-61
30
0
11
34.730475
21
-30.5
31
0
70
32
71
5
72
1
41
1
210
0
220
0
230
1
3
Standard
100
AcDbAlignedDimension
13
1.5875
23
0
33
0
14
15.5875
24
-61
34
0
50
90
100
AcDbRotatedDimension
1001
ACAD
1000
DSTYLE
1002
{
1070
    74
1070
     0
1070
   279
1070
     0
1070
   172
1070
     1
1070
   173
1070
     1
1070
   340
1005
1D8
1070
   271
1070
     1
1070
   272
1070
     2
1070
    77
1070
     1
1070
    73
1070
     0
1070
   171
1070
     3
1070
   274
1070
     4
1070
   177
1070
     7
1070
   176
1070
     7
1070
   178
1070
     7
1070
    78
1070
     8
1070
    48
1040
-0.005
1070
    41
1041
3.175
1070
   147
1041
1.75006
1070
    42
1041
1.5875
1070
    44
1041
3.175
1070
   140
1041
3.50012
1070
   343
1005
0
1070
   344
1005
0
1002
}
0
DIMENSION
5
1F8
100
AcDbEntity
8
SK2
62
256
6
ByLayer
370
13
48
1
60
0
100
AcDbDimension
2
DimnDraft3D2
10
-15.145534
20
-61
30
0
11
-15.145534
21
-43.125
31
0
70
32
71
5
72
1
41
1
210
0
220
0
230
1
3
Standard
100
AcDbAlignedDimension
13
5.6825
23
-25.25
33
0
14
12.4125
24
-61
34
0
50
90
100
AcDbRotatedDimension
1001
ACAD
1000
DSTYLE
1002
{
1070
    74
1070
     0
1070
   279
1070
     0
1070
   172
1070
     1
1070
   173
1070
     1
1070
   340
1005
1D8
1070
   271
1070
     2
1070
   272
1070
     2
1070
    77
1070
     1
1070
    73
1070
     0
1070
   171
1070
     3
1070
   274
1070
     4
1070
   177
1070
     7
1070
   176
1070
     7
1070
   178
1070
     7
1070
    78
1070
     8
1070
    48
1040
-0.005
1070
    41
1041
3.175
1070
   147
1041
1.75006
1070
    42
1041
1.5875
1070
    44
1041
3.175
1070
   140
1041
3.50012
1070
   343
1005
1F9
1070
   344
1005
1F9
1002
}
0
DIMENSION
5
20D
100
AcDbEntity
8
2
62
256
6
ByLayer
370
13
48
1
60
0
100
AcDbDimension
2
DimnDraft3D3
10
0
20
-73.670426
30
0
11
7.081381
21
-73.670426
31
0
70
32
71
5
72
1
41
1
210
0
220
0
230
1
3
Standard
100
AcDbAlignedDimension
13
14
23
-62.5875
33
0
14
0
24
-1.5875
34
0
50
0
100
AcDbRotatedDimension
1001
ACAD
1000
DSTYLE
1002
{
1070
   279
1070
     0
1070
   172
1070
     1
1070
   173
1070
     1
1070
   340
1005
1D8
1070
   271
1070
     2
1070
   272
1070
     2
1070
    77
1070
     1
1070
    73
1070
     0
1070
   171
1070
     3
1070
   274
1070
     4
1070
   177
1070
     7
1070
   176
1070
     7
1070
   178
1070
     7
1070
    78
1070
     8
1070
    48
1040
-0.005
1070
    41
1041
3.175
1070
   147
1041
1.75006
1070
    42
1041
1.5875
1070
    44
1041
3.175
1070
   140
1041
3.50012
1070
   343
1005
0
1070
   344
1005
0
1002
}
0
DIMENSION
5
21B
100
AcDbEntity
8
SK2
62
256
6
ByLayer
370
13
48
1
60
0
100
AcDbDimension
2
DimnDraft3D4
10
-16.709935
20
-20
30
0
11
-16.709935
21
0
31
0
70
32
71
5
72
1
41
1
210
0
220
0
230
1
3
Standard
100
AcDbAlignedDimension
13
-1.0875
23
20
33
0
14
-1.0875
24
-20
34
0
50
90
100
AcDbRotatedDimension
1001
ACAD
1000
DSTYLE
1002
{
1070
    74
1070
     0
1070
   279
1070
     0
1070
   172
1070
     1
1070
   173
1070
     1
1070
   340
1005
1D8
1070
   271
1070
     2
1070
   272
1070
     2
1070
    77
1070
     1
1070
    73
1070
     0
1070
   171
1070
     3
1070
   274
1070
     4
1070
   177
1070
     7
1070
   176
1070
     7
1070
   178
1070
     7
1070
    78
1070
     8
1070
    48
1040
-0.005
1070
    41
1041
3.175
1070
   147
1041
1.75006
1070
    42
1041
1.5875
1070
    44
1041
3.175
1070
   140
1041
3.50012
1070
   343
1005
0
1070
   344
1005
0
1002
}
0
ENDSEC
0
SECTION
2
OBJECTS
0
DICTIONARY
5
286
330
0
100
AcDbDictionary
280
0
281
1
3
ACAD_GROUP
350
287
3
ACAD_MLINESTYLE
350
288
0
DICTIONARY
5
287
330
0
100
AcDbDictionary
280
0
281
1
0
DICTIONARY
5
288
330
0
100
AcDbDictionary
280
0
281
1
3
Standard
350
18
0
MLINESTYLE
5
18
330
288
100
AcDbMlineStyle
2
Standard
70
0
3

62
256
51
90
52
90
71
2
49
-0.5
62
256
6
ByLayer
49
0.5
62
256
6
ByLayer
0
RASTERVARIABLES
5
274
330

100
AcDbRasterVariables
90
0
70
1
71
1
72
1
0
ENDSEC
0
EOF
