0
SECTION
2
HEADER
9
$ACADVER
1
AC1015
9
$DWGCODEPAGE
3
ANSI_1252
9
$HANDSEED
5
360
9
$ANGBASE
50
0
9
$ANGDIR
70
0
9
$ATTMODE
70
1
9
$AUNITS
70
0
9
$AUPREC
70
0
9
$CECOLOR
62
256
9
$CELTSCALE
40
1
9
$CELTYPE
6
ByLayer
9
$CELWEIGHT
370
18
9
$CLAYER
8
0
9
$CMLJUST
70
0
9
$CMLSCALE
40
1
9
$CMLSTYLE
2
Standard
9
$DIMSTYLE
2
Standard
9
$TEXTSIZE
40
0.2
9
$TEXTSTYLE
7
Standard
9
$LUNITS
70
2
9
$LUPREC
70
4
9
$EXTNAMES
290
1
9
$INSUNITS
70
4
9
$LTSCALE
40
1
9
$LWDISPLAY
290
1
9
$PDMODE
70
0
9
$PDSIZE
40
0
9
$PLINEGEN
70
0
0
ENDSEC
0
SECTION
2
CLASSES
0
CLASS
1
RASTERVARIABLES
2
AcDbRasterVariables
3
ISM
90
0
280
0
281
0
0
ENDSEC
0
SECTION
2
TABLES
0
TABLE
2
VPORT
5
356
100
AcDbSymbolTable
0
VPORT
5
1
100
AcDbSymbolTableRecord
100
AcDbViewportTableRecord
2
*Active
70
0
10
0
20
0
11
1
21
1
12
-1
22
1
13
0
23
0
14
0.5
24
0.5
15
10
25
10
16
0
26
0
36
1
17
0
27
0
37
0
0
ENDTAB
0
TABLE
2
LTYPE
5
357
100
AcDbSymbolTable
0
LTYPE
5
14
100
AcDbSymbolTableRecord
100
AcDbLinetypeTableRecord
70
0
2
ByBlock
3

72
65
73
0
40
0
0
LTYPE
5
15
100
AcDbSymbolTableRecord
100
AcDbLinetypeTableRecord
70
0
2
ByLayer
3

72
65
73
0
40
0
0
LTYPE
5
16
100
AcDbSymbolTableRecord
100
AcDbLinetypeTableRecord
70
0
2
CONTINUOUS
3
Solid line
72
65
73
0
40
0
0
LTYPE
5
6A
100
AcDbSymbolTableRecord
100
AcDbLinetypeTableRecord
70
0
2
CENTER
3
____ _ ____ _ ____ _ ____
72
65
73
4
40
47.5
49
22
74
0
49
-8.5
74
0
49
8.5
74
0
49
-8.5
74
0
0
LTYPE
5
6B
100
AcDbSymbolTableRecord
100
AcDbLinetypeTableRecord
70
0
2
DASHED
3
__ __ __ __ __ __ __ __ __
72
65
73
2
40
25.72
49
12.86
74
0
49
-12.86
74
0
0
ENDTAB
0
TABLE
2
LAYER
5
358
100
AcDbSymbolTable
0
LAYER
5
10
100
AcDbSymbolTableRecord
100
AcDbLayerTableRecord
2
0
70
0
62
7
6
CONTINUOUS
290
1
370
-3
390
0
0
LAYER
5
6D
100
AcDbSymbolTableRecord
100
AcDbLayerTableRecord
2
81
70
0
62
-3
6
CONTINUOUS
290
1
370
-3
390
0
0
LAYER
5
6F
100
AcDbSymbolTableRecord
100
AcDbLayerTableRecord
2
80
70
0
62
-6
6
CONTINUOUS
290
1
370
-3
390
0
0
LAYER
5
73
100
AcDbSymbolTableRecord
100
AcDbLayerTableRecord
2
1
70
0
62
4
6
CONTINUOUS
290
1
370
-3
390
0
0
LAYER
5
2C2
100
AcDbSymbolTableRecord
100
AcDbLayerTableRecord
2
2
70
0
62
7
6
CONTINUOUS
290
1
370
-3
390
0
0
LAYER
5
344
100
AcDbSymbolTableRecord
100
AcDbLayerTableRecord
2
SK6
70
0
62
5
6
CONTINUOUS
290
1
370
-3
390
0
0
LAYER
5
345
100
AcDbSymbolTableRecord
100
AcDbLayerTableRecord
2
SK2
70
0
62
7
6
CONTINUOUS
290
1
370
-3
390
0
0
ENDTAB
0
TABLE
2
STYLE
5
359
100
AcDbSymbolTable
0
STYLE
5
11
100
AcDbSymbolTableRecord
100
AcDbTextStyleTableRecord
2
Standard
3
txt
70
0
71
0
40
0
41
1
42
0
50
0
0
STYLE
5
2A7
100
AcDbSymbolTableRecord
100
AcDbTextStyleTableRecord
2
iso_b_vert
3
simplex.shx
70
0
71
0
40
0
41
1
42
0
50
0
0
STYLE
5
2A8
100
AcDbSymbolTableRecord
100
AcDbTextStyleTableRecord
2
DWGDirectTextStyle
3
simplex
70
0
71
0
40
0
41
1
42
0
50
0
0
ENDTAB
0
TABLE
2
DIMSTYLE
5
35a
100
AcDbSymbolTable
100
AcDbDimStyleTable
0
DIMSTYLE
105
27
100
AcDbSymbolTableRecord
100
AcDbDimStyleTableRecord
2
Standard
70
0
3
<>
41
0.18
42
0.0625
44
0.18
140
0.18
147
0.09
73
0
74
0
77
1
271
2
275
0
278
52
280
0
340
11
0
ENDTAB
0
TABLE
2
VIEW
5
35b
100
AcDbSymbolTable
0
ENDTAB
0
TABLE
2
UCS
5
35c
100
AcDbSymbolTable
0
ENDTAB
0
TABLE
2
APPID
5
35d
100
AcDbSymbolTable
0
APPID
5
12
100
AcDbSymbolTableRecord
100
AcDbRegAppTableRecord
2
ACAD
70
0
0
ENDTAB
0
TABLE
2
BLOCK_RECORD
5
35e
100
AcDbSymbolTable
0
BLOCK_RECORD
5
1F
100
AcDbSymbolTableRecord
100
AcDbBlockTableRecord
2
*Model_Space
340
0
70
0
0
BLOCK_RECORD
5
1B
100
AcDbSymbolTableRecord
100
AcDbBlockTableRecord
2
*Paper_Space
340
0
70
0
0
BLOCK_RECORD
5
23
100
AcDbSymbolTableRecord
100
AcDbBlockTableRecord
2
*Paper_Space0
340
0
70
0
0
BLOCK_RECORD
5
2AA
100
AcDbSymbolTableRecord
100
AcDbBlockTableRecord
2
DimnDraft3D1
340
0
70
0
0
BLOCK_RECORD
5
2B9
100
AcDbSymbolTableRecord
100
AcDbBlockTableRecord
2
_CLOSED
340
0
70
0
0
BLOCK_RECORD
5
2C0
100
AcDbSymbolTableRecord
100
AcDbBlockTableRecord
2
DimnDraft3D2
340
0
70
0
0
BLOCK_RECORD
5
2CF
100
AcDbSymbolTableRecord
100
AcDbBlockTableRecord
2
DimnDraft3D3
340
0
70
0
0
BLOCK_RECORD
5
2DD
100
AcDbSymbolTableRecord
100
AcDbBlockTableRecord
2
DimnDraft3D4
340
0
70
0
0
ENDTAB
0
ENDSEC
0
SECTION
2
BLOCKS
0
BLOCK
5
20
100
AcDbEntity
8
0
100
AcDbBlockBegin
2
*Model_Space
70
0
10
0
20
0
30
0
3
*Model_Space
0
ENDBLK
5
21
100
AcDbEntity
8
0
100
AcDbBlockEnd
0
BLOCK
5
1C
100
AcDbEntity
8
0
100
AcDbBlockBegin
2
*Paper_Space
70
0
10
0
20
0
30
0
3
*Paper_Space
0
ENDBLK
5
1D
100
AcDbEntity
8
0
100
AcDbBlockEnd
0
BLOCK
5
24
100
AcDbEntity
8
0
100
AcDbBlockBegin
2
*Paper_Space0
70
0
10
0
20
0
30
0
3
*Paper_Space0
0
ENDBLK
5
25
100
AcDbEntity
8
0
100
AcDbBlockEnd
0
BLOCK
5
2B6
100
AcDbEntity
8
0
100
AcDbBlockBegin
2
DimnDraft3D1
70
0
10
0
20
0
30
0
3
DimnDraft3D1
0
MTEXT
5
2AB
100
AcDbEntity
8
SK2
62
256
6
ByLayer
370
18
48
1
60
0
100
AcDbMText
10
18.382895
20
24.196553
30
0
210
0
220
0
230
1
1
\W0.7640;43.6
40
3.5
41
0
44
1.084337
50
0
71
7
72
5
7
iso_b_vert
0
LINE
5
2AD
100
AcDbEntity
8
SK2
62
256
6
ByLayer
370
13
48
1
60
0
100
AcDbLine
10
0
20
2
30
0
11
0
21
25.321553
31
0
39
0
210
0
220
0
230
1
0
LINE
5
2AE
100
AcDbEntity
8
SK2
62
256
6
ByLayer
370
13
48
1
60
0
100
AcDbLine
10
43.6
20
-9
30
0
11
43.6
21
25.321553
31
0
39
0
210
0
220
0
230
1
0
LINE
5
2AF
100
AcDbEntity
8
SK2
62
256
6
ByLayer
370
13
48
1
60
0
100
AcDbLine
10
0
20
23.321553
30
0
11
43.6
21
23.321553
31
0
39
0
210
0
220
0
230
1
0
LINE
5
2B0
100
AcDbEntity
8
SK2
62
256
6
ByLayer
370
13
48
1
60
0
100
AcDbLine
10
0
20
23.321553
30
0
11
3.174998
21
23.73955
31
0
39
0
210
0
220
0
230
1
0
LINE
5
2B1
100
AcDbEntity
8
SK2
62
256
6
ByLayer
370
13
48
1
60
0
100
AcDbLine
10
0
20
23.321553
30
0
11
3.175002
21
22.903557
31
0
39
0
210
0
220
0
230
1
0
LINE
5
2B2
100
AcDbEntity
8
SK2
62
256
6
ByLayer
370
13
48
1
60
0
100
AcDbLine
10
3.174998
20
23.73955
30
0
11
3.175002
21
22.903557
31
0
39
0
210
0
220
0
230
1
0
LINE
5
2B3
100
AcDbEntity
8
SK2
62
256
6
ByLayer
370
13
48
1
60
0
100
AcDbLine
10
43.6
20
23.321553
30
0
11
40.425002
21
22.903557
31
0
39
0
210
0
220
0
230
1
0
LINE
5
2B4
100
AcDbEntity
8
SK2
62
256
6
ByLayer
370
13
48
1
60
0
100
AcDbLine
10
43.6
20
23.321553
30
0
11
40.424998
21
23.73955
31
0
39
0
210
0
220
0
230
1
0
LINE
5
2B5
100
AcDbEntity
8
SK2
62
256
6
ByLayer
370
13
48
1
60
0
100
AcDbLine
10
40.425002
20
22.903557
30
0
11
40.424998
21
23.73955
31
0
39
0
210
0
220
0
230
1
0
ENDBLK
5
2B7
100
AcDbEntity
8
0
100
AcDbBlockEnd
0
BLOCK
5
2BA
100
AcDbEntity
8
0
100
AcDbBlockBegin
2
_CLOSED
70
0
10
0
20
0
30
0
3
_CLOSED
0
LINE
5
2BC
100
AcDbEntity
8
0
62
256
6
ByLayer
370
-2
48
1
60
0
100
AcDbLine
10
-1
20
0.166667
30
0
11
0
21
0
31
0
39
0
210
0
220
0
230
1
0
LINE
5
2BD
100
AcDbEntity
8
0
62
256
6
ByLayer
370
-2
48
1
60
0
100
AcDbLine
10
0
20
0
30
0
11
-1
21
-0.166667
31
0
39
0
210
0
220
0
230
1
0
LINE
5
2BE
100
AcDbEntity
8
0
62
256
6
ByLayer
370
-2
48
1
60
0
100
AcDbLine
10
-1
20
0.166667
30
0
11
-1
21
-0.166667
31
0
39
0
210
0
220
0
230
1
0
LINE
5
2BF
100
AcDbEntity
8
0
62
256
6
ByLayer
370
-2
48
1
60
0
100
AcDbLine
10
0
20
0
30
0
11
-1
21
0
31
0
39
0
210
0
220
0
230
1
0
ENDBLK
5
2BB
100
AcDbEntity
8
0
100
AcDbBlockEnd
0
BLOCK
5
2CC
100
AcDbEntity
8
0
100
AcDbBlockBegin
2
DimnDraft3D2
70
0
10
0
20
0
30
0
3
DimnDraft3D2
0
MTEXT
5
2C1
100
AcDbEntity
8
2
62
256
6
ByLayer
370
18
48
1
60
0
100
AcDbMText
10
29.384211
20
-23.233569
30
0
210
0
220
0
230
1
1
\W0.6740;26
40
3.5
41
0
44
1.084337
50
0
71
7
72
5
7
iso_b_vert
0
LINE
5
2C3
100
AcDbEntity
8
2
62
256
6
ByLayer
370
13
48
1
60
0
100
AcDbLine
10
43.6
20
-13
30
0
11
43.6
21
-26.108569
31
0
39
0
210
0
220
0
230
1
0
LINE
5
2C4
100
AcDbEntity
8
2
62
256
6
ByLayer
370
13
48
1
60
0
100
AcDbLine
10
17.6
20
-2
30
0
11
17.6
21
-26.108569
31
0
39
0
210
0
220
0
230
1
0
LINE
5
2C5
100
AcDbEntity
8
2
62
256
6
ByLayer
370
13
48
1
60
0
100
AcDbLine
10
43.6
20
-24.108569
30
0
11
17.6
21
-24.108569
31
0
39
0
210
0
220
0
230
1
0
LINE
5
2C6
100
AcDbEntity
8
2
62
256
6
ByLayer
370
13
48
1
60
0
100
AcDbLine
10
43.6
20
-24.108569
30
0
11
40.425002
21
-24.526566
31
0
39
0
210
0
220
0
230
1
0
LINE
5
2C7
100
AcDbEntity
8
2
62
256
6
ByLayer
370
13
48
1
60
0
100
AcDbLine
10
43.6
20
-24.108569
30
0
11
40.424998
21
-23.690573
31
0
39
0
210
0
220
0
230
1
0
LINE
5
2C8
100
AcDbEntity
8
2
62
256
6
ByLayer
370
13
48
1
60
0
100
AcDbLine
10
40.425002
20
-24.526566
30
0
11
40.424998
21
-23.690573
31
0
39
0
210
0
220
0
230
1
0
LINE
5
2C9
100
AcDbEntity
8
2
62
256
6
ByLayer
370
13
48
1
60
0
100
AcDbLine
10
17.6
20
-24.108569
30
0
11
20.774998
21
-23.690573
31
0
39
0
210
0
220
0
230
1
0
LINE
5
2CA
100
AcDbEntity
8
2
62
256
6
ByLayer
370
13
48
1
60
0
100
AcDbLine
10
17.6
20
-24.108569
30
0
11
20.775002
21
-24.526566
31
0
39
0
210
0
220
0
230
1
0
LINE
5
2CB
100
AcDbEntity
8
2
62
256
6
ByLayer
370
13
48
1
60
0
100
AcDbLine
10
20.774998
20
-23.690573
30
0
11
20.775002
21
-24.526566
31
0
39
0
210
0
220
0
230
1
0
ENDBLK
5
2CD
100
AcDbEntity
8
0
100
AcDbBlockEnd
0
BLOCK
5
2DA
100
AcDbEntity
8
0
100
AcDbBlockBegin
2
DimnDraft3D3
70
0
10
0
20
0
30
0
3
DimnDraft3D3
0
MTEXT
5
2D0
100
AcDbEntity
8
2
62
256
6
ByLayer
370
18
48
1
60
0
100
AcDbMText
10
67.825
20
-5.840789
30
0
210
0
220
0
230
1
1
\W0.4657;11
40
3.5
41
0
44
1.084337
50
90
71
7
72
5
7
iso_b_vert
0
LINE
5
2D1
100
AcDbEntity
8
2
62
256
6
ByLayer
370
13
48
1
60
0
100
AcDbLine
10
36.6
20
0
30
0
11
70.7
21
0
31
0
39
0
210
0
220
0
230
1
0
LINE
5
2D2
100
AcDbEntity
8
2
62
256
6
ByLayer
370
13
48
1
60
0
100
AcDbLine
10
45.6
20
-11
30
0
11
70.7
21
-11
31
0
39
0
210
0
220
0
230
1
0
LINE
5
2D3
100
AcDbEntity
8
2
62
256
6
ByLayer
370
13
48
1
60
0
100
AcDbLine
10
68.7
20
8.75
30
0
11
68.7
21
-19.75
31
0
39
0
210
0
220
0
230
1
0
LINE
5
2D4
100
AcDbEntity
8
2
62
256
6
ByLayer
370
13
48
1
60
0
100
AcDbLine
10
68.7
20
0
30
0
11
68.282003
21
3.174998
31
0
39
0
210
0
220
0
230
1
0
LINE
5
2D5
100
AcDbEntity
8
2
62
256
6
ByLayer
370
13
48
1
60
0
100
AcDbLine
10
68.7
20
0
30
0
11
69.117997
21
3.175002
31
0
39
0
210
0
220
0
230
1
0
LINE
5
2D6
100
AcDbEntity
8
2
62
256
6
ByLayer
370
13
48
1
60
0
100
AcDbLine
10
68.282003
20
3.174998
30
0
11
69.117997
21
3.175002
31
0
39
0
210
0
220
0
230
1
0
LINE
5
2D7
100
AcDbEntity
8
2
62
256
6
ByLayer
370
13
48
1
60
0
100
AcDbLine
10
68.7
20
-11
30
0
11
69.117997
21
-14.174998
31
0
39
0
210
0
220
0
230
1
0
LINE
5
2D8
100
AcDbEntity
8
2
62
256
6
ByLayer
370
13
48
1
60
0
100
AcDbLine
10
68.7
20
-11
30
0
11
68.282003
21
-14.175002
31
0
39
0
210
0
220
0
230
1
0
LINE
5
2D9
100
AcDbEntity
8
2
62
256
6
ByLayer
370
13
48
1
60
0
100
AcDbLine
10
69.117997
20
-14.174998
30
0
11
68.282003
21
-14.175002
31
0
39
0
210
0
220
0
230
1
0
ENDBLK
5
2DB
100
AcDbEntity
8
0
100
AcDbBlockEnd
0
BLOCK
5
2E8
100
AcDbEntity
8
0
100
AcDbBlockBegin
2
DimnDraft3D4
70
0
10
0
20
0
30
0
3
DimnDraft3D4
0
MTEXT
5
2DE
100
AcDbEntity
8
2
62
256
6
ByLayer
370
18
48
1
60
0
100
AcDbMText
10
60.825
20
-21.945789
30
0
210
0
220
0
230
1
1
\W0.5404;3
40
3.5
41
0
44
1.084337
50
90
71
7
72
5
7
iso_b_vert
0
LINE
5
2DF
100
AcDbEntity
8
2
62
256
6
ByLayer
370
13
48
1
60
0
100
AcDbLine
10
45.6
20
-11
30
0
11
63.7
21
-11
31
0
39
0
210
0
220
0
230
1
0
LINE
5
2E0
100
AcDbEntity
8
2
62
256
6
ByLayer
370
13
48
1
60
0
100
AcDbLine
10
45.6
20
-8
30
0
11
63.7
21
-8
31
0
39
0
210
0
220
0
230
1
0
LINE
5
2E1
100
AcDbEntity
8
2
62
256
6
ByLayer
370
13
48
1
60
0
100
AcDbLine
10
61.7
20
0.75
30
0
11
61.7
21
-22.820789
31
0
39
0
210
0
220
0
230
1
0
LINE
5
2E2
100
AcDbEntity
8
2
62
256
6
ByLayer
370
13
48
1
60
0
100
AcDbLine
10
61.7
20
-11
30
0
11
62.117997
21
-14.174998
31
0
39
0
210
0
220
0
230
1
0
LINE
5
2E3
100
AcDbEntity
8
2
62
256
6
ByLayer
370
13
48
1
60
0
100
AcDbLine
10
61.7
20
-11
30
0
11
61.282003
21
-14.175002
31
0
39
0
210
0
220
0
230
1
0
LINE
5
2E4
100
AcDbEntity
8
2
62
256
6
ByLayer
370
13
48
1
60
0
100
AcDbLine
10
62.117997
20
-14.174998
30
0
11
61.282003
21
-14.175002
31
0
39
0
210
0
220
0
230
1
0
LINE
5
2E5
100
AcDbEntity
8
2
62
256
6
ByLayer
370
13
48
1
60
0
100
AcDbLine
10
61.7
20
-8
30
0
11
61.282003
21
-4.825002
31
0
39
0
210
0
220
0
230
1
0
LINE
5
2E6
100
AcDbEntity
8
2
62
256
6
ByLayer
370
13
48
1
60
0
100
AcDbLine
10
61.7
20
-8
30
0
11
62.117997
21
-4.824998
31
0
39
0
210
0
220
0
230
1
0
LINE
5
2E7
100
AcDbEntity
8
2
62
256
6
ByLayer
370
13
48
1
60
0
100
AcDbLine
10
61.282003
20
-4.825002
30
0
11
62.117997
21
-4.824998
31
0
39
0
210
0
220
0
230
1
0
ENDBLK
5
2E9
100
AcDbEntity
8
0
100
AcDbBlockEnd
0
ENDSEC
0
SECTION
2
ENTITIES
0
ARC
5
15C
100
AcDbEntity
8
1
62
256
6
ByLayer
370
18
48
1
60
0
100
AcDbCircle
39
0
10
33.8
20
-8.45
30
0
40
0.2
210
0
220
0
230
1
100
AcDbArc
50
120
51
141.318614
0
ARC
5
15D
100
AcDbEntity
8
1
62
256
6
ByLayer
370
18
48
1
60
0
100
AcDbCircle
39
0
10
33.8
20
-10.55
30
0
40
0.2
210
0
220
0
230
1
100
AcDbArc
50
218.681386
51
240
0
ELLIPSE
5
15E
100
AcDbEntity
8
1
62
256
6
ByLayer
370
13
48
1
60
0
100
AcDbEllipse
10
35.908132
20
-8.230414
30
0
11
0.998914191494994
21
-0.226032306458222
31
0
210
0
220
0
230
-1
40
0.206112
41
1.99506909471448
42
2.24548541562808
0
ELLIPSE
5
15F
100
AcDbEntity
8
1
62
256
6
ByLayer
370
13
48
1
60
0
100
AcDbEllipse
10
35.908132
20
-8.230414
30
0
11
0.979582052601729
21
-0.30172620926553
31
0
210
0
220
0
230
-1
40
0.270086
41
2.05273074524855
42
2.24185105462473
0
ELLIPSE
5
160
100
AcDbEntity
8
1
62
256
6
ByLayer
370
13
48
1
60
0
100
AcDbEllipse
10
35.908132
20
-10.769586
30
0
11
0.998914191677493
21
0.226032306471896
31
0
210
0
220
0
230
-1
40
0.206112
41
-2.24548541566869
42
-1.99506909479136
0
ELLIPSE
5
161
100
AcDbEntity
8
1
62
256
6
ByLayer
370
13
48
1
60
0
100
AcDbEllipse
10
42.97413
20
-9.5
30
0
11
-7.38495814331257
21
9.04366666501288E-16
31
0
210
0
220
0
230
1
40
0.121869
41
1.16456723893879
42
1.18682389135614
0
ELLIPSE
5
162
100
AcDbEntity
8
1
62
256
6
ByLayer
370
13
48
1
60
0
100
AcDbEllipse
10
42.97413
20
-9.5
30
0
11
-7.38495814331257
21
9.04366666501288E-16
31
0
210
0
220
0
230
1
40
0.121869
41
-1.18682389135615
42
-1.16456723893881
0
ELLIPSE
5
163
100
AcDbEntity
8
1
62
256
6
ByLayer
370
13
48
1
60
0
100
AcDbEllipse
10
42.058781
20
-8.318834
30
0
11
0.0322705528359684
21
-0.237820544570188
31
0
210
0
220
0
230
1
40
0.009402
41
-1.50161815253495
42
-0.684082575265842
0
ELLIPSE
5
164
100
AcDbEntity
8
1
62
256
6
ByLayer
370
13
48
1
60
0
100
AcDbEllipse
10
40.828622
20
-8.440299
30
0
11
-0.0129780832447759
21
-0.239648845929397
31
0
210
0
220
0
230
1
40
0.707925
41
0.878821726712005
42
1.55967335367816
0
ELLIPSE
5
165
100
AcDbEntity
8
1
62
256
6
ByLayer
370
13
48
1
60
0
100
AcDbEllipse
10
42.058781
20
-10.681166
30
0
11
0.0322705528359686
21
0.237820544570188
31
0
210
0
220
0
230
1
40
0.009402
41
0.684082575265842
42
1.50161815253474
0
ELLIPSE
5
166
100
AcDbEntity
8
1
62
256
6
ByLayer
370
13
48
1
60
0
100
AcDbEllipse
10
40.828622
20
-10.559701
30
0
11
-0.0129780832447762
21
0.239648845929397
31
0
210
0
220
0
230
1
40
0.707925
41
-1.55967335367816
42
-0.878821726711969
0
ELLIPSE
5
167
100
AcDbEntity
8
1
62
256
6
ByLayer
370
13
48
1
60
0
100
AcDbEllipse
10
42.97413
20
-9.5
30
0
11
7.34839652215865
21
-4.23354829606461E-08
31
0
210
0
220
0
230
-1
40
0.08165
41
1.95476872440176
42
2.00162045859377
0
ELLIPSE
5
168
100
AcDbEntity
8
1
62
256
6
ByLayer
370
13
48
1
60
0
100
AcDbEllipse
10
40.586644
20
-9.5
30
0
11
1.63150680888712
21
2.03335030483689E-10
31
0
210
0
220
0
230
-1
40
0.367758
41
-2.17407423389414
42
-2.00162049169097
0
ELLIPSE
5
169
100
AcDbEntity
8
1
62
256
6
ByLayer
370
13
48
1
60
0
100
AcDbEllipse
10
42.974131
20
-9.5
30
0
11
7.34839812375715
21
-4.03980055069498E-08
31
0
210
0
220
0
230
-1
40
0.08165
41
-2.00162052344294
42
-1.95476879808211
0
ELLIPSE
5
16A
100
AcDbEntity
8
1
62
256
6
ByLayer
370
13
48
1
60
0
100
AcDbEllipse
10
40.586644
20
-9.5
30
0
11
1.63150681008016
21
1.50603404616606E-10
31
0
210
0
220
0
230
-1
40
0.367758
41
2.00162049208355
42
2.17407423418445
0
ELLIPSE
5
16B
100
AcDbEntity
8
1
62
256
6
ByLayer
370
13
48
1
60
0
100
AcDbEllipse
10
40.723829
20
-10.561383
30
0
11
0.1082392992065
21
-0.214206101937563
31
0
210
0
220
0
230
1
40
0.678671
41
1.29279293091359
42
1.84879976311944
0
ELLIPSE
5
16C
100
AcDbEntity
8
1
62
256
6
ByLayer
370
13
48
1
60
0
100
AcDbEllipse
10
40.723829
20
-8.438617
30
0
11
0.1082392992065
21
0.214206101937563
31
0
210
0
220
0
230
1
40
0.678671
41
-1.84879976311947
42
-1.29279293091362
0
ELLIPSE
5
16D
100
AcDbEntity
8
1
62
256
6
ByLayer
370
13
48
1
60
0
100
AcDbEllipse
10
40.459452
20
-10.321836
30
0
11
0.219354463278089
21
0.119931728245622
31
0
210
0
220
0
230
1
40
0.441633
41
0.600579851753422
42
1.30662817391546
0
ELLIPSE
5
16E
100
AcDbEntity
8
1
62
256
6
ByLayer
370
13
48
1
60
0
100
AcDbEllipse
10
40.459452
20
-8.678164
30
0
11
-0.219354463278086
21
0.119931728245626
31
0
210
0
220
0
230
1
40
0.441633
41
1.83496447967433
42
2.54101280183633
0
ELLIPSE
5
16F
100
AcDbEntity
8
1
62
256
6
ByLayer
370
13
48
1
60
0
100
AcDbEllipse
10
39.895115
20
-10.226897
30
0
11
-0.0433548151255266
21
-0.195244359727577
31
0
210
0
220
0
230
1
40
0.334809
41
-2.68611088405472
42
-1.49658713340606
0
ELLIPSE
5
170
100
AcDbEntity
8
1
62
256
6
ByLayer
370
13
48
1
60
0
100
AcDbEllipse
10
39.895115
20
-8.773103
30
0
11
-0.0433548151255279
21
0.195244359727577
31
0
210
0
220
0
230
1
40
0.334809
41
1.49658713340599
42
2.68611088405472
0
ELLIPSE
5
171
100
AcDbEntity
8
1
62
256
6
ByLayer
370
13
48
1
60
0
100
AcDbEllipse
10
40.51824
20
-9.5
30
0
11
1.65588067856435
21
1.67349768431342E-15
31
0
210
0
220
0
230
-1
40
0.483127
41
2.00162049188126
42
2.1740742339871
0
ELLIPSE
5
172
100
AcDbEntity
8
1
62
256
6
ByLayer
370
13
48
1
60
0
100
AcDbEllipse
10
40.51824
20
-9.5
30
0
11
1.65588067917207
21
-4.02780782640208E-10
31
0
210
0
220
0
230
-1
40
0.483127
41
-2.17407423433851
42
-2.00162049226963
0
ELLIPSE
5
173
100
AcDbEntity
8
1
62
256
6
ByLayer
370
13
48
1
60
0
100
AcDbEllipse
10
40.725564
20
-8.438978
30
0
11
0.00742724597932567
21
-0.239885047506431
31
0
210
0
220
0
230
1
40
0.70617
41
0.846393084122572
42
1.49951821957463
0
ELLIPSE
5
174
100
AcDbEntity
8
1
62
256
6
ByLayer
370
13
48
1
60
0
100
AcDbEllipse
10
40.725564
20
-10.561022
30
0
11
0.00742724597932589
21
0.239885047506431
31
0
210
0
220
0
230
1
40
0.70617
41
-1.49951821957463
42
-0.846393084122579
0
ELLIPSE
5
175
100
AcDbEntity
8
1
62
256
6
ByLayer
370
13
48
1
60
0
100
AcDbEllipse
10
39.647188
20
-10.158784
30
0
11
-0.0631638165780187
21
-0.189763885592856
31
0
210
0
220
0
230
1
40
0.326425
41
-2.50339446299672
42
-1.46256868006916
0
ELLIPSE
5
176
100
AcDbEntity
8
1
62
256
6
ByLayer
370
13
48
1
60
0
100
AcDbEllipse
10
39.647188
20
-8.841216
30
0
11
-0.0631638165785347
21
0.189763885592684
31
0
210
0
220
0
230
1
40
0.326425
41
1.46256868006823
42
2.50339446299227
0
ELLIPSE
5
177
100
AcDbEntity
8
1
62
256
6
ByLayer
370
13
48
1
60
0
100
AcDbEllipse
10
40.450683
20
-10.334465
30
0
11
0.195064510201759
21
-0.227925068519783
31
0
210
0
220
0
230
1
40
0.863833
41
1.64869430110507
42
2.31141389753817
0
ELLIPSE
5
178
100
AcDbEntity
8
1
62
256
6
ByLayer
370
13
48
1
60
0
100
AcDbEllipse
10
40.450683
20
-8.665535
30
0
11
-0.195064510201764
21
-0.227925068519779
31
0
210
0
220
0
230
1
40
0.863833
41
0.830178756051591
42
1.4928983524847
0
ELLIPSE
5
179
100
AcDbEntity
8
1
62
256
6
ByLayer
370
13
48
1
60
0
100
AcDbEllipse
10
39.550966
20
-10.197967
30
0
11
0.182866340278506
21
-0.0809932194269721
31
0
210
0
220
0
230
1
40
0.14582
41
-2.77286095187742
42
-1.8888514906867
0
ELLIPSE
5
17A
100
AcDbEntity
8
1
62
256
6
ByLayer
370
13
48
1
60
0
100
AcDbEllipse
10
39.550966
20
-8.802033
30
0
11
0.182866340278443
21
0.0809932194271139
31
0
210
0
220
0
230
1
40
0.14582
41
1.88885149068655
42
2.77286095187526
0
ELLIPSE
5
17B
100
AcDbEntity
8
1
62
256
6
ByLayer
370
13
48
1
60
0
100
AcDbEllipse
10
40.502412
20
-8.793067
30
0
11
-0.299757884748935
21
0.0120503332254432
31
0
210
0
220
0
230
1
40
0.786325
41
1.67791435062302
42
2.25220990045423
0
ELLIPSE
5
17C
100
AcDbEntity
8
1
62
256
6
ByLayer
370
13
48
1
60
0
100
AcDbEllipse
10
40.502412
20
-10.206933
30
0
11
0.299757884748933
21
0.0120503332254948
31
0
210
0
220
0
230
1
40
0.786325
41
0.889382753135474
42
1.46367830296672
0
ELLIPSE
5
17D
100
AcDbEntity
8
1
62
256
6
ByLayer
370
13
48
1
60
0
100
AcDbEllipse
10
39.292326
20
-8.374098
30
0
11
0.0570319130279923
21
-0.138734858259803
31
0
210
0
220
0
230
1
40
0.776494
41
-1.87977830526726
42
-1.56980601158793
0
ELLIPSE
5
17E
100
AcDbEntity
8
1
62
256
6
ByLayer
370
13
48
1
60
0
100
AcDbEllipse
10
39.292326
20
-10.625902
30
0
11
-0.0570319130268966
21
-0.138734858260253
31
0
210
0
220
0
230
1
40
0.776494
41
-1.57178664200835
42
-1.26181434832865
0
ELLIPSE
5
17F
100
AcDbEntity
8
1
62
256
6
ByLayer
370
13
48
1
60
0
100
AcDbEllipse
10
39.68147
20
-9.979243
30
0
11
-0.105329348464612
21
0.280901634655301
31
0
210
0
220
0
230
1
40
0.319781
41
-1.09012327608121
42
-0.203695114400039
0
ELLIPSE
5
180
100
AcDbEntity
8
1
62
256
6
ByLayer
370
13
48
1
60
0
100
AcDbEllipse
10
39.68147
20
-9.020757
30
0
11
-0.105329348464631
21
-0.280901634655294
31
0
210
0
220
0
230
1
40
0.319781
41
0.203695114400075
42
1.09012327608126
0
ELLIPSE
5
181
100
AcDbEntity
8
1
62
256
6
ByLayer
370
13
48
1
60
0
100
AcDbEllipse
10
40.609329
20
-9.788572
30
0
11
-0.263738087060282
21
0.142976296755033
31
0
210
0
220
0
230
1
40
0.337339
41
-2.12742665195261
42
-1.51944467242793
0
ELLIPSE
5
182
100
AcDbEntity
8
1
62
256
6
ByLayer
370
13
48
1
60
0
100
AcDbEllipse
10
40.609329
20
-9.211428
30
0
11
-0.26373808706239
21
-0.142976296751144
31
0
210
0
220
0
230
1
40
0.337339
41
1.5194446724256
42
2.1274266519039
0
ELLIPSE
5
183
100
AcDbEntity
8
1
62
256
6
ByLayer
370
13
48
1
60
0
100
AcDbEllipse
10
39.289927
20
-10.625438
30
0
11
4.24912383924225E-17
21
0.15
31
0
210
0
220
0
230
1
40
0.795546
41
1.23482044578598
42
1.5707963267949
0
ELLIPSE
5
184
100
AcDbEntity
8
1
62
256
6
ByLayer
370
13
48
1
60
0
100
AcDbEllipse
10
39.289927
20
-8.374562
30
0
11
4.24912383924225E-17
21
0.15
31
0
210
0
220
0
230
1
40
0.795546
41
1.5707963267949
42
1.90677220780382
0
ELLIPSE
5
185
100
AcDbEntity
8
1
62
256
6
ByLayer
370
13
48
1
60
0
100
AcDbEllipse
10
39.033293
20
-10.625438
30
0
11
-2.75536429610035E-17
21
-0.15
31
0
210
0
220
0
230
1
40
0.34202
41
-1.75278811305915
42
-1.5707963267949
0
ELLIPSE
5
186
100
AcDbEntity
8
1
62
256
6
ByLayer
370
13
48
1
60
0
100
AcDbEllipse
10
39.033293
20
-8.374562
30
0
11
4.24912383924225E-17
21
0.15
31
0
210
0
220
0
230
1
40
0.34202
41
1.5707963267949
42
1.75278811305915
0
ELLIPSE
5
187
100
AcDbEntity
8
1
62
256
6
ByLayer
370
13
48
1
60
0
100
AcDbEllipse
10
39.539982
20
-9.066549
30
0
11
-0.0205626710087509
21
-0.198940133107892
31
0
210
0
220
0
230
1
40
0.702979
41
-1.10867675839078
42
-0.337059544638764
0
ELLIPSE
5
188
100
AcDbEntity
8
1
62
256
6
ByLayer
370
13
48
1
60
0
100
AcDbEllipse
10
39.539982
20
-9.933451
30
0
11
-0.0205626710087514
21
0.198940133107892
31
0
210
0
220
0
230
1
40
0.702979
41
0.337059544638764
42
1.10867675839074
0
ELLIPSE
5
189
100
AcDbEntity
8
1
62
256
6
ByLayer
370
13
48
1
60
0
100
AcDbEllipse
10
39.672352
20
-9.017337
30
0
11
0.1054031629799
21
0.280873945452106
31
0
210
0
220
0
230
1
40
0.321796
41
-2.93702761420039
42
-2.05551827773615
0
ELLIPSE
5
18A
100
AcDbEntity
8
1
62
256
6
ByLayer
370
13
48
1
60
0
100
AcDbEllipse
10
39.672352
20
-9.982663
30
0
11
-0.105403162979924
21
0.280873945452097
31
0
210
0
220
0
230
1
40
0.321796
41
-1.08607437585367
42
-0.20456503938946
0
ELLIPSE
5
18B
100
AcDbEntity
8
1
62
256
6
ByLayer
370
13
48
1
60
0
100
AcDbEllipse
10
42.747654
20
-8.308643
30
0
11
-0.00560126668057245
21
-0.239934628204378
31
0
210
0
220
0
230
1
40
0.172043
41
-1.49800588930574
42
-0.732097455141062
0
ELLIPSE
5
18C
100
AcDbEntity
8
1
62
256
6
ByLayer
370
13
48
1
60
0
100
AcDbEllipse
10
42.747654
20
-10.691357
30
0
11
-0.00560126668057228
21
0.239934628204378
31
0
210
0
220
0
230
1
40
0.172043
41
0.732097455141062
42
1.49800588930574
0
ELLIPSE
5
18D
100
AcDbEntity
8
1
62
256
6
ByLayer
370
13
48
1
60
0
100
AcDbEllipse
10
39.531197
20
-9.066064
30
0
11
5.665498452323E-17
21
0.2
31
0
210
0
220
0
230
1
40
0.803713
41
1.90677220780379
42
2.72521072930058
0
ELLIPSE
5
18E
100
AcDbEntity
8
1
62
256
6
ByLayer
370
13
48
1
60
0
100
AcDbEllipse
10
39.531197
20
-9.933936
30
0
11
5.665498452323E-17
21
0.2
31
0
210
0
220
0
230
1
40
0.803713
41
0.416381924289159
42
1.234820445786
0
ELLIPSE
5
18F
100
AcDbEntity
8
1
62
256
6
ByLayer
370
13
48
1
60
0
100
AcDbEllipse
10
39.133999
20
-9.066064
30
0
11
5.665498452323E-17
21
0.2
31
0
210
0
220
0
230
1
40
0.34202
41
1.90677220780379
42
2.72521072930065
0
ELLIPSE
5
190
100
AcDbEntity
8
1
62
256
6
ByLayer
370
13
48
1
60
0
100
AcDbEllipse
10
39.133999
20
-9.933936
30
0
11
-3.67381906146713E-17
21
-0.2
31
0
210
0
220
0
230
1
40
0.34202
41
-2.72521072930065
42
-1.90677220780379
0
ELLIPSE
5
191
100
AcDbEntity
8
1
62
256
6
ByLayer
370
13
48
1
60
0
100
AcDbEllipse
10
43.352853
20
-8.578833
30
0
11
-0.0533981556875966
21
-0.0845496124719871
31
0
210
0
220
0
230
1
40
0.139768
41
0.740023965274731
42
1.57717485146101
0
ELLIPSE
5
192
100
AcDbEntity
8
1
62
256
6
ByLayer
370
13
48
1
60
0
100
AcDbEllipse
10
43.513527
20
-8.72831
30
0
11
-0.0833341889559589
21
-0.0552757899179427
31
0
210
0
220
0
230
1
40
0.125151
41
1.00888984397342
42
1.63388084261201
0
ELLIPSE
5
193
100
AcDbEntity
8
1
62
256
6
ByLayer
370
13
48
1
60
0
100
AcDbEllipse
10
43.352853
20
-10.421167
30
0
11
-0.0533981556875965
21
0.0845496124719871
31
0
210
0
220
0
230
1
40
0.139768
41
-1.57717485146101
42
-0.7400239652744
0
ELLIPSE
5
194
100
AcDbEntity
8
1
62
256
6
ByLayer
370
13
48
1
60
0
100
AcDbEllipse
10
43.513527
20
-10.27169
30
0
11
-0.0833341889559589
21
0.0552757899179428
31
0
210
0
220
0
230
1
40
0.125151
41
-1.63388084261208
42
-1.00888984397393
0
ELLIPSE
5
195
100
AcDbEntity
8
1
62
256
6
ByLayer
370
13
48
1
60
0
100
AcDbEllipse
10
42.858678
20
-8.910924
30
0
11
0.014829333617164
21
-0.399725019062444
31
0
210
0
220
0
230
1
40
0.406503
41
1.5557166718563
42
2.33595515067488
0
ELLIPSE
5
196
100
AcDbEntity
8
1
62
256
6
ByLayer
370
13
48
1
60
0
100
AcDbEllipse
10
42.858678
20
-10.089076
30
0
11
0.0148293336171642
21
0.399725019062444
31
0
210
0
220
0
230
1
40
0.406503
41
-2.33595515067488
42
-1.5557166718563
0
ELLIPSE
5
197
100
AcDbEntity
8
1
62
256
6
ByLayer
370
13
48
1
60
0
100
AcDbEllipse
10
43.220403
20
-8.496743
30
0
11
-0.0518341759381039
21
-0.0855173561612945
31
0
210
0
220
0
230
1
40
0.13986
41
0.736311954700279
42
1.57460332353076
0
ELLIPSE
5
198
100
AcDbEntity
8
1
62
256
6
ByLayer
370
13
48
1
60
0
100
AcDbEllipse
10
43.123358
20
-8.41937
30
0
11
-0.0777628762498878
21
-0.0628723713354653
31
0
210
0
220
0
230
1
40
0.13045
41
1.15581636427955
42
1.62182792903084
0
ELLIPSE
5
199
100
AcDbEntity
8
1
62
256
6
ByLayer
370
13
48
1
60
0
100
AcDbEllipse
10
43.220403
20
-10.503257
30
0
11
-0.0518341759381039
21
0.0855173561612945
31
0
210
0
220
0
230
1
40
0.13986
41
-1.57460332353076
42
-0.736311954700658
0
ELLIPSE
5
19A
100
AcDbEntity
8
1
62
256
6
ByLayer
370
13
48
1
60
0
100
AcDbEllipse
10
43.123358
20
-10.58063
30
0
11
-0.0777628762498878
21
0.0628723713354654
31
0
210
0
220
0
230
1
40
0.13045
41
-1.62182792903077
42
-1.15581636427955
0
ELLIPSE
5
19B
100
AcDbEntity
8
1
62
256
6
ByLayer
370
13
48
1
60
0
100
AcDbEllipse
10
42.358781
20
-8.304849
30
0
11
-0.0082466205512047
21
-0.239858277425409
31
0
210
0
220
0
230
1
40
0.002403
41
0.709373157679166
42
1.50102444918826
0
ELLIPSE
5
19C
100
AcDbEntity
8
1
62
256
6
ByLayer
370
13
48
1
60
0
100
AcDbEllipse
10
42.358781
20
-10.695151
30
0
11
-0.00824662055120453
21
0.239858277425409
31
0
210
0
220
0
230
1
40
0.002403
41
-1.50102444918823
42
-0.709373157679185
0
ELLIPSE
5
19D
100
AcDbEntity
8
1
62
256
6
ByLayer
370
13
48
1
60
0
100
AcDbEllipse
10
39.382996
20
-7.419859
30
0
11
5.665498452323E-16
21
2
31
0
210
0
220
0
230
1
40
0.34202
41
2.7252107293006
42
2.79252680319093
0
ELLIPSE
5
19E
100
AcDbEntity
8
1
62
256
6
ByLayer
370
13
48
1
60
0
100
AcDbEllipse
10
39.382996
20
-11.580141
30
0
11
-3.67381906146713E-16
21
-2
31
0
210
0
220
0
230
1
40
0.34202
41
-2.79252680319093
42
-2.7252107293006
0
ELLIPSE
5
19F
100
AcDbEntity
8
1
62
256
6
ByLayer
370
13
48
1
60
0
100
AcDbEllipse
10
43.535862
20
-10.23707
30
0
11
-0.0846493904271157
21
0.0532398412874958
31
0
210
0
220
0
230
1
40
0.065231
41
-1.67414184501556
42
-1.04577954889688
0
ELLIPSE
5
1A0
100
AcDbEntity
8
1
62
256
6
ByLayer
370
13
48
1
60
0
100
AcDbEllipse
10
43.535862
20
-8.76293
30
0
11
-0.0846493904271157
21
-0.0532398412874957
31
0
210
0
220
0
230
1
40
0.065231
41
1.04577954889637
42
1.67414184501556
0
ELLIPSE
5
1A1
100
AcDbEntity
8
1
62
256
6
ByLayer
370
13
48
1
60
0
100
AcDbEllipse
10
39.127689
20
-9.5
30
0
11
5.94877337493915E-17
21
0.21
31
0
210
0
220
0
230
1
40
0.34202
41
-2.7925268031909
42
-0.349065850398889
0
ELLIPSE
5
1A2
100
AcDbEntity
8
1
62
256
6
ByLayer
370
13
48
1
60
0
100
AcDbEllipse
10
35.908132
20
-10.769586
30
0
11
0.979582052679522
21
0.301726209273874
31
0
210
0
220
0
230
-1
40
0.270086
41
-2.24185105463886
42
-2.05273074527488
0
ELLIPSE
5
1A3
100
AcDbEntity
8
1
62
256
6
ByLayer
370
18
48
1
60
0
100
AcDbEllipse
10
39.041428
20
-9.5
30
0
11
-3.67381906146779E-17
21
0.600000000000108
31
0
210
0
220
0
230
-1
40
0.087172
41
-2.62536935320247
42
-0.516223300387364
0
ELLIPSE
5
1A4
100
AcDbEntity
8
1
62
256
6
ByLayer
370
18
48
1
60
0
100
AcDbEllipse
10
38.382033
20
-9.5
30
0
11
1.28358760011045
21
1.29724375929106E-15
31
0
210
0
220
0
230
-1
40
0.46744
41
1.05457302640787
42
-1.05457302640786
0
ELLIPSE
5
1A5
100
AcDbEntity
8
1
62
256
6
ByLayer
370
18
48
1
60
0
100
AcDbEllipse
10
43.106337
20
-10.973303
30
0
11
0.239997045979845
21
-0.0169489930642196
31
0
210
0
220
0
230
-1
40
0.070266
41
1.44395567202752
42
1.73995037582593
0
ELLIPSE
5
1A6
100
AcDbEntity
8
1
62
256
6
ByLayer
370
18
48
1
60
0
100
AcDbEllipse
10
43.648748
20
-10.23707
30
0
11
1.1330996904646E-16
21
0.4
31
0
210
0
220
0
230
1
40
0.121869
41
1.5707963267949
42
1.64009079051255
0
ELLIPSE
5
1A7
100
AcDbEntity
8
1
62
256
6
ByLayer
370
18
48
1
60
0
100
AcDbEllipse
10
43.648748
20
-8.76293
30
0
11
1.1330996904646E-16
21
0.4
31
0
210
0
220
0
230
1
40
0.121869
41
1.50150186307725
42
1.5707963267949
0
ELLIPSE
5
1A8
100
AcDbEntity
8
1
62
256
6
ByLayer
370
18
48
1
60
0
100
AcDbEllipse
10
40.142652
20
-8.05
30
0
11
0.201946432116473
21
0
31
0
210
0
220
0
230
1
40
0.990362
41
-1.5707963267949
42
-1.04299365512072
0
ELLIPSE
5
1A9
100
AcDbEntity
8
1
62
256
6
ByLayer
370
18
48
1
60
0
100
AcDbEllipse
10
40.736306
20
-10.841309
30
0
11
0.251841921993892
21
-0.0177818623390236
31
0
210
0
220
0
230
-1
40
0.06924
41
0.774400198845208
42
1.56101782173505
0
ELLIPSE
5
1AA
100
AcDbEntity
8
1
62
256
6
ByLayer
370
18
48
1
60
0
100
AcDbEllipse
10
40.153398
20
-10.95
30
0
11
-0.201490790302156
21
2.46746902040712E-17
31
0
210
0
220
0
230
1
40
0.992601
41
-2.09761674342106
42
-1.5707963267949
0
ELLIPSE
5
1AB
100
AcDbEntity
8
1
62
256
6
ByLayer
370
18
48
1
60
0
100
AcDbEllipse
10
40.736306
20
-8.158691
30
0
11
0.251841921979832
21
0.0177818623373645
31
0
210
0
220
0
230
-1
40
0.06924
41
-1.56101782177362
42
-0.774400198843832
0
ELLIPSE
5
1AC
100
AcDbEntity
8
1
62
256
6
ByLayer
370
18
48
1
60
0
100
AcDbEllipse
10
43.106337
20
-8.026697
30
0
11
0.239997045850267
21
0.0169489930565386
31
0
210
0
220
0
230
-1
40
0.070266
41
-1.73995037583106
42
-1.44395567187227
0
ELLIPSE
5
1AD
100
AcDbEntity
8
1
62
256
6
ByLayer
370
18
48
1
60
0
100
AcDbEllipse
10
40.39757
20
-8.365831
30
0
11
0.058624730201206
21
-0.191752852286547
31
0
210
-1.59644179966719E-15
220
4.38574520942052E-19
230
1
40
0.997435
41
2.91526219766618
42
-2.91526219766617
0
ELLIPSE
5
1AE
100
AcDbEntity
8
1
62
256
6
ByLayer
370
18
48
1
60
0
100
AcDbEllipse
10
40.409275
20
-10.634987
30
0
11
0.00297293931671267
21
0.200467814146891
31
0
210
-1.59612295829283E-15
220
-1.26268957575375E-19
230
1
40
0.997557
41
2.63386280411413
42
3.08674247812914
0
POINT
5
6C
100
AcDbEntity
8
81
62
256
6
ByLayer
370
18
48
1
60
0
100
AcDbPoint
10
43.6
20
-11
30
0
39
0
210
0
220
0
230
1
50
360
0
POINT
5
6E
100
AcDbEntity
8
80
62
256
6
ByLayer
370
18
48
1
60
0
100
AcDbPoint
10
0
20
0
30
0
39
0
210
0
220
0
230
1
50
360
0
SPLINE
5
1AF
100
AcDbEntity
8
1
62
256
6
ByLayer
370
18
48
1
60
0
100
AcDbSpline
70
4
71
3
72
8
73
4
40
0
40
0
40
0
40
0
40
1
40
1
40
1
40
1
41
1
10
-9.65715131095774
20
0.132506028025887
30
0
41
1
10
-9.76123627902291
20
0.169241188379516
30
0
41
1
10
-9.8643458743376
20
0.208478326897506
30
0
41
1
10
-9.96637832280638
20
0.249980947161504
30
0
0
SPLINE
5
1B0
100
AcDbEntity
8
1
62
256
6
ByLayer
370
18
48
1
60
0
100
AcDbSpline
70
4
71
3
72
8
73
4
40
0
40
0
40
0
40
0
40
1
40
1
40
1
40
1
41
1
10
9.65715131095578
20
0.132506028025233
30
0
41
1
10
9.76123627902163
20
0.169241188379061
30
0
41
1
10
9.86434587433698
20
0.208478326897278
30
0
41
1
10
9.96637832280638
20
0.249980947161504
30
0
0
SPLINE
5
1B1
100
AcDbEntity
8
1
62
256
6
ByLayer
370
18
48
1
60
0
100
AcDbSpline
70
4
71
3
72
8
73
4
40
0
40
0
40
0
40
0
40
1
40
1
40
1
40
1
41
1
10
9.40454881002671
20
0.324980947161663
30
0
41
1
10
9.34846004046801
20
0.324980947161691
30
0
41
1
10
9.28900630985675
20
0.31869496716709
30
0
41
1
10
9.22947581257563
20
0.310875644344577
30
0
0
SPLINE
5
1B2
100
AcDbEntity
8
1
62
256
6
ByLayer
370
18
48
1
60
0
100
AcDbSpline
70
4
71
3
72
12
73
8
40
0
40
0
40
0
40
0
40
0.309978170957339
40
0.309978170957339
40
0.914100099190217
40
0.914100099190217
40
1
40
1
40
1
40
1
41
1
10
11.0234674519018
20
0.3249809471709
30
0
41
1
10
11.016591035916
20
0.324980947169791
30
0
41
1
10
11.0083932398606
20
0.323570006052421
30
0
41
1
10
10.9824416996123
20
0.316682630182555
30
0
41
1
10
10.9626023344069
20
0.308594995545548
30
0
41
1
10
10.9393732267814
20
0.297455602783401
30
0
41
1
10
10.9364708492724
20
0.296035245867017
30
0
41
1
10
10.9335512174315
20
0.294578846202739
30
0
0
SPLINE
5
1B3
100
AcDbEntity
8
1
62
256
6
ByLayer
370
18
48
1
60
0
100
AcDbSpline
70
4
71
3
72
12
73
8
40
0
40
0
40
0
40
0
40
0.314377362619104
40
0.314377362619104
40
0.927072953123667
40
0.927072953123667
40
1
40
1
40
1
40
1
41
1
10
-11.0234674519018
20
0.324980947170928
30
0
41
1
10
-11.016591035916
20
0.324980947169791
30
0
41
1
10
-11.0083932398606
20
0.323570006052421
30
0
41
1
10
-10.9824416996123
20
0.316682630182555
30
0
41
1
10
-10.9626023344069
20
0.308594995545576
30
0
41
1
10
-10.9398428532867
20
0.29768080963072
30
0
41
1
10
-10.9374159430748
20
0.296497000857499
30
0
41
1
10
-10.9349766839354
20
0.295287724163415
30
0
0
SPLINE
5
1B4
100
AcDbEntity
8
1
62
256
6
ByLayer
370
18
48
1
60
0
100
AcDbSpline
70
4
71
3
72
8
73
4
40
0
40
0
40
0
40
0
40
1
40
1
40
1
40
1
41
1
10
-9.40454881002668
20
0.324980947161663
30
0
41
1
10
-9.34846004046796
20
0.324980947161663
30
0
41
1
10
-9.28900630985672
20
0.31869496716709
30
0
41
1
10
-9.2294758125756
20
0.310875644344606
30
0
0
SPLINE
5
1B5
100
AcDbEntity
8
1
62
256
6
ByLayer
370
13
48
1
60
0
100
AcDbSpline
70
4
71
3
72
10
73
6
40
0
40
0
40
0
40
0
40
0.664993946719532
40
0.664993946719532
40
1
40
1
40
1
40
1
41
1
10
40.631795236158
20
-10.1487363109574
30
0
41
1
10
40.6544008183664
20
-10.1279097292382
30
0
41
1
10
40.6719726297129
20
-10.1020653977739
30
0
41
1
10
40.6836688596485
20
-10.0537893475432
30
0
41
1
10
40.6849134160383
20
-10.0356089155526
30
0
41
1
10
40.6838678419132
20
-10.0162732843472
30
0
0
SPLINE
5
1B6
100
AcDbEntity
8
1
62
256
6
ByLayer
370
13
48
1
60
0
100
AcDbSpline
70
4
71
3
72
12
73
8
40
0
40
0
40
0
40
0
40
0.274450233641753
40
0.274450233641753
40
0.728710906931613
40
0.728710906931613
40
1
40
1
40
1
40
1
41
1
10
41.7146869282979
20
-10.3193842198355
30
0
41
1
10
41.6122143236957
20
-10.2889049344264
30
0
41
1
10
41.509497462749
20
-10.2585576137447
30
0
41
1
10
41.2439453836002
20
-10.1804224140222
30
0
41
1
10
41.0820473482734
20
-10.1331292282366
30
0
41
1
10
40.846079380226
20
-10.0640519317751
30
0
41
1
10
40.7617198878048
20
-10.0394840952046
30
0
41
1
10
40.6838678419132
20
-10.0162732843472
30
0
0
SPLINE
5
1B7
100
AcDbEntity
8
1
62
256
6
ByLayer
370
13
48
1
60
0
100
AcDbSpline
70
4
71
3
72
16
73
12
40
0
40
0
40
0
40
0
40
0.0442199247554627
40
0.0442199247554627
40
0.048439955548864
40
0.048439955548864
40
0.216895358525141
40
0.216895358525141
40
0.889245809546153
40
0.889245809546153
40
1
40
1
40
1
40
1
41
1
10
42.4219297662851
20
-10.3912955122491
30
0
41
1
10
42.411330078545
20
-10.3916652452783
30
0
41
1
10
42.4007291289449
20
-10.3919965677048
30
0
41
1
10
42.3891179461187
20
-10.3924033575068
30
0
41
1
10
42.3881063966876
20
-10.3924389247099
30
0
41
1
10
42.3467182945273
20
-10.3938990834116
30
0
41
1
10
42.3063476610927
20
-10.395795276996
30
0
41
1
10
42.1067119730517
20
-10.4025387130354
30
0
41
1
10
41.9453726295507
20
-10.3815925254054
30
0
41
1
10
41.7656324617666
20
-10.3341118723992
30
0
41
1
10
41.7400997197492
20
-10.3269429593317
30
0
41
1
10
41.7146869282978
20
-10.3193842198355
30
0
0
SPLINE
5
1B8
100
AcDbEntity
8
1
62
256
6
ByLayer
370
13
48
1
60
0
100
AcDbSpline
70
4
71
3
72
12
73
8
40
0
40
0
40
0
40
0
40
0.609383607480292
40
0.609383607480292
40
0.614539779329414
40
0.614539779329414
40
1
40
1
40
1
40
1
41
1
10
42.9656057053218
20
-10.3702937355135
30
0
41
1
10
42.8600213620048
20
-10.3746467476635
30
0
41
1
10
42.7496097970341
20
-10.3789762006417
30
0
41
1
10
42.6373081383666
20
-10.3832477127723
30
0
41
1
10
42.6363601843112
20
-10.3832837679091
30
0
41
1
10
42.5647049543389
20
-10.3860090669243
30
0
41
1
10
42.4932165299022
20
-10.3888089228609
30
0
41
1
10
42.4219297662851
20
-10.3912955122491
30
0
0
SPLINE
5
1B9
100
AcDbEntity
8
1
62
256
6
ByLayer
370
13
48
1
60
0
100
AcDbSpline
70
4
71
3
72
12
73
8
40
0
40
0
40
0
40
0
40
0.178891096392299
40
0.178891096392299
40
0.986291642516443
40
0.986291642516443
40
1
40
1
40
1
40
1
41
1
10
43.3213895076228
20
-10.3536987770379
30
0
41
1
10
43.3003115269679
20
-10.354535118085
30
0
41
1
10
43.2792221384665
20
-10.355378138435
30
0
41
1
10
43.1629014296375
20
-10.3600668305065
30
0
41
1
10
43.0679540502601
20
-10.3657104928004
30
0
41
1
10
42.9689156735316
20
-10.3701542689347
30
0
41
1
10
42.9672607449414
20
-10.3702255018403
30
0
41
1
10
42.9656057053218
20
-10.3702937355135
30
0
0
SPLINE
5
1BA
100
AcDbEntity
8
1
62
256
6
ByLayer
370
13
48
1
60
0
100
AcDbSpline
70
4
71
3
72
8
73
4
40
0
40
0
40
0
40
0
40
1
40
1
40
1
40
1
41
1
10
43.1900286630424
20
-10.4350239663358
30
0
41
1
10
43.234090020669
20
-10.408360998429
30
0
41
1
10
43.2778395366007
20
-10.3811841798814
30
0
41
1
10
43.3213895076228
20
-10.3536987770379
30
0
0
SPLINE
5
1BB
100
AcDbEntity
8
1
62
256
6
ByLayer
370
13
48
1
60
0
100
AcDbSpline
70
4
71
3
72
8
73
4
40
0
40
0
40
0
40
0
40
1
40
1
40
1
40
1
41
1
10
42.7158957172693
20
-10.5135442121622
30
0
41
1
10
42.8755545267195
20
-10.5130277999442
30
0
41
1
10
43.0354150796997
20
-10.4788350507722
30
0
41
1
10
43.1900286630425
20
-10.4350239663358
30
0
0
SPLINE
5
1BC
100
AcDbEntity
8
1
62
256
6
ByLayer
370
13
48
1
60
0
100
AcDbSpline
70
4
71
3
72
8
73
4
40
0
40
0
40
0
40
0
40
1
40
1
40
1
40
1
41
1
10
42.3528986418118
20
-10.5131405318694
30
0
41
1
10
42.4744062234274
20
-10.5090903763065
30
0
41
1
10
42.5966210532665
20
-10.5139300029262
30
0
41
1
10
42.7158957172706
20
-10.513544212164
30
0
0
SPLINE
5
1BD
100
AcDbEntity
8
1
62
256
6
ByLayer
370
13
48
1
60
0
100
AcDbSpline
70
4
71
3
72
8
73
4
40
0
40
0
40
0
40
0
40
1
40
1
40
1
40
1
41
1
10
42.0823771357601
20
-10.4966632769221
30
0
41
1
10
42.1716495580755
20
-10.5103648582547
30
0
41
1
10
42.2625883571385
20
-10.5161508024799
30
0
41
1
10
42.3528986418103
20
-10.5131405318698
30
0
0
SPLINE
5
1BE
100
AcDbEntity
8
1
62
256
6
ByLayer
370
13
48
1
60
0
100
AcDbSpline
70
4
71
3
72
14
73
10
40
0
40
0
40
0
40
0
40
0.102691686735347
40
0.102691686735347
40
0.53816841361549
40
0.53816841361549
40
0.926474667639871
40
0.926474667639871
40
1
40
1
40
1
40
1
41
1
10
40.9509720530678
20
-10.3997161884498
30
0
41
1
10
40.980893999408
20
-10.3964733053311
30
0
41
1
10
41.0122711139628
20
-10.394268338665
30
0
41
1
10
41.1807977171794
20
-10.3875856117884
30
0
41
1
10
41.342161843352
20
-10.3979002391703
30
0
41
1
10
41.6640413220707
20
-10.4324660546542
30
0
41
1
10
41.8272620626366
20
-10.4559450447096
30
0
41
1
10
42.0201021624027
20
-10.4870419880049
30
0
41
1
10
42.0512578164011
20
-10.4918870663728
30
0
41
1
10
42.0823771357602
20
-10.496663276922
30
0
0
SPLINE
5
1BF
100
AcDbEntity
8
1
62
256
6
ByLayer
370
13
48
1
60
0
100
AcDbSpline
70
4
71
3
72
8
73
4
40
0
40
0
40
0
40
0
40
1
40
1
40
1
40
1
41
1
10
40.8573483090604
20
-10.4059807254675
30
0
41
1
10
40.8886707932501
20
-10.4053143773064
30
0
41
1
10
40.9198681643653
20
-10.4030871682134
30
0
41
1
10
40.9509720530678
20
-10.3997161884498
30
0
0
SPLINE
5
1C0
100
AcDbEntity
8
1
62
256
6
ByLayer
370
13
48
1
60
0
100
AcDbSpline
70
4
71
3
72
10
73
6
40
0
40
0
40
0
40
0
40
0.436659189793396
40
0.436659189793396
40
1
40
1
40
1
40
1
41
1
10
40.6305156049705
20
-10.1937288291376
30
0
41
1
10
40.6626760675876
20
-10.225513222017
30
0
41
1
10
40.6951835994714
20
-10.2569513132947
30
0
41
1
10
40.7705662077346
20
-10.3279669604644
30
0
41
1
10
40.8138220700954
20
-10.3671745348573
30
0
41
1
10
40.8573483090634
20
-10.4059807254683
30
0
0
SPLINE
5
1C1
100
AcDbEntity
8
1
62
256
6
ByLayer
370
13
48
1
60
0
100
AcDbSpline
70
4
71
3
72
10
73
6
40
0
40
0
40
0
40
0
40
0.73561768390405
40
0.73561768390405
40
1
40
1
40
1
40
1
41
1
10
40.6305156049705
20
-10.1937288291375
30
0
41
1
10
40.6246851208416
20
-10.1879665240228
30
0
41
1
10
40.6191348692196
20
-10.1816539877762
30
0
41
1
10
40.61316259116
20
-10.1728770110709
30
0
41
1
10
40.6117118978094
20
-10.1704952463863
30
0
41
1
10
40.610489557918
20
-10.168145945892
30
0
0
SPLINE
5
1C2
100
AcDbEntity
8
1
62
256
6
ByLayer
370
13
48
1
60
0
100
AcDbSpline
70
4
71
3
72
8
73
4
40
0
40
0
40
0
40
0
40
1
40
1
40
1
40
1
41
1
10
40.610489557921
20
-10.1681459458886
30
0
41
1
10
40.6176603296031
20
-10.1616833525433
30
0
41
1
10
40.6247646325939
20
-10.1552136243179
30
0
41
1
10
40.631795236158
20
-10.1487363109574
30
0
0
SPLINE
5
1C3
100
AcDbEntity
8
1
62
256
6
ByLayer
370
13
48
1
60
0
100
AcDbSpline
70
4
71
3
72
12
73
8
40
0
40
0
40
0
40
0
40
0.233793069268613
40
0.233793069268613
40
0.849542984529965
40
0.849542984529965
40
1
40
1
40
1
40
1
41
1
10
40.610489557929
20
-8.83185405410367
30
0
41
1
10
40.6115678802706
20
-8.82978155100608
30
0
41
1
10
40.6128235703367
20
-8.82768418486103
30
0
41
1
10
40.6177801949081
20
-8.82021082787648
30
0
41
1
10
40.6222297367628
20
-8.8148705552542
30
0
41
1
10
40.6281198492317
20
-8.80867441669034
30
0
41
1
10
40.6293089587678
20
-8.80746370709684
30
0
41
1
10
40.6305156049705
20
-8.80627117086274
30
0
0
SPLINE
5
1C4
100
AcDbEntity
8
1
62
256
6
ByLayer
370
13
48
1
60
0
100
AcDbSpline
70
4
71
3
72
10
73
6
40
0
40
0
40
0
40
0
40
0.436659189793399
40
0.436659189793399
40
1
40
1
40
1
40
1
41
1
10
40.6305156049705
20
-8.80627117086274
30
0
41
1
10
40.6626760675876
20
-8.77448677798324
30
0
41
1
10
40.6951835994714
20
-8.74304868670558
30
0
41
1
10
40.7705662077346
20
-8.67203303953588
30
0
41
1
10
40.8138220700954
20
-8.63282546514304
30
0
41
1
10
40.8573483090634
20
-8.59401927453206
30
0
0
SPLINE
5
1C5
100
AcDbEntity
8
1
62
256
6
ByLayer
370
13
48
1
60
0
100
AcDbSpline
70
4
71
3
72
8
73
4
40
0
40
0
40
0
40
0
40
1
40
1
40
1
40
1
41
1
10
40.8573483090604
20
-8.59401927453277
30
0
41
1
10
40.8886707932501
20
-8.59468562269396
30
0
41
1
10
40.9198681643653
20
-8.59691283178691
30
0
41
1
10
40.9509720530678
20
-8.60028381155047
30
0
0
SPLINE
5
1C6
100
AcDbEntity
8
1
62
256
6
ByLayer
370
13
48
1
60
0
100
AcDbSpline
70
4
71
3
72
14
73
10
40
0
40
0
40
0
40
0
40
0.102691686735347
40
0.102691686735347
40
0.53816841361549
40
0.53816841361549
40
0.926474667639871
40
0.926474667639871
40
1
40
1
40
1
40
1
41
1
10
40.9509720530678
20
-8.60028381155047
30
0
41
1
10
40.980893999408
20
-8.6035266946692
30
0
41
1
10
41.0122711139628
20
-8.60573166133534
30
0
41
1
10
41.1807977171794
20
-8.61241438821193
30
0
41
1
10
41.342161843352
20
-8.60209976082999
30
0
41
1
10
41.6640413220707
20
-8.5675339453461
30
0
41
1
10
41.8272620626366
20
-8.5440549552907
30
0
41
1
10
42.0201021624027
20
-8.51295801199544
30
0
41
1
10
42.0512578164011
20
-8.50811293362753
30
0
41
1
10
42.0823771357602
20
-8.50333672307835
30
0
0
SPLINE
5
1C7
100
AcDbEntity
8
1
62
256
6
ByLayer
370
13
48
1
60
0
100
AcDbSpline
70
4
71
3
72
8
73
4
40
0
40
0
40
0
40
0
40
1
40
1
40
1
40
1
41
1
10
42.0823771357601
20
-8.50333672307823
30
0
41
1
10
42.1716495580755
20
-8.48963514174562
30
0
41
1
10
42.2625883571385
20
-8.48384919752039
30
0
41
1
10
42.3528986418103
20
-8.48685946813052
30
0
0
SPLINE
5
1C8
100
AcDbEntity
8
1
62
256
6
ByLayer
370
13
48
1
60
0
100
AcDbSpline
70
4
71
3
72
8
73
4
40
0
40
0
40
0
40
0
40
1
40
1
40
1
40
1
41
1
10
42.3528986418118
20
-8.48685946813094
30
0
41
1
10
42.4744062234274
20
-8.4909096236938
30
0
41
1
10
42.5966210532665
20
-8.48606999707411
30
0
41
1
10
42.7158957172706
20
-8.48645578783626
30
0
0
SPLINE
5
1C9
100
AcDbEntity
8
1
62
256
6
ByLayer
370
13
48
1
60
0
100
AcDbSpline
70
4
71
3
72
8
73
4
40
0
40
0
40
0
40
0
40
1
40
1
40
1
40
1
41
1
10
42.7158957172693
20
-8.48645578783808
30
0
41
1
10
42.8755545267195
20
-8.48697220005607
30
0
41
1
10
43.0354150796997
20
-8.52116494922808
30
0
41
1
10
43.1900286630425
20
-8.56497603366452
30
0
0
SPLINE
5
1CA
100
AcDbEntity
8
1
62
256
6
ByLayer
370
13
48
1
60
0
100
AcDbSpline
70
4
71
3
72
8
73
4
40
0
40
0
40
0
40
0
40
1
40
1
40
1
40
1
41
1
10
43.1900286630424
20
-8.56497603366452
30
0
41
1
10
43.234090020669
20
-8.59163900157137
30
0
41
1
10
43.2778395366007
20
-8.61881582011893
30
0
41
1
10
43.3213895076228
20
-8.64630122296242
30
0
0
SPLINE
5
1CB
100
AcDbEntity
8
1
62
256
6
ByLayer
370
13
48
1
60
0
100
AcDbSpline
70
4
71
3
72
12
73
8
40
0
40
0
40
0
40
0
40
0.178891096392299
40
0.178891096392299
40
0.986291642516443
40
0.986291642516443
40
1
40
1
40
1
40
1
41
1
10
43.3213895076228
20
-8.64630122296242
30
0
41
1
10
43.3003115269679
20
-8.64546488191527
30
0
41
1
10
43.2792221384665
20
-8.64462186156535
30
0
41
1
10
43.1629014296375
20
-8.63993316949382
30
0
41
1
10
43.0679540502601
20
-8.63428950719992
30
0
41
1
10
42.9689156735316
20
-8.62984573106561
30
0
41
1
10
42.9672607449414
20
-8.62977449816
30
0
41
1
10
42.9656057053218
20
-8.62970626448686
30
0
0
SPLINE
5
1CC
100
AcDbEntity
8
1
62
256
6
ByLayer
370
13
48
1
60
0
100
AcDbSpline
70
4
71
3
72
12
73
8
40
0
40
0
40
0
40
0
40
0.609383607480292
40
0.609383607480292
40
0.614539779329414
40
0.614539779329414
40
1
40
1
40
1
40
1
41
1
10
42.9656057053218
20
-8.62970626448686
30
0
41
1
10
42.8600213620048
20
-8.62535325233682
30
0
41
1
10
42.7496097970341
20
-8.62102379935857
30
0
41
1
10
42.6373081383666
20
-8.616752287228
30
0
41
1
10
42.6363601843112
20
-8.61671623209122
30
0
41
1
10
42.5647049543389
20
-8.61399093307602
30
0
41
1
10
42.4932165299022
20
-8.61119107713944
30
0
41
1
10
42.4219297662851
20
-8.60870448775123
30
0
0
SPLINE
5
1CD
100
AcDbEntity
8
1
62
256
6
ByLayer
370
13
48
1
60
0
100
AcDbSpline
70
4
71
3
72
16
73
12
40
0
40
0
40
0
40
0
40
0.0442199247554627
40
0.0442199247554627
40
0.048439955548864
40
0.048439955548864
40
0.216895358525141
40
0.216895358525141
40
0.889245809546153
40
0.889245809546153
40
1
40
1
40
1
40
1
41
1
10
42.4219297662851
20
-8.60870448775123
30
0
41
1
10
42.411330078545
20
-8.60833475472202
30
0
41
1
10
42.4007291289449
20
-8.60800343229553
30
0
41
1
10
42.3891179461187
20
-8.60759664249352
30
0
41
1
10
42.3881063966876
20
-8.60756107529045
30
0
41
1
10
42.3467182945273
20
-8.60610091658876
30
0
41
1
10
42.3063476610927
20
-8.60420472300427
30
0
41
1
10
42.1067119730517
20
-8.59746128696494
30
0
41
1
10
41.9453726295507
20
-8.61840747459493
30
0
41
1
10
41.7656324617666
20
-8.66588812760116
30
0
41
1
10
41.7400997197492
20
-8.67305704066865
30
0
41
1
10
41.7146869282978
20
-8.68061578016486
30
0
0
SPLINE
5
1CE
100
AcDbEntity
8
1
62
256
6
ByLayer
370
13
48
1
60
0
100
AcDbSpline
70
4
71
3
72
12
73
8
40
0
40
0
40
0
40
0
40
0.274450233641753
40
0.274450233641753
40
0.728710906931611
40
0.728710906931611
40
1
40
1
40
1
40
1
41
1
10
41.7146869282979
20
-8.68061578016486
30
0
41
1
10
41.6122143236957
20
-8.71109506557391
30
0
41
1
10
41.509497462749
20
-8.74144238625559
30
0
41
1
10
41.2439453836002
20
-8.81957758597812
30
0
41
1
10
41.0820473482734
20
-8.8668707717637
30
0
41
1
10
40.846079380226
20
-8.93594806822523
30
0
41
1
10
40.7617198878048
20
-8.96051590479567
30
0
41
1
10
40.6838678419132
20
-8.98372671565312
30
0
0
SPLINE
5
1CF
100
AcDbEntity
8
1
62
256
6
ByLayer
370
13
48
1
60
0
100
AcDbSpline
70
4
71
3
72
10
73
6
40
0
40
0
40
0
40
0
40
0.659159716151023
40
0.659159716151023
40
1
40
1
40
1
40
1
41
1
10
40.6838678419132
20
-8.98372671565312
30
0
41
1
10
40.6859020371366
20
-8.94610867624618
30
0
41
1
10
40.6777349617728
20
-8.91374083617447
30
0
41
1
10
40.6536893544428
20
-8.8742206936555
30
0
41
1
10
40.6434984870353
20
-8.86204592453362
30
0
41
1
10
40.631795236158
20
-8.85126368904292
30
0
0
SPLINE
5
1D0
100
AcDbEntity
8
1
62
256
6
ByLayer
370
13
48
1
60
0
100
AcDbSpline
70
4
71
3
72
8
73
4
40
0
40
0
40
0
40
0
40
1
40
1
40
1
40
1
41
1
10
40.631795236158
20
-8.85126368904292
30
0
41
1
10
40.6247646325939
20
-8.84478637568239
30
0
41
1
10
40.6176603296031
20
-8.83831664745705
30
0
41
1
10
40.610489557921
20
-8.83185405411169
30
0
0
SPLINE
5
1D1
100
AcDbEntity
8
1
62
256
6
ByLayer
370
13
48
1
60
0
100
AcDbSpline
70
4
71
3
72
8
73
4
40
0
40
0
40
0
40
0
40
1
40
1
40
1
40
1
41
1
10
40.7169741247547
20
-10.5648446992162
30
0
41
1
10
40.6355486668608
20
-10.4954493196161
30
0
41
1
10
40.5571073551694
20
-10.4225205419945
30
0
41
1
10
40.4804455603128
20
-10.347896195348
30
0
0
SPLINE
5
1D2
100
AcDbEntity
8
1
62
256
6
ByLayer
370
13
48
1
60
0
100
AcDbSpline
70
4
71
3
72
8
73
4
40
0
40
0
40
0
40
0
40
1
40
1
40
1
40
1
41
1
10
40.7169741247547
20
-8.43515530078412
30
0
41
1
10
40.6355486668608
20
-8.50455068038417
30
0
41
1
10
40.5571073551694
20
-8.57747945800577
30
0
41
1
10
40.4804455603128
20
-8.65210380465234
30
0
0
SPLINE
5
1D3
100
AcDbEntity
8
1
62
256
6
ByLayer
370
13
48
1
60
0
100
AcDbSpline
70
4
71
3
72
12
73
8
40
0
40
0
40
0
40
0
40
0.46817896742225
40
0.46817896742225
40
0.899165978787896
40
0.899165978787896
40
1
40
1
40
1
40
1
41
1
10
42.0587805434612
20
-8.33557581464902
30
0
41
1
10
41.8775060355049
20
-8.36409951175358
30
0
41
1
10
41.6936117660434
20
-8.39888172979619
30
0
41
1
10
41.3658158689767
20
-8.44253463727105
30
0
41
1
10
41.2153724323278
20
-8.45660168013742
30
0
41
1
10
41.0560286247614
20
-8.45534747787235
30
0
41
1
10
41.0264524991724
20
-8.45424790399076
30
0
41
1
10
40.9981203716814
20
-8.45215197156878
30
0
0
SPLINE
5
1D4
100
AcDbEntity
8
1
62
256
6
ByLayer
370
13
48
1
60
0
100
AcDbSpline
70
4
71
3
72
12
73
8
40
0
40
0
40
0
40
0
40
0.46817896742225
40
0.46817896742225
40
0.899165978787896
40
0.899165978787896
40
1
40
1
40
1
40
1
41
1
10
42.0587805434612
20
-10.6644241853513
30
0
41
1
10
41.8775060355049
20
-10.6359004882467
30
0
41
1
10
41.6936117660434
20
-10.6011182702041
30
0
41
1
10
41.3658158689767
20
-10.5574653627293
30
0
41
1
10
41.2153724323278
20
-10.5433983198629
30
0
41
1
10
41.0560286247614
20
-10.544652522128
30
0
41
1
10
41.0264524991724
20
-10.5457520960095
30
0
41
1
10
40.9981203716814
20
-10.5478480284315
30
0
0
SPLINE
5
1D5
100
AcDbEntity
8
1
62
256
6
ByLayer
370
13
48
1
60
0
100
AcDbSpline
70
4
71
3
72
10
73
6
40
0
40
0
40
0
40
0
40
0.132191617121101
40
0.132191617121101
40
1
40
1
40
1
40
1
41
1
10
40.8573483090604
20
-10.4059807254675
30
0
41
1
10
40.8564468305522
20
-10.406945940658
30
0
41
1
10
40.8555264284299
20
-10.4079366369631
30
0
41
1
10
40.8484541077129
20
-10.4155876604874
30
0
41
1
10
40.8414978788606
20
-10.4233291937069
30
0
41
1
10
40.8339180002563
20
-10.4319586089953
30
0
0
SPLINE
5
1D6
100
AcDbEntity
8
1
62
256
6
ByLayer
370
13
48
1
60
0
100
AcDbSpline
70
4
71
3
72
14
73
10
40
0
40
0
40
0
40
0
40
0.447953066725052
40
0.447953066725052
40
0.912809598186729
40
0.912809598186729
40
0.983423615312508
40
0.983423615312508
40
1
40
1
40
1
40
1
41
1
10
40.8339180002563
20
-10.4319586089959
30
0
41
1
10
40.8203040290403
20
-10.4474576186461
30
0
41
1
10
40.80401541129
20
-10.465990751342
30
0
41
1
10
40.7683740707567
20
-10.5065050797023
30
0
41
1
10
40.7483538761323
20
-10.5292431727846
30
0
41
1
10
40.7253006224606
20
-10.5553996929228
30
0
41
1
10
40.7222095971504
20
-10.5589062950437
30
0
41
1
10
40.7184037038144
20
-10.5632232403096
30
0
41
1
10
40.7176888999301
20
-10.5640339722497
30
0
41
1
10
40.7169741247485
20
-10.5648446992151
30
0
0
SPLINE
5
1D7
100
AcDbEntity
8
1
62
256
6
ByLayer
370
13
48
1
60
0
100
AcDbSpline
70
4
71
3
72
14
73
10
40
0
40
0
40
0
40
0
40
0.447953066725053
40
0.447953066725053
40
0.912809598186729
40
0.912809598186729
40
0.983423615312508
40
0.983423615312508
40
1
40
1
40
1
40
1
41
1
10
40.8339180002563
20
-8.56804139100441
30
0
41
1
10
40.8203040290403
20
-8.55254238135419
30
0
41
1
10
40.80401541129
20
-8.53400924865835
30
0
41
1
10
40.7683740707567
20
-8.49349492029796
30
0
41
1
10
40.7483538761323
20
-8.47075682721572
30
0
41
1
10
40.7253006224606
20
-8.44460030707754
30
0
41
1
10
40.7222095971504
20
-8.44109370495664
30
0
41
1
10
40.7184037038144
20
-8.43677675969073
30
0
41
1
10
40.7176888999301
20
-8.43596602775057
30
0
41
1
10
40.7169741247485
20
-8.4351553007852
30
0
0
SPLINE
5
1D8
100
AcDbEntity
8
1
62
256
6
ByLayer
370
13
48
1
60
0
100
AcDbSpline
70
4
71
3
72
10
73
6
40
0
40
0
40
0
40
0
40
0.132191617121101
40
0.132191617121101
40
1
40
1
40
1
40
1
41
1
10
40.8573483090604
20
-8.59401927453277
30
0
41
1
10
40.8564468305522
20
-8.59305405934231
30
0
41
1
10
40.8555264284299
20
-8.59206336303723
30
0
41
1
10
40.8484541077129
20
-8.58441233951294
30
0
41
1
10
40.8414978788606
20
-8.57667080629341
30
0
41
1
10
40.8339180002563
20
-8.56804139100501
30
0
0
SPLINE
5
1D9
100
AcDbEntity
8
1
62
256
6
ByLayer
370
13
48
1
60
0
100
AcDbSpline
70
4
71
3
72
12
73
8
40
0
40
0
40
0
40
0
40
0.559278359968975
40
0.559278359968975
40
0.982064699130975
40
0.982064699130975
40
1
40
1
40
1
40
1
41
1
10
40.4655988415542
20
-10.1970076234225
30
0
41
1
10
40.4639058993618
20
-10.1648080621547
30
0
41
1
10
40.4615176185073
20
-10.1356330875182
30
0
41
1
10
40.4565061637905
20
-10.0946350461354
30
0
41
1
10
40.4540306406306
20
-10.079892459716
30
0
41
1
10
40.4512781291035
20
-10.0685192129119
30
0
41
1
10
40.4511665651817
20
-10.0680661052066
30
0
41
1
10
40.4510546870628
20
-10.0676195138539
30
0
0
SPLINE
5
1DA
100
AcDbEntity
8
1
62
256
6
ByLayer
370
13
48
1
60
0
100
AcDbSpline
70
4
71
3
72
10
73
6
40
0
40
0
40
0
40
0
40
0.709641074204652
40
0.709641074204652
40
1
40
1
40
1
40
1
41
1
10
40.4804455603128
20
-10.347896195348
30
0
41
1
10
40.4753414889782
20
-10.3110319885922
30
0
41
1
10
40.4711861437204
20
-10.2733941765537
30
0
41
1
10
40.4672412502849
20
-10.2243929024853
30
0
41
1
10
40.4663022439904
20
-10.210386254987
30
0
41
1
10
40.4655988415525
20
-10.1970076234224
30
0
0
SPLINE
5
1DB
100
AcDbEntity
8
1
62
256
6
ByLayer
370
13
48
1
60
0
100
AcDbSpline
70
4
71
3
72
12
73
8
40
0
40
0
40
0
40
0
40
0.135507654329451
40
0.135507654329451
40
0.742115377580087
40
0.742115377580087
40
1
40
1
40
1
40
1
41
1
10
40.4804455603128
20
-8.65210380465234
30
0
41
1
10
40.4794577311545
20
-8.65923841072302
30
0
41
1
10
40.4785068164279
20
-8.66638267298231
30
0
41
1
10
40.4735694178171
20
-8.70503504544055
30
0
41
1
10
40.4702919601627
20
-8.7367056490607
30
0
41
1
10
40.4670296012879
20
-8.77879948938778
30
0
41
1
10
40.4662219824782
20
-8.7911403095506
30
0
41
1
10
40.4655988415537
20
-8.80299237657783
30
0
0
SPLINE
5
1DC
100
AcDbEntity
8
1
62
256
6
ByLayer
370
13
48
1
60
0
100
AcDbSpline
70
4
71
3
72
14
73
10
40
0
40
0
40
0
40
0
40
0.0177509856471946
40
0.0177509856471946
40
0.340726860481444
40
0.340726860481444
40
0.792711195890233
40
0.792711195890233
40
1
40
1
40
1
40
1
41
1
10
40.4510546870628
20
-8.93238048614637
30
0
41
1
10
40.4511665651504
20
-8.93193389479393
30
0
41
1
10
40.4512781289784
20
-8.93148078708921
30
0
41
1
10
40.4534062656342
20
-8.92268743004465
30
0
41
1
10
40.455323964045
20
-8.91215262402412
30
0
41
1
10
40.4595178404373
20
-8.88254103823999
30
0
41
1
10
40.4616827821098
20
-8.86137062186299
30
0
41
1
10
40.4642384176627
20
-8.82665312227232
30
0
41
1
10
40.4649648606851
20
-8.81505061809901
30
0
41
1
10
40.4655988415542
20
-8.80299237657781
30
0
0
SPLINE
5
1DD
100
AcDbEntity
8
1
62
256
6
ByLayer
370
13
48
1
60
0
100
AcDbSpline
70
4
71
3
72
18
73
14
40
0
40
0
40
0
40
0
40
0.10212592206704
40
0.10212592206704
40
0.219798180864097
40
0.219798180864097
40
0.395678331134856
40
0.395678331134856
40
0.733655817510089
40
0.733655817510089
40
0.802063348489368
40
0.802063348489368
40
1
40
1
40
1
40
1
41
1
10
40.0559779585026
20
-10.3267556774513
30
0
41
1
10
40.0564416368177
20
-10.31347604722
30
0
41
1
10
40.05608929913
20
-10.3001169525715
30
0
41
1
10
40.0536446728814
20
-10.2718846307222
30
0
41
1
10
40.0512850832915
20
-10.2569521064429
30
0
41
1
10
40.0431564052165
20
-10.2212015586248
30
0
41
1
10
40.0362096466949
20
-10.2007733452547
30
0
41
1
10
40.0118798067114
20
-10.1465335593219
30
0
41
1
10
39.9902866995539
20
-10.1161518198652
30
0
41
1
10
39.9616240935597
20
-10.0871939333329
30
0
41
1
10
39.956622989345
20
-10.082494586456
30
0
41
1
10
39.9368310070575
20
-10.0651641154969
30
0
41
1
10
39.9212866355731
20
-10.0542191462935
30
0
41
1
10
39.9052940680712
20
-10.0451731223791
30
0
0
SPLINE
5
1DE
100
AcDbEntity
8
1
62
256
6
ByLayer
370
13
48
1
60
0
100
AcDbSpline
70
4
71
3
72
14
73
10
40
0
40
0
40
0
40
0
40
0.447954004797037
40
0.447954004797037
40
0.912810038934036
40
0.912810038934036
40
0.983423779130199
40
0.983423779130199
40
1
40
1
40
1
40
1
41
1
10
40.8933275812136
20
-10.5495304559494
30
0
41
1
10
40.8727755286919
20
-10.5513153960277
30
0
41
1
10
40.8481939779357
20
-10.5534502100755
30
0
41
1
10
40.7944355442363
20
-10.5581186183365
30
0
41
1
10
40.7642532997473
20
-10.5607395039347
30
0
41
1
10
40.7295181484127
20
-10.5637555302522
30
0
41
1
10
40.7248611889835
20
-10.5641598862852
30
0
41
1
10
40.7191276857054
20
-10.5646577116982
30
0
41
1
10
40.7180508939063
20
-10.5647512063293
30
0
41
1
10
40.7169741247543
20
-10.5648446992163
30
0
0
SPLINE
5
1DF
100
AcDbEntity
8
1
62
256
6
ByLayer
370
13
48
1
60
0
100
AcDbSpline
70
4
71
3
72
14
73
10
40
0
40
0
40
0
40
0
40
0.447954004797037
40
0.447954004797037
40
0.912810038934036
40
0.912810038934036
40
0.983423779130199
40
0.983423779130199
40
1
40
1
40
1
40
1
41
1
10
40.8933275812136
20
-8.45046954405092
30
0
41
1
10
40.8727755286919
20
-8.44868460397259
30
0
41
1
10
40.8481939779357
20
-8.4465497899248
30
0
41
1
10
40.7944355442363
20
-8.44188138166385
30
0
41
1
10
40.7642532997473
20
-8.43926049606566
30
0
41
1
10
40.7295181484127
20
-8.43624446974815
30
0
41
1
10
40.7248611889835
20
-8.43584011371513
30
0
41
1
10
40.7191276857054
20
-8.43534228830211
30
0
41
1
10
40.7180508939063
20
-8.43524879367101
30
0
41
1
10
40.7169741247543
20
-8.43515530078406
30
0
0
SPLINE
5
1E0
100
AcDbEntity
8
1
62
256
6
ByLayer
370
13
48
1
60
0
100
AcDbSpline
70
4
71
3
72
12
73
8
40
0
40
0
40
0
40
0
40
0.356479833160399
40
0.356479833160399
40
0.824168720346733
40
0.824168720346733
40
1
40
1
40
1
40
1
41
1
10
40.464378753796
20
-8.94368968726008
30
0
41
1
10
40.4767763033464
20
-8.95020268645172
30
0
41
1
10
40.4880463981536
20
-8.95779876379078
30
0
41
1
10
40.5095864832785
20
-8.97831510883239
30
0
41
1
10
40.5185295226104
20
-8.99249489355711
30
0
41
1
10
40.5240732667399
20
-9.01520044007532
30
0
41
1
10
40.5249217874922
20
-9.02181598235003
30
0
41
1
10
40.5250392603486
20
-9.02871104769545
30
0
0
SPLINE
5
1E1
100
AcDbEntity
8
1
62
256
6
ByLayer
370
13
48
1
60
0
100
AcDbSpline
70
4
71
3
72
12
73
8
40
0
40
0
40
0
40
0
40
0.443558069836982
40
0.443558069836982
40
0.507222026557664
40
0.507222026557664
40
1
40
1
40
1
40
1
41
1
10
40.5250392603487
20
-9.02871104769548
30
0
41
1
10
40.525625933741
20
-9.06314582266063
30
0
41
1
10
40.5334575781989
20
-9.10407418505483
30
0
41
1
10
40.5513800260717
20
-9.15261593058688
30
0
41
1
10
40.5538277204396
20
-9.15884065505233
30
0
41
1
10
40.576282853545
20
-9.21260346183055
30
0
41
1
10
40.606340828125
20
-9.26250087339687
30
0
41
1
10
40.6439598709927
20
-9.30761851578532
30
0
0
SPLINE
5
1E2
100
AcDbEntity
8
1
62
256
6
ByLayer
370
13
48
1
60
0
100
AcDbSpline
70
4
71
3
72
18
73
14
40
0
40
0
40
0
40
0
40
0.262962488711577
40
0.262962488711577
40
0.43136352889061
40
0.43136352889061
40
0.488169625072958
40
0.488169625072958
40
0.652801403480982
40
0.652801403480982
40
0.712254155913291
40
0.712254155913291
40
1
40
1
40
1
40
1
41
1
10
40.6439598709927
20
-9.30761851578532
30
0
41
1
10
40.6671201854563
20
-9.33539537308624
30
0
41
1
10
40.6885389915201
20
-9.36615665508268
30
0
41
1
10
40.713950371308
20
-9.42208948386357
30
0
41
1
10
40.7214580237961
20
-9.44579242783939
30
0
41
1
10
40.7259784141927
20
-9.47828783334074
30
0
41
1
10
40.7266641796623
20
-9.4866563003375
30
0
41
1
10
40.7274106952604
20
-9.51892150576464
30
0
41
1
10
40.72374714007
20
-9.54322934241918
30
0
41
1
10
40.7143596854291
20
-9.57416578823191
30
0
41
1
10
40.7114227244077
20
-9.58230438156448
30
0
41
1
10
40.6925277493289
20
-9.62811384248775
30
0
41
1
10
40.6692256559174
20
-9.66207947326521
30
0
41
1
10
40.6439598709998
20
-9.69238148420638
30
0
0
SPLINE
5
1E3
100
AcDbEntity
8
1
62
256
6
ByLayer
370
13
48
1
60
0
100
AcDbSpline
70
4
71
3
72
12
73
8
40
0
40
0
40
0
40
0
40
0.0695374380305743
40
0.0695374380305743
40
0.564718845075643
40
0.564718845075643
40
1
40
1
40
1
40
1
41
1
10
40.6439598709998
20
-9.69238148420638
30
0
41
1
10
40.6385610813285
20
-9.69885641400637
30
0
41
1
10
40.6333230650435
20
-9.70541096353045
30
0
41
1
10
40.5927993674551
20
-9.75832630815879
30
0
41
1
10
40.5653523725794
20
-9.80878885408768
30
0
41
1
10
40.5331669750442
20
-9.89741176718496
30
0
41
1
10
40.5256153955241
20
-9.93747271762228
30
0
41
1
10
40.5250392603487
20
-9.9712889523048
30
0
0
SPLINE
5
1E4
100
AcDbEntity
8
1
62
256
6
ByLayer
370
13
48
1
60
0
100
AcDbSpline
70
4
71
3
72
10
73
6
40
0
40
0
40
0
40
0
40
0.323499890762715
40
0.323499890762715
40
1
40
1
40
1
40
1
41
1
10
40.5250392603487
20
-9.9712889523048
30
0
41
1
10
40.5248229895013
20
-9.98398296239705
30
0
41
1
10
40.5221009308091
20
-9.99574652666698
30
0
41
1
10
40.5072698303882
20
-10.0276860745185
30
0
41
1
10
40.4876680100064
20
-10.0440754024254
30
0
41
1
10
40.464378753796
20
-10.0563103127402
30
0
0
SPLINE
5
1E5
100
AcDbEntity
8
1
62
256
6
ByLayer
370
13
48
1
60
0
100
AcDbSpline
70
4
71
3
72
12
73
8
40
0
40
0
40
0
40
0
40
0.833271550695841
40
0.833271550695841
40
0.924873187913958
40
0.924873187913958
40
1
40
1
40
1
40
1
41
1
10
39.6610166945645
20
-9.99408820314844
30
0
41
1
10
39.6544754484441
20
-9.95957089979649
30
0
41
1
10
39.6449923927373
20
-9.91689667933016
30
0
41
1
10
39.640181068922
20
-9.86356693418907
30
0
41
1
10
39.6397613475273
20
-9.85814730555882
30
0
41
1
10
39.6391308505303
20
-9.8481631661796
30
0
41
1
10
39.6388959908553
20
-9.84361889189296
30
0
41
1
10
39.6387159227922
20
-9.8390329632432
30
0
0
SPLINE
5
1E6
100
AcDbEntity
8
1
62
256
6
ByLayer
370
13
48
1
60
0
100
AcDbSpline
70
4
71
3
72
8
73
4
40
0
40
0
40
0
40
0
40
1
40
1
40
1
40
1
41
1
10
39.6387159227922
20
-9.8390329632432
30
0
41
1
10
39.6599873122029
20
-9.83289424152977
30
0
41
1
10
39.6815114137464
20
-9.82715221194962
30
0
41
1
10
39.7032105368037
20
-9.82177562535787
30
0
0
SPLINE
5
1E7
100
AcDbEntity
8
1
62
256
6
ByLayer
370
13
48
1
60
0
100
AcDbSpline
70
4
71
3
72
8
73
4
40
0
40
0
40
0
40
0
40
1
40
1
40
1
40
1
41
1
10
39.7032105368034
20
-9.8217756253562
30
0
41
1
10
39.7062783445422
20
-9.82101548708189
30
0
41
1
10
39.7093468504694
20
-9.8202554427518
30
0
41
1
10
39.7124160421627
20
-9.81949549106736
30
0
0
SPLINE
5
1E8
100
AcDbEntity
8
1
62
256
6
ByLayer
370
13
48
1
60
0
100
AcDbSpline
70
4
71
3
72
26
73
22
40
0
40
0
40
0
40
0
40
0.0783346115779722
40
0.0783346115779722
40
0.229067417424992
40
0.229067417424992
40
0.361148737487712
40
0.361148737487712
40
0.451044286208709
40
0.451044286208709
40
0.480076288213215
40
0.480076288213215
40
0.580804987892491
40
0.580804987892491
40
0.598553408472289
40
0.598553408472289
40
0.721865021031447
40
0.721865021031447
40
0.852573440596253
40
0.852573440596253
40
1
40
1
40
1
40
1
41
1
10
39.7124160421627
20
-9.81949549106736
30
0
41
1
10
39.7363716105935
20
-9.81356393761621
30
0
41
1
10
39.7598327503349
20
-9.80615867064313
30
0
41
1
10
39.8253859658396
20
-9.77990082960812
30
0
41
1
10
39.8659116446279
20
-9.75630104982392
30
0
41
1
10
39.9301656555827
20
-9.69934843260842
30
0
41
1
10
39.9562012292316
20
-9.66662924968668
30
0
41
1
10
39.9871009177855
20
-9.60422694671473
30
0
41
1
10
39.9963228169934
20
-9.5762181158151
30
0
41
1
10
40.0026526489823
20
-9.5381476115945
30
0
41
1
10
40.0037565534503
20
-9.52864706678466
30
0
41
1
10
40.006535622122
20
-9.48664874241013
30
0
41
1
10
40.0029896944569
20
-9.45309945024897
30
0
41
1
10
39.9928135335291
20
-9.41656062366465
30
0
41
1
10
39.9911033398723
20
-9.4110584618831
30
0
41
1
10
39.9765578244499
20
-9.36867911819294
30
0
41
1
10
39.9563208175635
20
-9.3345999946109
30
0
41
1
10
39.9056247831178
20
-9.27569807805182
30
0
41
1
10
39.8738519252939
20
-9.25041471414931
30
0
41
1
10
39.8004676930902
20
-9.20794412454606
30
0
41
1
10
39.7571805456305
20
-9.19158848908563
30
0
41
1
10
39.7124160421627
20
-9.18050450893296
30
0
0
SPLINE
5
1E9
100
AcDbEntity
8
1
62
256
6
ByLayer
370
13
48
1
60
0
100
AcDbSpline
70
4
71
3
72
8
73
4
40
0
40
0
40
0
40
0
40
1
40
1
40
1
40
1
41
1
10
39.7124160421627
20
-9.18050450893296
30
0
41
1
10
39.7093468504694
20
-9.17974455724848
30
0
41
1
10
39.7062783445422
20
-9.17898451291842
30
0
41
1
10
39.7032105368033
20
-9.17822437464412
30
0
0
SPLINE
5
1EA
100
AcDbEntity
8
1
62
256
6
ByLayer
370
13
48
1
60
0
100
AcDbSpline
70
4
71
3
72
8
73
4
40
0
40
0
40
0
40
0
40
1
40
1
40
1
40
1
41
1
10
39.7032105368033
20
-9.17822437464412
30
0
41
1
10
39.681511413746
20
-9.17284778805234
30
0
41
1
10
39.6599873122031
20
-9.16710575846875
30
0
41
1
10
39.6387159227924
20
-9.16096703675532
30
0
0
SPLINE
5
1EB
100
AcDbEntity
8
1
62
256
6
ByLayer
370
13
48
1
60
0
100
AcDbSpline
70
4
71
3
72
10
73
6
40
0
40
0
40
0
40
0
40
0.0748872813144652
40
0.0748872813144652
40
1
40
1
40
1
40
1
41
1
10
39.6387159227922
20
-9.16096703675711
30
0
41
1
10
39.6388959908553
20
-9.15638110810735
30
0
41
1
10
39.6391308505303
20
-9.15183683382071
30
0
41
1
10
39.6428644178648
20
-9.09271449568749
30
0
41
1
10
39.6537561749332
20
-9.04422461278824
30
0
41
1
10
39.6610166945642
20
-9.00591179685333
30
0
0
SPLINE
5
1EC
100
AcDbEntity
8
1
62
256
6
ByLayer
370
13
48
1
60
0
100
AcDbSpline
70
4
71
3
72
20
73
16
40
0
40
0
40
0
40
0
40
0.114266316237489
40
0.114266316237489
40
0.331231960429442
40
0.331231960429442
40
0.599155656755157
40
0.599155656755157
40
0.722874848940947
40
0.722874848940947
40
0.871512516236653
40
0.871512516236653
40
0.967654963824484
40
0.967654963824484
40
1
40
1
40
1
40
1
41
1
10
39.9052940680729
20
-8.95482687762171
30
0
41
1
10
39.9145383163395
20
-8.94959796794976
30
0
41
1
10
39.9236231348746
20
-8.94374091757916
30
0
41
1
10
39.9492280670811
20
-8.92496821515175
30
0
41
1
10
39.965276744252
20
-8.91031630553641
30
0
41
1
10
39.9980286906964
20
-8.87242711839534
30
0
41
1
10
40.0143711478298
20
-8.84753182776223
30
0
41
1
10
40.0331414661541
20
-8.80623036215468
30
0
41
1
10
40.0383907764822
20
-8.79228566333472
30
0
41
1
10
40.047858461063
20
-8.7603462150166
30
0
41
1
10
40.0517121178798
20
-8.74188231462625
30
0
41
1
10
40.0553663096761
20
-8.71082058117588
30
0
41
1
10
40.0561297476895
20
-8.69834535713184
30
0
41
1
10
40.056190626378
20
-8.68166750333089
30
0
41
1
10
40.0561249332387
20
-8.67745364198888
30
0
41
1
10
40.0559779585028
20
-8.67324432254904
30
0
0
SPLINE
5
1ED
100
AcDbEntity
8
1
62
256
6
ByLayer
370
13
48
1
60
0
100
AcDbSpline
70
4
71
3
72
16
73
12
40
0
40
0
40
0
40
0
40
0.249954056036558
40
0.249954056036558
40
0.699484194384015
40
0.699484194384015
40
0.851133931227642
40
0.851133931227642
40
0.935108677236773
40
0.935108677236773
40
1
40
1
40
1
40
1
41
1
10
39.8267110292774
20
-10.2268974965048
30
0
41
1
10
39.8427048966234
20
-10.2304490006954
30
0
41
1
10
39.8585947536485
20
-10.2346319052693
30
0
41
1
10
39.9021970348682
20
-10.2485674865998
30
0
41
1
10
39.9302297071817
20
-10.2597714076048
30
0
41
1
10
39.9625570510524
20
-10.2832193194873
30
0
41
1
10
39.9704121947256
20
-10.2900650624515
30
0
41
1
10
39.9801629147231
20
-10.302821149222
30
0
41
1
10
39.9831940821262
20
-10.3079077531612
30
0
41
1
10
39.9866841498693
20
-10.3176298067035
30
0
41
1
10
39.9875739298375
20
-10.3222200449417
30
0
41
1
10
39.9875739298375
20
-10.3267556774513
30
0
0
SPLINE
5
1EE
100
AcDbEntity
8
1
62
256
6
ByLayer
370
13
48
1
60
0
100
AcDbSpline
70
4
71
3
72
20
73
16
40
0
40
0
40
0
40
0
40
0.0199906994069362
40
0.0199906994069362
40
0.0825919577440876
40
0.0825919577440876
40
0.195169299288357
40
0.195169299288357
40
0.306011529795777
40
0.306011529795777
40
0.591177675589546
40
0.591177675589546
40
0.85412822131223
40
0.85412822131223
40
1
40
1
40
1
40
1
41
1
10
39.9875739298376
20
-8.67324432254904
30
0
41
1
10
39.9875739298376
20
-8.67465584735035
30
0
41
1
10
39.9874914943693
20
-8.67606987324558
30
0
41
1
10
39.9868329759385
20
-8.68180287022824
30
0
41
1
10
39.9855574593884
20
-8.68607184919045
30
0
41
1
10
39.9806296077618
20
-8.69703785888785
30
0
41
1
10
39.9758782533064
20
-8.70328635956278
30
0
41
1
10
39.9654630806491
20
-8.71414510416884
30
0
41
1
10
39.959676381482
20
-8.71891740982352
30
0
41
1
10
39.9382455610535
20
-8.73428307382179
30
0
41
1
10
39.9211325656859
20
-8.74266128671297
30
0
41
1
10
39.8877211729543
20
-8.75624756481477
30
0
41
1
10
39.8712362948113
20
-8.76161935064721
30
0
41
1
10
39.8453568251732
20
-8.76873580470465
30
0
41
1
10
39.8360536989462
20
-8.77102792517317
30
0
41
1
10
39.8267110292773
20
-8.77310250349564
30
0
0
SPLINE
5
1EF
100
AcDbEntity
8
1
62
256
6
ByLayer
370
13
48
1
60
0
100
AcDbSpline
70
4
71
3
72
14
73
10
40
0
40
0
40
0
40
0
40
0.0177534078899156
40
0.0177534078899156
40
0.340744812432132
40
0.340744812432132
40
0.785966596962005
40
0.785966596962005
40
1
40
1
40
1
40
1
41
1
10
40.4510546870628
20
-8.93238048614637
30
0
41
1
10
40.4520935591131
20
-8.93211931814184
30
0
41
1
10
40.4531321595046
20
-8.93185165636928
30
0
41
1
10
40.4729966272013
20
-8.92660515575272
30
0
41
1
10
40.4917885884791
20
-8.9194399402451
30
0
41
1
10
40.5347600859257
20
-8.8978226896958
30
0
41
1
10
40.5587945413717
20
-8.88138510198016
30
0
41
1
10
40.5910000960522
20
-8.85267381370207
30
0
41
1
10
40.6010527060187
20
-8.84255827921027
30
0
41
1
10
40.610489557929
20
-8.83185405410367
30
0
0
SPLINE
5
1F0
100
AcDbEntity
8
1
62
256
6
ByLayer
370
13
48
1
60
0
100
AcDbSpline
70
4
71
3
72
12
73
8
40
0
40
0
40
0
40
0
40
0.559301985460886
40
0.559301985460886
40
0.982067221682947
40
0.982067221682947
40
1
40
1
40
1
40
1
41
1
10
40.610489557929
20
-10.1681459458966
30
0
41
1
10
40.5860762799805
20
-10.1404539544109
30
0
41
1
10
40.5571861880885
20
-10.1165461082719
30
0
41
1
10
40.5034740589433
20
-10.0852512885936
30
0
41
1
10
40.4788250511787
20
-10.074934217486
30
0
41
1
10
40.4531321595027
20
-10.0681483436322
30
0
41
1
10
40.4520935591125
20
-10.0678806818588
30
0
41
1
10
40.4510546870628
20
-10.067619513854
30
0
0
SPLINE
5
1F1
100
AcDbEntity
8
1
62
256
6
ByLayer
370
13
48
1
60
0
100
AcDbSpline
70
4
71
3
72
8
73
4
40
0
40
0
40
0
40
0
40
1
40
1
40
1
40
1
41
1
10
39.2639115680548
20
-10.6339172375215
30
0
41
1
10
39.3472851478712
20
-10.4951344673786
30
0
41
1
10
39.4165691639539
20
-10.3469659249438
30
0
41
1
10
39.4825621452742
20
-10.1979670943815
30
0
0
SPLINE
5
1F2
100
AcDbEntity
8
1
62
256
6
ByLayer
370
13
48
1
60
0
100
AcDbSpline
70
4
71
3
72
16
73
12
40
0
40
0
40
0
40
0
40
0.0745951303882249
40
0.0745951303882249
40
0.27553513169183
40
0.27553513169183
40
0.501427420118119
40
0.501427420118119
40
0.725494997757322
40
0.725494997757322
40
1
40
1
40
1
40
1
41
1
10
39.4825621452742
20
-10.1979670943815
30
0
41
1
10
39.4837736749442
20
-10.1952317049444
30
0
41
1
10
39.4851163296951
20
-10.1925572078752
30
0
41
1
10
39.4905147865575
20
-10.1830767358225
30
0
41
1
10
39.495461783055
20
-10.1767105424779
30
0
41
1
10
39.5076198241713
20
-10.1655631329551
30
0
41
1
10
39.515234293716
20
-10.1609241671944
30
0
41
1
10
39.5312051191359
20
-10.1550310189246
30
0
41
1
10
39.5397662566658
20
-10.153640099138
30
0
41
1
10
39.5585207140201
20
-10.1535642009225
30
0
41
1
10
39.5689309570328
20
-10.1555045458588
30
0
41
1
10
39.5787842780358
20
-10.1587842708634
30
0
0
SPLINE
5
1F3
100
AcDbEntity
8
1
62
256
6
ByLayer
370
13
48
1
60
0
100
AcDbSpline
70
4
71
3
72
16
73
12
40
0
40
0
40
0
40
0
40
0.108772443208259
40
0.108772443208259
40
0.369799377627614
40
0.369799377627614
40
0.571154122074464
40
0.571154122074464
40
0.786314444449857
40
0.786314444449857
40
1
40
1
40
1
40
1
41
1
10
39.5787842780346
20
-8.84121572913773
30
0
41
1
10
39.574842530994
20
-8.84252775848566
30
0
41
1
10
39.5708295616293
20
-8.84362271353109
30
0
41
1
10
39.5571495011343
20
-8.84645614102666
30
0
41
1
10
39.5470910912765
20
-8.84701608492111
30
0
41
1
10
39.5298590002818
20
-8.84450659509136
30
0
41
1
10
39.5223925092281
20
-8.84218599469679
30
0
41
1
10
39.5083165495633
20
-8.83486499514902
30
0
41
1
10
39.501614556307
20
-8.82958017836921
30
0
41
1
10
39.4905405846473
20
-8.81710231391767
30
0
41
1
10
39.4859929686991
20
-8.80977901236551
30
0
41
1
10
39.4825621452759
20
-8.80203290561775
30
0
0
SPLINE
5
1F4
100
AcDbEntity
8
1
62
256
6
ByLayer
370
13
48
1
60
0
100
AcDbSpline
70
4
71
3
72
8
73
4
40
0
40
0
40
0
40
0
40
1
40
1
40
1
40
1
41
1
10
39.4825621452734
20
-8.80203290562025
30
0
41
1
10
39.4165691639541
20
-8.65303407506005
30
0
41
1
10
39.347285147872
20
-8.50486553262752
30
0
41
1
10
39.2639115680571
20
-8.36608276248643
30
0
0
SPLINE
5
1F5
100
AcDbEntity
8
1
62
256
6
ByLayer
370
13
48
1
60
0
100
AcDbSpline
70
4
71
3
72
10
73
6
40
0
40
0
40
0
40
0
40
0.140418403423082
40
0.140418403423082
40
1
40
1
40
1
40
1
41
1
10
40.8950622867785
20
-10.5491694499343
30
0
41
1
10
40.8949786281127
20
-10.5491668597208
30
0
41
1
10
40.8948949964083
20
-10.5491666556351
30
0
41
1
10
40.8943060068435
20
-10.5491831719817
30
0
41
1
10
40.893796745917
20
-10.5492933847367
30
0
41
1
10
40.8933275812036
20
-10.5495304557449
30
0
0
SPLINE
5
1F6
100
AcDbEntity
8
1
62
256
6
ByLayer
370
13
48
1
60
0
100
AcDbSpline
70
4
71
3
72
8
73
4
40
0
40
0
40
0
40
0
40
1
40
1
40
1
40
1
41
1
10
40.9981203716814
20
-10.5478480284315
30
0
41
1
10
40.9638409048776
20
-10.5497044186513
30
0
41
1
10
40.9294607622627
20
-10.5502344847975
30
0
41
1
10
40.8950622867787
20
-10.5491694499343
30
0
0
SPLINE
5
1F7
100
AcDbEntity
8
1
62
256
6
ByLayer
370
13
48
1
60
0
100
AcDbSpline
70
4
71
3
72
8
73
4
40
0
40
0
40
0
40
0
40
1
40
1
40
1
40
1
41
1
10
40.9981203716814
20
-8.45215197156878
30
0
41
1
10
40.9638409048776
20
-8.450295581349
30
0
41
1
10
40.9294607622627
20
-8.44976551520284
30
0
41
1
10
40.8950622867787
20
-8.450830550066
30
0
0
SPLINE
5
1F8
100
AcDbEntity
8
1
62
256
6
ByLayer
370
13
48
1
60
0
100
AcDbSpline
70
4
71
3
72
10
73
6
40
0
40
0
40
0
40
0
40
0.140418403423082
40
0.140418403423082
40
1
40
1
40
1
40
1
41
1
10
40.8950622867785
20
-8.450830550066
30
0
41
1
10
40.8949786281127
20
-8.45083314027951
30
0
41
1
10
40.8948949964083
20
-8.45083334436518
30
0
41
1
10
40.8943060068435
20
-8.45081682801862
30
0
41
1
10
40.893796745917
20
-8.45070661526358
30
0
41
1
10
40.8933275812036
20
-8.45046954425541
30
0
0
SPLINE
5
1F9
100
AcDbEntity
8
1
62
256
6
ByLayer
370
13
48
1
60
0
100
AcDbSpline
70
4
71
3
72
8
73
4
40
0
40
0
40
0
40
0
40
1
40
1
40
1
40
1
41
1
10
40.464378753796
20
-10.0563103127402
30
0
41
1
10
40.4599671112989
20
-10.0600859171021
30
0
41
1
10
40.4555251065502
20
-10.0638555577377
30
0
41
1
10
40.4510546870628
20
-10.067619513854
30
0
0
SPLINE
5
1FA
100
AcDbEntity
8
1
62
256
6
ByLayer
370
13
48
1
60
0
100
AcDbSpline
70
4
71
3
72
8
73
4
40
0
40
0
40
0
40
0
40
1
40
1
40
1
40
1
41
1
10
40.4510546870628
20
-8.93238048614634
30
0
41
1
10
40.4555251065502
20
-8.93614444226262
30
0
41
1
10
40.4599671112989
20
-8.93991408289824
30
0
41
1
10
40.464378753796
20
-8.94368968726008
30
0
0
SPLINE
5
1FB
100
AcDbEntity
8
1
62
256
6
ByLayer
370
13
48
1
60
0
100
AcDbSpline
70
4
71
3
72
12
73
8
40
0
40
0
40
0
40
0
40
0.473871515909109
40
0.473871515909109
40
0.928528687587425
40
0.928528687587425
40
1
40
1
40
1
40
1
41
1
10
40.78962014135
20
-9.21142777368073
30
0
41
1
10
40.7605769079864
20
-9.17297852056171
30
0
41
1
10
40.738076503972
20
-9.13207086376397
30
0
41
1
10
40.7054858788087
20
-9.05852838351348
30
0
41
1
10
40.6944900899473
20
-9.02481334861864
30
0
41
1
10
40.6859581625812
20
-8.99225944767991
30
0
41
1
10
40.684884631021
20
-8.98791672184865
30
0
41
1
10
40.6838678419132
20
-8.98372671565315
30
0
0
SPLINE
5
1FC
100
AcDbEntity
8
1
62
256
6
ByLayer
370
13
48
1
60
0
100
AcDbSpline
70
4
71
3
72
12
73
8
40
0
40
0
40
0
40
0
40
0.152393412067187
40
0.152393412067187
40
0.68049007519868
40
0.68049007519868
40
1
40
1
40
1
40
1
41
1
10
40.7896201413456
20
-9.2114277736857
30
0
41
1
10
40.8346105972805
20
-9.2024736954458
30
0
41
1
10
40.8812734171468
20
-9.19298342993662
30
0
41
1
10
41.0939294786754
20
-9.14891755517866
30
0
41
1
10
41.2774173301441
20
-9.1088319095366
30
0
41
1
10
41.578376870561
20
-9.03989933500483
30
0
41
1
10
41.6952214954585
20
-9.01239446652357
30
0
41
1
10
41.8112677608007
20
-8.9841589254894
30
0
0
SPLINE
5
1FD
100
AcDbEntity
8
1
62
256
6
ByLayer
370
13
48
1
60
0
100
AcDbSpline
70
4
71
3
72
12
73
8
40
0
40
0
40
0
40
0
40
0.453713856043948
40
0.453713856043948
40
0.935255270278036
40
0.935255270278036
40
1
40
1
40
1
40
1
41
1
10
40.6838678419132
20
-10.0162732843472
30
0
41
1
10
40.6902549278144
20
-9.98995324483167
30
0
41
1
10
40.6997841086873
20
-9.95768553855845
30
0
41
1
10
40.7293410835708
20
-9.88545999860554
30
0
41
1
10
40.7503116579037
20
-9.84418126823766
30
0
41
1
10
40.7817069341031
20
-9.79925808900086
30
0
41
1
10
40.7855997151617
20
-9.79389471855777
30
0
41
1
10
40.7896201413555
20
-9.78857222631231
30
0
0
SPLINE
5
1FE
100
AcDbEntity
8
1
62
256
6
ByLayer
370
13
48
1
60
0
100
AcDbSpline
70
4
71
3
72
12
73
8
40
0
40
0
40
0
40
0
40
0.152393412053729
40
0.152393412053729
40
0.680490075193607
40
0.680490075193607
40
1
40
1
40
1
40
1
41
1
10
40.7896201413597
20
-9.7885722263174
30
0
41
1
10
40.8346105972902
20
-9.7975263045565
30
0
41
1
10
40.8812734171517
20
-9.80701657006475
30
0
41
1
10
41.0939294786754
20
-9.85108244482166
30
0
41
1
10
41.2774173301441
20
-9.89116809046371
30
0
41
1
10
41.578376870561
20
-9.96010066499548
30
0
41
1
10
41.6952214954585
20
-9.98760553347674
30
0
41
1
10
41.8112677608007
20
-10.0158410745109
30
0
0
SPLINE
5
1FF
100
AcDbEntity
8
1
62
256
6
ByLayer
370
13
48
1
60
0
100
AcDbSpline
70
4
71
3
72
16
73
12
40
0
40
0
40
0
40
0
40
0.257384746008501
40
0.257384746008501
40
0.483485531381172
40
0.483485531381172
40
0.71945910330869
40
0.71945910330869
40
0.925748185145375
40
0.925748185145375
40
1
40
1
40
1
40
1
41
1
10
39.6610166945645
20
-9.99408820314844
30
0
41
1
10
39.6316687367362
20
-9.99158615324546
30
0
41
1
10
39.6016686457385
20
-9.99303167351491
30
0
41
1
10
39.5476222628195
20
-10.0030255811655
30
0
41
1
10
39.5228412392242
20
-10.0107769362007
30
0
41
1
10
39.4759336807441
20
-10.0321780148554
30
0
41
1
10
39.4535298246701
20
-10.0462768998191
30
0
41
1
10
39.4168300974003
20
-10.0773137419919
30
0
41
1
10
39.4015959942174
20
-10.0939052091309
30
0
41
1
10
39.3843415664157
20
-10.1184150272255
30
0
41
1
10
39.3800684610181
20
-10.125138478097
30
0
41
1
10
39.3761342837701
20
-10.1320289653289
30
0
0
SPLINE
5
200
100
AcDbEntity
8
1
62
256
6
ByLayer
370
13
48
1
60
0
100
AcDbSpline
70
4
71
3
72
16
73
12
40
0
40
0
40
0
40
0
40
0.215940694014332
40
0.215940694014332
40
0.440749342864023
40
0.440749342864023
40
0.6480631149087
40
0.6480631149087
40
0.900502256755734
40
0.900502256755734
40
1
40
1
40
1
40
1
41
1
10
39.3761342837701
20
-8.86797103467279
30
0
41
1
10
39.3874887091377
20
-8.88785766358868
30
0
41
1
10
39.4017703058923
20
-8.90643615981389
30
0
41
1
10
39.4355311178213
20
-8.93991939289694
30
0
41
1
10
39.4554935542141
20
-8.95493576148903
30
0
41
1
10
39.4971485157203
20
-8.97847508705607
30
0
41
1
10
39.5188925805651
20
-8.98758964772125
30
0
41
1
10
39.5687388690062
20
-9.00214645152357
30
0
41
1
10
39.5977360562636
20
-9.00652212054374
30
0
41
1
10
39.6380565109323
20
-9.00727070339772
30
0
41
1
10
39.6495709364866
20
-9.00688760096395
30
0
41
1
10
39.6610166945642
20
-9.00591179685333
30
0
0
SPLINE
5
201
100
AcDbEntity
8
1
62
256
6
ByLayer
370
13
48
1
60
0
100
AcDbSpline
70
4
71
3
72
14
73
10
40
0
40
0
40
0
40
0
40
0.0140696667047013
40
0.0140696667047013
40
0.158297294424887
40
0.158297294424887
40
0.557403345933072
40
0.557403345933072
40
1
40
1
40
1
40
1
41
1
10
39.6387159227631
20
-9.16096703675908
30
0
41
1
10
39.6375460584102
20
-9.16113020680089
30
0
41
1
10
39.6363754680049
20
-9.16128933700369
30
0
41
1
10
39.6230171191251
20
-9.16306567628183
30
0
41
1
10
39.610745606981
20
-9.16429692709212
30
0
41
1
10
39.565092528665
20
-9.16743902598913
30
0
41
1
10
39.5314247709742
20
-9.16681456587509
30
0
41
1
10
39.4656728605842
20
-9.15970355425105
30
0
41
1
10
39.4330791217041
20
-9.15247101094511
30
0
41
1
10
39.4056329534176
20
-9.14230644342666
30
0
0
SPLINE
5
202
100
AcDbEntity
8
1
62
256
6
ByLayer
370
13
48
1
60
0
100
AcDbSpline
70
4
71
3
72
8
73
4
40
0
40
0
40
0
40
0
40
1
40
1
40
1
40
1
41
1
10
39.4056329534174
20
-9.14230644340523
30
0
41
1
10
39.396339183532
20
-9.13886453666996
30
0
41
1
10
39.3875722949159
20
-9.13540482605103
30
0
41
1
10
39.3794417210372
20
-9.13200211971889
30
0
0
SPLINE
5
203
100
AcDbEntity
8
1
62
256
6
ByLayer
370
13
48
1
60
0
100
AcDbSpline
70
4
71
3
72
10
73
6
40
0
40
0
40
0
40
0
40
0.782589980152529
40
0.782589980152529
40
1
40
1
40
1
40
1
41
1
10
39.3761342837701
20
-8.86797103467279
30
0
41
1
10
39.3750264075113
20
-8.92788680408708
30
0
41
1
10
39.3733409185196
20
-8.99722838836578
30
0
41
1
10
39.3768419616687
20
-9.09029828505282
30
0
41
1
10
39.3779402791544
20
-9.11102490278066
30
0
41
1
10
39.3794417210385
20
-9.13200211971679
30
0
0
SPLINE
5
204
100
AcDbEntity
8
1
62
256
6
ByLayer
370
13
48
1
60
0
100
AcDbSpline
70
4
71
3
72
10
73
6
40
0
40
0
40
0
40
0
40
0.217410019846355
40
0.217410019846355
40
1
40
1
40
1
40
1
41
1
10
39.3794417210371
20
-9.86799788028225
30
0
41
1
10
39.377940279153
20
-9.88897509721841
30
0
41
1
10
39.3768419616687
20
-9.90970171494746
30
0
41
1
10
39.3733409185196
20
-10.0027716116351
30
0
41
1
10
39.3750264075113
20
-10.0721131959143
30
0
41
1
10
39.3761342837701
20
-10.132028965329
30
0
0
SPLINE
5
205
100
AcDbEntity
8
1
62
256
6
ByLayer
370
13
48
1
60
0
100
AcDbSpline
70
4
71
3
72
8
73
4
40
0
40
0
40
0
40
0
40
1
40
1
40
1
40
1
41
1
10
39.3794417210371
20
-9.86799788028225
30
0
41
1
10
39.3875722949159
20
-9.86459517395011
30
0
41
1
10
39.396339183532
20
-9.86113546333041
30
0
41
1
10
39.4056329534174
20
-9.85769355659517
30
0
0
SPLINE
5
206
100
AcDbEntity
8
1
62
256
6
ByLayer
370
13
48
1
60
0
100
AcDbSpline
70
4
71
3
72
14
73
10
40
0
40
0
40
0
40
0
40
0.362290872375782
40
0.362290872375782
40
0.75921727113372
40
0.75921727113372
40
0.985981513552925
40
0.985981513552925
40
1
40
1
40
1
40
1
41
1
10
39.4056329534176
20
-9.85769355657365
30
0
41
1
10
39.4281812464505
20
-9.84934289557916
30
0
41
1
10
39.4541207849952
20
-9.84297362412988
30
0
41
1
10
39.5118571823038
20
-9.83448301339169
30
0
41
1
10
39.5447419197083
20
-9.83270660086581
30
0
41
1
10
39.5968158183065
20
-9.8344356382938
30
0
41
1
10
39.6161285437686
20
-9.83601830874377
30
0
41
1
10
39.6363754679909
20
-9.83871066300904
30
0
41
1
10
39.6375460583942
20
-9.83886979319999
30
0
41
1
10
39.6387159227443
20
-9.83903296323734
30
0
0
SPLINE
5
207
100
AcDbEntity
8
1
62
256
6
ByLayer
370
13
48
1
60
0
100
AcDbSpline
70
4
71
3
72
12
73
8
40
0
40
0
40
0
40
0
40
0.027753964396557
40
0.027753964396557
40
0.667826589987148
40
0.667826589987148
40
1
40
1
40
1
40
1
41
1
10
39.2639115680571
20
-8.36608276248637
30
0
41
1
10
39.2630224938299
20
-8.36659468711525
30
0
41
1
10
39.2621362973345
20
-8.3671065367088
30
0
41
1
10
39.241139438886
20
-8.37928009283314
30
0
41
1
10
39.2223677783528
20
-8.39114742471966
30
0
41
1
10
39.1985834198732
20
-8.40777830836851
30
0
41
1
10
39.1911418620728
20
-8.41332047332116
30
0
41
1
10
39.1846560826641
20
-8.41852006093561
30
0
0
SPLINE
5
208
100
AcDbEntity
8
1
62
256
6
ByLayer
370
13
48
1
60
0
100
AcDbSpline
70
4
71
3
72
10
73
6
40
0
40
0
40
0
40
0
40
0.820434354426583
40
0.820434354426583
40
1
40
1
40
1
40
1
41
1
10
39.1772670677278
20
-8.42401566865425
30
0
41
1
10
39.2373176229178
20
-8.54273241819072
30
0
41
1
10
39.2907218307757
20
-8.66481625051577
30
0
41
1
10
39.3537878651402
20
-8.81418770936747
30
0
41
1
10
39.3650067820629
20
-8.84106172250191
30
0
41
1
10
39.3761342837705
20
-8.86797103467248
30
0
0
SPLINE
5
209
100
AcDbEntity
8
1
62
256
6
ByLayer
370
13
48
1
60
0
100
AcDbSpline
70
4
71
3
72
8
73
4
40
0
40
0
40
0
40
0
40
1
40
1
40
1
40
1
41
1
10
39.1846560826641
20
-8.41852006093561
30
0
41
1
10
39.1821308679729
20
-8.42054450151571
30
0
41
1
10
39.1796628452491
20
-8.42238019853414
30
0
41
1
10
39.1772670677278
20
-8.42401566865425
30
0
0
SPLINE
5
20A
100
AcDbEntity
8
1
62
256
6
ByLayer
370
13
48
1
60
0
100
AcDbSpline
70
4
71
3
72
12
73
8
40
0
40
0
40
0
40
0
40
0.0278313206712517
40
0.0278313206712517
40
0.611473023609022
40
0.611473023609022
40
1
40
1
40
1
40
1
41
1
10
39.2639115680654
20
-10.6339172375037
30
0
41
1
10
39.2630224938381
20
-10.6334053128778
30
0
41
1
10
39.2621362973421
20
-10.6328934632882
30
0
41
1
10
39.2428803330612
20
-10.6217292426226
30
0
41
1
10
39.2256423082254
20
-10.6109187529855
30
0
41
1
10
39.2010972420242
20
-10.5940822902436
30
0
41
1
10
39.1922210960019
20
-10.5875447382469
30
0
41
1
10
39.184656082664
20
-10.5814799390646
30
0
0
SPLINE
5
20B
100
AcDbEntity
8
1
62
256
6
ByLayer
370
13
48
1
60
0
100
AcDbSpline
70
4
71
3
72
8
73
4
40
0
40
0
40
0
40
0
40
1
40
1
40
1
40
1
41
1
10
39.184656082664
20
-10.5814799390646
30
0
41
1
10
39.1821308679728
20
-10.5794554984845
30
0
41
1
10
39.1796628452491
20
-10.5776198014661
30
0
41
1
10
39.1772670677278
20
-10.5759843313461
30
0
0
SPLINE
5
20C
100
AcDbEntity
8
1
62
256
6
ByLayer
370
13
48
1
60
0
100
AcDbSpline
70
4
71
3
72
10
73
6
40
0
40
0
40
0
40
0
40
0.819881036339605
40
0.819881036339605
40
1
40
1
40
1
40
1
41
1
10
39.3761342837701
20
-10.1320289653289
30
0
41
1
10
39.3253430321445
20
-10.2548559647259
30
0
41
1
10
39.2729973133248
20
-10.3771935301975
30
0
41
1
10
39.2032770273131
20
-10.5236422096648
30
0
41
1
10
39.1904566776892
20
-10.5499091748832
30
0
41
1
10
39.1772670677279
20
-10.5759843313461
30
0
0
SPLINE
5
20D
100
AcDbEntity
8
1
62
256
6
ByLayer
370
13
48
1
60
0
100
AcDbSpline
70
4
71
3
72
12
73
8
40
0
40
0
40
0
40
0
40
0.0277499781510944
40
0.0277499781510944
40
0.667808133384293
40
0.667808133384293
40
1
40
1
40
1
40
1
41
1
10
39.263911568057
20
-8.3660827624864
30
0
41
1
10
39.2629034320477
20
-8.36616117993015
30
0
41
1
10
39.2618982158727
20
-8.36623959514088
30
0
41
1
10
39.2380665525594
20
-8.36810436775176
30
0
41
1
10
39.21651808857
20
-8.36991934865964
30
0
41
1
10
39.1888224267558
20
-8.37245915286996
30
0
41
1
10
39.180073554872
20
-8.37330487126769
30
0
41
1
10
39.1723583203581
20
-8.37409777686841
30
0
0
SPLINE
5
20E
100
AcDbEntity
8
1
62
256
6
ByLayer
370
13
48
1
60
0
100
AcDbSpline
70
4
71
3
72
12
73
8
40
0
40
0
40
0
40
0
40
0.0278272716373759
40
0.0278272716373759
40
0.611453167879501
40
0.611453167879501
40
1
40
1
40
1
40
1
41
1
10
39.2639115680571
20
-10.6339172375139
30
0
41
1
10
39.2629034319402
20
-10.6338388216495
30
0
41
1
10
39.2618982154425
20
-10.6337604111764
30
0
41
1
10
39.2400426145075
20
-10.6320502262534
30
0
41
1
10
39.2202762805606
20
-10.6303966595155
30
0
41
1
10
39.1917749645617
20
-10.6278247831713
30
0
41
1
10
39.1813573467758
20
-10.6268270658485
30
0
41
1
10
39.1723583203581
20
-10.6259022231319
30
0
0
SPLINE
5
20F
100
AcDbEntity
8
1
62
256
6
ByLayer
370
13
48
1
60
0
100
AcDbSpline
70
4
71
3
72
26
73
22
40
0
40
0
40
0
40
0
40
0.102035501666901
40
0.102035501666901
40
0.129284389714829
40
0.129284389714829
40
0.254161410871578
40
0.254161410871578
40
0.386333886983898
40
0.386333886983898
40
0.523125606178389
40
0.523125606178389
40
0.658908540792033
40
0.658908540792033
40
0.795133361230144
40
0.795133361230144
40
0.895568684120736
40
0.895568684120736
40
0.931575554525879
40
0.931575554525879
40
1
40
1
40
1
40
1
41
1
10
39.5964890019635
20
-9.30266454963513
30
0
41
1
10
39.6131393767335
20
-9.30798412346974
30
0
41
1
10
39.6291034127914
20
-9.31565509327106
30
0
41
1
10
39.6463800184522
20
-9.32787203732417
30
0
41
1
10
39.64992822141
20
-9.33063104782556
30
0
41
1
10
39.6686371526017
20
-9.34657003765861
30
0
41
1
10
39.6810099307051
20
-9.36259829058727
30
0
41
1
10
39.7005417637305
20
-9.39887392098419
30
0
41
1
10
39.7077186636934
20
-9.41988611040858
30
0
41
1
10
39.716817379671
20
-9.46426495271982
30
0
41
1
10
39.7186673668159
20
-9.48832553433775
30
0
41
1
10
39.7168386014334
20
-9.5351292011228
30
0
41
1
10
39.7131780830523
20
-9.55852186077465
30
0
41
1
10
39.7002714091329
20
-9.60165924458994
30
0
41
1
10
39.6908281262292
20
-9.62202849752089
30
0
41
1
10
39.668731185536
20
-9.65250329662527
30
0
41
1
10
39.6572851116735
20
-9.66419679656678
30
0
41
1
10
39.6391386222023
20
-9.67731463733671
30
0
41
1
10
39.6340445533438
20
-9.68055662781106
30
0
41
1
10
39.6187059419968
20
-9.68910560254258
30
0
41
1
10
39.6077600338148
20
-9.69373450522411
30
0
41
1
10
39.5964890019635
20
-9.69733545036519
30
0
0
SPLINE
5
210
100
AcDbEntity
8
1
62
256
6
ByLayer
370
13
48
1
60
0
100
AcDbSpline
70
4
71
3
72
14
73
10
40
0
40
0
40
0
40
0
40
0.27475847941734
40
0.27475847941734
40
0.512436463803127
40
0.512436463803127
40
0.749993769781322
40
0.749993769781322
40
1
40
1
40
1
40
1
41
1
10
40.7896201413547
20
-9.78857222631171
30
0
41
1
10
40.8118015893238
20
-9.74043514272375
30
0
41
1
10
40.8306589366166
20
-9.68891044535948
30
0
41
1
10
40.853462576975
20
-9.5891040181784
30
0
41
1
10
40.8590594822313
20
-9.54055509005721
30
0
41
1
10
40.8578279543455
20
-9.44452522595435
30
0
41
1
10
40.8510126304754
20
-9.39624743598483
30
0
41
1
10
40.8272786525577
20
-9.30192459596202
30
0
41
1
10
40.8098376614737
20
-9.25530283798733
30
0
41
1
10
40.7896201413508
20
-9.21142777368013
30
0
0
SPLINE
5
211
100
AcDbEntity
8
1
62
256
6
ByLayer
370
13
48
1
60
0
100
AcDbSpline
70
4
71
3
72
8
73
4
40
0
40
0
40
0
40
0
40
1
40
1
40
1
40
1
41
1
10
39.1705951003268
20
-10.6254379281355
30
0
41
1
10
39.1711929686634
20
-10.6254379281355
30
0
41
1
10
39.1717967952489
20
-10.6255881269815
30
0
41
1
10
39.1723583203562
20
-10.6259022231173
30
0
0
SPLINE
5
212
100
AcDbEntity
8
1
62
256
6
ByLayer
370
13
48
1
60
0
100
AcDbSpline
70
4
71
3
72
8
73
4
40
0
40
0
40
0
40
0
40
1
40
1
40
1
40
1
41
1
10
39.1723583203562
20
-8.37409777686969
30
0
41
1
10
39.1717967952486
20
-8.37441187300612
30
0
41
1
10
39.1711929686638
20
-8.37456207186483
30
0
41
1
10
39.1705951003268
20
-8.37456207186483
30
0
0
SPLINE
5
213
100
AcDbEntity
8
1
62
256
6
ByLayer
370
13
48
1
60
0
100
AcDbSpline
70
4
71
3
72
10
73
6
40
0
40
0
40
0
40
0
40
0.84896187346875
40
0.84896187346875
40
1
40
1
40
1
40
1
41
1
10
43.5256851850747
20
-8.73523425288977
30
0
41
1
10
43.4912977154034
20
-8.68339144974649
30
0
41
1
10
43.443874742716
20
-8.63993580198138
30
0
41
1
10
43.3838155264512
20
-8.59793022786187
30
0
41
1
10
43.3744787017949
20
-8.59173629222235
30
0
41
1
10
43.3650107000385
20
-8.58575668076045
30
0
0
SPLINE
5
214
100
AcDbEntity
8
1
62
256
6
ByLayer
370
13
48
1
60
0
100
AcDbSpline
70
4
71
3
72
8
73
4
40
0
40
0
40
0
40
0
40
1
40
1
40
1
40
1
41
1
10
43.3650107000385
20
-8.58575668076045
30
0
41
1
10
43.3210937227593
20
-8.55802047332534
30
0
41
1
10
43.2769798114244
20
-8.53059082536652
30
0
41
1
10
43.2325607479569
20
-8.50366733691774
30
0
0
SPLINE
5
215
100
AcDbEntity
8
1
62
256
6
ByLayer
370
13
48
1
60
0
100
AcDbSpline
70
4
71
3
72
10
73
6
40
0
40
0
40
0
40
0
40
0.657586553479613
40
0.657586553479613
40
1
40
1
40
1
40
1
41
1
10
43.2325607479569
20
-8.50366733691774
30
0
41
1
10
43.2092305437702
20
-8.48952632551649
30
0
41
1
10
43.1864384919003
20
-8.47420290595676
30
0
41
1
10
43.1548281900598
20
-8.44729410541098
30
0
41
1
10
43.1444660370968
20
-8.43736466588948
30
0
41
1
10
43.135515563742
20
-8.42629438911948
30
0
0
SPLINE
5
216
100
AcDbEntity
8
1
62
256
6
ByLayer
370
13
48
1
60
0
100
AcDbSpline
70
4
71
3
72
10
73
6
40
0
40
0
40
0
40
0
40
0.657586553479614
40
0.657586553479614
40
1
40
1
40
1
40
1
41
1
10
43.2325607479569
20
-10.4963326630826
30
0
41
1
10
43.2092305437702
20
-10.5104736744838
30
0
41
1
10
43.1864384919003
20
-10.5257970940436
30
0
41
1
10
43.1548281900598
20
-10.5527058945893
30
0
41
1
10
43.1444660370968
20
-10.5626353341108
30
0
41
1
10
43.135515563742
20
-10.5737056108808
30
0
0
SPLINE
5
217
100
AcDbEntity
8
1
62
256
6
ByLayer
370
13
48
1
60
0
100
AcDbSpline
70
4
71
3
72
8
73
4
40
0
40
0
40
0
40
0
40
1
40
1
40
1
40
1
41
1
10
43.3650107000385
20
-10.4142433192399
30
0
41
1
10
43.3210937227593
20
-10.441979526675
30
0
41
1
10
43.2769798114244
20
-10.4694091746338
30
0
41
1
10
43.2325607479569
20
-10.4963326630826
30
0
0
SPLINE
5
218
100
AcDbEntity
8
1
62
256
6
ByLayer
370
13
48
1
60
0
100
AcDbSpline
70
4
71
3
72
10
73
6
40
0
40
0
40
0
40
0
40
0.84896187346875
40
0.84896187346875
40
1
40
1
40
1
40
1
41
1
10
43.5256851850747
20
-10.2647657471105
30
0
41
1
10
43.4912977154034
20
-10.3166085502538
30
0
41
1
10
43.443874742716
20
-10.3600641980189
30
0
41
1
10
43.3838155264512
20
-10.4020697721385
30
0
41
1
10
43.3744787017949
20
-10.408263707778
30
0
41
1
10
43.3650107000385
20
-10.4142433192399
30
0
0
SPLINE
5
219
100
AcDbEntity
8
1
62
256
6
ByLayer
370
13
48
1
60
0
100
AcDbSpline
70
4
71
3
72
14
73
10
40
0
40
0
40
0
40
0
40
0.0140322366304758
40
0.0140322366304758
40
0.158091565624719
40
0.158091565624719
40
0.557043656612004
40
0.557043656612004
40
1
40
1
40
1
40
1
41
1
10
39.6387159228241
20
-9.16096703674884
30
0
41
1
10
39.6379360645915
20
-9.16172776964115
30
0
41
1
10
39.6371559091054
20
-9.16248505377101
30
0
41
1
10
39.628231668599
20
-9.17108356511363
30
0
41
1
10
39.6199670064645
20
-9.17850384598805
30
0
41
1
10
39.5889415558847
20
-9.20436739796122
30
0
41
1
10
39.565536858211
20
-9.21980530701981
30
0
41
1
10
39.5187541033904
20
-9.24248914468211
30
0
41
1
10
39.4949133424734
20
-9.24900990703401
30
0
41
1
10
39.4743263124385
20
-9.24951413545259
30
0
0
SPLINE
5
21A
100
AcDbEntity
8
1
62
256
6
ByLayer
370
13
48
1
60
0
100
AcDbSpline
70
4
71
3
72
14
73
10
40
0
40
0
40
0
40
0
40
0.362636115875106
40
0.362636115875106
40
0.759502173372961
40
0.759502173372961
40
0.986017775516147
40
0.986017775516147
40
1
40
1
40
1
40
1
41
1
10
39.4743263124385
20
-9.75048586454773
30
0
41
1
10
39.4912406290798
20
-9.75090013892915
30
0
41
1
10
39.5102969105352
20
-9.75533332875887
30
0
41
1
10
39.5517568775429
20
-9.77241211056997
30
0
41
1
10
39.5748386743135
20
-9.78601259474502
30
0
41
1
10
39.6105592323138
20
-9.81322635850609
30
0
41
1
10
39.623626747303
20
-9.82447959032027
30
0
41
1
10
39.6371559091053
20
-9.83751494622933
30
0
41
1
10
39.6379360645914
20
-9.83827223035922
30
0
41
1
10
39.6387159228241
20
-9.83903296325147
30
0
0
SPLINE
5
21B
100
AcDbEntity
8
1
62
256
6
ByLayer
370
13
48
1
60
0
100
AcDbSpline
70
4
71
3
72
8
73
4
40
0
40
0
40
0
40
0
40
1
40
1
40
1
40
1
41
1
10
39.4743263124397
20
-9.24951413545503
30
0
41
1
10
39.5107270135584
20
-9.26752867936705
30
0
41
1
10
39.5486103280917
20
-9.28411988411131
30
0
41
1
10
39.5875073723822
20
-9.29924434820185
30
0
0
SPLINE
5
21C
100
AcDbEntity
8
1
62
256
6
ByLayer
370
13
48
1
60
0
100
AcDbSpline
70
4
71
3
72
8
73
4
40
0
40
0
40
0
40
0
40
1
40
1
40
1
40
1
41
1
10
39.5875073723822
20
-9.70075565179846
30
0
41
1
10
39.5486103280917
20
-9.71588011588901
30
0
41
1
10
39.5107270135584
20
-9.73247132063324
30
0
41
1
10
39.4743263124397
20
-9.75048586454528
30
0
0
SPLINE
5
21D
100
AcDbEntity
8
1
62
256
6
ByLayer
370
13
48
1
60
0
100
AcDbSpline
70
4
71
3
72
16
73
12
40
0
40
0
40
0
40
0
40
0.0355702320992689
40
0.0355702320992689
40
0.09050817101665
40
0.09050817101665
40
0.198049233530909
40
0.198049233530909
40
0.436780146594192
40
0.436780146594192
40
1
40
1
40
1
40
1
41
1
10
43.0647600217562
20
-8.37367796441364
30
0
41
1
10
43.0651586810188
20
-8.37464474037628
30
0
41
1
10
43.0655584542085
20
-8.3756110788681
30
0
41
1
10
43.0665771815565
20
-8.37807314504585
30
0
41
1
10
43.0671970808021
20
-8.37956849105962
30
0
41
1
10
43.0690334070427
20
-8.38398879904565
30
0
41
1
10
43.0702528942053
20
-8.38691220374514
30
0
41
1
10
43.0741930527674
20
-8.39631016140726
30
0
41
1
10
43.0769343827304
20
-8.40277194026578
30
0
41
1
10
43.0861946238307
20
-8.4243405639443
30
0
41
1
10
43.0928248586495
20
-8.43934761854922
30
0
41
1
10
43.0995116901682
20
-8.4540020401827
30
0
0
SPLINE
5
21E
100
AcDbEntity
8
1
62
256
6
ByLayer
370
13
48
1
60
0
100
AcDbSpline
70
4
71
3
72
10
73
6
40
0
40
0
40
0
40
0
40
0.638823417468865
40
0.638823417468865
40
1
40
1
40
1
40
1
41
1
10
43.1900286630425
20
-8.56497603366452
30
0
41
1
10
43.166841990865
20
-8.54528934207454
30
0
41
1
10
43.1449724664755
20
-8.52349771230141
30
0
41
1
10
43.1161775948407
20
-8.48498012701049
30
0
41
1
10
43.1068123576004
20
-8.47000170436519
30
0
41
1
10
43.0995116901682
20
-8.45400204018273
30
0
0
SPLINE
5
21F
100
AcDbEntity
8
1
62
256
6
ByLayer
370
13
48
1
60
0
100
AcDbSpline
70
4
71
3
72
8
73
4
40
0
40
0
40
0
40
0
40
1
40
1
40
1
40
1
41
1
10
43.0647600217522
20
-8.37367796441174
30
0
41
1
10
42.9478492133727
20
-8.34292640912412
30
0
41
1
10
42.8265101800571
20
-8.32794271319736
30
0
41
1
10
42.7060768987951
20
-8.32513120186775
30
0
0
SPLINE
5
220
100
AcDbEntity
8
1
62
256
6
ByLayer
370
13
48
1
60
0
100
AcDbSpline
70
4
71
3
72
10
73
6
40
0
40
0
40
0
40
0
40
0.638823417468865
40
0.638823417468865
40
1
40
1
40
1
40
1
41
1
10
43.1900286630425
20
-10.4350239663358
30
0
41
1
10
43.166841990865
20
-10.4547106579257
30
0
41
1
10
43.1449724664755
20
-10.4765022876989
30
0
41
1
10
43.1161775948407
20
-10.5150198729898
30
0
41
1
10
43.1068123576004
20
-10.5299982956351
30
0
41
1
10
43.0995116901682
20
-10.5459979598176
30
0
0
SPLINE
5
221
100
AcDbEntity
8
1
62
256
6
ByLayer
370
13
48
1
60
0
100
AcDbSpline
70
4
71
3
72
16
73
12
40
0
40
0
40
0
40
0
40
0.0355702320992689
40
0.0355702320992689
40
0.09050817101665
40
0.09050817101665
40
0.198049233530909
40
0.198049233530909
40
0.436780146594192
40
0.436780146594192
40
1
40
1
40
1
40
1
41
1
10
43.0647600217562
20
-10.6263220355867
30
0
41
1
10
43.0651586810188
20
-10.625355259624
30
0
41
1
10
43.0655584542085
20
-10.6243889211322
30
0
41
1
10
43.0665771815565
20
-10.6219268549545
30
0
41
1
10
43.0671970808021
20
-10.6204315089407
30
0
41
1
10
43.0690334070427
20
-10.6160112009547
30
0
41
1
10
43.0702528942053
20
-10.6130877962552
30
0
41
1
10
43.0741930527674
20
-10.6036898385931
30
0
41
1
10
43.0769343827304
20
-10.5972280597345
30
0
41
1
10
43.0861946238307
20
-10.575659436056
30
0
41
1
10
43.0928248586495
20
-10.5606523814511
30
0
41
1
10
43.0995116901682
20
-10.5459979598176
30
0
0
SPLINE
5
222
100
AcDbEntity
8
1
62
256
6
ByLayer
370
13
48
1
60
0
100
AcDbSpline
70
4
71
3
72
8
73
4
40
0
40
0
40
0
40
0
40
1
40
1
40
1
40
1
41
1
10
43.0647600217522
20
-10.6263220355886
30
0
41
1
10
42.9478492133727
20
-10.6570735908762
30
0
41
1
10
42.8265101800571
20
-10.672057286803
30
0
41
1
10
42.7060768987951
20
-10.6748687981326
30
0
0
SPLINE
5
223
100
AcDbEntity
8
1
62
256
6
ByLayer
370
13
48
1
60
0
100
AcDbSpline
70
4
71
3
72
8
73
4
40
0
40
0
40
0
40
0
40
1
40
1
40
1
40
1
41
1
10
39.5875073723822
20
-9.29924434820185
30
0
41
1
10
39.590499776207
20
-9.30038443203574
30
0
41
1
10
39.5934936621595
20
-9.30152449963114
30
0
41
1
10
39.5964890019635
20
-9.30266454963513
30
0
0
SPLINE
5
224
100
AcDbEntity
8
1
62
256
6
ByLayer
370
13
48
1
60
0
100
AcDbSpline
70
4
71
3
72
8
73
4
40
0
40
0
40
0
40
0
40
1
40
1
40
1
40
1
41
1
10
39.5964890019635
20
-9.69733545036519
30
0
41
1
10
39.5934936621595
20
-9.69847550036917
30
0
41
1
10
39.590499776207
20
-9.69961556796457
30
0
41
1
10
39.5875073723822
20
-9.70075565179846
30
0
0
SPLINE
5
225
100
AcDbEntity
8
1
62
256
6
ByLayer
370
13
48
1
60
0
100
AcDbSpline
70
4
71
3
72
8
73
4
40
0
40
0
40
0
40
0
40
1
40
1
40
1
40
1
41
1
10
39.4661840397672
20
-9.24897564444737
30
0
41
1
10
39.4686096513477
20
-9.24897564444737
30
0
41
1
10
39.4713428169146
20
-9.24915164009826
30
0
41
1
10
39.4743263124381
20
-9.24951413545264
30
0
0
SPLINE
5
226
100
AcDbEntity
8
1
62
256
6
ByLayer
370
13
48
1
60
0
100
AcDbSpline
70
4
71
3
72
8
73
4
40
0
40
0
40
0
40
0
40
1
40
1
40
1
40
1
41
1
10
39.4743263124385
20
-9.75048586454773
30
0
41
1
10
39.471342816915
20
-9.75084835990211
30
0
41
1
10
39.4686096513474
20
-9.75102435555306
30
0
41
1
10
39.4661840397669
20
-9.75102435555306
30
0
0
SPLINE
5
227
100
AcDbEntity
8
1
62
256
6
ByLayer
370
13
48
1
60
0
100
AcDbSpline
70
4
71
3
72
16
73
12
40
0
40
0
40
0
40
0
40
0.0355303527441481
40
0.0355303527441481
40
0.0917680599187357
40
0.0917680599187357
40
0.200182520092063
40
0.200182520092063
40
0.439533504711995
40
0.439533504711995
40
1
40
1
40
1
40
1
41
1
10
43.0647600217523
20
-10.6263220355886
30
0
41
1
10
43.0655855998636
20
-10.6256883080066
30
0
41
1
10
43.0664120929671
20
-10.6250550739896
30
0
41
1
10
43.0685507889317
20
-10.6234171544561
30
0
41
1
10
43.0698640688781
20
-10.622412840686
30
0
41
1
10
43.0737129338245
20
-10.6194739771005
30
0
41
1
10
43.0762525536656
20
-10.6175405184083
30
0
41
1
10
43.0844114693382
20
-10.6113492612906
30
0
41
1
10
43.0900517136001
20
-10.607100940514
30
0
41
1
10
43.1089188273347
20
-10.5930044717441
30
0
41
1
10
43.1222466489562
20
-10.5832317389367
30
0
41
1
10
43.135515563742
20
-10.5737056108808
30
0
0
SPLINE
5
228
100
AcDbEntity
8
1
62
256
6
ByLayer
370
13
48
1
60
0
100
AcDbSpline
70
4
71
3
72
16
73
12
40
0
40
0
40
0
40
0
40
0.0355303527441481
40
0.0355303527441481
40
0.0917680599187357
40
0.0917680599187357
40
0.200182520092063
40
0.200182520092063
40
0.439533504711995
40
0.439533504711995
40
1
40
1
40
1
40
1
41
1
10
43.0647600217523
20
-8.37367796441174
30
0
41
1
10
43.0655855998636
20
-8.37431169199368
30
0
41
1
10
43.0664120929671
20
-8.3749449260107
30
0
41
1
10
43.0685507889317
20
-8.37658284554422
30
0
41
1
10
43.0698640688781
20
-8.37758715931426
30
0
41
1
10
43.0737129338245
20
-8.38052602289977
30
0
41
1
10
43.0762525536656
20
-8.38245948159204
30
0
41
1
10
43.0844114693382
20
-8.38865073870969
30
0
41
1
10
43.0900517136001
20
-8.3928990594863
30
0
41
1
10
43.1089188273347
20
-8.4069955282562
30
0
41
1
10
43.1222466489562
20
-8.41676826106362
30
0
41
1
10
43.135515563742
20
-8.42629438911948
30
0
0
SPLINE
5
229
100
AcDbEntity
8
1
62
256
6
ByLayer
370
13
48
1
60
0
100
AcDbSpline
70
4
71
3
72
8
73
4
40
0
40
0
40
0
40
0
40
1
40
1
40
1
40
1
41
1
10
42.7060768987951
20
-10.6748687981326
30
0
41
1
10
42.5916360304014
20
-10.6776921713634
30
0
41
1
10
42.4749005955276
20
-10.6739389632709
30
0
41
1
10
42.3587805434612
20
-10.6784092273825
30
0
0
SPLINE
5
22A
100
AcDbEntity
8
1
62
256
6
ByLayer
370
13
48
1
60
0
100
AcDbSpline
70
4
71
3
72
8
73
4
40
0
40
0
40
0
40
0
40
1
40
1
40
1
40
1
41
1
10
42.7060768987951
20
-8.32513120186775
30
0
41
1
10
42.5916360304014
20
-8.32230782863689
30
0
41
1
10
42.4749005955276
20
-8.32606103672939
30
0
41
1
10
42.3587805434612
20
-8.32159077261781
30
0
0
SPLINE
5
22B
100
AcDbEntity
8
1
62
256
6
ByLayer
370
13
48
1
60
0
100
AcDbSpline
70
4
71
3
72
10
73
6
40
0
40
0
40
0
40
0
40
0.155061591761428
40
0.155061591761428
40
1
40
1
40
1
40
1
41
1
10
43.3213895076228
20
-8.64630122296242
30
0
41
1
10
43.3304066184318
20
-8.65110706801812
30
0
41
1
10
43.3393274149502
20
-8.65609803032996
30
0
41
1
10
43.3954797246052
20
-8.68921922372755
30
0
41
1
10
43.4409287471059
20
-8.72348206069955
30
0
41
1
10
43.4749811562301
20
-8.76658708906061
30
0
0
SPLINE
5
22C
100
AcDbEntity
8
1
62
256
6
ByLayer
370
13
48
1
60
0
100
AcDbSpline
70
4
71
3
72
10
73
6
40
0
40
0
40
0
40
0
40
0.155061591761428
40
0.155061591761428
40
1
40
1
40
1
40
1
41
1
10
43.3213895076228
20
-10.3536987770379
30
0
41
1
10
43.3304066184318
20
-10.3488929319822
30
0
41
1
10
43.3393274149502
20
-10.3439019696704
30
0
41
1
10
43.3954797246052
20
-10.3107807762728
30
0
41
1
10
43.4409287471059
20
-10.2765179393008
30
0
41
1
10
43.4749811562301
20
-10.2334129109397
30
0
0
SPLINE
5
22D
100
AcDbEntity
8
1
62
256
6
ByLayer
370
13
48
1
60
0
100
AcDbSpline
70
4
71
3
72
8
73
4
40
0
40
0
40
0
40
0
40
1
40
1
40
1
40
1
41
1
10
43.4749811562301
20
-8.76658708906061
30
0
41
1
10
43.4822263780104
20
-8.77575840757686
30
0
41
1
10
43.4893737130963
20
-8.78504466676222
30
0
41
1
10
43.4964383490931
20
-8.79439320953836
30
0
0
SPLINE
5
22E
100
AcDbEntity
8
1
62
256
6
ByLayer
370
13
48
1
60
0
100
AcDbSpline
70
4
71
3
72
10
73
6
40
0
40
0
40
0
40
0
40
0.596085739020476
40
0.596085739020476
40
1
40
1
40
1
40
1
41
1
10
43.4964383490931
20
-8.79439320953836
30
0
41
1
10
43.5128939358856
20
-8.81616867781543
30
0
41
1
10
43.5267245821227
20
-8.84059709940934
30
0
41
1
10
43.54081187438
20
-8.88426948004422
30
0
41
1
10
43.544038381206
20
-8.90301901474089
30
0
41
1
10
43.5441651422481
20
-8.92161038133983
30
0
0
SPLINE
5
22F
100
AcDbEntity
8
1
62
256
6
ByLayer
370
13
48
1
60
0
100
AcDbSpline
70
4
71
3
72
12
73
8
40
0
40
0
40
0
40
0
40
0.0075770979405842
40
0.0075770979405842
40
0.524912447401083
40
0.524912447401083
40
1
40
1
40
1
40
1
41
1
10
43.0213727254144
20
-8.91092437757715
30
0
41
1
10
43.022693884863
20
-8.91087536409717
30
0
41
1
10
43.0240151186687
20
-8.91082869522634
30
0
41
1
10
43.1154638182289
20
-8.90776220697919
30
0
41
1
10
43.205673527038
20
-8.91252626039292
30
0
41
1
10
43.3786115881781
20
-8.91658258911065
30
0
41
1
10
43.4613940232687
20
-8.91890245012857
30
0
41
1
10
43.5441651422333
20
-8.92161038134455
30
0
0
SPLINE
5
230
100
AcDbEntity
8
1
62
256
6
ByLayer
370
13
48
1
60
0
100
AcDbSpline
70
4
71
3
72
12
73
8
40
0
40
0
40
0
40
0
40
0.0075770979405842
40
0.0075770979405842
40
0.524912447401083
40
0.524912447401083
40
1
40
1
40
1
40
1
41
1
10
43.0213727254144
20
-10.0890756224232
30
0
41
1
10
43.022693884863
20
-10.0891246359032
30
0
41
1
10
43.0240151186687
20
-10.089171304774
30
0
41
1
10
43.1154638182289
20
-10.0922377930211
30
0
41
1
10
43.205673527038
20
-10.0874737396074
30
0
41
1
10
43.3786115881781
20
-10.0834174108897
30
0
41
1
10
43.4613940232687
20
-10.0810975498717
30
0
41
1
10
43.5441651422333
20
-10.0783896186558
30
0
0
SPLINE
5
231
100
AcDbEntity
8
1
62
256
6
ByLayer
370
13
48
1
60
0
100
AcDbSpline
70
4
71
3
72
10
73
6
40
0
40
0
40
0
40
0
40
0.596085739020476
40
0.596085739020476
40
1
40
1
40
1
40
1
41
1
10
43.4964383490931
20
-10.205606790462
30
0
41
1
10
43.5128939358856
20
-10.1838313221849
30
0
41
1
10
43.5267245821227
20
-10.159402900591
30
0
41
1
10
43.54081187438
20
-10.1157305199561
30
0
41
1
10
43.544038381206
20
-10.0969809852594
30
0
41
1
10
43.5441651422481
20
-10.0783896186605
30
0
0
SPLINE
5
232
100
AcDbEntity
8
1
62
256
6
ByLayer
370
13
48
1
60
0
100
AcDbSpline
70
4
71
3
72
8
73
4
40
0
40
0
40
0
40
0
40
1
40
1
40
1
40
1
41
1
10
43.4749811562301
20
-10.2334129109397
30
0
41
1
10
43.4822263780104
20
-10.2242415924235
30
0
41
1
10
43.4893737130963
20
-10.2149553332381
30
0
41
1
10
43.4964383490931
20
-10.205606790462
30
0
0
SPLINE
5
233
100
AcDbEntity
8
1
62
256
6
ByLayer
370
13
48
1
60
0
100
AcDbSpline
70
4
71
3
72
8
73
4
40
0
40
0
40
0
40
0
40
1
40
1
40
1
40
1
41
1
10
42.3587805434612
20
-10.6784092273825
30
0
41
1
10
42.2587308196864
20
-10.681849059091
30
0
41
1
10
42.1579761895169
20
-10.6778843275056
30
0
41
1
10
42.0587805434612
20
-10.6644241853513
30
0
0
SPLINE
5
234
100
AcDbEntity
8
1
62
256
6
ByLayer
370
13
48
1
60
0
100
AcDbSpline
70
4
71
3
72
8
73
4
40
0
40
0
40
0
40
0
40
1
40
1
40
1
40
1
41
1
10
42.3587805434612
20
-8.32159077261781
30
0
41
1
10
42.2587308196864
20
-8.31815094090936
30
0
41
1
10
42.1579761895169
20
-8.32211567249468
30
0
41
1
10
42.0587805434612
20
-8.33557581464902
30
0
0
SPLINE
5
235
100
AcDbEntity
8
1
62
256
6
ByLayer
370
13
48
1
60
0
100
AcDbSpline
70
4
71
3
72
16
73
12
40
0
40
0
40
0
40
0
40
0.113631665737173
40
0.113631665737173
40
0.758132216188134
40
0.758132216188134
40
0.942823120099093
40
0.942823120099093
40
0.947778003019258
40
0.947778003019258
40
1
40
1
40
1
40
1
41
1
10
41.8112677608007
20
-8.9841589254894
30
0
41
1
10
41.8332807942052
20
-8.97715485662846
30
0
41
1
10
41.8554088133188
20
-8.97050220885703
30
0
41
1
10
42.0026697940168
20
-8.92881443072054
30
0
41
1
10
42.1333481685155
20
-8.90607204125109
30
0
41
1
10
42.3009734748332
20
-8.90755657401641
30
0
41
1
10
42.3386296238165
20
-8.90936280945365
30
0
41
1
10
42.3773004835499
20
-8.91074096422108
30
0
41
1
10
42.3783108496887
20
-8.91077698155451
30
0
41
1
10
42.3899699703881
20
-8.91119262476124
30
0
41
1
10
42.40061882194
20
-8.91156953812725
30
0
41
1
10
42.4112677608007
20
-8.91194395852921
30
0
0
SPLINE
5
236
100
AcDbEntity
8
1
62
256
6
ByLayer
370
13
48
1
60
0
100
AcDbSpline
70
4
71
3
72
16
73
12
40
0
40
0
40
0
40
0
40
0.113631665737173
40
0.113631665737173
40
0.758132216188134
40
0.758132216188134
40
0.942823120099093
40
0.942823120099093
40
0.947778003019258
40
0.947778003019258
40
1
40
1
40
1
40
1
41
1
10
41.8112677608007
20
-10.0158410745109
30
0
41
1
10
41.8332807942052
20
-10.0228451433718
30
0
41
1
10
41.8554088133188
20
-10.0294977911433
30
0
41
1
10
42.0026697940168
20
-10.0711855692798
30
0
41
1
10
42.1333481685155
20
-10.0939279587492
30
0
41
1
10
42.3009734748332
20
-10.0924434259839
30
0
41
1
10
42.3386296238165
20
-10.0906371905467
30
0
41
1
10
42.3773004835499
20
-10.0892590357792
30
0
41
1
10
42.3783108496887
20
-10.0892230184458
30
0
41
1
10
42.3899699703881
20
-10.0888073752391
30
0
41
1
10
42.40061882194
20
-10.0884304618731
30
0
41
1
10
42.4112677608007
20
-10.0880560414711
30
0
0
SPLINE
5
237
100
AcDbEntity
8
1
62
256
6
ByLayer
370
13
48
1
60
0
100
AcDbSpline
70
4
71
3
72
10
73
6
40
0
40
0
40
0
40
0
40
0.411878619131049
40
0.411878619131049
40
1
40
1
40
1
40
1
41
1
10
43.5970257408783
20
-10.0783896186559
30
0
41
1
10
43.5970257408783
20
-10.1014981245598
30
0
41
1
10
43.5938567437524
20
-10.1247801424889
30
0
41
1
10
43.5795589487909
20
-10.1788475536445
30
0
41
1
10
43.5654981180153
20
-10.2093262690559
30
0
41
1
10
43.5480487400853
20
-10.2370701384852
30
0
0
SPLINE
5
238
100
AcDbEntity
8
1
62
256
6
ByLayer
370
13
48
1
60
0
100
AcDbSpline
70
4
71
3
72
10
73
6
40
0
40
0
40
0
40
0
40
0.411878619131049
40
0.411878619131049
40
1
40
1
40
1
40
1
41
1
10
43.5970257408783
20
-8.92161038134441
30
0
41
1
10
43.5970257408783
20
-8.89850187544053
30
0
41
1
10
43.5938567437524
20
-8.87521985751144
30
0
41
1
10
43.5795589487909
20
-8.82115244635582
30
0
41
1
10
43.5654981180153
20
-8.79067373094438
30
0
41
1
10
43.5480487400853
20
-8.76292986151515
30
0
0
SPLINE
5
239
100
AcDbEntity
8
1
62
256
6
ByLayer
370
13
48
1
60
0
100
AcDbSpline
70
4
71
3
72
8
73
4
40
0
40
0
40
0
40
0
40
1
40
1
40
1
40
1
41
1
10
43.5480487400851
20
-10.2370701384851
30
0
41
1
10
43.5406964490064
20
-10.2464220365073
30
0
41
1
10
43.5332455329699
20
-10.25567051449
30
0
41
1
10
43.5256851850747
20
-10.2647657471106
30
0
0
SPLINE
5
23A
100
AcDbEntity
8
1
62
256
6
ByLayer
370
13
48
1
60
0
100
AcDbSpline
70
4
71
3
72
8
73
4
40
0
40
0
40
0
40
0
40
1
40
1
40
1
40
1
41
1
10
43.5480487400851
20
-8.7629298615152
30
0
41
1
10
43.5406964490064
20
-8.75357796349303
30
0
41
1
10
43.5332455329699
20
-8.74432948551035
30
0
41
1
10
43.5256851850747
20
-8.73523425288974
30
0
0
SPLINE
5
23B
100
AcDbEntity
8
1
62
256
6
ByLayer
370
13
48
1
60
0
100
AcDbSpline
70
4
71
3
72
12
73
8
40
0
40
0
40
0
40
0
40
0.390105015408732
40
0.390105015408732
40
0.395238792462735
40
0.395238792462735
40
1
40
1
40
1
40
1
41
1
10
42.4112677608007
20
-10.0880560414711
30
0
41
1
10
42.4930131894969
20
-10.0859482964437
30
0
41
1
10
42.575069491157
20
-10.0855375442185
30
0
41
1
10
42.6568134956408
20
-10.0852520424258
30
0
41
1
10
42.6578786372164
20
-10.0852484357167
30
0
41
1
10
42.7833815366521
20
-10.0848368638385
30
0
41
1
10
42.906145891386
20
-10.0859407825705
30
0
41
1
10
43.0213727254144
20
-10.0890756224232
30
0
0
SPLINE
5
23C
100
AcDbEntity
8
1
62
256
6
ByLayer
370
13
48
1
60
0
100
AcDbSpline
70
4
71
3
72
12
73
8
40
0
40
0
40
0
40
0
40
0.390105015408732
40
0.390105015408732
40
0.395238792462735
40
0.395238792462735
40
1
40
1
40
1
40
1
41
1
10
42.4112677608007
20
-8.91194395852921
30
0
41
1
10
42.4930131894969
20
-8.91405170355665
30
0
41
1
10
42.575069491157
20
-8.91446245578186
30
0
41
1
10
42.6568134956408
20
-8.91474795757452
30
0
41
1
10
42.6578786372164
20
-8.91475156428362
30
0
41
1
10
42.7833815366521
20
-8.91516313616179
30
0
41
1
10
42.906145891386
20
-8.91405921742984
30
0
41
1
10
43.0213727254144
20
-8.91092437757715
30
0
0
SPLINE
5
23D
100
AcDbEntity
8
1
62
256
6
ByLayer
370
18
48
1
60
0
100
AcDbSpline
70
4
71
3
72
22
73
18
40
0
40
0
40
0
40
0
40
0.0651068082730235
40
0.0651068082730235
40
0.142111387455033
40
0.142111387455033
40
0.219953719948773
40
0.219953719948773
40
0.286554263579542
40
0.286554263579542
40
0.381930833608191
40
0.381930833608191
40
0.532754095409999
40
0.532754095409999
40
0.796290651784006
40
0.796290651784006
40
1
40
1
40
1
40
1
41
1
10
12.4454802424856
20
-0.394519052838319
30
0
41
1
10
12.45155133317
20
-0.401944606749794
30
0
41
1
10
12.4570998251587
20
-0.409441253119041
30
0
41
1
10
12.4672330005863
20
-0.425379017628217
30
0
41
1
10
12.4715407272944
20
-0.433923530893225
30
0
41
1
10
12.4763100262172
20
-0.449297392431163
30
0
41
1
10
12.476746651074
20
-0.456306221234314
30
0
41
1
10
12.4737008162747
20
-0.466542519561074
30
0
41
1
10
12.4707668614746
20
-0.47030786321443
30
0
41
1
10
12.4610342485579
20
-0.476928873798158
30
0
41
1
10
12.4530209408447
20
-0.478862268755023
30
0
41
1
10
12.4297231341027
20
-0.480180743540217
30
0
41
1
10
12.4125498532825
20
-0.477607479963041
30
0
41
1
10
12.3634348863377
20
-0.465628815629856
30
0
41
1
10
12.3288981465176
20
-0.452420123097454
30
0
41
1
10
12.2673515372039
20
-0.42424215112618
30
0
41
1
10
12.2399150401122
20
-0.410068070088357
30
0
41
1
10
12.2126258453701
20
-0.394519052838319
30
0
0
SPLINE
5
23E
100
AcDbEntity
8
1
62
256
6
ByLayer
370
18
48
1
60
0
100
AcDbSpline
70
4
71
3
72
22
73
18
40
0
40
0
40
0
40
0
40
0.0485408047848865
40
0.0485408047848865
40
0.121700065890986
40
0.121700065890986
40
0.186464246858659
40
0.186464246858659
40
0.240721676158208
40
0.240721676158208
40
0.32674147872999
40
0.32674147872999
40
0.473947643156137
40
0.473947643156137
40
0.758629254012546
40
0.758629254012546
40
1
40
1
40
1
40
1
41
1
10
11.1279670839752
20
-0.394519052838263
30
0
41
1
10
11.1330069698958
20
-0.400543513623347
30
0
41
1
10
11.137633253428
20
-0.406663360636173
30
0
41
1
10
11.1474740757499
20
-0.421795498974518
30
0
41
1
10
11.1519335224167
20
-0.430989429741317
30
0
41
1
10
11.1555727644029
20
-0.44647397511531
30
0
41
1
10
11.1552967579191
20
-0.453169127790034
30
0
41
1
10
11.1512440923678
20
-0.463079795593814
30
0
41
1
10
11.1480317861239
20
-0.466820525886504
30
0
41
1
10
11.1374474597103
20
-0.474313217668282
30
0
41
1
10
11.1286375214951
20
-0.476995995770295
30
0
41
1
10
11.1023055403978
20
-0.480671824366738
30
0
41
1
10
11.0825854198276
20
-0.479371647615864
30
0
41
1
10
11.0230067149692
20
-0.470306194524142
30
0
41
1
10
10.9799571914669
20
-0.457583466177311
30
0
41
1
10
10.9003829542895
20
-0.428421026205484
30
0
41
1
10
10.863143535361
20
-0.412455730233916
30
0
41
1
10
10.8261977204867
20
-0.394519052838319
30
0
0
SPLINE
5
23F
100
AcDbEntity
8
1
62
256
6
ByLayer
370
18
48
1
60
0
100
AcDbSpline
70
4
71
3
72
20
73
16
40
0
40
0
40
0
40
0
40
0.351004631278601
40
0.351004631278601
40
0.599784582614478
40
0.599784582614478
40
0.680874013660081
40
0.680874013660081
40
0.763419678392846
40
0.763419678392846
40
0.834177460377112
40
0.834177460377112
40
0.920890721034217
40
0.920890721034217
40
1
40
1
40
1
40
1
41
1
10
6.32610759209336
20
0.324980947161663
30
0
41
1
10
6.30204634075892
20
0.324980947161691
30
0
41
1
10
6.27822747147852
20
0.323864433309296
30
0
41
1
10
6.24045733959548
20
0.317587819156216
30
0
41
1
10
6.22506440704004
20
0.313720170715669
30
0
41
1
10
6.20980501392336
20
0.304221502610204
30
0
41
1
10
6.20644181990488
20
0.301435726660003
30
0
41
1
10
6.20150231204315
20
0.294882642141346
30
0
41
1
10
6.19993628340313
20
0.290979498000809
30
0
41
1
10
6.19958154652628
20
0.283187307782981
30
0
41
1
10
6.20042822007008
20
0.279284161761126
30
0
41
1
10
6.20410634126972
20
0.270768981436106
30
0
41
1
10
6.20734665431326
20
0.266064039378421
30
0
41
1
10
6.21464483521268
20
0.257592495463314
30
0
41
1
10
6.21865579637998
20
0.253698611878804
30
0
41
1
10
6.22292588124969
20
0.249980947131121
30
0
0
SPLINE
5
240
100
AcDbEntity
8
1
62
256
6
ByLayer
370
18
48
1
60
0
100
AcDbSpline
70
4
71
3
72
14
73
10
40
0
40
0
40
0
40
0
40
0.4681970834711
40
0.4681970834711
40
0.766665401973154
40
0.766665401973154
40
0.995281522766888
40
0.995281522766888
40
1
40
1
40
1
40
1
41
1
10
13.9273497265336
20
0.249980947161703
30
0
41
1
10
13.902940676933
20
0.268450709981721
30
0
41
1
10
13.8784902297836
20
0.285286719688003
30
0
41
1
10
13.8416039408362
20
0.307060048933494
30
0
41
1
10
13.8277268136715
20
0.314247725520317
30
0
41
1
10
13.8064081434458
20
0.322635136974157
30
0
41
1
10
13.7980453969052
20
0.324888267958301
30
0
41
1
10
13.7915526825564
20
0.324980003393932
30
0
41
1
10
13.7914204166523
20
0.324980947161777
30
0
41
1
10
13.7912890092215
20
0.324980947161691
30
0
0
SPLINE
5
241
100
AcDbEntity
8
1
62
256
6
ByLayer
370
18
48
1
60
0
100
AcDbSpline
70
4
71
3
72
8
73
4
40
0
40
0
40
0
40
0
40
1
40
1
40
1
40
1
41
1
10
14.313522568363
20
0.249980947161589
30
0
41
1
10
14.4986631981295
20
0.0352964558153417
30
0
41
1
10
14.6835653387693
20
-0.179542411258922
30
0
41
1
10
14.8682534145172
20
-0.394519052838319
30
0
0
SPLINE
5
242
100
AcDbEntity
8
1
62
256
6
ByLayer
370
18
48
1
60
0
100
AcDbSpline
70
4
71
3
72
14
73
10
40
0
40
0
40
0
40
0
40
0.174167309435967
40
0.174167309435967
40
0.488739615517216
40
0.488739615517216
40
0.951751467282093
40
0.951751467282093
40
1
40
1
40
1
40
1
41
1
10
-13.7912890092361
20
0.324980947163652
30
0
41
1
10
-13.7960627803678
20
0.324980947163368
30
0
41
1
10
-13.802005030081
20
0.323724224414491
30
0
41
1
10
-13.8204745348529
20
0.317651703378203
30
0
41
1
10
-13.8347164587752
20
0.310735758799979
30
0
41
1
10
-13.8715229385192
20
0.289803673462671
30
0
41
1
10
-13.8955993441316
20
0.273600893417125
30
0
41
1
10
-13.9222528409053
20
0.253819346811838
30
0
41
1
10
-13.9247995592002
20
0.251910599752449
30
0
41
1
10
-13.9273497265336
20
0.249980947161703
30
0
0
SPLINE
5
243
100
AcDbEntity
8
1
62
256
6
ByLayer
370
18
48
1
60
0
100
AcDbSpline
70
4
71
3
72
18
73
14
40
0
40
0
40
0
40
0
40
0.210384928257468
40
0.210384928257468
40
0.399953115580457
40
0.399953115580457
40
0.555251499627281
40
0.555251499627281
40
0.711542171406295
40
0.711542171406295
40
0.855218421794831
40
0.855218421794831
40
1
40
1
40
1
40
1
41
1
10
10.612457538214
20
0.324980947169166
30
0
41
1
10
10.6037369377625
20
0.32498094716945
30
0
41
1
10
10.5954708159508
20
0.324226198081362
30
0
41
1
10
10.5817089310945
20
0.320688736227879
30
0
41
1
10
10.5759267131651
20
0.318059091924084
30
0
41
1
10
10.5682733307577
20
0.311074790610604
30
0
41
1
10
10.565846646834
20
0.307024278124999
30
0
41
1
10
10.5639471484762
20
0.297386529274547
30
0
41
1
10
10.56449090744
20
0.291654817212901
30
0
41
1
10
10.5681879286571
20
0.280006233149692
30
0
41
1
10
10.5711402052196
20
0.274020740661939
30
0
41
1
10
10.578590246886
20
0.262042266124638
30
0
41
1
10
10.5831385206061
20
0.255952528977218
30
0
41
1
10
10.588146538497
20
0.249980947159827
30
0
0
SPLINE
5
244
100
AcDbEntity
8
1
62
256
6
ByLayer
370
18
48
1
60
0
100
AcDbSpline
70
4
71
3
72
8
73
4
40
0
40
0
40
0
40
0
40
1
40
1
40
1
40
1
41
1
10
-13.9273497265336
20
0.249980947161674
30
0
41
1
10
-14.0293199572608
20
0.172822433944134
30
0
41
1
10
-14.1309910146151
20
0.0953664616924357
30
0
41
1
10
-14.2323721156023
20
0.0176278843976831
30
0
0
SPLINE
5
245
100
AcDbEntity
8
1
62
256
6
ByLayer
370
18
48
1
60
0
100
AcDbSpline
70
4
71
3
72
8
73
4
40
0
40
0
40
0
40
0
40
1
40
1
40
1
40
1
41
1
10
15.6938926902978
20
-0.394519052838319
30
0
41
1
10
15.4707869492618
20
-0.178882981340649
30
0
41
1
10
15.2466848965984
20
0.0359838082621025
30
0
41
1
10
15.0214849302391
20
0.249980947161674
30
0
0
SPLINE
5
246
100
AcDbEntity
8
1
62
256
6
ByLayer
370
18
48
1
60
0
100
AcDbSpline
70
4
71
3
72
22
73
18
40
0
40
0
40
0
40
0
40
0.147855833497801
40
0.147855833497801
40
0.27375350429197
40
0.27375350429197
40
0.378901041006353
40
0.378901041006353
40
0.484570740775654
40
0.484570740775654
40
0.583013772043353
40
0.583013772043353
40
0.718512921601704
40
0.718512921601704
40
0.907124559332409
40
0.907124559332409
40
1
40
1
40
1
40
1
41
1
10
15.5782416750557
20
-0.394519052838348
30
0
41
1
10
15.5907499794312
20
-0.407952415662805
30
0
41
1
10
15.6026018910695
20
-0.421041509518602
30
0
41
1
10
15.6215091417486
20
-0.442891001983014
30
0
41
1
10
15.6291722802817
20
-0.452198783877009
30
0
41
1
10
15.6394976512271
20
-0.466008096011905
30
0
41
1
10
15.6428520716423
20
-0.471165900848234
30
0
41
1
10
15.645830170837
20
-0.477961163567073
30
0
41
1
10
15.6454558219787
20
-0.479654169493443
30
0
41
1
10
15.6412462615014
20
-0.47937553595915
30
0
41
1
10
15.6376209440599
20
-0.477664437784029
30
0
41
1
10
15.6263626004424
20
-0.470690118381413
30
0
41
1
10
15.6175988000816
20
-0.464270359987978
30
0
41
1
10
15.5941154448622
20
-0.445761180470072
30
0
41
1
10
15.5780254932994
20
-0.432159321973245
30
0
41
1
10
15.5529321411563
20
-0.410095882031868
30
0
41
1
10
15.5443565760116
20
-0.402422403994933
30
0
41
1
10
15.5356555966799
20
-0.394519052838319
30
0
0
SPLINE
5
247
100
AcDbEntity
8
1
62
256
6
ByLayer
370
18
48
1
60
0
100
AcDbSpline
70
4
71
3
72
22
73
18
40
0
40
0
40
0
40
0
40
0.0358744274148881
40
0.0358744274148881
40
0.0600576992991047
40
0.0600576992991047
40
0.0845052422599261
40
0.0845052422599261
40
0.106630112294783
40
0.106630112294783
40
0.141378883581297
40
0.141378883581297
40
0.206648741888598
40
0.206648741888598
40
0.411568015247488
40
0.411568015247488
40
1
40
1
40
1
40
1
41
1
10
6.94370199057266
20
-0.394519052838319
30
0
41
1
10
6.95034734071959
20
-0.400608750585633
30
0
41
1
10
6.95643314520078
20
-0.407116861173847
30
0
41
1
10
6.96417313612531
20
-0.418414923905601
30
0
41
1
10
6.96664824781237
20
-0.423176061550549
30
0
41
1
10
6.96940339887618
20
-0.432469789435942
30
0
41
1
10
6.96965941604773
20
-0.437111999643321
30
0
41
1
10
6.96786621671291
20
-0.445042112141692
30
0
41
1
10
6.96603521944621
20
-0.448510803521913
30
0
41
1
10
6.9596477172565
20
-0.456261904861265
30
0
41
1
10
6.95409394450675
20
-0.460058879451594
30
0
41
1
10
6.9362973885662
20
-0.468830094958776
30
0
41
1
10
6.9221890902711
20
-0.472283896678363
30
0
41
1
10
6.86227539325384
20
-0.482055853493108
30
0
41
1
10
6.81070324518259
20
-0.480255945198564
30
0
41
1
10
6.61374926543505
20
-0.465294190163235
30
0
41
1
10
6.46067485118868
20
-0.433937199925566
30
0
41
1
10
6.31056345909079
20
-0.394519052838518
30
0
0
SPLINE
5
248
100
AcDbEntity
8
1
62
256
6
ByLayer
370
18
48
1
60
0
100
AcDbSpline
70
4
71
3
72
14
73
10
40
0
40
0
40
0
40
0
40
0.142198548223098
40
0.142198548223098
40
0.357601022893213
40
0.357601022893213
40
0.639441913087338
40
0.639441913087338
40
1
40
1
40
1
40
1
41
1
10
14.9996805655565
20
0.324980947161691
30
0
41
1
10
14.9996241451461
20
0.324980947161691
30
0
41
1
10
15.000279546252
20
0.324261501223361
30
0
41
1
10
15.0035892363988
20
0.320779421888062
30
0
41
1
10
15.0071556127463
20
0.317096633241476
30
0
41
1
10
15.0178626394349
20
0.306121962451044
30
0
41
1
10
15.0258984041058
20
0.29793139112067
30
0
41
1
10
15.0462719813886
20
0.277241294196244
30
0
41
1
10
15.0594834062345
20
0.263872756636971
30
0
41
1
10
15.0732541015804
20
0.249980947161674
30
0
0
SPLINE
5
249
100
AcDbEntity
8
1
62
256
6
ByLayer
370
18
48
1
60
0
100
AcDbSpline
70
4
71
3
72
8
73
4
40
0
40
0
40
0
40
0
40
1
40
1
40
1
40
1
41
1
10
-11.036173761814
20
0.249980947161674
30
0
41
1
10
-11.4328923426465
20
0.0415324829398855
30
0
41
1
10
-11.8249775203537
20
-0.173642235123822
30
0
41
1
10
-12.2126258453701
20
-0.394519052838319
30
0
0
SPLINE
5
24A
100
AcDbEntity
8
1
62
256
6
ByLayer
370
18
48
1
60
0
100
AcDbSpline
70
4
71
3
72
8
73
4
40
0
40
0
40
0
40
0
40
1
40
1
40
1
40
1
41
1
10
-11.1279670839746
20
-0.394519052838319
30
0
41
1
10
-10.9481691530415
20
-0.179596413473433
30
0
41
1
10
-10.768236032589
20
0.0352414690105434
30
0
41
1
10
-10.5881465384976
20
0.249980947159912
30
0
0
SPLINE
5
24B
100
AcDbEntity
8
1
62
256
6
ByLayer
370
18
48
1
60
0
100
AcDbSpline
70
4
71
3
72
16
73
12
40
0
40
0
40
0
40
0
40
0.13484533516966
40
0.13484533516966
40
0.359804782480002
40
0.359804782480002
40
0.563972966163084
40
0.563972966163084
40
0.764441046204154
40
0.764441046204154
40
1
40
1
40
1
40
1
41
1
10
13.7033273915928
20
0.324980947161777
30
0
41
1
10
13.7002684501948
20
0.324980947161777
30
0
41
1
10
13.6976241507594
20
0.324503790926286
30
0
41
1
10
13.6920859334474
20
0.321798390197102
30
0
41
1
10
13.6901547625057
20
0.318515148994294
30
0
41
1
10
13.6901404778534
20
0.309484335495625
30
0
41
1
10
13.6917170794749
20
0.303881795093503
30
0
41
1
10
13.6974564672318
20
0.291318771539835
30
0
41
1
10
13.7016123344558
20
0.284258174950224
30
0
41
1
10
13.7124259605319
20
0.268312663326867
30
0
41
1
10
13.7194812869049
20
0.259163949441273
30
0
41
1
10
13.7271595028412
20
0.249980947161532
30
0
0
SPLINE
5
24C
100
AcDbEntity
8
1
62
256
6
ByLayer
370
18
48
1
60
0
100
AcDbSpline
70
4
71
3
72
22
73
18
40
0
40
0
40
0
40
0
40
0.403554417729527
40
0.403554417729527
40
0.609178824389585
40
0.609178824389585
40
0.697673294122035
40
0.697673294122035
40
0.78773193419117
40
0.78773193419117
40
0.843631299333546
40
0.843631299333546
40
0.899688994902856
40
0.899688994902856
40
0.966989308847289
40
0.966989308847289
40
1
40
1
40
1
40
1
41
1
10
-10.8261977204867
20
-0.394519052838319
30
0
41
1
10
-10.88746536971
20
-0.42426364130236
30
0
41
1
10
-10.9501472037041
20
-0.449131011779116
30
0
41
1
10
-11.0390471768234
20
-0.472881386412468
30
0
41
1
10
-11.0688427000681
20
-0.478681435501613
30
0
41
1
10
-11.106469603353
20
-0.479768618414539
30
0
41
1
10
-11.1172821228746
20
-0.479114547017218
30
0
41
1
10
-11.1361165854978
20
-0.474728634959661
30
0
41
1
10
-11.1443303180467
20
-0.470835364283573
30
0
41
1
10
-11.1525576732897
20
-0.46088688295211
30
0
41
1
10
-11.1545221389686
20
-0.456082336030761
30
0
41
1
10
-11.1553161804266
20
-0.445019242695679
30
0
41
1
10
-11.1541394388524
20
-0.438620526101943
30
0
41
1
10
-11.1486202659421
20
-0.423965529593517
30
0
41
1
10
-11.1436624982509
20
-0.415391274043827
30
0
41
1
10
-11.1346727150117
20
-0.40281081024105
30
0
41
1
10
-11.1314193740737
20
-0.398645770515543
30
0
41
1
10
-11.1279670839748
20
-0.394519052838291
30
0
0
SPLINE
5
24D
100
AcDbEntity
8
1
62
256
6
ByLayer
370
18
48
1
60
0
100
AcDbSpline
70
4
71
3
72
18
73
14
40
0
40
0
40
0
40
0
40
0.162980199901457
40
0.162980199901457
40
0.356090667569242
40
0.356090667569242
40
0.551234463725877
40
0.551234463725877
40
0.719046923534055
40
0.719046923534055
40
0.960494301745764
40
0.960494301745764
40
1
40
1
40
1
40
1
41
1
10
-11.9185094462046
20
0.249980947160964
30
0
41
1
10
-11.9131557419053
20
0.256528271485081
30
0
41
1
10
-11.9082638589417
20
0.263139223614388
30
0
41
1
10
-11.8993237127585
20
0.277208753028162
30
0
41
1
10
-11.8955247450956
20
0.284758179154096
30
0
41
1
10
-11.8913177846097
20
0.298335350777933
30
0
41
1
10
-11.8909291014857
20
0.304520769636866
30
0
41
1
10
-11.8935780496815
20
0.31357812212201
30
0
41
1
10
-11.8961493899795
20
0.316914751345337
30
0
41
1
10
-11.9047042479254
20
0.322785071146171
30
0
41
1
10
-11.9117710643691
20
0.324478414921543
30
0
41
1
10
-11.9210636588488
20
0.32494866619615
30
0
41
1
10
-11.9224100797441
20
0.32498094716172
30
0
41
1
10
-11.923781441615
20
0.32498094716172
30
0
0
SPLINE
5
24E
100
AcDbEntity
8
1
62
256
6
ByLayer
370
18
48
1
60
0
100
AcDbSpline
70
4
71
3
72
10
73
6
40
0
40
0
40
0
40
0
40
0.77130173554056
40
0.77130173554056
40
1
40
1
40
1
40
1
41
1
10
9.96637832280632
20
0.249980947161703
30
0
41
1
10
10.0408176727152
20
0.280259825286521
30
0
41
1
10
10.1173452415099
20
0.306006207234816
30
0
41
1
10
10.2078746221614
20
0.32243128656242
30
0
41
1
10
10.2284030215098
20
0.324980947161663
30
0
41
1
10
10.2470436468824
20
0.324980947161663
30
0
0
SPLINE
5
24F
100
AcDbEntity
8
1
62
256
6
ByLayer
370
18
48
1
60
0
100
AcDbSpline
70
4
71
3
72
10
73
6
40
0
40
0
40
0
40
0
40
0.186271610582107
40
0.186271610582107
40
1
40
1
40
1
40
1
41
1
10
3.02046224884995
20
0.249980947161873
30
0
41
1
10
2.94090381043352
20
0.260162385412372
30
0
41
1
10
2.86122003430509
20
0.268979833515374
30
0
41
1
10
2.43368518174003
20
0.310420554991708
30
0
41
1
10
2.08440322297625
20
0.32498094716172
30
0
41
1
10
1.73594520006304
20
0.324980947161691
30
0
0
SPLINE
5
250
100
AcDbEntity
8
1
62
256
6
ByLayer
370
18
48
1
60
0
100
AcDbSpline
70
4
71
3
72
22
73
18
40
0
40
0
40
0
40
0
40
0.183418456880262
40
0.183418456880262
40
0.311871271060361
40
0.311871271060361
40
0.420156282955983
40
0.420156282955983
40
0.529080017084389
40
0.529080017084389
40
0.628972024192606
40
0.628972024192606
40
0.762909040474525
40
0.762909040474525
40
0.947099471128427
40
0.947099471128427
40
1
40
1
40
1
40
1
41
1
10
15.707957879066
20
-0.394519052838348
30
0
41
1
10
15.7237737886043
20
-0.410681141001561
30
0
41
1
10
15.7388878515951
20
-0.426272459324963
30
0
41
1
10
15.7606857465146
20
-0.449159627546408
30
0
41
1
10
15.768708174038
20
-0.457724552782366
30
0
41
1
10
15.779842892195
20
-0.470018596012949
30
0
41
1
10
15.7836135610002
20
-0.474394910460916
30
0
41
1
10
15.7873650211036
20
-0.479441172373328
30
0
41
1
10
15.7873508919056
20
-0.480135195829746
30
0
41
1
10
15.7836891949517
20
-0.47781893746847
30
0
41
1
10
15.7803189846573
20
-0.475102910312302
30
0
41
1
10
15.7697196946613
20
-0.465947575077962
30
0
41
1
10
15.7614419966344
20
-0.458454028517593
30
0
41
1
10
15.7392267354346
20
-0.437881863133441
30
0
41
1
10
15.7239773683324
20
-0.423443119978174
30
0
41
1
10
15.7033844288562
20
-0.403677800723898
30
0
41
1
10
15.6986682874554
20
-0.399134761091005
30
0
41
1
10
15.6938926902978
20
-0.394519052838319
30
0
0
SPLINE
5
251
100
AcDbEntity
8
1
62
256
6
ByLayer
370
18
48
1
60
0
100
AcDbSpline
70
4
71
3
72
22
73
18
40
0
40
0
40
0
40
0
40
0.323172278774555
40
0.323172278774555
40
0.490152222025257
40
0.490152222025257
40
0.660190604983222
40
0.660190604983222
40
0.737412513661379
40
0.737412513661379
40
0.815633519565073
40
0.815633519565073
40
0.884255350975238
40
0.884255350975238
40
0.969517169838587
40
0.969517169838587
40
1
40
1
40
1
40
1
41
1
10
-12.2126258453701
20
-0.394519052838319
30
0
41
1
10
-12.2556206881461
20
-0.419016937744914
30
0
41
1
10
-12.2992752960346
20
-0.440341029653865
30
0
41
1
10
-12.3619640352685
20
-0.464159551058543
30
0
41
1
10
-12.3830541966667
20
-0.470865546495134
30
0
41
1
10
-12.4222712052285
20
-0.47929632153901
30
0
41
1
10
-12.4410353311503
20
-0.481102964797117
30
0
41
1
10
-12.4613668184495
20
-0.476412735130765
30
0
41
1
10
-12.466814837908
20
-0.473798042975375
30
0
41
1
10
-12.4742719141018
20
-0.465832645269359
30
0
41
1
10
-12.4762826618686
20
-0.460290398144849
30
0
41
1
10
-12.4759328108252
20
-0.447730671815947
30
0
41
1
10
-12.4740819540271
20
-0.440831018126033
30
0
41
1
10
-12.4669344962668
20
-0.424558122441653
30
0
41
1
10
-12.4608600538216
20
-0.414760027191647
30
0
41
1
10
-12.4510955243926
20
-0.401544991603032
30
0
41
1
10
-12.4483489214258
20
-0.398027735418566
30
0
41
1
10
-12.4454802424854
20
-0.394519052838319
30
0
0
SPLINE
5
252
100
AcDbEntity
8
1
62
256
6
ByLayer
370
18
48
1
60
0
100
AcDbSpline
70
4
71
3
72
22
73
18
40
0
40
0
40
0
40
0
40
0.0317323625053019
40
0.0317323625053019
40
0.085140184562852
40
0.085140184562852
40
0.125053949265442
40
0.125053949265442
40
0.164860608923328
40
0.164860608923328
40
0.222445792033015
40
0.222445792033015
40
0.321378848856635
40
0.321378848856635
40
0.530840992707654
40
0.530840992707654
40
1
40
1
40
1
40
1
41
1
10
9.3953884633886
20
-0.394519052838035
30
0
41
1
10
9.39939362771642
20
-0.398975848262893
30
0
41
1
10
9.40312267174656
20
-0.403528476147983
30
0
41
1
10
9.41191505673706
20
-0.415772826342248
30
0
41
1
10
9.41628554004802
20
-0.423723923580184
30
0
41
1
10
9.42018387566256
20
-0.436763405325962
30
0
41
1
10
9.42066160747328
20
-0.442188415053465
30
0
41
1
10
9.4190242905544
20
-0.451758932357308
30
0
41
1
10
9.41691298354252
20
-0.456021442193219
30
0
41
1
10
9.40950120229186
20
-0.464722262970554
30
0
41
1
10
9.40314789522955
20
-0.468584217235559
30
0
41
1
10
9.38358679808741
20
-0.476285765287742
30
0
41
1
10
9.36844720188375
20
-0.478450389599317
30
0
41
1
10
9.31938177976289
20
-0.480807016815191
30
0
41
1
10
9.28206946253562
20
-0.476441913711056
30
0
41
1
10
9.1612359799189
20
-0.454941676027062
30
0
41
1
10
9.07308677616268
20
-0.427943338223855
30
0
41
1
10
8.986928514634
20
-0.394519052838376
30
0
0
SPLINE
5
253
100
AcDbEntity
8
1
62
256
6
ByLayer
370
18
48
1
60
0
100
AcDbSpline
70
4
71
3
72
10
73
6
40
0
40
0
40
0
40
0
40
0.723758672245313
40
0.723758672245313
40
1
40
1
40
1
40
1
41
1
10
9.420146049799
20
0.249980947161845
30
0
41
1
10
9.3497818895753
20
0.280289102869119
30
0
41
1
10
9.2773597008096
20
0.30418604746248
30
0
41
1
10
9.18287570874261
20
0.321747895137548
30
0
41
1
10
9.15687945203632
20
0.324980947160526
30
0
41
1
10
9.13284665392288
20
0.324980947161691
30
0
0
SPLINE
5
254
100
AcDbEntity
8
1
62
256
6
ByLayer
370
18
48
1
60
0
100
AcDbSpline
70
4
71
3
72
26
73
22
40
0
40
0
40
0
40
0
40
0.382471973348729
40
0.382471973348729
40
0.625449054363933
40
0.625449054363933
40
0.748463939430319
40
0.748463939430319
40
0.831219382810827
40
0.831219382810827
40
0.867984099034852
40
0.867984099034852
40
0.905512539774496
40
0.905512539774496
40
0.928181706020554
40
0.928181706020554
40
0.9508348724239
40
0.9508348724239
40
0.982425700347513
40
0.982425700347513
40
1
40
1
40
1
40
1
41
1
10
-6.31056345909079
20
-0.394519052838348
30
0
41
1
10
-6.4086323276064
20
-0.420271216147086
30
0
41
1
10
-6.50733445696676
20
-0.441698753458439
30
0
41
1
10
-6.66675413116076
20
-0.467351798296136
30
0
41
1
10
-6.72865720414853
20
-0.475143376042354
30
0
41
1
10
-6.81919215471822
20
-0.47981373074299
30
0
41
1
10
-6.84936891726929
20
-0.480202992195217
30
0
41
1
10
-6.89735152130652
20
-0.476613751246163
30
0
41
1
10
-6.91625712849003
20
-0.474057688129818
30
0
41
1
10
-6.94029920209485
20
-0.466661856806752
30
0
41
1
10
-6.94731234465885
20
-0.463824586540682
30
0
41
1
10
-6.95931276673684
20
-0.456444764848499
30
0
41
1
10
-6.96441004850317
20
-0.45171547006845
30
0
41
1
10
-6.96875463726229
20
-0.442439793923882
30
0
41
1
10
-6.96951602371581
20
-0.438459934074359
30
0
41
1
10
-6.96894382724866
20
-0.430158710081059
30
0
41
1
10
-6.96761243442782
20
-0.425746462629604
30
0
41
1
10
-6.96256900802354
20
-0.415407857029606
30
0
41
1
10
-6.9581053704126
20
-0.409401555471362
30
0
41
1
10
-6.95008835095845
20
-0.400598318186155
30
0
41
1
10
-6.94697205939914
20
-0.397515694141958
30
0
41
1
10
-6.94370199056786
20
-0.394519052828656
30
0
0
SPLINE
5
255
100
AcDbEntity
8
1
62
256
6
ByLayer
370
18
48
1
60
0
100
AcDbSpline
70
4
71
3
72
22
73
18
40
0
40
0
40
0
40
0
40
0.310963157825463
40
0.310963157825463
40
0.473303258737706
40
0.473303258737706
40
0.604311055077305
40
0.604311055077305
40
0.694160899696349
40
0.694160899696349
40
0.785116473786424
40
0.785116473786424
40
0.862958867247364
40
0.862958867247364
40
0.962755724221652
40
0.962755724221652
40
1
40
1
40
1
40
1
41
1
10
-13.2887133686799
20
-0.394519052838319
30
0
41
1
10
-13.3259767530881
20
-0.418594833168868
30
0
41
1
10
-13.3637302428538
20
-0.439916252179614
30
0
41
1
10
-13.4170689658376
20
-0.463904065277632
30
0
41
1
10
-13.4349849274663
20
-0.470732084820156
30
0
41
1
10
-13.4640621597707
20
-0.478407435824011
30
0
41
1
10
-13.4761138407324
20
-0.480200935288139
30
0
41
1
10
-13.4921531702907
20
-0.478643688768472
30
0
41
1
10
-13.497580528275
20
-0.476672329370274
30
0
41
1
10
-13.5045990863472
20
-0.469483355213271
30
0
41
1
10
-13.5061876278541
20
-0.46407181268583
30
0
41
1
10
-13.504866285042
20
-0.451484190139468
30
0
41
1
10
-13.5025717318282
20
-0.444533214072265
30
0
41
1
10
-13.4943929866603
20
-0.427601809744345
30
0
41
1
10
-13.4876074343615
20
-0.417078427528878
30
0
41
1
10
-13.4767208880617
20
-0.402543796275012
30
0
41
1
10
-13.4735654074438
20
-0.398533426781398
30
0
41
1
10
-13.4702748862138
20
-0.394519052838319
30
0
0
SPLINE
5
256
100
AcDbEntity
8
1
62
256
6
ByLayer
370
18
48
1
60
0
100
AcDbSpline
70
4
71
3
72
8
73
4
40
0
40
0
40
0
40
0
40
1
40
1
40
1
40
1
41
1
10
10.5881465384976
20
0.249980947159912
30
0
41
1
10
10.768236032589
20
0.0352414690105434
30
0
41
1
10
10.9481691530415
20
-0.179596413473433
30
0
41
1
10
11.1279670839746
20
-0.394519052838319
30
0
0
SPLINE
5
257
100
AcDbEntity
8
1
62
256
6
ByLayer
370
18
48
1
60
0
100
AcDbSpline
70
4
71
3
72
22
73
18
40
0
40
0
40
0
40
0
40
0.097897130357261
40
0.097897130357261
40
0.197220994868693
40
0.197220994868693
40
0.297674478037223
40
0.297674478037223
40
0.383340149294786
40
0.383340149294786
40
0.493549622564554
40
0.493549622564554
40
0.652120311394793
40
0.652120311394793
40
0.896265038071924
40
0.896265038071924
40
1
40
1
40
1
40
1
41
1
10
14.2655750866986
20
-0.394519052838348
30
0
41
1
10
14.2738698492025
20
-0.40445652955566
30
0
41
1
10
14.2815093880685
20
-0.414358192498867
30
0
41
1
10
14.2943681274782
20
-0.43321805971604
30
0
41
1
10
14.2996541198795
20
-0.442349329307035
30
0
41
1
10
14.3062268105037
20
-0.458106704743415
30
0
41
1
10
14.3075114560563
20
-0.464904709133435
30
0
41
1
10
14.3055906435839
20
-0.473869644645958
30
0
41
1
10
14.3030117267558
20
-0.476693412357577
30
0
41
1
10
14.2941774119321
20
-0.480074004307681
30
0
41
1
10
14.2869944113003
20
-0.479855532803128
30
0
41
1
10
14.2667365010242
20
-0.475607351824806
30
0
41
1
10
14.2521594753836
20
-0.46997479906679
30
0
41
1
10
14.2130931440665
20
-0.451397153570554
30
0
41
1
10
14.1867055568193
20
-0.435848291499326
30
0
41
1
10
14.1486880497904
20
-0.410777599051585
30
0
41
1
10
14.1371407013158
20
-0.40281880256552
30
0
41
1
10
14.1255646241438
20
-0.394519052838319
30
0
0
SPLINE
5
258
100
AcDbEntity
8
1
62
256
6
ByLayer
370
18
48
1
60
0
100
AcDbSpline
70
4
71
3
72
14
73
10
40
0
40
0
40
0
40
0
40
0.472416645933619
40
0.472416645933619
40
0.754234861604973
40
0.754234861604973
40
0.972176091415342
40
0.972176091415342
40
1
40
1
40
1
40
1
41
1
10
11.1539311130556
20
0.249980947161731
30
0
41
1
10
11.1784958675692
20
0.268353193107771
30
0
41
1
10
11.2030684433588
20
0.285202409613959
30
0
41
1
10
11.2388582763983
20
0.306587962389131
30
0
41
1
10
11.251730815516
20
0.313482838046127
30
0
41
1
10
11.2714726313544
20
0.321924817891869
30
0
41
1
10
11.2791937481621
20
0.32437575412132
30
0
41
1
10
11.2857666502021
20
0.324947526556343
30
0
41
1
10
11.2864883874295
20
0.324980947161691
30
0
41
1
10
11.2871772280887
20
0.324980947161691
30
0
0
SPLINE
5
259
100
AcDbEntity
8
1
62
256
6
ByLayer
370
18
48
1
60
0
100
AcDbSpline
70
4
71
3
72
16
73
12
40
0
40
0
40
0
40
0
40
0.222512850668334
40
0.222512850668334
40
0.448070552248655
40
0.448070552248655
40
0.676305315130627
40
0.676305315130627
40
0.869704041580549
40
0.869704041580549
40
1
40
1
40
1
40
1
41
1
10
11.1114500273986
20
0.249980947161504
30
0
41
1
10
11.1187156930949
20
0.258687830989317
30
0
41
1
10
11.1254102591126
20
0.267364003653455
30
0
41
1
10
11.1366779258046
20
0.283899700786748
30
0
41
1
10
11.1413117528547
20
0.291911914337561
30
0
41
1
10
11.1470518100655
20
0.305778335253052
30
0
41
1
10
11.1481511231504
20
0.31178466605769
30
0
41
1
10
11.1463476903669
20
0.319726929309837
30
0
41
1
10
11.1440220975294
20
0.32225255559058
30
0
41
1
10
11.1382155195722
20
0.324551544378352
30
0
41
1
10
11.1353405374696
20
0.324980947161834
30
0
41
1
10
11.1320782392769
20
0.324980947161834
30
0
0
SPLINE
5
25A
100
AcDbEntity
8
1
62
256
6
ByLayer
370
18
48
1
60
0
100
AcDbSpline
70
4
71
3
72
14
73
10
40
0
40
0
40
0
40
0
40
0.472416645933613
40
0.472416645933613
40
0.754234861604971
40
0.754234861604971
40
0.972176091415332
40
0.972176091415332
40
1
40
1
40
1
40
1
41
1
10
-11.1539311130556
20
0.249980947161731
30
0
41
1
10
-11.1784958675692
20
0.268353193107771
30
0
41
1
10
-11.2030684433588
20
0.285202409613959
30
0
41
1
10
-11.2388582763983
20
0.306587962389131
30
0
41
1
10
-11.251730815516
20
0.313482838046127
30
0
41
1
10
-11.2714726313544
20
0.321924817891869
30
0
41
1
10
-11.2791937481621
20
0.32437575412132
30
0
41
1
10
-11.2857666502021
20
0.324947526556343
30
0
41
1
10
-11.2864883874295
20
0.324980947161691
30
0
41
1
10
-11.2871772280887
20
0.324980947161691
30
0
0
SPLINE
5
25B
100
AcDbEntity
8
1
62
256
6
ByLayer
370
18
48
1
60
0
100
AcDbSpline
70
4
71
3
72
8
73
4
40
0
40
0
40
0
40
0
40
1
40
1
40
1
40
1
41
1
10
-13.2065548385553
20
0.249980947161674
30
0
41
1
10
-13.5156694864504
20
0.0381530827979475
30
0
41
1
10
-13.821933986661
20
-0.176823691691681
30
0
41
1
10
-14.1255646241438
20
-0.394519052838319
30
0
0
SPLINE
5
25C
100
AcDbEntity
8
1
62
256
6
ByLayer
370
18
48
1
60
0
100
AcDbSpline
70
4
71
3
72
8
73
4
40
0
40
0
40
0
40
0
40
1
40
1
40
1
40
1
41
1
10
11.9185094462047
20
0.249980947160964
30
0
41
1
10
12.0941736247426
20
0.0351520577178803
30
0
41
1
10
12.2698302504263
20
-0.179681463779445
30
0
41
1
10
12.4454802424853
20
-0.394519052838319
30
0
0
SPLINE
5
25D
100
AcDbEntity
8
1
62
256
6
ByLayer
370
18
48
1
60
0
100
AcDbSpline
70
4
71
3
72
8
73
4
40
0
40
0
40
0
40
0
40
1
40
1
40
1
40
1
41
1
10
-14.2655750866985
20
-0.394519052838319
30
0
41
1
10
-14.0862027448653
20
-0.179623391888498
30
0
41
1
10
-13.9067346952574
20
0.0352123843836978
30
0
41
1
10
-13.7271595028413
20
0.249980947161504
30
0
0
SPLINE
5
25E
100
AcDbEntity
8
1
62
256
6
ByLayer
370
18
48
1
60
0
100
AcDbSpline
70
4
71
3
72
22
73
18
40
0
40
0
40
0
40
0
40
0.13093085628722
40
0.13093085628722
40
0.248731613391215
40
0.248731613391215
40
0.348315974098669
40
0.348315974098669
40
0.448216527149459
40
0.448216527149459
40
0.544055438888945
40
0.544055438888945
40
0.682884754865337
40
0.682884754865337
40
0.88064574208477
40
0.88064574208477
40
1
40
1
40
1
40
1
41
1
10
15.301087760103
20
-0.394519052838348
30
0
41
1
10
15.3120292147968
20
-0.406793454698459
30
0
41
1
10
15.3222888158832
20
-0.418848884484134
30
0
41
1
10
15.3388794413091
20
-0.43984345771517
30
0
41
1
10
15.3456377445713
20
-0.449166859073216
30
0
41
1
10
15.3543517760361
20
-0.463378309377134
30
0
41
1
10
15.3569493626918
20
-0.468855065422787
30
0
41
1
10
15.3585163489978
20
-0.476517958481111
30
0
41
1
10
15.3574837358255
20
-0.478783140125614
30
0
41
1
10
15.3522369347582
20
-0.479917788539382
30
0
41
1
10
15.3481166885627
20
-0.478958209372109
30
0
41
1
10
15.335510289934
20
-0.473684799171792
30
0
41
1
10
15.3257354685882
20
-0.468031228932404
30
0
41
1
10
15.2995903741928
20
-0.450832984397692
30
0
41
1
10
15.2817357113057
20
-0.437556030006022
30
0
41
1
10
15.2520564178902
20
-0.413983629497324
30
0
41
1
10
15.2404706837981
20
-0.404449375333513
30
0
41
1
10
15.2287531289572
20
-0.394519052838319
30
0
0
SPLINE
5
25F
100
AcDbEntity
8
1
62
256
6
ByLayer
370
18
48
1
60
0
100
AcDbSpline
70
4
71
3
72
8
73
4
40
0
40
0
40
0
40
0
40
1
40
1
40
1
40
1
41
1
10
-12.2619374897428
20
0.249980947161674
30
0
41
1
10
-12.6077271251985
20
0.039431113194496
30
0
41
1
10
-12.9499086383337
20
-0.175618156092071
30
0
41
1
10
-13.2887133686799
20
-0.394519052838319
30
0
0
SPLINE
5
260
100
AcDbEntity
8
1
62
256
6
ByLayer
370
18
48
1
60
0
100
AcDbSpline
70
4
71
3
72
8
73
4
40
0
40
0
40
0
40
0
40
1
40
1
40
1
40
1
41
1
10
-13.4702748862138
20
-0.394519052838319
30
0
41
1
10
-13.2941699218973
20
-0.179674312264069
30
0
41
1
10
-13.1180471579124
20
0.0351594867746599
30
0
41
1
10
-12.9419043311971
20
0.249980947161362
30
0
0
SPLINE
5
261
100
AcDbEntity
8
1
62
256
6
ByLayer
370
18
48
1
60
0
100
AcDbSpline
70
4
71
3
72
8
73
4
40
0
40
0
40
0
40
0
40
1
40
1
40
1
40
1
41
1
10
15.2287531289572
20
-0.394519052838319
30
0
41
1
10
14.9734743701885
20
-0.17817695458001
30
0
41
1
10
14.7165545878482
20
0.0367246786073565
30
0
41
1
10
14.4578369788356
20
0.249980947161674
30
0
0
SPLINE
5
262
100
AcDbEntity
8
1
62
256
6
ByLayer
370
18
48
1
60
0
100
AcDbSpline
70
4
71
3
72
8
73
4
40
0
40
0
40
0
40
0
40
1
40
1
40
1
40
1
41
1
10
-7.15410175340944
20
0.249980947161674
30
0
41
1
10
-7.77384685690504
20
0.0549727571128926
30
0
41
1
10
-8.38516177118393
20
-0.161069317297006
30
0
41
1
10
-8.986928514634
20
-0.394519052838319
30
0
0
SPLINE
5
263
100
AcDbEntity
8
1
62
256
6
ByLayer
370
18
48
1
60
0
100
AcDbSpline
70
4
71
3
72
14
73
10
40
0
40
0
40
0
40
0
40
0.433245310107184
40
0.433245310107184
40
0.7288928858035
40
0.7288928858035
40
0.958491705678951
40
0.958491705678951
40
1
40
1
40
1
40
1
41
1
10
14.4578369788356
20
0.249980947161674
30
0
41
1
10
14.4372811299779
20
0.266924763398492
30
0
41
1
10
14.4168868816659
20
0.282642177104492
30
0
41
1
10
14.3856167231141
20
0.304248063979117
30
0
41
1
10
14.3735128151422
20
0.311833502254899
30
0
41
1
10
14.3552323782803
20
0.321237989899089
30
0
41
1
10
14.3481860878902
20
0.324023952896681
30
0
41
1
10
14.3421025945735
20
0.324910603298719
30
0
41
1
10
14.3412225397432
20
0.324980947161663
30
0
41
1
10
14.3404094665879
20
0.324980947161663
30
0
0
SPLINE
5
264
100
AcDbEntity
8
1
62
256
6
ByLayer
370
18
48
1
60
0
100
AcDbSpline
70
4
71
3
72
8
73
4
40
0
40
0
40
0
40
0
40
1
40
1
40
1
40
1
41
1
10
14.763917126115
20
-0.394519052838319
30
0
41
1
10
14.4872010191426
20
-0.177620629481964
30
0
41
1
10
14.2084077471454
20
0.0373108488043101
30
0
41
1
10
13.9273497265336
20
0.249980947161674
30
0
0
SPLINE
5
265
100
AcDbEntity
8
1
62
256
6
ByLayer
370
18
48
1
60
0
100
AcDbSpline
70
4
71
3
72
12
73
8
40
0
40
0
40
0
40
0
40
0.490356236384227
40
0.490356236384227
40
0.864056390512622
40
0.864056390512622
40
1
40
1
40
1
40
1
41
1
10
11.036173761814
20
0.249980947161674
30
0
41
1
10
10.9977722679888
20
0.270158304105451
30
0
41
1
10
10.9588104596628
20
0.287555869172252
30
0
41
1
10
10.8923425048367
20
0.311015321082152
30
0
41
1
10
10.8637571176936
20
0.319006108865409
30
0
41
1
10
10.8280127034473
20
0.324171043632873
30
0
41
1
10
10.8187227741418
20
0.324980947168598
30
0
41
1
10
10.810022161731
20
0.324980947169763
30
0
0
SPLINE
5
266
100
AcDbEntity
8
1
62
256
6
ByLayer
370
18
48
1
60
0
100
AcDbSpline
70
4
71
3
72
12
73
8
40
0
40
0
40
0
40
0
40
0.270493766512484
40
0.270493766512484
40
0.937473171635094
40
0.937473171635094
40
1
40
1
40
1
40
1
41
1
10
-9.13284665392288
20
0.324980947161691
30
0
41
1
10
-9.15630989340383
20
0.324980947160554
30
0
41
1
10
-9.18164916525359
20
0.32189366150601
30
0
41
1
10
-9.27013861207985
20
0.305719778991829
30
0
41
1
10
-9.3366463877185
20
0.284503252289227
30
0
41
1
10
-9.40783697801413
20
0.255222466306037
30
0
41
1
10
-9.41399493183226
20
0.252630435772318
30
0
41
1
10
-9.420146049799
20
0.249980947161703
30
0
0
SPLINE
5
267
100
AcDbEntity
8
1
62
256
6
ByLayer
370
18
48
1
60
0
100
AcDbSpline
70
4
71
3
72
16
73
12
40
0
40
0
40
0
40
0
40
0.142613309573497
40
0.142613309573497
40
0.381791799294507
40
0.381791799294507
40
0.587602847273153
40
0.587602847273153
40
0.772393592555002
40
0.772393592555002
40
1
40
1
40
1
40
1
41
1
10
12.9317003032967
20
0.324980947161976
30
0
41
1
10
12.9276522986873
20
0.324980947161976
30
0
41
1
10
12.923989683158
20
0.32450333187802
30
0
41
1
10
12.9157706357179
20
0.321710438722988
30
0
41
1
10
12.9121701672709
20
0.318252652394392
30
0
41
1
10
12.9098900544253
20
0.308628353720536
30
0
41
1
10
12.9105863184268
20
0.30276462731905
30
0
41
1
10
12.9149767119328
20
0.290152044566611
30
0
41
1
10
12.9183810115474
20
0.283424119783007
30
0
41
1
10
12.9279080628973
20
0.267962196418011
30
0
41
1
10
12.9345536299968
20
0.258945765065846
30
0
41
1
10
12.9419043311969
20
0.249980947161362
30
0
0
SPLINE
5
268
100
AcDbEntity
8
1
62
256
6
ByLayer
370
18
48
1
60
0
100
AcDbSpline
70
4
71
3
72
18
73
14
40
0
40
0
40
0
40
0
40
0.127059116657838
40
0.127059116657838
40
0.319583881778265
40
0.319583881778265
40
0.490236787955895
40
0.490236787955895
40
0.633768685766356
40
0.633768685766356
40
0.863005301773186
40
0.863005301773186
40
1
40
1
40
1
40
1
41
1
10
-10.5881465384972
20
0.249980947159855
30
0
41
1
10
-10.583745643922
20
0.255228592555369
30
0
41
1
10
-10.5797041598131
20
0.260561272209287
30
0
41
1
10
-10.5710704497747
20
0.273801219610902
30
0
41
1
10
-10.5671484769107
20
0.281872802476471
30
0
41
1
10
-10.5639288048516
20
0.295501270288412
30
0
41
1
10
-10.5641572751432
20
0.301408049502612
30
0
41
1
10
-10.5676736335364
20
0.310193414945729
30
0
41
1
10
-10.5704775131361
20
0.313525013493461
30
0
41
1
10
-10.5797593562549
20
0.320249995223065
30
0
41
1
10
-10.5875211929803
20
0.32267773819612
30
0
41
1
10
-10.6012425092499
20
0.324655384442025
30
0
41
1
10
-10.6067446240557
20
0.324980947163254
30
0
41
1
10
-10.6124575382186
20
0.324980947163198
30
0
0
SPLINE
5
269
100
AcDbEntity
8
1
62
256
6
ByLayer
370
18
48
1
60
0
100
AcDbSpline
70
4
71
3
72
8
73
4
40
0
40
0
40
0
40
0
40
1
40
1
40
1
40
1
41
1
10
-6.94370199056411
20
-0.394519052830475
30
0
41
1
10
-6.70650135148043
20
-0.177151996836358
30
0
41
1
10
-6.46647219367966
20
0.0379421778052063
30
0
41
1
10
-6.22292588126976
20
0.249980947141125
30
0
0
SPLINE
5
26A
100
AcDbEntity
8
1
62
256
6
ByLayer
370
18
48
1
60
0
100
AcDbSpline
70
4
71
3
72
8
73
4
40
0
40
0
40
0
40
0
40
1
40
1
40
1
40
1
41
1
10
-1.91224221525752
20
-0.394519052838348
30
0
41
1
10
-0.670321048517309
20
-0.0406575122095774
30
0
41
1
10
0.669664464343469
20
-0.0404704311793864
30
0
41
1
10
1.91224221527568
20
-0.394519052843492
30
0
0
SPLINE
5
26B
100
AcDbEntity
8
1
62
256
6
ByLayer
370
18
48
1
60
0
100
AcDbSpline
70
4
71
3
72
20
73
16
40
0
40
0
40
0
40
0
40
0.278928968982914
40
0.278928968982914
40
0.430787869034994
40
0.430787869034994
40
0.584804254833677
40
0.584804254833677
40
0.697680278629009
40
0.697680278629009
40
0.810547895831399
40
0.810547895831399
40
0.962053583533844
40
0.962053583533844
40
1
40
1
40
1
40
1
41
1
10
8.86408179867627
20
0.324980947161691
30
0
41
1
10
8.84991457610059
20
0.324980947161691
30
0
41
1
10
8.83618771633923
20
0.323950561370879
30
0
41
1
10
8.81741609014006
20
0.319480728041384
30
0
41
1
10
8.81119517893788
20
0.317307132825988
30
0
41
1
10
8.80063120771734
20
0.311296877214829
30
0
41
1
10
8.79621539706466
20
0.307340233842495
30
0
41
1
10
8.79174178093086
20
0.298755681521584
30
0
41
1
10
8.79082747453776
20
0.29449016374079
30
0
41
1
10
8.79134609699628
20
0.285301639069218
30
0
41
1
10
8.79277969429367
20
0.280275914507968
30
0
41
1
10
8.7982322431248
20
0.268506710673819
30
0
41
1
10
8.80299566985465
20
0.261582669591434
30
0
41
1
10
8.80992645045384
20
0.253291093630395
30
0
41
1
10
8.81137987661214
20
0.251628996584913
30
0
41
1
10
8.8128784640478
20
0.24998094716139
30
0
0
SPLINE
5
26C
100
AcDbEntity
8
1
62
256
6
ByLayer
370
18
48
1
60
0
100
AcDbSpline
70
4
71
3
72
22
73
18
40
0
40
0
40
0
40
0
40
0.114358328664663
40
0.114358328664663
40
0.223366658645764
40
0.223366658645764
40
0.333704782760376
40
0.333704782760376
40
0.426950496459702
40
0.426950496459702
40
0.52058861239649
40
0.52058861239649
40
0.669166066265557
40
0.669166066265557
40
0.888371087980183
40
0.888371087980183
40
1
40
1
40
1
40
1
41
1
10
14.8682534145173
20
-0.394519052838348
30
0
41
1
10
14.8778031105591
20
-0.405634884625954
30
0
41
1
10
14.8866713788726
20
-0.416633527620348
30
0
41
1
10
14.9012588922681
20
-0.436639458631873
30
0
41
1
10
14.9072247611111
20
-0.445907347447758
30
0
41
1
10
14.9151263988347
20
-0.46158633756005
30
0
41
1
10
14.9170759317761
20
-0.468161161903623
30
0
41
1
10
14.9161177390369
20
-0.476233457003445
30
0
41
1
10
14.9139134025469
20
-0.478468433014626
30
0
41
1
10
14.9066598749804
20
-0.479970907922336
30
0
41
1
10
14.9015438793494
20
-0.479269511370916
30
0
41
1
10
14.8860060993556
20
-0.474574596427345
30
0
41
1
10
14.874016902877
20
-0.468884109302195
30
0
41
1
10
14.8420790882186
20
-0.450944105400254
30
0
41
1
10
14.8204611058388
20
-0.436589605137215
30
0
41
1
10
14.7870936403265
20
-0.412369145833537
30
0
41
1
10
14.7755409247438
20
-0.403630136481354
30
0
41
1
10
14.763917126115
20
-0.394519052838319
30
0
0
SPLINE
5
26D
100
AcDbEntity
8
1
62
256
6
ByLayer
370
18
48
1
60
0
100
AcDbSpline
70
4
71
3
72
8
73
4
40
0
40
0
40
0
40
0
40
1
40
1
40
1
40
1
41
1
10
8.986928514634
20
-0.394519052838319
30
0
41
1
10
8.38516177118393
20
-0.161069317297006
30
0
41
1
10
7.77384685690504
20
0.0549727571128926
30
0
41
1
10
7.15410175340944
20
0.249980947161674
30
0
0
SPLINE
5
26E
100
AcDbEntity
8
1
62
256
6
ByLayer
370
18
48
1
60
0
100
AcDbSpline
70
4
71
3
72
8
73
4
40
0
40
0
40
0
40
0
40
1
40
1
40
1
40
1
41
1
10
-12.4454802424853
20
-0.394519052838319
30
0
41
1
10
-12.2698302504262
20
-0.179681463779445
30
0
41
1
10
-12.0941736247426
20
0.0351520577178803
30
0
41
1
10
-11.9185094462047
20
0.249980947160964
30
0
0
SPLINE
5
26F
100
AcDbEntity
8
1
62
256
6
ByLayer
370
18
48
1
60
0
100
AcDbSpline
70
4
71
3
72
8
73
4
40
0
40
0
40
0
40
0
40
1
40
1
40
1
40
1
41
1
10
12.2126258453701
20
-0.394519052838319
30
0
41
1
10
11.8249775203537
20
-0.173642235123822
30
0
41
1
10
11.4328923426465
20
0.0415324829398855
30
0
41
1
10
11.036173761814
20
0.249980947161674
30
0
0
SPLINE
5
270
100
AcDbEntity
8
1
62
256
6
ByLayer
370
18
48
1
60
0
100
AcDbSpline
70
4
71
3
72
10
73
6
40
0
40
0
40
0
40
0
40
0.144705430509828
40
0.144705430509828
40
1
40
1
40
1
40
1
41
1
10
-1.73594520006304
20
0.324980947161805
30
0
41
1
10
-1.797998048957
20
0.324980947161805
30
0
41
1
10
-1.86006771777392
20
0.324462216526342
30
0
41
1
10
-2.28847201001923
20
0.317515076446995
30
0
41
1
10
-2.65571656419709
20
0.296659033601628
30
0
41
1
10
-3.02046224884995
20
0.249980947161703
30
0
0
SPLINE
5
271
100
AcDbEntity
8
1
62
256
6
ByLayer
370
18
48
1
60
0
100
AcDbSpline
70
4
71
3
72
10
73
6
40
0
40
0
40
0
40
0
40
0.771301735540566
40
0.771301735540566
40
1
40
1
40
1
40
1
41
1
10
-9.96637832280632
20
0.249980947161703
30
0
41
1
10
-10.0408176727152
20
0.280259825286521
30
0
41
1
10
-10.1173452415099
20
0.306006207234816
30
0
41
1
10
-10.2078746221613
20
0.32243128656242
30
0
41
1
10
-10.2284030215098
20
0.324980947161663
30
0
41
1
10
-10.2470436468824
20
0.324980947161663
30
0
0
SPLINE
5
272
100
AcDbEntity
8
1
62
256
6
ByLayer
370
18
48
1
60
0
100
AcDbSpline
70
4
71
3
72
8
73
4
40
0
40
0
40
0
40
0
40
1
40
1
40
1
40
1
41
1
10
10.8261977204867
20
-0.394519052838319
30
0
41
1
10
10.3636372717123
20
-0.169952411830337
30
0
41
1
10
9.89494647866684
20
0.0454688023105234
30
0
41
1
10
9.420146049799
20
0.249980947161674
30
0
0
SPLINE
5
273
100
AcDbEntity
8
1
62
256
6
ByLayer
370
18
48
1
60
0
100
AcDbSpline
70
4
71
3
72
8
73
4
40
0
40
0
40
0
40
0
40
1
40
1
40
1
40
1
41
1
10
6.22292588126976
20
0.249980947141125
30
0
41
1
10
6.46647219368259
20
0.0379421778026483
30
0
41
1
10
6.7065013514862
20
-0.177151996841502
30
0
41
1
10
6.94370199057266
20
-0.394519052838319
30
0
0
SPLINE
5
274
100
AcDbEntity
8
1
62
256
6
ByLayer
370
18
48
1
60
0
100
AcDbSpline
70
4
71
3
72
8
73
4
40
0
40
0
40
0
40
0
40
1
40
1
40
1
40
1
41
1
10
14.7247732958313
20
0.249980947161618
30
0
41
1
10
14.9172681033559
20
0.0354095843731557
30
0
41
1
10
15.1093595857448
20
-0.179433515691386
30
0
41
1
10
15.3010877601029
20
-0.394519052838319
30
0
0
SPLINE
5
275
100
AcDbEntity
8
1
62
256
6
ByLayer
370
18
48
1
60
0
100
AcDbSpline
70
4
71
3
72
26
73
22
40
0
40
0
40
0
40
0
40
0.0312500000000002
40
0.0312500000000002
40
0.0625000000000002
40
0.0625000000000002
40
0.125
40
0.125
40
0.25
40
0.25
40
0.5
40
0.5
40
0.749999999999999
40
0.749999999999999
40
0.874999999999999
40
0.874999999999999
40
0.937499999999999
40
0.937499999999999
40
0.96875
40
0.96875
40
1
40
1
40
1
40
1
41
1
10
1.91224221527466
20
-0.394519052843208
30
0
41
1
10
1.95367444877508
20
-0.406324370581928
30
0
41
1
10
1.9874615423972
20
-0.439272216727062
30
0
41
1
10
1.90884184778307
20
-0.460630769935563
30
0
41
1
10
1.86548031261256
20
-0.463993071207454
30
0
41
1
10
1.73764538957624
20
-0.473972136578624
30
0
41
1
10
1.65102511892317
20
-0.476174861694858
30
0
41
1
10
1.39159588783562
20
-0.480678675815966
30
0
41
1
10
1.21804078248536
20
-0.479621542873531
30
0
41
1
10
0.696617515176257
20
-0.476143979777078
30
0
41
1
10
0.348495379296168
20
-0.47269752349618
30
0
41
1
10
-0.346337288192018
20
-0.472686789337132
30
0
41
1
10
-0.693468026598168
20
-0.476104976342015
30
0
41
1
10
-1.21344427037613
20
-0.479599726343054
30
0
41
1
10
-1.38665742916635
20
-0.480670638880554
30
0
41
1
10
-1.64605540813446
20
-0.476306028423181
30
0
41
1
10
-1.73246557979129
20
-0.474189774064996
30
0
41
1
10
-1.86175165882943
20
-0.464370768882901
30
0
41
1
10
-1.90571859291288
20
-0.461023043723884
30
0
41
1
10
-1.98633854565881
20
-0.440009744027975
30
0
41
1
10
-1.95455961711608
20
-0.406576582267803
30
0
41
1
10
-1.91224221525752
20
-0.394519052838348
30
0
0
SPLINE
5
276
100
AcDbEntity
8
1
62
256
6
ByLayer
370
18
48
1
60
0
100
AcDbSpline
70
4
71
3
72
10
73
6
40
0
40
0
40
0
40
0
40
0.459319796283878
40
0.459319796283878
40
1
40
1
40
1
40
1
41
1
10
-6.74249188881674
20
0.324980947161663
30
0
41
1
10
-6.80261331658284
20
0.324980947161492
30
0
41
1
10
-6.8661944337764
20
0.316913867325894
30
0
41
1
10
-7.00399613287337
20
0.292170762438673
30
0
41
1
10
-7.0794900436585
20
0.273458170931548
30
0
41
1
10
-7.15410175340941
20
0.249980947161816
30
0
0
SPLINE
5
277
100
AcDbEntity
8
1
62
256
6
ByLayer
370
18
48
1
60
0
100
AcDbSpline
70
4
71
3
72
20
73
16
40
0
40
0
40
0
40
0
40
0.0782700489531364
40
0.0782700489531364
40
0.217081097569759
40
0.217081097569759
40
0.319714950977475
40
0.319714950977475
40
0.422221310200554
40
0.422221310200554
40
0.564519788257701
40
0.564519788257701
40
0.806526878283766
40
0.806526878283766
40
1
40
1
40
1
40
1
41
1
10
9.83200555996117
20
0.249980947154484
30
0
41
1
10
9.83525242125867
20
0.253462276162509
30
0
41
1
10
9.83829540701822
20
0.25702339225154
30
0
41
1
10
9.84582373804216
20
0.266969211539418
30
0
41
1
10
9.84972810843354
20
0.27360328337852
30
0
41
1
10
9.85343844539801
20
0.284613533261137
30
0
41
1
10
9.85405201415648
20
0.289228006150665
30
0
41
1
10
9.85306866934107
20
0.297499957250721
30
0
41
1
10
9.85147163547688
20
0.30125540053973
30
0
41
1
10
9.84571342562151
20
0.308849005346929
30
0
41
1
10
9.8407627917974
20
0.312313484880264
30
0
41
1
10
9.82546059476923
20
0.319500000838531
30
0
41
1
10
9.81354778547086
20
0.321985033876416
30
0
41
1
10
9.791073782447
20
0.324536234191044
30
0
41
1
10
9.78054069051169
20
0.324980947182013
30
0
41
1
10
9.76977062536778
20
0.324980947181274
30
0
0
SPLINE
5
278
100
AcDbEntity
8
1
62
256
6
ByLayer
370
18
48
1
60
0
100
AcDbSpline
70
4
71
3
72
22
73
18
40
0
40
0
40
0
40
0
40
0.525219663020724
40
0.525219663020724
40
0.66713328715023
40
0.66713328715023
40
0.766268598112301
40
0.766268598112301
40
0.821760925541375
40
0.821760925541375
40
0.866355311823562
40
0.866355311823562
40
0.91138489449909
40
0.91138489449909
40
0.950928332518219
40
0.950928332518219
40
1
40
1
40
1
40
1
41
1
10
-8.98692851463403
20
-0.394519052838405
30
0
41
1
10
-9.08313778017265
20
-0.431842530483323
30
0
41
1
10
-9.18243562077984
20
-0.461763974801869
30
0
41
1
10
-9.2991866206952
20
-0.477933450542366
30
0
41
1
10
-9.32400286622908
20
-0.480028263918115
30
0
41
1
10
-9.36310522377877
20
-0.478990945845169
30
0
41
1
10
-9.37857693777281
20
-0.477245184085405
30
0
41
1
10
-9.39890248597831
20
-0.470590802692129
30
0
41
1
10
-9.40551824792112
20
-0.467335387275824
30
0
41
1
10
-9.41458874391833
20
-0.459411465515387
30
0
41
1
10
-9.41764965302434
20
-0.455046003742922
30
0
41
1
10
-9.42065665057328
20
-0.444862357391372
30
0
41
1
10
-9.42057359169493
20
-0.438875845679036
30
0
41
1
10
-9.41746995235724
20
-0.427130358448835
30
0
41
1
10
-9.41480489744671
20
-0.421308424699134
30
0
41
1
10
-9.40707457591338
20
-0.408478998308823
30
0
41
1
10
-9.40154209077858
20
-0.401366576716839
30
0
41
1
10
-9.39538846339318
20
-0.394519052837154
30
0
0
SPLINE
5
279
100
AcDbEntity
8
1
62
256
6
ByLayer
370
18
48
1
60
0
100
AcDbSpline
70
4
71
3
72
12
73
8
40
0
40
0
40
0
40
0
40
0.508133068758723
40
0.508133068758723
40
0.802161846397829
40
0.802161846397829
40
1
40
1
40
1
40
1
41
1
10
13.2065548385553
20
0.249980947161674
30
0
41
1
10
13.1769738212829
20
0.270252014085202
30
0
41
1
10
13.1470858319735
20
0.288333149597634
30
0
41
1
10
13.1032005615561
20
0.30992653783926
30
0
41
1
10
13.0874867279878
20
0.316494043953241
30
0
41
1
10
13.0640991076044
20
0.32332741768542
30
0
41
1
10
13.0553525699327
20
0.324980947170587
30
0
41
1
10
13.0480635116123
20
0.324980947171696
30
0
0
SPLINE
5
27A
100
AcDbEntity
8
1
62
256
6
ByLayer
370
18
48
1
60
0
100
AcDbSpline
70
4
71
3
72
14
73
10
40
0
40
0
40
0
40
0
40
0.33710624829202
40
0.33710624829202
40
0.647310614077377
40
0.647310614077377
40
0.886161409230711
40
0.886161409230711
40
1
40
1
40
1
40
1
41
1
10
14.8184692127086
20
0.249980947161674
30
0
41
1
10
14.8036816976969
20
0.263122951185295
30
0
41
1
10
14.7891607644274
20
0.275577235286761
30
0
41
1
10
14.7633258370001
20
0.296607427102941
30
0
41
1
10
14.7516046943095
20
0.3056049718856
30
0
41
1
10
14.7341504944032
20
0.317577940558209
30
0
41
1
10
14.7275171245715
20
0.321546757359243
30
0
41
1
10
14.7204481784758
20
0.324476090518658
30
0
41
1
10
14.7185603454076
20
0.32498094716172
30
0
41
1
10
14.7171680292953
20
0.32498094716172
30
0
0
SPLINE
5
27B
100
AcDbEntity
8
1
62
256
6
ByLayer
370
18
48
1
60
0
100
AcDbSpline
70
4
71
3
72
8
73
4
40
0
40
0
40
0
40
0
40
1
40
1
40
1
40
1
41
1
10
6.31056345909084
20
-0.394519052838035
30
0
41
1
10
5.23174171602631
20
-0.111228400779481
30
0
41
1
10
4.1359861011268
20
0.107222523982642
30
0
41
1
10
3.02046224884995
20
0.249980947161674
30
0
0
SPLINE
5
27C
100
AcDbEntity
8
1
62
256
6
ByLayer
370
18
48
1
60
0
100
AcDbSpline
70
4
71
3
72
18
73
14
40
0
40
0
40
0
40
0
40
0.162902450377374
40
0.162902450377374
40
0.366852175854892
40
0.366852175854892
40
0.537713683465899
40
0.537713683465899
40
0.708673754670343
40
0.708673754670343
40
0.922911607884426
40
0.922911607884426
40
1
40
1
40
1
40
1
41
1
10
11.9237814416139
20
0.324980947163027
30
0
41
1
10
11.918170764532
20
0.324980947163084
30
0
41
1
10
11.9129518878176
20
0.324439609695332
30
0
41
1
10
11.9027345546503
20
0.321657051926849
30
0
41
1
10
11.8980307324233
20
0.318960951327938
30
0
41
1
10
11.8926021349242
20
0.311570210018658
30
0
41
1
10
11.8913307960847
20
0.307172178919615
30
0
41
1
10
11.8916776359248
20
0.296862843094658
30
0
41
1
10
11.8932995073009
20
0.290829461483753
30
0
41
1
10
11.8995615525351
20
0.276533486596378
30
0
41
1
10
11.9049078359011
20
0.267891502873255
30
0
41
1
10
11.9135259624943
20
0.256216980493008
30
0
41
1
10
11.9159630849371
20
0.253095025214918
30
0
41
1
10
11.9185094462047
20
0.249980947160964
30
0
0
SPLINE
5
27D
100
AcDbEntity
8
1
62
256
6
ByLayer
370
18
48
1
60
0
100
AcDbSpline
70
4
71
3
72
8
73
4
40
0
40
0
40
0
40
0
40
1
40
1
40
1
40
1
41
1
10
14.1255646241438
20
-0.394519052838319
30
0
41
1
10
13.821933986661
20
-0.176823691691681
30
0
41
1
10
13.5156694864504
20
0.0381530827979475
30
0
41
1
10
13.2065548385553
20
0.249980947161674
30
0
0
SPLINE
5
27E
100
AcDbEntity
8
1
62
256
6
ByLayer
370
18
48
1
60
0
100
AcDbSpline
70
4
71
3
72
16
73
12
40
0
40
0
40
0
40
0
40
0.196106062070702
40
0.196106062070702
40
0.40936429738502
40
0.40936429738502
40
0.624861773934882
40
0.624861773934882
40
0.810538195133172
40
0.810538195133172
40
1
40
1
40
1
40
1
41
1
10
-12.941904331197
20
0.249980947161362
30
0
41
1
10
-12.9355565595585
20
0.257722605445195
30
0
41
1
10
-12.9297451486101
20
0.265486959719368
30
0
41
1
10
-12.9196443071011
20
0.281028918341008
30
0
41
1
10
-12.9154513250267
20
0.288912527954437
30
0
41
1
10
-12.9105435541865
20
0.302768370066531
30
0
41
1
10
-12.9098378901371
20
0.308896379450914
30
0
41
1
10
-12.9120892622652
20
0.317447759258869
30
0
41
1
10
-12.9145591942265
20
0.320382983309258
30
0
41
1
10
-12.9216438870887
20
0.324136772285755
30
0
41
1
10
-12.9263401550438
20
0.324980947161777
30
0
41
1
10
-12.9317003032969
20
0.324980947161777
30
0
0
SPLINE
5
27F
100
AcDbEntity
8
1
62
256
6
ByLayer
370
18
48
1
60
0
100
AcDbSpline
70
4
71
3
72
12
73
8
40
0
40
0
40
0
40
0
40
0.187090296169386
40
0.187090296169386
40
0.54309463337071
40
0.54309463337071
40
1
40
1
40
1
40
1
41
1
10
-13.0480635116143
20
0.324980947169223
30
0
41
1
10
-13.0549624170437
20
0.324980947168314
30
0
41
1
10
-13.0631671541132
20
0.323499309088135
30
0
41
1
10
-13.0887039678359
20
0.316306266344782
30
0
41
1
10
-13.1079917011475
20
0.307940673435724
30
0
41
1
10
-13.1530531925814
20
0.284689675204646
30
0
41
1
10
-13.1798976719487
20
0.268248378714077
30
0
41
1
10
-13.2065548385553
20
0.249980947161674
30
0
0
SPLINE
5
280
100
AcDbEntity
8
1
62
256
6
ByLayer
370
18
48
1
60
0
100
AcDbSpline
70
4
71
3
72
20
73
16
40
0
40
0
40
0
40
0
40
0.0875813217047519
40
0.0875813217047519
40
0.237504420911536
40
0.237504420911536
40
0.34940405186436
40
0.34940405186436
40
0.461003689020073
40
0.461003689020073
40
0.623095268981764
40
0.623095268981764
40
0.903463262378101
40
0.903463262378101
40
1
40
1
40
1
40
1
41
1
10
-8.81287846405178
20
0.249980947155791
30
0
41
1
10
-8.80943603988072
20
0.253766702350987
30
0
41
1
10
-8.80622370292227
20
0.257635494335631
30
0
41
1
10
-8.79853363640362
20
0.268168928287281
30
0
41
1
10
-8.79466199608734
20
0.275071939030596
30
0
41
1
10
-8.79114982092599
20
0.28644336161338
30
0
41
1
10
-8.79068049685566
20
0.291190014766073
30
0
41
1
10
-8.79200279820446
20
0.299600397228147
30
0
41
1
10
-8.79378956162682
20
0.303366213457991
30
0
41
1
10
-8.80013098536278
20
0.311113427404365
30
0
41
1
10
-8.80561155549785
20
0.314594943469302
30
0
41
1
10
-8.82257307161169
20
0.321649505330555
30
0
41
1
10
-8.83576051227683
20
0.323736521178233
30
0
41
1
10
-8.85427199496277
20
0.324850505366129
30
0
41
1
10
-8.8591410275572
20
0.32498094716226
30
0
41
1
10
-8.86408179867595
20
0.32498094716226
30
0
0
SPLINE
5
281
100
AcDbEntity
8
1
62
256
6
ByLayer
370
18
48
1
60
0
100
AcDbSpline
70
4
71
3
72
16
73
12
40
0
40
0
40
0
40
0
40
0.13303586131828
40
0.13303586131828
40
0.351038011843027
40
0.351038011843027
40
0.555790512729328
40
0.555790512729328
40
0.82336930518041
40
0.82336930518041
40
1
40
1
40
1
40
1
41
1
10
14.2770266676248
20
0.324980947161691
30
0
41
1
10
14.274741598044
20
0.324980947161691
30
0
41
1
10
14.2729237350551
20
0.324471061898947
30
0
41
1
10
14.2696603344533
20
0.321681525865159
30
0
41
1
10
14.2691838713855
20
0.31839304795659
30
0
41
1
10
14.2714450354401
20
0.309495790768352
30
0
41
1
10
14.2740026941254
20
0.303945484824794
30
0
41
1
10
14.2824153930354
20
0.289574452123958
30
0
41
1
10
14.2891323909677
20
0.280073731962858
30
0
41
1
10
14.3019709896826
20
0.263654985741539
30
0
41
1
10
14.3075944809438
20
0.256855010590328
30
0
41
1
10
14.313522568363
20
0.249980947161589
30
0
0
SPLINE
5
282
100
AcDbEntity
8
1
62
256
6
ByLayer
370
18
48
1
60
0
100
AcDbSpline
70
4
71
3
72
8
73
4
40
0
40
0
40
0
40
0
40
1
40
1
40
1
40
1
41
1
10
13.2887133686799
20
-0.394519052838319
30
0
41
1
10
12.9499086383337
20
-0.175618156092071
30
0
41
1
10
12.6077271251985
20
0.039431113194496
30
0
41
1
10
12.2619374897428
20
0.249980947161674
30
0
0
SPLINE
5
283
100
AcDbEntity
8
1
62
256
6
ByLayer
370
18
48
1
60
0
100
AcDbSpline
70
4
71
3
72
12
73
8
40
0
40
0
40
0
40
0
40
0.212424564223053
40
0.212424564223053
40
0.7061187883069
40
0.7061187883069
40
1
40
1
40
1
40
1
41
1
10
-10.8100221617363
20
0.324980947161663
30
0
41
1
10
-10.8235634343596
20
0.324980947160441
30
0
41
1
10
-10.8385147593294
20
0.323043253440488
30
0
41
1
10
-10.8894755192771
20
0.312800800404204
30
0
41
1
10
-10.9281971461761
20
0.299463929793092
30
0
41
1
10
-10.9897538197902
20
0.273237127770869
30
0
41
1
10
-11.0130356983498
20
0.262138416025522
30
0
41
1
10
-11.036173761814
20
0.249980947161674
30
0
0
SPLINE
5
284
100
AcDbEntity
8
1
62
256
6
ByLayer
370
18
48
1
60
0
100
AcDbSpline
70
4
71
3
72
8
73
4
40
0
40
0
40
0
40
0
40
1
40
1
40
1
40
1
41
1
10
8.81287846404788
20
0.249980947161418
30
0
41
1
10
9.00777767281514
20
0.0356434176935636
30
0
41
1
10
9.20190706823394
20
-0.179220272026527
30
0
41
1
10
9.39538846338738
20
-0.394519052838319
30
0
0
SPLINE
5
285
100
AcDbEntity
8
1
62
256
6
ByLayer
370
18
48
1
60
0
100
AcDbSpline
70
4
71
3
72
12
73
8
40
0
40
0
40
0
40
0
40
0.250501186961769
40
0.250501186961769
40
0.69075939752066
40
0.69075939752066
40
1
40
1
40
1
40
1
41
1
10
-12.0749439034002
20
0.324980947161691
30
0
41
1
10
-12.0870297057275
20
0.324980947160498
30
0
41
1
10
-12.101271621459
20
0.322332695747036
30
0
41
1
10
-12.142259790453
20
0.310893880716179
30
0
41
1
10
-12.1711060415636
20
0.298818023442635
30
0
41
1
10
-12.2204611517658
20
0.274155071989668
30
0
41
1
10
-12.2412480564073
20
0.262578654863148
30
0
41
1
10
-12.2619374897428
20
0.249980947161703
30
0
0
SPLINE
5
286
100
AcDbEntity
8
1
62
256
6
ByLayer
370
18
48
1
60
0
100
AcDbSpline
70
4
71
3
72
8
73
4
40
0
40
0
40
0
40
0
40
1
40
1
40
1
40
1
41
1
10
14.9753453687125
20
0.249980947161646
30
0
41
1
10
15.176890810297
20
0.0355555125066189
30
0
41
1
10
15.3778369233613
20
-0.179293258802488
30
0
41
1
10
15.5782416750557
20
-0.394519052838319
30
0
0
SPLINE
5
287
100
AcDbEntity
8
1
62
256
6
ByLayer
370
18
48
1
60
0
100
AcDbSpline
70
4
71
3
72
22
73
18
40
0
40
0
40
0
40
0
40
0.276904862057264
40
0.276904862057264
40
0.44037808956179
40
0.44037808956179
40
0.567349638111106
40
0.567349638111106
40
0.662270472638631
40
0.662270472638631
40
0.7580526209654
40
0.7580526209654
40
0.842833993820813
40
0.842833993820813
40
0.95626125222019
40
0.95626125222019
40
1
40
1
40
1
40
1
41
1
10
-14.1255646241438
20
-0.394519052838319
30
0
41
1
10
-14.1561027751906
20
-0.416414122044813
30
0
41
1
10
-14.1868111743156
20
-0.436225978985306
30
0
41
1
10
-14.2318216524419
20
-0.460666721959285
30
0
41
1
10
-14.2480310969721
20
-0.468340165783815
30
0
41
1
10
-14.2733112414394
20
-0.477271802943164
30
0
41
1
10
-14.2833756903394
20
-0.479627936026532
30
0
41
1
10
-14.2968992872168
20
-0.479430659435963
30
0
41
1
10
-14.301472156284
20
-0.477922129125829
30
0
41
1
10
-14.3067775057108
20
-0.471561147519083
30
0
41
1
10
-14.3075089447586
20
-0.46655366965112
30
0
41
1
10
-14.3049671316133
20
-0.454514737126033
30
0
41
1
10
-14.302134465377
20
-0.447652764003806
30
0
41
1
10
-14.2927061874223
20
-0.430323679530602
30
0
41
1
10
-14.2850661591479
20
-0.419171414471265
30
0
41
1
10
-14.2729092274056
20
-0.403456909170046
30
0
41
1
10
-14.2693133690861
20
-0.398997673434451
30
0
41
1
10
-14.2655750866985
20
-0.394519052838319
30
0
0
SPLINE
5
288
100
AcDbEntity
8
1
62
256
6
ByLayer
370
18
48
1
60
0
100
AcDbSpline
70
4
71
3
72
8
73
4
40
0
40
0
40
0
40
0
40
1
40
1
40
1
40
1
41
1
10
-9.420146049799
20
0.249980947161674
30
0
41
1
10
-9.89494647866684
20
0.0454688023105234
30
0
41
1
10
-10.3636372717123
20
-0.169952411830309
30
0
41
1
10
-10.8261977204867
20
-0.394519052838319
30
0
0
SPLINE
5
289
100
AcDbEntity
8
1
62
256
6
ByLayer
370
18
48
1
60
0
100
AcDbSpline
70
4
71
3
72
20
73
16
40
0
40
0
40
0
40
0
40
0.11099794183766
40
0.11099794183766
40
0.182855767056569
40
0.182855767056569
40
0.255583965819799
40
0.255583965819799
40
0.320826318216323
40
0.320826318216323
40
0.42150890702069
40
0.42150890702069
40
0.611537958607763
40
0.611537958607763
40
1
40
1
40
1
40
1
41
1
10
-6.22292588126999
20
0.249980947140926
30
0
41
1
10
-6.21700189086698
20
0.25513855195814
30
0
41
1
10
-6.21153119273689
20
0.260669889630805
30
0
41
1
10
-6.20460106979363
20
0.270220289161159
30
0
41
1
10
-6.20238635324549
20
0.27417030417547
30
0
41
1
10
-6.19977205631105
20
0.2819633183897
30
0
41
1
10
-6.19939409326145
20
0.285900877531361
30
0
41
1
10
-6.20063898426443
20
0.292662400721298
30
0
41
1
10
-6.20205658937482
20
0.295638285126017
30
0
41
1
10
-6.20709265777455
20
0.302267216638882
30
0
41
1
10
-6.21151315690375
20
0.305559324929504
30
0
41
1
10
-6.22579726086587
20
0.313316566644829
30
0
41
1
10
-6.23722001595649
20
0.316553369882399
30
0
41
1
10
-6.27303292021031
20
0.323671640508792
30
0
41
1
10
-6.29947387788931
20
0.324980947161691
30
0
41
1
10
-6.32610759209336
20
0.324980947161663
30
0
0
SPLINE
5
28A
100
AcDbEntity
8
1
62
256
6
ByLayer
370
18
48
1
60
0
100
AcDbSpline
70
4
71
3
72
10
73
6
40
0
40
0
40
0
40
0
40
0.629205937832127
40
0.629205937832127
40
1
40
1
40
1
40
1
41
1
10
7.15410175340941
20
0.249980947161959
30
0
41
1
10
7.06739922208141
20
0.277262653159397
30
0
41
1
10
6.97939877650324
20
0.29827446842782
30
0
41
1
10
6.84209578550008
20
0.319542756326399
30
0
41
1
10
6.79111584066894
20
0.324980947161521
30
0
41
1
10
6.74249188881674
20
0.324980947161663
30
0
0
SPLINE
5
28B
100
AcDbEntity
8
1
62
256
6
ByLayer
370
18
48
1
60
0
100
AcDbSpline
70
4
71
3
72
16
73
12
40
0
40
0
40
0
40
0
40
0.134462780923375
40
0.134462780923375
40
0.349537261573806
40
0.349537261573806
40
0.557950674156573
40
0.557950674156573
40
0.855755255698682
40
0.855755255698682
40
1
40
1
40
1
40
1
41
1
10
14.6760280503601
20
0.324980947161691
30
0
41
1
10
14.6744547309015
20
0.324980947161691
30
0
41
1
10
14.673417951087
20
0.324417074664865
30
0
41
1
10
14.6723011362686
20
0.321450672658585
30
0
41
1
10
14.673185446904
20
0.318071601814097
30
0
41
1
10
14.6777393499717
20
0.309053492530154
30
0
41
1
10
14.6813553439142
20
0.30340009735113
30
0
41
1
10
14.6923737737739
20
0.288078288731839
30
0
41
1
10
14.7008752798684
20
0.277504281483345
30
0
41
1
10
14.714887978094
20
0.261117932860969
30
0
41
1
10
14.7197446068059
20
0.255586358918379
30
0
41
1
10
14.7247732958313
20
0.249980947161618
30
0
0
SPLINE
5
28C
100
AcDbEntity
8
1
62
256
6
ByLayer
370
18
48
1
60
0
100
AcDbSpline
70
4
71
3
72
22
73
18
40
0
40
0
40
0
40
0
40
0.0815479292501052
40
0.0815479292501052
40
0.170286194894273
40
0.170286194894273
40
0.259987307065422
40
0.259987307065422
40
0.336897977620643
40
0.336897977620643
40
0.441506022418955
40
0.441506022418955
40
0.598780439335251
40
0.598780439335251
40
0.854308199178501
40
0.854308199178501
40
1
40
1
40
1
40
1
41
1
10
13.470274886214
20
-0.394519052838348
30
0
41
1
10
13.4774199131377
20
-0.403235851151038
30
0
41
1
10
13.4839622686567
20
-0.411979505650322
30
0
41
1
10
13.4953406359315
20
-0.429500549190152
30
0
41
1
10
13.5000672127184
20
-0.438398285275412
30
0
41
1
10
13.505580332615
20
-0.454065835007242
30
0
41
1
10
13.5063525160425
20
-0.461012684915346
30
0
41
1
10
13.5037195393392
20
-0.470714363996081
30
0
41
1
10
13.5008855492315
20
-0.474057874117165
30
0
41
1
10
13.4914274326218
20
-0.479120852094439
30
0
41
1
10
13.483713670478
20
-0.47996257954523
30
0
41
1
10
13.461715687001
20
-0.478322463938099
30
0
41
1
10
13.4457404908276
20
-0.474048864934218
30
0
41
1
10
13.4018237016311
20
-0.458195593022367
30
0
41
1
10
13.3716887911461
20
-0.443483285186403
30
0
41
1
10
13.3240104068217
20
-0.416623447994653
30
0
41
1
10
13.3063543150315
20
-0.405916824563263
30
0
41
1
10
13.2887133686799
20
-0.394519052838319
30
0
0
SPLINE
5
28D
100
AcDbEntity
8
1
62
256
6
ByLayer
370
18
48
1
60
0
100
AcDbSpline
70
4
71
3
72
14
73
10
40
0
40
0
40
0
40
0
40
0.353257057246176
40
0.353257057246176
40
0.641058284270415
40
0.641058284270415
40
0.87223528148967
40
0.87223528148967
40
1
40
1
40
1
40
1
41
1
10
15.0214849302391
20
0.249980947161674
30
0
41
1
10
15.0070911325438
20
0.2636587090837
30
0
41
1
10
14.9931048425908
20
0.276709970667952
30
0
41
1
10
14.9703101702748
20
0.297368268925027
30
0
41
1
10
14.960823734868
20
0.305710395524585
30
0
41
1
10
14.9469753159702
20
0.317197042596547
30
0
41
1
10
14.941859904484
20
0.321127036563553
30
0
41
1
10
14.9366716232605
20
0.324371289152566
30
0
41
1
10
14.9353410650465
20
0.324980947161663
30
0
41
1
10
14.9346150246876
20
0.324980947161663
30
0
0
SPLINE
5
28E
100
AcDbEntity
8
1
62
256
6
ByLayer
370
18
48
1
60
0
100
AcDbSpline
70
4
71
3
72
12
73
8
40
0
40
0
40
0
40
0
40
0.557840308776408
40
0.557840308776408
40
0.870895438625494
40
0.870895438625494
40
1
40
1
40
1
40
1
41
1
10
12.2619374897428
20
0.249980947161703
30
0
41
1
10
12.2249529975132
20
0.272500646712643
30
0
41
1
10
12.187304448988
20
0.292031881804491
30
0
41
1
10
12.1322216451675
20
0.313762562795461
30
0
41
1
10
12.1127281494877
20
0.319936476700917
30
0
41
1
10
12.0881232605539
20
0.324254223101519
30
0
41
1
10
12.0812378299215
20
0.324980947163965
30
0
41
1
10
12.0749439033983
20
0.324980947164733
30
0
0
SPLINE
5
28F
100
AcDbEntity
8
1
62
256
6
ByLayer
370
18
48
1
60
0
100
AcDbSpline
70
4
71
3
72
8
73
4
40
0
40
0
40
0
40
0
40
1
40
1
40
1
40
1
41
1
10
15.5356555966799
20
-0.394519052838319
30
0
41
1
10
15.2979243688086
20
-0.178580903448989
30
0
41
1
10
15.0589048317345
20
0.0363002935724239
30
0
41
1
10
14.8184692127086
20
0.249980947161674
30
0
0
SPLINE
5
290
100
AcDbEntity
8
1
62
256
6
ByLayer
370
18
48
1
60
0
100
AcDbSpline
70
4
71
3
72
8
73
4
40
0
40
0
40
0
40
0
40
1
40
1
40
1
40
1
41
1
10
13.7271595028413
20
0.249980947161504
30
0
41
1
10
13.9067346952574
20
0.0352123843836978
30
0
41
1
10
14.0862027448653
20
-0.179623391888498
30
0
41
1
10
14.2655750866985
20
-0.394519052838319
30
0
0
SPLINE
5
291
100
AcDbEntity
8
1
62
256
6
ByLayer
370
18
48
1
60
0
100
AcDbSpline
70
4
71
3
72
8
73
4
40
0
40
0
40
0
40
0
40
1
40
1
40
1
40
1
41
1
10
-3.02046224884995
20
0.249980947161674
30
0
41
1
10
-4.1359861011268
20
0.107222523982642
30
0
41
1
10
-5.23174171602631
20
-0.111228400779481
30
0
41
1
10
-6.31056345909084
20
-0.394519052838035
30
0
0
SPLINE
5
292
100
AcDbEntity
8
1
62
256
6
ByLayer
370
18
48
1
60
0
100
AcDbSpline
70
4
71
3
72
16
73
12
40
0
40
0
40
0
40
0
40
0.222512850668355
40
0.222512850668355
40
0.448070552248669
40
0.448070552248669
40
0.676305315130626
40
0.676305315130626
40
0.869704041580546
40
0.869704041580546
40
1
40
1
40
1
40
1
41
1
10
-11.1114500273986
20
0.249980947161504
30
0
41
1
10
-11.1187156930949
20
0.258687830989317
30
0
41
1
10
-11.1254102591126
20
0.267364003653455
30
0
41
1
10
-11.1366779258046
20
0.283899700786748
30
0
41
1
10
-11.1413117528547
20
0.29191191433759
30
0
41
1
10
-11.1470518100655
20
0.305778335253052
30
0
41
1
10
-11.1481511231504
20
0.31178466605769
30
0
41
1
10
-11.1463476903669
20
0.319726929309837
30
0
41
1
10
-11.1440220975294
20
0.32225255559058
30
0
41
1
10
-11.1382155195722
20
0.324551544378352
30
0
41
1
10
-11.1353405374696
20
0.324980947161862
30
0
41
1
10
-11.1320782392769
20
0.324980947161834
30
0
0
SPLINE
5
293
100
AcDbEntity
8
1
62
256
6
ByLayer
370
18
48
1
60
0
100
AcDbSpline
70
4
71
3
72
8
73
4
40
0
40
0
40
0
40
0
40
1
40
1
40
1
40
1
41
1
10
15.0732541015804
20
0.249980947161646
30
0
41
1
10
15.2856247684893
20
0.0357424669155932
30
0
41
1
10
15.4971665587786
20
-0.179113932172044
30
0
41
1
10
15.707957879066
20
-0.394519052838319
30
0
0
SPLINE
5
294
100
AcDbEntity
8
1
62
256
6
ByLayer
370
18
48
1
60
0
100
AcDbSpline
70
4
71
3
72
8
73
4
40
0
40
0
40
0
40
0
40
1
40
1
40
1
40
1
41
1
10
-9.39538846338741
20
-0.394519052838319
30
0
41
1
10
-9.20190706823553
20
-0.179220272028289
30
0
41
1
10
-9.00777767281835
20
0.0356434176900109
30
0
41
1
10
-8.81287846405274
20
0.249980947156104
30
0
0
SPLINE
5
295
100
AcDbEntity
8
1
62
256
6
ByLayer
370
18
48
1
60
0
100
AcDbSpline
70
4
71
3
72
16
73
12
40
0
40
0
40
0
40
0
40
0.227415712927982
40
0.227415712927982
40
0.457641561796686
40
0.457641561796686
40
0.690417551128009
40
0.690417551128009
40
0.889707449012474
40
0.889707449012474
40
1
40
1
40
1
40
1
41
1
10
-13.7271595028412
20
0.249980947161532
30
0
41
1
10
-13.719743090643
20
0.258850837079848
30
0
41
1
10
-13.7129109428634
20
0.267684371409871
30
0
41
1
10
-13.7014187703802
20
0.284464549269558
30
0
41
1
10
-13.6966939348733
20
0.292566649093658
30
0
41
1
10
-13.6907758907585
20
0.306502066570943
30
0
41
1
10
-13.6895799417863
20
0.312486515213322
30
0
41
1
10
-13.6911409179432
20
0.320329787434986
30
0
41
1
10
-13.6933579231819
20
0.3227653936938
30
0
41
1
10
-13.6985867822315
20
0.324660810844762
30
0
41
1
10
-13.7008168382724
20
0.324980947161748
30
0
41
1
10
-13.7033273915928
20
0.324980947161748
30
0
0
SPLINE
5
296
100
AcDbEntity
8
1
62
256
6
ByLayer
370
18
48
1
60
0
100
AcDbSpline
70
4
71
3
72
8
73
4
40
0
40
0
40
0
40
0
40
1
40
1
40
1
40
1
41
1
10
12.9419043311971
20
0.249980947161362
30
0
41
1
10
13.1180471579124
20
0.0351594867746314
30
0
41
1
10
13.2941699218973
20
-0.179674312264069
30
0
41
1
10
13.4702748862138
20
-0.394519052838319
30
0
0
SPLINE
5
297
100
AcDbEntity
8
1
62
256
6
ByLayer
370
18
48
1
60
0
100
AcDbSpline
70
4
71
3
72
16
73
12
40
0
40
0
40
0
40
0
40
0.13782816422107
40
0.13782816422107
40
0.352448473856304
40
0.352448473856304
40
0.567713577015507
40
0.567713577015507
40
0.898600647162815
40
0.898600647162815
40
1
40
1
40
1
40
1
41
1
10
14.9143591280969
20
0.324980947161663
30
0
41
1
10
14.9135123581676
20
0.324980947161663
30
0
41
1
10
14.9132844611696
20
0.324346718926734
30
0
41
1
10
14.9143274784361
20
0.321144811968651
30
0
41
1
10
14.9165434226985
20
0.317629093938194
30
0
41
1
10
14.9234790807865
20
0.308319269138281
30
0
41
1
10
14.9282639367639
20
0.302432315885454
30
0
41
1
10
14.942401900873
20
0.285845358804067
30
0
41
1
10
14.9530326361332
20
0.274004166433286
30
0
41
1
10
14.9680031945087
20
0.257821428845887
30
0
41
1
10
14.9716383993084
20
0.253924814705783
30
0
41
1
10
14.9753453687125
20
0.249980947161646
30
0
0
SPLINE
5
298
100
AcDbEntity
8
1
62
256
6
ByLayer
370
18
48
1
60
0
100
AcDbSpline
70
4
71
3
72
16
73
12
40
0
40
0
40
0
40
0
40
0.175229374344391
40
0.175229374344391
40
0.349412583587401
40
0.349412583587401
40
0.537925240189183
40
0.537925240189183
40
0.759659392457787
40
0.759659392457787
40
1
40
1
40
1
40
1
41
1
10
15.9999999999999
20
-6.72499999999982
30
0
41
1
10
15.9999999999999
20
-6.88211792851641
30
0
41
1
10
16.0240562417341
20
-7.04141787209585
30
0
41
1
10
16.1131945565577
20
-7.33571081430401
30
0
41
1
10
16.1789134714373
20
-7.47479304493672
30
0
41
1
10
16.3462745725044
20
-7.73177469340931
30
0
41
1
10
16.4522620986355
20
-7.85028795004175
30
0
41
1
10
16.7076443780787
20
-8.065220438143
30
0
41
1
10
16.8646844332397
20
-8.15706934780454
30
0
41
1
10
17.2100293726609
20
-8.28858442041005
30
0
41
1
10
17.4047154890943
20
-8.32499999999982
30
0
41
1
10
17.5999999999999
20
-8.32499999999982
30
0
0
SPLINE
5
299
100
AcDbEntity
8
1
62
256
6
ByLayer
370
18
48
1
60
0
100
AcDbSpline
70
4
71
3
72
10
73
6
40
0
40
0
40
0
40
0
40
0.499999999999998
40
0.499999999999998
40
1
40
1
40
1
40
1
41
1
10
0.178854689622568
20
-0.669999999999987
30
0
41
1
10
0.119239254796895
20
-0.669333385427166
30
0
41
1
10
0.0596191617220825
20
-0.669000000000011
30
0
41
1
10
-0.0596191617220825
20
-0.669000000000011
30
0
41
1
10
-0.119239254796895
20
-0.669333385427166
30
0
41
1
10
-0.178854689622568
20
-0.669999999999987
30
0
0
SPLINE
5
29A
100
AcDbEntity
8
1
62
256
6
ByLayer
370
18
48
1
60
0
100
AcDbSpline
70
4
71
3
72
8
73
4
40
0
40
0
40
0
40
0
40
1
40
1
40
1
40
1
41
1
10
13.5110697207432
20
-0.674999999999983
30
0
41
1
10
13.463744246228
20
-0.671668558128289
30
0
41
1
10
13.4172426978794
20
-0.669999999999987
30
0
41
1
10
13.371567094575
20
-0.669999999999987
30
0
0
SPLINE
5
29B
100
AcDbEntity
8
1
62
256
6
ByLayer
370
18
48
1
60
0
100
AcDbSpline
70
4
71
3
72
8
73
4
40
0
40
0
40
0
40
0
40
1
40
1
40
1
40
1
41
1
10
-14.2323721156023
20
0.0176278843976831
30
0
41
1
10
-14.4615350743974
20
-0.211535074397347
30
0
41
1
10
-14.6907458971993
20
-0.440745897199349
30
0
41
1
10
-14.92
20
-0.669999999999987
30
0
0
SPLINE
5
29C
100
AcDbEntity
8
1
62
256
6
ByLayer
370
18
48
1
60
0
100
AcDbSpline
70
4
71
3
72
16
73
12
40
0
40
0
40
0
40
0
40
0.210601603648632
40
0.210601603648632
40
0.421213120937357
40
0.421213120937357
40
0.631488126460197
40
0.631488126460197
40
0.839116239420829
40
0.839116239420829
40
1
40
1
40
1
40
1
41
1
10
43.6046912194301
20
-8.19444374614719
30
0
41
1
10
43.6048851041009
20
-8.17152163764348
30
0
41
1
10
43.6011366843306
20
-8.14828471516037
30
0
41
1
10
43.5864049129777
20
-8.10502463529414
30
0
41
1
10
43.5752157349576
20
-8.08440026525321
30
0
41
1
10
43.5470242400575
20
-8.04865478777705
30
0
41
1
10
43.52963219728
20
-8.0330255938255
30
0
41
1
10
43.4913444393929
20
-8.00912365922059
30
0
41
1
10
43.4699543211539
20
-8.00042996368634
30
0
41
1
10
43.4309045828753
20
-7.99205926946124
30
0
41
1
10
43.4131262908524
20
-7.99071814728023
30
0
41
1
10
43.3956316353027
20
-7.99179620233949
30
0
0
SPLINE
5
29D
100
AcDbEntity
8
1
62
256
6
ByLayer
370
18
48
1
60
0
100
AcDbSpline
70
4
71
3
72
10
73
6
40
0
40
0
40
0
40
0
40
0.584711417492912
40
0.584711417492912
40
1
40
1
40
1
40
1
41
1
10
35.2351939284819
20
-10.7500000000001
30
0
41
1
10
35.2376165600086
20
-10.7500000000001
30
0
41
1
10
35.2400566535847
20
-10.7500000000001
30
0
41
1
10
35.2442589248979
20
-10.7500000000001
30
0
41
1
10
35.2460127381757
20
-10.7500000000001
30
0
41
1
10
35.2477750315741
20
-10.7500000000001
30
0
0
SPLINE
5
29E
100
AcDbEntity
8
1
62
256
6
ByLayer
370
18
48
1
60
0
100
AcDbSpline
70
4
71
3
72
16
73
12
40
0
40
0
40
0
40
0
40
0.202092460849674
40
0.202092460849674
40
0.404032245588857
40
0.404032245588857
40
0.608298678109005
40
0.608298678109005
40
0.816163444624768
40
0.816163444624768
40
1
40
1
40
1
40
1
41
1
10
43.3956316353027
20
-11.0082037976608
30
0
41
1
10
43.4174897444444
20
-11.0095507373064
30
0
41
1
10
43.4398491383954
20
-11.0070859153377
30
0
41
1
10
43.4818390291393
20
-10.9950357473646
30
0
41
1
10
43.5020457535964
20
-10.9852960338304
30
0
41
1
10
43.5378824730738
20
-10.9599275820917
30
0
41
1
10
43.5539463831898
20
-10.9438922526711
30
0
41
1
10
43.5798894042431
20
-10.9075964874668
30
0
41
1
10
43.5900129368111
20
-10.8867713964391
30
0
41
1
10
43.6020260177163
20
-10.8459157034027
30
0
41
1
10
43.6048610089749
20
-10.8256297044809
30
0
41
1
10
43.6046912194301
20
-10.8055562538531
30
0
0
SPLINE
5
29F
100
AcDbEntity
8
1
62
256
6
ByLayer
370
18
48
1
60
0
100
AcDbSpline
70
4
71
3
72
10
73
6
40
0
40
0
40
0
40
0
40
0.629562107774395
40
0.629562107774395
40
1
40
1
40
1
40
1
41
1
10
33.8
20
-10.7500000000001
30
0
41
1
10
33.7782969300918
20
-10.7500000000001
30
0
41
1
10
33.756172793229
20
-10.7463589368068
30
0
41
1
10
33.7231987911384
20
-10.7351217868952
30
0
41
1
10
33.7112516429095
20
-10.72970121982
30
0
41
1
10
33.6999999999999
20
-10.7232050807573
30
0
0
SPLINE
5
2A0
100
AcDbEntity
8
1
62
256
6
ByLayer
370
18
48
1
60
0
100
AcDbSpline
70
4
71
3
72
10
73
6
40
0
40
0
40
0
40
0
40
0.62956174027551
40
0.62956174027551
40
1
40
1
40
1
40
1
41
1
10
33.7
20
-8.27679491924326
30
0
41
1
10
33.718944038489
20
-8.26585757352211
30
0
41
1
10
33.7400004695306
20
-8.25796915888751
30
0
41
1
10
33.7741148019192
20
-8.25125947135581
30
0
41
1
10
33.7871096425299
20
-8.25000000000009
30
0
41
1
10
33.8
20
-8.25000000000009
30
0
0
SPLINE
5
2A1
100
AcDbEntity
8
1
62
256
6
ByLayer
370
18
48
1
60
0
100
AcDbSpline
70
4
71
3
72
10
73
6
40
0
40
0
40
0
40
0
40
0.76746257010027
40
0.76746257010027
40
1
40
1
40
1
40
1
41
1
10
35.2477750315741
20
-8.25000000000014
30
0
41
1
10
35.2445183560327
20
-8.25000000000014
30
0
41
1
10
35.2412905642182
20
-8.25000000000014
30
0
41
1
10
35.237123695827
20
-8.25000000000014
30
0
41
1
10
35.2361574346187
20
-8.25000000000014
30
0
41
1
10
35.2351939284819
20
-8.25000000000014
30
0
0
SPLINE
5
2A2
100
AcDbEntity
8
1
62
256
6
ByLayer
370
18
48
1
60
0
100
AcDbSpline
70
4
71
3
72
14
73
10
40
0
40
0
40
0
40
0
40
0.209562190252725
40
0.209562190252725
40
0.419048660097219
40
0.419048660097219
40
0.628042586344193
40
0.628042586344193
40
1
40
1
40
1
40
1
41
1
10
42.0587805434612
20
-8.09021468839168
30
0
41
1
10
41.9766126081606
20
-8.09598873278071
30
0
41
1
10
41.894096633241
20
-8.10130832428635
30
0
41
1
10
41.7317767669575
20
-8.11081490520502
30
0
41
1
10
41.6514176992139
20
-8.11503472301803
30
0
41
1
10
41.49577107806
20
-8.12222349082342
30
0
41
1
10
41.4199400027966
20
-8.12521990686096
30
0
41
1
10
41.219734627046
20
-8.13169387031218
30
0
41
1
10
41.1007351939601
20
-8.1338178717161
30
0
41
1
10
40.9981203716825
20
-8.13380026349938
30
0
0
SPLINE
5
2A3
100
AcDbEntity
8
1
62
256
6
ByLayer
370
18
48
1
60
0
100
AcDbSpline
70
4
71
3
72
8
73
4
40
0
40
0
40
0
40
0
40
1
40
1
40
1
40
1
41
1
10
42.7060768987951
20
-8.0425879870362
30
0
41
1
10
42.5917418362529
20
-8.05204260908047
30
0
41
1
10
42.4750917668497
20
-8.06095997394988
30
0
41
1
10
42.3587805434612
20
-8.06913331023159
30
0
0
SPLINE
5
2A4
100
AcDbEntity
8
1
62
256
6
ByLayer
370
18
48
1
60
0
100
AcDbSpline
70
4
71
3
72
14
73
10
40
0
40
0
40
0
40
0
40
0.208995027535852
40
0.208995027535852
40
0.417850725206471
40
0.417850725206471
40
0.626704295977397
40
0.626704295977397
40
1
40
1
40
1
40
1
41
1
10
40.9981203716814
20
-10.8661997365019
30
0
41
1
10
41.0562077150716
20
-10.8661897689894
30
0
41
1
10
41.1193237323134
20
-10.8668559535974
30
0
41
1
10
41.2529850333382
20
-10.8695144526694
30
0
41
1
10
41.3239830856551
20
-10.8715149962074
30
0
41
1
10
41.4714347232615
20
-10.8767769876472
30
0
41
1
10
41.5483929364638
20
-10.8800564212272
30
0
41
1
10
41.7664550970089
20
-10.8907627880224
30
0
41
1
10
41.9134966889726
20
-10.899576032018
30
0
41
1
10
42.0587805434602
20
-10.909785311608
30
0
0
SPLINE
5
2A5
100
AcDbEntity
8
1
62
256
6
ByLayer
370
18
48
1
60
0
100
AcDbSpline
70
4
71
3
72
8
73
4
40
0
40
0
40
0
40
0
40
1
40
1
40
1
40
1
41
1
10
42.3587805434612
20
-10.9308666897687
30
0
41
1
10
42.4750917668497
20
-10.9390400260504
30
0
41
1
10
42.5917418362529
20
-10.9479573909198
30
0
41
1
10
42.7060768987951
20
-10.9574120129641
30
0
0
LINE
5
70
100
AcDbEntity
8
81
62
256
6
ByLayer
370
18
48
1
60
0
100
AcDbLine
10
43.6
20
-11
30
0
11
48.6
21
-11
31
0
39
0
210
0
220
0
230
1
0
LINE
5
71
100
AcDbEntity
8
80
62
256
6
ByLayer
370
18
48
1
60
0
100
AcDbLine
10
0
20
0
30
0
11
-5
21
0
31
0
39
0
210
0
220
0
230
1
0
LINE
5
72
100
AcDbEntity
8
1
62
256
6
ByLayer
370
18
48
1
60
0
100
AcDbLine
10
16
20
-0.75
30
0
11
16
21
-0.675
31
0
39
0
210
0
220
0
230
1
0
LINE
5
74
100
AcDbEntity
8
1
62
256
6
ByLayer
370
18
48
1
60
0
100
AcDbLine
10
16
20
-0.675
30
0
11
15.000019
21
0.324981
31
0
39
0
210
0
220
0
230
1
0
LINE
5
75
100
AcDbEntity
8
1
62
256
6
ByLayer
370
18
48
1
60
0
100
AcDbLine
10
16
20
-0.675
30
0
11
13.51107
21
-0.675
31
0
39
0
210
0
220
0
230
1
0
LINE
5
76
100
AcDbEntity
8
1
62
256
6
ByLayer
370
18
48
1
60
0
100
AcDbLine
10
15.000019
20
0.324981
30
0
11
14.999681
21
0.324981
31
0
39
0
210
0
220
0
230
1
0
LINE
5
77
100
AcDbEntity
8
1
62
256
6
ByLayer
370
13
48
1
60
0
100
AcDbLine
10
35.189581
20
-8.25
30
0
11
35.145758
21
-8.325002
31
0
39
0
210
0
220
0
230
1
0
LINE
5
78
100
AcDbEntity
8
1
62
256
6
ByLayer
370
13
48
1
60
0
100
AcDbLine
10
6.943702
20
-0.394519
30
0
11
6.310523
21
-0.394519
31
0
39
0
210
0
220
0
230
1
0
LINE
5
79
100
AcDbEntity
8
1
62
256
6
ByLayer
370
13
48
1
60
0
100
AcDbLine
10
-6.310523
20
-0.394519
30
0
11
-6.943702
21
-0.394519
31
0
39
0
210
0
220
0
230
1
0
LINE
5
7A
100
AcDbEntity
8
1
62
256
6
ByLayer
370
18
48
1
60
0
100
AcDbLine
10
6.326108
20
0.324981
30
0
11
1.735923
21
0.324981
31
0
39
0
210
0
220
0
230
1
0
LINE
5
7B
100
AcDbEntity
8
1
62
256
6
ByLayer
370
18
48
1
60
0
100
AcDbLine
10
-1.735923
20
0.324981
30
0
11
-6.326108
21
0.324981
31
0
39
0
210
0
220
0
230
1
0
LINE
5
7C
100
AcDbEntity
8
1
62
256
6
ByLayer
370
13
48
1
60
0
100
AcDbLine
10
34.265685
20
-10.674997
30
0
11
34.265685
21
-10.75
31
0
39
0
210
0
220
0
230
1
0
LINE
5
7D
100
AcDbEntity
8
1
62
256
6
ByLayer
370
13
48
1
60
0
100
AcDbLine
10
6.222926
20
0.249981
30
0
11
3.020453
21
0.249981
31
0
39
0
210
0
220
0
230
1
0
LINE
5
7E
100
AcDbEntity
8
1
62
256
6
ByLayer
370
13
48
1
60
0
100
AcDbLine
10
-3.020453
20
0.249981
30
0
11
-6.222926
21
0.249981
31
0
39
0
210
0
220
0
230
1
0
LINE
5
7F
100
AcDbEntity
8
1
62
256
6
ByLayer
370
13
48
1
60
0
100
AcDbLine
10
34.265685
20
-8.325003
30
0
11
34.265685
21
-8.25
31
0
39
0
210
0
220
0
230
1
0
LINE
5
80
100
AcDbEntity
8
1
62
256
6
ByLayer
370
13
48
1
60
0
100
AcDbLine
10
9.395388
20
-0.394519
30
0
11
8.986689
21
-0.394519
31
0
39
0
210
0
220
0
230
1
0
LINE
5
81
100
AcDbEntity
8
1
62
256
6
ByLayer
370
13
48
1
60
0
100
AcDbLine
10
-8.986689
20
-0.394519
30
0
11
-9.395388
21
-0.394519
31
0
39
0
210
0
220
0
230
1
0
LINE
5
82
100
AcDbEntity
8
1
62
256
6
ByLayer
370
18
48
1
60
0
100
AcDbLine
10
8.864082
20
0.324981
30
0
11
6.742242
21
0.324981
31
0
39
0
210
0
220
0
230
1
0
LINE
5
83
100
AcDbEntity
8
1
62
256
6
ByLayer
370
18
48
1
60
0
100
AcDbLine
10
-6.742242
20
0.324981
30
0
11
-8.864082
21
0.324981
31
0
39
0
210
0
220
0
230
1
0
LINE
5
84
100
AcDbEntity
8
1
62
256
6
ByLayer
370
13
48
1
60
0
100
AcDbLine
10
13.371567
20
-0.67
30
0
11
13.371567
21
-10.675
31
0
39
0
210
0
220
0
230
1
0
LINE
5
85
100
AcDbEntity
8
1
62
256
6
ByLayer
370
13
48
1
60
0
100
AcDbLine
10
8.812878
20
0.249981
30
0
11
7.153854
21
0.249981
31
0
39
0
210
0
220
0
230
1
0
LINE
5
86
100
AcDbEntity
8
1
62
256
6
ByLayer
370
13
48
1
60
0
100
AcDbLine
10
-7.153854
20
0.249981
30
0
11
-8.812878
21
0.249981
31
0
39
0
210
0
220
0
230
1
0
LINE
5
87
100
AcDbEntity
8
1
62
256
6
ByLayer
370
13
48
1
60
0
100
AcDbLine
10
1.912242
20
-0.394519
30
0
11
-1.912242
21
-0.394519
31
0
39
0
210
0
220
0
230
1
0
LINE
5
88
100
AcDbEntity
8
1
62
256
6
ByLayer
370
13
48
1
60
0
100
AcDbLine
10
11.127967
20
-0.394519
30
0
11
10.826121
21
-0.394519
31
0
39
0
210
0
220
0
230
1
0
LINE
5
89
100
AcDbEntity
8
1
62
256
6
ByLayer
370
13
48
1
60
0
100
AcDbLine
10
-10.826121
20
-0.394519
30
0
11
-11.127967
21
-0.394519
31
0
39
0
210
0
220
0
230
1
0
LINE
5
8A
100
AcDbEntity
8
1
62
256
6
ByLayer
370
13
48
1
60
0
100
AcDbLine
10
-9.966378
20
0.249981
30
0
11
-10.588147
21
0.249981
31
0
39
0
210
0
220
0
230
1
0
LINE
5
8B
100
AcDbEntity
8
1
62
256
6
ByLayer
370
13
48
1
60
0
100
AcDbLine
10
10.588147
20
0.249981
30
0
11
9.966378
21
0.249981
31
0
39
0
210
0
220
0
230
1
0
LINE
5
8C
100
AcDbEntity
8
1
62
256
6
ByLayer
370
13
48
1
60
0
100
AcDbLine
10
-12.212601
20
-0.394519
30
0
11
-12.44548
21
-0.394519
31
0
39
0
210
0
220
0
230
1
0
LINE
5
8D
100
AcDbEntity
8
1
62
256
6
ByLayer
370
13
48
1
60
0
100
AcDbLine
10
12.44548
20
-0.394519
30
0
11
12.212601
21
-0.394519
31
0
39
0
210
0
220
0
230
1
0
LINE
5
8E
100
AcDbEntity
8
1
62
256
6
ByLayer
370
13
48
1
60
0
100
AcDbLine
10
11.918509
20
0.249981
30
0
11
11.153931
21
0.249981
31
0
39
0
210
0
220
0
230
1
0
LINE
5
8F
100
AcDbEntity
8
1
62
256
6
ByLayer
370
18
48
1
60
0
100
AcDbLine
10
-12.074956
20
0.324981
30
0
11
-12.9317
21
0.324981
31
0
39
0
210
0
220
0
230
1
0
LINE
5
90
100
AcDbEntity
8
1
62
256
6
ByLayer
370
18
48
1
60
0
100
AcDbLine
10
12.9317
20
0.324981
30
0
11
12.074956
21
0.324981
31
0
39
0
210
0
220
0
230
1
0
LINE
5
91
100
AcDbEntity
8
1
62
256
6
ByLayer
370
13
48
1
60
0
100
AcDbLine
10
-11.153931
20
0.249981
30
0
11
-11.918509
21
0.249981
31
0
39
0
210
0
220
0
230
1
0
LINE
5
92
100
AcDbEntity
8
1
62
256
6
ByLayer
370
13
48
1
60
0
100
AcDbLine
10
21.898606
20
-10.675
30
0
11
21.898606
21
-8.325
31
0
39
0
210
0
220
0
230
1
0
LINE
5
93
100
AcDbEntity
8
1
62
256
6
ByLayer
370
13
48
1
60
0
100
AcDbLine
10
-13.288685
20
-0.394519
30
0
11
-13.470275
21
-0.394519
31
0
39
0
210
0
220
0
230
1
0
LINE
5
94
100
AcDbEntity
8
1
62
256
6
ByLayer
370
13
48
1
60
0
100
AcDbLine
10
13.470275
20
-0.394519
30
0
11
13.288685
21
-0.394519
31
0
39
0
210
0
220
0
230
1
0
LINE
5
95
100
AcDbEntity
8
1
62
256
6
ByLayer
370
18
48
1
60
0
100
AcDbLine
10
-11.132078
20
0.324981
30
0
11
-11.287197
21
0.324981
31
0
39
0
210
0
220
0
230
1
0
LINE
5
96
100
AcDbEntity
8
1
62
256
6
ByLayer
370
18
48
1
60
0
100
AcDbLine
10
-13.048061
20
0.324981
30
0
11
-13.703327
21
0.324981
31
0
39
0
210
0
220
0
230
1
0
LINE
5
97
100
AcDbEntity
8
1
62
256
6
ByLayer
370
18
48
1
60
0
100
AcDbLine
10
13.703327
20
0.324981
30
0
11
13.048061
21
0.324981
31
0
39
0
210
0
220
0
230
1
0
LINE
5
98
100
AcDbEntity
8
1
62
256
6
ByLayer
370
18
48
1
60
0
100
AcDbLine
10
11.287197
20
0.324981
30
0
11
11.132078
21
0.324981
31
0
39
0
210
0
220
0
230
1
0
LINE
5
99
100
AcDbEntity
8
1
62
256
6
ByLayer
370
13
48
1
60
0
100
AcDbLine
10
12.941904
20
0.249981
30
0
11
12.261918
21
0.249981
31
0
39
0
210
0
220
0
230
1
0
LINE
5
9A
100
AcDbEntity
8
1
62
256
6
ByLayer
370
13
48
1
60
0
100
AcDbLine
10
-12.261918
20
0.249981
30
0
11
-12.941904
21
0.249981
31
0
39
0
210
0
220
0
230
1
0
LINE
5
9B
100
AcDbEntity
8
1
62
256
6
ByLayer
370
18
48
1
60
0
100
AcDbLine
10
-14.000019
20
0.249981
30
0
11
-14.230116
21
0.019884
31
0
39
0
210
0
220
0
230
1
0
LINE
5
9C
100
AcDbEntity
8
1
62
256
6
ByLayer
370
13
48
1
60
0
100
AcDbLine
10
-14.125544
20
-0.394519
30
0
11
-14.265575
21
-0.394519
31
0
39
0
210
0
220
0
230
1
0
LINE
5
9D
100
AcDbEntity
8
1
62
256
6
ByLayer
370
18
48
1
60
0
100
AcDbLine
10
-9.769771
20
0.324981
30
0
11
-10.247105
21
0.324981
31
0
39
0
210
0
220
0
230
1
0
LINE
5
9E
100
AcDbEntity
8
1
62
256
6
ByLayer
370
18
48
1
60
0
100
AcDbLine
10
-10.810076
20
0.324981
30
0
11
-11.023487
21
0.324981
31
0
39
0
210
0
220
0
230
1
0
LINE
5
9F
100
AcDbEntity
8
1
62
256
6
ByLayer
370
18
48
1
60
0
100
AcDbLine
10
-13.791272
20
0.324981
30
0
11
-13.925019
21
0.324981
31
0
39
0
210
0
220
0
230
1
0
LINE
5
A0
100
AcDbEntity
8
1
62
256
6
ByLayer
370
18
48
1
60
0
100
AcDbLine
10
14.277027
20
0.324981
30
0
11
13.791229
21
0.324981
31
0
39
0
210
0
220
0
230
1
0
LINE
5
A1
100
AcDbEntity
8
1
62
256
6
ByLayer
370
18
48
1
60
0
100
AcDbLine
10
11.023492
20
0.324981
30
0
11
10.810031
21
0.324981
31
0
39
0
210
0
220
0
230
1
0
LINE
5
A2
100
AcDbEntity
8
1
62
256
6
ByLayer
370
18
48
1
60
0
100
AcDbLine
10
10.247047
20
0.324981
30
0
11
9.769771
21
0.324981
31
0
39
0
210
0
220
0
230
1
0
LINE
5
A3
100
AcDbEntity
8
1
62
256
6
ByLayer
370
13
48
1
60
0
100
AcDbLine
10
14.265575
20
-0.394519
30
0
11
14.125544
21
-0.394519
31
0
39
0
210
0
220
0
230
1
0
LINE
5
A4
100
AcDbEntity
8
1
62
256
6
ByLayer
370
13
48
1
60
0
100
AcDbLine
10
-13.206552
20
0.249981
30
0
11
-13.72716
21
0.249981
31
0
39
0
210
0
220
0
230
1
0
LINE
5
A5
100
AcDbEntity
8
1
62
256
6
ByLayer
370
13
48
1
60
0
100
AcDbLine
10
13.72716
20
0.249981
30
0
11
13.206552
21
0.249981
31
0
39
0
210
0
220
0
230
1
0
LINE
5
A6
100
AcDbEntity
8
1
62
256
6
ByLayer
370
13
48
1
60
0
100
AcDbLine
10
14.868253
20
-0.394519
30
0
11
14.763862
21
-0.394519
31
0
39
0
210
0
220
0
230
1
0
LINE
5
A7
100
AcDbEntity
8
1
62
256
6
ByLayer
370
18
48
1
60
0
100
AcDbLine
10
14.676028
20
0.324981
30
0
11
14.34037
21
0.324981
31
0
39
0
210
0
220
0
230
1
0
LINE
5
A8
100
AcDbEntity
8
1
62
256
6
ByLayer
370
13
48
1
60
0
100
AcDbLine
10
-13.927339
20
0.249981
30
0
11
-14.000019
21
0.249981
31
0
39
0
210
0
220
0
230
1
0
LINE
5
A9
100
AcDbEntity
8
1
62
256
6
ByLayer
370
13
48
1
60
0
100
AcDbLine
10
14.313523
20
0.249981
30
0
11
13.927342
21
0.249981
31
0
39
0
210
0
220
0
230
1
0
LINE
5
AA
100
AcDbEntity
8
1
62
256
6
ByLayer
370
18
48
1
60
0
100
AcDbLine
10
14.914359
20
0.324981
30
0
11
14.717118
21
0.324981
31
0
39
0
210
0
220
0
230
1
0
LINE
5
AB
100
AcDbEntity
8
1
62
256
6
ByLayer
370
13
48
1
60
0
100
AcDbLine
10
29.890738
20
-8.325
30
0
11
29.890738
21
-10.675
31
0
39
0
210
0
220
0
230
1
0
LINE
5
AC
100
AcDbEntity
8
1
62
256
6
ByLayer
370
13
48
1
60
0
100
AcDbLine
10
34.890738
20
-10.675
30
0
11
34.890738
21
-8.325
31
0
39
0
210
0
220
0
230
1
0
LINE
5
AD
100
AcDbEntity
8
1
62
256
6
ByLayer
370
18
48
1
60
0
100
AcDbLine
10
14.999681
20
0.324981
30
0
11
14.9346
21
0.324981
31
0
39
0
210
0
220
0
230
1
0
LINE
5
AE
100
AcDbEntity
8
1
62
256
6
ByLayer
370
13
48
1
60
0
100
AcDbLine
10
15.301088
20
-0.394519
30
0
11
15.228676
21
-0.394519
31
0
39
0
210
0
220
0
230
1
0
LINE
5
AF
100
AcDbEntity
8
1
62
256
6
ByLayer
370
13
48
1
60
0
100
AcDbLine
10
14.724773
20
0.249981
30
0
11
14.457757
21
0.249981
31
0
39
0
210
0
220
0
230
1
0
LINE
5
B0
100
AcDbEntity
8
1
62
256
6
ByLayer
370
13
48
1
60
0
100
AcDbLine
10
15.578242
20
-0.394519
30
0
11
15.535623
21
-0.394519
31
0
39
0
210
0
220
0
230
1
0
LINE
5
B1
100
AcDbEntity
8
1
62
256
6
ByLayer
370
13
48
1
60
0
100
AcDbLine
10
14.975345
20
0.249981
30
0
11
14.81846
21
0.249981
31
0
39
0
210
0
220
0
230
1
0
LINE
5
B2
100
AcDbEntity
8
1
62
256
6
ByLayer
370
13
48
1
60
0
100
AcDbLine
10
15.707958
20
-0.394519
30
0
11
15.693845
21
-0.394519
31
0
39
0
210
0
220
0
230
1
0
LINE
5
B3
100
AcDbEntity
8
1
62
256
6
ByLayer
370
13
48
1
60
0
100
AcDbLine
10
15.073254
20
0.249981
30
0
11
15.021423
21
0.249981
31
0
39
0
210
0
220
0
230
1
0
LINE
5
B4
100
AcDbEntity
8
1
62
256
6
ByLayer
370
13
48
1
60
0
100
AcDbLine
10
40.055978
20
-10.75
30
0
11
40.055978
21
-10.326756
31
0
39
0
210
0
220
0
230
1
0
LINE
5
B5
100
AcDbEntity
8
1
62
256
6
ByLayer
370
13
48
1
60
0
100
AcDbLine
10
40.207676
20
-10.334465
30
0
11
40.480446
21
-10.347896
31
0
39
0
210
0
220
0
230
1
0
LINE
5
B6
100
AcDbEntity
8
1
62
256
6
ByLayer
370
13
48
1
60
0
100
AcDbLine
10
40.737538
20
-10.858919
30
0
11
40.716974
21
-10.564845
31
0
39
0
210
0
220
0
230
1
0
LINE
5
B7
100
AcDbEntity
8
1
62
256
6
ByLayer
370
13
48
1
60
0
100
AcDbLine
10
40.737538
20
-8.141081
30
0
11
40.716974
21
-8.435155
31
0
39
0
210
0
220
0
230
1
0
LINE
5
B8
100
AcDbEntity
8
1
62
256
6
ByLayer
370
13
48
1
60
0
100
AcDbLine
10
40.480446
20
-8.652104
30
0
11
40.207676
21
-8.665535
31
0
39
0
210
0
220
0
230
1
0
LINE
5
B9
100
AcDbEntity
8
1
62
256
6
ByLayer
370
13
48
1
60
0
100
AcDbLine
10
40.055978
20
-8.673244
30
0
11
40.055978
21
-8.25
31
0
39
0
210
0
220
0
230
1
0
LINE
5
BA
100
AcDbEntity
8
1
62
256
6
ByLayer
370
13
48
1
60
0
100
AcDbLine
10
40.99812
20
-10.547848
30
0
11
40.99812
21
-10.8662
31
0
39
0
210
0
220
0
230
1
0
LINE
5
BB
100
AcDbEntity
8
1
62
256
6
ByLayer
370
13
48
1
60
0
100
AcDbLine
10
42.058781
20
-10.664424
30
0
11
42.058781
21
-10.909785
31
0
39
0
210
0
220
0
230
1
0
LINE
5
BC
100
AcDbEntity
8
1
62
256
6
ByLayer
370
13
48
1
60
0
100
AcDbLine
10
42.058781
20
-8.335576
30
0
11
42.058781
21
-8.090215
31
0
39
0
210
0
220
0
230
1
0
LINE
5
BD
100
AcDbEntity
8
1
62
256
6
ByLayer
370
13
48
1
60
0
100
AcDbLine
10
40.99812
20
-8.452152
30
0
11
40.99812
21
-8.1338
31
0
39
0
210
0
220
0
230
1
0
LINE
5
BE
100
AcDbEntity
8
1
62
256
6
ByLayer
370
13
48
1
60
0
100
AcDbLine
10
40.480446
20
-10.347896
30
0
11
40.630516
21
-10.193729
31
0
39
0
210
0
220
0
230
1
0
LINE
5
BF
100
AcDbEntity
8
1
62
256
6
ByLayer
370
13
48
1
60
0
100
AcDbLine
10
40.630516
20
-8.806271
30
0
11
40.480446
21
-8.652104
31
0
39
0
210
0
220
0
230
1
0
LINE
5
C0
100
AcDbEntity
8
1
62
256
6
ByLayer
370
13
48
1
60
0
100
AcDbLine
10
40.207676
20
-10.334465
30
0
11
40.221372
21
-10.05631
31
0
39
0
210
0
220
0
230
1
0
LINE
5
C1
100
AcDbEntity
8
1
62
256
6
ByLayer
370
13
48
1
60
0
100
AcDbLine
10
40.451055
20
-10.06762
30
0
11
40.221372
21
-10.05631
31
0
39
0
210
0
220
0
230
1
0
LINE
5
C2
100
AcDbEntity
8
1
62
256
6
ByLayer
370
13
48
1
60
0
100
AcDbLine
10
40.221372
20
-8.94369
30
0
11
40.451055
21
-8.93238
31
0
39
0
210
0
220
0
230
1
0
LINE
5
C3
100
AcDbEntity
8
1
62
256
6
ByLayer
370
13
48
1
60
0
100
AcDbLine
10
40.221372
20
-8.94369
30
0
11
40.207676
21
-8.665535
31
0
39
0
210
0
220
0
230
1
0
LINE
5
C4
100
AcDbEntity
8
1
62
256
6
ByLayer
370
13
48
1
60
0
100
AcDbLine
10
40.893328
20
-10.54953
30
0
11
40.915472
21
-10.866214
31
0
39
0
210
0
220
0
230
1
0
LINE
5
C5
100
AcDbEntity
8
1
62
256
6
ByLayer
370
13
48
1
60
0
100
AcDbLine
10
40.893328
20
-8.45047
30
0
11
40.915472
21
-8.133786
31
0
39
0
210
0
220
0
230
1
0
LINE
5
C6
100
AcDbEntity
8
1
62
256
6
ByLayer
370
13
48
1
60
0
100
AcDbLine
10
40.464379
20
-8.94369
30
0
11
40.221372
21
-8.94369
31
0
39
0
210
0
220
0
230
1
0
LINE
5
C7
100
AcDbEntity
8
1
62
256
6
ByLayer
370
13
48
1
60
0
100
AcDbLine
10
40.464379
20
-10.05631
30
0
11
40.221372
21
-10.05631
31
0
39
0
210
0
220
0
230
1
0
LINE
5
C8
100
AcDbEntity
8
1
62
256
6
ByLayer
370
13
48
1
60
0
100
AcDbLine
10
39.987574
20
-10.326756
30
0
11
40.055978
21
-10.326756
31
0
39
0
210
0
220
0
230
1
0
LINE
5
C9
100
AcDbEntity
8
1
62
256
6
ByLayer
370
13
48
1
60
0
100
AcDbLine
10
39.987574
20
-8.673244
30
0
11
40.055978
21
-8.673244
31
0
39
0
210
0
220
0
230
1
0
LINE
5
CA
100
AcDbEntity
8
1
62
256
6
ByLayer
370
13
48
1
60
0
100
AcDbLine
10
39.987574
20
-8.25
30
0
11
39.987574
21
-8.673244
31
0
39
0
210
0
220
0
230
1
0
LINE
5
CB
100
AcDbEntity
8
1
62
256
6
ByLayer
370
13
48
1
60
0
100
AcDbLine
10
39.987574
20
-10.326756
30
0
11
39.987574
21
-10.75
31
0
39
0
210
0
220
0
230
1
0
LINE
5
CC
100
AcDbEntity
8
1
62
256
6
ByLayer
370
13
48
1
60
0
100
AcDbLine
10
39.263912
20
-10.75
30
0
11
39.263912
21
-10.633917
31
0
39
0
210
0
220
0
230
1
0
LINE
5
CD
100
AcDbEntity
8
1
62
256
6
ByLayer
370
13
48
1
60
0
100
AcDbLine
10
39.263912
20
-8.366083
30
0
11
39.263912
21
-8.25
31
0
39
0
210
0
220
0
230
1
0
LINE
5
CE
100
AcDbEntity
8
1
62
256
6
ByLayer
370
13
48
1
60
0
100
AcDbLine
10
41.714687
20
-8.680616
30
0
11
41.811268
21
-8.984159
31
0
39
0
210
0
220
0
230
1
0
LINE
5
CF
100
AcDbEntity
8
1
62
256
6
ByLayer
370
13
48
1
60
0
100
AcDbLine
10
41.714687
20
-10.319384
30
0
11
41.811268
21
-10.015841
31
0
39
0
210
0
220
0
230
1
0
LINE
5
D0
100
AcDbEntity
8
1
62
256
6
ByLayer
370
13
48
1
60
0
100
AcDbLine
10
39.06942
20
-9.132002
30
0
11
39.379442
21
-9.132002
31
0
39
0
210
0
220
0
230
1
0
LINE
5
D1
100
AcDbEntity
8
1
62
256
6
ByLayer
370
13
48
1
60
0
100
AcDbLine
10
39.015611
20
-8.68149
30
0
11
39.06942
21
-9.132002
31
0
39
0
210
0
220
0
230
1
0
LINE
5
D2
100
AcDbEntity
8
1
62
256
6
ByLayer
370
13
48
1
60
0
100
AcDbLine
10
39.177267
20
-8.424016
30
0
11
38.984859
21
-8.424016
31
0
39
0
210
0
220
0
230
1
0
LINE
5
D3
100
AcDbEntity
8
1
62
256
6
ByLayer
370
13
48
1
60
0
100
AcDbLine
10
39.177267
20
-10.575984
30
0
11
38.984859
21
-10.575984
31
0
39
0
210
0
220
0
230
1
0
LINE
5
D4
100
AcDbEntity
8
1
62
256
6
ByLayer
370
13
48
1
60
0
100
AcDbLine
10
39.015611
20
-10.31851
30
0
11
39.06942
21
-9.867998
31
0
39
0
210
0
220
0
230
1
0
LINE
5
D5
100
AcDbEntity
8
1
62
256
6
ByLayer
370
13
48
1
60
0
100
AcDbLine
10
39.06942
20
-9.867998
30
0
11
39.379442
21
-9.867998
31
0
39
0
210
0
220
0
230
1
0
LINE
5
D6
100
AcDbEntity
8
1
62
256
6
ByLayer
370
13
48
1
60
0
100
AcDbLine
10
39.172358
20
-8.25
30
0
11
39.172358
21
-8.374098
31
0
39
0
210
0
220
0
230
1
0
LINE
5
D7
100
AcDbEntity
8
1
62
256
6
ByLayer
370
13
48
1
60
0
100
AcDbLine
10
39.172358
20
-10.625902
30
0
11
39.172358
21
-10.75
31
0
39
0
210
0
220
0
230
1
0
LINE
5
D8
100
AcDbEntity
8
1
62
256
6
ByLayer
370
13
48
1
60
0
100
AcDbLine
10
41.811268
20
-8.984159
30
0
11
41.811268
21
-10.015841
31
0
39
0
210
0
220
0
230
1
0
LINE
5
D9
100
AcDbEntity
8
1
62
256
6
ByLayer
370
13
48
1
60
0
100
AcDbLine
10
38.98199
20
-8.374562
30
0
11
39.170595
21
-8.374562
31
0
39
0
210
0
220
0
230
1
0
LINE
5
DA
100
AcDbEntity
8
1
62
256
6
ByLayer
370
13
48
1
60
0
100
AcDbLine
10
38.98199
20
-8.25
30
0
11
38.98199
21
-8.374562
31
0
39
0
210
0
220
0
230
1
0
LINE
5
DB
100
AcDbEntity
8
1
62
256
6
ByLayer
370
13
48
1
60
0
100
AcDbLine
10
38.98199
20
-10.75
30
0
11
38.98199
21
-10.625438
31
0
39
0
210
0
220
0
230
1
0
LINE
5
DC
100
AcDbEntity
8
1
62
256
6
ByLayer
370
13
48
1
60
0
100
AcDbLine
10
38.98199
20
-10.625438
30
0
11
39.170595
21
-10.625438
31
0
39
0
210
0
220
0
230
1
0
LINE
5
DD
100
AcDbEntity
8
1
62
256
6
ByLayer
370
13
48
1
60
0
100
AcDbLine
10
43.600117
20
-8.735234
30
0
11
43.525685
21
-8.735234
31
0
39
0
210
0
220
0
230
1
0
LINE
5
DE
100
AcDbEntity
8
1
62
256
6
ByLayer
370
13
48
1
60
0
100
AcDbLine
10
43.135516
20
-8.426294
30
0
11
43.135516
21
-8.007825
31
0
39
0
210
0
220
0
230
1
0
LINE
5
DF
100
AcDbEntity
8
1
62
256
6
ByLayer
370
13
48
1
60
0
100
AcDbLine
10
43.135516
20
-10.573706
30
0
11
43.135516
21
-10.992175
31
0
39
0
210
0
220
0
230
1
0
LINE
5
E0
100
AcDbEntity
8
1
62
256
6
ByLayer
370
13
48
1
60
0
100
AcDbLine
10
43.600117
20
-10.264766
30
0
11
43.525685
21
-10.264766
31
0
39
0
210
0
220
0
230
1
0
LINE
5
E1
100
AcDbEntity
8
1
62
256
6
ByLayer
370
13
48
1
60
0
100
AcDbLine
10
43.06476
20
-8.012928
30
0
11
43.06476
21
-8.373678
31
0
39
0
210
0
220
0
230
1
0
LINE
5
E2
100
AcDbEntity
8
1
62
256
6
ByLayer
370
13
48
1
60
0
100
AcDbLine
10
42.706077
20
-8.325131
30
0
11
42.706077
21
-8.042588
31
0
39
0
210
0
220
0
230
1
0
LINE
5
E3
100
AcDbEntity
8
1
62
256
6
ByLayer
370
13
48
1
60
0
100
AcDbLine
10
42.706077
20
-10.674869
30
0
11
42.706077
21
-10.957412
31
0
39
0
210
0
220
0
230
1
0
LINE
5
E4
100
AcDbEntity
8
1
62
256
6
ByLayer
370
13
48
1
60
0
100
AcDbLine
10
43.06476
20
-10.987072
30
0
11
43.06476
21
-10.626322
31
0
39
0
210
0
220
0
230
1
0
LINE
5
E5
100
AcDbEntity
8
1
62
256
6
ByLayer
370
13
48
1
60
0
100
AcDbLine
10
39.106333
20
-9.248976
30
0
11
39.466184
21
-9.248976
31
0
39
0
210
0
220
0
230
1
0
LINE
5
E6
100
AcDbEntity
8
1
62
256
6
ByLayer
370
13
48
1
60
0
100
AcDbLine
10
39.106333
20
-9.751024
30
0
11
39.466184
21
-9.751024
31
0
39
0
210
0
220
0
230
1
0
LINE
5
E7
100
AcDbEntity
8
1
62
256
6
ByLayer
370
13
48
1
60
0
100
AcDbLine
10
42.358781
20
-10.678409
30
0
11
42.358781
21
-10.930867
31
0
39
0
210
0
220
0
230
1
0
LINE
5
E8
100
AcDbEntity
8
1
62
256
6
ByLayer
370
13
48
1
60
0
100
AcDbLine
10
42.358781
20
-8.321591
30
0
11
42.358781
21
-8.069133
31
0
39
0
210
0
220
0
230
1
0
LINE
5
E9
100
AcDbEntity
8
1
62
256
6
ByLayer
370
13
48
1
60
0
100
AcDbLine
10
35.566112
20
-10.675001
30
0
11
35.566112
21
-10.75
31
0
39
0
210
0
220
0
230
1
0
LINE
5
EA
100
AcDbEntity
8
1
62
256
6
ByLayer
370
13
48
1
60
0
100
AcDbLine
10
38.974468
20
-10.625438
30
0
11
38.98199
21
-10.625438
31
0
39
0
210
0
220
0
230
1
0
LINE
5
EB
100
AcDbEntity
8
1
62
256
6
ByLayer
370
13
48
1
60
0
100
AcDbLine
10
38.974468
20
-8.374562
30
0
11
38.98199
21
-8.374562
31
0
39
0
210
0
220
0
230
1
0
LINE
5
EC
100
AcDbEntity
8
1
62
256
6
ByLayer
370
13
48
1
60
0
100
AcDbLine
10
35.566112
20
-8.324999
30
0
11
35.566112
21
-8.25
31
0
39
0
210
0
220
0
230
1
0
LINE
5
ED
100
AcDbEntity
8
1
62
256
6
ByLayer
370
13
48
1
60
0
100
AcDbLine
10
39.000093
20
-9.867998
30
0
11
39.06942
21
-9.867998
31
0
39
0
210
0
220
0
230
1
0
LINE
5
EE
100
AcDbEntity
8
1
62
256
6
ByLayer
370
13
48
1
60
0
100
AcDbLine
10
39.000093
20
-9.132002
30
0
11
39.06942
21
-9.132002
31
0
39
0
210
0
220
0
230
1
0
LINE
5
EF
100
AcDbEntity
8
1
62
256
6
ByLayer
370
13
48
1
60
0
100
AcDbLine
10
39.14904
20
-9.299244
30
0
11
39.587507
21
-9.299244
31
0
39
0
210
0
220
0
230
1
0
LINE
5
F0
100
AcDbEntity
8
1
62
256
6
ByLayer
370
13
48
1
60
0
100
AcDbLine
10
39.14904
20
-9.700756
30
0
11
39.587507
21
-9.700756
31
0
39
0
210
0
220
0
230
1
0
LINE
5
F1
100
AcDbEntity
8
1
62
256
6
ByLayer
370
13
48
1
60
0
100
AcDbLine
10
42.42193
20
-8.608704
30
0
11
42.411268
21
-8.911944
31
0
39
0
210
0
220
0
230
1
0
LINE
5
F2
100
AcDbEntity
8
1
62
256
6
ByLayer
370
13
48
1
60
0
100
AcDbLine
10
42.42193
20
-10.391296
30
0
11
42.411268
21
-10.088056
31
0
39
0
210
0
220
0
230
1
0
LINE
5
F3
100
AcDbEntity
8
1
62
256
6
ByLayer
370
13
48
1
60
0
100
AcDbLine
10
43.544165
20
-10.07839
30
0
11
43.597026
21
-10.07839
31
0
39
0
210
0
220
0
230
1
0
LINE
5
F4
100
AcDbEntity
8
1
62
256
6
ByLayer
370
13
48
1
60
0
100
AcDbLine
10
43.544165
20
-8.92161
30
0
11
43.597026
21
-8.92161
31
0
39
0
210
0
220
0
230
1
0
LINE
5
F5
100
AcDbEntity
8
1
62
256
6
ByLayer
370
13
48
1
60
0
100
AcDbLine
10
43.548049
20
-10.23707
30
0
11
43.6
21
-10.23707
31
0
39
0
210
0
220
0
230
1
0
LINE
5
F6
100
AcDbEntity
8
1
62
256
6
ByLayer
370
13
48
1
60
0
100
AcDbLine
10
43.597026
20
-10.07839
30
0
11
43.597026
21
-8.92161
31
0
39
0
210
0
220
0
230
1
0
LINE
5
F7
100
AcDbEntity
8
1
62
256
6
ByLayer
370
13
48
1
60
0
100
AcDbLine
10
43.548049
20
-8.76293
30
0
11
43.6
21
-8.76293
31
0
39
0
210
0
220
0
230
1
0
LINE
5
F8
100
AcDbEntity
8
1
62
256
6
ByLayer
370
13
48
1
60
0
100
AcDbLine
10
39.152254
20
-9.697335
30
0
11
39.596489
21
-9.697335
31
0
39
0
210
0
220
0
230
1
0
LINE
5
F9
100
AcDbEntity
8
1
62
256
6
ByLayer
370
13
48
1
60
0
100
AcDbLine
10
39.152254
20
-9.302665
30
0
11
39.596489
21
-9.302665
31
0
39
0
210
0
220
0
230
1
0
LINE
5
FA
100
AcDbEntity
8
1
62
256
6
ByLayer
370
13
48
1
60
0
100
AcDbLine
10
43.544165
20
-8.92161
30
0
11
43.544165
21
-10.07839
31
0
39
0
210
0
220
0
230
1
0
LINE
5
FB
100
AcDbEntity
8
1
62
256
6
ByLayer
370
13
48
1
60
0
100
AcDbLine
10
43.021373
20
-8.910924
30
0
11
43.021373
21
-10.089076
31
0
39
0
210
0
220
0
230
1
0
LINE
5
FC
100
AcDbEntity
8
1
62
256
6
ByLayer
370
13
48
1
60
0
100
AcDbLine
10
39.14904
20
-9.700756
30
0
11
39.152254
21
-9.697335
31
0
39
0
210
0
220
0
230
1
0
LINE
5
FD
100
AcDbEntity
8
1
62
256
6
ByLayer
370
13
48
1
60
0
100
AcDbLine
10
39.14904
20
-9.299244
30
0
11
39.152254
21
-9.302665
31
0
39
0
210
0
220
0
230
1
0
LINE
5
FE
100
AcDbEntity
8
1
62
256
6
ByLayer
370
13
48
1
60
0
100
AcDbLine
10
42.411268
20
-8.911944
30
0
11
42.411268
21
-10.088056
31
0
39
0
210
0
220
0
230
1
0
LINE
5
FF
100
AcDbEntity
8
1
62
256
6
ByLayer
370
13
48
1
60
0
100
AcDbLine
10
38.993871
20
-9.248976
30
0
11
39.106333
21
-9.248976
31
0
39
0
210
0
220
0
230
1
0
LINE
5
100
100
AcDbEntity
8
1
62
256
6
ByLayer
370
13
48
1
60
0
100
AcDbLine
10
38.993871
20
-9.751024
30
0
11
39.106333
21
-9.751024
31
0
39
0
210
0
220
0
230
1
0
LINE
5
101
100
AcDbEntity
8
1
62
256
6
ByLayer
370
13
48
1
60
0
100
AcDbLine
10
38.992089
20
-9.299244
30
0
11
39.14904
21
-9.299244
31
0
39
0
210
0
220
0
230
1
0
LINE
5
102
100
AcDbEntity
8
1
62
256
6
ByLayer
370
13
48
1
60
0
100
AcDbLine
10
38.992089
20
-9.700756
30
0
11
39.14904
21
-9.700756
31
0
39
0
210
0
220
0
230
1
0
LINE
5
103
100
AcDbEntity
8
1
62
256
6
ByLayer
370
13
48
1
60
0
100
AcDbLine
10
38.991978
20
-9.697335
30
0
11
39.152254
21
-9.697335
31
0
39
0
210
0
220
0
230
1
0
LINE
5
104
100
AcDbEntity
8
1
62
256
6
ByLayer
370
13
48
1
60
0
100
AcDbLine
10
38.991978
20
-9.302665
30
0
11
39.152254
21
-9.302665
31
0
39
0
210
0
220
0
230
1
0
LINE
5
105
100
AcDbEntity
8
1
62
256
6
ByLayer
370
13
48
1
60
0
100
AcDbLine
10
35.189581
20
-10.75
30
0
11
35.145758
21
-10.674998
31
0
39
0
210
0
220
0
230
1
0
LINE
5
106
100
AcDbEntity
8
1
62
256
6
ByLayer
370
13
48
1
60
0
100
AcDbLine
10
33.7
20
-8.276795
30
0
11
33.7
21
-8.325035
31
0
39
0
210
0
220
0
230
1
0
LINE
5
107
100
AcDbEntity
8
1
62
256
6
ByLayer
370
13
48
1
60
0
100
AcDbLine
10
33.7
20
-10.674965
30
0
11
33.7
21
-10.723205
31
0
39
0
210
0
220
0
230
1
0
LINE
5
108
100
AcDbEntity
8
1
62
256
6
ByLayer
370
18
48
1
60
0
100
AcDbLine
10
38.95928
20
-8.325
30
0
11
34.890738
21
-8.325
31
0
39
0
210
0
220
0
230
1
0
LINE
5
109
100
AcDbEntity
8
1
62
256
6
ByLayer
370
18
48
1
60
0
100
AcDbLine
10
34.890738
20
-8.325
30
0
11
29.890738
21
-8.325
31
0
39
0
210
0
220
0
230
1
0
LINE
5
10A
100
AcDbEntity
8
1
62
256
6
ByLayer
370
18
48
1
60
0
100
AcDbLine
10
38.95928
20
-10.675
30
0
11
34.890738
21
-10.675
31
0
39
0
210
0
220
0
230
1
0
LINE
5
10B
100
AcDbEntity
8
1
62
256
6
ByLayer
370
18
48
1
60
0
100
AcDbLine
10
34.890738
20
-10.675
30
0
11
29.890738
21
-10.675
31
0
39
0
210
0
220
0
230
1
0
LINE
5
10C
100
AcDbEntity
8
1
62
256
6
ByLayer
370
18
48
1
60
0
100
AcDbLine
10
29.890738
20
-10.675
30
0
11
21.898606
21
-10.675
31
0
39
0
210
0
220
0
230
1
0
LINE
5
10D
100
AcDbEntity
8
1
62
256
6
ByLayer
370
18
48
1
60
0
100
AcDbLine
10
29.890738
20
-8.325
30
0
11
21.898606
21
-8.325
31
0
39
0
210
0
220
0
230
1
0
LINE
5
10E
100
AcDbEntity
8
1
62
256
6
ByLayer
370
18
48
1
60
0
100
AcDbLine
10
38.95928
20
-8.325
30
0
11
39.015611
21
-8.508431
31
0
39
0
210
0
220
0
230
1
0
LINE
5
10F
100
AcDbEntity
8
1
62
256
6
ByLayer
370
18
48
1
60
0
100
AcDbLine
10
39.015611
20
-10.491569
30
0
11
38.95928
21
-10.675
31
0
39
0
210
0
220
0
230
1
0
LINE
5
110
100
AcDbEntity
8
1
62
256
6
ByLayer
370
18
48
1
60
0
100
AcDbLine
10
39.015611
20
-8.978186
30
0
11
39.015611
21
-8.508431
31
0
39
0
210
0
220
0
230
1
0
LINE
5
111
100
AcDbEntity
8
1
62
256
6
ByLayer
370
18
48
1
60
0
100
AcDbLine
10
-11.287177
20
0.324981
30
0
11
-11.923781
21
0.324981
31
0
39
0
210
0
220
0
230
1
0
LINE
5
112
100
AcDbEntity
8
1
62
256
6
ByLayer
370
18
48
1
60
0
100
AcDbLine
10
-10.247044
20
0.324981
30
0
11
-10.612458
21
0.324981
31
0
39
0
210
0
220
0
230
1
0
LINE
5
113
100
AcDbEntity
8
1
62
256
6
ByLayer
370
18
48
1
60
0
100
AcDbLine
10
1.735945
20
0.324981
30
0
11
-1.735945
21
0.324981
31
0
39
0
210
0
220
0
230
1
0
LINE
5
114
100
AcDbEntity
8
1
62
256
6
ByLayer
370
18
48
1
60
0
100
AcDbLine
10
14.717168
20
0.324981
30
0
11
14.676028
21
0.324981
31
0
39
0
210
0
220
0
230
1
0
LINE
5
115
100
AcDbEntity
8
1
62
256
6
ByLayer
370
18
48
1
60
0
100
AcDbLine
10
9.132847
20
0.324981
30
0
11
8.864082
21
0.324981
31
0
39
0
210
0
220
0
230
1
0
LINE
5
116
100
AcDbEntity
8
1
62
256
6
ByLayer
370
18
48
1
60
0
100
AcDbLine
10
-11.132078
20
0.324981
30
0
11
-11.023467
21
0.324981
31
0
39
0
210
0
220
0
230
1
0
LINE
5
117
100
AcDbEntity
8
1
62
256
6
ByLayer
370
18
48
1
60
0
100
AcDbLine
10
14.934615
20
0.324981
30
0
11
14.914359
21
0.324981
31
0
39
0
210
0
220
0
230
1
0
LINE
5
118
100
AcDbEntity
8
1
62
256
6
ByLayer
370
18
48
1
60
0
100
AcDbLine
10
10.612458
20
0.324981
30
0
11
10.247044
21
0.324981
31
0
39
0
210
0
220
0
230
1
0
LINE
5
119
100
AcDbEntity
8
1
62
256
6
ByLayer
370
18
48
1
60
0
100
AcDbLine
10
-6.326108
20
0.324981
30
0
11
-6.742492
21
0.324981
31
0
39
0
210
0
220
0
230
1
0
LINE
5
11A
100
AcDbEntity
8
1
62
256
6
ByLayer
370
18
48
1
60
0
100
AcDbLine
10
10.810022
20
0.324981
30
0
11
10.612458
21
0.324981
31
0
39
0
210
0
220
0
230
1
0
LINE
5
11B
100
AcDbEntity
8
1
62
256
6
ByLayer
370
18
48
1
60
0
100
AcDbLine
10
13.791289
20
0.324981
30
0
11
13.703327
21
0.324981
31
0
39
0
210
0
220
0
230
1
0
LINE
5
11C
100
AcDbEntity
8
1
62
256
6
ByLayer
370
18
48
1
60
0
100
AcDbLine
10
-9.769771
20
0.324981
30
0
11
-9.404549
21
0.324981
31
0
39
0
210
0
220
0
230
1
0
LINE
5
11D
100
AcDbEntity
8
1
62
256
6
ByLayer
370
18
48
1
60
0
100
AcDbLine
10
-10.612458
20
0.324981
30
0
11
-10.810022
21
0.324981
31
0
39
0
210
0
220
0
230
1
0
LINE
5
11E
100
AcDbEntity
8
1
62
256
6
ByLayer
370
18
48
1
60
0
100
AcDbLine
10
-13.703327
20
0.324981
30
0
11
-13.791289
21
0.324981
31
0
39
0
210
0
220
0
230
1
0
LINE
5
11F
100
AcDbEntity
8
1
62
256
6
ByLayer
370
18
48
1
60
0
100
AcDbLine
10
14.340409
20
0.324981
30
0
11
14.277027
21
0.324981
31
0
39
0
210
0
220
0
230
1
0
LINE
5
120
100
AcDbEntity
8
1
62
256
6
ByLayer
370
18
48
1
60
0
100
AcDbLine
10
13.048064
20
0.324981
30
0
11
12.9317
21
0.324981
31
0
39
0
210
0
220
0
230
1
0
LINE
5
121
100
AcDbEntity
8
1
62
256
6
ByLayer
370
18
48
1
60
0
100
AcDbLine
10
12.074944
20
0.324981
30
0
11
11.923781
21
0.324981
31
0
39
0
210
0
220
0
230
1
0
LINE
5
122
100
AcDbEntity
8
1
62
256
6
ByLayer
370
18
48
1
60
0
100
AcDbLine
10
6.742492
20
0.324981
30
0
11
6.326108
21
0.324981
31
0
39
0
210
0
220
0
230
1
0
LINE
5
123
100
AcDbEntity
8
1
62
256
6
ByLayer
370
18
48
1
60
0
100
AcDbLine
10
11.132078
20
0.324981
30
0
11
11.023467
21
0.324981
31
0
39
0
210
0
220
0
230
1
0
LINE
5
124
100
AcDbEntity
8
1
62
256
6
ByLayer
370
18
48
1
60
0
100
AcDbLine
10
-12.9317
20
0.324981
30
0
11
-13.048064
21
0.324981
31
0
39
0
210
0
220
0
230
1
0
LINE
5
125
100
AcDbEntity
8
1
62
256
6
ByLayer
370
18
48
1
60
0
100
AcDbLine
10
-11.923781
20
0.324981
30
0
11
-12.074944
21
0.324981
31
0
39
0
210
0
220
0
230
1
0
LINE
5
126
100
AcDbEntity
8
1
62
256
6
ByLayer
370
18
48
1
60
0
100
AcDbLine
10
11.923781
20
0.324981
30
0
11
11.287177
21
0.324981
31
0
39
0
210
0
220
0
230
1
0
LINE
5
127
100
AcDbEntity
8
1
62
256
6
ByLayer
370
18
48
1
60
0
100
AcDbLine
10
-8.864082
20
0.324981
30
0
11
-9.132847
21
0.324981
31
0
39
0
210
0
220
0
230
1
0
LINE
5
128
100
AcDbEntity
8
1
62
256
6
ByLayer
370
18
48
1
60
0
100
AcDbLine
10
9.769771
20
0.324981
30
0
11
9.404549
21
0.324981
31
0
39
0
210
0
220
0
230
1
0
LINE
5
129
100
AcDbEntity
8
1
62
256
6
ByLayer
370
18
48
1
60
0
100
AcDbLine
10
-0.178855
20
-10.675
30
0
11
-0.178855
21
-0.67
31
0
39
0
210
0
220
0
230
1
0
LINE
5
12A
100
AcDbEntity
8
1
62
256
6
ByLayer
370
18
48
1
60
0
100
AcDbLine
10
0.178855
20
-10.675
30
0
11
0.178855
21
-0.67
31
0
39
0
210
0
220
0
230
1
0
LINE
5
12B
100
AcDbEntity
8
1
62
256
6
ByLayer
370
18
48
1
60
0
100
AcDbLine
10
-15
20
-10.675
30
0
11
-15
21
-0.75
31
0
39
0
210
0
220
0
230
1
0
LINE
5
12C
100
AcDbEntity
8
1
62
256
6
ByLayer
370
18
48
1
60
0
100
AcDbLine
10
-15
20
-0.75
30
0
11
-14.92
21
-0.67
31
0
39
0
210
0
220
0
230
1
0
LINE
5
12D
100
AcDbEntity
8
1
62
256
6
ByLayer
370
18
48
1
60
0
100
AcDbLine
10
16
20
-0.75
30
0
11
16
21
-6.725
31
0
39
0
210
0
220
0
230
1
0
LINE
5
12E
100
AcDbEntity
8
1
62
256
6
ByLayer
370
18
48
1
60
0
100
AcDbLine
10
-13.925019
20
0.324981
30
0
11
-14.000019
21
0.249981
31
0
39
0
210
0
220
0
230
1
0
LINE
5
12F
100
AcDbEntity
8
1
62
256
6
ByLayer
370
18
48
1
60
0
100
AcDbLine
10
0.178855
20
-10.675
30
0
11
13.371567
21
-10.675
31
0
39
0
210
0
220
0
230
1
0
LINE
5
130
100
AcDbEntity
8
1
62
256
6
ByLayer
370
18
48
1
60
0
100
AcDbLine
10
-15
20
-10.675
30
0
11
-0.178855
21
-10.675
31
0
39
0
210
0
220
0
230
1
0
LINE
5
131
100
AcDbEntity
8
1
62
256
6
ByLayer
370
18
48
1
60
0
100
AcDbLine
10
13.371567
20
-10.675
30
0
11
21.898606
21
-10.675
31
0
39
0
210
0
220
0
230
1
0
LINE
5
132
100
AcDbEntity
8
1
62
256
6
ByLayer
370
18
48
1
60
0
100
AcDbLine
10
13.51107
20
-0.675
30
0
11
13.51107
21
-0.75
31
0
39
0
210
0
220
0
230
1
0
LINE
5
133
100
AcDbEntity
8
1
62
256
6
ByLayer
370
18
48
1
60
0
100
AcDbLine
10
-0.178855
20
-10.675
30
0
11
0.178855
21
-10.675
31
0
39
0
210
0
220
0
230
1
0
LINE
5
134
100
AcDbEntity
8
1
62
256
6
ByLayer
370
18
48
1
60
0
100
AcDbLine
10
17.6
20
-8.325
30
0
11
21.898606
21
-8.325
31
0
39
0
210
0
220
0
230
1
0
LINE
5
135
100
AcDbEntity
8
1
62
256
6
ByLayer
370
18
48
1
60
0
100
AcDbLine
10
-0.178855
20
-0.67
30
0
11
-14.92
21
-0.67
31
0
39
0
210
0
220
0
230
1
0
LINE
5
136
100
AcDbEntity
8
1
62
256
6
ByLayer
370
18
48
1
60
0
100
AcDbLine
10
13.371567
20
-0.67
30
0
11
0.178855
21
-0.67
31
0
39
0
210
0
220
0
230
1
0
LINE
5
137
100
AcDbEntity
8
1
62
256
6
ByLayer
370
18
48
1
60
0
100
AcDbLine
10
13.51107
20
-0.75
30
0
11
16
21
-0.75
31
0
39
0
210
0
220
0
230
1
0
LINE
5
138
100
AcDbEntity
8
1
62
256
6
ByLayer
370
18
48
1
60
0
100
AcDbLine
10
39.015611
20
-10.491569
30
0
11
39.015611
21
-10.021814
31
0
39
0
210
0
220
0
230
1
0
LINE
5
139
100
AcDbEntity
8
1
62
256
6
ByLayer
370
18
48
1
60
0
100
AcDbLine
10
43.600117
20
-8.735234
30
0
11
43.604691
21
-8.194444
31
0
39
0
210
0
220
0
230
1
0
LINE
5
13A
100
AcDbEntity
8
1
62
256
6
ByLayer
370
18
48
1
60
0
100
AcDbLine
10
43.6
20
-10.23707
30
0
11
43.6
21
-8.76293
31
0
39
0
210
0
220
0
230
1
0
LINE
5
13B
100
AcDbEntity
8
1
62
256
6
ByLayer
370
18
48
1
60
0
100
AcDbLine
10
40.29752
20
-8.192091
30
0
11
40.24436
21
-8.222783
31
0
39
0
210
0
220
0
230
1
0
LINE
5
13C
100
AcDbEntity
8
1
62
256
6
ByLayer
370
18
48
1
60
0
100
AcDbLine
10
33.8
20
-10.75
30
0
11
34.265685
21
-10.75
31
0
39
0
210
0
220
0
230
1
0
LINE
5
13D
100
AcDbEntity
8
1
62
256
6
ByLayer
370
18
48
1
60
0
100
AcDbLine
10
35.189581
20
-8.25
30
0
11
34.265685
21
-8.25
31
0
39
0
210
0
220
0
230
1
0
LINE
5
13E
100
AcDbEntity
8
1
62
256
6
ByLayer
370
18
48
1
60
0
100
AcDbLine
10
39.263912
20
-10.75
30
0
11
39.987574
21
-10.75
31
0
39
0
210
0
220
0
230
1
0
LINE
5
13F
100
AcDbEntity
8
1
62
256
6
ByLayer
370
18
48
1
60
0
100
AcDbLine
10
34.265685
20
-10.75
30
0
11
35.189581
21
-10.75
31
0
39
0
210
0
220
0
230
1
0
LINE
5
140
100
AcDbEntity
8
1
62
256
6
ByLayer
370
18
48
1
60
0
100
AcDbLine
10
40.99812
20
-8.1338
30
0
11
40.915472
21
-8.133786
31
0
39
0
210
0
220
0
230
1
0
LINE
5
141
100
AcDbEntity
8
1
62
256
6
ByLayer
370
18
48
1
60
0
100
AcDbLine
10
40.395343
20
-10.834991
30
0
11
40.737538
21
-10.858919
31
0
39
0
210
0
220
0
230
1
0
LINE
5
142
100
AcDbEntity
8
1
62
256
6
ByLayer
370
18
48
1
60
0
100
AcDbLine
10
35.566112
20
-8.25
30
0
11
35.247775
21
-8.25
31
0
39
0
210
0
220
0
230
1
0
LINE
5
143
100
AcDbEntity
8
1
62
256
6
ByLayer
370
18
48
1
60
0
100
AcDbLine
10
43.135516
20
-10.992175
30
0
11
43.395632
21
-11.008204
31
0
39
0
210
0
220
0
230
1
0
LINE
5
144
100
AcDbEntity
8
1
62
256
6
ByLayer
370
18
48
1
60
0
100
AcDbLine
10
35.566112
20
-10.75
30
0
11
38.98199
21
-10.75
31
0
39
0
210
0
220
0
230
1
0
LINE
5
145
100
AcDbEntity
8
1
62
256
6
ByLayer
370
18
48
1
60
0
100
AcDbLine
10
39.987574
20
-8.25
30
0
11
39.263912
21
-8.25
31
0
39
0
210
0
220
0
230
1
0
LINE
5
146
100
AcDbEntity
8
1
62
256
6
ByLayer
370
18
48
1
60
0
100
AcDbLine
10
43.06476
20
-8.012928
30
0
11
42.706077
21
-8.042588
31
0
39
0
210
0
220
0
230
1
0
LINE
5
147
100
AcDbEntity
8
1
62
256
6
ByLayer
370
18
48
1
60
0
100
AcDbLine
10
38.98199
20
-8.25
30
0
11
35.566112
21
-8.25
31
0
39
0
210
0
220
0
230
1
0
LINE
5
148
100
AcDbEntity
8
1
62
256
6
ByLayer
370
18
48
1
60
0
100
AcDbLine
10
40.153398
20
-10.75
30
0
11
40.055978
21
-10.75
31
0
39
0
210
0
220
0
230
1
0
LINE
5
149
100
AcDbEntity
8
1
62
256
6
ByLayer
370
18
48
1
60
0
100
AcDbLine
10
35.247775
20
-10.75
30
0
11
35.566112
21
-10.75
31
0
39
0
210
0
220
0
230
1
0
LINE
5
14A
100
AcDbEntity
8
1
62
256
6
ByLayer
370
18
48
1
60
0
100
AcDbLine
10
40.055978
20
-8.25
30
0
11
39.987574
21
-8.25
31
0
39
0
210
0
220
0
230
1
0
LINE
5
14B
100
AcDbEntity
8
1
62
256
6
ByLayer
370
18
48
1
60
0
100
AcDbLine
10
43.395632
20
-7.991796
30
0
11
43.135516
21
-8.007825
31
0
39
0
210
0
220
0
230
1
0
LINE
5
14C
100
AcDbEntity
8
1
62
256
6
ByLayer
370
18
48
1
60
0
100
AcDbLine
10
42.058781
20
-10.909785
30
0
11
42.358781
21
-10.930867
31
0
39
0
210
0
220
0
230
1
0
LINE
5
14D
100
AcDbEntity
8
1
62
256
6
ByLayer
370
18
48
1
60
0
100
AcDbLine
10
40.254705
20
-10.777118
30
0
11
40.309449
21
-10.808724
31
0
39
0
210
0
220
0
230
1
0
LINE
5
14E
100
AcDbEntity
8
1
62
256
6
ByLayer
370
18
48
1
60
0
100
AcDbLine
10
39.987574
20
-10.75
30
0
11
40.055978
21
-10.75
31
0
39
0
210
0
220
0
230
1
0
LINE
5
14F
100
AcDbEntity
8
1
62
256
6
ByLayer
370
18
48
1
60
0
100
AcDbLine
10
42.706077
20
-10.957412
30
0
11
43.06476
21
-10.987072
31
0
39
0
210
0
220
0
230
1
0
LINE
5
150
100
AcDbEntity
8
1
62
256
6
ByLayer
370
18
48
1
60
0
100
AcDbLine
10
40.915472
20
-10.866214
30
0
11
40.99812
21
-10.8662
31
0
39
0
210
0
220
0
230
1
0
LINE
5
151
100
AcDbEntity
8
1
62
256
6
ByLayer
370
18
48
1
60
0
100
AcDbLine
10
39.172358
20
-8.25
30
0
11
38.98199
21
-8.25
31
0
39
0
210
0
220
0
230
1
0
LINE
5
152
100
AcDbEntity
8
1
62
256
6
ByLayer
370
18
48
1
60
0
100
AcDbLine
10
35.189581
20
-10.75
30
0
11
35.235194
21
-10.75
31
0
39
0
210
0
220
0
230
1
0
LINE
5
153
100
AcDbEntity
8
1
62
256
6
ByLayer
370
18
48
1
60
0
100
AcDbLine
10
42.358781
20
-8.069133
30
0
11
42.058781
21
-8.090215
31
0
39
0
210
0
220
0
230
1
0
LINE
5
154
100
AcDbEntity
8
1
62
256
6
ByLayer
370
18
48
1
60
0
100
AcDbLine
10
40.737538
20
-8.141081
30
0
11
40.38336
21
-8.165847
31
0
39
0
210
0
220
0
230
1
0
LINE
5
155
100
AcDbEntity
8
1
62
256
6
ByLayer
370
18
48
1
60
0
100
AcDbLine
10
39.263912
20
-8.25
30
0
11
39.172358
21
-8.25
31
0
39
0
210
0
220
0
230
1
0
LINE
5
156
100
AcDbEntity
8
1
62
256
6
ByLayer
370
18
48
1
60
0
100
AcDbLine
10
39.172358
20
-10.75
30
0
11
39.263912
21
-10.75
31
0
39
0
210
0
220
0
230
1
0
LINE
5
157
100
AcDbEntity
8
1
62
256
6
ByLayer
370
18
48
1
60
0
100
AcDbLine
10
35.235194
20
-8.25
30
0
11
35.189581
21
-8.25
31
0
39
0
210
0
220
0
230
1
0
LINE
5
158
100
AcDbEntity
8
1
62
256
6
ByLayer
370
18
48
1
60
0
100
AcDbLine
10
43.604691
20
-10.805556
30
0
11
43.600117
21
-10.264766
31
0
39
0
210
0
220
0
230
1
0
LINE
5
159
100
AcDbEntity
8
1
62
256
6
ByLayer
370
18
48
1
60
0
100
AcDbLine
10
40.055978
20
-8.25
30
0
11
40.142652
21
-8.25
31
0
39
0
210
0
220
0
230
1
0
LINE
5
15A
100
AcDbEntity
8
1
62
256
6
ByLayer
370
18
48
1
60
0
100
AcDbLine
10
38.98199
20
-10.75
30
0
11
39.172358
21
-10.75
31
0
39
0
210
0
220
0
230
1
0
LINE
5
15B
100
AcDbEntity
8
1
62
256
6
ByLayer
370
18
48
1
60
0
100
AcDbLine
10
34.265685
20
-8.25
30
0
11
33.8
21
-8.25
31
0
39
0
210
0
220
0
230
1
0
MTEXT
5
2A6
100
AcDbEntity
8
SK6
62
256
6
ByLayer
370
18
48
1
60
0
100
AcDbMText
10
-17.325
20
-56.018508
30
0
210
0
220
0
230
1
1
\W0.7806;SL-QD-RGG26C32
40
3.5
41
0
44
1.084337
50
0
71
7
72
5
7
iso_b_vert
0
DIMENSION
5
2B8
100
AcDbEntity
8
SK2
62
256
6
ByLayer
370
13
48
1
60
0
100
AcDbDimension
2
DimnDraft3D1
10
43.6
20
23.321553
30
0
11
17.507895
21
23.321553
31
0
70
32
71
5
72
1
41
1
210
0
220
0
230
1
3
Standard
100
AcDbAlignedDimension
13
0
23
2
33
0
14
43.6
24
-9
34
0
50
0
100
AcDbRotatedDimension
1001
ACAD
1000
DSTYLE
1002
{
1070
   279
1070
     0
1070
   172
1070
     1
1070
   173
1070
     1
1070
   340
1005
2A7
1070
   271
1070
     1
1070
    77
1070
     1
1070
    73
1070
     0
1070
   171
1070
     3
1070
   274
1070
     4
1070
   177
1070
     2
1070
   176
1070
     2
1070
   178
1070
     7
1070
    78
1070
     8
1070
    41
1041
3.175
1070
   147
1041
1.75
1070
    42
1041
2.0
1070
    44
1041
2.0
1070
   140
1041
3.5
1070
   343
1005
2B9
1070
   344
1005
2B9
1002
}
0
DIMENSION
5
2CE
100
AcDbEntity
8
2
62
256
6
ByLayer
370
13
48
1
60
0
100
AcDbDimension
2
DimnDraft3D2
10
17.6
20
-24.108569
30
0
11
28.509211
21
-24.108569
31
0
70
32
71
5
72
1
41
1
210
0
220
0
230
1
3
Standard
100
AcDbAlignedDimension
13
43.6
23
-13
33
0
14
17.6
24
-2
34
0
50
0
100
AcDbRotatedDimension
1001
ACAD
1000
DSTYLE
1002
{
1070
   279
1070
     0
1070
   172
1070
     1
1070
   173
1070
     1
1070
   340
1005
2A7
1070
   271
1070
     1
1070
    77
1070
     1
1070
    73
1070
     0
1070
   171
1070
     3
1070
   274
1070
     4
1070
   177
1070
     2
1070
   176
1070
     2
1070
   178
1070
     7
1070
    78
1070
     8
1070
    41
1041
3.175
1070
   147
1041
1.75
1070
    42
1041
2.0
1070
    44
1041
2.0
1070
   140
1041
3.5
1070
   343
1005
2B9
1070
   344
1005
2B9
1002
}
0
DIMENSION
5
2DC
100
AcDbEntity
8
2
62
256
6
ByLayer
370
13
48
1
60
0
100
AcDbDimension
2
DimnDraft3D3
10
68.7
20
-11
30
0
11
68.7
21
-6.715789
31
0
70
32
71
5
72
1
41
1
210
0
220
0
230
1
3
Standard
100
AcDbAlignedDimension
13
36.6
23
0
33
0
14
45.6
24
-11
34
0
50
90
100
AcDbRotatedDimension
1001
ACAD
1000
DSTYLE
1002
{
1070
    74
1070
     0
1070
   279
1070
     0
1070
   172
1070
     1
1070
   173
1070
     1
1070
   340
1005
2A7
1070
   271
1070
     1
1070
    77
1070
     1
1070
    73
1070
     0
1070
   171
1070
     3
1070
   274
1070
     4
1070
   177
1070
     2
1070
   176
1070
     2
1070
   178
1070
     7
1070
    78
1070
     8
1070
    41
1041
3.175
1070
   147
1041
1.75
1070
    42
1041
2.0
1070
    44
1041
2.0
1070
   140
1041
3.5
1070
   343
1005
2B9
1070
   344
1005
2B9
1002
}
0
DIMENSION
5
2EA
100
AcDbEntity
8
2
62
256
6
ByLayer
370
13
48
1
60
0
100
AcDbDimension
2
DimnDraft3D4
10
61.7
20
-8
30
0
11
61.7
21
-22.820789
31
0
70
32
71
5
72
1
41
1
210
0
220
0
230
1
3
Standard
100
AcDbAlignedDimension
13
45.6
23
-11
33
0
14
45.6
24
-8
34
0
50
90
100
AcDbRotatedDimension
1001
ACAD
1000
DSTYLE
1002
{
1070
    74
1070
     0
1070
   279
1070
     0
1070
   172
1070
     1
1070
   173
1070
     1
1070
   340
1005
2A7
1070
   271
1070
     1
1070
    77
1070
     1
1070
    73
1070
     0
1070
   171
1070
     3
1070
   274
1070
     4
1070
   177
1070
     2
1070
   176
1070
     2
1070
   178
1070
     7
1070
    78
1070
     8
1070
    41
1041
3.175
1070
   147
1041
1.75
1070
    42
1041
2.0
1070
    44
1041
2.0
1070
   140
1041
3.5
1070
   343
1005
2B9
1070
   344
1005
2B9
1002
}
0
ENDSEC
0
SECTION
2
OBJECTS
0
DICTIONARY
5
353
330
0
100
AcDbDictionary
280
0
281
1
3
ACAD_GROUP
350
354
3
ACAD_MLINESTYLE
350
355
0
DICTIONARY
5
354
330
0
100
AcDbDictionary
280
0
281
1
0
DICTIONARY
5
355
330
0
100
AcDbDictionary
280
0
281
1
3
Standard
350
18
0
MLINESTYLE
5
18
330
355
100
AcDbMlineStyle
2
Standard
70
0
3

62
256
51
90
52
90
71
2
49
-0.5
62
256
6
ByLayer
49
0.5
62
256
6
ByLayer
0
RASTERVARIABLES
5
343
330

100
AcDbRasterVariables
90
0
70
1
71
1
72
1
0
ENDSEC
0
EOF
