0
SECTION
2
HEADER
9
$ACADVER
1
AC1015
9
$DWGCODEPAGE
3
ANSI_1252
9
$HANDSEED
5
34e
9
$ANGBASE
50
0
9
$ANGDIR
70
0
9
$ATTMODE
70
1
9
$AUNITS
70
0
9
$AUPREC
70
0
9
$CECOLOR
62
256
9
$CELTSCALE
40
1
9
$CELTYPE
6
ByLayer
9
$CELWEIGHT
370
18
9
$CLAYER
8
0
9
$CMLJUST
70
0
9
$CMLSCALE
40
1
9
$CMLSTYLE
2
Standard
9
$DIMSTYLE
2
Standard
9
$TEXTSIZE
40
0.2
9
$TEXTSTYLE
7
Standard
9
$LUNITS
70
2
9
$LUPREC
70
4
9
$EXTNAMES
290
1
9
$INSUNITS
70
4
9
$LTSCALE
40
1
9
$LWDISPLAY
290
1
9
$PDMODE
70
0
9
$PDSIZE
40
0
9
$PLINEGEN
70
0
0
ENDSEC
0
SECTION
2
CLASSES
0
CLASS
1
RASTERVARIABLES
2
AcDbRasterVariables
3
ISM
90
0
280
0
281
0
0
ENDSEC
0
SECTION
2
TABLES
0
TABLE
2
VPORT
5
344
100
AcDbSymbolTable
0
VPORT
5
1
100
AcDbSymbolTableRecord
100
AcDbViewportTableRecord
2
*Active
70
0
10
0
20
0
11
1
21
1
12
-1
22
1
13
0
23
0
14
0.5
24
0.5
15
10
25
10
16
0
26
0
36
1
17
0
27
0
37
0
0
ENDTAB
0
TABLE
2
LTYPE
5
345
100
AcDbSymbolTable
0
LTYPE
5
14
100
AcDbSymbolTableRecord
100
AcDbLinetypeTableRecord
70
0
2
ByBlock
3

72
65
73
0
40
0
0
LTYPE
5
15
100
AcDbSymbolTableRecord
100
AcDbLinetypeTableRecord
70
0
2
ByLayer
3

72
65
73
0
40
0
0
LTYPE
5
16
100
AcDbSymbolTableRecord
100
AcDbLinetypeTableRecord
70
0
2
CONTINUOUS
3
Solid line
72
65
73
0
40
0
0
LTYPE
5
6A
100
AcDbSymbolTableRecord
100
AcDbLinetypeTableRecord
70
0
2
CENTER
3
____ _ ____ _ ____ _ ____
72
65
73
4
40
47.5
49
22
74
0
49
-8.5
74
0
49
8.5
74
0
49
-8.5
74
0
0
LTYPE
5
6B
100
AcDbSymbolTableRecord
100
AcDbLinetypeTableRecord
70
0
2
DASHED
3
__ __ __ __ __ __ __ __ __
72
65
73
2
40
25.72
49
12.86
74
0
49
-12.86
74
0
0
ENDTAB
0
TABLE
2
LAYER
5
346
100
AcDbSymbolTable
0
LAYER
5
10
100
AcDbSymbolTableRecord
100
AcDbLayerTableRecord
2
0
70
0
62
7
6
CONTINUOUS
290
1
370
-3
390
0
0
LAYER
5
6D
100
AcDbSymbolTableRecord
100
AcDbLayerTableRecord
2
81
70
0
62
-3
6
CONTINUOUS
290
1
370
-3
390
0
0
LAYER
5
6F
100
AcDbSymbolTableRecord
100
AcDbLayerTableRecord
2
80
70
0
62
-6
6
CONTINUOUS
290
1
370
-3
390
0
0
LAYER
5
73
100
AcDbSymbolTableRecord
100
AcDbLayerTableRecord
2
1
70
0
62
4
6
CONTINUOUS
290
1
370
-3
390
0
0
LAYER
5
2B0
100
AcDbSymbolTableRecord
100
AcDbLayerTableRecord
2
2
70
0
62
7
6
CONTINUOUS
290
1
370
-3
390
0
0
LAYER
5
332
100
AcDbSymbolTableRecord
100
AcDbLayerTableRecord
2
SK6
70
0
62
5
6
CONTINUOUS
290
1
370
-3
390
0
0
LAYER
5
333
100
AcDbSymbolTableRecord
100
AcDbLayerTableRecord
2
SK2
70
0
62
7
6
CONTINUOUS
290
1
370
-3
390
0
0
ENDTAB
0
TABLE
2
STYLE
5
347
100
AcDbSymbolTable
0
STYLE
5
11
100
AcDbSymbolTableRecord
100
AcDbTextStyleTableRecord
2
Standard
3
txt
70
0
71
0
40
0
41
1
42
0
50
0
0
STYLE
5
295
100
AcDbSymbolTableRecord
100
AcDbTextStyleTableRecord
2
iso_b_vert
3
simplex.shx
70
0
71
0
40
0
41
1
42
0
50
0
0
STYLE
5
296
100
AcDbSymbolTableRecord
100
AcDbTextStyleTableRecord
2
DWGDirectTextStyle
3
simplex
70
0
71
0
40
0
41
1
42
0
50
0
0
ENDTAB
0
TABLE
2
DIMSTYLE
5
348
100
AcDbSymbolTable
100
AcDbDimStyleTable
0
DIMSTYLE
105
27
100
AcDbSymbolTableRecord
100
AcDbDimStyleTableRecord
2
Standard
70
0
3
<>
41
0.18
42
0.0625
44
0.18
140
0.18
147
0.09
73
0
74
0
77
1
271
2
275
0
278
52
280
0
340
11
0
ENDTAB
0
TABLE
2
VIEW
5
349
100
AcDbSymbolTable
0
ENDTAB
0
TABLE
2
UCS
5
34a
100
AcDbSymbolTable
0
ENDTAB
0
TABLE
2
APPID
5
34b
100
AcDbSymbolTable
0
APPID
5
12
100
AcDbSymbolTableRecord
100
AcDbRegAppTableRecord
2
ACAD
70
0
0
ENDTAB
0
TABLE
2
BLOCK_RECORD
5
34c
100
AcDbSymbolTable
0
BLOCK_RECORD
5
1F
100
AcDbSymbolTableRecord
100
AcDbBlockTableRecord
2
*Model_Space
340
0
70
0
0
BLOCK_RECORD
5
1B
100
AcDbSymbolTableRecord
100
AcDbBlockTableRecord
2
*Paper_Space
340
0
70
0
0
BLOCK_RECORD
5
23
100
AcDbSymbolTableRecord
100
AcDbBlockTableRecord
2
*Paper_Space0
340
0
70
0
0
BLOCK_RECORD
5
298
100
AcDbSymbolTableRecord
100
AcDbBlockTableRecord
2
DimnDraft3D1
340
0
70
0
0
BLOCK_RECORD
5
2A7
100
AcDbSymbolTableRecord
100
AcDbBlockTableRecord
2
_CLOSED
340
0
70
0
0
BLOCK_RECORD
5
2AE
100
AcDbSymbolTableRecord
100
AcDbBlockTableRecord
2
DimnDraft3D2
340
0
70
0
0
BLOCK_RECORD
5
2BD
100
AcDbSymbolTableRecord
100
AcDbBlockTableRecord
2
DimnDraft3D3
340
0
70
0
0
BLOCK_RECORD
5
2CB
100
AcDbSymbolTableRecord
100
AcDbBlockTableRecord
2
DimnDraft3D4
340
0
70
0
0
ENDTAB
0
ENDSEC
0
SECTION
2
BLOCKS
0
BLOCK
5
20
100
AcDbEntity
8
0
100
AcDbBlockBegin
2
*Model_Space
70
0
10
0
20
0
30
0
3
*Model_Space
0
ENDBLK
5
21
100
AcDbEntity
8
0
100
AcDbBlockEnd
0
BLOCK
5
1C
100
AcDbEntity
8
0
100
AcDbBlockBegin
2
*Paper_Space
70
0
10
0
20
0
30
0
3
*Paper_Space
0
ENDBLK
5
1D
100
AcDbEntity
8
0
100
AcDbBlockEnd
0
BLOCK
5
24
100
AcDbEntity
8
0
100
AcDbBlockBegin
2
*Paper_Space0
70
0
10
0
20
0
30
0
3
*Paper_Space0
0
ENDBLK
5
25
100
AcDbEntity
8
0
100
AcDbBlockEnd
0
BLOCK
5
2A4
100
AcDbEntity
8
0
100
AcDbBlockBegin
2
DimnDraft3D1
70
0
10
0
20
0
30
0
3
DimnDraft3D1
0
MTEXT
5
299
100
AcDbEntity
8
SK2
62
256
6
ByLayer
370
18
48
1
60
0
100
AcDbMText
10
14.782895
20
24.558524
30
0
210
0
220
0
230
1
1
\W0.7528;36.4
40
3.5
41
0
44
1.084337
50
0
71
7
72
5
7
iso_b_vert
0
LINE
5
29B
100
AcDbEntity
8
SK2
62
256
6
ByLayer
370
13
48
1
60
0
100
AcDbLine
10
0
20
2
30
0
11
0
21
25.683524
31
0
39
0
210
0
220
0
230
1
0
LINE
5
29C
100
AcDbEntity
8
SK2
62
256
6
ByLayer
370
13
48
1
60
0
100
AcDbLine
10
36.4
20
-7
30
0
11
36.4
21
25.683524
31
0
39
0
210
0
220
0
230
1
0
LINE
5
29D
100
AcDbEntity
8
SK2
62
256
6
ByLayer
370
13
48
1
60
0
100
AcDbLine
10
0
20
23.683524
30
0
11
36.4
21
23.683524
31
0
39
0
210
0
220
0
230
1
0
LINE
5
29E
100
AcDbEntity
8
SK2
62
256
6
ByLayer
370
13
48
1
60
0
100
AcDbLine
10
0
20
23.683524
30
0
11
3.174998
21
24.10152
31
0
39
0
210
0
220
0
230
1
0
LINE
5
29F
100
AcDbEntity
8
SK2
62
256
6
ByLayer
370
13
48
1
60
0
100
AcDbLine
10
0
20
23.683524
30
0
11
3.175002
21
23.265527
31
0
39
0
210
0
220
0
230
1
0
LINE
5
2A0
100
AcDbEntity
8
SK2
62
256
6
ByLayer
370
13
48
1
60
0
100
AcDbLine
10
3.174998
20
24.10152
30
0
11
3.175002
21
23.265527
31
0
39
0
210
0
220
0
230
1
0
LINE
5
2A1
100
AcDbEntity
8
SK2
62
256
6
ByLayer
370
13
48
1
60
0
100
AcDbLine
10
36.4
20
23.683524
30
0
11
33.225002
21
23.265527
31
0
39
0
210
0
220
0
230
1
0
LINE
5
2A2
100
AcDbEntity
8
SK2
62
256
6
ByLayer
370
13
48
1
60
0
100
AcDbLine
10
36.4
20
23.683524
30
0
11
33.224998
21
24.10152
31
0
39
0
210
0
220
0
230
1
0
LINE
5
2A3
100
AcDbEntity
8
SK2
62
256
6
ByLayer
370
13
48
1
60
0
100
AcDbLine
10
33.225002
20
23.265527
30
0
11
33.224998
21
24.10152
31
0
39
0
210
0
220
0
230
1
0
ENDBLK
5
2A5
100
AcDbEntity
8
0
100
AcDbBlockEnd
0
BLOCK
5
2A8
100
AcDbEntity
8
0
100
AcDbBlockBegin
2
_CLOSED
70
0
10
0
20
0
30
0
3
_CLOSED
0
LINE
5
2AA
100
AcDbEntity
8
0
62
256
6
ByLayer
370
-2
48
1
60
0
100
AcDbLine
10
-1
20
0.166667
30
0
11
0
21
0
31
0
39
0
210
0
220
0
230
1
0
LINE
5
2AB
100
AcDbEntity
8
0
62
256
6
ByLayer
370
-2
48
1
60
0
100
AcDbLine
10
0
20
0
30
0
11
-1
21
-0.166667
31
0
39
0
210
0
220
0
230
1
0
LINE
5
2AC
100
AcDbEntity
8
0
62
256
6
ByLayer
370
-2
48
1
60
0
100
AcDbLine
10
-1
20
0.166667
30
0
11
-1
21
-0.166667
31
0
39
0
210
0
220
0
230
1
0
LINE
5
2AD
100
AcDbEntity
8
0
62
256
6
ByLayer
370
-2
48
1
60
0
100
AcDbLine
10
0
20
0
30
0
11
-1
21
0
31
0
39
0
210
0
220
0
230
1
0
ENDBLK
5
2A9
100
AcDbEntity
8
0
100
AcDbBlockEnd
0
BLOCK
5
2BA
100
AcDbEntity
8
0
100
AcDbBlockBegin
2
DimnDraft3D2
70
0
10
0
20
0
30
0
3
DimnDraft3D2
0
MTEXT
5
2AF
100
AcDbEntity
8
2
62
256
6
ByLayer
370
18
48
1
60
0
100
AcDbMText
10
24.184211
20
-21.225049
30
0
210
0
220
0
230
1
1
\W0.6740;22
40
3.5
41
0
44
1.084337
50
0
71
7
72
5
7
iso_b_vert
0
LINE
5
2B1
100
AcDbEntity
8
2
62
256
6
ByLayer
370
13
48
1
60
0
100
AcDbLine
10
36.4
20
-11
30
0
11
36.4
21
-24.100049
31
0
39
0
210
0
220
0
230
1
0
LINE
5
2B2
100
AcDbEntity
8
2
62
256
6
ByLayer
370
13
48
1
60
0
100
AcDbLine
10
14.4
20
-2
30
0
11
14.4
21
-24.100049
31
0
39
0
210
0
220
0
230
1
0
LINE
5
2B3
100
AcDbEntity
8
2
62
256
6
ByLayer
370
13
48
1
60
0
100
AcDbLine
10
36.4
20
-22.100049
30
0
11
14.4
21
-22.100049
31
0
39
0
210
0
220
0
230
1
0
LINE
5
2B4
100
AcDbEntity
8
2
62
256
6
ByLayer
370
13
48
1
60
0
100
AcDbLine
10
36.4
20
-22.100049
30
0
11
33.225002
21
-22.518045
31
0
39
0
210
0
220
0
230
1
0
LINE
5
2B5
100
AcDbEntity
8
2
62
256
6
ByLayer
370
13
48
1
60
0
100
AcDbLine
10
36.4
20
-22.100049
30
0
11
33.224998
21
-21.682052
31
0
39
0
210
0
220
0
230
1
0
LINE
5
2B6
100
AcDbEntity
8
2
62
256
6
ByLayer
370
13
48
1
60
0
100
AcDbLine
10
33.225002
20
-22.518045
30
0
11
33.224998
21
-21.682052
31
0
39
0
210
0
220
0
230
1
0
LINE
5
2B7
100
AcDbEntity
8
2
62
256
6
ByLayer
370
13
48
1
60
0
100
AcDbLine
10
14.4
20
-22.100049
30
0
11
17.574998
21
-21.682052
31
0
39
0
210
0
220
0
230
1
0
LINE
5
2B8
100
AcDbEntity
8
2
62
256
6
ByLayer
370
13
48
1
60
0
100
AcDbLine
10
14.4
20
-22.100049
30
0
11
17.575002
21
-22.518045
31
0
39
0
210
0
220
0
230
1
0
LINE
5
2B9
100
AcDbEntity
8
2
62
256
6
ByLayer
370
13
48
1
60
0
100
AcDbLine
10
17.574998
20
-21.682052
30
0
11
17.575002
21
-22.518045
31
0
39
0
210
0
220
0
230
1
0
ENDBLK
5
2BB
100
AcDbEntity
8
0
100
AcDbBlockEnd
0
BLOCK
5
2C8
100
AcDbEntity
8
0
100
AcDbBlockBegin
2
DimnDraft3D3
70
0
10
0
20
0
30
0
3
DimnDraft3D3
0
MTEXT
5
2BE
100
AcDbEntity
8
2
62
256
6
ByLayer
370
18
48
1
60
0
100
AcDbMText
10
60.625
20
-4.407895
30
0
210
0
220
0
230
1
1
\W0.5742;9
40
3.5
41
0
44
1.084337
50
90
71
7
72
5
7
iso_b_vert
0
LINE
5
2BF
100
AcDbEntity
8
2
62
256
6
ByLayer
370
13
48
1
60
0
100
AcDbLine
10
29.4
20
0
30
0
11
63.5
21
0
31
0
39
0
210
0
220
0
230
1
0
LINE
5
2C0
100
AcDbEntity
8
2
62
256
6
ByLayer
370
13
48
1
60
0
100
AcDbLine
10
38.4
20
-9
30
0
11
63.5
21
-9
31
0
39
0
210
0
220
0
230
1
0
LINE
5
2C1
100
AcDbEntity
8
2
62
256
6
ByLayer
370
13
48
1
60
0
100
AcDbLine
10
61.5
20
8.75
30
0
11
61.5
21
-17.75
31
0
39
0
210
0
220
0
230
1
0
LINE
5
2C2
100
AcDbEntity
8
2
62
256
6
ByLayer
370
13
48
1
60
0
100
AcDbLine
10
61.5
20
0
30
0
11
61.082003
21
3.174998
31
0
39
0
210
0
220
0
230
1
0
LINE
5
2C3
100
AcDbEntity
8
2
62
256
6
ByLayer
370
13
48
1
60
0
100
AcDbLine
10
61.5
20
0
30
0
11
61.917997
21
3.175002
31
0
39
0
210
0
220
0
230
1
0
LINE
5
2C4
100
AcDbEntity
8
2
62
256
6
ByLayer
370
13
48
1
60
0
100
AcDbLine
10
61.082003
20
3.174998
30
0
11
61.917997
21
3.175002
31
0
39
0
210
0
220
0
230
1
0
LINE
5
2C5
100
AcDbEntity
8
2
62
256
6
ByLayer
370
13
48
1
60
0
100
AcDbLine
10
61.5
20
-9
30
0
11
61.917997
21
-12.174998
31
0
39
0
210
0
220
0
230
1
0
LINE
5
2C6
100
AcDbEntity
8
2
62
256
6
ByLayer
370
13
48
1
60
0
100
AcDbLine
10
61.5
20
-9
30
0
11
61.082003
21
-12.175002
31
0
39
0
210
0
220
0
230
1
0
LINE
5
2C7
100
AcDbEntity
8
2
62
256
6
ByLayer
370
13
48
1
60
0
100
AcDbLine
10
61.917997
20
-12.174998
30
0
11
61.082003
21
-12.175002
31
0
39
0
210
0
220
0
230
1
0
ENDBLK
5
2C9
100
AcDbEntity
8
0
100
AcDbBlockEnd
0
BLOCK
5
2D6
100
AcDbEntity
8
0
100
AcDbBlockBegin
2
DimnDraft3D4
70
0
10
0
20
0
30
0
3
DimnDraft3D4
0
MTEXT
5
2CC
100
AcDbEntity
8
2
62
256
6
ByLayer
370
18
48
1
60
0
100
AcDbMText
10
53.625
20
-19.945789
30
0
210
0
220
0
230
1
1
\W0.5404;2
40
3.5
41
0
44
1.084337
50
90
71
7
72
5
7
iso_b_vert
0
LINE
5
2CD
100
AcDbEntity
8
2
62
256
6
ByLayer
370
13
48
1
60
0
100
AcDbLine
10
38.4
20
-9
30
0
11
56.5
21
-9
31
0
39
0
210
0
220
0
230
1
0
LINE
5
2CE
100
AcDbEntity
8
2
62
256
6
ByLayer
370
13
48
1
60
0
100
AcDbLine
10
38.4
20
-7
30
0
11
56.5
21
-7
31
0
39
0
210
0
220
0
230
1
0
LINE
5
2CF
100
AcDbEntity
8
2
62
256
6
ByLayer
370
13
48
1
60
0
100
AcDbLine
10
54.5
20
1.75
30
0
11
54.5
21
-20.820789
31
0
39
0
210
0
220
0
230
1
0
LINE
5
2D0
100
AcDbEntity
8
2
62
256
6
ByLayer
370
13
48
1
60
0
100
AcDbLine
10
54.5
20
-9
30
0
11
54.917997
21
-12.174998
31
0
39
0
210
0
220
0
230
1
0
LINE
5
2D1
100
AcDbEntity
8
2
62
256
6
ByLayer
370
13
48
1
60
0
100
AcDbLine
10
54.5
20
-9
30
0
11
54.082003
21
-12.175002
31
0
39
0
210
0
220
0
230
1
0
LINE
5
2D2
100
AcDbEntity
8
2
62
256
6
ByLayer
370
13
48
1
60
0
100
AcDbLine
10
54.917997
20
-12.174998
30
0
11
54.082003
21
-12.175002
31
0
39
0
210
0
220
0
230
1
0
LINE
5
2D3
100
AcDbEntity
8
2
62
256
6
ByLayer
370
13
48
1
60
0
100
AcDbLine
10
54.5
20
-7
30
0
11
54.082003
21
-3.825002
31
0
39
0
210
0
220
0
230
1
0
LINE
5
2D4
100
AcDbEntity
8
2
62
256
6
ByLayer
370
13
48
1
60
0
100
AcDbLine
10
54.5
20
-7
30
0
11
54.917997
21
-3.824998
31
0
39
0
210
0
220
0
230
1
0
LINE
5
2D5
100
AcDbEntity
8
2
62
256
6
ByLayer
370
13
48
1
60
0
100
AcDbLine
10
54.082003
20
-3.825002
30
0
11
54.917997
21
-3.824998
31
0
39
0
210
0
220
0
230
1
0
ENDBLK
5
2D7
100
AcDbEntity
8
0
100
AcDbBlockEnd
0
ENDSEC
0
SECTION
2
ENTITIES
0
ELLIPSE
5
158
100
AcDbEntity
8
1
62
256
6
ByLayer
370
13
48
1
60
0
100
AcDbEllipse
10
28.474248
20
-7.130414
30
0
11
0.979582052571682
21
-0.301726209262203
31
0
210
0
220
0
230
-1
40
0.270086
41
1.98807590274645
42
2.1163924420908
0
ELLIPSE
5
159
100
AcDbEntity
8
1
62
256
6
ByLayer
370
13
48
1
60
0
100
AcDbEllipse
10
28.474248
20
-8.869586
30
0
11
0.979582052539552
21
0.301726209258478
31
0
210
0
220
0
230
-1
40
0.270086
41
-2.11639244208315
42
-1.98807590273534
0
ELLIPSE
5
15A
100
AcDbEntity
8
1
62
256
6
ByLayer
370
13
48
1
60
0
100
AcDbEllipse
10
28.474248
20
-8.869586
30
0
11
0.998914191350714
21
0.226032306443476
31
0
210
0
220
0
230
-1
40
0.206112
41
-2.07998265375047
42
-1.87325735060601
0
ELLIPSE
5
15B
100
AcDbEntity
8
1
62
256
6
ByLayer
370
13
48
1
60
0
100
AcDbEllipse
10
28.474248
20
-7.130414
30
0
11
0.998914190901981
21
-0.226032306404408
31
0
210
0
220
0
230
-1
40
0.206112
41
1.87325735041502
42
2.07998265363743
0
ELLIPSE
5
15C
100
AcDbEntity
8
1
62
256
6
ByLayer
370
13
48
1
60
0
100
AcDbEllipse
10
35.77413
20
-8
30
0
11
-6.1541317860938
21
7.53638888751072E-16
31
0
210
0
220
0
230
1
40
0.121869
41
1.12302990717099
42
1.18682389135614
0
ELLIPSE
5
15D
100
AcDbEntity
8
1
62
256
6
ByLayer
370
13
48
1
60
0
100
AcDbEllipse
10
35.77413
20
-8
30
0
11
-6.1541317860938
21
7.53638888751072E-16
31
0
210
0
220
0
230
1
40
0.121869
41
-1.18682389135615
42
-1.12302990717099
0
ELLIPSE
5
15E
100
AcDbEntity
8
1
62
256
6
ByLayer
370
13
48
1
60
0
100
AcDbEllipse
10
35.77413
20
-8
30
0
11
6.11757098705354
21
6.18265616175507E-15
31
0
210
0
220
0
230
-1
40
0.073559
41
-2.06016834742114
42
-1.95476876208944
0
ELLIPSE
5
15F
100
AcDbEntity
8
1
62
256
6
ByLayer
370
13
48
1
60
0
100
AcDbEllipse
10
35.77413
20
-8
30
0
11
6.11757096196476
21
-1.02020576365982E-09
31
0
210
0
220
0
230
-1
40
0.073559
41
1.95476876092905
42
2.06016834664628
0
ELLIPSE
5
160
100
AcDbEntity
8
1
62
256
6
ByLayer
370
13
48
1
60
0
100
AcDbEllipse
10
33.473627
20
-8
30
0
11
1.22363010717406
21
1.23664837528472E-15
31
0
210
0
220
0
230
-1
40
0.367758
41
-2.41547853523811
42
-2.06016834764195
0
ELLIPSE
5
161
100
AcDbEntity
8
1
62
256
6
ByLayer
370
13
48
1
60
0
100
AcDbEllipse
10
33.186071
20
-8
30
0
11
0.899729536812625
21
0.0397735764584512
31
0
210
0
220
0
230
-1
40
0.498193
41
-1.09832267604649
42
-1.00525797596446
0
ELLIPSE
5
162
100
AcDbEntity
8
1
62
256
6
ByLayer
370
13
48
1
60
0
100
AcDbEllipse
10
33.186071
20
-8
30
0
11
0.89972956774199
21
-0.0397735923399369
31
0
210
0
220
0
230
-1
40
0.498193
41
1.00525795706993
42
1.0983226545323
0
ELLIPSE
5
163
100
AcDbEntity
8
1
62
256
6
ByLayer
370
13
48
1
60
0
100
AcDbEllipse
10
33.473627
20
-8
30
0
11
1.2236301072536
21
1.23664837536511E-15
31
0
210
0
220
0
230
-1
40
0.367758
41
2.06016834764721
42
2.41547853521359
0
ELLIPSE
5
164
100
AcDbEntity
8
1
62
256
6
ByLayer
370
13
48
1
60
0
100
AcDbEllipse
10
33.708716
20
-7.352384
30
0
11
0.0309022559561243
21
-0.238002207083931
31
0
210
0
220
0
230
1
40
0.697921
41
0.776305432118346
42
1.43060367190731
0
ELLIPSE
5
165
100
AcDbEntity
8
1
62
256
6
ByLayer
370
13
48
1
60
0
100
AcDbEllipse
10
34.933781
20
-7.11922
30
0
11
0.0220590948836999
21
-0.238984092217269
31
0
210
0
220
0
230
1
40
0.006427
41
-1.5012791502913
42
-0.704838524419182
0
ELLIPSE
5
166
100
AcDbEntity
8
1
62
256
6
ByLayer
370
13
48
1
60
0
100
AcDbEllipse
10
33.708716
20
-8.647616
30
0
11
-0.0309022559569112
21
-0.238002207083828
31
0
210
0
220
0
230
1
40
0.697921
41
1.71098898168886
42
2.36528722147373
0
ELLIPSE
5
167
100
AcDbEntity
8
1
62
256
6
ByLayer
370
13
48
1
60
0
100
AcDbEllipse
10
34.933781
20
-8.88078
30
0
11
0.0220590948837
21
0.238984092217269
31
0
210
0
220
0
230
1
40
0.006427
41
0.704838524418571
42
1.50127915029163
0
ELLIPSE
5
168
100
AcDbEntity
8
1
62
256
6
ByLayer
370
13
48
1
60
0
100
AcDbEllipse
10
33.552761
20
-8.699524
30
0
11
0.10209648341447
21
-0.282092729566714
31
0
210
0
220
0
230
1
40
0.694069
41
1.37564748435105
42
2.59886419488534
0
ELLIPSE
5
169
100
AcDbEntity
8
1
62
256
6
ByLayer
370
13
48
1
60
0
100
AcDbEllipse
10
33.552761
20
-7.300476
30
0
11
-0.102096483414469
21
-0.282092729566714
31
0
210
0
220
0
230
1
40
0.694069
41
0.542728458704431
42
1.76594516923874
0
ELLIPSE
5
16A
100
AcDbEntity
8
1
62
256
6
ByLayer
370
13
48
1
60
0
100
AcDbEllipse
10
32.88984
20
-7.470423
30
0
11
0.0373781701033243
21
-0.145268277334479
31
0
210
0
220
0
230
1
40
0.332441
41
-1.65612709011245
42
-0.51749490940323
0
ELLIPSE
5
16B
100
AcDbEntity
8
1
62
256
6
ByLayer
370
13
48
1
60
0
100
AcDbEllipse
10
32.88984
20
-8.529577
30
0
11
0.0373781701033242
21
0.145268277334479
31
0
210
0
220
0
230
1
40
0.332441
41
0.5174949094033
42
1.6561270901124
0
ELLIPSE
5
16C
100
AcDbEntity
8
1
62
256
6
ByLayer
370
13
48
1
60
0
100
AcDbEllipse
10
33.422324
20
-8
30
0
11
1.24191050869184
21
1.25512326300118E-15
31
0
210
0
220
0
230
-1
40
0.483127
41
2.06016834764371
42
2.41547853523522
0
ELLIPSE
5
16D
100
AcDbEntity
8
1
62
256
6
ByLayer
370
13
48
1
60
0
100
AcDbEllipse
10
33.422324
20
-8
30
0
11
1.24191050868434
21
1.2551232629936E-15
31
0
210
0
220
0
230
-1
40
0.483127
41
-2.4154785352368
42
-2.06016834764221
0
ELLIPSE
5
16E
100
AcDbEntity
8
1
62
256
6
ByLayer
370
13
48
1
60
0
100
AcDbEllipse
10
33.397945
20
-7.985184
30
0
11
0.847017704519219
21
-0.196304044725898
31
0
210
0
220
0
230
-1
40
0.854591
41
0.792533392232639
42
0.922000596545559
0
ELLIPSE
5
16F
100
AcDbEntity
8
1
62
256
6
ByLayer
370
13
48
1
60
0
100
AcDbEllipse
10
33.397945
20
-8.014816
30
0
11
0.847017705415372
21
0.196304049193664
31
0
210
0
220
0
230
-1
40
0.854591
41
-0.922000591625077
42
-0.792533387509385
0
ELLIPSE
5
170
100
AcDbEntity
8
1
62
256
6
ByLayer
370
13
48
1
60
0
100
AcDbEllipse
10
33.56419
20
-7.304612
30
0
11
-0.102096483414469
21
-0.282092729566714
31
0
210
0
220
0
230
1
40
0.694069
41
0.542728458704454
42
1.76594516923874
0
ELLIPSE
5
171
100
AcDbEntity
8
1
62
256
6
ByLayer
370
13
48
1
60
0
100
AcDbEllipse
10
33.661247
20
-7.346705
30
0
11
0.136500727004937
21
0.267147059738871
31
0
210
0
220
0
230
1
40
0.677974
41
-1.35487317172657
42
-1.28974538225852
0
ELLIPSE
5
172
100
AcDbEntity
8
1
62
256
6
ByLayer
370
13
48
1
60
0
100
AcDbEllipse
10
33.661247
20
-8.653295
30
0
11
-0.136500727005176
21
0.267147059738748
31
0
210
0
220
0
230
1
40
0.677974
41
-1.85184727133189
42
-1.78671948186546
0
ELLIPSE
5
173
100
AcDbEntity
8
1
62
256
6
ByLayer
370
13
48
1
60
0
100
AcDbEllipse
10
33.56419
20
-8.695388
30
0
11
0.10209648341447
21
-0.282092729566714
31
0
210
0
220
0
230
1
40
0.694069
41
1.37564748435105
42
2.59886419488533
0
ELLIPSE
5
174
100
AcDbEntity
8
1
62
256
6
ByLayer
370
13
48
1
60
0
100
AcDbEllipse
10
32.544976
20
-7.601619
30
0
11
0.0716898187935411
21
-0.131759515335133
31
0
210
0
220
0
230
1
40
0.304525
41
-1.7349955869739
42
-0.893380334272748
0
ELLIPSE
5
175
100
AcDbEntity
8
1
62
256
6
ByLayer
370
13
48
1
60
0
100
AcDbEllipse
10
32.544976
20
-8.398381
30
0
11
0.0716898187946788
21
0.131759515334514
31
0
210
0
220
0
230
1
40
0.304525
41
0.893380334283976
42
1.7349955870091
0
ELLIPSE
5
176
100
AcDbEntity
8
1
62
256
6
ByLayer
370
13
48
1
60
0
100
AcDbEllipse
10
33.668095
20
-8.63144
30
0
11
0.171518916221875
21
0.16787275353098
31
0
210
0
220
0
230
1
40
0.082052
41
0.518298817417492
42
0.779655640507018
0
ELLIPSE
5
177
100
AcDbEntity
8
1
62
256
6
ByLayer
370
13
48
1
60
0
100
AcDbEllipse
10
33.702479
20
-8.646663
30
0
11
0.0417762271290194
21
0.236336088752574
31
0
210
0
220
0
230
1
40
0.675324
41
-1.34029986666137
42
-0.746155527792951
0
ELLIPSE
5
178
100
AcDbEntity
8
1
62
256
6
ByLayer
370
13
48
1
60
0
100
AcDbEllipse
10
33.702479
20
-7.353337
30
0
11
-0.0417762271294201
21
0.236336088752503
31
0
210
0
220
0
230
1
40
0.675324
41
-2.39543712579798
42
-1.8012927869314
0
ELLIPSE
5
179
100
AcDbEntity
8
1
62
256
6
ByLayer
370
13
48
1
60
0
100
AcDbEllipse
10
34.691288
20
-8.293452
30
0
11
-0.114657467550524
21
-0.383214907245139
31
0
210
0
220
0
230
1
40
0.149521
41
-1.52608952887372
42
-0.632305349725107
0
ELLIPSE
5
17A
100
AcDbEntity
8
1
62
256
6
ByLayer
370
13
48
1
60
0
100
AcDbEllipse
10
32.576259
20
-7.520757
30
0
11
0.111438992389702
21
0.278534290483538
31
0
210
0
220
0
230
1
40
0.391057
41
-2.99672437051146
42
-2.16330924043511
0
ELLIPSE
5
17B
100
AcDbEntity
8
1
62
256
6
ByLayer
370
13
48
1
60
0
100
AcDbEllipse
10
32.576259
20
-8.479243
30
0
11
-0.111438992389677
21
0.278534290483548
31
0
210
0
220
0
230
1
40
0.391057
41
-0.978283413154624
42
-0.144868283078329
0
ELLIPSE
5
17C
100
AcDbEntity
8
1
62
256
6
ByLayer
370
13
48
1
60
0
100
AcDbEllipse
10
33.652499
20
-8.57058
30
0
11
0.29766898486033
21
0.0373252656014786
31
0
210
0
220
0
230
1
40
0.756445
41
0.856307358412528
42
1.39678515212253
0
ELLIPSE
5
17D
100
AcDbEntity
8
1
62
256
6
ByLayer
370
13
48
1
60
0
100
AcDbEllipse
10
33.652499
20
-7.42942
30
0
11
-0.297668984860324
21
0.0373252656015258
31
0
210
0
220
0
230
1
40
0.756445
41
1.74480750146738
42
2.28528529517742
0
ELLIPSE
5
17E
100
AcDbEntity
8
1
62
256
6
ByLayer
370
13
48
1
60
0
100
AcDbEllipse
10
34.691288
20
-7.706548
30
0
11
-0.114657467550524
21
0.383214907245139
31
0
210
0
220
0
230
1
40
0.149521
41
0.632305349725016
42
1.52608952887372
0
ELLIPSE
5
17F
100
AcDbEntity
8
1
62
256
6
ByLayer
370
13
48
1
60
0
100
AcDbEllipse
10
32.448488
20
-8.383195
30
0
11
-0.0204696158072206
21
0.148596752416413
31
0
210
0
220
0
230
1
40
0.33919
41
0.36759050302903
42
1.52410589159643
0
ELLIPSE
5
180
100
AcDbEntity
8
1
62
256
6
ByLayer
370
13
48
1
60
0
100
AcDbEllipse
10
32.448488
20
-7.616805
30
0
11
0.0204696158039751
21
0.14859675241686
31
0
210
0
220
0
230
1
40
0.33919
41
1.61748676198877
42
2.77400215055198
0
ELLIPSE
5
181
100
AcDbEntity
8
1
62
256
6
ByLayer
370
13
48
1
60
0
100
AcDbEllipse
10
32.567717
20
-7.517337
30
0
11
0.111594752970791
21
0.278471921581671
31
0
210
0
220
0
230
1
40
0.394318
41
-2.99660724386027
42
-2.16841033890649
0
ELLIPSE
5
182
100
AcDbEntity
8
1
62
256
6
ByLayer
370
13
48
1
60
0
100
AcDbEllipse
10
32.567717
20
-8.482663
30
0
11
-0.111594752970814
21
0.278471921581661
31
0
210
0
220
0
230
1
40
0.394318
41
-0.973182314683339
42
-0.144985409729575
0
ELLIPSE
5
183
100
AcDbEntity
8
1
62
256
6
ByLayer
370
13
48
1
60
0
100
AcDbEllipse
10
32.414981
20
-7.606093
30
0
11
0.0722486702513559
21
0.131453906929048
31
0
210
0
220
0
230
1
40
0.303884
41
1.73628735495827
42
2.71919261109652
0
ELLIPSE
5
184
100
AcDbEntity
8
1
62
256
6
ByLayer
370
13
48
1
60
0
100
AcDbEllipse
10
32.414981
20
-8.393907
30
0
11
-0.0722486702265449
21
0.131453906942685
31
0
210
0
220
0
230
1
40
0.303884
41
0.422400042195135
42
1.40530529868886
0
ELLIPSE
5
185
100
AcDbEntity
8
1
62
256
6
ByLayer
370
13
48
1
60
0
100
AcDbEllipse
10
33.693937
20
-8.130996
30
0
11
0.288517367888856
21
-0.0822054038764276
31
0
210
0
220
0
230
1
40
0.201316
41
0.955679576570821
42
1.50320190071235
0
ELLIPSE
5
186
100
AcDbEntity
8
1
62
256
6
ByLayer
370
13
48
1
60
0
100
AcDbEllipse
10
32.392833
20
-7.587446
30
0
11
0.122999586129777
21
0.0858551210581151
31
0
210
0
220
0
230
1
40
0.203946
41
1.85506502495943
42
2.61874247938673
0
ELLIPSE
5
187
100
AcDbEntity
8
1
62
256
6
ByLayer
370
13
48
1
60
0
100
AcDbEllipse
10
32.392833
20
-8.412554
30
0
11
-0.122999586130244
21
0.0858551210574456
31
0
210
0
220
0
230
1
40
0.203946
41
0.522850174197389
42
1.28652762863001
0
ELLIPSE
5
188
100
AcDbEntity
8
1
62
256
6
ByLayer
370
13
48
1
60
0
100
AcDbEllipse
10
33.693937
20
-7.869004
30
0
11
-0.288517367888757
21
-0.0822054038767749
31
0
210
0
220
0
230
1
40
0.201316
41
1.63839075288011
42
2.18591307702124
0
ELLIPSE
5
189
100
AcDbEntity
8
1
62
256
6
ByLayer
370
13
48
1
60
0
100
AcDbEllipse
10
32.378252
20
-7.561581
30
0
11
0.136631968823999
21
0.0619007681315656
31
0
210
0
220
0
230
1
40
0.148534
41
1.88760878179943
42
2.74962710514682
0
ELLIPSE
5
18A
100
AcDbEntity
8
1
62
256
6
ByLayer
370
13
48
1
60
0
100
AcDbEllipse
10
32.378252
20
-8.438419
30
0
11
0.136631968824137
21
-0.0619007681312608
31
0
210
0
220
0
230
1
40
0.148534
41
-2.74962710515912
42
-1.88760878179977
0
ELLIPSE
5
18B
100
AcDbEntity
8
1
62
256
6
ByLayer
370
13
48
1
60
0
100
AcDbEllipse
10
32.238501
20
-8.725438
30
0
11
0.132407679423122
21
-0.0704855051041258
31
0
210
0
220
0
230
1
40
0.168583
41
-2.61018272665905
42
-1.87748899426512
0
ELLIPSE
5
18C
100
AcDbEntity
8
1
62
256
6
ByLayer
370
13
48
1
60
0
100
AcDbEllipse
10
32.238501
20
-7.274562
30
0
11
0.132407679423122
21
0.0704855051041255
31
0
210
0
220
0
230
1
40
0.168583
41
1.87748899426512
42
2.61018272665905
0
ELLIPSE
5
18D
100
AcDbEntity
8
1
62
256
6
ByLayer
370
13
48
1
60
0
100
AcDbEllipse
10
32.442406
20
-7.569126
30
0
11
-0.0486052519780795
21
-0.194003941919095
31
0
210
0
220
0
230
1
40
0.669878
41
-0.553928558803263
42
-0.205864067887412
0
ELLIPSE
5
18E
100
AcDbEntity
8
1
62
256
6
ByLayer
370
13
48
1
60
0
100
AcDbEllipse
10
32.422373
20
-7.566064
30
0
11
5.665498452323E-17
21
0.2
31
0
210
0
220
0
230
1
40
0.909654
41
1.90677220782005
42
2.7252107293006
0
ELLIPSE
5
18F
100
AcDbEntity
8
1
62
256
6
ByLayer
370
13
48
1
60
0
100
AcDbEllipse
10
32.422373
20
-8.433936
30
0
11
5.665498452323E-17
21
0.2
31
0
210
0
220
0
230
1
40
0.909654
41
0.416381924289155
42
1.2348204457749
0
ELLIPSE
5
190
100
AcDbEntity
8
1
62
256
6
ByLayer
370
13
48
1
60
0
100
AcDbEllipse
10
32.442406
20
-8.430874
30
0
11
-0.0486052519780804
21
0.194003941919095
31
0
210
0
220
0
230
1
40
0.669878
41
0.20586406788736
42
0.553928558476732
0
ELLIPSE
5
191
100
AcDbEntity
8
1
62
256
6
ByLayer
370
13
48
1
60
0
100
AcDbEllipse
10
32.238501
20
-8.725438
30
0
11
4.24912383924225E-17
21
0.15
31
0
210
0
220
0
230
1
40
0.848573
41
1.23482044578598
42
1.5707963267949
0
ELLIPSE
5
192
100
AcDbEntity
8
1
62
256
6
ByLayer
370
13
48
1
60
0
100
AcDbEllipse
10
32.238501
20
-7.274562
30
0
11
4.24912383924225E-17
21
0.15
31
0
210
0
220
0
230
1
40
0.848573
41
1.5707963267949
42
1.90677220780381
0
ELLIPSE
5
193
100
AcDbEntity
8
1
62
256
6
ByLayer
370
13
48
1
60
0
100
AcDbEllipse
10
31.934034
20
-7.566064
30
0
11
5.665498452323E-17
21
0.2
31
0
210
0
220
0
230
1
40
0.34202
41
1.90677220780381
42
2.72521072930061
0
ELLIPSE
5
194
100
AcDbEntity
8
1
62
256
6
ByLayer
370
13
48
1
60
0
100
AcDbEllipse
10
31.934034
20
-8.433936
30
0
11
-3.67381906146713E-17
21
-0.2
31
0
210
0
220
0
230
1
40
0.34202
41
-2.72521072930059
42
-1.90677220780381
0
ELLIPSE
5
195
100
AcDbEntity
8
1
62
256
6
ByLayer
370
13
48
1
60
0
100
AcDbEllipse
10
32.18303
20
-10.080141
30
0
11
-3.67381906146715E-16
21
-2.00000000000001
31
0
210
0
220
0
230
1
40
0.34202
41
-2.79252680319093
42
-2.7252107293006
0
ELLIPSE
5
196
100
AcDbEntity
8
1
62
256
6
ByLayer
370
13
48
1
60
0
100
AcDbEllipse
10
32.18303
20
-5.919859
30
0
11
5.66549845232303E-16
21
2.00000000000001
31
0
210
0
220
0
230
1
40
0.34202
41
2.7252107293006
42
2.79252680319093
0
ELLIPSE
5
197
100
AcDbEntity
8
1
62
256
6
ByLayer
370
13
48
1
60
0
100
AcDbEllipse
10
31.881103
20
-8.725438
30
0
11
-2.75536429610035E-17
21
-0.15
31
0
210
0
220
0
230
1
40
0.34202
41
-1.90677220780379
42
-1.5707963267949
0
ELLIPSE
5
198
100
AcDbEntity
8
1
62
256
6
ByLayer
370
13
48
1
60
0
100
AcDbEllipse
10
31.881103
20
-7.274562
30
0
11
4.24912383924225E-17
21
0.15
31
0
210
0
220
0
230
1
40
0.34202
41
1.5707963267949
42
1.90677220780379
0
ELLIPSE
5
199
100
AcDbEntity
8
1
62
256
6
ByLayer
370
13
48
1
60
0
100
AcDbEllipse
10
35.622654
20
-7.108695
30
0
11
0.00588101291965487
21
-0.239927934361631
31
0
210
0
220
0
230
1
40
0.175234
41
-1.50631558565103
42
-0.750535400473098
0
ELLIPSE
5
19A
100
AcDbEntity
8
1
62
256
6
ByLayer
370
13
48
1
60
0
100
AcDbEllipse
10
35.622654
20
-8.891305
30
0
11
0.00588101291965508
21
0.239927934361631
31
0
210
0
220
0
230
1
40
0.175234
41
0.750535400473082
42
1.50631558565103
0
ELLIPSE
5
19B
100
AcDbEntity
8
1
62
256
6
ByLayer
370
13
48
1
60
0
100
AcDbEllipse
10
31.927723
20
-8
30
0
11
5.94877337493915E-17
21
0.21
31
0
210
0
220
0
230
1
40
0.34202
41
-2.79252680319096
42
-0.349065850398831
0
ELLIPSE
5
19C
100
AcDbEntity
8
1
62
256
6
ByLayer
370
13
48
1
60
0
100
AcDbEllipse
10
36.15209
20
-8.687793
30
0
11
-0.0532002340369041
21
0.0846742882959086
31
0
210
0
220
0
230
1
40
0.139782
41
-1.57684789387821
42
-0.739654044677022
0
ELLIPSE
5
19D
100
AcDbEntity
8
1
62
256
6
ByLayer
370
13
48
1
60
0
100
AcDbEllipse
10
36.313506
20
-8.538045
30
0
11
-0.0833195870797989
21
0.0552977975045282
31
0
210
0
220
0
230
1
40
0.125168
41
-1.63384778655097
42
-1.00901921834414
0
ELLIPSE
5
19E
100
AcDbEntity
8
1
62
256
6
ByLayer
370
13
48
1
60
0
100
AcDbEllipse
10
36.15209
20
-7.312207
30
0
11
-0.0532002340369042
21
-0.0846742882959085
31
0
210
0
220
0
230
1
40
0.139782
41
0.739654044676975
42
1.57684789387821
0
ELLIPSE
5
19F
100
AcDbEntity
8
1
62
256
6
ByLayer
370
13
48
1
60
0
100
AcDbEllipse
10
36.313506
20
-7.461955
30
0
11
-0.0833195870797989
21
-0.0552977975045282
31
0
210
0
220
0
230
1
40
0.125168
41
1.00901921834418
42
1.6338477865509
0
ELLIPSE
5
1A0
100
AcDbEntity
8
1
62
256
6
ByLayer
370
13
48
1
60
0
100
AcDbEllipse
10
35.841387
20
-7.647871
30
0
11
0.0115886927836045
21
-0.399832092508302
31
0
210
0
220
0
230
1
40
0.406594
41
1.55901218905987
42
2.32325251776608
0
ELLIPSE
5
1A1
100
AcDbEntity
8
1
62
256
6
ByLayer
370
13
48
1
60
0
100
AcDbEllipse
10
35.841387
20
-8.352129
30
0
11
0.0115886927836044
21
0.399832092508302
31
0
210
0
220
0
230
1
40
0.406594
41
-2.3232525177661
42
-1.55901218905987
0
ELLIPSE
5
1A2
100
AcDbEntity
8
1
62
256
6
ByLayer
370
13
48
1
60
0
100
AcDbEllipse
10
35.998358
20
-7.199622
30
0
11
0.0768343605824262
21
0.0640037579669328
31
0
210
0
220
0
230
1
40
0.131171
41
-1.98237212656357
42
-1.52167934605473
0
ELLIPSE
5
1A3
100
AcDbEntity
8
1
62
256
6
ByLayer
370
13
48
1
60
0
100
AcDbEllipse
10
36.094545
20
-7.276324
30
0
11
-0.0526170259943807
21
-0.0850379243367726
31
0
210
0
220
0
230
1
40
0.13982
41
0.737799907002112
42
1.57588705481515
0
ELLIPSE
5
1A4
100
AcDbEntity
8
1
62
256
6
ByLayer
370
13
48
1
60
0
100
AcDbEllipse
10
35.998358
20
-8.800378
30
0
11
0.0768343605824262
21
-0.0640037579669329
31
0
210
0
220
0
230
1
40
0.131171
41
1.52167934605458
42
1.9823721265636
0
ELLIPSE
5
1A5
100
AcDbEntity
8
1
62
256
6
ByLayer
370
13
48
1
60
0
100
AcDbEllipse
10
36.094545
20
-8.723676
30
0
11
-0.0526170259943807
21
0.0850379243367727
31
0
210
0
220
0
230
1
40
0.13982
41
-1.57588705481523
42
-0.737799907002491
0
ELLIPSE
5
1A6
100
AcDbEntity
8
1
62
256
6
ByLayer
370
13
48
1
60
0
100
AcDbEllipse
10
35.233781
20
-8.883503
30
0
11
-0.00779618045171957
21
0.239873340682878
31
0
210
0
220
0
230
1
40
0.002272
41
-1.50102006034287
42
-0.730980747429493
0
ELLIPSE
5
1A7
100
AcDbEntity
8
1
62
256
6
ByLayer
370
13
48
1
60
0
100
AcDbEllipse
10
35.233781
20
-7.116497
30
0
11
-0.00779618045171942
21
-0.239873340682878
31
0
210
0
220
0
230
1
40
0.002272
41
0.730980747429414
42
1.50102006034287
0
ELLIPSE
5
1A8
100
AcDbEntity
8
1
62
256
6
ByLayer
370
13
48
1
60
0
100
AcDbEllipse
10
36.335851
20
-7.496575
30
0
11
-0.0846406472330468
21
-0.0532537401125116
31
0
210
0
220
0
230
1
40
0.065248
41
1.04586785899571
42
1.67413113259332
0
ELLIPSE
5
1A9
100
AcDbEntity
8
1
62
256
6
ByLayer
370
13
48
1
60
0
100
AcDbEllipse
10
36.335851
20
-8.503425
30
0
11
-0.0846406472330468
21
0.0532537401125117
31
0
210
0
220
0
230
1
40
0.065248
41
-1.67413113259318
42
-1.04586785899647
0
ELLIPSE
5
1AA
100
AcDbEntity
8
1
62
256
6
ByLayer
370
18
48
1
60
0
100
AcDbEllipse
10
31.837312
20
-8
30
0
11
-2.44921270764648E-17
21
0.400000000000281
31
0
210
0
220
0
230
-1
40
0.087159
41
-2.46970144325505
42
-0.671891210334806
0
ELLIPSE
5
1AB
100
AcDbEntity
8
1
62
256
6
ByLayer
370
18
48
1
60
0
100
AcDbEllipse
10
31.295033
20
-8
30
0
11
0.836314415911278
21
8.45212011048332E-16
31
0
210
0
220
0
230
-1
40
0.478289
41
0.898905116461039
42
-0.898905116460914
0
ELLIPSE
5
1AC
100
AcDbEntity
8
1
62
256
6
ByLayer
370
18
48
1
60
0
100
AcDbEllipse
10
35.981337
20
-8.976087
30
0
11
0.239998276544461
21
-0.0147981977711018
31
0
210
0
220
0
230
-1
40
0.061458
41
1.4451284798405
42
1.74112318503512
0
ELLIPSE
5
1AD
100
AcDbEntity
8
1
62
256
6
ByLayer
370
18
48
1
60
0
100
AcDbEllipse
10
33.448461
20
-8.666924
30
0
11
0.057752929499109
21
0.191891975732293
31
0
210
-1.59650527093405E-15
220
-7.67208394159938E-18
230
1
40
0.998032
41
2.91077570167875
42
-2.91077570167873
0
ELLIPSE
5
1AE
100
AcDbEntity
8
1
62
256
6
ByLayer
370
18
48
1
60
0
100
AcDbEllipse
10
33.22387
20
-7
30
0
11
0.201490790302156
21
0
31
0
210
0
220
0
230
1
40
0.992601
41
-1.5707963267949
42
-1.04397591016874
0
ELLIPSE
5
1AF
100
AcDbEntity
8
1
62
256
6
ByLayer
370
18
48
1
60
0
100
AcDbEllipse
10
35.981337
20
-7.023913
30
0
11
0.239998277181384
21
0.0147981978079139
31
0
210
0
220
0
230
-1
40
0.061458
41
-1.74112318474628
42
-1.44512848034207
0
ELLIPSE
5
1B0
100
AcDbEntity
8
1
62
256
6
ByLayer
370
18
48
1
60
0
100
AcDbEllipse
10
33.563726
20
-8.856339
30
0
11
0.302024948151228
21
-0.0186199320927651
31
0
210
0
220
0
230
-1
40
0.060635
41
0.776166089231932
42
1.56278371216571
0
ELLIPSE
5
1B1
100
AcDbEntity
8
1
62
256
6
ByLayer
370
18
48
1
60
0
100
AcDbEllipse
10
33.448461
20
-7.333076
30
0
11
0.0577529294991086
21
-0.191891975732293
31
0
210
-1.62972770132427E-15
220
-2.32673269882162E-18
230
1
40
0.998032
41
2.91077570167873
42
-2.91077570167875
0
ELLIPSE
5
1B2
100
AcDbEntity
8
1
62
256
6
ByLayer
370
18
48
1
60
0
100
AcDbEllipse
10
36.448748
20
-8.503425
30
0
11
1.1330996904646E-16
21
0.4
31
0
210
0
220
0
230
1
40
0.121869
41
1.5707963267949
42
1.64009079051253
0
ELLIPSE
5
1B3
100
AcDbEntity
8
1
62
256
6
ByLayer
370
18
48
1
60
0
100
AcDbEllipse
10
33.563726
20
-7.143661
30
0
11
0.302024948150629
21
0.0186199320927195
31
0
210
0
220
0
230
-1
40
0.060635
41
-1.56278371216574
42
-0.776166089230012
0
ELLIPSE
5
1B4
100
AcDbEntity
8
1
62
256
6
ByLayer
370
18
48
1
60
0
100
AcDbEllipse
10
33.22387
20
-9
30
0
11
-0.201490790302156
21
2.46746902040712E-17
31
0
210
0
220
0
230
1
40
0.992601
41
-2.09761674342106
42
-1.5707963267949
0
ELLIPSE
5
1B5
100
AcDbEntity
8
1
62
256
6
ByLayer
370
18
48
1
60
0
100
AcDbEllipse
10
36.448748
20
-7.496575
30
0
11
1.1330996904646E-16
21
0.4
31
0
210
0
220
0
230
1
40
0.121869
41
1.50150186307726
42
1.5707963267949
0
POINT
5
6C
100
AcDbEntity
8
81
62
256
6
ByLayer
370
18
48
1
60
0
100
AcDbPoint
10
36.4
20
-9
30
0
39
0
210
0
220
0
230
1
50
360
0
POINT
5
6E
100
AcDbEntity
8
80
62
256
6
ByLayer
370
18
48
1
60
0
100
AcDbPoint
10
0
20
0
30
0
39
0
210
0
220
0
230
1
50
360
0
SPLINE
5
1B6
100
AcDbEntity
8
1
62
256
6
ByLayer
370
18
48
1
60
0
100
AcDbSpline
70
4
71
3
72
12
73
8
40
0
40
0
40
0
40
0
40
0.0576018782530534
40
0.0576018782530534
40
0.684607621961978
40
0.684607621961978
40
1
40
1
40
1
40
1
41
1
10
-8.01484379268391
20
0.278964759400196
30
0
41
1
10
-8.01649268924265
20
0.279602953426945
30
0
41
1
10
-8.01813683789766
20
0.280230371724684
30
0
41
1
10
-8.0377244037569
20
0.287596321267188
30
0
41
1
10
-8.05535765135755
20
0.293125766877324
30
0
41
1
10
-8.07935508149731
20
0.297787753949592
30
0
41
1
10
-8.08703346281044
20
0.298734122646351
30
0
41
1
10
-8.09389757592481
20
0.298734122646977
30
0
0
SPLINE
5
1B7
100
AcDbEntity
8
1
62
256
6
ByLayer
370
18
48
1
60
0
100
AcDbSpline
70
4
71
3
72
10
73
6
40
0
40
0
40
0
40
0
40
0.696330279559746
40
0.696330279559746
40
1
40
1
40
1
40
1
41
1
10
-8.04249029642921
20
0.298734122634727
30
0
41
1
10
-8.03224468986448
20
0.298734122633391
30
0
41
1
10
-8.02042150697611
20
0.296865258844377
30
0
41
1
10
-8.0027888792518
20
0.292731146880442
30
0
41
1
10
-7.99731781369533
20
0.29128165384779
30
0
41
1
10
-7.99175232748263
20
0.289661107885365
30
0
0
SPLINE
5
1B8
100
AcDbEntity
8
1
62
256
6
ByLayer
370
18
48
1
60
0
100
AcDbSpline
70
4
71
3
72
12
73
8
40
0
40
0
40
0
40
0
40
0.0576018782536831
40
0.0576018782536831
40
0.684607621962175
40
0.684607621962175
40
1
40
1
40
1
40
1
41
1
10
8.01484379268391
20
0.278964759400225
30
0
41
1
10
8.01649268924265
20
0.279602953426945
30
0
41
1
10
8.01813683789766
20
0.280230371724684
30
0
41
1
10
8.0377244037569
20
0.287596321267188
30
0
41
1
10
8.05535765135755
20
0.293125766877324
30
0
41
1
10
8.07935508149731
20
0.297787753949592
30
0
41
1
10
8.08703346281044
20
0.298734122646351
30
0
41
1
10
8.09389757592481
20
0.298734122646948
30
0
0
SPLINE
5
1B9
100
AcDbEntity
8
1
62
256
6
ByLayer
370
13
48
1
60
0
100
AcDbSpline
70
4
71
3
72
10
73
6
40
0
40
0
40
0
40
0
40
0.807289382551453
40
0.807289382551453
40
1
40
1
40
1
40
1
41
1
10
33.8262120963125
20
-7.62397635271006
30
0
41
1
10
33.8302762008164
20
-7.59172661660736
30
0
41
1
10
33.8269568435098
20
-7.56258905616389
30
0
41
1
10
33.8156280417962
20
-7.53236877567269
30
0
41
1
10
33.8131204986914
20
-7.52671625365545
30
0
41
1
10
33.8102634152023
20
-7.52135698573588
30
0
0
SPLINE
5
1BA
100
AcDbEntity
8
1
62
256
6
ByLayer
370
13
48
1
60
0
100
AcDbSpline
70
4
71
3
72
14
73
10
40
0
40
0
40
0
40
0
40
0.140335064029798
40
0.140335064029798
40
0.313324577863399
40
0.313324577863399
40
0.854437087129479
40
0.854437087129479
40
1
40
1
40
1
40
1
41
1
10
33.8102634152023
20
-7.52135698573588
30
0
41
1
10
33.8115615907815
20
-7.51996288777371
30
0
41
1
10
33.8130492807412
20
-7.5186570101209
30
0
41
1
10
33.8164306495378
20
-7.51613672597219
30
0
41
1
10
33.818387975026
20
-7.51496507816816
30
0
41
1
10
33.8261757331449
20
-7.51097137354478
30
0
41
1
10
33.8318897349344
20
-7.50944809460952
30
0
41
1
10
33.8386571441607
20
-7.50815804907811
30
0
41
1
10
33.8400859075475
20
-7.50792528395004
30
0
41
1
10
33.841497419172
20
-7.5077279642513
30
0
0
SPLINE
5
1BB
100
AcDbEntity
8
1
62
256
6
ByLayer
370
13
48
1
60
0
100
AcDbSpline
70
4
71
3
72
8
73
4
40
0
40
0
40
0
40
0
40
1
40
1
40
1
40
1
41
1
10
33.8414974191717
20
-7.50772796425159
30
0
41
1
10
33.8434065060312
20
-7.50746108692843
30
0
41
1
10
33.8452888609443
20
-7.50725234549117
30
0
41
1
10
33.8471477503401
20
-7.50708946419826
30
0
0
SPLINE
5
1BC
100
AcDbEntity
8
1
62
256
6
ByLayer
370
13
48
1
60
0
100
AcDbSpline
70
4
71
3
72
12
73
8
40
0
40
0
40
0
40
0
40
0.271863792020762
40
0.271863792020762
40
0.680333498425164
40
0.680333498425164
40
1
40
1
40
1
40
1
41
1
10
33.8471477503394
20
-7.50708946419891
30
0
41
1
10
33.9254708389114
20
-7.50022656748106
30
0
41
1
10
34.0132950984392
20
-7.48780264782926
30
0
41
1
10
34.246593161407
20
-7.44799551026168
30
0
41
1
10
34.4026236458242
20
-7.41567608259697
30
0
41
1
10
34.6875983266003
20
-7.35152508985138
30
0
41
1
10
34.8183646565651
20
-7.31738411408523
30
0
41
1
10
34.9495881472218
20
-7.30134968170154
30
0
0
SPLINE
5
1BD
100
AcDbEntity
8
1
62
256
6
ByLayer
370
13
48
1
60
0
100
AcDbSpline
70
4
71
3
72
8
73
4
40
0
40
0
40
0
40
0
40
1
40
1
40
1
40
1
41
1
10
34.9495881472218
20
-7.30134968170154
30
0
41
1
10
35.0417788954044
20
-7.2900847297426
30
0
41
1
10
35.1354245830992
20
-7.29238352941042
30
0
41
1
10
35.2283398883331
20
-7.29509899962824
30
0
0
SPLINE
5
1BE
100
AcDbEntity
8
1
62
256
6
ByLayer
370
13
48
1
60
0
100
AcDbSpline
70
4
71
3
72
8
73
4
40
0
40
0
40
0
40
0
40
1
40
1
40
1
40
1
41
1
10
35.2283398883331
20
-7.29509899962824
30
0
41
1
10
35.3522136636574
20
-7.29871923793897
30
0
41
1
10
35.4768571353025
20
-7.29020434150414
30
0
41
1
10
35.5982800289245
20
-7.28486329371069
30
0
0
SPLINE
5
1BF
100
AcDbEntity
8
1
62
256
6
ByLayer
370
13
48
1
60
0
100
AcDbSpline
70
4
71
3
72
10
73
6
40
0
40
0
40
0
40
0
40
0.860053459941695
40
0.860053459941695
40
1
40
1
40
1
40
1
41
1
10
35.5982800289245
20
-7.28486329371069
30
0
41
1
10
35.7321716826563
20
-7.27897378061812
30
0
41
1
10
35.8692183325878
20
-7.29041633590768
30
0
41
1
10
36.0209193574704
20
-7.33158634511898
30
0
41
1
10
36.0422592203893
20
-7.33791259968936
30
0
41
1
10
36.0636089363248
20
-7.34419694560239
30
0
0
SPLINE
5
1C0
100
AcDbEntity
8
1
62
256
6
ByLayer
370
13
48
1
60
0
100
AcDbSpline
70
4
71
3
72
8
73
4
40
0
40
0
40
0
40
0
40
1
40
1
40
1
40
1
41
1
10
36.0636089363248
20
-7.34419694560239
30
0
41
1
10
36.0827084170632
20
-7.35598152479443
30
0
41
1
10
36.1017609506472
20
-7.36784016915988
30
0
41
1
10
36.1207683583679
20
-7.379768231866
30
0
0
SPLINE
5
1C1
100
AcDbEntity
8
1
62
256
6
ByLayer
370
13
48
1
60
0
100
AcDbSpline
70
4
71
3
72
10
73
6
40
0
40
0
40
0
40
0
40
0.776503433583243
40
0.776503433583243
40
1
40
1
40
1
40
1
41
1
10
36.1207683583679
20
-7.37976823186602
30
0
41
1
10
36.0774725026343
20
-7.37806168534962
30
0
41
1
10
36.0344378625006
20
-7.37677950263645
30
0
41
1
10
35.9776224808541
20
-7.37254378130456
30
0
41
1
10
35.9648810790715
20
-7.37174126270057
30
0
41
1
10
35.9521447262338
20
-7.37117242395237
30
0
0
SPLINE
5
1C2
100
AcDbEntity
8
1
62
256
6
ByLayer
370
13
48
1
60
0
100
AcDbSpline
70
4
71
3
72
10
73
6
40
0
40
0
40
0
40
0
40
0.802218039223748
40
0.802218039223748
40
1
40
1
40
1
40
1
41
1
10
35.9521447262338
20
-7.37117242395237
30
0
41
1
10
35.8127836505348
20
-7.36494819470426
30
0
41
1
10
35.6644549248778
20
-7.35928368762046
30
0
41
1
10
35.4792703339537
20
-7.35207933226573
30
0
41
1
10
35.4422443273126
20
-7.3506438011772
30
0
41
1
10
35.4052430294063
20
-7.3493336707632
30
0
0
SPLINE
5
1C3
100
AcDbEntity
8
1
62
256
6
ByLayer
370
13
48
1
60
0
100
AcDbSpline
70
4
71
3
72
16
73
12
40
0
40
0
40
0
40
0
40
0.0308303102605419
40
0.0308303102605419
40
0.572662020821238
40
0.572662020821238
40
0.596525876635503
40
0.596525876635503
40
0.811742896024901
40
0.811742896024901
40
1
40
1
40
1
40
1
41
1
10
35.4052430294063
20
-7.34933367076317
30
0
41
1
10
35.3993536372725
20
-7.34912514100367
30
0
41
1
10
35.3934642432982
20
-7.34891647784565
30
0
41
1
10
35.284075321957
20
-7.3450379089563
30
0
41
1
10
35.1804680881193
20
-7.34188883104903
30
0
41
1
10
35.0725520075114
20
-7.33683115994123
30
0
41
1
10
35.0679952849823
20
-7.33664527759964
30
0
41
1
10
35.0223626957531
20
-7.3350463433743
30
0
41
1
10
34.9811924961802
20
-7.33545440704737
30
0
41
1
10
34.9042684809455
20
-7.33810380569295
30
0
41
1
10
34.8684207998393
20
-7.34021707713211
30
0
41
1
10
34.8328798390933
20
-7.34478511127571
30
0
0
SPLINE
5
1C4
100
AcDbEntity
8
1
62
256
6
ByLayer
370
13
48
1
60
0
100
AcDbSpline
70
4
71
3
72
12
73
8
40
0
40
0
40
0
40
0
40
0.491351269778757
40
0.491351269778757
40
0.753050934981407
40
0.753050934981407
40
1
40
1
40
1
40
1
41
1
10
34.8328798390933
20
-7.34478511127571
30
0
41
1
10
34.7879752829179
20
-7.35055663634162
30
0
41
1
10
34.7433932389101
20
-7.35841513629512
30
0
41
1
10
34.6762335559799
20
-7.37438040276615
30
0
41
1
10
34.6531371669221
20
-7.38147274097514
30
0
41
1
10
34.6083199167815
20
-7.39481960075307
30
0
41
1
10
34.5865899596688
20
-7.40119167591098
30
0
41
1
10
34.5649336450021
20
-7.40755326988312
30
0
0
SPLINE
5
1C5
100
AcDbEntity
8
1
62
256
6
ByLayer
370
13
48
1
60
0
100
AcDbSpline
70
4
71
3
72
12
73
8
40
0
40
0
40
0
40
0
40
0.244915547318589
40
0.244915547318589
40
0.864563982028735
40
0.864563982028735
40
1
40
1
40
1
40
1
41
1
10
34.5649336450021
20
-7.40755326988312
30
0
41
1
10
34.4994204230127
20
-7.42679793475421
30
0
41
1
10
34.4343929566216
20
-7.44587287998823
30
0
41
1
10
34.2105405998204
20
-7.51144066263151
30
0
41
1
10
34.0555221571248
20
-7.55663601442103
30
0
41
1
10
33.8855701545792
20
-7.6065036618152
30
0
41
1
10
33.855505723763
20
-7.61534184997441
30
0
41
1
10
33.8262120963125
20
-7.62397635271003
30
0
0
SPLINE
5
1C6
100
AcDbEntity
8
1
62
256
6
ByLayer
370
13
48
1
60
0
100
AcDbSpline
70
4
71
3
72
8
73
4
40
0
40
0
40
0
40
0
40
1
40
1
40
1
40
1
41
1
10
33.8471477503394
20
-8.49291053580083
30
0
41
1
10
33.8452888609435
20
-8.49274765450792
30
0
41
1
10
33.8434065060322
20
-8.49253891307225
30
0
41
1
10
33.8414974191728
20
-8.49227203574912
30
0
0
SPLINE
5
1C7
100
AcDbEntity
8
1
62
256
6
ByLayer
370
13
48
1
60
0
100
AcDbSpline
70
4
71
3
72
14
73
10
40
0
40
0
40
0
40
0
40
0.538704325353333
40
0.538704325353333
40
0.684467013462083
40
0.684467013462083
40
0.858675811811913
40
0.858675811811913
40
1
40
1
40
1
40
1
41
1
10
33.8414974191717
20
-8.49227203574816
30
0
41
1
10
33.836304109803
20
-8.49154604651628
30
0
41
1
10
33.8308274196762
20
-8.49039589809962
30
0
41
1
10
33.8235066860402
20
-8.48754282511564
30
0
41
1
10
33.8219066564685
20
-8.48683936595151
30
0
41
1
10
33.8183879750259
20
-8.48503492183156
30
0
41
1
10
33.8164306495377
20
-8.4838632740275
30
0
41
1
10
33.8130492807491
20
-8.48134298988469
30
0
41
1
10
33.8115615907703
20
-8.48003711228114
30
0
41
1
10
33.8102634151937
20
-8.47864301432881
30
0
0
SPLINE
5
1C8
100
AcDbEntity
8
1
62
256
6
ByLayer
370
13
48
1
60
0
100
AcDbSpline
70
4
71
3
72
10
73
6
40
0
40
0
40
0
40
0
40
0.429405505457208
40
0.429405505457208
40
1
40
1
40
1
40
1
41
1
10
33.8102634152023
20
-8.47864301426387
30
0
41
1
10
33.8165911437521
20
-8.46677357021352
30
0
41
1
10
33.8213513498927
20
-8.45354921053448
30
0
41
1
10
33.8283387413341
20
-8.4201986354486
30
0
41
1
10
33.8290939581086
20
-8.39889197715658
30
0
41
1
10
33.8262120963125
20
-8.37602364728971
30
0
0
SPLINE
5
1C9
100
AcDbEntity
8
1
62
256
6
ByLayer
370
13
48
1
60
0
100
AcDbSpline
70
4
71
3
72
12
73
8
40
0
40
0
40
0
40
0
40
0.244915547318584
40
0.244915547318584
40
0.864563982028716
40
0.864563982028716
40
1
40
1
40
1
40
1
41
1
10
34.5649336450021
20
-8.59244673011662
30
0
41
1
10
34.4994204230127
20
-8.57320206524554
30
0
41
1
10
34.4343929566216
20
-8.55412712001151
30
0
41
1
10
34.2105405998204
20
-8.48855933736823
30
0
41
1
10
34.0555221571248
20
-8.44336398557871
30
0
41
1
10
33.8855701545792
20
-8.39349633818455
30
0
41
1
10
33.855505723763
20
-8.38465815002533
30
0
41
1
10
33.8262120963125
20
-8.37602364728971
30
0
0
SPLINE
5
1CA
100
AcDbEntity
8
1
62
256
6
ByLayer
370
13
48
1
60
0
100
AcDbSpline
70
4
71
3
72
12
73
8
40
0
40
0
40
0
40
0
40
0.491351269778757
40
0.491351269778757
40
0.753050934981407
40
0.753050934981407
40
1
40
1
40
1
40
1
41
1
10
34.8328798390933
20
-8.65521488872403
30
0
41
1
10
34.7879752829179
20
-8.64944336365815
30
0
41
1
10
34.7433932389101
20
-8.64158486370462
30
0
41
1
10
34.6762335559799
20
-8.62561959723362
30
0
41
1
10
34.6531371669221
20
-8.6185272590246
30
0
41
1
10
34.6083199167815
20
-8.60518039924668
30
0
41
1
10
34.5865899596688
20
-8.59880832408876
30
0
41
1
10
34.5649336450021
20
-8.59244673011662
30
0
0
SPLINE
5
1CB
100
AcDbEntity
8
1
62
256
6
ByLayer
370
13
48
1
60
0
100
AcDbSpline
70
4
71
3
72
16
73
12
40
0
40
0
40
0
40
0
40
0.0308303102605419
40
0.0308303102605419
40
0.572662020821238
40
0.572662020821238
40
0.596525876635503
40
0.596525876635503
40
0.811742896024901
40
0.811742896024901
40
1
40
1
40
1
40
1
41
1
10
35.4052430294063
20
-8.65066632923657
30
0
41
1
10
35.3993536372725
20
-8.6508748589961
30
0
41
1
10
35.3934642432982
20
-8.6510835221541
30
0
41
1
10
35.284075321957
20
-8.65496209104344
30
0
41
1
10
35.1804680881193
20
-8.65811116895074
30
0
41
1
10
35.0725520075114
20
-8.66316884005852
30
0
41
1
10
35.0679952849823
20
-8.6633547224001
30
0
41
1
10
35.0223626957531
20
-8.66495365662544
30
0
41
1
10
34.9811924961802
20
-8.66454559295238
30
0
41
1
10
34.9042684809455
20
-8.66189619430679
30
0
41
1
10
34.8684207998393
20
-8.65978292286763
30
0
41
1
10
34.8328798390933
20
-8.65521488872403
30
0
0
SPLINE
5
1CC
100
AcDbEntity
8
1
62
256
6
ByLayer
370
13
48
1
60
0
100
AcDbSpline
70
4
71
3
72
10
73
6
40
0
40
0
40
0
40
0
40
0.802218039223748
40
0.802218039223748
40
1
40
1
40
1
40
1
41
1
10
35.9521447262338
20
-8.62882757604737
30
0
41
1
10
35.8127836505348
20
-8.63505180529549
30
0
41
1
10
35.6644549248778
20
-8.64071631237928
30
0
41
1
10
35.4792703339537
20
-8.64792066773404
30
0
41
1
10
35.4422443273126
20
-8.64935619882255
30
0
41
1
10
35.4052430294063
20
-8.65066632923657
30
0
0
SPLINE
5
1CD
100
AcDbEntity
8
1
62
256
6
ByLayer
370
13
48
1
60
0
100
AcDbSpline
70
4
71
3
72
10
73
6
40
0
40
0
40
0
40
0
40
0.776503433583243
40
0.776503433583243
40
1
40
1
40
1
40
1
41
1
10
36.1207683583679
20
-8.62023176813375
30
0
41
1
10
36.0774725026343
20
-8.62193831465012
30
0
41
1
10
36.0344378625006
20
-8.62322049736332
30
0
41
1
10
35.9776224808541
20
-8.62745621869519
30
0
41
1
10
35.9648810790715
20
-8.62825873729918
30
0
41
1
10
35.9521447262338
20
-8.62882757604737
30
0
0
SPLINE
5
1CE
100
AcDbEntity
8
1
62
256
6
ByLayer
370
13
48
1
60
0
100
AcDbSpline
70
4
71
3
72
8
73
4
40
0
40
0
40
0
40
0
40
1
40
1
40
1
40
1
41
1
10
36.0636089363248
20
-8.65580305439735
30
0
41
1
10
36.0827084170632
20
-8.64401847520531
30
0
41
1
10
36.1017609506472
20
-8.6321598308399
30
0
41
1
10
36.1207683583679
20
-8.62023176813375
30
0
0
SPLINE
5
1CF
100
AcDbEntity
8
1
62
256
6
ByLayer
370
13
48
1
60
0
100
AcDbSpline
70
4
71
3
72
10
73
6
40
0
40
0
40
0
40
0
40
0.860053459941695
40
0.860053459941695
40
1
40
1
40
1
40
1
41
1
10
35.5982800289245
20
-8.71513670628906
30
0
41
1
10
35.7321716826563
20
-8.72102621938163
30
0
41
1
10
35.8692183325878
20
-8.70958366409209
30
0
41
1
10
36.0209193574704
20
-8.66841365488077
30
0
41
1
10
36.0422592203893
20
-8.66208740031041
30
0
41
1
10
36.0636089363248
20
-8.65580305439735
30
0
0
SPLINE
5
1D0
100
AcDbEntity
8
1
62
256
6
ByLayer
370
13
48
1
60
0
100
AcDbSpline
70
4
71
3
72
8
73
4
40
0
40
0
40
0
40
0
40
1
40
1
40
1
40
1
41
1
10
35.2283398883331
20
-8.70490100037151
30
0
41
1
10
35.3522136636574
20
-8.70128076206078
30
0
41
1
10
35.4768571353025
20
-8.70979565849564
30
0
41
1
10
35.5982800289245
20
-8.71513670628906
30
0
0
SPLINE
5
1D1
100
AcDbEntity
8
1
62
256
6
ByLayer
370
13
48
1
60
0
100
AcDbSpline
70
4
71
3
72
8
73
4
40
0
40
0
40
0
40
0
40
1
40
1
40
1
40
1
41
1
10
34.9495881472218
20
-8.69865031829821
30
0
41
1
10
35.0417788954044
20
-8.70991527025714
30
0
41
1
10
35.1354245830992
20
-8.70761647058933
30
0
41
1
10
35.2283398883331
20
-8.70490100037151
30
0
0
SPLINE
5
1D2
100
AcDbEntity
8
1
62
256
6
ByLayer
370
13
48
1
60
0
100
AcDbSpline
70
4
71
3
72
12
73
8
40
0
40
0
40
0
40
0
40
0.271863792020766
40
0.271863792020766
40
0.680333498425166
40
0.680333498425166
40
1
40
1
40
1
40
1
41
1
10
33.8471477503394
20
-8.49291053580086
30
0
41
1
10
33.9254708389114
20
-8.49977343251868
30
0
41
1
10
34.0132950984392
20
-8.51219735217049
30
0
41
1
10
34.246593161407
20
-8.55200448973807
30
0
41
1
10
34.4026236458242
20
-8.5843239174028
30
0
41
1
10
34.6875983266003
20
-8.64847491014837
30
0
41
1
10
34.8183646565651
20
-8.68261588591452
30
0
41
1
10
34.9495881472218
20
-8.69865031829821
30
0
0
SPLINE
5
1D3
100
AcDbEntity
8
1
62
256
6
ByLayer
370
13
48
1
60
0
100
AcDbSpline
70
4
71
3
72
18
73
14
40
0
40
0
40
0
40
0
40
0.447407316387175
40
0.447407316387175
40
0.605547053795674
40
0.605547053795674
40
0.784635535666972
40
0.784635535666972
40
0.885678387143329
40
0.885678387143329
40
0.977084410920521
40
0.977084410920521
40
1
40
1
40
1
40
1
41
1
10
32.8984332400776
20
-7.60281729746313
30
0
41
1
10
32.9440476624861
20
-7.58201359569526
30
0
41
1
10
32.9884120317077
20
-7.55375033835892
30
0
41
1
10
33.0394879059807
20
-7.50222254813497
30
0
41
1
10
33.0521556621418
20
-7.48727145983071
30
0
41
1
10
33.076132722513
20
-7.45247255411903
30
0
41
1
10
33.087234858325
20
-7.43192397336054
30
0
41
1
10
33.0999368895843
20
-7.39727078300089
30
0
41
1
10
33.1036086002949
20
-7.38410431233069
30
0
41
1
10
33.1083103046788
20
-7.35846181251847
30
0
41
1
10
33.1095747514646
20
-7.34592347882815
30
0
41
1
10
33.1097949440652
20
-7.33025049776953
30
0
41
1
10
33.1097712271323
20
-7.32709254419345
30
0
41
1
10
33.1096790521406
20
-7.32393771056346
30
0
0
SPLINE
5
1D4
100
AcDbEntity
8
1
62
256
6
ByLayer
370
13
48
1
60
0
100
AcDbSpline
70
4
71
3
72
18
73
14
40
0
40
0
40
0
40
0
40
0.0976852199958056
40
0.0976852199958056
40
0.212989397473362
40
0.212989397473362
40
0.394159987615223
40
0.394159987615223
40
0.774111539176557
40
0.774111539176557
40
0.851520792185893
40
0.851520792185893
40
1
40
1
40
1
40
1
41
1
10
33.1096790521406
20
-8.67606228943629
30
0
41
1
10
33.1100703037074
20
-8.66267109103671
30
0
41
1
10
33.1092072189939
20
-8.64916689540161
30
0
41
1
10
33.1048326306339
20
-8.62055413163208
30
0
41
1
10
33.1008494527307
20
-8.6053858827473
30
0
41
1
10
33.0875217769499
20
-8.56861001498405
30
0
41
1
10
33.0762967783069
20
-8.54776605249376
30
0
41
1
10
33.0367316649357
20
-8.4903420024371
30
0
41
1
10
33.0023540549561
20
-8.45936555437024
30
0
41
1
10
32.9587483922281
20
-8.42994514423887
30
0
41
1
10
32.9511702800925
20
-8.42516911926791
30
0
41
1
10
32.9287968496802
20
-8.41195563680861
30
0
41
1
10
32.913730117624
20
-8.40415926083864
30
0
41
1
10
32.898433240088
20
-8.39718270251777
30
0
0
SPLINE
5
1D5
100
AcDbEntity
8
1
62
256
6
ByLayer
370
13
48
1
60
0
100
AcDbSpline
70
4
71
3
72
12
73
8
40
0
40
0
40
0
40
0
40
0.167536140690989
40
0.167536140690989
40
0.701521703333122
40
0.701521703333122
40
1
40
1
40
1
40
1
41
1
10
33.6514801084146
20
-7.60023835233812
30
0
41
1
10
33.6542826384415
20
-7.60261436588073
30
0
41
1
10
33.656923133606
20
-7.60511930696796
30
0
41
1
10
33.6670778771217
20
-7.61610946849316
30
0
41
1
10
33.672872622145
20
-7.62601261738746
30
0
41
1
10
33.6767050040373
20
-7.64364843734106
30
0
41
1
10
33.6770407186254
20
-7.65050488624911
30
0
41
1
10
33.6762277573114
20
-7.65765179240529
30
0
0
SPLINE
5
1D6
100
AcDbEntity
8
1
62
256
6
ByLayer
370
13
48
1
60
0
100
AcDbSpline
70
4
71
3
72
14
73
10
40
0
40
0
40
0
40
0
40
0.418540706662839
40
0.418540706662839
40
0.495635548088754
40
0.495635548088754
40
0.9192675759406
40
0.9192675759406
40
1
40
1
40
1
40
1
41
1
10
33.6762277573114
20
-7.6576517924054
30
0
41
1
10
33.6729405983399
20
-7.68654986699502
30
0
41
1
10
33.6733660154213
20
-7.72104010817154
30
0
41
1
10
33.6796751136804
20
-7.76482491657774
30
0
41
1
10
33.6808357853226
20
-7.77181799749823
30
0
41
1
10
33.6893735192744
20
-7.81717895909992
30
0
41
1
10
33.7018447500132
20
-7.85838932033658
30
0
41
1
10
33.7226367698616
20
-7.90605765750234
30
0
41
1
10
33.7261939220311
20
-7.91375489910686
30
0
41
1
10
33.7299358617497
20
-7.92140267488597
30
0
0
SPLINE
5
1D7
100
AcDbEntity
8
1
62
256
6
ByLayer
370
13
48
1
60
0
100
AcDbSpline
70
4
71
3
72
14
73
10
40
0
40
0
40
0
40
0
40
0.335733568867722
40
0.335733568867722
40
0.507284823780995
40
0.507284823780995
40
0.847453801813234
40
0.847453801813234
40
1
40
1
40
1
40
1
41
1
10
33.7299358617497
20
-7.92140267488594
30
0
41
1
10
33.737814020394
20
-7.93750405422222
30
0
41
1
10
33.7439375481741
20
-7.95501758722699
30
0
41
1
10
33.7485739754979
20
-7.98232452901894
30
0
41
1
10
33.7493588445425
20
-7.99182820532334
30
0
41
1
10
33.7491329115973
20
-8.01978779486276
30
0
41
1
10
33.7455495425812
20
-8.0384819718119
30
0
41
1
10
33.7367872446761
20
-8.06357621447617
30
0
41
1
10
33.7335488022127
20
-8.07121319799228
30
0
41
1
10
33.7299358617498
20
-8.07859732511383
30
0
0
SPLINE
5
1D8
100
AcDbEntity
8
1
62
256
6
ByLayer
370
13
48
1
60
0
100
AcDbSpline
70
4
71
3
72
12
73
8
40
0
40
0
40
0
40
0
40
0.060976756616879
40
0.060976756616879
40
0.525861690105106
40
0.525861690105106
40
1
40
1
40
1
40
1
41
1
10
33.7299358617497
20
-8.0785973251138
30
0
41
1
10
33.7271003220153
20
-8.08439260075485
30
0
41
1
10
33.7243711082764
20
-8.0902157294687
30
0
41
1
10
33.7021069872871
20
-8.13982526010346
30
0
41
1
10
33.6884144324718
20
-8.18535005722464
30
0
41
1
10
33.6735997997306
20
-8.2696415491381
30
0
41
1
10
33.6725076756419
20
-8.30964422263449
30
0
41
1
10
33.6762277573114
20
-8.34234820759437
30
0
0
SPLINE
5
1D9
100
AcDbEntity
8
1
62
256
6
ByLayer
370
13
48
1
60
0
100
AcDbSpline
70
4
71
3
72
10
73
6
40
0
40
0
40
0
40
0
40
0.579743919086243
40
0.579743919086243
40
1
40
1
40
1
40
1
41
1
10
33.6762277573114
20
-8.34234820759437
30
0
41
1
10
33.6777925092618
20
-8.35610425619657
30
0
41
1
10
33.674921505156
20
-8.36877754964752
30
0
41
1
10
33.6645276574485
20
-8.38702363328625
30
0
41
1
10
33.6584959094317
20
-8.39381357999864
30
0
41
1
10
33.6514801084147
20
-8.39976164766182
30
0
0
SPLINE
5
1DA
100
AcDbEntity
8
1
62
256
6
ByLayer
370
13
48
1
60
0
100
AcDbSpline
70
4
71
3
72
8
73
4
40
0
40
0
40
0
40
0
40
1
40
1
40
1
40
1
41
1
10
32.5586453076088
20
-8.29878602654472
30
0
41
1
10
32.5709068417096
20
-8.29560162786194
30
0
41
1
10
32.5832654919602
20
-8.2925397767043
30
0
41
1
10
32.5957009625836
20
-8.28959806282163
30
0
0
SPLINE
5
1DB
100
AcDbEntity
8
1
62
256
6
ByLayer
370
13
48
1
60
0
100
AcDbSpline
70
4
71
3
72
10
73
6
40
0
40
0
40
0
40
0
40
0.333728436493078
40
0.333728436493078
40
1
40
1
40
1
40
1
41
1
10
32.5957009625832
20
-8.28959806282032
30
0
41
1
10
32.5966662675297
20
-8.28936971191604
30
0
41
1
10
32.5976317049565
20
-8.28914138342259
30
0
41
1
10
32.6005249812794
20
-8.28845727625719
30
0
41
1
10
32.6024532131263
20
-8.2880015643932
30
0
41
1
10
32.604381960042
20
-8.28754594197093
30
0
0
SPLINE
5
1DC
100
AcDbEntity
8
1
62
256
6
ByLayer
370
13
48
1
60
0
100
AcDbSpline
70
4
71
3
72
28
73
24
40
0
40
0
40
0
40
0
40
0.120400997037726
40
0.120400997037726
40
0.267193145137956
40
0.267193145137956
40
0.387937930337117
40
0.387937930337117
40
0.465259875154669
40
0.465259875154669
40
0.495901986784595
40
0.495901986784595
40
0.581704825079178
40
0.581704825079178
40
0.603681926078793
40
0.603681926078793
40
0.705282320663386
40
0.705282320663386
40
0.836662945425109
40
0.836662945425109
40
0.962212936191202
40
0.962212936191202
40
1
40
1
40
1
40
1
41
1
10
32.6043819600417
20
-8.28754594196036
30
0
41
1
10
32.6386117615898
20
-8.27945993286934
30
0
41
1
10
32.6717745161216
20
-8.26843240376471
30
0
41
1
10
32.7403563386755
20
-8.2365353211853
30
0
41
1
10
32.7755506139921
20
-8.21366902864042
30
0
41
1
10
32.8293957511653
20
-8.16089247614201
30
0
41
1
10
32.8505128568283
20
-8.13210787891629
30
0
41
1
10
32.8742896735613
20
-8.07874016362433
30
0
41
1
10
32.8810059815831
20
-8.05580649130084
30
0
41
1
10
32.885458778987
20
-8.02306797227078
30
0
41
1
10
32.8861866916511
20
-8.01356884332662
30
0
41
1
10
32.8867918153238
20
-7.97793710588317
30
0
41
1
10
32.8827627697971
20
-7.95128064513409
30
0
41
1
10
32.873008547855
20
-7.92044163345494
30
0
41
1
10
32.8707421946394
20
-7.91417444558033
30
0
41
1
10
32.8568990508133
20
-7.88012037159007
30
0
41
1
10
32.8406033083254
20
-7.85465649123609
30
0
41
1
10
32.7970837039401
20
-7.80459137894999
30
0
41
1
10
32.7674044337148
20
-7.78139704617206
30
0
41
1
10
32.704685404423
20
-7.7451814331838
30
0
41
1
10
32.6712334060984
20
-7.73139017249349
30
0
41
1
10
32.6258807591636
20
-7.71785063253748
30
0
41
1
10
32.615191249574
20
-7.71500750589575
30
0
41
1
10
32.604381960042
20
-7.71245405803833
30
0
0
SPLINE
5
1DD
100
AcDbEntity
8
1
62
256
6
ByLayer
370
13
48
1
60
0
100
AcDbSpline
70
4
71
3
72
10
73
6
40
0
40
0
40
0
40
0
40
0.666271563875835
40
0.666271563875835
40
1
40
1
40
1
40
1
41
1
10
32.6043819600418
20
-7.71245405803938
30
0
41
1
10
32.6024532131249
20
-7.71199843561686
30
0
41
1
10
32.6005249812773
20
-7.71154272374207
30
0
41
1
10
32.5976317049544
20
-7.71085861657667
30
0
41
1
10
32.5966662675286
20
-7.7106302880828
30
0
41
1
10
32.5957009625832
20
-7.71040193717877
30
0
0
SPLINE
5
1DE
100
AcDbEntity
8
1
62
256
6
ByLayer
370
13
48
1
60
0
100
AcDbSpline
70
4
71
3
72
8
73
4
40
0
40
0
40
0
40
0
40
1
40
1
40
1
40
1
41
1
10
32.5957009625832
20
-7.71040193717943
30
0
41
1
10
32.583265491959
20
-7.70746022329658
30
0
41
1
10
32.570906841708
20
-7.7043983721374
30
0
41
1
10
32.5586453076064
20
-7.70121397345443
30
0
0
SPLINE
5
1DF
100
AcDbEntity
8
1
62
256
6
ByLayer
370
13
48
1
60
0
100
AcDbSpline
70
4
71
3
72
8
73
4
40
0
40
0
40
0
40
0
40
1
40
1
40
1
40
1
41
1
10
33.8731203716814
20
-8.63847952906676
30
0
41
1
10
33.8745825957789
20
-8.63756241163162
30
0
41
1
10
33.8760463384843
20
-8.63664069155095
30
0
41
1
10
33.8775115598651
20
-8.63571442768676
30
0
0
SPLINE
5
1E0
100
AcDbEntity
8
1
62
256
6
ByLayer
370
13
48
1
60
0
100
AcDbSpline
70
4
71
3
72
12
73
8
40
0
40
0
40
0
40
0
40
0.334418366090769
40
0.334418366090769
40
0.734677033774883
40
0.734677033774883
40
1
40
1
40
1
40
1
41
1
10
34.9337805434612
20
-8.86403867263229
30
0
41
1
10
34.802267961703
20
-8.84996206375845
30
0
41
1
10
34.6723193598528
20
-8.81579271998905
30
0
41
1
10
34.3995089617335
20
-8.74441503502405
30
0
41
1
10
34.2541870739038
20
-8.70854963281732
30
0
41
1
10
34.0350503526795
20
-8.66171384015837
30
0
41
1
10
33.9522182729484
20
-8.64614228590472
30
0
41
1
10
33.8775115598652
20
-8.63571442768713
30
0
0
SPLINE
5
1E1
100
AcDbEntity
8
1
62
256
6
ByLayer
370
13
48
1
60
0
100
AcDbSpline
70
4
71
3
72
12
73
8
40
0
40
0
40
0
40
0
40
0.334418366090769
40
0.334418366090769
40
0.734677033774883
40
0.734677033774883
40
1
40
1
40
1
40
1
41
1
10
34.9337805434612
20
-7.13596132736748
30
0
41
1
10
34.802267961703
20
-7.15003793624132
30
0
41
1
10
34.6723193598528
20
-7.18420728001072
30
0
41
1
10
34.3995089617335
20
-7.2555849649757
30
0
41
1
10
34.2541870739038
20
-7.29145036718242
30
0
41
1
10
34.0350503526795
20
-7.33828615984137
30
0
41
1
10
33.9522182729484
20
-7.35385771409503
30
0
41
1
10
33.8775115598652
20
-7.36428557231261
30
0
0
SPLINE
5
1E2
100
AcDbEntity
8
1
62
256
6
ByLayer
370
13
48
1
60
0
100
AcDbSpline
70
4
71
3
72
8
73
4
40
0
40
0
40
0
40
0
40
1
40
1
40
1
40
1
41
1
10
33.8775115598652
20
-7.36428557231261
30
0
41
1
10
33.8760463384844
20
-7.36335930844842
30
0
41
1
10
33.8745825957789
20
-7.36243758836812
30
0
41
1
10
33.8731203716814
20
-7.36152047093302
30
0
0
SPLINE
5
1E3
100
AcDbEntity
8
1
62
256
6
ByLayer
370
13
48
1
60
0
100
AcDbSpline
70
4
71
3
72
18
73
14
40
0
40
0
40
0
40
0
40
0.0161194639884916
40
0.0161194639884916
40
0.0830400526233481
40
0.0830400526233481
40
0.164187348294867
40
0.164187348294867
40
0.329246171114526
40
0.329246171114526
40
0.49267383795864
40
0.49267383795864
40
1
40
1
40
1
40
1
41
1
10
33.0583760306418
20
-7.32393771056346
30
0
41
1
10
33.0583760306418
20
-7.32552191894021
30
0
41
1
10
33.0583070506514
20
-7.3271077316094
30
0
41
1
10
33.0576154305964
20
-7.33514501773482
30
0
41
1
10
33.0558959531471
20
-7.34155079359942
30
0
41
1
10
33.0503990140808
20
-7.35467162383839
30
0
41
1
10
33.0462332916851
20
-7.36135931486947
30
0
41
1
10
33.032021466155
20
-7.37976219500899
30
0
41
1
10
33.0201790807021
20
-7.39006561577938
30
0
41
1
10
32.9955030409141
20
-7.40799347032004
30
0
41
1
10
32.9824167868289
20
-7.41574701491737
30
0
41
1
10
32.9277159291731
20
-7.44421764052117
30
0
41
1
10
32.8832430916057
20
-7.45892001885397
30
0
41
1
10
32.8385371190036
20
-7.47042306328421
30
0
0
SPLINE
5
1E4
100
AcDbEntity
8
1
62
256
6
ByLayer
370
13
48
1
60
0
100
AcDbSpline
70
4
71
3
72
16
73
12
40
0
40
0
40
0
40
0
40
0.17415962102223
40
0.17415962102223
40
0.671976092746537
40
0.671976092746537
40
0.83822694518602
40
0.83822694518602
40
0.929660782988591
40
0.929660782988591
40
1
40
1
40
1
40
1
41
1
10
32.8385371190036
20
-8.52957693671553
30
0
41
1
10
32.8539422148971
20
-8.53354073600693
30
0
41
1
10
32.8692599827102
20
-8.53792309107209
30
0
41
1
10
32.9274830378249
20
-8.55666163281802
30
0
41
1
10
32.9706632046931
20
-8.57395900042278
30
0
41
1
10
33.0203257985211
20
-8.61004120535429
30
0
41
1
10
33.0323080918469
20
-8.6204830101197
30
0
41
1
10
33.0471462242705
20
-8.63989582191087
30
0
41
1
10
33.0517437069761
20
-8.64759890774226
30
0
41
1
10
33.0570278864055
20
-8.66229788874961
30
0
41
1
10
33.0583760306417
20
-8.66922094041743
30
0
41
1
10
33.0583760306418
20
-8.67606228943629
30
0
0
SPLINE
5
1E5
100
AcDbEntity
8
1
62
256
6
ByLayer
370
13
48
1
60
0
100
AcDbSpline
70
4
71
3
72
8
73
4
40
0
40
0
40
0
40
0
40
1
40
1
40
1
40
1
41
1
10
32.1871982348828
20
-8.72543792813519
30
0
41
1
10
32.2371072022262
20
-8.63168346700763
30
0
41
1
10
32.2829751479405
20
-8.53548099644084
30
0
41
1
10
32.3269486592887
20
-8.43841939909714
30
0
0
SPLINE
5
1E6
100
AcDbEntity
8
1
62
256
6
ByLayer
370
13
48
1
60
0
100
AcDbSpline
70
4
71
3
72
8
73
4
40
0
40
0
40
0
40
0
40
1
40
1
40
1
40
1
41
1
10
32.3269486592887
20
-8.43841939909714
30
0
41
1
10
32.3310517239117
20
-8.42936281038959
30
0
41
1
10
32.3358959391856
20
-8.42062525694027
30
0
41
1
10
32.3415296908639
20
-8.41255411201308
30
0
0
SPLINE
5
1E7
100
AcDbEntity
8
1
62
256
6
ByLayer
370
13
48
1
60
0
100
AcDbSpline
70
4
71
3
72
10
73
6
40
0
40
0
40
0
40
0
40
0.607627674029775
40
0.607627674029775
40
1
40
1
40
1
40
1
41
1
10
32.341529690864
20
-8.41255411201314
30
0
41
1
10
32.3449483939528
20
-8.40765633701909
30
0
41
1
10
32.3493450872493
20
-8.4034892047828
30
0
41
1
10
32.3571218081436
20
-8.39774324512038
30
0
41
1
10
32.3603603656148
20
-8.39573090816037
30
0
41
1
10
32.3636781743631
20
-8.39390740001406
30
0
0
SPLINE
5
1E8
100
AcDbEntity
8
1
62
256
6
ByLayer
370
13
48
1
60
0
100
AcDbSpline
70
4
71
3
72
8
73
4
40
0
40
0
40
0
40
0
40
1
40
1
40
1
40
1
41
1
10
32.363678174367
20
-8.39390740002
30
0
41
1
10
32.3740398294939
20
-8.38821250800899
30
0
41
1
10
32.3856192161749
20
-8.38478830535453
30
0
41
1
10
32.3971847075066
20
-8.38319512676605
30
0
0
SPLINE
5
1E9
100
AcDbEntity
8
1
62
256
6
ByLayer
370
13
48
1
60
0
100
AcDbSpline
70
4
71
3
72
10
73
6
40
0
40
0
40
0
40
0
40
0.468522557911306
40
0.468522557911306
40
1
40
1
40
1
40
1
41
1
10
32.3971847075066
20
-8.38319512676614
30
0
41
1
10
32.4125073622826
20
-8.38108438846686
30
0
41
1
10
32.4281890938236
20
-8.38080881184356
30
0
41
1
10
32.4608326130716
20
-8.38488902104046
30
0
41
1
10
32.4781649337055
20
-8.38994353051217
30
0
41
1
10
32.4936729304055
20
-8.39838136872405
30
0
0
SPLINE
5
1EA
100
AcDbEntity
8
1
62
256
6
ByLayer
370
13
48
1
60
0
100
AcDbSpline
70
4
71
3
72
10
73
6
40
0
40
0
40
0
40
0
40
0.39285874077214
40
0.39285874077214
40
1
40
1
40
1
40
1
41
1
10
32.4936729304044
20
-7.60161863127601
30
0
41
1
10
32.4821344359051
20
-7.60789667941305
30
0
41
1
10
32.469596920594
20
-7.61230369270811
30
0
41
1
10
32.437371840694
20
-7.61919540497533
30
0
41
1
10
32.4169301631213
20
-7.61952486464531
30
0
41
1
10
32.3971847075165
20
-7.61680487323687
30
0
0
SPLINE
5
1EB
100
AcDbEntity
8
1
62
256
6
ByLayer
370
13
48
1
60
0
100
AcDbSpline
70
4
71
3
72
10
73
6
40
0
40
0
40
0
40
0
40
0.0840681653027228
40
0.0840681653027228
40
1
40
1
40
1
40
1
41
1
10
32.3971847075162
20
-7.61680487323537
30
0
41
1
10
32.3962010455789
20
-7.61666937106855
30
0
41
1
10
32.3952188661862
20
-7.61652102893478
30
0
41
1
10
32.3836819996079
20
-7.61462053934079
30
0
41
1
10
32.3731694732705
20
-7.61130913359631
30
0
41
1
10
32.3636781743698
20
-7.60609259998131
30
0
0
SPLINE
5
1EC
100
AcDbEntity
8
1
62
256
6
ByLayer
370
13
48
1
60
0
100
AcDbSpline
70
4
71
3
72
10
73
6
40
0
40
0
40
0
40
0
40
0.300964641608717
40
0.300964641608717
40
1
40
1
40
1
40
1
41
1
10
32.3636781743711
20
-7.60609259997253
30
0
41
1
10
32.3611279033247
20
-7.60469093990659
30
0
41
1
10
32.3586265623859
20
-7.60317859008762
30
0
41
1
10
32.3506729861664
20
-7.59773100304326
30
0
41
1
10
32.3454582450927
20
-7.59307409674398
30
0
41
1
10
32.3415296908643
20
-7.58744588798692
30
0
0
SPLINE
5
1ED
100
AcDbEntity
8
1
62
256
6
ByLayer
370
13
48
1
60
0
100
AcDbSpline
70
4
71
3
72
8
73
4
40
0
40
0
40
0
40
0
40
1
40
1
40
1
40
1
41
1
10
32.3415296908642
20
-7.58744588798706
30
0
41
1
10
32.3358959391855
20
-7.57937474305939
30
0
41
1
10
32.3310517239113
20
-7.57063718960947
30
0
41
1
10
32.3269486592881
20
-7.56158060090129
30
0
0
SPLINE
5
1EE
100
AcDbEntity
8
1
62
256
6
ByLayer
370
13
48
1
60
0
100
AcDbSpline
70
4
71
3
72
8
73
4
40
0
40
0
40
0
40
0
40
1
40
1
40
1
40
1
41
1
10
32.3269486592881
20
-7.56158060090129
30
0
41
1
10
32.2829751479401
20
-7.46451900355805
30
0
41
1
10
32.237107202226
20
-7.36831653299171
30
0
41
1
10
32.1871982348828
20
-7.27456207186455
30
0
0
SPLINE
5
1EF
100
AcDbEntity
8
1
62
256
6
ByLayer
370
13
48
1
60
0
100
AcDbSpline
70
4
71
3
72
12
73
8
40
0
40
0
40
0
40
0
40
0.597224160982647
40
0.597224160982647
40
0.806459478729557
40
0.806459478729557
40
1
40
1
40
1
40
1
41
1
10
33.8674054923344
20
-7.37986384875887
30
0
41
1
10
33.8517404047312
20
-7.40209443356389
30
0
41
1
10
33.8345712719748
20
-7.4261400196396
30
0
41
1
10
33.8107775882301
20
-7.45826468990018
30
0
41
1
10
33.804453368985
20
-7.46669277258616
30
0
41
1
10
33.7922252793235
20
-7.48271533539807
30
0
41
1
10
33.7863036863561
20
-7.49035319734787
30
0
41
1
10
33.7803879305321
20
-7.49783784445131
30
0
0
SPLINE
5
1F0
100
AcDbEntity
8
1
62
256
6
ByLayer
370
13
48
1
60
0
100
AcDbSpline
70
4
71
3
72
12
73
8
40
0
40
0
40
0
40
0
40
0.0216552127699091
40
0.0216552127699091
40
0.549266071356395
40
0.549266071356395
40
1
40
1
40
1
40
1
41
1
10
33.651480108414
20
-7.60023835233861
30
0
41
1
10
33.6524880633972
20
-7.5998121336732
30
0
41
1
10
33.6534955429719
20
-7.59937836848417
30
0
41
1
10
33.6789531871476
20
-7.58822336112891
30
0
41
1
10
33.7033813442807
20
-7.57286061496234
30
0
41
1
10
33.7454052205907
20
-7.53780363914944
30
0
41
1
10
33.7638645140883
20
-7.51874336264851
30
0
41
1
10
33.780387930535
20
-7.49783784444767
30
0
0
SPLINE
5
1F1
100
AcDbEntity
8
1
62
256
6
ByLayer
370
13
48
1
60
0
100
AcDbSpline
70
4
71
3
72
12
73
8
40
0
40
0
40
0
40
0
40
0.365727906004492
40
0.365727906004492
40
0.978437105133119
40
0.978437105133119
40
1
40
1
40
1
40
1
41
1
10
33.7803879305321
20
-8.50216215554849
30
0
41
1
10
33.7669233419134
20
-8.48512668329388
30
0
41
1
10
33.7521983132535
20
-8.46933106684446
30
0
41
1
10
33.7111353907575
20
-8.43217260964826
30
0
41
1
10
33.6828055733672
20
-8.41346464638789
30
0
41
1
10
33.6534955383431
20
-8.40062163388302
30
0
41
1
10
33.6524880622417
20
-8.4001878669207
30
0
41
1
10
33.6514801084146
20
-8.39976164766165
30
0
0
SPLINE
5
1F2
100
AcDbEntity
8
1
62
256
6
ByLayer
370
13
48
1
60
0
100
AcDbSpline
70
4
71
3
72
12
73
8
40
0
40
0
40
0
40
0
40
0.597224160967102
40
0.597224160967102
40
0.806459478710096
40
0.806459478710096
40
1
40
1
40
1
40
1
41
1
10
33.8674054923344
20
-8.62013615124087
30
0
41
1
10
33.8517404047312
20
-8.59790556643583
30
0
41
1
10
33.8345712719747
20
-8.57385998036003
30
0
41
1
10
33.8107775882299
20
-8.54173531009926
30
0
41
1
10
33.8044533689847
20
-8.53330722741316
30
0
41
1
10
33.7922252793233
20
-8.51728466460133
30
0
41
1
10
33.786303686356
20
-8.50964680265173
30
0
41
1
10
33.7803879305321
20
-8.50216215554852
30
0
0
SPLINE
5
1F3
100
AcDbEntity
8
1
62
256
6
ByLayer
370
13
48
1
60
0
100
AcDbSpline
70
4
71
3
72
8
73
4
40
0
40
0
40
0
40
0
40
1
40
1
40
1
40
1
41
1
10
33.7803879305321
20
-7.49783784445131
30
0
41
1
10
33.7917464413886
20
-7.50724773267288
30
0
41
1
10
33.8018184386868
20
-7.51517679994404
30
0
41
1
10
33.8102634151926
20
-7.52135698575165
30
0
0
SPLINE
5
1F4
100
AcDbEntity
8
1
62
256
6
ByLayer
370
13
48
1
60
0
100
AcDbSpline
70
4
71
3
72
12
73
8
40
0
40
0
40
0
40
0
40
0.488366722420296
40
0.488366722420296
40
0.942436355362905
40
0.942436355362905
40
1
40
1
40
1
40
1
41
1
10
33.8262120963125
20
-8.37602364728971
30
0
41
1
10
33.8283429607195
20
-8.34714786496855
30
0
41
1
10
33.8319548858697
20
-8.31053841001997
30
0
41
1
10
33.8453657154375
20
-8.23210541536432
30
0
41
1
10
33.8548755278662
20
-8.18977616239781
30
0
41
1
10
33.8702301431231
20
-8.14192379777677
30
0
41
1
10
33.8720501662501
20
-8.13646011931485
30
0
41
1
10
33.8739430174867
20
-8.13099554185641
30
0
0
SPLINE
5
1F5
100
AcDbEntity
8
1
62
256
6
ByLayer
370
13
48
1
60
0
100
AcDbSpline
70
4
71
3
72
12
73
8
40
0
40
0
40
0
40
0
40
0.037828268420456
40
0.037828268420456
40
0.727108891322556
40
0.727108891322556
40
1
40
1
40
1
40
1
41
1
10
33.8739430174867
20
-8.13099554185641
30
0
41
1
10
33.8824023364264
20
-8.13267351030339
30
0
41
1
10
33.8909189581297
20
-8.13436944621398
30
0
41
1
10
34.0536057521076
20
-8.16688953191158
30
0
41
1
10
34.2281123770015
20
-8.20386866301089
30
0
41
1
10
34.4808681739289
20
-8.25984673513054
30
0
41
1
10
34.5546315555727
20
-8.27645425971949
30
0
41
1
10
34.6289221872925
20
-8.29345189211088
30
0
0
SPLINE
5
1F6
100
AcDbEntity
8
1
62
256
6
ByLayer
370
13
48
1
60
0
100
AcDbSpline
70
4
71
3
72
24
73
20
40
0
40
0
40
0
40
0
40
0.0291918203657016
40
0.0291918203657016
40
0.136396538158131
40
0.136396538158131
40
0.265987867368488
40
0.265987867368488
40
0.377753358158994
40
0.377753358158994
40
0.50483938938664
40
0.50483938938664
40
0.632110922025969
40
0.632110922025969
40
0.762713398901978
40
0.762713398901978
40
0.901999958850298
40
0.901999958850298
40
1
40
1
40
1
40
1
41
1
10
32.4817115471212
20
-7.80266454963484
30
0
41
1
10
32.4860998093752
20
-7.80444748191192
30
0
41
1
10
32.490300333935
20
-7.80641035590037
30
0
41
1
10
32.5087793745321
20
-7.81619810588444
30
0
41
1
10
32.5208255768154
20
-7.82601276939636
30
0
41
1
10
32.5430843368215
20
-7.85092338462914
30
0
41
1
10
32.5527903934534
20
-7.86711077030668
30
0
41
1
10
32.566954912446
20
-7.90094403369341
30
0
41
1
10
32.57204803846
20
-7.91843200650683
30
0
41
1
10
32.5794867440361
20
-7.95774984409331
30
0
41
1
10
32.581458605176
20
-7.98048690472805
30
0
41
1
10
32.5811100662915
20
-8.02514733185578
30
0
41
1
10
32.5787796342844
20
-8.04776299569801
30
0
41
1
10
32.5700744334302
20
-8.08964655595557
30
0
41
1
10
32.5634978563533
20
-8.10947475450979
30
0
41
1
10
32.5457369932043
20
-8.14516671323454
30
0
41
1
10
32.5340799608659
20
-8.1612745536768
30
0
41
1
10
32.508701419119
20
-8.1835204602317
30
0
41
1
10
32.4962344198634
20
-8.19143486898014
30
0
41
1
10
32.4817115471212
20
-8.1973354503649
30
0
0
SPLINE
5
1F7
100
AcDbEntity
8
1
62
256
6
ByLayer
370
13
48
1
60
0
100
AcDbSpline
70
4
71
3
72
12
73
8
40
0
40
0
40
0
40
0
40
0.365724954919257
40
0.365724954919257
40
0.979118069631435
40
0.979118069631435
40
1
40
1
40
1
40
1
41
1
10
33.8102634152023
20
-8.47864301426387
30
0
41
1
10
33.7937361056157
20
-8.46397564506404
30
0
41
1
10
33.7756371518841
20
-8.45080314607088
30
0
41
1
10
33.7250623637126
20
-8.42104498684782
30
0
41
1
10
33.6900751797186
20
-8.40755567663322
30
0
41
1
10
33.6538899332389
20
-8.40022767574544
30
0
41
1
10
33.6526851799038
20
-8.39999119774635
30
0
41
1
10
33.6514801084146
20
-8.39976164766173
30
0
0
SPLINE
5
1F8
100
AcDbEntity
8
1
62
256
6
ByLayer
370
13
48
1
60
0
100
AcDbSpline
70
4
71
3
72
12
73
8
40
0
40
0
40
0
40
0
40
0.0209717280275962
40
0.0209717280275962
40
0.549261945584352
40
0.549261945584352
40
1
40
1
40
1
40
1
41
1
10
33.6514801084148
20
-7.60023835233824
30
0
41
1
10
33.6526851798995
20
-7.60000880224769
30
0
41
1
10
33.6538899332219
20
-7.5997723242304
30
0
41
1
10
33.6853191773472
20
-7.59340747819761
30
0
41
1
10
33.7154975045281
20
-7.58255586393389
30
0
41
1
10
33.7672856302101
20
-7.55511913838967
30
0
41
1
10
33.7899815347171
20
-7.53935639620184
30
0
41
1
10
33.8102634152025
20
-7.52135698573616
30
0
0
SPLINE
5
1F9
100
AcDbEntity
8
1
62
256
6
ByLayer
370
13
48
1
60
0
100
AcDbSpline
70
4
71
3
72
12
73
8
40
0
40
0
40
0
40
0
40
0.49164663932398
40
0.49164663932398
40
0.875373657848572
40
0.875373657848572
40
1
40
1
40
1
40
1
41
1
10
33.8739430174867
20
-7.86900445814334
30
0
41
1
10
33.8580682635103
20
-7.82317474841236
30
0
41
1
10
33.8471504774152
20
-7.77683298783822
30
0
41
1
10
33.8341440987431
20
-7.70327405793051
30
0
41
1
10
33.830526825236
20
-7.67331336119463
30
0
41
1
10
33.8274054244723
20
-7.6393950355195
30
0
41
1
10
33.8267634910172
20
-7.63144841588334
30
0
41
1
10
33.8262120963126
20
-7.62397635270997
30
0
0
SPLINE
5
1FA
100
AcDbEntity
8
1
62
256
6
ByLayer
370
13
48
1
60
0
100
AcDbSpline
70
4
71
3
72
12
73
8
40
0
40
0
40
0
40
0
40
0.0378282684204534
40
0.0378282684204534
40
0.727108891322555
40
0.727108891322555
40
1
40
1
40
1
40
1
41
1
10
33.8739430174867
20
-7.86900445814334
30
0
41
1
10
33.8824023364264
20
-7.86732648969635
30
0
41
1
10
33.8909189581297
20
-7.86563055378576
30
0
41
1
10
34.0536057521076
20
-7.83311046808817
30
0
41
1
10
34.2281123770015
20
-7.79613133698885
30
0
41
1
10
34.4808681739289
20
-7.74015326486921
30
0
41
1
10
34.5546315555727
20
-7.72354574028026
30
0
41
1
10
34.6289221872925
20
-7.70654810788886
30
0
0
SPLINE
5
1FB
100
AcDbEntity
8
1
62
256
6
ByLayer
370
13
48
1
60
0
100
AcDbSpline
70
4
71
3
72
8
73
4
40
0
40
0
40
0
40
0
40
1
40
1
40
1
40
1
41
1
10
33.8775115598657
20
-7.36428557231108
30
0
41
1
10
33.8742211632921
20
-7.36941750341001
30
0
41
1
10
33.8708498814567
20
-7.3746157947329
30
0
41
1
10
33.8674054923343
20
-7.37986384875938
30
0
0
SPLINE
5
1FC
100
AcDbEntity
8
1
62
256
6
ByLayer
370
13
48
1
60
0
100
AcDbSpline
70
4
71
3
72
8
73
4
40
0
40
0
40
0
40
0
40
1
40
1
40
1
40
1
41
1
10
33.8775115598653
20
-8.63571442768762
30
0
41
1
10
33.874221163292
20
-8.63058249658908
30
0
41
1
10
33.8708498814565
20
-8.62538420526693
30
0
41
1
10
33.8674054923344
20
-8.62013615124084
30
0
0
SPLINE
5
1FD
100
AcDbEntity
8
1
62
256
6
ByLayer
370
13
48
1
60
0
100
AcDbSpline
70
4
71
3
72
10
73
6
40
0
40
0
40
0
40
0
40
0.543977242056965
40
0.543977242056965
40
1
40
1
40
1
40
1
41
1
10
32.5586453076065
20
-8.29878602654756
30
0
41
1
10
32.5348598955802
20
-8.27979292431314
30
0
41
1
10
32.5082267241209
20
-8.26563032199675
30
0
41
1
10
32.4582400099704
20
-8.24998177524407
30
0
41
1
10
32.4345424108346
20
-8.24663354430419
30
0
41
1
10
32.4112725012788
20
-8.24702036436733
30
0
0
SPLINE
5
1FE
100
AcDbEntity
8
1
62
256
6
ByLayer
370
13
48
1
60
0
100
AcDbSpline
70
4
71
3
72
10
73
6
40
0
40
0
40
0
40
0
40
0.594671969867266
40
0.594671969867266
40
1
40
1
40
1
40
1
41
1
10
32.4112725012887
20
-7.7529796356323
30
0
41
1
10
32.4414272134588
20
-7.75348090305596
30
0
41
1
10
32.4724285425084
20
-7.74762956990312
30
0
41
1
10
32.521404499001
20
-7.72700262909496
30
0
41
1
10
32.5407983096893
20
-7.71546513949232
30
0
41
1
10
32.5586453076066
20
-7.70121397345665
30
0
0
SPLINE
5
1FF
100
AcDbEntity
8
1
62
256
6
ByLayer
370
13
48
1
60
0
100
AcDbSpline
70
4
71
3
72
10
73
6
40
0
40
0
40
0
40
0
40
0.441584000439074
40
0.441584000439074
40
1
40
1
40
1
40
1
41
1
10
32.3682618588516
20
-7.7523779696846
30
0
41
1
10
32.3831578146862
20
-7.75978913624493
30
0
41
1
10
32.3983157146139
20
-7.76698520910489
30
0
41
1
10
32.4331615279672
20
-7.78275449548715
30
0
41
1
10
32.4530007239137
20
-7.79119450516581
30
0
41
1
10
32.4731579439907
20
-7.79924434820057
30
0
0
SPLINE
5
200
100
AcDbEntity
8
1
62
256
6
ByLayer
370
13
48
1
60
0
100
AcDbSpline
70
4
71
3
72
10
73
6
40
0
40
0
40
0
40
0
40
0.317001517206847
40
0.317001517206847
40
1
40
1
40
1
40
1
41
1
10
32.4112725012775
20
-7.75297963563091
30
0
41
1
10
32.4064777423953
20
-7.75362120522828
30
0
41
1
10
32.401749086712
20
-7.7540404904654
30
0
41
1
10
32.3870718822178
20
-7.75465916266188
30
0
41
1
10
32.3773952454518
20
-7.75403530705034
30
0
41
1
10
32.3682618588517
20
-7.7523779696846
30
0
0
SPLINE
5
201
100
AcDbEntity
8
1
62
256
6
ByLayer
370
13
48
1
60
0
100
AcDbSpline
70
4
71
3
72
10
73
6
40
0
40
0
40
0
40
0
40
0.357650901073067
40
0.357650901073067
40
1
40
1
40
1
40
1
41
1
10
32.3682618588517
20
-8.24762203031514
30
0
41
1
10
32.3730683572598
20
-8.24674984678029
30
0
41
1
10
32.3780213367012
20
-8.24616330605301
30
0
41
1
10
32.3921229263445
20
-8.24533571372717
30
0
41
1
10
32.4015680505855
20
-8.24572184640692
30
0
41
1
10
32.4112725012795
20
-8.24702036436722
30
0
0
SPLINE
5
202
100
AcDbEntity
8
1
62
256
6
ByLayer
370
13
48
1
60
0
100
AcDbSpline
70
4
71
3
72
10
73
6
40
0
40
0
40
0
40
0
40
0.558477308496816
40
0.558477308496816
40
1
40
1
40
1
40
1
41
1
10
32.4731579439905
20
-8.20075565179818
30
0
41
1
10
32.4529985124188
20
-8.20880637799965
30
0
41
1
10
32.4331571738854
20
-8.21724735702475
30
0
41
1
10
32.3983115077506
20
-8.23301678794104
30
0
41
1
10
32.3831557478674
20
-8.24021189205664
30
0
41
1
10
32.3682618588516
20
-8.24762203031514
30
0
0
SPLINE
5
203
100
AcDbEntity
8
1
62
256
6
ByLayer
370
13
48
1
60
0
100
AcDbSpline
70
4
71
3
72
12
73
8
40
0
40
0
40
0
40
0
40
0.709988165001255
40
0.709988165001255
40
0.92220788847233
40
0.92220788847233
40
1
40
1
40
1
40
1
41
1
10
32.3327064157301
20
-7.71699214973569
30
0
41
1
10
32.349201252382
20
-7.72917739938919
30
0
41
1
10
32.3677573595242
20
-7.73890732880602
30
0
41
1
10
32.3928332682202
20
-7.74789205430946
30
0
41
1
10
32.398736568945
20
-7.7497319513144
30
0
41
1
10
32.4068788977592
20
-7.75190951721476
30
0
41
1
10
32.4090724396469
20
-7.7524610612231
30
0
41
1
10
32.4112725012799
20
-7.75297963562468
30
0
0
SPLINE
5
204
100
AcDbEntity
8
1
62
256
6
ByLayer
370
13
48
1
60
0
100
AcDbSpline
70
4
71
3
72
10
73
6
40
0
40
0
40
0
40
0
40
0.735193443551149
40
0.735193443551149
40
1
40
1
40
1
40
1
41
1
10
32.4112725012795
20
-8.24702036436821
30
0
41
1
10
32.3906991613073
20
-8.25186968645252
30
0
41
1
10
32.3704915627687
20
-8.25971465021541
30
0
41
1
10
32.3454099006125
20
-8.2741789474351
30
0
41
1
10
32.3389206110604
20
-8.27841723056792
30
0
41
1
10
32.3327064157472
20
-8.28300785021725
30
0
0
SPLINE
5
205
100
AcDbEntity
8
1
62
256
6
ByLayer
370
13
48
1
60
0
100
AcDbSpline
70
4
71
3
72
10
73
6
40
0
40
0
40
0
40
0
40
0.333804371559252
40
0.333804371559252
40
1
40
1
40
1
40
1
41
1
10
32.4731579439905
20
-7.79924434820157
30
0
41
1
10
32.4741089610471
20
-7.79962488934694
30
0
41
1
10
32.475060222121
20
-7.80000543695269
30
0
41
1
10
32.4779107035582
20
-7.80114548659631
30
0
41
1
10
32.4798106484521
20
-7.80190500732112
30
0
41
1
10
32.4817115471212
20
-7.80266454963484
30
0
0
SPLINE
5
206
100
AcDbEntity
8
1
62
256
6
ByLayer
370
13
48
1
60
0
100
AcDbSpline
70
4
71
3
72
10
73
6
40
0
40
0
40
0
40
0
40
0.666195628071545
40
0.666195628071545
40
1
40
1
40
1
40
1
41
1
10
32.4817115471212
20
-8.1973354503649
30
0
41
1
10
32.4798106484531
20
-8.19809499267819
30
0
41
1
10
32.4779107035603
20
-8.19885451340258
30
0
41
1
10
32.4750602221231
20
-8.19999456304623
30
0
41
1
10
32.4741089610481
20
-8.20037511065294
30
0
41
1
10
32.4731579439904
20
-8.20075565179874
30
0
0
SPLINE
5
207
100
AcDbEntity
8
1
62
256
6
ByLayer
370
13
48
1
60
0
100
AcDbSpline
70
4
71
3
72
10
73
6
40
0
40
0
40
0
40
0
40
0.741839809293022
40
0.741839809293022
40
1
40
1
40
1
40
1
41
1
10
32.2775223795399
20
-7.64930433755848
30
0
41
1
10
32.2872637205793
20
-7.66865584861085
30
0
41
1
10
32.3004639767516
20
-7.68650731229587
30
0
41
1
10
32.3211300943468
20
-7.70713145528106
30
0
41
1
10
32.3267956571449
20
-7.71221997476846
30
0
41
1
10
32.332706415723
20
-7.7169921497451
30
0
0
SPLINE
5
208
100
AcDbEntity
8
1
62
256
6
ByLayer
370
13
48
1
60
0
100
AcDbSpline
70
4
71
3
72
10
73
6
40
0
40
0
40
0
40
0
40
0.344098564729953
40
0.344098564729953
40
1
40
1
40
1
40
1
41
1
10
32.3327064157477
20
-8.28300785021813
30
0
41
1
10
32.3248480305402
20
-8.28935248242291
30
0
41
1
10
32.3174164333952
20
-8.29626032464574
30
0
41
1
10
32.2974612534848
20
-8.31762204716304
30
0
41
1
10
32.2861446779715
20
-8.33356716825074
30
0
41
1
10
32.2775223795393
20
-8.35069566244212
30
0
0
SPLINE
5
209
100
AcDbEntity
8
1
62
256
6
ByLayer
370
13
48
1
60
0
100
AcDbSpline
70
4
71
3
72
8
73
4
40
0
40
0
40
0
40
0
40
1
40
1
40
1
40
1
41
1
10
32.2484695777326
20
-7.61103419769105
30
0
41
1
10
32.256844178597
20
-7.62474357051852
30
0
41
1
10
32.2665807416806
20
-7.63762943342925
30
0
41
1
10
32.2775223795412
20
-7.64930433755737
30
0
0
SPLINE
5
20A
100
AcDbEntity
8
1
62
256
6
ByLayer
370
13
48
1
60
0
100
AcDbSpline
70
4
71
3
72
8
73
4
40
0
40
0
40
0
40
0
40
1
40
1
40
1
40
1
41
1
10
32.2775223795389
20
-8.35069566244192
30
0
41
1
10
32.266580741679
20
-8.36237056656961
30
0
41
1
10
32.2568441785981
20
-8.37525642948359
30
0
41
1
10
32.2484695777341
20
-8.38896580231039
30
0
0
SPLINE
5
20B
100
AcDbEntity
8
1
62
256
6
ByLayer
370
13
48
1
60
0
100
AcDbSpline
70
4
71
3
72
8
73
4
40
0
40
0
40
0
40
0
40
1
40
1
40
1
40
1
41
1
10
32.2484695777332
20
-8.38896580230772
30
0
41
1
10
32.206994641852
20
-8.48549280893289
30
0
41
1
10
32.1641587550012
20
-8.58148984445222
30
0
41
1
10
32.1183319361238
20
-8.67598433134577
30
0
0
SPLINE
5
20C
100
AcDbEntity
8
1
62
256
6
ByLayer
370
13
48
1
60
0
100
AcDbSpline
70
4
71
3
72
8
73
4
40
0
40
0
40
0
40
0
40
1
40
1
40
1
40
1
41
1
10
32.1183319361238
20
-7.32401566865397
30
0
41
1
10
32.164158755001
20
-7.41851015554718
30
0
41
1
10
32.2069946418517
20
-7.51450719106617
30
0
41
1
10
32.2484695777328
20
-7.61103419769094
30
0
0
SPLINE
5
20D
100
AcDbEntity
8
1
62
256
6
ByLayer
370
13
48
1
60
0
100
AcDbSpline
70
4
71
3
72
10
73
6
40
0
40
0
40
0
40
0
40
0.779724613001554
40
0.779724613001554
40
1
40
1
40
1
40
1
41
1
10
32.3487905068831
20
-7.74897564444694
30
0
41
1
10
32.3522814951948
20
-7.74897564444711
30
0
41
1
10
32.3570719807736
20
-7.74963590935297
30
0
41
1
10
32.364621012228
20
-7.75141237073865
30
0
41
1
10
32.3664035390181
20
-7.75186857537454
30
0
41
1
10
32.3682618588517
20
-7.7523779696846
30
0
0
SPLINE
5
20E
100
AcDbEntity
8
1
62
256
6
ByLayer
370
13
48
1
60
0
100
AcDbSpline
70
4
71
3
72
8
73
4
40
0
40
0
40
0
40
0
40
1
40
1
40
1
40
1
41
1
10
32.2775223795398
20
-7.64930433755836
30
0
41
1
10
32.2675268649006
20
-7.64351228094532
30
0
41
1
10
32.2585032631411
20
-7.63768150062728
30
0
41
1
10
32.2506142807835
20
-7.63200211972213
30
0
0
SPLINE
5
20F
100
AcDbEntity
8
1
62
256
6
ByLayer
370
13
48
1
60
0
100
AcDbSpline
70
4
71
3
72
8
73
4
40
0
40
0
40
0
40
0
40
1
40
1
40
1
40
1
41
1
10
32.2506142807802
20
-8.36799788027963
30
0
41
1
10
32.2585032631377
20
-8.36231849937454
30
0
41
1
10
32.2675268648999
20
-8.35648771905488
30
0
41
1
10
32.277522379539
20
-8.35069566244184
30
0
0
SPLINE
5
210
100
AcDbEntity
8
1
62
256
6
ByLayer
370
13
48
1
60
0
100
AcDbSpline
70
4
71
3
72
10
73
6
40
0
40
0
40
0
40
0
40
0.220275387008479
40
0.220275387008479
40
1
40
1
40
1
40
1
41
1
10
32.3682618588517
20
-8.24762203031514
30
0
41
1
10
32.366403539018
20
-8.24813142462523
30
0
41
1
10
32.3646210122277
20
-8.24858762926118
30
0
41
1
10
32.3570719807735
20
-8.25036409064674
30
0
41
1
10
32.3522814951945
20
-8.25102435555269
30
0
41
1
10
32.3487905068828
20
-8.2510243555528
30
0
0
SPLINE
5
211
100
AcDbEntity
8
1
62
256
6
ByLayer
370
13
48
1
60
0
100
AcDbSpline
70
4
71
3
72
10
73
6
40
0
40
0
40
0
40
0
40
0.491839191976824
40
0.491839191976824
40
1
40
1
40
1
40
1
41
1
10
33.8739430174867
20
-8.13099554185641
30
0
41
1
10
33.8840171195627
20
-8.08939882869163
30
0
41
1
10
33.889736079367
20
-8.0455961447976
30
0
41
1
10
33.890089674138
20
-7.95726742859813
30
0
41
1
10
33.8843433987004
20
-7.91194840201939
30
0
41
1
10
33.8739430174867
20
-7.86900445814334
30
0
0
SPLINE
5
212
100
AcDbEntity
8
1
62
256
6
ByLayer
370
13
48
1
60
0
100
AcDbSpline
70
4
71
3
72
8
73
4
40
0
40
0
40
0
40
0
40
1
40
1
40
1
40
1
41
1
10
32.248469577733
20
-7.6110341976898
30
0
41
1
10
32.2491523507354
20
-7.61796360355234
30
0
41
1
10
32.2498660198604
20
-7.62495526892243
30
0
41
1
10
32.2506142807769
20
-7.63200211971778
30
0
0
SPLINE
5
213
100
AcDbEntity
8
1
62
256
6
ByLayer
370
13
48
1
60
0
100
AcDbSpline
70
4
71
3
72
8
73
4
40
0
40
0
40
0
40
0
40
1
40
1
40
1
40
1
41
1
10
32.2506142807767
20
-8.36799788028313
30
0
41
1
10
32.2498660198604
20
-8.37504473107734
30
0
41
1
10
32.2491523507355
20
-8.3820363964463
30
0
41
1
10
32.2484695777332
20
-8.38896580230772
30
0
0
SPLINE
5
214
100
AcDbEntity
8
1
62
256
6
ByLayer
370
13
48
1
60
0
100
AcDbSpline
70
4
71
3
72
8
73
4
40
0
40
0
40
0
40
0
40
1
40
1
40
1
40
1
41
1
10
35.9397600217522
20
-7.15614709968276
30
0
41
1
10
35.8220556485929
20
-7.13167380944549
30
0
41
1
10
35.7008781086109
20
-7.12224731931357
30
0
41
1
10
35.5810768987951
20
-7.12518383633312
30
0
0
SPLINE
5
215
100
AcDbEntity
8
1
62
256
6
ByLayer
370
13
48
1
60
0
100
AcDbSpline
70
4
71
3
72
16
73
12
40
0
40
0
40
0
40
0
40
0.565035752121982
40
0.565035752121982
40
0.802127499925977
40
0.802127499925977
40
0.909039374754918
40
0.909039374754918
40
0.963879000672096
40
0.963879000672096
40
1
40
1
40
1
40
1
41
1
10
35.9753143467793
20
-7.23446411403975
30
0
41
1
10
35.9686286509489
20
-7.22007154087311
30
0
41
1
10
35.9618879302625
20
-7.2053661699027
30
0
41
1
10
35.9523712685777
20
-7.18434379942957
30
0
41
1
10
35.9495577546969
20
-7.17809558287334
30
0
41
1
10
35.9454904861867
20
-7.16901395895295
30
0
41
1
10
35.9442279534699
20
-7.16618800063728
30
0
41
1
10
35.9423215351283
20
-7.16191019761897
30
0
41
1
10
35.9416757755847
20
-7.16045933015332
30
0
41
1
10
35.9406068513424
20
-7.1580546125802
30
0
41
1
10
35.9401828059207
20
-7.15710111222353
30
0
41
1
10
35.9397600217523
20
-7.15614709968276
30
0
0
SPLINE
5
216
100
AcDbEntity
8
1
62
256
6
ByLayer
370
13
48
1
60
0
100
AcDbSpline
70
4
71
3
72
10
73
6
40
0
40
0
40
0
40
0
40
0.484066971714713
40
0.484066971714713
40
1
40
1
40
1
40
1
41
1
10
36.0636089363248
20
-7.34419694560239
30
0
41
1
10
36.0463854867531
20
-7.32933247646409
30
0
41
1
10
36.0300210449059
20
-7.31327144162356
30
0
41
1
10
35.9997771424429
20
-7.27717888705956
30
0
41
1
10
35.985689560494
20
-7.25679926452898
30
0
41
1
10
35.9753143467793
20
-7.23446411403975
30
0
0
SPLINE
5
217
100
AcDbEntity
8
1
62
256
6
ByLayer
370
13
48
1
60
0
100
AcDbSpline
70
4
71
3
72
16
73
12
40
0
40
0
40
0
40
0
40
0.565035752121982
40
0.565035752121982
40
0.802127499925978
40
0.802127499925978
40
0.909039374754918
40
0.909039374754918
40
0.963879000672096
40
0.963879000672096
40
1
40
1
40
1
40
1
41
1
10
35.9753143467793
20
-8.76553588596002
30
0
41
1
10
35.9686286509486
20
-8.7799284591265
30
0
41
1
10
35.9618879302625
20
-8.79463383009704
30
0
41
1
10
35.9523712685777
20
-8.81565620057017
30
0
41
1
10
35.9495577546969
20
-8.8219044171264
30
0
41
1
10
35.9454904861867
20
-8.8309860410468
30
0
41
1
10
35.9442279534699
20
-8.8338119993625
30
0
41
1
10
35.9423215351283
20
-8.83808980238078
30
0
41
1
10
35.9416757755847
20
-8.83954066984643
30
0
41
1
10
35.9406068513424
20
-8.84194538741954
30
0
41
1
10
35.9401828059207
20
-8.84289888777622
30
0
41
1
10
35.9397600217523
20
-8.84385290031699
30
0
0
SPLINE
5
218
100
AcDbEntity
8
1
62
256
6
ByLayer
370
13
48
1
60
0
100
AcDbSpline
70
4
71
3
72
8
73
4
40
0
40
0
40
0
40
0
40
1
40
1
40
1
40
1
41
1
10
35.9397600217522
20
-8.84385290031699
30
0
41
1
10
35.8220556485929
20
-8.86832619055426
30
0
41
1
10
35.7008781086109
20
-8.87775268068617
30
0
41
1
10
35.5810768987951
20
-8.87481616366662
30
0
0
SPLINE
5
219
100
AcDbEntity
8
1
62
256
6
ByLayer
370
13
48
1
60
0
100
AcDbSpline
70
4
71
3
72
10
73
6
40
0
40
0
40
0
40
0
40
0.484066971714709
40
0.484066971714709
40
1
40
1
40
1
40
1
41
1
10
36.0636089363248
20
-8.65580305439735
30
0
41
1
10
36.0463854867531
20
-8.67066752353566
30
0
41
1
10
36.0300210449059
20
-8.68672855837619
30
0
41
1
10
35.9997771424429
20
-8.72282111294018
30
0
41
1
10
35.985689560494
20
-8.74320073547077
30
0
41
1
10
35.9753143467793
20
-8.76553588595999
30
0
0
SPLINE
5
21A
100
AcDbEntity
8
1
62
256
6
ByLayer
370
13
48
1
60
0
100
AcDbSpline
70
4
71
3
72
10
73
6
40
0
40
0
40
0
40
0
40
0.176628710800224
40
0.176628710800224
40
1
40
1
40
1
40
1
41
1
10
36.3256635776615
20
-7.46887911270255
30
0
41
1
10
36.3183722025778
20
-7.45789288199114
30
0
41
1
10
36.3104894309624
20
-7.44728913007347
30
0
41
1
10
36.2638040682909
20
-7.3902344246772
30
0
41
1
10
36.2154493527108
20
-7.35130053320154
30
0
41
1
10
36.1642473322785
20
-7.31913067945988
30
0
0
SPLINE
5
21B
100
AcDbEntity
8
1
62
256
6
ByLayer
370
13
48
1
60
0
100
AcDbSpline
70
4
71
3
72
8
73
4
40
0
40
0
40
0
40
0
40
1
40
1
40
1
40
1
41
1
10
36.1642473322785
20
-7.31913067945988
30
0
41
1
10
36.1451065349848
20
-7.30710465696623
30
0
41
1
10
36.125925565824
20
-7.29514243207063
30
0
41
1
10
36.1067026707552
20
-7.28324830862616
30
0
0
SPLINE
5
21C
100
AcDbEntity
8
1
62
256
6
ByLayer
370
13
48
1
60
0
100
AcDbSpline
70
4
71
3
72
10
73
6
40
0
40
0
40
0
40
0
40
0.502273026272322
40
0.502273026272322
40
1
40
1
40
1
40
1
41
1
10
36.1067026707552
20
-7.28324830862616
30
0
41
1
10
36.0891255877276
20
-7.2723725277109
30
0
41
1
10
36.0719685584501
20
-7.26074793609621
30
0
41
1
10
36.0393998135679
20
-7.23566227550248
30
0
41
1
10
36.0236090237987
20
-7.22226448622277
30
0
41
1
10
36.0105155637419
20
-7.20654622743126
30
0
0
SPLINE
5
21D
100
AcDbEntity
8
1
62
256
6
ByLayer
370
13
48
1
60
0
100
AcDbSpline
70
4
71
3
72
10
73
6
40
0
40
0
40
0
40
0
40
0.502273026272322
40
0.502273026272322
40
1
40
1
40
1
40
1
41
1
10
36.1067026707552
20
-8.71675169137362
30
0
41
1
10
36.0891255877276
20
-8.72762747228884
30
0
41
1
10
36.0719685584501
20
-8.73925206390356
30
0
41
1
10
36.0393998135679
20
-8.76433772449727
30
0
41
1
10
36.0236090237987
20
-8.777735513777
30
0
41
1
10
36.0105155637419
20
-8.79345377256851
30
0
0
SPLINE
5
21E
100
AcDbEntity
8
1
62
256
6
ByLayer
370
13
48
1
60
0
100
AcDbSpline
70
4
71
3
72
8
73
4
40
0
40
0
40
0
40
0
40
1
40
1
40
1
40
1
41
1
10
36.1642473322785
20
-8.68086932053987
30
0
41
1
10
36.1451065349848
20
-8.69289534303354
30
0
41
1
10
36.125925565824
20
-8.70485756792911
30
0
41
1
10
36.1067026707552
20
-8.71675169137359
30
0
0
SPLINE
5
21F
100
AcDbEntity
8
1
62
256
6
ByLayer
370
13
48
1
60
0
100
AcDbSpline
70
4
71
3
72
10
73
6
40
0
40
0
40
0
40
0
40
0.176628710800224
40
0.176628710800224
40
1
40
1
40
1
40
1
41
1
10
36.3256635776615
20
-8.53112088729719
30
0
41
1
10
36.3183722025778
20
-8.5421071180086
30
0
41
1
10
36.3104894309624
20
-8.55271086992627
30
0
41
1
10
36.2638040682909
20
-8.60976557532254
30
0
41
1
10
36.2154493527108
20
-8.64869946679821
30
0
41
1
10
36.1642473322785
20
-8.68086932053987
30
0
0
SPLINE
5
220
100
AcDbEntity
8
1
62
256
6
ByLayer
370
13
48
1
60
0
100
AcDbSpline
70
4
71
3
72
10
73
6
40
0
40
0
40
0
40
0
40
0.828685679108716
40
0.828685679108716
40
1
40
1
40
1
40
1
41
1
10
36.1207683583679
20
-8.62023176813375
30
0
41
1
10
36.1686097493866
20
-8.5948789414492
30
0
41
1
10
36.2147633392972
20
-8.56407320760223
30
0
41
1
10
36.2604070337687
20
-8.51717105504835
30
0
41
1
10
36.2679488590384
20
-8.50866004142728
30
0
41
1
10
36.2749800271743
20
-8.49976204988963
30
0
0
SPLINE
5
221
100
AcDbEntity
8
1
62
256
6
ByLayer
370
13
48
1
60
0
100
AcDbSpline
70
4
71
3
72
10
73
6
40
0
40
0
40
0
40
0
40
0.828685679108716
40
0.828685679108716
40
1
40
1
40
1
40
1
41
1
10
36.1207683583679
20
-7.37976823186602
30
0
41
1
10
36.1686097493866
20
-7.40512105855058
30
0
41
1
10
36.2147633392972
20
-7.43592679239751
30
0
41
1
10
36.2604070337687
20
-7.48282894495139
30
0
41
1
10
36.2679488590384
20
-7.4913399585725
30
0
41
1
10
36.2749800271743
20
-7.50023795011012
30
0
0
SPLINE
5
222
100
AcDbEntity
8
1
62
256
6
ByLayer
370
13
48
1
60
0
100
AcDbSpline
70
4
71
3
72
8
73
4
40
0
40
0
40
0
40
0
40
1
40
1
40
1
40
1
41
1
10
36.2749800271743
20
-7.50023795011015
30
0
41
1
10
36.282226373284
20
-7.50940825085058
30
0
41
1
10
36.2893744966751
20
-7.51869385692009
30
0
41
1
10
36.296439687712
20
-7.52804195912512
30
0
0
SPLINE
5
223
100
AcDbEntity
8
1
62
256
6
ByLayer
370
13
48
1
60
0
100
AcDbSpline
70
4
71
3
72
10
73
6
40
0
40
0
40
0
40
0
40
0.595894712070617
40
0.595894712070617
40
1
40
1
40
1
40
1
41
1
10
36.296439687712
20
-7.52804195912512
30
0
41
1
10
36.3128914645872
20
-7.54980964960663
30
0
41
1
10
36.3267183907984
20
-7.57422990134265
30
0
41
1
10
36.340810212682
20
-7.61790101891341
30
0
41
1
10
36.3440390421828
20
-7.63665955692326
30
0
41
1
10
36.3441651422481
20
-7.65525959326087
30
0
0
SPLINE
5
224
100
AcDbEntity
8
1
62
256
6
ByLayer
370
13
48
1
60
0
100
AcDbSpline
70
4
71
3
72
12
73
8
40
0
40
0
40
0
40
0
40
0.0880792633922689
40
0.0880792633922689
40
0.576107189837383
40
0.576107189837383
40
1
40
1
40
1
40
1
41
1
10
36.0040818169429
20
-7.64787095975097
30
0
41
1
10
36.0140661440235
20
-7.64758157502837
30
0
41
1
10
36.0240551161812
20
-7.64743922028345
30
0
41
1
10
36.0893799480028
20
-7.64756539366195
30
0
41
1
10
36.1447000295702
20
-7.64962439636594
30
0
41
1
10
36.2480735369365
20
-7.65228068976296
30
0
41
1
10
36.2961214732615
20
-7.65369674610753
30
0
41
1
10
36.3441651422481
20
-7.65525959326087
30
0
0
SPLINE
5
225
100
AcDbEntity
8
1
62
256
6
ByLayer
370
13
48
1
60
0
100
AcDbSpline
70
4
71
3
72
12
73
8
40
0
40
0
40
0
40
0
40
0.0880792633922689
40
0.0880792633922689
40
0.576107189837383
40
0.576107189837383
40
1
40
1
40
1
40
1
41
1
10
36.0040818169429
20
-8.35212904024877
30
0
41
1
10
36.0140661440235
20
-8.35241842497138
30
0
41
1
10
36.0240551161812
20
-8.35256077971633
30
0
41
1
10
36.0893799480028
20
-8.35243460633779
30
0
41
1
10
36.1447000295702
20
-8.35037560363381
30
0
41
1
10
36.2480735369365
20
-8.34771931023681
30
0
41
1
10
36.2961214732615
20
-8.34630325389222
30
0
41
1
10
36.3441651422481
20
-8.34474040673891
30
0
0
SPLINE
5
226
100
AcDbEntity
8
1
62
256
6
ByLayer
370
13
48
1
60
0
100
AcDbSpline
70
4
71
3
72
10
73
6
40
0
40
0
40
0
40
0
40
0.595894712070617
40
0.595894712070617
40
1
40
1
40
1
40
1
41
1
10
36.296439687712
20
-8.47195804087463
30
0
41
1
10
36.3128914645872
20
-8.45019035039311
30
0
41
1
10
36.3267183907984
20
-8.42577009865713
30
0
41
1
10
36.340810212682
20
-8.38209898108633
30
0
41
1
10
36.3440390421828
20
-8.36334044307648
30
0
41
1
10
36.3441651422481
20
-8.34474040673891
30
0
0
SPLINE
5
227
100
AcDbEntity
8
1
62
256
6
ByLayer
370
13
48
1
60
0
100
AcDbSpline
70
4
71
3
72
8
73
4
40
0
40
0
40
0
40
0
40
1
40
1
40
1
40
1
41
1
10
36.2749800271743
20
-8.49976204988963
30
0
41
1
10
36.282226373284
20
-8.49059174914916
30
0
41
1
10
36.2893744966751
20
-8.48130614307968
30
0
41
1
10
36.296439687712
20
-8.47195804087463
30
0
0
SPLINE
5
228
100
AcDbEntity
8
1
62
256
6
ByLayer
370
13
48
1
60
0
100
AcDbSpline
70
4
71
3
72
16
73
12
40
0
40
0
40
0
40
0
40
0.550547840515593
40
0.550547840515593
40
0.792876062772848
40
0.792876062772848
40
0.904227776395907
40
0.904227776395907
40
0.964015152759446
40
0.964015152759446
40
1
40
1
40
1
40
1
41
1
10
36.010515563742
20
-7.2065462274312
30
0
41
1
10
35.9975450008677
20
-7.19750948063611
30
0
41
1
10
35.9844768135886
20
-7.18829171730599
30
0
41
1
10
35.9657548110492
20
-7.17492749176401
30
0
41
1
10
35.960032266874
20
-7.1708210094462
30
0
41
1
10
35.9517104802333
20
-7.16481730321769
30
0
41
1
10
35.9490936305623
20
-7.16292473926447
30
0
41
1
10
35.9450796636702
20
-7.16001450173664
30
0
41
1
10
35.9436787273479
20
-7.15899742095544
30
0
41
1
10
35.9414390369606
20
-7.15736920549134
30
0
41
1
10
35.9405990425508
20
-7.15675843302529
30
0
41
1
10
35.9397600217523
20
-7.15614709968267
30
0
0
SPLINE
5
229
100
AcDbEntity
8
1
62
256
6
ByLayer
370
13
48
1
60
0
100
AcDbSpline
70
4
71
3
72
16
73
12
40
0
40
0
40
0
40
0
40
0.550547840515593
40
0.550547840515593
40
0.792876062772848
40
0.792876062772848
40
0.904227776395907
40
0.904227776395907
40
0.964015152759446
40
0.964015152759446
40
1
40
1
40
1
40
1
41
1
10
36.010515563742
20
-8.79345377256857
30
0
41
1
10
35.9975450008677
20
-8.80249051936363
30
0
41
1
10
35.9844768135886
20
-8.81170828269376
30
0
41
1
10
35.9657548110492
20
-8.82507250823573
30
0
41
1
10
35.960032266874
20
-8.82917899055354
30
0
41
1
10
35.9517104802333
20
-8.83518269678206
30
0
41
1
10
35.9490936305623
20
-8.83707526073528
30
0
41
1
10
35.9450796636702
20
-8.8399854982631
30
0
41
1
10
35.9436787273479
20
-8.8410025790443
30
0
41
1
10
35.9414390369606
20
-8.84263079450841
30
0
41
1
10
35.9405990425508
20
-8.84324156697446
30
0
41
1
10
35.9397600217523
20
-8.84385290031707
30
0
0
SPLINE
5
22A
100
AcDbEntity
8
1
62
256
6
ByLayer
370
13
48
1
60
0
100
AcDbSpline
70
4
71
3
72
8
73
4
40
0
40
0
40
0
40
0
40
1
40
1
40
1
40
1
41
1
10
35.5810768987951
20
-8.87481616366662
30
0
41
1
10
35.4666740375911
20
-8.87150813787238
30
0
41
1
10
35.3499584372937
20
-8.8625338394279
30
0
41
1
10
35.2337805434613
20
-8.8667617720499
30
0
0
SPLINE
5
22B
100
AcDbEntity
8
1
62
256
6
ByLayer
370
13
48
1
60
0
100
AcDbSpline
70
4
71
3
72
8
73
4
40
0
40
0
40
0
40
0
40
1
40
1
40
1
40
1
41
1
10
35.5810768987951
20
-7.12518383633312
30
0
41
1
10
35.4666740375911
20
-7.12849186212736
30
0
41
1
10
35.3499584372937
20
-7.13746616057185
30
0
41
1
10
35.2337805434613
20
-7.13323822794985
30
0
0
SPLINE
5
22C
100
AcDbEntity
8
1
62
256
6
ByLayer
370
13
48
1
60
0
100
AcDbSpline
70
4
71
3
72
10
73
6
40
0
40
0
40
0
40
0
40
0.202374079532489
40
0.202374079532489
40
1
40
1
40
1
40
1
41
1
10
35.3939768523292
20
-8.35333262012318
30
0
41
1
10
35.4366335743464
20
-8.35214733910513
30
0
41
1
10
35.4793460209674
20
-8.35165309851422
30
0
41
1
10
35.6872289032591
20
-8.34882111109454
30
0
41
1
10
35.8524723046481
20
-8.3489066014578
30
0
41
1
10
36.0040818169429
20
-8.35212904024877
30
0
0
SPLINE
5
22D
100
AcDbEntity
8
1
62
256
6
ByLayer
370
13
48
1
60
0
100
AcDbSpline
70
4
71
3
72
10
73
6
40
0
40
0
40
0
40
0
40
0.202374079532489
40
0.202374079532489
40
1
40
1
40
1
40
1
41
1
10
35.3939768523292
20
-7.64666737987659
30
0
41
1
10
35.4366335743464
20
-7.64785266089461
30
0
41
1
10
35.4793460209674
20
-7.64834690148553
30
0
41
1
10
35.6872289032591
20
-7.65117888890521
30
0
41
1
10
35.8524723046481
20
-7.65109339854197
30
0
41
1
10
36.0040818169429
20
-7.64787095975097
30
0
0
SPLINE
5
22E
100
AcDbEntity
8
1
62
256
6
ByLayer
370
13
48
1
60
0
100
AcDbSpline
70
4
71
3
72
8
73
4
40
0
40
0
40
0
40
0
40
1
40
1
40
1
40
1
41
1
10
35.2337805434613
20
-8.8667617720499
30
0
41
1
10
35.1338294385697
20
-8.87001030666349
30
0
41
1
10
35.0333593139737
20
-8.87323015281319
30
0
41
1
10
34.9337805434612
20
-8.86403867263229
30
0
0
SPLINE
5
22F
100
AcDbEntity
8
1
62
256
6
ByLayer
370
13
48
1
60
0
100
AcDbSpline
70
4
71
3
72
8
73
4
40
0
40
0
40
0
40
0
40
1
40
1
40
1
40
1
41
1
10
35.2337805434613
20
-7.13323822794985
30
0
41
1
10
35.1338294385697
20
-7.12998969333626
30
0
41
1
10
35.0333593139737
20
-7.12676984718658
30
0
41
1
10
34.9337805434612
20
-7.13596132736748
30
0
0
SPLINE
5
230
100
AcDbEntity
8
1
62
256
6
ByLayer
370
13
48
1
60
0
100
AcDbSpline
70
4
71
3
72
10
73
6
40
0
40
0
40
0
40
0
40
0.412056726398416
40
0.412056726398416
40
1
40
1
40
1
40
1
41
1
10
36.3970257408962
20
-7.65525959326087
30
0
41
1
10
36.3970257408962
20
-7.63214005529485
30
0
41
1
10
36.39385361432
20
-7.60884672723606
30
0
41
1
10
36.3795476699584
20
-7.55477853640988
30
0
41
1
10
36.3654870839336
20
-7.52430879873776
30
0
41
1
10
36.3480375085945
20
-7.49657472132802
30
0
0
SPLINE
5
231
100
AcDbEntity
8
1
62
256
6
ByLayer
370
13
48
1
60
0
100
AcDbSpline
70
4
71
3
72
10
73
6
40
0
40
0
40
0
40
0
40
0.412056726398416
40
0.412056726398416
40
1
40
1
40
1
40
1
41
1
10
36.3970257408962
20
-8.34474040673891
30
0
41
1
10
36.3970257408962
20
-8.36785994470489
30
0
41
1
10
36.39385361432
20
-8.39115327276372
30
0
41
1
10
36.3795476699584
20
-8.44522146358986
30
0
41
1
10
36.3654870839336
20
-8.47569120126198
30
0
41
1
10
36.3480375085945
20
-8.50342527867176
30
0
0
SPLINE
5
232
100
AcDbEntity
8
1
62
256
6
ByLayer
370
13
48
1
60
0
100
AcDbSpline
70
4
71
3
72
16
73
12
40
0
40
0
40
0
40
0
40
0.144623406732697
40
0.144623406732697
40
0.340113210683642
40
0.340113210683642
40
0.361421053906806
40
0.361421053906806
40
0.96509055241744
40
0.96509055241744
40
1
40
1
40
1
40
1
41
1
10
34.8939768523293
20
-8.349697109712
30
0
41
1
10
34.9176378728546
20
-8.35442880712381
30
0
41
1
10
34.9416309953235
20
-8.35764403476415
30
0
41
1
10
34.998193352456
20
-8.36240109400913
30
0
41
1
10
35.0308631318152
20
-8.36355623584208
30
0
41
1
10
35.0670552818254
20
-8.36356324977302
30
0
41
1
10
35.0706149406199
20
-8.36354712070727
30
0
41
1
10
35.1749938211815
20
-8.36252481034924
30
0
41
1
10
35.2757429102796
20
-8.35774354742296
30
0
41
1
10
35.3823238693043
20
-8.35377231620808
30
0
41
1
10
35.3881503958336
20
-8.35355338853455
30
0
41
1
10
35.3939768523292
20
-8.35333262012318
30
0
0
SPLINE
5
233
100
AcDbEntity
8
1
62
256
6
ByLayer
370
13
48
1
60
0
100
AcDbSpline
70
4
71
3
72
16
73
12
40
0
40
0
40
0
40
0
40
0.144623406732697
40
0.144623406732697
40
0.340113210683642
40
0.340113210683642
40
0.361421053906806
40
0.361421053906806
40
0.96509055241744
40
0.96509055241744
40
1
40
1
40
1
40
1
41
1
10
34.8939768523293
20
-7.65030289028775
30
0
41
1
10
34.9176378728546
20
-7.64557119287593
30
0
41
1
10
34.9416309953235
20
-7.64235596523559
30
0
41
1
10
34.998193352456
20
-7.63759890599064
30
0
41
1
10
35.0308631318152
20
-7.63644376415766
30
0
41
1
10
35.0670552818254
20
-7.63643675022672
30
0
41
1
10
35.0706149406199
20
-7.63645287929248
30
0
41
1
10
35.1749938211815
20
-7.6374751896505
30
0
41
1
10
35.2757429102796
20
-7.64225645257682
30
0
41
1
10
35.3823238693043
20
-7.64622768379166
30
0
41
1
10
35.3881503958336
20
-7.64644661146519
30
0
41
1
10
35.3939768523292
20
-7.64666737987659
30
0
0
SPLINE
5
234
100
AcDbEntity
8
1
62
256
6
ByLayer
370
13
48
1
60
0
100
AcDbSpline
70
4
71
3
72
8
73
4
40
0
40
0
40
0
40
0
40
1
40
1
40
1
40
1
41
1
10
36.3480375085945
20
-7.49657472132802
30
0
41
1
10
36.3406822121478
20
-7.48722240841215
30
0
41
1
10
36.3332278664847
20
-7.47797388408512
30
0
41
1
10
36.3256635776615
20
-7.46887911270255
30
0
0
SPLINE
5
235
100
AcDbEntity
8
1
62
256
6
ByLayer
370
13
48
1
60
0
100
AcDbSpline
70
4
71
3
72
8
73
4
40
0
40
0
40
0
40
0
40
1
40
1
40
1
40
1
41
1
10
36.3480375085945
20
-8.50342527867176
30
0
41
1
10
36.3406822121478
20
-8.51277759158759
30
0
41
1
10
36.3332278664847
20
-8.52202611591463
30
0
41
1
10
36.3256635776615
20
-8.53112088729719
30
0
0
SPLINE
5
236
100
AcDbEntity
8
1
62
256
6
ByLayer
370
13
48
1
60
0
100
AcDbSpline
70
4
71
3
72
16
73
12
40
0
40
0
40
0
40
0
40
0.0002204728141812
40
0.0002204728141812
40
0.28207049074326
40
0.28207049074326
40
0.563941110555105
40
0.563941110555105
40
0.999779527185927
40
0.999779527185927
40
1
40
1
40
1
40
1
41
1
10
34.6289221872925
20
-8.29345189211097
30
0
41
1
10
34.6289414547824
20
-8.2934563096307
30
0
41
1
10
34.6289607223292
20
-8.2934607271288
30
0
41
1
10
34.6536114636835
20
-8.29911248094962
30
0
41
1
10
34.6783272225084
20
-8.3047902553156
30
0
41
1
10
34.727843685161
20
-8.31627051291153
30
0
41
1
10
34.7526291596669
20
-8.32219349779425
30
0
41
1
10
34.8159850762818
20
-8.33638587504257
30
0
41
1
10
34.8548717009098
20
-8.34370325469965
30
0
41
1
10
34.8939373139163
20
-8.34969105051243
30
0
41
1
10
34.8939570831494
20
-8.34969407993881
30
0
41
1
10
34.8939768523293
20
-8.349697109712
30
0
0
SPLINE
5
237
100
AcDbEntity
8
1
62
256
6
ByLayer
370
13
48
1
60
0
100
AcDbSpline
70
4
71
3
72
16
73
12
40
0
40
0
40
0
40
0
40
0.0002204728141812
40
0.0002204728141812
40
0.28207049074326
40
0.28207049074326
40
0.563941110555105
40
0.563941110555105
40
0.999779527185927
40
0.999779527185927
40
1
40
1
40
1
40
1
41
1
10
34.6289221872925
20
-7.70654810788878
30
0
41
1
10
34.6289414547825
20
-7.70654369022259
30
0
41
1
10
34.6289607223292
20
-7.70653927287094
30
0
41
1
10
34.6536114636835
20
-7.70088751905016
30
0
41
1
10
34.6783272225084
20
-7.69520974468415
30
0
41
1
10
34.727843685161
20
-7.68372948708821
30
0
41
1
10
34.7526291596669
20
-7.67780650220553
30
0
41
1
10
34.8159850762818
20
-7.66361412495718
30
0
41
1
10
34.8548717009098
20
-7.6562967453001
30
0
41
1
10
34.8939373139163
20
-7.65030894948731
30
0
41
1
10
34.8939570830919
20
-7.65030591968616
30
0
41
1
10
34.8939768523293
20
-7.65030289028775
30
0
0
SPLINE
5
238
100
AcDbEntity
8
1
62
256
6
ByLayer
370
13
48
1
60
0
100
AcDbSpline
70
4
71
3
72
8
73
4
40
0
40
0
40
0
40
0
40
1
40
1
40
1
40
1
41
1
10
34.6289221872925
20
-7.99999999999989
30
0
41
1
10
34.7172737423047
20
-7.99999999999989
30
0
41
1
10
34.805625297317
20
-7.99999999999989
30
0
41
1
10
34.8939768523293
20
-7.99999999999989
30
0
0
SPLINE
5
239
100
AcDbEntity
8
1
62
256
6
ByLayer
370
18
48
1
60
0
100
AcDbSpline
70
4
71
3
72
18
73
14
40
0
40
0
40
0
40
0
40
0.212801593660038
40
0.212801593660038
40
0.425640627392102
40
0.425640627392102
40
0.639133084721926
40
0.639133084721926
40
0.854135837866916
40
0.854135837866916
40
0.993752363538306
40
0.993752363538306
40
1
40
1
40
1
40
1
41
1
10
12.8
20
-5.64999999999992
30
0
41
1
10
12.8
20
-5.82801769743148
30
0
41
1
10
12.8305651508406
20
-6.00848777489853
30
0
41
1
10
12.947634471834
20
-6.34447114251597
30
0
41
1
10
13.0357471202466
20
-6.50459635923235
30
0
41
1
10
13.2566285653702
20
-6.78332230213258
30
0
41
1
10
13.3925418385467
20
-6.90561714227894
30
0
41
1
10
13.6934950308232
20
-7.09666558531092
30
0
41
1
10
13.8628460302703
20
-7.16766646037172
30
0
41
1
10
14.1504112174488
20
-7.23472516747603
30
0
41
1
10
14.2677246271786
20
-7.24879043539212
30
0
41
1
10
14.3896375678544
20
-7.24997483272756
30
0
41
1
10
14.3948187937153
20
-7.24999999999997
30
0
41
1
10
14.4
20
-7.24999999999997
30
0
0
SPLINE
5
23A
100
AcDbEntity
8
1
62
256
6
ByLayer
370
18
48
1
60
0
100
AcDbSpline
70
4
71
3
72
8
73
4
40
0
40
0
40
0
40
0
40
1
40
1
40
1
40
1
41
1
10
-9.2652843986979
20
0.238734122634725
30
0
41
1
10
-9.59396483791303
20
0.0488829055856286
30
0
41
1
10
-9.91850922066067
20
-0.146421652246289
30
0
41
1
10
-10.2391936837363
20
-0.346265877365283
30
0
0
SPLINE
5
23B
100
AcDbEntity
8
1
62
256
6
ByLayer
370
18
48
1
60
0
100
AcDbSpline
70
4
71
3
72
18
73
14
40
0
40
0
40
0
40
0
40
0.310693521665851
40
0.310693521665851
40
0.465994754393235
40
0.465994754393235
40
0.623575124955141
40
0.623575124955141
40
0.764477912598842
40
0.764477912598842
40
0.929108250170173
40
0.929108250170173
40
1
40
1
40
1
40
1
41
1
10
7.7644529469849
20
0.298734122634727
30
0
41
1
10
7.75331991762243
20
0.298734122634727
30
0
41
1
10
7.74271152324579
20
0.297572247860756
30
0
41
1
10
7.72998571979591
20
0.292607855692267
30
0
41
1
10
7.72622061427828
20
0.290339339180747
30
0
41
1
10
7.72069113752681
20
0.284353581951564
30
0
41
1
10
7.71892265384491
20
0.280506319721212
30
0
41
1
10
7.718316831165
20
0.272085203529827
30
0
41
1
10
7.71918846172821
20
0.267526154034755
30
0
41
1
10
7.72317564328739
20
0.257379385538599
30
0
41
1
10
7.72666014644415
20
0.251605108272401
30
0
41
1
10
7.73266140283752
20
0.243559835309071
30
0
41
1
10
7.73462149015111
20
0.241133947572166
30
0
41
1
10
7.73668690802089
20
0.238734122632309
30
0
0
SPLINE
5
23C
100
AcDbEntity
8
1
62
256
6
ByLayer
370
18
48
1
60
0
100
AcDbSpline
70
4
71
3
72
22
73
18
40
0
40
0
40
0
40
0
40
0.0762826384023487
40
0.0762826384023487
40
0.16150167562495
40
0.16150167562495
40
0.247640570355595
40
0.247640570355595
40
0.321517680072546
40
0.321517680072546
40
0.423672897513698
40
0.423672897513698
40
0.579577704570513
40
0.579577704570513
40
0.838071424699281
40
0.838071424699281
40
1
40
1
40
1
40
1
41
1
10
10.3892794799061
20
-0.346265877365283
30
0
41
1
10
10.3944714321662
20
-0.352617826550159
30
0
41
1
10
10.3992207684339
20
-0.359002300847095
30
0
41
1
10
10.4076030194324
20
-0.372035697419221
30
0
41
1
10
10.4111081053852
20
-0.37876880065312
30
0
41
1
10
10.4151244220962
20
-0.39070419505137
30
0
41
1
10
10.4156221084087
20
-0.396042742313597
30
0
41
1
10
10.4134879241546
20
-0.40361453881772
30
0
41
1
10
10.4112846693865
20
-0.406284512576633
30
0
41
1
10
10.4039568672845
20
-0.410549085523257
30
0
41
1
10
10.3979658197978
20
-0.411456728485803
30
0
41
1
10
10.3807920722664
20
-0.410891022160882
30
0
41
1
10
10.3682694093941
20
-0.408004684962606
30
0
41
1
10
10.3334774677334
20
-0.396710746595176
30
0
41
1
10
10.3094453799366
20
-0.385759610834668
30
0
41
1
10
10.2700936118467
20
-0.364843538860782
30
0
41
1
10
10.2546269079232
20
-0.355883557932401
30
0
41
1
10
10.2391936837363
20
-0.346265877365283
30
0
0
SPLINE
5
23D
100
AcDbEntity
8
1
62
256
6
ByLayer
370
18
48
1
60
0
100
AcDbSpline
70
4
71
3
72
8
73
4
40
0
40
0
40
0
40
0
40
1
40
1
40
1
40
1
41
1
10
11.5044408463912
20
0.238734122634696
30
0
41
1
10
11.6782370927612
20
0.0439917809753751
30
0
41
1
10
11.8516324579719
20
-0.151019266118197
30
0
41
1
10
12.0246726917162
20
-0.346265877365283
30
0
0
SPLINE
5
23E
100
AcDbEntity
8
1
62
256
6
ByLayer
370
18
48
1
60
0
100
AcDbSpline
70
4
71
3
72
14
73
10
40
0
40
0
40
0
40
0
40
0.477782103000937
40
0.477782103000937
40
0.761233081983568
40
0.761233081983568
40
0.994184326509541
40
0.994184326509541
40
1
40
1
40
1
40
1
41
1
10
10.7806382482019
20
0.238734122634725
30
0
41
1
10
10.760171716659
20
0.253849533553563
30
0
41
1
10
10.739622648013
20
0.267557075652263
30
0
41
1
10
10.7093674341211
20
0.284641421629658
30
0
41
1
10
10.698431824621
20
0.29005377659459
30
0
41
1
10
10.680783454829
20
0.296749544074118
30
0
41
1
10
10.6735120129774
20
0.298639884252481
30
0
41
1
10
10.6677409551793
20
0.298732968008494
30
0
41
1
10
10.6675994812827
20
0.298734122634897
30
0
41
1
10
10.6674590441522
20
0.298734122634727
30
0
0
SPLINE
5
23F
100
AcDbEntity
8
1
62
256
6
ByLayer
370
18
48
1
60
0
100
AcDbSpline
70
4
71
3
72
16
73
12
40
0
40
0
40
0
40
0
40
0.132797278092895
40
0.132797278092895
40
0.351767415141471
40
0.351767415141471
40
0.556219824347346
40
0.556219824347346
40
0.818440212614934
40
0.818440212614934
40
1
40
1
40
1
40
1
41
1
10
11.112792942448
20
0.298734122634727
30
0
41
1
10
11.1108610110978
20
0.298734122634727
30
0
41
1
10
11.1092924058923
20
0.298334153912748
30
0
41
1
10
11.1063551961543
20
0.296127778692352
30
0
41
1
10
11.1057634705781
20
0.293506421306461
30
0
41
1
10
11.1072312769784
20
0.286389892200788
30
0
41
1
10
11.1091259776933
20
0.281952992930314
30
0
41
1
10
11.1155078573154
20
0.270571168169255
30
0
41
1
10
11.1206428537531
20
0.263115711358864
30
0
41
1
10
11.130725307773
20
0.249989639789305
30
0
41
1
10
11.1353060127286
20
0.244390049676923
30
0
41
1
10
11.1401522526864
20
0.238734122634639
30
0
0
SPLINE
5
240
100
AcDbEntity
8
1
62
256
6
ByLayer
370
18
48
1
60
0
100
AcDbSpline
70
4
71
3
72
8
73
4
40
0
40
0
40
0
40
0
40
1
40
1
40
1
40
1
41
1
10
-9.45878355645297
20
-0.346265877365283
30
0
41
1
10
-9.29857556736329
20
-0.1512446195525
30
0
41
1
10
-9.13833491595145
20
0.0437565186267648
30
0
41
1
10
-8.97805609738566
20
0.2387341226339
30
0
0
SPLINE
5
241
100
AcDbEntity
8
1
62
256
6
ByLayer
370
18
48
1
60
0
100
AcDbSpline
70
4
71
3
72
8
73
4
40
0
40
0
40
0
40
0
40
1
40
1
40
1
40
1
41
1
10
-11.103182870482
20
-0.346265877365283
30
0
41
1
10
-10.9413273422562
20
-0.15121749719853
30
0
41
1
10
-10.7793976002252
20
0.0437847155872362
30
0
41
1
10
-10.6173831633767
20
0.238734122634582
30
0
0
SPLINE
5
242
100
AcDbEntity
8
1
62
256
6
ByLayer
370
18
48
1
60
0
100
AcDbSpline
70
4
71
3
72
20
73
16
40
0
40
0
40
0
40
0
40
0.288858129828459
40
0.288858129828459
40
0.43993870488278
40
0.43993870488278
40
0.593066959267744
40
0.593066959267744
40
0.689426506970192
40
0.689426506970192
40
0.786510219043238
40
0.786510219043238
40
0.876391416242316
40
0.876391416242316
40
1
40
1
40
1
40
1
41
1
10
6.05577164463767
20
0.298734122634727
30
0
41
1
10
6.04240392433601
20
0.298734122634727
30
0
41
1
10
6.0293065759069
20
0.29797392160134
30
0
41
1
10
6.01098028748063
20
0.29462022859849
30
0
41
1
10
6.00492360312754
20
0.293048471470058
30
0
41
1
10
5.99406185585875
20
0.288627344150967
30
0
41
1
10
5.98915429583587
20
0.285704347827789
30
0
41
1
10
5.9836265137225
20
0.279401873565121
30
0
41
1
10
5.98207915253474
20
0.276523311022032
30
0
41
1
10
5.98077297290985
20
0.270121162376796
30
0
41
1
10
5.98102896866581
20
0.266508422963995
30
0
41
1
10
5.98316566932712
20
0.259432751715309
30
0
41
1
10
5.9849277376573
20
0.255904728693281
30
0
41
1
10
5.99020207755365
20
0.247767015357283
30
0
41
1
10
5.99415714510354
20
0.243135094578889
30
0
41
1
10
5.99851292718637
20
0.23873412263444
30
0
0
SPLINE
5
243
100
AcDbEntity
8
1
62
256
6
ByLayer
370
18
48
1
60
0
100
AcDbSpline
70
4
71
3
72
22
73
18
40
0
40
0
40
0
40
0
40
0.323064584911866
40
0.323064584911866
40
0.483483836562938
40
0.483483836562938
40
0.616676741615142
40
0.616676741615142
40
0.704357797032776
40
0.704357797032776
40
0.793206198827012
40
0.793206198827012
40
0.868668916718216
40
0.868668916718216
40
0.963758915419814
40
0.963758915419814
40
1
40
1
40
1
40
1
41
1
10
-10.2391936837363
20
-0.346265877365283
30
0
41
1
10
-10.2696823936374
20
-0.3652658393423
30
0
41
1
10
-10.3006371063301
20
-0.38196240901911
30
0
41
1
10
-10.3437247539107
20
-0.400096796509217
30
0
41
1
10
-10.357763481207
20
-0.405062784143752
30
0
41
1
10
-10.3810237884101
20
-0.410641976314793
30
0
41
1
10
-10.3908712493569
20
-0.411889216119789
30
0
41
1
10
-10.403839177149
20
-0.410344385583187
30
0
41
1
10
-10.4081827293423
20
-0.408737563552961
30
0
41
1
10
-10.4139662844002
20
-0.403084676204287
30
0
41
1
10
-10.415404786403
20
-0.398882435364811
30
0
41
1
10
-10.4147240266544
20
-0.389182547780735
30
0
41
1
10
-10.4131097892645
20
-0.383864143971664
30
0
41
1
10
-10.4071738764087
20
-0.371075105278038
30
0
41
1
10
-10.4022087382792
20
-0.363223216717245
30
0
41
1
10
-10.3941460148276
20
-0.352350697412106
30
0
41
1
10
-10.3917661301886
20
-0.349308100298856
30
0
41
1
10
-10.389279479906
20
-0.346265877365283
30
0
0
SPLINE
5
244
100
AcDbEntity
8
1
62
256
6
ByLayer
370
18
48
1
60
0
100
AcDbSpline
70
4
71
3
72
22
73
18
40
0
40
0
40
0
40
0
40
0.183233278543108
40
0.183233278543108
40
0.311400403628561
40
0.311400403628561
40
0.419543745869001
40
0.419543745869001
40
0.528315654217275
40
0.528315654217275
40
0.628198875001082
40
0.628198875001082
40
0.762359358389081
40
0.762359358389081
40
0.946926333289277
40
0.946926333289277
40
1
40
1
40
1
40
1
41
1
10
12.3856706249781
20
-0.346265877365283
30
0
41
1
10
12.3977411046137
20
-0.35862089982291
30
0
41
1
10
12.4092710539734
20
-0.370542934960156
30
0
41
1
10
12.4258733708586
20
-0.388036376109568
30
0
41
1
10
12.4319740466286
20
-0.394579726383256
30
0
41
1
10
12.4404311036233
20
-0.403979959431922
30
0
41
1
10
12.4432882314561
20
-0.407328987398472
30
0
41
1
10
12.4461078295026
20
-0.411197176967278
30
0
41
1
10
12.4460740528269
20
-0.41173538813996
30
0
41
1
10
12.4432395187553
20
-0.40998573836859
30
0
41
1
10
12.4406464241972
20
-0.407919374870062
30
0
41
1
10
12.4325022156908
20
-0.40093721919672
30
0
41
1
10
12.426145143269
20
-0.395210219281665
30
0
41
1
10
12.4090921418131
20
-0.379476081952674
30
0
41
1
10
12.3973915814626
20
-0.368424835958535
30
0
41
1
10
12.3815917877364
20
-0.353287751109491
30
0
41
1
10
12.3779701771227
20
-0.349804830233324
30
0
41
1
10
12.3743031550959
20
-0.346265877365255
30
0
0
SPLINE
5
245
100
AcDbEntity
8
1
62
256
6
ByLayer
370
18
48
1
60
0
100
AcDbSpline
70
4
71
3
72
22
73
18
40
0
40
0
40
0
40
0
40
0.664358225706176
40
0.664358225706176
40
0.7652645234742
40
0.7652645234742
40
0.79941754798928
40
0.79941754798928
40
0.834173824471421
40
0.834173824471421
40
0.863820047955283
40
0.863820047955283
40
0.903941441409628
40
0.903941441409628
40
0.978130042902601
40
0.978130042902601
40
1
40
1
40
1
40
1
41
1
10
3.15166794857151
20
0.298734122634727
30
0
41
1
10
3.09856605585972
20
0.298734122634727
30
0
41
1
10
3.0427641879655
20
0.298997866183981
30
0
41
1
10
2.98979006725446
20
0.282275850875891
30
0
41
1
10
2.98278018590125
20
0.279460118726263
30
0
41
1
10
2.97592960733977
20
0.273926069804162
30
0
41
1
10
2.97440731289564
20
0.272323868654183
30
0
41
1
10
2.97228515719701
20
0.268744120227836
30
0
41
1
10
2.97169771403068
20
0.266700340398927
30
0
41
1
10
2.97182837142438
20
0.262820863370081
30
0
41
1
10
2.97236527397058
20
0.260955846201
30
0
41
1
10
2.97446142389993
20
0.256758125270323
30
0
41
1
10
2.97631771542254
20
0.254420997537011
30
0
41
1
10
2.98239025111604
20
0.248283323773734
30
0
41
1
10
2.98734105017996
20
0.244743892736665
30
0
41
1
10
2.99402648782981
20
0.240571066575484
30
0
41
1
10
2.99558452634824
20
0.23964167601963
30
0
41
1
10
2.99716371967588
20
0.238734122632877
30
0
0
SPLINE
5
246
100
AcDbEntity
8
1
62
256
6
ByLayer
370
18
48
1
60
0
100
AcDbSpline
70
4
71
3
72
16
73
12
40
0
40
0
40
0
40
0
40
0.13388896967723
40
0.13388896967723
40
0.349197059851107
40
0.349197059851107
40
0.557012361367057
40
0.557012361367057
40
0.850920746234074
40
0.850920746234074
40
1
40
1
40
1
40
1
41
1
10
11.4666266327838
20
0.298734122634727
30
0
41
1
10
11.4653024748912
20
0.298734122634727
30
0
41
1
10
11.4643983835722
20
0.298290874528817
30
0
41
1
10
11.4632943252042
20
0.295944394197335
30
0
41
1
10
11.4638689918842
20
0.293254794307131
30
0
41
1
10
11.4672824580222
20
0.286063898743521
30
0
41
1
10
11.470066429674
20
0.281558446797675
30
0
41
1
10
11.4786016124309
20
0.269411668379064
30
0
41
1
10
11.4852110016806
20
0.261068413024247
30
0
41
1
10
11.4963184084767
20
0.247942913811926
30
0
41
1
10
11.5003046210367
20
0.243368849954635
30
0
41
1
10
11.5044408463912
20
0.238734122634696
30
0
0
SPLINE
5
247
100
AcDbEntity
8
1
62
256
6
ByLayer
370
18
48
1
60
0
100
AcDbSpline
70
4
71
3
72
8
73
4
40
0
40
0
40
0
40
0
40
1
40
1
40
1
40
1
41
1
10
11.1401522526864
20
0.238734122634639
30
0
41
1
10
11.3071191933336
20
0.0438711272024364
30
0
41
1
10
11.4738639801768
20
-0.151134744792756
30
0
41
1
10
11.6404128620567
20
-0.346265877365283
30
0
0
SPLINE
5
248
100
AcDbEntity
8
1
62
256
6
ByLayer
370
18
48
1
60
0
100
AcDbSpline
70
4
71
3
72
22
73
18
40
0
40
0
40
0
40
0
40
0.0235957424005642
40
0.0235957424005642
40
0.0672577974646807
40
0.0672577974646807
40
0.0991964491439969
40
0.0991964491439969
40
0.131111527179787
40
0.131111527179787
40
0.175105053335129
40
0.175105053335129
40
0.250474983108787
40
0.250474983108787
40
0.45274719806246
40
0.45274719806246
40
1
40
1
40
1
40
1
41
1
10
6.56936091871216
20
-0.3462658773648
30
0
41
1
10
6.57201622964769
20
-0.349022937341374
30
0
41
1
10
6.57451820024579
20
-0.351845135348014
30
0
41
1
10
6.58094623162435
20
-0.359969817790443
30
0
41
1
10
6.58438554451445
20
-0.3655049241884
30
0
41
1
10
6.58776927561254
20
-0.374755812078661
30
0
41
1
10
6.58840817129592
20
-0.378644307985979
30
0
41
1
10
6.58782515253489
20
-0.385686902070574
30
0
41
1
10
6.5866040291877
20
-0.388922904076651
30
0
41
1
10
6.5820523069564
20
-0.395506380693377
30
0
41
1
10
6.57807571245442
20
-0.39856853996065
30
0
41
1
10
6.565660922749
20
-0.405086498932576
30
0
41
1
10
6.55590202969364
20
-0.40751545805125
30
0
41
1
10
6.51846735026194
20
-0.413080519464927
30
0
41
1
10
6.48702368895513
20
-0.411332406926732
30
0
41
1
10
6.37151452188098
20
-0.398447612189216
30
0
41
1
10
6.28185147029726
20
-0.375367189077196
30
0
41
1
10
6.19449049756122
20
-0.346265877365397
30
0
0
SPLINE
5
249
100
AcDbEntity
8
1
62
256
6
ByLayer
370
18
48
1
60
0
100
AcDbSpline
70
4
71
3
72
8
73
4
40
0
40
0
40
0
40
0
40
1
40
1
40
1
40
1
41
1
10
-8.12217101296415
20
0.238734122634725
30
0
41
1
10
-8.50793292346432
20
0.0518125177177637
30
0
41
1
10
-8.88826707429746
20
-0.143696855324919
30
0
41
1
10
-9.26334869455081
20
-0.346265877365283
30
0
0
SPLINE
5
24A
100
AcDbEntity
8
1
62
256
6
ByLayer
370
18
48
1
60
0
100
AcDbSpline
70
4
71
3
72
8
73
4
40
0
40
0
40
0
40
0
40
1
40
1
40
1
40
1
41
1
10
9.9110876427583
20
0.238734122661612
30
0
41
1
10
10.0704907181003
20
0.0437376762622534
30
0
41
1
10
10.2298877306563
20
-0.151262487309935
30
0
41
1
10
10.389279479906
20
-0.346265877365283
30
0
0
SPLINE
5
24B
100
AcDbEntity
8
1
62
256
6
ByLayer
370
18
48
1
60
0
100
AcDbSpline
70
4
71
3
72
24
73
20
40
0
40
0
40
0
40
0
40
0.0227242593853341
40
0.0227242593853341
40
0.0362132206569334
40
0.0362132206569334
40
0.0499241842430055
40
0.0499241842430055
40
0.0621444835670518
40
0.0621444835670518
40
0.0769910529506161
40
0.0769910529506161
40
0.102691924860016
40
0.102691924860016
40
0.180771605522938
40
0.180771605522938
40
0.498232714628486
40
0.498232714628486
40
1
40
1
40
1
40
1
41
1
10
3.91317788205862
20
-0.346265877375771
30
0
41
1
10
3.91837945059621
20
-0.349897246251459
30
0
41
1
10
3.9233214862586
20
-0.353821558846306
30
0
41
1
10
3.92988611779828
20
-0.360627232807019
30
0
41
1
10
3.93206624886329
20
-0.36333512144796
30
0
41
1
10
3.93529274395829
20
-0.36892529640312
30
0
41
1
10
3.93633472910216
20
-0.371888233391218
30
0
41
1
10
3.93666378039171
20
-0.377210234676142
30
0
41
1
10
3.93612845692724
20
-0.379661418895154
30
0
41
1
10
3.93370782301031
20
-0.384499516585237
30
0
41
1
10
3.93155629867724
20
-0.386847553339692
30
0
41
1
10
3.92462473865757
20
-0.392332947966139
30
0
41
1
10
3.91900384120402
20
-0.39497268817766
30
0
41
1
10
3.895244998587
20
-0.403605179966661
30
0
41
1
10
3.87417641019741
20
-0.406403059347298
30
0
41
1
10
3.76837624503756
20
-0.416057415179324
30
0
41
1
10
3.67700062946105
20
-0.409443792562683
30
0
41
1
10
3.44448556840595
20
-0.389505885795017
30
0
41
1
10
3.30037567044951
20
-0.369732027056926
30
0
41
1
10
3.156779097141
20
-0.346265877365283
30
0
0
SPLINE
5
24C
100
AcDbEntity
8
1
62
256
6
ByLayer
370
18
48
1
60
0
100
AcDbSpline
70
4
71
3
72
8
73
4
40
0
40
0
40
0
40
0
40
1
40
1
40
1
40
1
41
1
10
3.156779097141
20
-0.346265877365283
30
0
41
1
10
1.052259699047
20
-0.0023512136179988
30
0
41
1
10
-1.052259699047
20
-0.0023512136179988
30
0
41
1
10
-3.156779097141
20
-0.346265877365283
30
0
0
SPLINE
5
24D
100
AcDbEntity
8
1
62
256
6
ByLayer
370
18
48
1
60
0
100
AcDbSpline
70
4
71
3
72
22
73
18
40
0
40
0
40
0
40
0
40
0.0412497982897052
40
0.0412497982897052
40
0.106118418872174
40
0.106118418872174
40
0.154735228068923
40
0.154735228068923
40
0.203168908983538
40
0.203168908983538
40
0.27487029761422
40
0.27487029761422
40
0.39636076068626
40
0.39636076068626
40
0.639897173943644
40
0.639897173943644
40
1
40
1
40
1
40
1
41
1
10
8.23863123486333
20
-0.34626587736517
30
0
41
1
10
8.24213965806496
20
-0.35036663153528
30
0
41
1
10
8.24537577785748
20
-0.354542463855893
30
0
41
1
10
8.25253267234228
20
-0.365211811556293
30
0
41
1
10
8.25588718188331
20
-0.371868894744068
30
0
41
1
10
8.25858952673113
20
-0.382499294145447
30
0
41
1
10
8.25873560662666
20
-0.38682858344805
30
0
41
1
10
8.25693264757635
20
-0.394264981396873
30
0
41
1
10
8.25498611157374
20
-0.397467535341548
30
0
41
1
10
8.24836415416638
20
-0.403879808451308
30
0
41
1
10
8.24277371618444
20
-0.406507917848216
30
0
41
1
10
8.22585571256005
20
-0.411145209833364
30
0
41
1
10
8.21297555113131
20
-0.411689316987349
30
0
41
1
10
8.17283065300916
20
-0.40965248400812
30
0
41
1
10
8.14306972259214
20
-0.403510863374891
30
0
41
1
10
8.06913324879193
20
-0.383328716514057
30
0
41
1
10
8.02335871082073
20
-0.366381307610538
30
0
41
1
10
7.9782937261426
20
-0.346265877365283
30
0
0
SPLINE
5
24E
100
AcDbEntity
8
1
62
256
6
ByLayer
370
18
48
1
60
0
100
AcDbSpline
70
4
71
3
72
8
73
4
40
0
40
0
40
0
40
0
40
1
40
1
40
1
40
1
41
1
10
8.97805609738566
20
0.2387341226339
30
0
41
1
10
9.13833491595145
20
0.0437565186267648
30
0
41
1
10
9.29857556736329
20
-0.1512446195525
30
0
41
1
10
9.45878355645297
20
-0.346265877365283
30
0
0
SPLINE
5
24F
100
AcDbEntity
8
1
62
256
6
ByLayer
370
18
48
1
60
0
100
AcDbSpline
70
4
71
3
72
20
73
16
40
0
40
0
40
0
40
0
40
0.446440436959281
40
0.446440436959281
40
0.687384598948467
40
0.687384598948467
40
0.769436554389034
40
0.769436554389034
40
0.825981842616554
40
0.825981842616554
40
0.88329039789255
40
0.88329039789255
40
0.93183245507944
40
0.93183245507944
40
1
40
1
40
1
40
1
41
1
10
-7.9782937261426
20
-0.346265877365283
30
0
41
1
10
-8.03386386977363
20
-0.371070442504077
30
0
41
1
10
-8.09089224065912
20
-0.391415704528697
30
0
41
1
10
-8.17297641811399
20
-0.409228565218598
30
0
41
1
10
-8.20189720228319
20
-0.413249764026602
30
0
41
1
10
-8.23340997342166
20
-0.409372776210262
30
0
41
1
10
-8.24092079766223
20
-0.40745538053153
30
0
41
1
10
-8.25083583971548
20
-0.40182885649088
30
0
41
1
10
-8.25414931489013
20
-0.39878795476352
30
0
41
1
10
-8.25819077436918
20
-0.391138557942412
30
0
41
1
10
-8.25889487131786
20
-0.386371699404776
30
0
41
1
10
-8.2574065518908
20
-0.376719206848605
30
0
41
1
10
-8.25564240116586
20
-0.371858653446282
30
0
41
1
10
-8.24955637960528
20
-0.360130381627982
30
0
41
1
10
-8.24444500500061
20
-0.353061192744008
30
0
41
1
10
-8.23863123486271
20
-0.346265877365283
30
0
0
SPLINE
5
250
100
AcDbEntity
8
1
62
256
6
ByLayer
370
18
48
1
60
0
100
AcDbSpline
70
4
71
3
72
18
73
14
40
0
40
0
40
0
40
0
40
0.14697121770798
40
0.14697121770798
40
0.351810878245595
40
0.351810878245595
40
0.558601686421439
40
0.558601686421439
40
0.738852806663617
40
0.738852806663617
40
0.993261558970334
40
0.993261558970334
40
1
40
1
40
1
40
1
41
1
10
9.90658610591083
20
0.298734122635125
30
0
41
1
10
9.90303412986725
20
0.298734122635125
30
0
41
1
10
9.89978739336482
20
0.298344576519185
30
0
41
1
10
9.8931618103656
20
0.296279293758431
30
0
41
1
10
9.8901737678683
20
0.294105502255945
30
0
41
1
10
9.88693567331558
20
0.287660443279833
30
0
41
1
10
9.88669727874967
20
0.283254347168167
30
0
41
1
10
9.8889659631397
20
0.273625820249464
30
0
41
1
10
9.89113312676815
20
0.268478233235612
30
0
41
1
10
9.89824032414515
20
0.255578464099585
30
0
41
1
10
9.90402608816746
20
0.247427837873318
30
0
41
1
10
9.91073571213749
20
0.239165345943661
30
0
41
1
10
9.91091137932924
20
0.238949744237516
30
0
41
1
10
9.91108764275816
20
0.238734122661782
30
0
0
SPLINE
5
251
100
AcDbEntity
8
1
62
256
6
ByLayer
370
18
48
1
60
0
100
AcDbSpline
70
4
71
3
72
12
73
8
40
0
40
0
40
0
40
0
40
0.536939533014237
40
0.536939533014237
40
0.869554790316203
40
0.869554790316203
40
1
40
1
40
1
40
1
41
1
10
9.2652843986979
20
0.238734122634725
30
0
41
1
10
9.23504858476613
20
0.256198825088944
30
0
41
1
10
9.2042975417591
20
0.271282481049468
30
0
41
1
10
9.15698544455827
20
0.289116162477399
30
0
41
1
10
9.13909704254041
20
0.294497744689238
30
0
41
1
10
9.11661468129407
20
0.29813899578383
30
0
41
1
10
9.11050233451959
20
0.298734122637512
30
0
41
1
10
9.10485591139889
20
0.298734122638251
30
0
0
SPLINE
5
252
100
AcDbEntity
8
1
62
256
6
ByLayer
370
18
48
1
60
0
100
AcDbSpline
70
4
71
3
72
18
73
14
40
0
40
0
40
0
40
0
40
0.149542183799009
40
0.149542183799009
40
0.366453302088097
40
0.366453302088097
40
0.552823277314403
40
0.552823277314403
40
0.712047258806107
40
0.712047258806107
40
0.961586119427284
40
0.961586119427284
40
1
40
1
40
1
40
1
41
1
10
-8.97805609738546
20
0.2387341226339
30
0
41
1
10
-8.9740695685625
20
0.243583695678893
30
0
41
1
10
-8.97042312387546
20
0.248492270722807
30
0
41
1
10
-8.96293268460443
20
0.260242154217877
30
0
41
1
10
-8.95963746633456
20
0.267183084974846
30
0
41
1
10
-8.95711313060812
20
0.278423037825945
30
0
41
1
10
-8.95737418041057
20
0.283093019607179
30
0
41
1
10
-8.96038619955394
20
0.289874965954738
30
0
41
1
10
-8.96277867177503
20
0.292355675694182
30
0
41
1
10
-8.97059143383402
20
0.297013832775832
30
0
41
1
10
-8.97704031634086
20
0.298356240748319
30
0
41
1
10
-8.98527883474395
20
0.298711027769286
30
0
41
1
10
-8.98640679169253
20
0.298734122634755
30
0
41
1
10
-8.98755188690933
20
0.298734122634755
30
0
0
SPLINE
5
253
100
AcDbEntity
8
1
62
256
6
ByLayer
370
18
48
1
60
0
100
AcDbSpline
70
4
71
3
72
22
73
18
40
0
40
0
40
0
40
0
40
0.311008083777201
40
0.311008083777201
40
0.487642856958518
40
0.487642856958518
40
0.667460798960881
40
0.667460798960881
40
0.742166512904824
40
0.742166512904824
40
0.817949148651346
40
0.817949148651346
40
0.884485862872614
40
0.884485862872614
40
0.947356012461696
40
0.947356012461696
40
1
40
1
40
1
40
1
41
1
10
-9.26334869455081
20
-0.346265877365283
30
0
41
1
10
-9.29648588636064
20
-0.364162164934754
30
0
41
1
10
-9.33007892045978
20
-0.379730111167731
30
0
41
1
10
-9.38057462825546
20
-0.398233181875526
30
0
41
1
10
-9.39868545657498
20
-0.403794563784459
30
0
41
1
10
-9.43271697822198
20
-0.410929390727574
30
0
41
1
10
-9.44921653534769
20
-0.412607230414153
30
0
41
1
10
-9.46705317352024
20
-0.408974750381247
30
0
41
1
10
-9.47168633348235
20
-0.407089922483266
30
0
41
1
10
-9.47845958502808
20
-0.401278529056668
30
0
41
1
10
-9.48061150122834
20
-0.397203461320373
30
0
41
1
10
-9.48135371998771
20
-0.387804382910304
30
0
41
1
10
-9.48035081976076
20
-0.382574555385446
30
0
41
1
10
-9.47617789662414
20
-0.371795820629444
30
0
41
1
10
-9.47310907875661
20
-0.36616931163195
30
0
41
1
10
-9.46628023496029
20
-0.355805429822851
30
0
41
1
10
-9.46268266386059
20
-0.351012262581491
30
0
41
1
10
-9.4587835564532
20
-0.346265877365255
30
0
0
SPLINE
5
254
100
AcDbEntity
8
1
62
256
6
ByLayer
370
18
48
1
60
0
100
AcDbSpline
70
4
71
3
72
24
73
20
40
0
40
0
40
0
40
0
40
0.468703436061364
40
0.468703436061364
40
0.637092140406301
40
0.637092140406301
40
0.772732442864617
40
0.772732442864617
40
0.820011389755141
40
0.820011389755141
40
0.867949483425086
40
0.867949483425086
40
0.900851650882302
40
0.900851650882302
40
0.933865609606072
40
0.933865609606072
40
0.974374043628964
40
0.974374043628964
40
1
40
1
40
1
40
1
41
1
10
-6.19449049756122
20
-0.346265877365312
30
0
41
1
10
-6.2695979554519
20
-0.37128535088425
30
0
41
1
10
-6.34598246592148
20
-0.391368796651619
30
0
41
1
10
-6.4460840213716
20
-0.407119457999755
30
0
41
1
10
-6.47250682452361
20
-0.41016853410423
30
0
41
1
10
-6.51814132927905
20
-0.411728340753058
30
0
41
1
10
-6.53818788238843
20
-0.411129451461363
30
0
41
1
10
-6.56156377367964
20
-0.405848726716044
30
0
41
1
10
-6.56732865824495
20
-0.40402771204387
30
0
41
1
10
-6.57742035185944
20
-0.399059270688213
30
0
41
1
10
-6.58182974526019
20
-0.395821346256838
30
0
41
1
10
-6.58664062680899
20
-0.388874734285423
30
0
41
1
10
-6.58787524651547
20
-0.385553128613879
30
0
41
1
10
-6.58839393294079
20
-0.378313016423135
30
0
41
1
10
-6.58767160867535
20
-0.374305761324223
30
0
41
1
10
-6.58423402669945
20
-0.365345532163786
30
0
41
1
10
-6.58109426158939
20
-0.360254908867688
30
0
41
1
10
-6.5749098860467
20
-0.352288277894132
30
0
41
1
10
-6.57222403037179
20
-0.349238700794984
30
0
41
1
10
-6.56936091871262
20
-0.346265877364658
30
0
0
SPLINE
5
255
100
AcDbEntity
8
1
62
256
6
ByLayer
370
18
48
1
60
0
100
AcDbSpline
70
4
71
3
72
12
73
8
40
0
40
0
40
0
40
0
40
0.191950454986297
40
0.191950454986297
40
0.564795176328816
40
0.564795176328816
40
1
40
1
40
1
40
1
41
1
10
-9.99545105601658
20
0.298734122643793
30
0
41
1
10
-10.0016445347339
20
0.298734122642742
30
0
41
1
10
-10.0089168284108
20
0.297482157451355
30
0
41
1
10
-10.0316579001748
20
0.291378943846866
30
0
41
1
10
-10.0487637480559
20
0.284214122088372
30
0
41
1
10
-10.0865092796528
20
0.265310954700084
30
0
41
1
10
-10.1078246804099
20
0.252725240508653
30
0
41
1
10
-10.1289845499771
20
0.238734122634725
30
0
0
SPLINE
5
256
100
AcDbEntity
8
1
62
256
6
ByLayer
370
18
48
1
60
0
100
AcDbSpline
70
4
71
3
72
10
73
6
40
0
40
0
40
0
40
0
40
0.761868662577583
40
0.761868662577583
40
1
40
1
40
1
40
1
41
1
10
6.55506132228484
20
0.238734122635094
30
0
41
1
10
6.48599932973579
20
0.264626798635135
30
0
41
1
10
6.41502362139437
20
0.28435519031342
30
0
41
1
10
6.32627334641376
20
0.296805435744659
30
0
41
1
10
6.30516089266547
20
0.298734122634272
30
0
41
1
10
6.28507119094155
20
0.298734122634727
30
0
0
SPLINE
5
257
100
AcDbEntity
8
1
62
256
6
ByLayer
370
18
48
1
60
0
100
AcDbSpline
70
4
71
3
72
8
73
4
40
0
40
0
40
0
40
0
40
1
40
1
40
1
40
1
41
1
10
-10.1289845499771
20
0.238734122634725
30
0
41
1
10
-10.4186186138218
20
0.047225176198026
30
0
41
1
10
-10.7050401172763
20
-0.147969458942327
30
0
41
1
10
-10.9885188059763
20
-0.346265877365283
30
0
0
SPLINE
5
258
100
AcDbEntity
8
1
62
256
6
ByLayer
370
18
48
1
60
0
100
AcDbSpline
70
4
71
3
72
8
73
4
40
0
40
0
40
0
40
0
40
1
40
1
40
1
40
1
41
1
10
10.2391936837363
20
-0.346265877365283
30
0
41
1
10
9.91850922066067
20
-0.146421652246289
30
0
41
1
10
9.59396483791303
20
0.0488829055856286
30
0
41
1
10
9.2652843986979
20
0.238734122634725
30
0
0
SPLINE
5
259
100
AcDbEntity
8
1
62
256
6
ByLayer
370
18
48
1
60
0
100
AcDbSpline
70
4
71
3
72
10
73
6
40
0
40
0
40
0
40
0
40
0.42673160280914
40
0.42673160280914
40
1
40
1
40
1
40
1
41
1
10
4.10402191928787
20
0.238734122634895
30
0
41
1
10
4.03536485708489
20
0.25421122280872
30
0
41
1
10
3.96630369937074
20
0.266708666470635
30
0
41
1
10
3.80506437671804
20
0.289652745090223
30
0
41
1
10
3.71212076992302
20
0.298734122635096
30
0
41
1
10
3.62166801750604
20
0.298734122634727
30
0
0
SPLINE
5
25A
100
AcDbEntity
8
1
62
256
6
ByLayer
370
18
48
1
60
0
100
AcDbSpline
70
4
71
3
72
8
73
4
40
0
40
0
40
0
40
0
40
1
40
1
40
1
40
1
41
1
10
-8.23863123486271
20
-0.346265877365283
30
0
41
1
10
-8.07162710680831
20
-0.151066257710596
30
0
41
1
10
-7.90433143841756
20
0.0439466508205726
30
0
41
1
10
-7.736686908021
20
0.238734122632337
30
0
0
SPLINE
5
25B
100
AcDbEntity
8
1
62
256
6
ByLayer
370
18
48
1
60
0
100
AcDbSpline
70
4
71
3
72
22
73
18
40
0
40
0
40
0
40
0
40
0.110938946854781
40
0.110938946854781
40
0.218128935638993
40
0.218128935638993
40
0.326607457873121
40
0.326607457873121
40
0.418461187056361
40
0.418461187056361
40
0.511273960581491
40
0.511273960581491
40
0.659993199553304
40
0.659993199553304
40
0.880871232216255
40
0.880871232216255
40
1
40
1
40
1
40
1
41
1
10
11.6404128620568
20
-0.346265877365283
30
0
41
1
10
11.6475067357704
20
-0.354577164696963
30
0
41
1
10
11.6540829984522
20
-0.362812598784643
30
0
41
1
10
11.6649558032645
20
-0.377940936553443
30
0
41
1
10
11.6694102277918
20
-0.385015960619626
30
0
41
1
10
11.6752403244826
20
-0.397034180127122
30
0
41
1
10
11.6766239232188
20
-0.402104118696855
30
0
41
1
10
11.6757350782499
20
-0.408427930538579
30
0
41
1
10
11.6739879728949
20
-0.410233106476227
30
0
41
1
10
11.668338232921
20
-0.411621342586699
30
0
41
1
10
11.664370542737
20
-0.411217065246063
30
0
41
1
10
11.6522953715378
20
-0.407960734241499
30
0
41
1
10
11.642965441973
20
-0.403783272474385
30
0
41
1
10
11.6180579077388
20
-0.390399107618663
30
0
41
1
10
11.601177075147
20
-0.379534141963973
30
0
41
1
10
11.5746272640413
20
-0.360747169227721
30
0
41
1
10
11.5650774572282
20
-0.35366956102078
30
0
41
1
10
11.5554750575442
20
-0.346265877365283
30
0
0
SPLINE
5
25C
100
AcDbEntity
8
1
62
256
6
ByLayer
370
18
48
1
60
0
100
AcDbSpline
70
4
71
3
72
8
73
4
40
0
40
0
40
0
40
0
40
1
40
1
40
1
40
1
41
1
10
11.7250299003113
20
0.238734122634696
30
0
41
1
10
11.9073944014123
20
0.044150360364938
30
0
41
1
10
12.0891423098796
20
-0.150867750836397
30
0
41
1
10
12.2703420933027
20
-0.346265877365283
30
0
0
SPLINE
5
25D
100
AcDbEntity
8
1
62
256
6
ByLayer
370
18
48
1
60
0
100
AcDbSpline
70
4
71
3
72
10
73
6
40
0
40
0
40
0
40
0
40
0.648056887626693
40
0.648056887626693
40
1
40
1
40
1
40
1
41
1
10
8.12217101296415
20
0.238734122634753
30
0
41
1
10
8.07781234613168
20
0.260228191827707
30
0
41
1
10
8.03232580177206
20
0.277815096340646
30
0
41
1
10
7.96597291405098
20
0.294633430987346
30
0
41
1
10
7.94275833242688
20
0.298734122633164
30
0
41
1
10
7.9222951548995
20
0.298734122634727
30
0
0
SPLINE
5
25E
100
AcDbEntity
8
1
62
256
6
ByLayer
370
18
48
1
60
0
100
AcDbSpline
70
4
71
3
72
16
73
12
40
0
40
0
40
0
40
0
40
0.135796737839002
40
0.135796737839002
40
0.36349779464517
40
0.36349779464517
40
0.567969021628819
40
0.567969021628819
40
0.764549437988387
40
0.764549437988387
40
1
40
1
40
1
40
1
41
1
10
10.6009342808913
20
0.298734122634812
30
0
41
1
10
10.5983189285043
20
0.298734122634812
30
0
41
1
10
10.5960262086246
20
0.29835676883971
30
0
41
1
10
10.5911043346085
20
0.296196920942179
30
0
41
1
10
10.5892456538555
20
0.293555081067296
30
0
41
1
10
10.5887764417547
20
0.286257746481738
30
0
41
1
10
10.589850878555
20
0.281741680783369
30
0
41
1
10
10.5941338184467
20
0.271708260923702
30
0
41
1
10
10.5972870376137
20
0.266134591913698
30
0
41
1
10
10.6056762513133
20
0.253437424178571
30
0
41
1
10
10.6112690685134
20
0.246091116192673
30
0
41
1
10
10.6173831633767
20
0.238734122634582
30
0
0
SPLINE
5
25F
100
AcDbEntity
8
1
62
256
6
ByLayer
370
18
48
1
60
0
100
AcDbSpline
70
4
71
3
72
8
73
4
40
0
40
0
40
0
40
0
40
1
40
1
40
1
40
1
41
1
10
-6.56936091871083
20
-0.346265877365283
30
0
41
1
10
-6.38053635248079
20
-0.150205729686462
30
0
41
1
10
-6.19036544106424
20
0.0448911995957246
30
0
41
1
10
-5.99851292719629
20
0.238734122625516
30
0
0
SPLINE
5
260
100
AcDbEntity
8
1
62
256
6
ByLayer
370
18
48
1
60
0
100
AcDbSpline
70
4
71
3
72
22
73
18
40
0
40
0
40
0
40
0
40
0.0935729056016129
40
0.0935729056016129
40
0.190308817303299
40
0.190308817303299
40
0.288129166925838
40
0.288129166925838
40
0.371697406740273
40
0.371697406740273
40
0.48075633924027
40
0.48075633924027
40
0.639322225464002
40
0.639322225464002
40
0.886404260985066
40
0.886404260985066
40
1
40
1
40
1
40
1
41
1
10
11.1031828704821
20
-0.346265877365283
30
0
41
1
10
11.1092842046958
20
-0.353618455113377
30
0
41
1
10
11.1148940726123
20
-0.360957273120391
30
0
41
1
10
11.1244175023774
20
-0.375125482991336
30
0
41
1
10
11.1283440867261
20
-0.382073143197943
30
0
41
1
10
11.1331481114232
20
-0.394125274285557
30
0
41
1
10
11.1340214110399
20
-0.39936252461041
30
0
41
1
10
11.1323981460811
20
-0.406381230669524
30
0
41
1
10
11.1303684201077
20
-0.408650884637922
30
0
41
1
10
11.1234762346982
20
-0.411575594308175
30
0
41
1
10
11.1178713392781
20
-0.411614882054749
30
0
41
1
10
11.102031522462
20
-0.408857138054145
30
0
41
1
10
11.0906130316266
20
-0.404797777310449
30
0
41
1
10
11.0598498333549
20
-0.391069481896153
30
0
41
1
10
11.0390036027225
20
-0.379316601020037
30
0
41
1
10
11.008264201005
20
-0.359774949696885
30
0
41
1
10
10.9984001187115
20
-0.353177962833428
30
0
41
1
10
10.9885188059763
20
-0.346265877365283
30
0
0
SPLINE
5
261
100
AcDbEntity
8
1
62
256
6
ByLayer
370
18
48
1
60
0
100
AcDbSpline
70
4
71
3
72
10
73
6
40
0
40
0
40
0
40
0
40
0.306060111931097
40
0.306060111931097
40
1
40
1
40
1
40
1
41
1
10
-6.28507119094152
20
0.298734122634727
30
0
41
1
10
-6.31079588200427
20
0.29873412263413
30
0
41
1
10
-6.33815297960658
20
0.295636367343434
30
0
41
1
10
-6.42765318070411
20
0.280645318313219
30
0
41
1
10
-6.49206725646434
20
0.262351815609236
30
0
41
1
10
-6.55506132228487
20
0.238734122634924
30
0
0
SPLINE
5
262
100
AcDbEntity
8
1
62
256
6
ByLayer
370
18
48
1
60
0
100
AcDbSpline
70
4
71
3
72
8
73
4
40
0
40
0
40
0
40
0
40
1
40
1
40
1
40
1
41
1
10
-3.91317788204361
20
-0.346265877365283
30
0
41
1
10
-3.61781501954965
20
-0.14006432530266
30
0
41
1
10
-3.31327604563123
20
0.057066174190652
30
0
41
1
10
-2.99716371964573
20
0.238734122653057
30
0
0
SPLINE
5
263
100
AcDbEntity
8
1
62
256
6
ByLayer
370
18
48
1
60
0
100
AcDbSpline
70
4
71
3
72
14
73
10
40
0
40
0
40
0
40
0
40
0.334373997268345
40
0.334373997268345
40
0.647954186344973
40
0.647954186344973
40
0.887903789670827
40
0.887903789670827
40
1
40
1
40
1
40
1
41
1
10
11.5801047960903
20
0.238734122634725
30
0
41
1
10
11.5682466271093
20
0.249173605081552
30
0
41
1
10
11.5565879302729
20
0.259059161752816
30
0
41
1
10
11.5355776504709
20
0.275927139110792
30
0
41
1
10
11.5259270574754
20
0.283207595969174
30
0
41
1
10
11.5115299872483
20
0.292847461357866
30
0
41
1
10
11.5060460242719
20
0.296028252811226
30
0
41
1
10
11.5001776792504
20
0.298340501397746
30
0
41
1
10
11.4986126224916
20
0.298734122634727
30
0
41
1
10
11.4974329200673
20
0.298734122634727
30
0
0
SPLINE
5
264
100
AcDbEntity
8
1
62
256
6
ByLayer
370
18
48
1
60
0
100
AcDbSpline
70
4
71
3
72
8
73
4
40
0
40
0
40
0
40
0
40
1
40
1
40
1
40
1
41
1
10
9.26334869455081
20
-0.346265877365283
30
0
41
1
10
8.88826707429746
20
-0.143696855324919
30
0
41
1
10
8.50793292346432
20
0.0518125177177637
30
0
41
1
10
8.12217101296415
20
0.238734122634725
30
0
0
SPLINE
5
265
100
AcDbEntity
8
1
62
256
6
ByLayer
370
18
48
1
60
0
100
AcDbSpline
70
4
71
3
72
8
73
4
40
0
40
0
40
0
40
0
40
1
40
1
40
1
40
1
41
1
10
10.6173831633767
20
0.238734122634554
30
0
41
1
10
10.7793976002252
20
0.0437847155872362
30
0
41
1
10
10.9413273422562
20
-0.15121749719853
30
0
41
1
10
11.103182870482
20
-0.346265877365283
30
0
0
SPLINE
5
266
100
AcDbEntity
8
1
62
256
6
ByLayer
370
18
48
1
60
0
100
AcDbSpline
70
4
71
3
72
10
73
6
40
0
40
0
40
0
40
0
40
0.418401136490627
40
0.418401136490627
40
1
40
1
40
1
40
1
41
1
10
-3.62166801750607
20
0.298734122634727
30
0
41
1
10
-3.68776417094236
20
0.298734122635011
30
0
41
1
10
-3.75528067356515
20
0.293622546699339
30
0
41
1
10
-3.9163177862788
20
0.275513829571764
30
0
41
1
10
-4.01057152390098
20
0.259800289527419
30
0
41
1
10
-4.10402191928787
20
0.238734122635378
30
0
0
SPLINE
5
267
100
AcDbEntity
8
1
62
256
6
ByLayer
370
18
48
1
60
0
100
AcDbSpline
70
4
71
3
72
8
73
4
40
0
40
0
40
0
40
0
40
1
40
1
40
1
40
1
41
1
10
11.8099743072656
20
0.238734122634725
30
0
41
1
10
12.0027133028317
20
0.0443566191092657
30
0
41
1
10
12.1945805581057
20
-0.150671158769256
30
0
41
1
10
12.3856706249781
20
-0.346265877365283
30
0
0
SPLINE
5
268
100
AcDbEntity
8
1
62
256
6
ByLayer
370
18
48
1
60
0
100
AcDbSpline
70
4
71
3
72
8
73
4
40
0
40
0
40
0
40
0
40
1
40
1
40
1
40
1
41
1
10
7.736686908021
20
0.238734122632337
30
0
41
1
10
7.90433143841756
20
0.0439466508205442
30
0
41
1
10
8.07162710680831
20
-0.151066257710596
30
0
41
1
10
8.23863123486271
20
-0.346265877365283
30
0
0
SPLINE
5
269
100
AcDbEntity
8
1
62
256
6
ByLayer
370
18
48
1
60
0
100
AcDbSpline
70
4
71
3
72
14
73
10
40
0
40
0
40
0
40
0
40
0.439538114289685
40
0.439538114289685
40
0.736197302001765
40
0.736197302001765
40
0.960929214494377
40
0.960929214494377
40
1
40
1
40
1
40
1
41
1
10
11.2571308095586
20
0.238734122634725
30
0
41
1
10
11.2401548703459
20
0.252506640271378
30
0
41
1
10
11.2232796799337
20
0.26524214872174
30
0
41
1
10
11.197458166607
20
0.282568947200872
30
0
41
1
10
11.1875019642002
20
0.288589251266643
30
0
41
1
10
11.1725520319882
20
0.295902750484373
30
0
41
1
10
11.1668239913518
20
0.2980294829093
30
0
41
1
10
11.1618035355848
20
0.298683929269203
30
0
41
1
10
11.1610958431583
20
0.298734122634727
30
0
41
1
10
11.1604356144997
20
0.298734122634727
30
0
0
SPLINE
5
26A
100
AcDbEntity
8
1
62
256
6
ByLayer
370
18
48
1
60
0
100
AcDbSpline
70
4
71
3
72
16
73
12
40
0
40
0
40
0
40
0
40
0.13730851644385
40
0.13730851644385
40
0.351915883107734
40
0.351915883107734
40
0.56669304158572
40
0.56669304158572
40
0.89548523518153
40
0.89548523518153
40
1
40
1
40
1
40
1
41
1
10
11.6768097393771
20
0.298734122634727
30
0
41
1
10
11.6760998027929
20
0.298734122634727
30
0
41
1
10
11.6758787772676
20
0.298232419499044
30
0
41
1
10
11.6766069596779
20
0.295689963546039
30
0
41
1
10
11.678315520417
20
0.292887219123855
30
0
41
1
10
11.6837460278192
20
0.285460669679367
30
0
41
1
10
11.6875144382217
20
0.280766663414312
30
0
41
1
10
11.6986613088916
20
0.267568792843889
30
0
41
1
10
11.7070542230228
20
0.258163484418276
30
0
41
1
10
11.7189965558954
20
0.24519781717737
30
0
41
1
10
11.721982428348
20
0.241985789249952
30
0
41
1
10
11.7250299003113
20
0.238734122634696
30
0
0
SPLINE
5
26B
100
AcDbEntity
8
1
62
256
6
ByLayer
370
18
48
1
60
0
100
AcDbSpline
70
4
71
3
72
8
73
4
40
0
40
0
40
0
40
0
40
1
40
1
40
1
40
1
41
1
10
-10.389279479906
20
-0.346265877365283
30
0
41
1
10
-10.2298877306638
20
-0.151262487319002
30
0
41
1
10
-10.0704907181151
20
0.0437376762441204
30
0
41
1
10
-9.91108764278056
20
0.238734122634384
30
0
0
SPLINE
5
26C
100
AcDbEntity
8
1
62
256
6
ByLayer
370
18
48
1
60
0
100
AcDbSpline
70
4
71
3
72
8
73
4
40
0
40
0
40
0
40
0
40
1
40
1
40
1
40
1
41
1
10
5.99851292718722
20
0.238734122634668
30
0
41
1
10
6.19036544105825
20
0.0448911996018637
30
0
41
1
10
6.3805363524778
20
-0.150205729683364
30
0
41
1
10
6.56936091871083
20
-0.346265877365283
30
0
0
SPLINE
5
26D
100
AcDbEntity
8
1
62
256
6
ByLayer
370
18
48
1
60
0
100
AcDbSpline
70
4
71
3
72
22
73
18
40
0
40
0
40
0
40
0
40
0.284612430389559
40
0.284612430389559
40
0.448560105830066
40
0.448560105830066
40
0.576381261022414
40
0.576381261022414
40
0.670262023004171
40
0.670262023004171
40
0.765071608934011
40
0.765071608934011
40
0.848197586984697
40
0.848197586984697
40
0.958291322768631
40
0.958291322768631
40
1
40
1
40
1
40
1
41
1
10
-10.9885188059763
20
-0.346265877365283
30
0
41
1
10
-11.0129945807367
20
-0.363386947366536
30
0
41
1
10
-11.037655621797
20
-0.378801398125688
30
0
41
1
10
-11.0735553933692
20
-0.397449636456798
30
0
41
1
10
-11.0863174181746
20
-0.40318625004727
30
0
41
1
10
-11.1063675593126
20
-0.409784453677418
30
0
41
1
10
-11.1144083647449
20
-0.411477203690453
30
0
41
1
10
-11.1252169958523
20
-0.411073209653864
30
0
41
1
10
-11.1288870235264
20
-0.409826432313054
30
0
41
1
10
-11.1332816621319
20
-0.404786952753909
30
0
41
1
10
-11.1340049919565
20
-0.40086774739035
30
0
41
1
10
-11.1322936661963
20
-0.391532169816287
30
0
41
1
10
-11.1302317830829
20
-0.38625852710689
30
0
41
1
10
-11.1232667793592
20
-0.373059584332538
30
0
41
1
10
-11.1175901289658
20
-0.364638906968139
30
0
41
1
10
-11.1085631473671
20
-0.352865760820265
30
0
41
1
10
-11.1059259797269
20
-0.349571535322724
30
0
41
1
10
-11.103182870482
20
-0.346265877365283
30
0
0
SPLINE
5
26E
100
AcDbEntity
8
1
62
256
6
ByLayer
370
18
48
1
60
0
100
AcDbSpline
70
4
71
3
72
12
73
8
40
0
40
0
40
0
40
0
40
0.325361488191266
40
0.325361488191266
40
0.921301767255006
40
0.921301767255006
40
1
40
1
40
1
40
1
41
1
10
-10.6674590441832
20
0.298734122637029
30
0
41
1
10
-10.67166705201
20
0.298734122636688
30
0
41
1
10
-10.6768338962667
20
0.297690062387346
30
0
41
1
10
-10.6928862578752
20
0.292635964293595
30
0
41
1
10
-10.7051911865063
20
0.286844506554957
30
0
41
1
10
-10.7197074510017
20
0.278806698559123
30
0
41
1
10
-10.7214266043494
20
0.27783664177997
30
0
41
1
10
-10.7231570338243
20
0.276842966175707
30
0
0
SPLINE
5
26F
100
AcDbEntity
8
1
62
256
6
ByLayer
370
18
48
1
60
0
100
AcDbSpline
70
4
71
3
72
12
73
8
40
0
40
0
40
0
40
0
40
0.522643562283342
40
0.522643562283342
40
0.822367358579505
40
0.822367358579505
40
1
40
1
40
1
40
1
41
1
10
10.1289845499771
20
0.238734122634725
30
0
41
1
10
10.1036676417545
20
0.255473916139607
30
0
41
1
10
10.0780230250613
20
0.270282846061576
30
0
41
1
10
10.0403859485764
20
0.287619864515335
30
0
41
1
10
10.0269503322708
20
0.292793700170165
30
0
41
1
10
10.0078624054043
20
0.297657399350044
30
0
41
1
10
10.0011929058724
20
0.298734122640127
30
0
41
1
10
9.99545105601879
20
0.298734122640951
30
0
0
SPLINE
5
270
100
AcDbEntity
8
1
62
256
6
ByLayer
370
18
48
1
60
0
100
AcDbSpline
70
4
71
3
72
14
73
10
40
0
40
0
40
0
40
0
40
0.351776279080907
40
0.351776279080907
40
0.641182296649833
40
0.641182296649833
40
0.872972609578094
40
0.872972609578094
40
1
40
1
40
1
40
1
41
1
10
11.7622132319285
20
0.238734122634725
30
0
41
1
10
11.7506909480662
20
0.249635535342293
30
0
41
1
10
11.7394857119597
20
0.260032568828081
30
0
41
1
10
11.7210933024837
20
0.276576366452275
30
0
41
1
10
11.7133845691349
20
0.283290229902974
30
0
41
1
10
11.7021098937453
20
0.292515358182868
30
0
41
1
10
11.6979330569216
20
0.295665813218392
30
0
41
1
10
11.6936708094916
20
0.298250538923071
30
0
41
1
10
11.6925688433004
20
0.298734122634727
30
0
41
1
10
11.6919461338779
20
0.298734122634727
30
0
0
SPLINE
5
271
100
AcDbEntity
8
1
62
256
6
ByLayer
370
18
48
1
60
0
100
AcDbSpline
70
4
71
3
72
8
73
4
40
0
40
0
40
0
40
0
40
1
40
1
40
1
40
1
41
1
10
7.9782937261426
20
-0.346265877365283
30
0
41
1
10
7.51151367918541
20
-0.137911618698581
30
0
41
1
10
7.03697360173067
20
0.0580558935309909
30
0
41
1
10
6.55506132228487
20
0.238734122634725
30
0
0
SPLINE
5
272
100
AcDbEntity
8
1
62
256
6
ByLayer
370
18
48
1
60
0
100
AcDbSpline
70
4
71
3
72
8
73
4
40
0
40
0
40
0
40
0
40
1
40
1
40
1
40
1
41
1
10
2.99716371967762
20
0.238734122634725
30
0
41
1
10
3.31327604565706
20
0.0570661741743095
30
0
41
1
10
3.61781501956989
20
-0.140064325316246
30
0
41
1
10
3.91317788205862
20
-0.346265877375771
30
0
0
SPLINE
5
273
100
AcDbEntity
8
1
62
256
6
ByLayer
370
18
48
1
60
0
100
AcDbSpline
70
4
71
3
72
8
73
4
40
0
40
0
40
0
40
0
40
1
40
1
40
1
40
1
41
1
10
11.9660127888013
20
-0.346265877365283
30
0
41
1
10
11.7315607410125
20
-0.149605468690055
30
0
41
1
10
11.4953320612069
20
0.0454823149860886
30
0
41
1
10
11.2571308095586
20
0.238734122634725
30
0
0
SPLINE
5
274
100
AcDbEntity
8
1
62
256
6
ByLayer
370
18
48
1
60
0
100
AcDbSpline
70
4
71
3
72
22
73
18
40
0
40
0
40
0
40
0
40
0.0589060025684219
40
0.0589060025684219
40
0.144150544924979
40
0.144150544924979
40
0.21732989570098
40
0.21732989570098
40
0.279490165347597
40
0.279490165347597
40
0.376451313972645
40
0.376451313972645
40
0.536864990974352
40
0.536864990974352
40
0.826727545526527
40
0.826727545526527
40
1
40
1
40
1
40
1
41
1
10
9.45878355645328
20
-0.346265877365255
30
0
41
1
10
9.46312228723878
20
-0.351547416319107
30
0
41
1
10
9.46709111675744
20
-0.356891778847086
30
0
41
1
10
9.47523202334591
20
-0.369661359792815
30
0
41
1
10
9.47881419708898
20
-0.377193410209941
30
0
41
1
10
9.48154797082748
20
-0.389376117585868
30
0
41
1
10
9.48125558762553
20
-0.394432546434388
30
0
41
1
10
9.4779473782915
20
-0.401742308493908
30
0
41
1
10
9.47533661505182
20
-0.404406044731758
30
0
41
1
10
9.46683733484107
20
-0.409391494310796
30
0
41
1
10
9.459843692287
20
-0.410831356478127
30
0
41
1
10
9.4393587226989
20
-0.411753262688649
30
0
41
1
10
9.42425403329867
20
-0.409487497572201
30
0
41
1
10
9.38054067129687
20
-0.39911755926704
30
0
41
1
10
9.34977149738373
20
-0.387630064917858
30
0
41
1
10
9.30061839624776
20
-0.365565347501331
30
0
41
1
10
9.28194294857067
20
-0.356308011260921
30
0
41
1
10
9.26334869455081
20
-0.346265877365283
30
0
0
SPLINE
5
275
100
AcDbEntity
8
1
62
256
6
ByLayer
370
18
48
1
60
0
100
AcDbSpline
70
4
71
3
72
8
73
4
40
0
40
0
40
0
40
0
40
1
40
1
40
1
40
1
41
1
10
12.2358865767048
20
-0.346265877365283
30
0
41
1
10
12.0187214662444
20
-0.150072185448693
30
0
41
1
10
11.8001802922987
20
0.0449879984791721
30
0
41
1
10
11.5801047960903
20
0.238734122634725
30
0
0
SPLINE
5
276
100
AcDbEntity
8
1
62
256
6
ByLayer
370
18
48
1
60
0
100
AcDbSpline
70
4
71
3
72
8
73
4
40
0
40
0
40
0
40
0
40
1
40
1
40
1
40
1
41
1
10
6.19449049756125
20
-0.346265877365198
30
0
41
1
10
5.51100994086593
20
-0.118587772298127
30
0
41
1
10
4.81270579151396
20
0.0789782150840495
30
0
41
1
10
4.10402191928796
20
0.238734122634952
30
0
0
SPLINE
5
277
100
AcDbEntity
8
1
62
256
6
ByLayer
370
18
48
1
60
0
100
AcDbSpline
70
4
71
3
72
14
73
10
40
0
40
0
40
0
40
0
40
0.141941171301761
40
0.141941171301761
40
0.357353198186838
40
0.357353198186838
40
0.639273767415523
40
0.639273767415523
40
1
40
1
40
1
40
1
41
1
10
11.7510529333995
20
0.298734122634727
30
0
41
1
10
11.751012551942
20
0.298734122634727
30
0
41
1
10
11.7515396404207
20
0.298160484843919
30
0
41
1
10
11.7541921525061
20
0.295381063885884
30
0
41
1
10
11.7570491727296
20
0.29243699717054
30
0
41
1
10
11.7656239807669
20
0.283660249263591
30
0
41
1
10
11.7720584258725
20
0.277107717556504
30
0
41
1
10
11.788371367488
20
0.260552129361855
30
0
41
1
10
11.7989492939661
20
0.249852861503285
30
0
41
1
10
11.8099743072656
20
0.238734122634725
30
0
0
SPLINE
5
278
100
AcDbEntity
8
1
62
256
6
ByLayer
370
18
48
1
60
0
100
AcDbSpline
70
4
71
3
72
18
73
14
40
0
40
0
40
0
40
0
40
0.109823639684845
40
0.109823639684845
40
0.284255774195501
40
0.284255774195501
40
0.415461503320682
40
0.415461503320682
40
0.546150550065159
40
0.546150550065159
40
0.741211937818899
40
0.741211937818899
40
1
40
1
40
1
40
1
41
1
10
-7.73668690802054
20
0.238734122632223
30
0
41
1
10
-7.73350851586957
20
0.242427120966369
30
0
41
1
10
-7.73057331043034
20
0.246189577667025
30
0
41
1
10
-7.72402497158882
20
0.255875098404147
30
0
41
1
10
-7.72093477320678
20
0.261954888456955
30
0
41
1
10
-7.71841322787679
20
0.271712892203851
30
0
41
1
10
-7.71825994643405
20
0.275705754092002
30
0
41
1
10
-7.71987307509343
20
0.282584469338929
30
0
41
1
10
-7.72163558236477
20
0.285558420034505
30
0
41
1
10
-7.72766951677846
20
0.291571179645928
30
0
41
1
10
-7.73279601228754
20
0.294065160697983
30
0
41
1
10
-7.74619413270196
20
0.297909249508422
30
0
41
1
10
-7.75511222619218
20
0.29873412263774
30
0
41
1
10
-7.76445294698274
20
0.298734122637598
30
0
0
SPLINE
5
279
100
AcDbEntity
8
1
62
256
6
ByLayer
370
18
48
1
60
0
100
AcDbSpline
70
4
71
3
72
8
73
4
40
0
40
0
40
0
40
0
40
1
40
1
40
1
40
1
41
1
10
10.9885188059763
20
-0.346265877365283
30
0
41
1
10
10.7050401172763
20
-0.147969458942327
30
0
41
1
10
10.4186186138218
20
0.047225176198026
30
0
41
1
10
10.1289845499771
20
0.238734122634725
30
0
0
SPLINE
5
27A
100
AcDbEntity
8
1
62
256
6
ByLayer
370
18
48
1
60
0
100
AcDbSpline
70
4
71
3
72
8
73
4
40
0
40
0
40
0
40
0
40
1
40
1
40
1
40
1
41
1
10
11.5554750575442
20
-0.346265877365283
30
0
41
1
10
11.2995560381157
20
-0.148946090267316
30
0
41
1
10
11.0413555833617
20
0.046183193995887
30
0
41
1
10
10.7806382482019
20
0.238734122634725
30
0
0
SPLINE
5
27B
100
AcDbEntity
8
1
62
256
6
ByLayer
370
18
48
1
60
0
100
AcDbSpline
70
4
71
3
72
12
73
8
40
0
40
0
40
0
40
0
40
0.192682760500296
40
0.192682760500296
40
0.719828315470829
40
0.719828315470829
40
1
40
1
40
1
40
1
41
1
10
-7.92229515489979
20
0.298734122634727
30
0
41
1
10
-7.93352925777083
20
0.298734122633846
30
0
41
1
10
-7.94563544856882
20
0.297450050492017
30
0
41
1
10
-7.99168808936633
20
0.289743620687631
30
0
41
1
10
-8.02809346516347
20
0.278383318643421
30
0
41
1
10
-8.08344973951316
20
0.256614963396089
30
0
41
1
10
-8.10287029688675
20
0.248086318191184
30
0
41
1
10
-8.12217101296415
20
0.238734122634725
30
0
0
SPLINE
5
27C
100
AcDbEntity
8
1
62
256
6
ByLayer
370
18
48
1
60
0
100
AcDbSpline
70
4
71
3
72
20
73
16
40
0
40
0
40
0
40
0
40
0.066188082051513
40
0.066188082051513
40
0.192961842727587
40
0.192961842727587
40
0.284485482862045
40
0.284485482862045
40
0.375991128592693
40
0.375991128592693
40
0.500956861853661
40
0.500956861853661
40
0.716000196280463
40
0.716000196280463
40
1
40
1
40
1
40
1
41
1
10
-5.99851292719509
20
0.238734122625061
30
0
41
1
10
-5.9961652063138
20
0.24110620036754
30
0
41
1
10
-5.99394376504466
20
0.243535310236894
30
0
41
1
10
-5.98806029847475
20
0.250701983598219
30
0
41
1
10
-5.98483364801515
20
0.255665740654422
30
0
41
1
10
-5.98158578030277
20
0.263990909575682
30
0
41
1
10
-5.98091916963867
20
0.267488202282578
30
0
41
1
10
-5.98126195193316
20
0.273873852424316
30
0
41
1
10
-5.98227059688472
20
0.276835411301278
30
0
41
1
10
-5.98615071097654
20
0.282872284468567
30
0
41
1
10
-5.98958411818171
20
0.285715561022272
30
0
41
1
10
-6.00038765911546
20
0.291876469489608
30
0
41
1
10
-6.00894604942988
20
0.294290121495806
30
0
41
1
10
-6.02975979897155
20
0.297997739276923
30
0
41
1
10
-6.04263268008424
20
0.298734122634727
30
0
41
1
10
-6.05577164463767
20
0.298734122634727
30
0
0
SPLINE
5
27D
100
AcDbEntity
8
1
62
256
6
ByLayer
370
18
48
1
60
0
100
AcDbSpline
70
4
71
3
72
12
73
8
40
0
40
0
40
0
40
0
40
0.236187020825015
40
0.236187020825015
40
0.694609692002249
40
0.694609692002249
40
1
40
1
40
1
40
1
41
1
10
-9.10485591140119
20
0.298734122634727
30
0
41
1
10
-9.11499972621417
20
0.298734122633675
30
0
41
1
10
-9.12662830731247
20
0.296838048610198
30
0
41
1
10
-9.16205986178315
20
0.288057496755442
30
0
41
1
10
-9.18771581826275
20
0.27807209447127
30
0
41
1
10
-9.23053268848037
20
0.257911729290044
30
0
41
1
10
-9.24795666596276
20
0.248742905500904
30
0
41
1
10
-9.2652843986979
20
0.238734122634725
30
0
0
SPLINE
5
27E
100
AcDbEntity
8
1
62
256
6
ByLayer
370
18
48
1
60
0
100
AcDbSpline
70
4
71
3
72
26
73
22
40
0
40
0
40
0
40
0
40
0.250487272051366
40
0.250487272051366
40
0.648692601343916
40
0.648692601343916
40
0.817673606714328
40
0.817673606714328
40
0.902892990943958
40
0.902892990943958
40
0.920965280648535
40
0.920965280648535
40
0.93940457404555
40
0.93940457404555
40
0.950722879173504
40
0.950722879173504
40
0.962027388394545
40
0.962027388394545
40
0.978271854553824
40
0.978271854553824
40
1
40
1
40
1
40
1
41
1
10
-3.156779097141
20
-0.346265877365283
30
0
41
1
10
-3.22857583511225
20
-0.357998699129666
30
0
41
1
10
-3.3004196334891
20
-0.368649992582732
30
0
41
1
10
-3.48594286826633
20
-0.392933751241287
30
0
41
1
10
-3.60005588453237
20
-0.405369205667313
30
0
41
1
10
-3.75947948643668
20
-0.411762118905585
30
0
41
1
10
-3.80704447102676
20
-0.412453760023453
30
0
41
1
10
-3.87509849108736
20
-0.406355644025382
30
0
41
1
10
-3.89821350713498
20
-0.403402204443807
30
0
41
1
10
-3.92090058487096
20
-0.39397982420931
30
0
41
1
10
-3.92470775653422
20
-0.392027913944759
30
0
41
1
10
-3.93121163030597
20
-0.387291947353617
30
0
41
1
10
-3.93396455877945
20
-0.384401251036707
30
0
41
1
10
-3.93629372655965
20
-0.378983609737475
30
0
41
1
10
-3.93668258702743
20
-0.37669044141407
30
0
41
1
10
-3.93628353068115
20
-0.372015834336821
30
0
41
1
10
-3.9354978032288
20
-0.369583758355731
30
0
41
1
10
-3.93254789982751
20
-0.363876889763077
30
0
41
1
10
-3.92992219645325
20
-0.360599534640215
30
0
41
1
10
-3.92291782261688
20
-0.35350405138945
30
0
41
1
10
-3.91817041879966
20
-0.349751314939937
30
0
41
1
10
-3.91317788206425
20
-0.346265877351755
30
0
0
SPLINE
5
27F
100
AcDbEntity
8
1
62
256
6
ByLayer
370
18
48
1
60
0
100
AcDbSpline
70
4
71
3
72
8
73
4
40
0
40
0
40
0
40
0
40
1
40
1
40
1
40
1
41
1
10
12.3743031550959
20
-0.346265877365255
30
0
41
1
10
12.1713638521305
20
-0.150414141807858
30
0
41
1
10
11.9673753378163
20
0.0446270502038999
30
0
41
1
10
11.7622132319285
20
0.238734122634725
30
0
0
SPLINE
5
280
100
AcDbEntity
8
1
62
256
6
ByLayer
370
18
48
1
60
0
100
AcDbSpline
70
4
71
3
72
8
73
4
40
0
40
0
40
0
40
0
40
1
40
1
40
1
40
1
41
1
10
-6.55506132228487
20
0.238734122634725
30
0
41
1
10
-7.03697360173067
20
0.0580558935309909
30
0
41
1
10
-7.51151367918541
20
-0.137911618698581
30
0
41
1
10
-7.9782937261426
20
-0.346265877365283
30
0
0
SPLINE
5
281
100
AcDbEntity
8
1
62
256
6
ByLayer
370
18
48
1
60
0
100
AcDbSpline
70
4
71
3
72
18
73
14
40
0
40
0
40
0
40
0
40
0.17609909436593
40
0.17609909436593
40
0.377543737218863
40
0.377543737218863
40
0.542738879668711
40
0.542738879668711
40
0.70834617270006
40
0.70834617270006
40
0.870109648157108
40
0.870109648157108
40
1
40
1
40
1
40
1
41
1
10
8.98755188690774
20
0.298734122636716
30
0
41
1
10
8.98235248200473
20
0.298734122636773
30
0
41
1
10
8.97747851534899
20
0.298258465947271
30
0
41
1
10
8.96833741941202
20
0.29587884753721
30
0
41
1
10
8.96418087537799
20
0.293732587018809
30
0
41
1
10
8.95913498963631
20
0.287911225925626
30
0
41
1
10
8.9577693443872
20
0.284502808549433
30
0
41
1
10
8.9573711462323
20
0.276470929818572
30
0
41
1
10
8.95834397781147
20
0.271744806344031
30
0
41
1
10
8.96222285916602
20
0.261879825825105
30
0
41
1
10
8.96510418982928
20
0.256652293503578
30
0
41
1
10
8.97137913707158
20
0.247213844946316
30
0
41
1
10
8.97458736193127
20
0.242953805146243
30
0
41
1
10
8.97805609738555
20
0.2387341226339
30
0
0
SPLINE
5
282
100
AcDbEntity
8
1
62
256
6
ByLayer
370
18
48
1
60
0
100
AcDbSpline
70
4
71
3
72
24
73
20
40
0
40
0
40
0
40
0
40
0.0654000587668374
40
0.0654000587668374
40
0.105993500051517
40
0.105993500051517
40
0.147224539289097
40
0.147224539289097
40
0.176257160604597
40
0.176257160604597
40
0.205251784270003
40
0.205251784270003
40
0.247477281629948
40
0.247477281629948
40
0.327254091315842
40
0.327254091315842
40
0.604731792726029
40
0.604731792726029
40
1
40
1
40
1
40
1
41
1
10
-2.9971637196457
20
0.238734122653028
30
0
41
1
10
-2.99255304459751
20
0.241383851273525
30
0
41
1
10
-2.988088030211
20
0.244224845522524
30
0
41
1
10
-2.98155749373953
20
0.24929368094638
30
0
41
1
10
-2.97920225090741
20
0.251370057521456
30
0
41
1
10
-2.97519804261697
20
0.255803814944073
30
0
41
1
10
-2.97352262953979
20
0.258225013563759
30
0
41
1
10
-2.97193632328489
20
0.262416606868356
30
0
41
1
10
-2.97165147686033
20
0.264205864204541
30
0
41
1
10
-2.9719555302986
20
0.267589413387384
30
0
41
1
10
-2.97254253018355
20
0.269221494689759
30
0
41
1
10
-2.97475228101749
20
0.27283722001394
30
0
41
1
10
-2.976730821876
20
0.274714456651964
30
0
41
1
10
-2.98323125254225
20
0.279381355465148
30
0
41
1
10
-2.98852989528416
20
0.281671582919131
30
0
41
1
10
-3.01299763220183
20
0.290125729816253
30
0
41
1
10
-3.03498263308316
20
0.292884741319881
30
0
41
1
10
-3.08778200541428
20
0.297878535528696
30
0
41
1
10
-3.11968118421211
20
0.298734122634727
30
0
41
1
10
-3.15166794857151
20
0.298734122634727
30
0
0
SPLINE
5
283
100
AcDbEntity
8
1
62
256
6
ByLayer
370
18
48
1
60
0
100
AcDbSpline
70
4
71
3
72
16
73
12
40
0
40
0
40
0
40
0
40
0.219509331905566
40
0.219509331905566
40
0.445847997285757
40
0.445847997285757
40
0.674654598227637
40
0.674654598227637
40
0.870934663025341
40
0.870934663025341
40
1
40
1
40
1
40
1
41
1
10
-10.6173831633767
20
0.238734122634582
30
0
41
1
10
-10.6116767733872
20
0.245600531372418
30
0
41
1
10
-10.6064291755454
20
0.25245091275471
30
0
41
1
10
-10.5975305189753
20
0.265638725929733
30
0
41
1
10
-10.5938625630856
20
0.272087180143728
30
0
41
1
10
-10.5893437962329
20
0.283238614287825
30
0
41
1
10
-10.5884933264942
20
0.288063732373956
30
0
41
1
10
-10.5898945323693
20
0.29449674044406
30
0
41
1
10
-10.591726163336
20
0.296552393071551
30
0
41
1
10
-10.596248812513
20
0.298392710877096
30
0
41
1
10
-10.5984452281917
20
0.298734122634812
30
0
41
1
10
-10.6009342808913
20
0.298734122634812
30
0
0
SPLINE
5
284
100
AcDbEntity
8
1
62
256
6
ByLayer
370
18
48
1
60
0
100
AcDbSpline
70
4
71
3
72
16
73
12
40
0
40
0
40
0
40
0
40
0.185708699144983
40
0.185708699144983
40
0.393100091828937
40
0.393100091828937
40
0.602655949410042
40
0.602655949410042
40
0.783293804890726
40
0.783293804890726
40
1
40
1
40
1
40
1
41
1
10
-9.9110876427805
20
0.238734122634384
30
0
41
1
10
-9.90627040580569
20
0.244627008261148
30
0
41
1
10
-9.90186482999101
20
0.250549689134573
30
0
41
1
10
-9.89409403921354
20
0.262631875178528
30
0
41
1
10
-9.89084763043678
20
0.268868733580717
30
0
41
1
10
-9.88711904826175
20
0.279908032185062
30
0
41
1
10
-9.88664674995172
20
0.284835854309023
30
0
41
1
10
-9.88857015905955
20
0.291827705603396
30
0
41
1
10
-9.89058419799611
20
0.294288075326023
30
0
41
1
10
-9.89678246487756
20
0.297882559096536
30
0
41
1
10
-9.90136547465818
20
0.298734122634727
30
0
41
1
10
-9.90658610591117
20
0.298734122634727
30
0
0
SPLINE
5
285
100
AcDbEntity
8
1
62
256
6
ByLayer
370
18
48
1
60
0
100
AcDbSpline
70
4
71
3
72
22
73
18
40
0
40
0
40
0
40
0
40
0.146229876888666
40
0.146229876888666
40
0.271494243412915
40
0.271494243412915
40
0.376221605357025
40
0.376221605357025
40
0.481452728604906
40
0.481452728604906
40
0.579730659917532
40
0.579730659917532
40
0.715548407166766
40
0.715548407166766
40
0.904896096387697
40
0.904896096387697
40
1
40
1
40
1
40
1
41
1
10
12.2703420933027
20
-0.346265877365283
30
0
41
1
10
12.2797872127024
20
-0.356451091721937
30
0
41
1
10
12.2887286155961
20
-0.366382523318208
30
0
41
1
10
12.3030206030132
20
-0.383034869186162
30
0
41
1
10
12.3088207880203
20
-0.39015975973777
30
0
41
1
10
12.3166102162004
20
-0.400756823755699
30
0
41
1
10
12.3191255707538
20
-0.404726480017757
30
0
41
1
10
12.3213099086821
20
-0.409987782938941
30
0
41
1
10
12.3209801270337
20
-0.411323628470598
30
0
41
1
10
12.3176939167375
20
-0.411207835743028
30
0
41
1
10
12.3148900909574
20
-0.409949511182703
30
0
41
1
10
12.3061986177623
20
-0.404725618211728
30
0
41
1
10
12.2994367861692
20
-0.399864280388869
30
0
41
1
10
12.2813254208228
20
-0.385791300691238
30
0
41
1
10
12.2689220914479
20
-0.375410454133714
30
0
41
1
10
12.2494634573198
20
-0.358434542155635
30
0
41
1
10
12.2427236500006
20
-0.352442701298713
30
0
41
1
10
12.2358865767048
20
-0.346265877365283
30
0
0
SPLINE
5
286
100
AcDbEntity
8
1
62
256
6
ByLayer
370
18
48
1
60
0
100
AcDbSpline
70
4
71
3
72
22
73
18
40
0
40
0
40
0
40
0
40
0.128402250197902
40
0.128402250197902
40
0.24502575928212
40
0.24502575928212
40
0.343780081551848
40
0.343780081551848
40
0.442824619970936
40
0.442824619970936
40
0.538222963808323
40
0.538222963808323
40
0.677411224698629
40
0.677411224698629
40
0.876405599113655
40
0.876405599113655
40
1
40
1
40
1
40
1
41
1
10
12.0246726917162
20
-0.346265877365283
30
0
41
1
10
12.0328700673465
20
-0.355515228098881
30
0
41
1
10
12.04054575115
20
-0.364609576118596
30
0
41
1
10
12.0529969969855
20
-0.380558267849153
30
0
41
1
10
12.0580763520949
20
-0.38768907673213
30
0
41
1
10
12.0645820742311
20
-0.398600385638076
30
0
41
1
10
12.0664939157008
20
-0.402823950964461
30
0
41
1
10
12.0675540436028
20
-0.408780004242146
30
0
41
1
10
12.0667004990698
20
-0.410575295230018
30
0
41
1
10
12.0625857089281
20
-0.411599265439236
30
0
41
1
10
12.0593850421521
20
-0.410949995529194
30
0
41
1
10
12.0496015599184
20
-0.407116494598142
30
0
41
1
10
12.0420162930433
20
-0.40288799307163
30
0
41
1
10
12.0217232688178
20
-0.389907316719672
30
0
41
1
10
12.0078664306252
20
-0.37980424283208
30
0
41
1
10
11.9846043391289
20
-0.361617953636596
30
0
41
1
10
11.9753585863284
20
-0.35410521329095
30
0
41
1
10
11.9660127888013
20
-0.346265877365283
30
0
0
SPLINE
5
287
100
AcDbEntity
8
1
62
256
6
ByLayer
370
18
48
1
60
0
100
AcDbSpline
70
4
71
3
72
8
73
4
40
0
40
0
40
0
40
0
40
1
40
1
40
1
40
1
41
1
10
-4.10402191928796
20
0.238734122634952
30
0
41
1
10
-4.81270579151396
20
0.0789782150840495
30
0
41
1
10
-5.51100994086593
20
-0.118587772298127
30
0
41
1
10
-6.19449049756125
20
-0.346265877365198
30
0
0
SPLINE
5
288
100
AcDbEntity
8
1
62
256
6
ByLayer
370
18
48
1
60
0
100
AcDbSpline
70
4
71
3
72
10
73
6
40
0
40
0
40
0
40
0
40
0.748301437373219
40
0.748301437373219
40
1
40
1
40
1
40
1
41
1
10
0.158079094126919
20
-0.444999999999993
30
0
41
1
10
0.0792310143650639
20
-0.44400246234315
30
0
41
1
10
0.0003699592500936
20
-0.443751182602512
30
0
41
1
10
-0.105015613222832
20
-0.444413164314113
30
0
41
1
10
-0.131547955346321
20
-0.444664344266926
30
0
41
1
10
-0.158079094126919
20
-0.444999999999993
30
0
0
SPLINE
5
289
100
AcDbEntity
8
1
62
256
6
ByLayer
370
18
48
1
60
0
100
AcDbSpline
70
4
71
3
72
8
73
4
40
0
40
0
40
0
40
0
40
1
40
1
40
1
40
1
41
1
10
-10.7231570338242
20
0.276842966175764
30
0
41
1
10
-10.9636866862768
20
0.0363133137231841
30
0
41
1
10
-11.2043047840369
20
-0.20430478403685
30
0
41
1
10
-11.445
20
-0.444999999999993
30
0
0
SPLINE
5
28A
100
AcDbEntity
8
1
62
256
6
ByLayer
370
18
48
1
60
0
100
AcDbSpline
70
4
71
3
72
16
73
12
40
0
40
0
40
0
40
0
40
0.186963980749768
40
0.186963980749768
40
0.373116025505088
40
0.373116025505088
40
0.571023154555534
40
0.571023154555534
40
0.793058712857959
40
0.793058712857959
40
1
40
1
40
1
40
1
41
1
10
12.5
20
-5.64999999999989
30
0
41
1
10
12.5
20
-5.81339111083966
30
0
41
1
10
12.5259316614972
20
-5.9790339731808
30
0
41
1
10
12.6230047815551
20
-6.28585530999044
30
0
41
1
10
12.6950008326709
20
-6.43123586959274
30
0
41
1
10
12.8780714295681
20
-6.69615269441411
30
0
41
1
10
12.9934690067819
20
-6.8169618052379
30
0
41
1
10
13.2650359985837
20
-7.02684923748805
30
0
41
1
10
13.4281005565075
20
-7.11322726983389
30
0
41
1
10
13.759040900748
20
-7.22227301660644
30
0
41
1
10
13.9295577265021
20
-7.24999999999989
30
0
41
1
10
14.1
20
-7.24999999999989
30
0
0
SPLINE
5
28B
100
AcDbEntity
8
1
62
256
6
ByLayer
370
18
48
1
60
0
100
AcDbSpline
70
4
71
3
72
8
73
4
40
0
40
0
40
0
40
0
40
1
40
1
40
1
40
1
41
1
10
9.82135587855754
20
-0.449999999999989
30
0
41
1
10
9.76993204390828
20
-0.446668850855246
30
0
41
1
10
9.71918763771424
20
-0.444999999999993
30
0
41
1
10
9.66912449235517
20
-0.444999999999993
30
0
0
SPLINE
5
28C
100
AcDbEntity
8
1
62
256
6
ByLayer
370
18
48
1
60
0
100
AcDbSpline
70
4
71
3
72
10
73
6
40
0
40
0
40
0
40
0
40
0.756102769204547
40
0.756102769204547
40
1
40
1
40
1
40
1
41
1
10
27.9466320131342
20
-7.19999999999987
30
0
41
1
10
27.9335358577321
20
-7.19999999999987
30
0
41
1
10
27.9207202080259
20
-7.19999999999987
30
0
41
1
10
27.9042092102193
20
-7.19999999999987
30
0
41
1
10
27.9002140960562
20
-7.19999999999987
30
0
41
1
10
27.8962544185031
20
-7.19999999999987
30
0
0
SPLINE
5
28D
100
AcDbEntity
8
1
62
256
6
ByLayer
370
18
48
1
60
0
100
AcDbSpline
70
4
71
3
72
14
73
10
40
0
40
0
40
0
40
0
40
0.209394252568555
40
0.209394252568555
40
0.418674140634421
40
0.418674140634421
40
0.627952529466336
40
0.627952529466336
40
1
40
1
40
1
40
1
41
1
10
33.8731203716814
20
-8.88244511361017
30
0
41
1
10
33.9313095888795
20
-8.88243843432355
30
0
41
1
10
33.9945415508062
20
-8.88302469360491
30
0
41
1
10
34.1284652768354
20
-8.88536000986758
30
0
41
1
10
34.1996116692105
20
-8.8871164383184
30
0
41
1
10
34.3473813033078
20
-8.89173514557626
30
0
41
1
10
34.4245105149097
20
-8.89461322492039
30
0
41
1
10
34.6423341909035
20
-8.9039771838994
30
0
41
1
10
34.7889070981155
20
-8.91166082683745
30
0
41
1
10
34.9337805434602
20
-8.92055979753772
30
0
0
SPLINE
5
28E
100
AcDbEntity
8
1
62
256
6
ByLayer
370
18
48
1
60
0
100
AcDbSpline
70
4
71
3
72
14
73
10
40
0
40
0
40
0
40
0
40
0.209828521639199
40
0.209828521639199
40
0.4195901540272
40
0.4195901540272
40
0.628965113592846
40
0.628965113592846
40
1
40
1
40
1
40
1
41
1
10
34.9337805434612
20
-7.07944020246151
30
0
41
1
10
34.8514732695809
20
-7.08449599454914
30
0
41
1
10
34.7688292147961
20
-7.08915266772726
30
0
41
1
10
34.6062811533077
20
-7.09747259763731
30
0
41
1
10
34.5258208334326
20
-7.10116457373582
30
0
41
1
10
34.3699639724299
20
-7.1074536640275
30
0
41
1
10
34.2940252483449
20
-7.11007427929545
30
0
41
1
10
34.0941103545506
20
-7.11571683543713
30
0
41
1
10
33.9754747567342
20
-7.11756663520413
30
0
41
1
10
33.8731203716824
20
-7.11755488639039
30
0
0
SPLINE
5
28F
100
AcDbEntity
8
1
62
256
6
ByLayer
370
18
48
1
60
0
100
AcDbSpline
70
4
71
3
72
8
73
4
40
0
40
0
40
0
40
0
40
1
40
1
40
1
40
1
41
1
10
35.5810768987951
20
-7.03780961044075
30
0
41
1
10
35.4667232362903
20
-7.04607476079039
30
0
41
1
10
35.3500733165824
20
-7.05386907600746
30
0
41
1
10
35.2337805434613
20
-7.06101245537693
30
0
0
SPLINE
5
290
100
AcDbEntity
8
1
62
256
6
ByLayer
370
18
48
1
60
0
100
AcDbSpline
70
4
71
3
72
10
73
6
40
0
40
0
40
0
40
0
40
0.575849552148122
40
0.575849552148122
40
1
40
1
40
1
40
1
41
1
10
27.8962544185031
20
-8.79999999999987
30
0
41
1
10
27.9055992325651
20
-8.79999999999987
30
0
41
1
10
27.9151434423376
20
-8.79999999999987
30
0
41
1
10
27.9320239080445
20
-8.79999999999987
30
0
41
1
10
27.9392832271312
20
-8.79999999999987
30
0
41
1
10
27.9466320131342
20
-8.79999999999987
30
0
0
SPLINE
5
291
100
AcDbEntity
8
1
62
256
6
ByLayer
370
18
48
1
60
0
100
AcDbSpline
70
4
71
3
72
8
73
4
40
0
40
0
40
0
40
0
40
1
40
1
40
1
40
1
41
1
10
35.2337805434613
20
-8.93898754462282
30
0
41
1
10
35.3500733165824
20
-8.94613092399229
30
0
41
1
10
35.4667232362903
20
-8.95392523920935
30
0
41
1
10
35.5810768987951
20
-8.96219038955903
30
0
0
SPLINE
5
292
100
AcDbEntity
8
1
62
256
6
ByLayer
370
18
48
1
60
0
100
AcDbSpline
70
4
71
3
72
16
73
12
40
0
40
0
40
0
40
0
40
0.211440290976243
40
0.211440290976243
40
0.422896736694443
40
0.422896736694443
40
0.633935131411306
40
0.633935131411306
40
0.842399597812144
40
0.842399597812144
40
1
40
1
40
1
40
1
41
1
10
36.4019409516835
20
-7.25324033365621
30
0
41
1
10
36.402182812152
20
-7.22464626339408
30
0
41
1
10
36.397509865013
20
-7.19565922963531
30
0
41
1
10
36.3791355265766
20
-7.14169312017063
30
0
41
1
10
36.3651770288146
20
-7.11596439579083
30
0
41
1
10
36.3300123990849
20
-7.07138342313877
30
0
41
1
10
36.3083234948748
20
-7.05189541000311
30
0
41
1
10
36.2605708510196
20
-7.022079046301
30
0
41
1
10
36.2338898983737
20
-7.01122939815545
30
0
41
1
10
36.1856899076454
20
-7.00087164249953
30
0
41
1
10
36.1640691721776
20
-6.99915291544175
30
0
41
1
10
36.1427579923014
20
-7.00030093989866
30
0
0
SPLINE
5
293
100
AcDbEntity
8
1
62
256
6
ByLayer
370
18
48
1
60
0
100
AcDbSpline
70
4
71
3
72
16
73
12
40
0
40
0
40
0
40
0
40
0.203363754276493
40
0.203363754276493
40
0.40658604208921
40
0.40658604208921
40
0.611967971554986
40
0.611967971554986
40
0.82073821984358
40
0.82073821984358
40
1
40
1
40
1
40
1
41
1
10
36.1427579923014
20
-8.99969906010108
30
0
41
1
10
36.1700970081209
20
-9.00117180159035
30
0
41
1
10
36.1980262240332
20
-8.99787801301378
30
0
41
1
10
36.2504076479783
20
-8.98241107536435
30
0
41
1
10
36.2755789022368
20
-8.97003831328388
30
0
41
1
10
36.3201132665787
20
-8.937977331881
30
0
41
1
10
36.3400202557988
20
-8.91778225268519
30
0
41
1
10
36.3720355922843
20
-8.87219500835997
30
0
41
1
10
36.3844520380368
20
-8.84610043277851
30
0
41
1
10
36.3988187436013
20
-8.79567368877673
30
0
41
1
10
36.4021467885115
20
-8.77109482437768
30
0
41
1
10
36.4019409516835
20
-8.74675966634354
30
0
0
LINE
5
70
100
AcDbEntity
8
81
62
256
6
ByLayer
370
18
48
1
60
0
100
AcDbLine
10
36.4
20
-9
30
0
11
41.4
21
-9
31
0
39
0
210
0
220
0
230
1
0
LINE
5
71
100
AcDbEntity
8
80
62
256
6
ByLayer
370
18
48
1
60
0
100
AcDbLine
10
0
20
0
30
0
11
-5
21
0
31
0
39
0
210
0
220
0
230
1
0
LINE
5
72
100
AcDbEntity
8
1
62
256
6
ByLayer
370
18
48
1
60
0
100
AcDbLine
10
12.5
20
-0.75
30
0
11
12.5
21
-0.45
31
0
39
0
210
0
220
0
230
1
0
LINE
5
74
100
AcDbEntity
8
1
62
256
6
ByLayer
370
18
48
1
60
0
100
AcDbLine
10
12.5
20
-0.45
30
0
11
11.751266
21
0.298734
31
0
39
0
210
0
220
0
230
1
0
LINE
5
75
100
AcDbEntity
8
1
62
256
6
ByLayer
370
18
48
1
60
0
100
AcDbLine
10
12.5
20
-0.45
30
0
11
9.821356
21
-0.45
31
0
39
0
210
0
220
0
230
1
0
LINE
5
76
100
AcDbEntity
8
1
62
256
6
ByLayer
370
18
48
1
60
0
100
AcDbLine
10
11.751266
20
0.298734
30
0
11
11.751053
21
0.298734
31
0
39
0
210
0
220
0
230
1
0
LINE
5
77
100
AcDbEntity
8
1
62
256
6
ByLayer
370
13
48
1
60
0
100
AcDbLine
10
27.726482
20
-7.2
30
0
11
27.697265
21
-7.250004
31
0
39
0
210
0
220
0
230
1
0
LINE
5
78
100
AcDbEntity
8
1
62
256
6
ByLayer
370
13
48
1
60
0
100
AcDbLine
10
27.726482
20
-8.8
30
0
11
27.697265
21
-8.749996
31
0
39
0
210
0
220
0
230
1
0
LINE
5
79
100
AcDbEntity
8
1
62
256
6
ByLayer
370
13
48
1
60
0
100
AcDbLine
10
31.80692
20
-7.802665
30
0
11
31.952289
21
-7.802665
31
0
39
0
210
0
220
0
230
1
0
LINE
5
7A
100
AcDbEntity
8
1
62
256
6
ByLayer
370
13
48
1
60
0
100
AcDbLine
10
3.913178
20
-0.346266
30
0
11
3.156712
21
-0.346266
31
0
39
0
210
0
220
0
230
1
0
LINE
5
7B
100
AcDbEntity
8
1
62
256
6
ByLayer
370
13
48
1
60
0
100
AcDbLine
10
-3.156712
20
-0.346266
30
0
11
-3.913178
21
-0.346266
31
0
39
0
210
0
220
0
230
1
0
LINE
5
7C
100
AcDbEntity
8
1
62
256
6
ByLayer
370
13
48
1
60
0
100
AcDbLine
10
2.997164
20
0.238734
30
0
11
-2.997164
21
0.238734
31
0
39
0
210
0
220
0
230
1
0
LINE
5
7D
100
AcDbEntity
8
1
62
256
6
ByLayer
370
18
48
1
60
0
100
AcDbLine
10
6.055772
20
0.298734
30
0
11
3.621541
21
0.298734
31
0
39
0
210
0
220
0
230
1
0
LINE
5
7E
100
AcDbEntity
8
1
62
256
6
ByLayer
370
18
48
1
60
0
100
AcDbLine
10
-3.621541
20
0.298734
30
0
11
-6.055772
21
0.298734
31
0
39
0
210
0
220
0
230
1
0
LINE
5
7F
100
AcDbEntity
8
1
62
256
6
ByLayer
370
13
48
1
60
0
100
AcDbLine
10
27.065685
20
-7.250008
30
0
11
27.065685
21
-7.2
31
0
39
0
210
0
220
0
230
1
0
LINE
5
80
100
AcDbEntity
8
1
62
256
6
ByLayer
370
13
48
1
60
0
100
AcDbLine
10
6.569361
20
-0.346266
30
0
11
6.194291
21
-0.346266
31
0
39
0
210
0
220
0
230
1
0
LINE
5
81
100
AcDbEntity
8
1
62
256
6
ByLayer
370
13
48
1
60
0
100
AcDbLine
10
-6.194291
20
-0.346266
30
0
11
-6.569361
21
-0.346266
31
0
39
0
210
0
220
0
230
1
0
LINE
5
82
100
AcDbEntity
8
1
62
256
6
ByLayer
370
13
48
1
60
0
100
AcDbLine
10
9.669124
20
-0.445
30
0
11
9.669124
21
-8.75
31
0
39
0
210
0
220
0
230
1
0
LINE
5
83
100
AcDbEntity
8
1
62
256
6
ByLayer
370
13
48
1
60
0
100
AcDbLine
10
5.998513
20
0.238734
30
0
11
4.10392
21
0.238734
31
0
39
0
210
0
220
0
230
1
0
LINE
5
84
100
AcDbEntity
8
1
62
256
6
ByLayer
370
13
48
1
60
0
100
AcDbLine
10
-4.10392
20
0.238734
30
0
11
-5.998513
21
0.238734
31
0
39
0
210
0
220
0
230
1
0
LINE
5
85
100
AcDbEntity
8
1
62
256
6
ByLayer
370
18
48
1
60
0
100
AcDbLine
10
7.764453
20
0.298734
30
0
11
6.284839
21
0.298734
31
0
39
0
210
0
220
0
230
1
0
LINE
5
86
100
AcDbEntity
8
1
62
256
6
ByLayer
370
18
48
1
60
0
100
AcDbLine
10
-6.284839
20
0.298734
30
0
11
-7.764453
21
0.298734
31
0
39
0
210
0
220
0
230
1
0
LINE
5
87
100
AcDbEntity
8
1
62
256
6
ByLayer
370
18
48
1
60
0
100
AcDbLine
10
-8.093899
20
0.298734
30
0
11
-8.04249
21
0.298734
31
0
39
0
210
0
220
0
230
1
0
LINE
5
88
100
AcDbEntity
8
1
62
256
6
ByLayer
370
18
48
1
60
0
100
AcDbLine
10
8.093899
20
0.298734
30
0
11
8.04249
21
0.298734
31
0
39
0
210
0
220
0
230
1
0
LINE
5
89
100
AcDbEntity
8
1
62
256
6
ByLayer
370
13
48
1
60
0
100
AcDbLine
10
8.238631
20
-0.346266
30
0
11
7.978085
21
-0.346266
31
0
39
0
210
0
220
0
230
1
0
LINE
5
8A
100
AcDbEntity
8
1
62
256
6
ByLayer
370
13
48
1
60
0
100
AcDbLine
10
-7.978085
20
-0.346266
30
0
11
-8.238631
21
-0.346266
31
0
39
0
210
0
220
0
230
1
0
LINE
5
8B
100
AcDbEntity
8
1
62
256
6
ByLayer
370
13
48
1
60
0
100
AcDbLine
10
7.736687
20
0.238734
30
0
11
6.554908
21
0.238734
31
0
39
0
210
0
220
0
230
1
0
LINE
5
8C
100
AcDbEntity
8
1
62
256
6
ByLayer
370
13
48
1
60
0
100
AcDbLine
10
-6.554908
20
0.238734
30
0
11
-7.736687
21
0.238734
31
0
39
0
210
0
220
0
230
1
0
LINE
5
8D
100
AcDbEntity
8
1
62
256
6
ByLayer
370
13
48
1
60
0
100
AcDbLine
10
-9.263329
20
-0.346266
30
0
11
-9.458784
21
-0.346266
31
0
39
0
210
0
220
0
230
1
0
LINE
5
8E
100
AcDbEntity
8
1
62
256
6
ByLayer
370
13
48
1
60
0
100
AcDbLine
10
9.458784
20
-0.346266
30
0
11
9.263329
21
-0.346266
31
0
39
0
210
0
220
0
230
1
0
LINE
5
8F
100
AcDbEntity
8
1
62
256
6
ByLayer
370
13
48
1
60
0
100
AcDbLine
10
8.978056
20
0.238734
30
0
11
8.122184
21
0.238734
31
0
39
0
210
0
220
0
230
1
0
LINE
5
90
100
AcDbEntity
8
1
62
256
6
ByLayer
370
18
48
1
60
0
100
AcDbLine
10
9.906586
20
0.298734
30
0
11
9.104865
21
0.298734
31
0
39
0
210
0
220
0
230
1
0
LINE
5
91
100
AcDbEntity
8
1
62
256
6
ByLayer
370
18
48
1
60
0
100
AcDbLine
10
-9.104865
20
0.298734
30
0
11
-9.906586
21
0.298734
31
0
39
0
210
0
220
0
230
1
0
LINE
5
92
100
AcDbEntity
8
1
62
256
6
ByLayer
370
13
48
1
60
0
100
AcDbLine
10
-8.122184
20
0.238734
30
0
11
-8.978056
21
0.238734
31
0
39
0
210
0
220
0
230
1
0
LINE
5
93
100
AcDbEntity
8
1
62
256
6
ByLayer
370
13
48
1
60
0
100
AcDbLine
10
17.562287
20
-8.75
30
0
11
17.562287
21
-7.25
31
0
39
0
210
0
220
0
230
1
0
LINE
5
94
100
AcDbEntity
8
1
62
256
6
ByLayer
370
13
48
1
60
0
100
AcDbLine
10
-10.23919
20
-0.346266
30
0
11
-10.389279
21
-0.346266
31
0
39
0
210
0
220
0
230
1
0
LINE
5
95
100
AcDbEntity
8
1
62
256
6
ByLayer
370
13
48
1
60
0
100
AcDbLine
10
10.389279
20
-0.346266
30
0
11
10.23919
21
-0.346266
31
0
39
0
210
0
220
0
230
1
0
LINE
5
96
100
AcDbEntity
8
1
62
256
6
ByLayer
370
18
48
1
60
0
100
AcDbLine
10
10.600934
20
0.298734
30
0
11
9.995436
21
0.298734
31
0
39
0
210
0
220
0
230
1
0
LINE
5
97
100
AcDbEntity
8
1
62
256
6
ByLayer
370
18
48
1
60
0
100
AcDbLine
10
-9.995436
20
0.298734
30
0
11
-10.600934
21
0.298734
31
0
39
0
210
0
220
0
230
1
0
LINE
5
98
100
AcDbEntity
8
1
62
256
6
ByLayer
370
13
48
1
60
0
100
AcDbLine
10
-9.265268
20
0.238734
30
0
11
-9.911088
21
0.238734
31
0
39
0
210
0
220
0
230
1
0
LINE
5
99
100
AcDbEntity
8
1
62
256
6
ByLayer
370
13
48
1
60
0
100
AcDbLine
10
9.911088
20
0.238734
30
0
11
9.265268
21
0.238734
31
0
39
0
210
0
220
0
230
1
0
LINE
5
9A
100
AcDbEntity
8
1
62
256
6
ByLayer
370
13
48
1
60
0
100
AcDbLine
10
-10.988507
20
-0.346266
30
0
11
-11.103183
21
-0.346266
31
0
39
0
210
0
220
0
230
1
0
LINE
5
9B
100
AcDbEntity
8
1
62
256
6
ByLayer
370
13
48
1
60
0
100
AcDbLine
10
11.103183
20
-0.346266
30
0
11
10.988507
21
-0.346266
31
0
39
0
210
0
220
0
230
1
0
LINE
5
9C
100
AcDbEntity
8
1
62
256
6
ByLayer
370
18
48
1
60
0
100
AcDbLine
10
11.112793
20
0.298734
30
0
11
10.66744
21
0.298734
31
0
39
0
210
0
220
0
230
1
0
LINE
5
9D
100
AcDbEntity
8
1
62
256
6
ByLayer
370
13
48
1
60
0
100
AcDbLine
10
-10.128963
20
0.238734
30
0
11
-10.617383
21
0.238734
31
0
39
0
210
0
220
0
230
1
0
LINE
5
9E
100
AcDbEntity
8
1
62
256
6
ByLayer
370
13
48
1
60
0
100
AcDbLine
10
10.617383
20
0.238734
30
0
11
10.128963
21
0.238734
31
0
39
0
210
0
220
0
230
1
0
LINE
5
9F
100
AcDbEntity
8
1
62
256
6
ByLayer
370
18
48
1
60
0
100
AcDbLine
10
11.466627
20
0.298734
30
0
11
11.160383
21
0.298734
31
0
39
0
210
0
220
0
230
1
0
LINE
5
A0
100
AcDbEntity
8
1
62
256
6
ByLayer
370
13
48
1
60
0
100
AcDbLine
10
11.640413
20
-0.346266
30
0
11
11.555423
21
-0.346266
31
0
39
0
210
0
220
0
230
1
0
LINE
5
A1
100
AcDbEntity
8
1
62
256
6
ByLayer
370
13
48
1
60
0
100
AcDbLine
10
11.140152
20
0.238734
30
0
11
10.780592
21
0.238734
31
0
39
0
210
0
220
0
230
1
0
LINE
5
A2
100
AcDbEntity
8
1
62
256
6
ByLayer
370
18
48
1
60
0
100
AcDbLine
10
11.67681
20
0.298734
30
0
11
11.497409
21
0.298734
31
0
39
0
210
0
220
0
230
1
0
LINE
5
A3
100
AcDbEntity
8
1
62
256
6
ByLayer
370
13
48
1
60
0
100
AcDbLine
10
27.690738
20
-8.75
30
0
11
27.690738
21
-7.25
31
0
39
0
210
0
220
0
230
1
0
LINE
5
A4
100
AcDbEntity
8
1
62
256
6
ByLayer
370
13
48
1
60
0
100
AcDbLine
10
22.690738
20
-7.25
30
0
11
22.690738
21
-8.75
31
0
39
0
210
0
220
0
230
1
0
LINE
5
A5
100
AcDbEntity
8
1
62
256
6
ByLayer
370
18
48
1
60
0
100
AcDbLine
10
11.751053
20
0.298734
30
0
11
11.691908
21
0.298734
31
0
39
0
210
0
220
0
230
1
0
LINE
5
A6
100
AcDbEntity
8
1
62
256
6
ByLayer
370
13
48
1
60
0
100
AcDbLine
10
12.024673
20
-0.346266
30
0
11
11.965916
21
-0.346266
31
0
39
0
210
0
220
0
230
1
0
LINE
5
A7
100
AcDbEntity
8
1
62
256
6
ByLayer
370
13
48
1
60
0
100
AcDbLine
10
11.504441
20
0.238734
30
0
11
11.257111
21
0.238734
31
0
39
0
210
0
220
0
230
1
0
LINE
5
A8
100
AcDbEntity
8
1
62
256
6
ByLayer
370
13
48
1
60
0
100
AcDbLine
10
12.270342
20
-0.346266
30
0
11
12.23575
21
-0.346266
31
0
39
0
210
0
220
0
230
1
0
LINE
5
A9
100
AcDbEntity
8
1
62
256
6
ByLayer
370
13
48
1
60
0
100
AcDbLine
10
11.72503
20
0.238734
30
0
11
11.580041
21
0.238734
31
0
39
0
210
0
220
0
230
1
0
LINE
5
AA
100
AcDbEntity
8
1
62
256
6
ByLayer
370
13
48
1
60
0
100
AcDbLine
10
12.385671
20
-0.346266
30
0
11
12.374166
21
-0.346266
31
0
39
0
210
0
220
0
230
1
0
LINE
5
AB
100
AcDbEntity
8
1
62
256
6
ByLayer
370
13
48
1
60
0
100
AcDbLine
10
11.809974
20
0.238734
30
0
11
11.762158
21
0.238734
31
0
39
0
210
0
220
0
230
1
0
LINE
5
AC
100
AcDbEntity
8
1
62
256
6
ByLayer
370
13
48
1
60
0
100
AcDbLine
10
12.5
20
-5.65
30
0
11
12.8
21
-5.65
31
0
39
0
210
0
220
0
230
1
0
LINE
5
AD
100
AcDbEntity
8
1
62
256
6
ByLayer
370
13
48
1
60
0
100
AcDbLine
10
33.109679
20
-8.8
30
0
11
33.109679
21
-8.676062
31
0
39
0
210
0
220
0
230
1
0
LINE
5
AE
100
AcDbEntity
8
1
62
256
6
ByLayer
370
13
48
1
60
0
100
AcDbLine
10
33.468752
20
-8.695388
30
0
11
33.552761
21
-8.699524
31
0
39
0
210
0
220
0
230
1
0
LINE
5
AF
100
AcDbEntity
8
1
62
256
6
ByLayer
370
13
48
1
60
0
100
AcDbLine
10
33.565017
20
-8.874801
30
0
11
33.552761
21
-8.699524
31
0
39
0
210
0
220
0
230
1
0
LINE
5
B0
100
AcDbEntity
8
1
62
256
6
ByLayer
370
13
48
1
60
0
100
AcDbLine
10
33.565017
20
-7.125199
30
0
11
33.552761
21
-7.300476
31
0
39
0
210
0
220
0
230
1
0
LINE
5
B1
100
AcDbEntity
8
1
62
256
6
ByLayer
370
13
48
1
60
0
100
AcDbLine
10
33.552761
20
-7.300476
30
0
11
33.468752
21
-7.304612
31
0
39
0
210
0
220
0
230
1
0
LINE
5
B2
100
AcDbEntity
8
1
62
256
6
ByLayer
370
13
48
1
60
0
100
AcDbLine
10
33.109679
20
-7.323938
30
0
11
33.109679
21
-7.2
31
0
39
0
210
0
220
0
230
1
0
LINE
5
B3
100
AcDbEntity
8
1
62
256
6
ByLayer
370
13
48
1
60
0
100
AcDbLine
10
33.482448
20
-7.582767
30
0
11
33.468752
21
-7.304612
31
0
39
0
210
0
220
0
230
1
0
LINE
5
B4
100
AcDbEntity
8
1
62
256
6
ByLayer
370
13
48
1
60
0
100
AcDbLine
10
33.468752
20
-8.695388
30
0
11
33.482448
21
-8.417233
31
0
39
0
210
0
220
0
230
1
0
LINE
5
B5
100
AcDbEntity
8
1
62
256
6
ByLayer
370
13
48
1
60
0
100
AcDbLine
10
33.577886
20
-7.582767
30
0
11
33.482448
21
-7.582767
31
0
39
0
210
0
220
0
230
1
0
LINE
5
B6
100
AcDbEntity
8
1
62
256
6
ByLayer
370
13
48
1
60
0
100
AcDbLine
10
33.577886
20
-8.417233
30
0
11
33.482448
21
-8.417233
31
0
39
0
210
0
220
0
230
1
0
LINE
5
B7
100
AcDbEntity
8
1
62
256
6
ByLayer
370
13
48
1
60
0
100
AcDbLine
10
33.87312
20
-8.63848
30
0
11
33.87312
21
-8.882445
31
0
39
0
210
0
220
0
230
1
0
LINE
5
B8
100
AcDbEntity
8
1
62
256
6
ByLayer
370
13
48
1
60
0
100
AcDbLine
10
34.933781
20
-8.864039
30
0
11
34.933781
21
-8.92056
31
0
39
0
210
0
220
0
230
1
0
LINE
5
B9
100
AcDbEntity
8
1
62
256
6
ByLayer
370
13
48
1
60
0
100
AcDbLine
10
34.933781
20
-7.135961
30
0
11
34.933781
21
-7.07944
31
0
39
0
210
0
220
0
230
1
0
LINE
5
BA
100
AcDbEntity
8
1
62
256
6
ByLayer
370
13
48
1
60
0
100
AcDbLine
10
33.87312
20
-7.36152
30
0
11
33.87312
21
-7.117555
31
0
39
0
210
0
220
0
230
1
0
LINE
5
BB
100
AcDbEntity
8
1
62
256
6
ByLayer
370
13
48
1
60
0
100
AcDbLine
10
33.764634
20
-7.315291
30
0
11
33.778462
21
-7.117544
31
0
39
0
210
0
220
0
230
1
0
LINE
5
BC
100
AcDbEntity
8
1
62
256
6
ByLayer
370
13
48
1
60
0
100
AcDbLine
10
33.764634
20
-7.315291
30
0
11
33.552761
21
-7.300476
31
0
39
0
210
0
220
0
230
1
0
LINE
5
BD
100
AcDbEntity
8
1
62
256
6
ByLayer
370
13
48
1
60
0
100
AcDbLine
10
33.552761
20
-8.699524
30
0
11
33.764634
21
-8.684709
31
0
39
0
210
0
220
0
230
1
0
LINE
5
BE
100
AcDbEntity
8
1
62
256
6
ByLayer
370
13
48
1
60
0
100
AcDbLine
10
33.764634
20
-8.684709
30
0
11
33.778462
21
-8.882456
31
0
39
0
210
0
220
0
230
1
0
LINE
5
BF
100
AcDbEntity
8
1
62
256
6
ByLayer
370
13
48
1
60
0
100
AcDbLine
10
33.552761
20
-8.699524
30
0
11
33.566456
21
-8.421369
31
0
39
0
210
0
220
0
230
1
0
LINE
5
C0
100
AcDbEntity
8
1
62
256
6
ByLayer
370
13
48
1
60
0
100
AcDbLine
10
33.566456
20
-7.578631
30
0
11
33.552761
21
-7.300476
31
0
39
0
210
0
220
0
230
1
0
LINE
5
C1
100
AcDbEntity
8
1
62
256
6
ByLayer
370
13
48
1
60
0
100
AcDbLine
10
33.109679
20
-7.323938
30
0
11
33.058376
21
-7.323938
31
0
39
0
210
0
220
0
230
1
0
LINE
5
C2
100
AcDbEntity
8
1
62
256
6
ByLayer
370
13
48
1
60
0
100
AcDbLine
10
33.109679
20
-8.676062
30
0
11
33.058376
21
-8.676062
31
0
39
0
210
0
220
0
230
1
0
LINE
5
C3
100
AcDbEntity
8
1
62
256
6
ByLayer
370
13
48
1
60
0
100
AcDbLine
10
33.566456
20
-8.421369
30
0
11
33.482448
21
-8.417233
31
0
39
0
210
0
220
0
230
1
0
LINE
5
C4
100
AcDbEntity
8
1
62
256
6
ByLayer
370
13
48
1
60
0
100
AcDbLine
10
33.482448
20
-7.582767
30
0
11
33.566456
21
-7.578631
31
0
39
0
210
0
220
0
230
1
0
LINE
5
C5
100
AcDbEntity
8
1
62
256
6
ByLayer
370
13
48
1
60
0
100
AcDbLine
10
33.058376
20
-8.676062
30
0
11
33.058376
21
-8.8
31
0
39
0
210
0
220
0
230
1
0
LINE
5
C6
100
AcDbEntity
8
1
62
256
6
ByLayer
370
13
48
1
60
0
100
AcDbLine
10
33.058376
20
-7.2
30
0
11
33.058376
21
-7.323938
31
0
39
0
210
0
220
0
230
1
0
LINE
5
C7
100
AcDbEntity
8
1
62
256
6
ByLayer
370
13
48
1
60
0
100
AcDbLine
10
32.187198
20
-8.8
30
0
11
32.187198
21
-8.725438
31
0
39
0
210
0
220
0
230
1
0
LINE
5
C8
100
AcDbEntity
8
1
62
256
6
ByLayer
370
13
48
1
60
0
100
AcDbLine
10
32.187198
20
-7.274562
30
0
11
32.187198
21
-7.2
31
0
39
0
210
0
220
0
230
1
0
LINE
5
C9
100
AcDbEntity
8
1
62
256
6
ByLayer
370
13
48
1
60
0
100
AcDbLine
10
33.764634
20
-8.684709
30
0
11
33.776063
21
-8.680572
31
0
39
0
210
0
220
0
230
1
0
LINE
5
CA
100
AcDbEntity
8
1
62
256
6
ByLayer
370
13
48
1
60
0
100
AcDbLine
10
33.776063
20
-7.319428
30
0
11
33.764634
21
-7.315291
31
0
39
0
210
0
220
0
230
1
0
LINE
5
CB
100
AcDbEntity
8
1
62
256
6
ByLayer
370
13
48
1
60
0
100
AcDbLine
10
33.577886
20
-8.417233
30
0
11
33.566456
21
-8.421369
31
0
39
0
210
0
220
0
230
1
0
LINE
5
CC
100
AcDbEntity
8
1
62
256
6
ByLayer
370
13
48
1
60
0
100
AcDbLine
10
33.566456
20
-7.578631
30
0
11
33.577886
21
-7.582767
31
0
39
0
210
0
220
0
230
1
0
LINE
5
CD
100
AcDbEntity
8
1
62
256
6
ByLayer
370
13
48
1
60
0
100
AcDbLine
10
34.628922
20
-7.706548
30
0
11
34.628922
21
-8
31
0
39
0
210
0
220
0
230
1
0
LINE
5
CE
100
AcDbEntity
8
1
62
256
6
ByLayer
370
13
48
1
60
0
100
AcDbLine
10
34.628922
20
-8.293452
30
0
11
34.628922
21
-8
31
0
39
0
210
0
220
0
230
1
0
LINE
5
CF
100
AcDbEntity
8
1
62
256
6
ByLayer
370
13
48
1
60
0
100
AcDbLine
10
32.187198
20
-8.725438
30
0
11
32.111215
21
-8.725438
31
0
39
0
210
0
220
0
230
1
0
LINE
5
D0
100
AcDbEntity
8
1
62
256
6
ByLayer
370
13
48
1
60
0
100
AcDbLine
10
32.111215
20
-8.725438
30
0
11
32.111215
21
-8.8
31
0
39
0
210
0
220
0
230
1
0
LINE
5
D1
100
AcDbEntity
8
1
62
256
6
ByLayer
370
13
48
1
60
0
100
AcDbLine
10
32.187198
20
-7.274562
30
0
11
32.111215
21
-7.274562
31
0
39
0
210
0
220
0
230
1
0
LINE
5
D2
100
AcDbEntity
8
1
62
256
6
ByLayer
370
13
48
1
60
0
100
AcDbLine
10
32.111215
20
-7.2
30
0
11
32.111215
21
-7.274562
31
0
39
0
210
0
220
0
230
1
0
LINE
5
D3
100
AcDbEntity
8
1
62
256
6
ByLayer
370
13
48
1
60
0
100
AcDbLine
10
32.118332
20
-8.675984
30
0
11
31.832668
21
-8.675984
31
0
39
0
210
0
220
0
230
1
0
LINE
5
D4
100
AcDbEntity
8
1
62
256
6
ByLayer
370
13
48
1
60
0
100
AcDbLine
10
31.832668
20
-8.675984
30
0
11
31.869454
21
-8.367998
31
0
39
0
210
0
220
0
230
1
0
LINE
5
D5
100
AcDbEntity
8
1
62
256
6
ByLayer
370
13
48
1
60
0
100
AcDbLine
10
31.869454
20
-8.367998
30
0
11
32.250614
21
-8.367998
31
0
39
0
210
0
220
0
230
1
0
LINE
5
D6
100
AcDbEntity
8
1
62
256
6
ByLayer
370
13
48
1
60
0
100
AcDbLine
10
31.869454
20
-7.632002
30
0
11
32.250614
21
-7.632002
31
0
39
0
210
0
220
0
230
1
0
LINE
5
D7
100
AcDbEntity
8
1
62
256
6
ByLayer
370
13
48
1
60
0
100
AcDbLine
10
31.832668
20
-7.324016
30
0
11
31.869454
21
-7.632002
31
0
39
0
210
0
220
0
230
1
0
LINE
5
D8
100
AcDbEntity
8
1
62
256
6
ByLayer
370
13
48
1
60
0
100
AcDbLine
10
32.118332
20
-7.324016
30
0
11
31.832668
21
-7.324016
31
0
39
0
210
0
220
0
230
1
0
LINE
5
D9
100
AcDbEntity
8
1
62
256
6
ByLayer
370
13
48
1
60
0
100
AcDbLine
10
31.906367
20
-7.748976
30
0
11
32.348791
21
-7.748976
31
0
39
0
210
0
220
0
230
1
0
LINE
5
DA
100
AcDbEntity
8
1
62
256
6
ByLayer
370
13
48
1
60
0
100
AcDbLine
10
31.906367
20
-8.251024
30
0
11
32.348791
21
-8.251024
31
0
39
0
210
0
220
0
230
1
0
LINE
5
DB
100
AcDbEntity
8
1
62
256
6
ByLayer
370
13
48
1
60
0
100
AcDbLine
10
31.949075
20
-8.200756
30
0
11
32.473158
21
-8.200756
31
0
39
0
210
0
220
0
230
1
0
LINE
5
DC
100
AcDbEntity
8
1
62
256
6
ByLayer
370
13
48
1
60
0
100
AcDbLine
10
31.949075
20
-7.799244
30
0
11
32.473158
21
-7.799244
31
0
39
0
210
0
220
0
230
1
0
LINE
5
DD
100
AcDbEntity
8
1
62
256
6
ByLayer
370
13
48
1
60
0
100
AcDbLine
10
31.8298
20
-8.725438
30
0
11
32.111215
21
-8.725438
31
0
39
0
210
0
220
0
230
1
0
LINE
5
DE
100
AcDbEntity
8
1
62
256
6
ByLayer
370
13
48
1
60
0
100
AcDbLine
10
31.8298
20
-7.274562
30
0
11
32.111215
21
-7.274562
31
0
39
0
210
0
220
0
230
1
0
LINE
5
DF
100
AcDbEntity
8
1
62
256
6
ByLayer
370
13
48
1
60
0
100
AcDbLine
10
31.8298
20
-8.8
30
0
11
31.8298
21
-8.725438
31
0
39
0
210
0
220
0
230
1
0
LINE
5
E0
100
AcDbEntity
8
1
62
256
6
ByLayer
370
13
48
1
60
0
100
AcDbLine
10
31.8298
20
-7.2
30
0
11
31.8298
21
-7.274562
31
0
39
0
210
0
220
0
230
1
0
LINE
5
E1
100
AcDbEntity
8
1
62
256
6
ByLayer
370
13
48
1
60
0
100
AcDbLine
10
36.400117
20
-7.468879
30
0
11
36.325664
21
-7.468879
31
0
39
0
210
0
220
0
230
1
0
LINE
5
E2
100
AcDbEntity
8
1
62
256
6
ByLayer
370
13
48
1
60
0
100
AcDbLine
10
36.010516
20
-7.206546
30
0
11
36.010516
21
-7.007425
31
0
39
0
210
0
220
0
230
1
0
LINE
5
E3
100
AcDbEntity
8
1
62
256
6
ByLayer
370
13
48
1
60
0
100
AcDbLine
10
36.010516
20
-8.793454
30
0
11
36.010516
21
-8.992575
31
0
39
0
210
0
220
0
230
1
0
LINE
5
E4
100
AcDbEntity
8
1
62
256
6
ByLayer
370
13
48
1
60
0
100
AcDbLine
10
36.400117
20
-8.531121
30
0
11
36.325664
21
-8.531121
31
0
39
0
210
0
220
0
230
1
0
LINE
5
E5
100
AcDbEntity
8
1
62
256
6
ByLayer
370
13
48
1
60
0
100
AcDbLine
10
31.952289
20
-8.197335
30
0
11
32.481712
21
-8.197335
31
0
39
0
210
0
220
0
230
1
0
LINE
5
E6
100
AcDbEntity
8
1
62
256
6
ByLayer
370
13
48
1
60
0
100
AcDbLine
10
31.952289
20
-7.802665
30
0
11
32.481712
21
-7.802665
31
0
39
0
210
0
220
0
230
1
0
LINE
5
E7
100
AcDbEntity
8
1
62
256
6
ByLayer
370
13
48
1
60
0
100
AcDbLine
10
35.93976
20
-7.011885
30
0
11
35.93976
21
-7.156147
31
0
39
0
210
0
220
0
230
1
0
LINE
5
E8
100
AcDbEntity
8
1
62
256
6
ByLayer
370
13
48
1
60
0
100
AcDbLine
10
35.581077
20
-7.125184
30
0
11
35.581077
21
-7.03781
31
0
39
0
210
0
220
0
230
1
0
LINE
5
E9
100
AcDbEntity
8
1
62
256
6
ByLayer
370
13
48
1
60
0
100
AcDbLine
10
35.581077
20
-8.874816
30
0
11
35.581077
21
-8.96219
31
0
39
0
210
0
220
0
230
1
0
LINE
5
EA
100
AcDbEntity
8
1
62
256
6
ByLayer
370
13
48
1
60
0
100
AcDbLine
10
35.93976
20
-8.988115
30
0
11
35.93976
21
-8.843853
31
0
39
0
210
0
220
0
230
1
0
LINE
5
EB
100
AcDbEntity
8
1
62
256
6
ByLayer
370
13
48
1
60
0
100
AcDbLine
10
31.949075
20
-8.200756
30
0
11
31.952289
21
-8.197335
31
0
39
0
210
0
220
0
230
1
0
LINE
5
EC
100
AcDbEntity
8
1
62
256
6
ByLayer
370
13
48
1
60
0
100
AcDbLine
10
31.949075
20
-7.799244
30
0
11
31.952289
21
-7.802665
31
0
39
0
210
0
220
0
230
1
0
LINE
5
ED
100
AcDbEntity
8
1
62
256
6
ByLayer
370
13
48
1
60
0
100
AcDbLine
10
35.233781
20
-8.866762
30
0
11
35.233781
21
-8.938988
31
0
39
0
210
0
220
0
230
1
0
LINE
5
EE
100
AcDbEntity
8
1
62
256
6
ByLayer
370
13
48
1
60
0
100
AcDbLine
10
35.233781
20
-7.133238
30
0
11
35.233781
21
-7.061012
31
0
39
0
210
0
220
0
230
1
0
LINE
5
EF
100
AcDbEntity
8
1
62
256
6
ByLayer
370
13
48
1
60
0
100
AcDbLine
10
35.405243
20
-8.650666
30
0
11
35.393977
21
-8.353333
31
0
39
0
210
0
220
0
230
1
0
LINE
5
F0
100
AcDbEntity
8
1
62
256
6
ByLayer
370
13
48
1
60
0
100
AcDbLine
10
35.405243
20
-7.349334
30
0
11
35.393977
21
-7.646667
31
0
39
0
210
0
220
0
230
1
0
LINE
5
F1
100
AcDbEntity
8
1
62
256
6
ByLayer
370
13
48
1
60
0
100
AcDbLine
10
36.344165
20
-7.65526
30
0
11
36.397026
21
-7.65526
31
0
39
0
210
0
220
0
230
1
0
LINE
5
F2
100
AcDbEntity
8
1
62
256
6
ByLayer
370
13
48
1
60
0
100
AcDbLine
10
36.344165
20
-8.34474
30
0
11
36.397026
21
-8.34474
31
0
39
0
210
0
220
0
230
1
0
LINE
5
F3
100
AcDbEntity
8
1
62
256
6
ByLayer
370
13
48
1
60
0
100
AcDbLine
10
34.893977
20
-8.349697
30
0
11
34.83288
21
-8.655215
31
0
39
0
210
0
220
0
230
1
0
LINE
5
F4
100
AcDbEntity
8
1
62
256
6
ByLayer
370
13
48
1
60
0
100
AcDbLine
10
34.893977
20
-7.650303
30
0
11
34.83288
21
-7.344785
31
0
39
0
210
0
220
0
230
1
0
LINE
5
F5
100
AcDbEntity
8
1
62
256
6
ByLayer
370
13
48
1
60
0
100
AcDbLine
10
36.348038
20
-8.503425
30
0
11
36.4
21
-8.503425
31
0
39
0
210
0
220
0
230
1
0
LINE
5
F6
100
AcDbEntity
8
1
62
256
6
ByLayer
370
13
48
1
60
0
100
AcDbLine
10
36.397026
20
-8.34474
30
0
11
36.397026
21
-7.65526
31
0
39
0
210
0
220
0
230
1
0
LINE
5
F7
100
AcDbEntity
8
1
62
256
6
ByLayer
370
13
48
1
60
0
100
AcDbLine
10
36.348038
20
-7.496575
30
0
11
36.4
21
-7.496575
31
0
39
0
210
0
220
0
230
1
0
LINE
5
F8
100
AcDbEntity
8
1
62
256
6
ByLayer
370
13
48
1
60
0
100
AcDbLine
10
36.344165
20
-7.65526
30
0
11
36.344165
21
-8.34474
31
0
39
0
210
0
220
0
230
1
0
LINE
5
F9
100
AcDbEntity
8
1
62
256
6
ByLayer
370
13
48
1
60
0
100
AcDbLine
10
36.004082
20
-7.647871
30
0
11
36.004082
21
-8.352129
31
0
39
0
210
0
220
0
230
1
0
LINE
5
FA
100
AcDbEntity
8
1
62
256
6
ByLayer
370
13
48
1
60
0
100
AcDbLine
10
35.393977
20
-7.646667
30
0
11
35.393977
21
-8.353333
31
0
39
0
210
0
220
0
230
1
0
LINE
5
FB
100
AcDbEntity
8
1
62
256
6
ByLayer
370
13
48
1
60
0
100
AcDbLine
10
31.815562
20
-7.274562
30
0
11
31.8298
21
-7.274562
31
0
39
0
210
0
220
0
230
1
0
LINE
5
FC
100
AcDbEntity
8
1
62
256
6
ByLayer
370
13
48
1
60
0
100
AcDbLine
10
31.832668
20
-7.324016
30
0
11
31.81556
21
-7.324016
31
0
39
0
210
0
220
0
230
1
0
LINE
5
FD
100
AcDbEntity
8
1
62
256
6
ByLayer
370
13
48
1
60
0
100
AcDbLine
10
31.815562
20
-8.725438
30
0
11
31.8298
21
-8.725438
31
0
39
0
210
0
220
0
230
1
0
LINE
5
FE
100
AcDbEntity
8
1
62
256
6
ByLayer
370
13
48
1
60
0
100
AcDbLine
10
31.832668
20
-8.675984
30
0
11
31.81556
21
-8.675984
31
0
39
0
210
0
220
0
230
1
0
LINE
5
FF
100
AcDbEntity
8
1
62
256
6
ByLayer
370
13
48
1
60
0
100
AcDbLine
10
28.132227
20
-8.75
30
0
11
28.132227
21
-8.8
31
0
39
0
210
0
220
0
230
1
0
LINE
5
100
100
AcDbEntity
8
1
62
256
6
ByLayer
370
13
48
1
60
0
100
AcDbLine
10
28.132227
20
-7.25
30
0
11
28.132227
21
-7.2
31
0
39
0
210
0
220
0
230
1
0
LINE
5
101
100
AcDbEntity
8
1
62
256
6
ByLayer
370
13
48
1
60
0
100
AcDbLine
10
31.815577
20
-7.632002
30
0
11
31.869454
21
-7.632002
31
0
39
0
210
0
220
0
230
1
0
LINE
5
102
100
AcDbEntity
8
1
62
256
6
ByLayer
370
13
48
1
60
0
100
AcDbLine
10
31.815577
20
-8.367998
30
0
11
31.869454
21
-8.367998
31
0
39
0
210
0
220
0
230
1
0
LINE
5
103
100
AcDbEntity
8
1
62
256
6
ByLayer
370
13
48
1
60
0
100
AcDbLine
10
34.893977
20
-8.349697
30
0
11
34.893977
21
-8
31
0
39
0
210
0
220
0
230
1
0
LINE
5
104
100
AcDbEntity
8
1
62
256
6
ByLayer
370
13
48
1
60
0
100
AcDbLine
10
34.893977
20
-7.650303
30
0
11
34.893977
21
-8
31
0
39
0
210
0
220
0
230
1
0
LINE
5
105
100
AcDbEntity
8
1
62
256
6
ByLayer
370
13
48
1
60
0
100
AcDbLine
10
31.810128
20
-7.748976
30
0
11
31.906367
21
-7.748976
31
0
39
0
210
0
220
0
230
1
0
LINE
5
106
100
AcDbEntity
8
1
62
256
6
ByLayer
370
13
48
1
60
0
100
AcDbLine
10
31.810128
20
-8.251024
30
0
11
31.906367
21
-8.251024
31
0
39
0
210
0
220
0
230
1
0
LINE
5
107
100
AcDbEntity
8
1
62
256
6
ByLayer
370
13
48
1
60
0
100
AcDbLine
10
31.807093
20
-8.200756
30
0
11
31.949075
21
-8.200756
31
0
39
0
210
0
220
0
230
1
0
LINE
5
108
100
AcDbEntity
8
1
62
256
6
ByLayer
370
13
48
1
60
0
100
AcDbLine
10
31.807093
20
-7.799244
30
0
11
31.949075
21
-7.799244
31
0
39
0
210
0
220
0
230
1
0
LINE
5
109
100
AcDbEntity
8
1
62
256
6
ByLayer
370
13
48
1
60
0
100
AcDbLine
10
31.80692
20
-8.197335
30
0
11
31.952289
21
-8.197335
31
0
39
0
210
0
220
0
230
1
0
LINE
5
10A
100
AcDbEntity
8
1
62
256
6
ByLayer
370
13
48
1
60
0
100
AcDbLine
10
27.065685
20
-8.749992
30
0
11
27.065685
21
-8.8
31
0
39
0
210
0
220
0
230
1
0
LINE
5
10B
100
AcDbEntity
8
1
62
256
6
ByLayer
370
18
48
1
60
0
100
AcDbLine
10
12.8
20
-0.75
30
0
11
12.8
21
-5.65
31
0
39
0
210
0
220
0
230
1
0
LINE
5
10C
100
AcDbEntity
8
1
62
256
6
ByLayer
370
18
48
1
60
0
100
AcDbLine
10
22.690738
20
-7.25
30
0
11
17.562287
21
-7.25
31
0
39
0
210
0
220
0
230
1
0
LINE
5
10D
100
AcDbEntity
8
1
62
256
6
ByLayer
370
18
48
1
60
0
100
AcDbLine
10
22.690738
20
-8.75
30
0
11
17.562287
21
-8.75
31
0
39
0
210
0
220
0
230
1
0
LINE
5
10E
100
AcDbEntity
8
1
62
256
6
ByLayer
370
18
48
1
60
0
100
AcDbLine
10
27.690738
20
-8.75
30
0
11
22.690738
21
-8.75
31
0
39
0
210
0
220
0
230
1
0
LINE
5
10F
100
AcDbEntity
8
1
62
256
6
ByLayer
370
18
48
1
60
0
100
AcDbLine
10
31.815611
20
-7.25
30
0
11
27.690738
21
-7.25
31
0
39
0
210
0
220
0
230
1
0
LINE
5
110
100
AcDbEntity
8
1
62
256
6
ByLayer
370
18
48
1
60
0
100
AcDbLine
10
27.690738
20
-7.25
30
0
11
22.690738
21
-7.25
31
0
39
0
210
0
220
0
230
1
0
LINE
5
111
100
AcDbEntity
8
1
62
256
6
ByLayer
370
18
48
1
60
0
100
AcDbLine
10
31.815611
20
-8.75
30
0
11
27.690738
21
-8.75
31
0
39
0
210
0
220
0
230
1
0
LINE
5
112
100
AcDbEntity
8
1
62
256
6
ByLayer
370
18
48
1
60
0
100
AcDbLine
10
31.815611
20
-7.686942
30
0
11
31.815611
21
-7.25
31
0
39
0
210
0
220
0
230
1
0
LINE
5
113
100
AcDbEntity
8
1
62
256
6
ByLayer
370
18
48
1
60
0
100
AcDbLine
10
-8.093898
20
0.298734
30
0
11
-8.987552
21
0.298734
31
0
39
0
210
0
220
0
230
1
0
LINE
5
114
100
AcDbEntity
8
1
62
256
6
ByLayer
370
18
48
1
60
0
100
AcDbLine
10
3.151668
20
0.298734
30
0
11
-3.151668
21
0.298734
31
0
39
0
210
0
220
0
230
1
0
LINE
5
115
100
AcDbEntity
8
1
62
256
6
ByLayer
370
18
48
1
60
0
100
AcDbLine
10
6.285071
20
0.298734
30
0
11
6.055772
21
0.298734
31
0
39
0
210
0
220
0
230
1
0
LINE
5
116
100
AcDbEntity
8
1
62
256
6
ByLayer
370
18
48
1
60
0
100
AcDbLine
10
8.987552
20
0.298734
30
0
11
8.093898
21
0.298734
31
0
39
0
210
0
220
0
230
1
0
LINE
5
117
100
AcDbEntity
8
1
62
256
6
ByLayer
370
18
48
1
60
0
100
AcDbLine
10
-3.151668
20
0.298734
30
0
11
-3.621668
21
0.298734
31
0
39
0
210
0
220
0
230
1
0
LINE
5
118
100
AcDbEntity
8
1
62
256
6
ByLayer
370
18
48
1
60
0
100
AcDbLine
10
-8.987552
20
0.298734
30
0
11
-9.104856
21
0.298734
31
0
39
0
210
0
220
0
230
1
0
LINE
5
119
100
AcDbEntity
8
1
62
256
6
ByLayer
370
18
48
1
60
0
100
AcDbLine
10
-6.055772
20
0.298734
30
0
11
-6.285071
21
0.298734
31
0
39
0
210
0
220
0
230
1
0
LINE
5
11A
100
AcDbEntity
8
1
62
256
6
ByLayer
370
18
48
1
60
0
100
AcDbLine
10
-7.764453
20
0.298734
30
0
11
-7.922295
21
0.298734
31
0
39
0
210
0
220
0
230
1
0
LINE
5
11B
100
AcDbEntity
8
1
62
256
6
ByLayer
370
18
48
1
60
0
100
AcDbLine
10
3.621668
20
0.298734
30
0
11
3.151668
21
0.298734
31
0
39
0
210
0
220
0
230
1
0
LINE
5
11C
100
AcDbEntity
8
1
62
256
6
ByLayer
370
18
48
1
60
0
100
AcDbLine
10
7.922295
20
0.298734
30
0
11
7.764453
21
0.298734
31
0
39
0
210
0
220
0
230
1
0
LINE
5
11D
100
AcDbEntity
8
1
62
256
6
ByLayer
370
18
48
1
60
0
100
AcDbLine
10
9.104856
20
0.298734
30
0
11
8.987552
21
0.298734
31
0
39
0
210
0
220
0
230
1
0
LINE
5
11E
100
AcDbEntity
8
1
62
256
6
ByLayer
370
18
48
1
60
0
100
AcDbLine
10
11.691946
20
0.298734
30
0
11
11.67681
21
0.298734
31
0
39
0
210
0
220
0
230
1
0
LINE
5
11F
100
AcDbEntity
8
1
62
256
6
ByLayer
370
18
48
1
60
0
100
AcDbLine
10
-9.906586
20
0.298734
30
0
11
-9.995451
21
0.298734
31
0
39
0
210
0
220
0
230
1
0
LINE
5
120
100
AcDbEntity
8
1
62
256
6
ByLayer
370
18
48
1
60
0
100
AcDbLine
10
-10.600934
20
0.298734
30
0
11
-10.667459
21
0.298734
31
0
39
0
210
0
220
0
230
1
0
LINE
5
121
100
AcDbEntity
8
1
62
256
6
ByLayer
370
18
48
1
60
0
100
AcDbLine
10
10.667459
20
0.298734
30
0
11
10.600934
21
0.298734
31
0
39
0
210
0
220
0
230
1
0
LINE
5
122
100
AcDbEntity
8
1
62
256
6
ByLayer
370
18
48
1
60
0
100
AcDbLine
10
11.160436
20
0.298734
30
0
11
11.112793
21
0.298734
31
0
39
0
210
0
220
0
230
1
0
LINE
5
123
100
AcDbEntity
8
1
62
256
6
ByLayer
370
18
48
1
60
0
100
AcDbLine
10
11.497433
20
0.298734
30
0
11
11.466627
21
0.298734
31
0
39
0
210
0
220
0
230
1
0
LINE
5
124
100
AcDbEntity
8
1
62
256
6
ByLayer
370
18
48
1
60
0
100
AcDbLine
10
9.995451
20
0.298734
30
0
11
9.906586
21
0.298734
31
0
39
0
210
0
220
0
230
1
0
LINE
5
125
100
AcDbEntity
8
1
62
256
6
ByLayer
370
18
48
1
60
0
100
AcDbLine
10
12.8
20
-0.75
30
0
11
12.5
21
-0.75
31
0
39
0
210
0
220
0
230
1
0
LINE
5
126
100
AcDbEntity
8
1
62
256
6
ByLayer
370
18
48
1
60
0
100
AcDbLine
10
0.158079
20
-8.75
30
0
11
0.158079
21
-0.445
31
0
39
0
210
0
220
0
230
1
0
LINE
5
127
100
AcDbEntity
8
1
62
256
6
ByLayer
370
18
48
1
60
0
100
AcDbLine
10
-11.5
20
-8.75
30
0
11
-11.5
21
-0.5
31
0
39
0
210
0
220
0
230
1
0
LINE
5
128
100
AcDbEntity
8
1
62
256
6
ByLayer
370
18
48
1
60
0
100
AcDbLine
10
-0.158079
20
-8.75
30
0
11
-0.158079
21
-0.445
31
0
39
0
210
0
220
0
230
1
0
LINE
5
129
100
AcDbEntity
8
1
62
256
6
ByLayer
370
18
48
1
60
0
100
AcDbLine
10
-11.5
20
-0.5
30
0
11
-11.445
21
-0.445
31
0
39
0
210
0
220
0
230
1
0
LINE
5
12A
100
AcDbEntity
8
1
62
256
6
ByLayer
370
18
48
1
60
0
100
AcDbLine
10
9.821356
20
-0.75
30
0
11
12.5
21
-0.75
31
0
39
0
210
0
220
0
230
1
0
LINE
5
12B
100
AcDbEntity
8
1
62
256
6
ByLayer
370
18
48
1
60
0
100
AcDbLine
10
-0.158079
20
-8.75
30
0
11
0.158079
21
-8.75
31
0
39
0
210
0
220
0
230
1
0
LINE
5
12C
100
AcDbEntity
8
1
62
256
6
ByLayer
370
18
48
1
60
0
100
AcDbLine
10
-0.158079
20
-0.445
30
0
11
-11.445
21
-0.445
31
0
39
0
210
0
220
0
230
1
0
LINE
5
12D
100
AcDbEntity
8
1
62
256
6
ByLayer
370
18
48
1
60
0
100
AcDbLine
10
12.5
20
-0.75
30
0
11
12.5
21
-5.65
31
0
39
0
210
0
220
0
230
1
0
LINE
5
12E
100
AcDbEntity
8
1
62
256
6
ByLayer
370
18
48
1
60
0
100
AcDbLine
10
9.821356
20
-0.45
30
0
11
9.821356
21
-0.75
31
0
39
0
210
0
220
0
230
1
0
LINE
5
12F
100
AcDbEntity
8
1
62
256
6
ByLayer
370
18
48
1
60
0
100
AcDbLine
10
0.158079
20
-8.75
30
0
11
9.669124
21
-8.75
31
0
39
0
210
0
220
0
230
1
0
LINE
5
130
100
AcDbEntity
8
1
62
256
6
ByLayer
370
18
48
1
60
0
100
AcDbLine
10
-11.5
20
-8.75
30
0
11
-0.158079
21
-8.75
31
0
39
0
210
0
220
0
230
1
0
LINE
5
131
100
AcDbEntity
8
1
62
256
6
ByLayer
370
18
48
1
60
0
100
AcDbLine
10
9.669124
20
-8.75
30
0
11
17.562287
21
-8.75
31
0
39
0
210
0
220
0
230
1
0
LINE
5
132
100
AcDbEntity
8
1
62
256
6
ByLayer
370
18
48
1
60
0
100
AcDbLine
10
14.1
20
-7.25
30
0
11
17.562287
21
-7.25
31
0
39
0
210
0
220
0
230
1
0
LINE
5
133
100
AcDbEntity
8
1
62
256
6
ByLayer
370
18
48
1
60
0
100
AcDbLine
10
9.669124
20
-0.445
30
0
11
0.158079
21
-0.445
31
0
39
0
210
0
220
0
230
1
0
LINE
5
134
100
AcDbEntity
8
1
62
256
6
ByLayer
370
18
48
1
60
0
100
AcDbLine
10
31.815611
20
-8.75
30
0
11
31.815611
21
-8.313058
31
0
39
0
210
0
220
0
230
1
0
LINE
5
135
100
AcDbEntity
8
1
62
256
6
ByLayer
370
18
48
1
60
0
100
AcDbLine
10
33.348426
20
-7.159459
30
0
11
33.325177
21
-7.172882
31
0
39
0
210
0
220
0
230
1
0
LINE
5
136
100
AcDbEntity
8
1
62
256
6
ByLayer
370
18
48
1
60
0
100
AcDbLine
10
33.109679
20
-7.2
30
0
11
33.22387
21
-7.2
31
0
39
0
210
0
220
0
230
1
0
LINE
5
137
100
AcDbEntity
8
1
62
256
6
ByLayer
370
18
48
1
60
0
100
AcDbLine
10
27.726482
20
-8.8
30
0
11
27.896254
21
-8.8
31
0
39
0
210
0
220
0
230
1
0
LINE
5
138
100
AcDbEntity
8
1
62
256
6
ByLayer
370
18
48
1
60
0
100
AcDbLine
10
36.142758
20
-7.000301
30
0
11
36.010516
21
-7.007425
31
0
39
0
210
0
220
0
230
1
0
LINE
5
139
100
AcDbEntity
8
1
62
256
6
ByLayer
370
18
48
1
60
0
100
AcDbLine
10
33.109679
20
-7.2
30
0
11
33.058376
21
-7.2
31
0
39
0
210
0
220
0
230
1
0
LINE
5
13A
100
AcDbEntity
8
1
62
256
6
ByLayer
370
18
48
1
60
0
100
AcDbLine
10
34.933781
20
-8.92056
30
0
11
35.233781
21
-8.938988
31
0
39
0
210
0
220
0
230
1
0
LINE
5
13B
100
AcDbEntity
8
1
62
256
6
ByLayer
370
18
48
1
60
0
100
AcDbLine
10
36.400117
20
-7.468879
30
0
11
36.401941
21
-7.25324
31
0
39
0
210
0
220
0
230
1
0
LINE
5
13C
100
AcDbEntity
8
1
62
256
6
ByLayer
370
18
48
1
60
0
100
AcDbLine
10
26.65
20
-8.8
30
0
11
27.065685
21
-8.8
31
0
39
0
210
0
220
0
230
1
0
LINE
5
13D
100
AcDbEntity
8
1
62
256
6
ByLayer
370
18
48
1
60
0
100
AcDbLine
10
27.065685
20
-8.8
30
0
11
27.726482
21
-8.8
31
0
39
0
210
0
220
0
230
1
0
LINE
5
13E
100
AcDbEntity
8
1
62
256
6
ByLayer
370
18
48
1
60
0
100
AcDbLine
10
33.436053
20
-8.866914
30
0
11
33.565017
21
-8.874801
31
0
39
0
210
0
220
0
230
1
0
LINE
5
13F
100
AcDbEntity
8
1
62
256
6
ByLayer
370
18
48
1
60
0
100
AcDbLine
10
35.581077
20
-8.96219
30
0
11
35.93976
21
-8.988115
31
0
39
0
210
0
220
0
230
1
0
LINE
5
140
100
AcDbEntity
8
1
62
256
6
ByLayer
370
18
48
1
60
0
100
AcDbLine
10
32.111215
20
-7.2
30
0
11
31.8298
21
-7.2
31
0
39
0
210
0
220
0
230
1
0
LINE
5
141
100
AcDbEntity
8
1
62
256
6
ByLayer
370
18
48
1
60
0
100
AcDbLine
10
33.058376
20
-8.8
30
0
11
32.187198
21
-8.8
31
0
39
0
210
0
220
0
230
1
0
LINE
5
142
100
AcDbEntity
8
1
62
256
6
ByLayer
370
18
48
1
60
0
100
AcDbLine
10
35.93976
20
-7.011885
30
0
11
35.581077
21
-7.03781
31
0
39
0
210
0
220
0
230
1
0
LINE
5
143
100
AcDbEntity
8
1
62
256
6
ByLayer
370
18
48
1
60
0
100
AcDbLine
10
36.010516
20
-8.992575
30
0
11
36.142758
21
-8.999699
31
0
39
0
210
0
220
0
230
1
0
LINE
5
144
100
AcDbEntity
8
1
62
256
6
ByLayer
370
18
48
1
60
0
100
AcDbLine
10
31.8298
20
-8.8
30
0
11
32.111215
21
-8.8
31
0
39
0
210
0
220
0
230
1
0
LINE
5
145
100
AcDbEntity
8
1
62
256
6
ByLayer
370
18
48
1
60
0
100
AcDbLine
10
35.233781
20
-7.061012
30
0
11
34.933781
21
-7.07944
31
0
39
0
210
0
220
0
230
1
0
LINE
5
146
100
AcDbEntity
8
1
62
256
6
ByLayer
370
18
48
1
60
0
100
AcDbLine
10
32.187198
20
-7.2
30
0
11
32.111215
21
-7.2
31
0
39
0
210
0
220
0
230
1
0
LINE
5
147
100
AcDbEntity
8
1
62
256
6
ByLayer
370
18
48
1
60
0
100
AcDbLine
10
33.22387
20
-8.8
30
0
11
33.109679
21
-8.8
31
0
39
0
210
0
220
0
230
1
0
LINE
5
148
100
AcDbEntity
8
1
62
256
6
ByLayer
370
18
48
1
60
0
100
AcDbLine
10
27.726482
20
-7.2
30
0
11
27.065685
21
-7.2
31
0
39
0
210
0
220
0
230
1
0
LINE
5
149
100
AcDbEntity
8
1
62
256
6
ByLayer
370
18
48
1
60
0
100
AcDbLine
10
33.058376
20
-8.8
30
0
11
33.109679
21
-8.8
31
0
39
0
210
0
220
0
230
1
0
LINE
5
14A
100
AcDbEntity
8
1
62
256
6
ByLayer
370
18
48
1
60
0
100
AcDbLine
10
33.778462
20
-8.882456
30
0
11
33.87312
21
-8.882445
31
0
39
0
210
0
220
0
230
1
0
LINE
5
14B
100
AcDbEntity
8
1
62
256
6
ByLayer
370
18
48
1
60
0
100
AcDbLine
10
28.132227
20
-7.2
30
0
11
27.946632
21
-7.2
31
0
39
0
210
0
220
0
230
1
0
LINE
5
14C
100
AcDbEntity
8
1
62
256
6
ByLayer
370
18
48
1
60
0
100
AcDbLine
10
32.187198
20
-7.2
30
0
11
33.058376
21
-7.2
31
0
39
0
210
0
220
0
230
1
0
LINE
5
14D
100
AcDbEntity
8
1
62
256
6
ByLayer
370
18
48
1
60
0
100
AcDbLine
10
27.065685
20
-7.2
30
0
11
26.65
21
-7.2
31
0
39
0
210
0
220
0
230
1
0
LINE
5
14E
100
AcDbEntity
8
1
62
256
6
ByLayer
370
18
48
1
60
0
100
AcDbLine
10
33.325177
20
-8.827118
30
0
11
33.348426
21
-8.840541
31
0
39
0
210
0
220
0
230
1
0
LINE
5
14F
100
AcDbEntity
8
1
62
256
6
ByLayer
370
18
48
1
60
0
100
AcDbLine
10
33.87312
20
-7.117555
30
0
11
33.778462
21
-7.117544
31
0
39
0
210
0
220
0
230
1
0
LINE
5
150
100
AcDbEntity
8
1
62
256
6
ByLayer
370
18
48
1
60
0
100
AcDbLine
10
27.896254
20
-7.2
30
0
11
27.726482
21
-7.2
31
0
39
0
210
0
220
0
230
1
0
LINE
5
151
100
AcDbEntity
8
1
62
256
6
ByLayer
370
18
48
1
60
0
100
AcDbLine
10
36.401941
20
-8.74676
30
0
11
36.400117
21
-8.531121
31
0
39
0
210
0
220
0
230
1
0
LINE
5
152
100
AcDbEntity
8
1
62
256
6
ByLayer
370
18
48
1
60
0
100
AcDbLine
10
32.111215
20
-8.8
30
0
11
32.187198
21
-8.8
31
0
39
0
210
0
220
0
230
1
0
LINE
5
153
100
AcDbEntity
8
1
62
256
6
ByLayer
370
18
48
1
60
0
100
AcDbLine
10
31.8298
20
-7.2
30
0
11
28.132227
21
-7.2
31
0
39
0
210
0
220
0
230
1
0
LINE
5
154
100
AcDbEntity
8
1
62
256
6
ByLayer
370
18
48
1
60
0
100
AcDbLine
10
28.132227
20
-8.8
30
0
11
31.8298
21
-8.8
31
0
39
0
210
0
220
0
230
1
0
LINE
5
155
100
AcDbEntity
8
1
62
256
6
ByLayer
370
18
48
1
60
0
100
AcDbLine
10
33.565017
20
-7.125199
30
0
11
33.436053
21
-7.133086
31
0
39
0
210
0
220
0
230
1
0
LINE
5
156
100
AcDbEntity
8
1
62
256
6
ByLayer
370
18
48
1
60
0
100
AcDbLine
10
36.4
20
-8.503425
30
0
11
36.4
21
-7.496575
31
0
39
0
210
0
220
0
230
1
0
LINE
5
157
100
AcDbEntity
8
1
62
256
6
ByLayer
370
18
48
1
60
0
100
AcDbLine
10
27.946632
20
-8.8
30
0
11
28.132227
21
-8.8
31
0
39
0
210
0
220
0
230
1
0
MTEXT
5
294
100
AcDbEntity
8
SK6
62
256
6
ByLayer
370
18
48
1
60
0
100
AcDbMText
10
-19.175
20
-54.833262
30
0
210
0
220
0
230
1
1
\W0.7780;SL-QD-RGE22C25
40
3.5
41
0
44
1.084337
50
0
71
7
72
5
7
iso_b_vert
0
DIMENSION
5
2A6
100
AcDbEntity
8
SK2
62
256
6
ByLayer
370
13
48
1
60
0
100
AcDbDimension
2
DimnDraft3D1
10
36.4
20
23.683524
30
0
11
13.907895
21
23.683524
31
0
70
32
71
5
72
1
41
1
210
0
220
0
230
1
3
Standard
100
AcDbAlignedDimension
13
0
23
2
33
0
14
36.4
24
-7
34
0
50
0
100
AcDbRotatedDimension
1001
ACAD
1000
DSTYLE
1002
{
1070
   279
1070
     0
1070
   172
1070
     1
1070
   173
1070
     1
1070
   340
1005
295
1070
   271
1070
     1
1070
    77
1070
     1
1070
    73
1070
     0
1070
   171
1070
     3
1070
   274
1070
     4
1070
   177
1070
     2
1070
   176
1070
     2
1070
   178
1070
     7
1070
    78
1070
     8
1070
    41
1041
3.175
1070
   147
1041
1.75
1070
    42
1041
2.0
1070
    44
1041
2.0
1070
   140
1041
3.5
1070
   343
1005
2A7
1070
   344
1005
2A7
1002
}
0
DIMENSION
5
2BC
100
AcDbEntity
8
2
62
256
6
ByLayer
370
13
48
1
60
0
100
AcDbDimension
2
DimnDraft3D2
10
14.4
20
-22.100049
30
0
11
23.309211
21
-22.100049
31
0
70
32
71
5
72
1
41
1
210
0
220
0
230
1
3
Standard
100
AcDbAlignedDimension
13
36.4
23
-11
33
0
14
14.4
24
-2
34
0
50
0
100
AcDbRotatedDimension
1001
ACAD
1000
DSTYLE
1002
{
1070
   279
1070
     0
1070
   172
1070
     1
1070
   173
1070
     1
1070
   340
1005
295
1070
   271
1070
     1
1070
    77
1070
     1
1070
    73
1070
     0
1070
   171
1070
     3
1070
   274
1070
     4
1070
   177
1070
     2
1070
   176
1070
     2
1070
   178
1070
     7
1070
    78
1070
     8
1070
    41
1041
3.175
1070
   147
1041
1.75
1070
    42
1041
2.0
1070
    44
1041
2.0
1070
   140
1041
3.5
1070
   343
1005
2A7
1070
   344
1005
2A7
1002
}
0
DIMENSION
5
2CA
100
AcDbEntity
8
2
62
256
6
ByLayer
370
13
48
1
60
0
100
AcDbDimension
2
DimnDraft3D3
10
61.5
20
-9
30
0
11
61.5
21
-5.282895
31
0
70
32
71
5
72
1
41
1
210
0
220
0
230
1
3
Standard
100
AcDbAlignedDimension
13
29.4
23
0
33
0
14
38.4
24
-9
34
0
50
90
100
AcDbRotatedDimension
1001
ACAD
1000
DSTYLE
1002
{
1070
    74
1070
     0
1070
   279
1070
     0
1070
   172
1070
     1
1070
   173
1070
     1
1070
   340
1005
295
1070
   271
1070
     1
1070
    77
1070
     1
1070
    73
1070
     0
1070
   171
1070
     3
1070
   274
1070
     4
1070
   177
1070
     2
1070
   176
1070
     2
1070
   178
1070
     7
1070
    78
1070
     8
1070
    41
1041
3.175
1070
   147
1041
1.75
1070
    42
1041
2.0
1070
    44
1041
2.0
1070
   140
1041
3.5
1070
   343
1005
2A7
1070
   344
1005
2A7
1002
}
0
DIMENSION
5
2D8
100
AcDbEntity
8
2
62
256
6
ByLayer
370
13
48
1
60
0
100
AcDbDimension
2
DimnDraft3D4
10
54.5
20
-7
30
0
11
54.5
21
-20.820789
31
0
70
32
71
5
72
1
41
1
210
0
220
0
230
1
3
Standard
100
AcDbAlignedDimension
13
38.4
23
-9
33
0
14
38.4
24
-7
34
0
50
90
100
AcDbRotatedDimension
1001
ACAD
1000
DSTYLE
1002
{
1070
    74
1070
     0
1070
   279
1070
     0
1070
   172
1070
     1
1070
   173
1070
     1
1070
   340
1005
295
1070
   271
1070
     1
1070
    77
1070
     1
1070
    73
1070
     0
1070
   171
1070
     3
1070
   274
1070
     4
1070
   177
1070
     2
1070
   176
1070
     2
1070
   178
1070
     7
1070
    78
1070
     8
1070
    41
1041
3.175
1070
   147
1041
1.75
1070
    42
1041
2.0
1070
    44
1041
2.0
1070
   140
1041
3.5
1070
   343
1005
2A7
1070
   344
1005
2A7
1002
}
0
ENDSEC
0
SECTION
2
OBJECTS
0
DICTIONARY
5
341
330
0
100
AcDbDictionary
280
0
281
1
3
ACAD_GROUP
350
342
3
ACAD_MLINESTYLE
350
343
0
DICTIONARY
5
342
330
0
100
AcDbDictionary
280
0
281
1
0
DICTIONARY
5
343
330
0
100
AcDbDictionary
280
0
281
1
3
Standard
350
18
0
MLINESTYLE
5
18
330
343
100
AcDbMlineStyle
2
Standard
70
0
3

62
256
51
90
52
90
71
2
49
-0.5
62
256
6
ByLayer
49
0.5
62
256
6
ByLayer
0
RASTERVARIABLES
5
331
330

100
AcDbRasterVariables
90
0
70
1
71
1
72
1
0
ENDSEC
0
EOF
