0
SECTION
2
HEADER
9
$ACADVER
1
AC1015
9
$DWGCODEPAGE
3
ANSI_1252
9
$HANDSEED
5
371
9
$ANGBASE
50
0
9
$ANGDIR
70
0
9
$ATTMODE
70
1
9
$AUNITS
70
0
9
$AUPREC
70
0
9
$CECOLOR
62
256
9
$CELTSCALE
40
1
9
$CELTYPE
6
ByLayer
9
$CELWEIGHT
370
18
9
$CLAYER
8
0
9
$CMLJUST
70
0
9
$CMLSCALE
40
1
9
$CMLSTYLE
2
Standard
9
$DIMSTYLE
2
Standard
9
$TEXTSIZE
40
0.2
9
$TEXTSTYLE
7
Standard
9
$LUNITS
70
2
9
$LUPREC
70
4
9
$EXTNAMES
290
1
9
$INSUNITS
70
4
9
$LTSCALE
40
1
9
$LWDISPLAY
290
1
9
$PDMODE
70
0
9
$PDSIZE
40
0
9
$PLINEGEN
70
0
0
ENDSEC
0
SECTION
2
CLASSES
0
CLASS
1
RASTERVARIABLES
2
AcDbRasterVariables
3
ISM
90
0
280
0
281
0
0
ENDSEC
0
SECTION
2
TABLES
0
TABLE
2
VPORT
5
367
100
AcDbSymbolTable
0
VPORT
5
1
100
AcDbSymbolTableRecord
100
AcDbViewportTableRecord
2
*Active
70
0
10
0
20
0
11
1
21
1
12
-1
22
1
13
0
23
0
14
0.5
24
0.5
15
10
25
10
16
0
26
0
36
1
17
0
27
0
37
0
0
ENDTAB
0
TABLE
2
LTYPE
5
368
100
AcDbSymbolTable
0
LTYPE
5
14
100
AcDbSymbolTableRecord
100
AcDbLinetypeTableRecord
70
0
2
ByBlock
3

72
65
73
0
40
0
0
LTYPE
5
15
100
AcDbSymbolTableRecord
100
AcDbLinetypeTableRecord
70
0
2
ByLayer
3

72
65
73
0
40
0
0
LTYPE
5
16
100
AcDbSymbolTableRecord
100
AcDbLinetypeTableRecord
70
0
2
CONTINUOUS
3
Solid line
72
65
73
0
40
0
0
LTYPE
5
6A
100
AcDbSymbolTableRecord
100
AcDbLinetypeTableRecord
70
0
2
CENTER
3
____ _ ____ _ ____ _ ____
72
65
73
4
40
47.5
49
22
74
0
49
-8.5
74
0
49
8.5
74
0
49
-8.5
74
0
0
LTYPE
5
6B
100
AcDbSymbolTableRecord
100
AcDbLinetypeTableRecord
70
0
2
DASHED
3
__ __ __ __ __ __ __ __ __
72
65
73
2
40
25.72
49
12.86
74
0
49
-12.86
74
0
0
ENDTAB
0
TABLE
2
LAYER
5
369
100
AcDbSymbolTable
0
LAYER
5
10
100
AcDbSymbolTableRecord
100
AcDbLayerTableRecord
2
0
70
0
62
7
6
CONTINUOUS
290
1
370
-3
390
0
0
LAYER
5
6D
100
AcDbSymbolTableRecord
100
AcDbLayerTableRecord
2
81
70
0
62
-3
6
CONTINUOUS
290
1
370
-3
390
0
0
LAYER
5
6F
100
AcDbSymbolTableRecord
100
AcDbLayerTableRecord
2
80
70
0
62
-6
6
CONTINUOUS
290
1
370
-3
390
0
0
LAYER
5
73
100
AcDbSymbolTableRecord
100
AcDbLayerTableRecord
2
1
70
0
62
4
6
CONTINUOUS
290
1
370
-3
390
0
0
LAYER
5
2BD
100
AcDbSymbolTableRecord
100
AcDbLayerTableRecord
2
2
70
0
62
7
6
CONTINUOUS
290
1
370
-3
390
0
0
LAYER
5
355
100
AcDbSymbolTableRecord
100
AcDbLayerTableRecord
2
SK6
70
0
62
5
6
CONTINUOUS
290
1
370
-3
390
0
0
LAYER
5
356
100
AcDbSymbolTableRecord
100
AcDbLayerTableRecord
2
SK2
70
0
62
7
6
CONTINUOUS
290
1
370
-3
390
0
0
ENDTAB
0
TABLE
2
STYLE
5
36a
100
AcDbSymbolTable
0
STYLE
5
11
100
AcDbSymbolTableRecord
100
AcDbTextStyleTableRecord
2
Standard
3
txt
70
0
71
0
40
0
41
1
42
0
50
0
0
STYLE
5
2B8
100
AcDbSymbolTableRecord
100
AcDbTextStyleTableRecord
2
iso_b_vert
3
simplex.shx
70
0
71
0
40
0
41
1
42
0
50
0
0
STYLE
5
2B9
100
AcDbSymbolTableRecord
100
AcDbTextStyleTableRecord
2
DWGDirectTextStyle
3
simplex
70
0
71
0
40
0
41
1
42
0
50
0
0
ENDTAB
0
TABLE
2
DIMSTYLE
5
36b
100
AcDbSymbolTable
100
AcDbDimStyleTable
0
DIMSTYLE
105
27
100
AcDbSymbolTableRecord
100
AcDbDimStyleTableRecord
2
Standard
70
0
3
<>
41
0.18
42
0.0625
44
0.18
140
0.18
147
0.09
73
0
74
0
77
1
271
2
275
0
278
52
280
0
340
11
0
ENDTAB
0
TABLE
2
VIEW
5
36c
100
AcDbSymbolTable
0
ENDTAB
0
TABLE
2
UCS
5
36d
100
AcDbSymbolTable
0
ENDTAB
0
TABLE
2
APPID
5
36e
100
AcDbSymbolTable
0
APPID
5
12
100
AcDbSymbolTableRecord
100
AcDbRegAppTableRecord
2
ACAD
70
0
0
ENDTAB
0
TABLE
2
BLOCK_RECORD
5
36f
100
AcDbSymbolTable
0
BLOCK_RECORD
5
1F
100
AcDbSymbolTableRecord
100
AcDbBlockTableRecord
2
*Model_Space
340
0
70
0
0
BLOCK_RECORD
5
1B
100
AcDbSymbolTableRecord
100
AcDbBlockTableRecord
2
*Paper_Space
340
0
70
0
0
BLOCK_RECORD
5
23
100
AcDbSymbolTableRecord
100
AcDbBlockTableRecord
2
*Paper_Space0
340
0
70
0
0
BLOCK_RECORD
5
2BB
100
AcDbSymbolTableRecord
100
AcDbBlockTableRecord
2
DimnDraft3D1
340
0
70
0
0
BLOCK_RECORD
5
2CA
100
AcDbSymbolTableRecord
100
AcDbBlockTableRecord
2
_CLOSED
340
0
70
0
0
BLOCK_RECORD
5
2D1
100
AcDbSymbolTableRecord
100
AcDbBlockTableRecord
2
DimnDraft3D2
340
0
70
0
0
BLOCK_RECORD
5
2E0
100
AcDbSymbolTableRecord
100
AcDbBlockTableRecord
2
DimnDraft3D3
340
0
70
0
0
BLOCK_RECORD
5
2EE
100
AcDbSymbolTableRecord
100
AcDbBlockTableRecord
2
DimnDraft3D4
340
0
70
0
0
ENDTAB
0
ENDSEC
0
SECTION
2
BLOCKS
0
BLOCK
5
20
100
AcDbEntity
8
0
100
AcDbBlockBegin
2
*Model_Space
70
0
10
0
20
0
30
0
3
*Model_Space
0
ENDBLK
5
21
100
AcDbEntity
8
0
100
AcDbBlockEnd
0
BLOCK
5
1C
100
AcDbEntity
8
0
100
AcDbBlockBegin
2
*Paper_Space
70
0
10
0
20
0
30
0
3
*Paper_Space
0
ENDBLK
5
1D
100
AcDbEntity
8
0
100
AcDbBlockEnd
0
BLOCK
5
24
100
AcDbEntity
8
0
100
AcDbBlockBegin
2
*Paper_Space0
70
0
10
0
20
0
30
0
3
*Paper_Space0
0
ENDBLK
5
25
100
AcDbEntity
8
0
100
AcDbBlockEnd
0
BLOCK
5
2C7
100
AcDbEntity
8
0
100
AcDbBlockBegin
2
DimnDraft3D1
70
0
10
0
20
0
30
0
3
DimnDraft3D1
0
MTEXT
5
2BC
100
AcDbEntity
8
2
62
256
6
ByLayer
370
18
48
1
60
0
100
AcDbMText
10
77.825
20
5.221711
30
0
210
0
220
0
230
1
1
\W0.5321;12
40
3.5
41
0
44
1.084337
50
90
71
7
72
5
7
iso_b_vert
0
LINE
5
2BE
100
AcDbEntity
8
2
62
256
6
ByLayer
370
13
48
1
60
0
100
AcDbLine
10
23.6
20
0
30
0
11
80.7
21
0
31
0
39
0
210
0
220
0
230
1
0
LINE
5
2BF
100
AcDbEntity
8
2
62
256
6
ByLayer
370
13
48
1
60
0
100
AcDbLine
10
55.6
20
12
30
0
11
80.7
21
12
31
0
39
0
210
0
220
0
230
1
0
LINE
5
2C0
100
AcDbEntity
8
2
62
256
6
ByLayer
370
13
48
1
60
0
100
AcDbLine
10
78.7
20
-8.75
30
0
11
78.7
21
20.75
31
0
39
0
210
0
220
0
230
1
0
LINE
5
2C1
100
AcDbEntity
8
2
62
256
6
ByLayer
370
13
48
1
60
0
100
AcDbLine
10
78.7
20
0
30
0
11
79.117997
21
-3.174998
31
0
39
0
210
0
220
0
230
1
0
LINE
5
2C2
100
AcDbEntity
8
2
62
256
6
ByLayer
370
13
48
1
60
0
100
AcDbLine
10
78.7
20
0
30
0
11
78.282003
21
-3.175002
31
0
39
0
210
0
220
0
230
1
0
LINE
5
2C3
100
AcDbEntity
8
2
62
256
6
ByLayer
370
13
48
1
60
0
100
AcDbLine
10
79.117997
20
-3.174998
30
0
11
78.282003
21
-3.175002
31
0
39
0
210
0
220
0
230
1
0
LINE
5
2C4
100
AcDbEntity
8
2
62
256
6
ByLayer
370
13
48
1
60
0
100
AcDbLine
10
78.7
20
12
30
0
11
78.282003
21
15.174998
31
0
39
0
210
0
220
0
230
1
0
LINE
5
2C5
100
AcDbEntity
8
2
62
256
6
ByLayer
370
13
48
1
60
0
100
AcDbLine
10
78.7
20
12
30
0
11
79.117997
21
15.175002
31
0
39
0
210
0
220
0
230
1
0
LINE
5
2C6
100
AcDbEntity
8
2
62
256
6
ByLayer
370
13
48
1
60
0
100
AcDbLine
10
78.282003
20
15.174998
30
0
11
79.117997
21
15.175002
31
0
39
0
210
0
220
0
230
1
0
ENDBLK
5
2C8
100
AcDbEntity
8
0
100
AcDbBlockEnd
0
BLOCK
5
2CB
100
AcDbEntity
8
0
100
AcDbBlockBegin
2
_CLOSED
70
0
10
0
20
0
30
0
3
_CLOSED
0
LINE
5
2CD
100
AcDbEntity
8
0
62
256
6
ByLayer
370
-2
48
1
60
0
100
AcDbLine
10
-1
20
0.166667
30
0
11
0
21
0
31
0
39
0
210
0
220
0
230
1
0
LINE
5
2CE
100
AcDbEntity
8
0
62
256
6
ByLayer
370
-2
48
1
60
0
100
AcDbLine
10
0
20
0
30
0
11
-1
21
-0.166667
31
0
39
0
210
0
220
0
230
1
0
LINE
5
2CF
100
AcDbEntity
8
0
62
256
6
ByLayer
370
-2
48
1
60
0
100
AcDbLine
10
-1
20
0.166667
30
0
11
-1
21
-0.166667
31
0
39
0
210
0
220
0
230
1
0
LINE
5
2D0
100
AcDbEntity
8
0
62
256
6
ByLayer
370
-2
48
1
60
0
100
AcDbLine
10
0
20
0
30
0
11
-1
21
0
31
0
39
0
210
0
220
0
230
1
0
ENDBLK
5
2CC
100
AcDbEntity
8
0
100
AcDbBlockEnd
0
BLOCK
5
2DD
100
AcDbEntity
8
0
100
AcDbBlockBegin
2
DimnDraft3D2
70
0
10
0
20
0
30
0
3
DimnDraft3D2
0
MTEXT
5
2D2
100
AcDbEntity
8
SK2
62
256
6
ByLayer
370
18
48
1
60
0
100
AcDbMText
10
23.567105
20
35.483569
30
0
210
0
220
0
230
1
1
\W0.7346;53.6
40
3.5
41
0
44
1.084337
50
0
71
7
72
5
7
iso_b_vert
0
LINE
5
2D4
100
AcDbEntity
8
SK2
62
256
6
ByLayer
370
13
48
1
60
0
100
AcDbLine
10
0
20
2
30
0
11
0
21
36.608569
31
0
39
0
210
0
220
0
230
1
0
LINE
5
2D5
100
AcDbEntity
8
SK2
62
256
6
ByLayer
370
13
48
1
60
0
100
AcDbLine
10
53.6
20
14
30
0
11
53.6
21
36.608569
31
0
39
0
210
0
220
0
230
1
0
LINE
5
2D6
100
AcDbEntity
8
SK2
62
256
6
ByLayer
370
13
48
1
60
0
100
AcDbLine
10
0
20
34.608569
30
0
11
53.6
21
34.608569
31
0
39
0
210
0
220
0
230
1
0
LINE
5
2D7
100
AcDbEntity
8
SK2
62
256
6
ByLayer
370
13
48
1
60
0
100
AcDbLine
10
0
20
34.608569
30
0
11
3.174998
21
35.026566
31
0
39
0
210
0
220
0
230
1
0
LINE
5
2D8
100
AcDbEntity
8
SK2
62
256
6
ByLayer
370
13
48
1
60
0
100
AcDbLine
10
0
20
34.608569
30
0
11
3.175002
21
34.190573
31
0
39
0
210
0
220
0
230
1
0
LINE
5
2D9
100
AcDbEntity
8
SK2
62
256
6
ByLayer
370
13
48
1
60
0
100
AcDbLine
10
3.174998
20
35.026566
30
0
11
3.175002
21
34.190573
31
0
39
0
210
0
220
0
230
1
0
LINE
5
2DA
100
AcDbEntity
8
SK2
62
256
6
ByLayer
370
13
48
1
60
0
100
AcDbLine
10
53.6
20
34.608569
30
0
11
50.425002
21
34.190573
31
0
39
0
210
0
220
0
230
1
0
LINE
5
2DB
100
AcDbEntity
8
SK2
62
256
6
ByLayer
370
13
48
1
60
0
100
AcDbLine
10
53.6
20
34.608569
30
0
11
50.424998
21
35.026566
31
0
39
0
210
0
220
0
230
1
0
LINE
5
2DC
100
AcDbEntity
8
SK2
62
256
6
ByLayer
370
13
48
1
60
0
100
AcDbLine
10
50.425002
20
34.190573
30
0
11
50.424998
21
35.026566
31
0
39
0
210
0
220
0
230
1
0
ENDBLK
5
2DE
100
AcDbEntity
8
0
100
AcDbBlockEnd
0
BLOCK
5
2EB
100
AcDbEntity
8
0
100
AcDbBlockBegin
2
DimnDraft3D3
70
0
10
0
20
0
30
0
3
DimnDraft3D3
0
MTEXT
5
2E1
100
AcDbEntity
8
2
62
256
6
ByLayer
370
18
48
1
60
0
100
AcDbMText
10
36.384211
20
-13.709469
30
0
210
0
220
0
230
1
1
\W0.6740;32
40
3.5
41
0
44
1.084337
50
0
71
7
72
5
7
iso_b_vert
0
LINE
5
2E2
100
AcDbEntity
8
2
62
256
6
ByLayer
370
13
48
1
60
0
100
AcDbLine
10
53.6
20
10
30
0
11
53.6
21
-16.584469
31
0
39
0
210
0
220
0
230
1
0
LINE
5
2E3
100
AcDbEntity
8
2
62
256
6
ByLayer
370
13
48
1
60
0
100
AcDbLine
10
21.6
20
-2
30
0
11
21.6
21
-16.584469
31
0
39
0
210
0
220
0
230
1
0
LINE
5
2E4
100
AcDbEntity
8
2
62
256
6
ByLayer
370
13
48
1
60
0
100
AcDbLine
10
53.6
20
-14.584469
30
0
11
21.6
21
-14.584469
31
0
39
0
210
0
220
0
230
1
0
LINE
5
2E5
100
AcDbEntity
8
2
62
256
6
ByLayer
370
13
48
1
60
0
100
AcDbLine
10
53.6
20
-14.584469
30
0
11
50.425002
21
-15.002466
31
0
39
0
210
0
220
0
230
1
0
LINE
5
2E6
100
AcDbEntity
8
2
62
256
6
ByLayer
370
13
48
1
60
0
100
AcDbLine
10
53.6
20
-14.584469
30
0
11
50.424998
21
-14.166473
31
0
39
0
210
0
220
0
230
1
0
LINE
5
2E7
100
AcDbEntity
8
2
62
256
6
ByLayer
370
13
48
1
60
0
100
AcDbLine
10
50.425002
20
-15.002466
30
0
11
50.424998
21
-14.166473
31
0
39
0
210
0
220
0
230
1
0
LINE
5
2E8
100
AcDbEntity
8
2
62
256
6
ByLayer
370
13
48
1
60
0
100
AcDbLine
10
21.6
20
-14.584469
30
0
11
24.774998
21
-14.166473
31
0
39
0
210
0
220
0
230
1
0
LINE
5
2E9
100
AcDbEntity
8
2
62
256
6
ByLayer
370
13
48
1
60
0
100
AcDbLine
10
21.6
20
-14.584469
30
0
11
24.775002
21
-15.002466
31
0
39
0
210
0
220
0
230
1
0
LINE
5
2EA
100
AcDbEntity
8
2
62
256
6
ByLayer
370
13
48
1
60
0
100
AcDbLine
10
24.774998
20
-14.166473
30
0
11
24.775002
21
-15.002466
31
0
39
0
210
0
220
0
230
1
0
ENDBLK
5
2EC
100
AcDbEntity
8
0
100
AcDbBlockEnd
0
BLOCK
5
2F9
100
AcDbEntity
8
0
100
AcDbBlockBegin
2
DimnDraft3D4
70
0
10
0
20
0
30
0
3
DimnDraft3D4
0
MTEXT
5
2EF
100
AcDbEntity
8
2
62
256
6
ByLayer
370
18
48
1
60
0
100
AcDbMText
10
70.825
20
-1.945789
30
0
210
0
220
0
230
1
1
\W0.5404;3
40
3.5
41
0
44
1.084337
50
90
71
7
72
5
7
iso_b_vert
0
LINE
5
2F0
100
AcDbEntity
8
2
62
256
6
ByLayer
370
13
48
1
60
0
100
AcDbLine
10
55.6
20
12
30
0
11
73.7
21
12
31
0
39
0
210
0
220
0
230
1
0
LINE
5
2F1
100
AcDbEntity
8
2
62
256
6
ByLayer
370
13
48
1
60
0
100
AcDbLine
10
55.6
20
9
30
0
11
73.7
21
9
31
0
39
0
210
0
220
0
230
1
0
LINE
5
2F2
100
AcDbEntity
8
2
62
256
6
ByLayer
370
13
48
1
60
0
100
AcDbLine
10
71.7
20
-2.820789
30
0
11
71.7
21
20.75
31
0
39
0
210
0
220
0
230
1
0
LINE
5
2F3
100
AcDbEntity
8
2
62
256
6
ByLayer
370
13
48
1
60
0
100
AcDbLine
10
71.7
20
12
30
0
11
71.282003
21
15.174998
31
0
39
0
210
0
220
0
230
1
0
LINE
5
2F4
100
AcDbEntity
8
2
62
256
6
ByLayer
370
13
48
1
60
0
100
AcDbLine
10
71.7
20
12
30
0
11
72.117997
21
15.175002
31
0
39
0
210
0
220
0
230
1
0
LINE
5
2F5
100
AcDbEntity
8
2
62
256
6
ByLayer
370
13
48
1
60
0
100
AcDbLine
10
71.282003
20
15.174998
30
0
11
72.117997
21
15.175002
31
0
39
0
210
0
220
0
230
1
0
LINE
5
2F6
100
AcDbEntity
8
2
62
256
6
ByLayer
370
13
48
1
60
0
100
AcDbLine
10
71.7
20
9
30
0
11
72.117997
21
5.825002
31
0
39
0
210
0
220
0
230
1
0
LINE
5
2F7
100
AcDbEntity
8
2
62
256
6
ByLayer
370
13
48
1
60
0
100
AcDbLine
10
71.7
20
9
30
0
11
71.282003
21
5.824998
31
0
39
0
210
0
220
0
230
1
0
LINE
5
2F8
100
AcDbEntity
8
2
62
256
6
ByLayer
370
13
48
1
60
0
100
AcDbLine
10
72.117997
20
5.825002
30
0
11
71.282003
21
5.824998
31
0
39
0
210
0
220
0
230
1
0
ENDBLK
5
2FA
100
AcDbEntity
8
0
100
AcDbBlockEnd
0
ENDSEC
0
SECTION
2
ENTITIES
0
ARC
5
163
100
AcDbEntity
8
1
62
256
6
ByLayer
370
18
48
1
60
0
100
AcDbCircle
39
0
10
43.8
20
9.45
30
0
40
0.2
210
0
220
0
230
1
100
AcDbArc
50
218.681386
51
240
0
ARC
5
164
100
AcDbEntity
8
1
62
256
6
ByLayer
370
18
48
1
60
0
100
AcDbCircle
39
0
10
43.8
20
11.55
30
0
40
0.2
210
0
220
0
230
1
100
AcDbArc
50
120
51
141.318614
0
ELLIPSE
5
165
100
AcDbEntity
8
1
62
256
6
ByLayer
370
13
48
1
60
0
100
AcDbEllipse
10
45.908132
20
9.230414
30
0
11
0.97958205257705
21
0.301726209263055
31
0
210
0
220
0
230
-1
40
0.270086
41
-2.24185105461913
42
-2.05273074523921
0
ELLIPSE
5
166
100
AcDbEntity
8
1
62
256
6
ByLayer
370
13
48
1
60
0
100
AcDbEllipse
10
45.908132
20
9.230414
30
0
11
0.998914191628881
21
0.226032306468485
31
0
210
0
220
0
230
-1
40
0.206112
41
-2.24548541565559
42
-1.99506909476893
0
ELLIPSE
5
167
100
AcDbEntity
8
1
62
256
6
ByLayer
370
13
48
1
60
0
100
AcDbEllipse
10
45.908132
20
11.769586
30
0
11
0.998914191639495
21
-0.226032306469473
31
0
210
0
220
0
230
-1
40
0.206112
41
1.99506909477067
42
2.24548541565475
0
ELLIPSE
5
168
100
AcDbEntity
8
1
62
256
6
ByLayer
370
13
48
1
60
0
100
AcDbEllipse
10
52.97413
20
10.5
30
0
11
-7.38495814331257
21
9.04366666501288E-16
31
0
210
0
220
0
230
1
40
0.121869
41
1.16456723893879
42
1.18682389135614
0
ELLIPSE
5
169
100
AcDbEntity
8
1
62
256
6
ByLayer
370
13
48
1
60
0
100
AcDbEllipse
10
52.058781
20
11.681166
30
0
11
0.0322705528359684
21
-0.237820544570188
31
0
210
0
220
0
230
1
40
0.009402
41
-1.50161815253471
42
-0.684082575265842
0
ELLIPSE
5
16A
100
AcDbEntity
8
1
62
256
6
ByLayer
370
13
48
1
60
0
100
AcDbEllipse
10
50.828622
20
11.559701
30
0
11
-0.0129780832447759
21
-0.239648845929397
31
0
210
0
220
0
230
1
40
0.707925
41
0.878821726711933
42
1.55967335367816
0
ELLIPSE
5
16B
100
AcDbEntity
8
1
62
256
6
ByLayer
370
13
48
1
60
0
100
AcDbEllipse
10
52.058781
20
9.318834
30
0
11
0.0322705528359686
21
0.237820544570188
31
0
210
0
220
0
230
1
40
0.009402
41
0.684082575265842
42
1.50161815253495
0
ELLIPSE
5
16C
100
AcDbEntity
8
1
62
256
6
ByLayer
370
13
48
1
60
0
100
AcDbEllipse
10
52.97413
20
10.5
30
0
11
-7.38495814331257
21
9.04366666501288E-16
31
0
210
0
220
0
230
1
40
0.121869
41
-1.18682389135615
42
-1.16456723893881
0
ELLIPSE
5
16D
100
AcDbEntity
8
1
62
256
6
ByLayer
370
13
48
1
60
0
100
AcDbEllipse
10
50.828622
20
9.440299
30
0
11
-0.0129780832447762
21
0.239648845929397
31
0
210
0
220
0
230
1
40
0.707925
41
-1.55967335367816
42
-0.878821726711933
0
ELLIPSE
5
16E
100
AcDbEntity
8
1
62
256
6
ByLayer
370
13
48
1
60
0
100
AcDbEllipse
10
52.97413
20
10.5
30
0
11
7.34839634885432
21
-5.12964405434835E-08
31
0
210
0
220
0
230
-1
40
0.08165
41
1.95476871640693
42
2.00162045155409
0
ELLIPSE
5
16F
100
AcDbEntity
8
1
62
256
6
ByLayer
370
13
48
1
60
0
100
AcDbEllipse
10
50.586644
20
10.5
30
0
11
1.63150680982028
21
1.64886450063721E-15
31
0
210
0
220
0
230
-1
40
0.367758
41
-2.17407423400969
42
-2.00162049189415
0
ELLIPSE
5
170
100
AcDbEntity
8
1
62
256
6
ByLayer
370
13
48
1
60
0
100
AcDbEllipse
10
52.974131
20
10.5
30
0
11
7.34839795116577
21
-3.14738186491574E-08
31
0
210
0
220
0
230
-1
40
0.08165
41
-2.00162051643215
42
-1.9547687901201
0
ELLIPSE
5
171
100
AcDbEntity
8
1
62
256
6
ByLayer
370
13
48
1
60
0
100
AcDbEllipse
10
50.586644
20
10.5
30
0
11
1.63150680904378
21
-1.56331899772782E-10
31
0
210
0
220
0
230
-1
40
0.367758
41
2.00162049174392
42
2.17407423393236
0
ELLIPSE
5
172
100
AcDbEntity
8
1
62
256
6
ByLayer
370
13
48
1
60
0
100
AcDbEllipse
10
50.723829
20
9.438617
30
0
11
0.1082392992065
21
-0.214206101937563
31
0
210
0
220
0
230
1
40
0.678671
41
1.29279293091362
42
1.84879976311947
0
ELLIPSE
5
173
100
AcDbEntity
8
1
62
256
6
ByLayer
370
13
48
1
60
0
100
AcDbEllipse
10
50.723829
20
11.561383
30
0
11
0.1082392992065
21
0.214206101937563
31
0
210
0
220
0
230
1
40
0.678671
41
-1.84879976311947
42
-1.29279293091359
0
ELLIPSE
5
174
100
AcDbEntity
8
1
62
256
6
ByLayer
370
13
48
1
60
0
100
AcDbEllipse
10
50.459452
20
9.678164
30
0
11
0.219354463278089
21
0.119931728245622
31
0
210
0
220
0
230
1
40
0.441633
41
0.600579851753478
42
1.30662817391549
0
ELLIPSE
5
175
100
AcDbEntity
8
1
62
256
6
ByLayer
370
13
48
1
60
0
100
AcDbEllipse
10
50.459452
20
11.321836
30
0
11
-0.219354463278086
21
0.119931728245626
31
0
210
0
220
0
230
1
40
0.441633
41
1.83496447967433
42
2.54101280183634
0
ELLIPSE
5
176
100
AcDbEntity
8
1
62
256
6
ByLayer
370
13
48
1
60
0
100
AcDbEllipse
10
49.895115
20
9.773103
30
0
11
-0.0433548151255266
21
-0.195244359727577
31
0
210
0
220
0
230
1
40
0.334809
41
-2.68611088405472
42
-1.49658713340606
0
ELLIPSE
5
177
100
AcDbEntity
8
1
62
256
6
ByLayer
370
13
48
1
60
0
100
AcDbEllipse
10
49.895115
20
11.226897
30
0
11
-0.0433548151255279
21
0.195244359727577
31
0
210
0
220
0
230
1
40
0.334809
41
1.49658713340599
42
2.68611088405472
0
ELLIPSE
5
178
100
AcDbEntity
8
1
62
256
6
ByLayer
370
13
48
1
60
0
100
AcDbEllipse
10
50.51824
20
10.5
30
0
11
1.65588067818681
21
1.67349768393186E-15
31
0
210
0
220
0
230
-1
40
0.483127
41
2.00162049192131
42
2.1740742340726
0
ELLIPSE
5
179
100
AcDbEntity
8
1
62
256
6
ByLayer
370
13
48
1
60
0
100
AcDbEllipse
10
50.51824
20
10.5
30
0
11
1.65588067910716
21
-3.70780911590546E-10
31
0
210
0
220
0
230
-1
40
0.483127
41
-2.17407423430784
42
-2.0016204922345
0
ELLIPSE
5
17A
100
AcDbEntity
8
1
62
256
6
ByLayer
370
13
48
1
60
0
100
AcDbEllipse
10
50.725564
20
11.561022
30
0
11
0.00742724597932567
21
-0.239885047506431
31
0
210
0
220
0
230
1
40
0.70617
41
0.846393084122536
42
1.49951821957463
0
ELLIPSE
5
17B
100
AcDbEntity
8
1
62
256
6
ByLayer
370
13
48
1
60
0
100
AcDbEllipse
10
50.725564
20
9.438978
30
0
11
0.00742724597932589
21
0.239885047506431
31
0
210
0
220
0
230
1
40
0.70617
41
-1.49951821957463
42
-0.846393084122536
0
ELLIPSE
5
17C
100
AcDbEntity
8
1
62
256
6
ByLayer
370
13
48
1
60
0
100
AcDbEllipse
10
49.647188
20
9.841216
30
0
11
-0.0631638165780187
21
-0.189763885592856
31
0
210
0
220
0
230
1
40
0.326425
41
-2.50339446299674
42
-1.46256868006916
0
ELLIPSE
5
17D
100
AcDbEntity
8
1
62
256
6
ByLayer
370
13
48
1
60
0
100
AcDbEllipse
10
49.647188
20
11.158784
30
0
11
-0.0631638165785347
21
0.189763885592684
31
0
210
0
220
0
230
1
40
0.326425
41
1.46256868006823
42
2.5033944629922
0
ELLIPSE
5
17E
100
AcDbEntity
8
1
62
256
6
ByLayer
370
13
48
1
60
0
100
AcDbEllipse
10
50.450683
20
9.665535
30
0
11
0.195064510201759
21
-0.227925068519783
31
0
210
0
220
0
230
1
40
0.863833
41
1.64869430110509
42
2.31141389753822
0
ELLIPSE
5
17F
100
AcDbEntity
8
1
62
256
6
ByLayer
370
13
48
1
60
0
100
AcDbEllipse
10
50.450683
20
11.334465
30
0
11
-0.195064510201764
21
-0.227925068519779
31
0
210
0
220
0
230
1
40
0.863833
41
0.830178756051596
42
1.4928983524847
0
ELLIPSE
5
180
100
AcDbEntity
8
1
62
256
6
ByLayer
370
13
48
1
60
0
100
AcDbEllipse
10
49.550966
20
9.802033
30
0
11
0.182866340278506
21
-0.0809932194269721
31
0
210
0
220
0
230
1
40
0.14582
41
-2.77286095187722
42
-1.88885149068662
0
ELLIPSE
5
181
100
AcDbEntity
8
1
62
256
6
ByLayer
370
13
48
1
60
0
100
AcDbEllipse
10
49.550966
20
11.197967
30
0
11
0.182866340278443
21
0.0809932194271139
31
0
210
0
220
0
230
1
40
0.14582
41
1.88885149068652
42
2.77286095187507
0
ELLIPSE
5
182
100
AcDbEntity
8
1
62
256
6
ByLayer
370
13
48
1
60
0
100
AcDbEllipse
10
50.502412
20
11.206933
30
0
11
-0.299757884748935
21
0.0120503332254432
31
0
210
0
220
0
230
1
40
0.786325
41
1.67791435062302
42
2.25220990045423
0
ELLIPSE
5
183
100
AcDbEntity
8
1
62
256
6
ByLayer
370
13
48
1
60
0
100
AcDbEllipse
10
50.502412
20
9.793067
30
0
11
0.299757884748933
21
0.0120503332254948
31
0
210
0
220
0
230
1
40
0.786325
41
0.889382753135441
42
1.46367830296665
0
ELLIPSE
5
184
100
AcDbEntity
8
1
62
256
6
ByLayer
370
13
48
1
60
0
100
AcDbEllipse
10
49.292326
20
11.625902
30
0
11
0.0570319130279923
21
-0.138734858259803
31
0
210
0
220
0
230
1
40
0.776494
41
-1.87977830526726
42
-1.56980601158793
0
ELLIPSE
5
185
100
AcDbEntity
8
1
62
256
6
ByLayer
370
13
48
1
60
0
100
AcDbEllipse
10
49.292326
20
9.374098
30
0
11
-0.0570319130268966
21
-0.138734858260253
31
0
210
0
220
0
230
1
40
0.776494
41
-1.57178664200835
42
-1.26181434832865
0
ELLIPSE
5
186
100
AcDbEntity
8
1
62
256
6
ByLayer
370
13
48
1
60
0
100
AcDbEllipse
10
49.68147
20
10.020757
30
0
11
-0.105329348464612
21
0.280901634655301
31
0
210
0
220
0
230
1
40
0.319781
41
-1.09012327608127
42
-0.203695114400111
0
ELLIPSE
5
187
100
AcDbEntity
8
1
62
256
6
ByLayer
370
13
48
1
60
0
100
AcDbEllipse
10
49.68147
20
10.979243
30
0
11
-0.105329348464631
21
-0.280901634655294
31
0
210
0
220
0
230
1
40
0.319781
41
0.203695114399998
42
1.09012327608121
0
ELLIPSE
5
188
100
AcDbEntity
8
1
62
256
6
ByLayer
370
13
48
1
60
0
100
AcDbEllipse
10
50.609329
20
10.211428
30
0
11
-0.263738087060282
21
0.142976296755033
31
0
210
0
220
0
230
1
40
0.337339
41
-2.12742665195263
42
-1.51944467242793
0
ELLIPSE
5
189
100
AcDbEntity
8
1
62
256
6
ByLayer
370
13
48
1
60
0
100
AcDbEllipse
10
50.609329
20
10.788572
30
0
11
-0.26373808706239
21
-0.142976296751144
31
0
210
0
220
0
230
1
40
0.337339
41
1.51944467242558
42
2.12742665190393
0
ELLIPSE
5
18A
100
AcDbEntity
8
1
62
256
6
ByLayer
370
13
48
1
60
0
100
AcDbEllipse
10
49.289927
20
9.374562
30
0
11
4.24912383924225E-17
21
0.15
31
0
210
0
220
0
230
1
40
0.795546
41
1.23482044578598
42
1.5707963267949
0
ELLIPSE
5
18B
100
AcDbEntity
8
1
62
256
6
ByLayer
370
13
48
1
60
0
100
AcDbEllipse
10
49.289927
20
11.625438
30
0
11
4.24912383924225E-17
21
0.15
31
0
210
0
220
0
230
1
40
0.795546
41
1.5707963267949
42
1.90677220780377
0
ELLIPSE
5
18C
100
AcDbEntity
8
1
62
256
6
ByLayer
370
13
48
1
60
0
100
AcDbEllipse
10
49.033293
20
9.374562
30
0
11
-2.75536429610035E-17
21
-0.15
31
0
210
0
220
0
230
1
40
0.34202
41
-1.75278811305915
42
-1.5707963267949
0
ELLIPSE
5
18D
100
AcDbEntity
8
1
62
256
6
ByLayer
370
13
48
1
60
0
100
AcDbEllipse
10
49.033293
20
11.625438
30
0
11
4.24912383924225E-17
21
0.15
31
0
210
0
220
0
230
1
40
0.34202
41
1.5707963267949
42
1.75278811305915
0
ELLIPSE
5
18E
100
AcDbEntity
8
1
62
256
6
ByLayer
370
13
48
1
60
0
100
AcDbEllipse
10
49.539982
20
10.933451
30
0
11
-0.0205626710087509
21
-0.198940133107892
31
0
210
0
220
0
230
1
40
0.702979
41
-1.10867675839078
42
-0.337059544638823
0
ELLIPSE
5
18F
100
AcDbEntity
8
1
62
256
6
ByLayer
370
13
48
1
60
0
100
AcDbEllipse
10
49.539982
20
10.066549
30
0
11
-0.0205626710087514
21
0.198940133107892
31
0
210
0
220
0
230
1
40
0.702979
41
0.337059544638764
42
1.10867675839078
0
ELLIPSE
5
190
100
AcDbEntity
8
1
62
256
6
ByLayer
370
13
48
1
60
0
100
AcDbEllipse
10
49.672352
20
10.982663
30
0
11
0.1054031629799
21
0.280873945452106
31
0
210
0
220
0
230
1
40
0.321796
41
-2.93702761420039
42
-2.05551827773612
0
ELLIPSE
5
191
100
AcDbEntity
8
1
62
256
6
ByLayer
370
13
48
1
60
0
100
AcDbEllipse
10
49.672352
20
10.017337
30
0
11
-0.105403162979924
21
0.280873945452097
31
0
210
0
220
0
230
1
40
0.321796
41
-1.08607437585375
42
-0.20456503938946
0
ELLIPSE
5
192
100
AcDbEntity
8
1
62
256
6
ByLayer
370
13
48
1
60
0
100
AcDbEllipse
10
52.747654
20
11.691357
30
0
11
-0.00560126668057245
21
-0.239934628204378
31
0
210
0
220
0
230
1
40
0.172043
41
-1.49800588930574
42
-0.732097455140939
0
ELLIPSE
5
193
100
AcDbEntity
8
1
62
256
6
ByLayer
370
13
48
1
60
0
100
AcDbEllipse
10
52.747654
20
9.308643
30
0
11
-0.00560126668057228
21
0.239934628204378
31
0
210
0
220
0
230
1
40
0.172043
41
0.732097455141062
42
1.49800588930574
0
ELLIPSE
5
194
100
AcDbEntity
8
1
62
256
6
ByLayer
370
13
48
1
60
0
100
AcDbEllipse
10
49.531197
20
10.933936
30
0
11
5.665498452323E-17
21
0.2
31
0
210
0
220
0
230
1
40
0.803713
41
1.90677220780383
42
2.72521072930065
0
ELLIPSE
5
195
100
AcDbEntity
8
1
62
256
6
ByLayer
370
13
48
1
60
0
100
AcDbEllipse
10
49.531197
20
10.066064
30
0
11
5.665498452323E-17
21
0.2
31
0
210
0
220
0
230
1
40
0.803713
41
0.416381924289214
42
1.234820445786
0
ELLIPSE
5
196
100
AcDbEntity
8
1
62
256
6
ByLayer
370
13
48
1
60
0
100
AcDbEllipse
10
49.133999
20
10.933936
30
0
11
5.665498452323E-17
21
0.2
31
0
210
0
220
0
230
1
40
0.34202
41
1.90677220780379
42
2.72521072930065
0
ELLIPSE
5
197
100
AcDbEntity
8
1
62
256
6
ByLayer
370
13
48
1
60
0
100
AcDbEllipse
10
49.133999
20
10.066064
30
0
11
-3.67381906146713E-17
21
-0.2
31
0
210
0
220
0
230
1
40
0.34202
41
-2.72521072930065
42
-1.90677220780379
0
ELLIPSE
5
198
100
AcDbEntity
8
1
62
256
6
ByLayer
370
13
48
1
60
0
100
AcDbEllipse
10
53.352853
20
9.578833
30
0
11
-0.0533981556875965
21
0.0845496124719871
31
0
210
0
220
0
230
1
40
0.139768
41
-1.57717485146101
42
-0.740023965274731
0
ELLIPSE
5
199
100
AcDbEntity
8
1
62
256
6
ByLayer
370
13
48
1
60
0
100
AcDbEllipse
10
53.513527
20
9.72831
30
0
11
-0.0833341889559589
21
0.0552757899179428
31
0
210
0
220
0
230
1
40
0.125151
41
-1.63388084261215
42
-1.00888984397374
0
ELLIPSE
5
19A
100
AcDbEntity
8
1
62
256
6
ByLayer
370
13
48
1
60
0
100
AcDbEllipse
10
53.352853
20
11.421167
30
0
11
-0.0533981556875966
21
-0.0845496124719871
31
0
210
0
220
0
230
1
40
0.139768
41
0.740023965275111
42
1.57717485146094
0
ELLIPSE
5
19B
100
AcDbEntity
8
1
62
256
6
ByLayer
370
13
48
1
60
0
100
AcDbEllipse
10
53.513527
20
11.27169
30
0
11
-0.0833341889559589
21
-0.0552757899179427
31
0
210
0
220
0
230
1
40
0.125151
41
1.00888984397374
42
1.63388084261208
0
ELLIPSE
5
19C
100
AcDbEntity
8
1
62
256
6
ByLayer
370
13
48
1
60
0
100
AcDbEllipse
10
52.858678
20
11.089076
30
0
11
0.014829333617164
21
-0.399725019062444
31
0
210
0
220
0
230
1
40
0.406503
41
1.5557166718563
42
2.33595515067486
0
ELLIPSE
5
19D
100
AcDbEntity
8
1
62
256
6
ByLayer
370
13
48
1
60
0
100
AcDbEllipse
10
52.858678
20
9.910924
30
0
11
0.0148293336171642
21
0.399725019062444
31
0
210
0
220
0
230
1
40
0.406503
41
-2.33595515067486
42
-1.5557166718563
0
ELLIPSE
5
19E
100
AcDbEntity
8
1
62
256
6
ByLayer
370
13
48
1
60
0
100
AcDbEllipse
10
53.220403
20
11.503257
30
0
11
-0.0518341759381039
21
-0.0855173561612945
31
0
210
0
220
0
230
1
40
0.13986
41
0.736311954700279
42
1.57460332353076
0
ELLIPSE
5
19F
100
AcDbEntity
8
1
62
256
6
ByLayer
370
13
48
1
60
0
100
AcDbEllipse
10
53.123358
20
11.58063
30
0
11
-0.0777628762498878
21
-0.0628723713354653
31
0
210
0
220
0
230
1
40
0.13045
41
1.15581636427962
42
1.62182792903084
0
ELLIPSE
5
1A0
100
AcDbEntity
8
1
62
256
6
ByLayer
370
13
48
1
60
0
100
AcDbEllipse
10
53.123358
20
9.41937
30
0
11
-0.0777628762498878
21
0.0628723713354654
31
0
210
0
220
0
230
1
40
0.13045
41
-1.62182792903084
42
-1.15581636427955
0
ELLIPSE
5
1A1
100
AcDbEntity
8
1
62
256
6
ByLayer
370
13
48
1
60
0
100
AcDbEllipse
10
53.220403
20
9.496743
30
0
11
-0.0518341759381039
21
0.0855173561612945
31
0
210
0
220
0
230
1
40
0.13986
41
-1.57460332353076
42
-0.736311954700658
0
ELLIPSE
5
1A2
100
AcDbEntity
8
1
62
256
6
ByLayer
370
13
48
1
60
0
100
AcDbEllipse
10
52.358781
20
11.695151
30
0
11
-0.0082466205512047
21
-0.239858277425409
31
0
210
0
220
0
230
1
40
0.002403
41
0.709373157679166
42
1.50102444918823
0
ELLIPSE
5
1A3
100
AcDbEntity
8
1
62
256
6
ByLayer
370
13
48
1
60
0
100
AcDbEllipse
10
52.358781
20
9.304849
30
0
11
-0.00824662055120453
21
0.239858277425409
31
0
210
0
220
0
230
1
40
0.002403
41
-1.50102444918826
42
-0.709373157679185
0
ELLIPSE
5
1A4
100
AcDbEntity
8
1
62
256
6
ByLayer
370
13
48
1
60
0
100
AcDbEllipse
10
49.382996
20
12.580141
30
0
11
5.665498452323E-16
21
2
31
0
210
0
220
0
230
1
40
0.34202
41
2.7252107293006
42
2.79252680319093
0
ELLIPSE
5
1A5
100
AcDbEntity
8
1
62
256
6
ByLayer
370
13
48
1
60
0
100
AcDbEllipse
10
49.382996
20
8.419859
30
0
11
-3.67381906146713E-16
21
-2
31
0
210
0
220
0
230
1
40
0.34202
41
-2.79252680319093
42
-2.7252107293006
0
ELLIPSE
5
1A6
100
AcDbEntity
8
1
62
256
6
ByLayer
370
13
48
1
60
0
100
AcDbEllipse
10
53.535862
20
9.76293
30
0
11
-0.0846493904271157
21
0.0532398412874958
31
0
210
0
220
0
230
1
40
0.065231
41
-1.67414184501549
42
-1.04577954889694
0
ELLIPSE
5
1A7
100
AcDbEntity
8
1
62
256
6
ByLayer
370
13
48
1
60
0
100
AcDbEllipse
10
53.535862
20
11.23707
30
0
11
-0.0846493904271157
21
-0.0532398412874957
31
0
210
0
220
0
230
1
40
0.065231
41
1.045779548897
42
1.67414184501556
0
ELLIPSE
5
1A8
100
AcDbEntity
8
1
62
256
6
ByLayer
370
13
48
1
60
0
100
AcDbEllipse
10
49.127689
20
10.5
30
0
11
5.94877337493915E-17
21
0.21
31
0
210
0
220
0
230
1
40
0.34202
41
-2.79252680319101
42
-0.349065850398785
0
ELLIPSE
5
1A9
100
AcDbEntity
8
1
62
256
6
ByLayer
370
13
48
1
60
0
100
AcDbEllipse
10
45.908132
20
11.769586
30
0
11
0.979582052423054
21
-0.301726209248219
31
0
210
0
220
0
230
-1
40
0.270086
41
2.05273074517528
42
2.24185105457776
0
ELLIPSE
5
1AA
100
AcDbEntity
8
1
62
256
6
ByLayer
370
18
48
1
60
0
100
AcDbEllipse
10
48.382033
20
10.5
30
0
11
1.28358760011041
21
1.29724375929102E-15
31
0
210
0
220
0
230
-1
40
0.46744
41
1.0545730264114
42
-1.05457302641134
0
ELLIPSE
5
1AB
100
AcDbEntity
8
1
62
256
6
ByLayer
370
18
48
1
60
0
100
AcDbEllipse
10
49.041428
20
10.5
30
0
11
-3.67381906146627E-17
21
0.599999999999859
31
0
210
0
220
0
230
-1
40
0.087172
41
-2.62536935320669
42
-0.516223300383107
0
ELLIPSE
5
1AC
100
AcDbEntity
8
1
62
256
6
ByLayer
370
18
48
1
60
0
100
AcDbEllipse
10
53.106337
20
9.026697
30
0
11
0.239997044873211
21
-0.016948992989429
31
0
210
0
220
0
230
-1
40
0.070266
41
1.44395567124071
42
1.7399503764131
0
ELLIPSE
5
1AD
100
AcDbEntity
8
1
62
256
6
ByLayer
370
18
48
1
60
0
100
AcDbEllipse
10
53.648748
20
9.76293
30
0
11
1.1330996904646E-16
21
0.4
31
0
210
0
220
0
230
1
40
0.121869
41
1.5707963267949
42
1.64009079051255
0
ELLIPSE
5
1AE
100
AcDbEntity
8
1
62
256
6
ByLayer
370
18
48
1
60
0
100
AcDbEllipse
10
53.648748
20
11.23707
30
0
11
1.1330996904646E-16
21
0.4
31
0
210
0
220
0
230
1
40
0.121869
41
1.50150186307725
42
1.5707963267949
0
ELLIPSE
5
1AF
100
AcDbEntity
8
1
62
256
6
ByLayer
370
18
48
1
60
0
100
AcDbEllipse
10
50.142652
20
11.95
30
0
11
0.201946432116473
21
0
31
0
210
0
220
0
230
1
40
0.990362
41
-1.5707963267949
42
-1.04299365512072
0
ELLIPSE
5
1B0
100
AcDbEntity
8
1
62
256
6
ByLayer
370
18
48
1
60
0
100
AcDbEllipse
10
50.736306
20
9.158691
30
0
11
0.251841921981687
21
-0.0177818623375771
31
0
210
0
220
0
230
-1
40
0.06924
41
0.774400198844574
42
1.56101782176891
0
ELLIPSE
5
1B1
100
AcDbEntity
8
1
62
256
6
ByLayer
370
18
48
1
60
0
100
AcDbEllipse
10
50.153398
20
9.05
30
0
11
-0.201490790302156
21
2.46746902040712E-17
31
0
210
0
220
0
230
1
40
0.992601
41
-2.09761674342106
42
-1.5707963267949
0
ELLIPSE
5
1B2
100
AcDbEntity
8
1
62
256
6
ByLayer
370
18
48
1
60
0
100
AcDbEllipse
10
50.736306
20
11.841309
30
0
11
0.25184192196283
21
0.0177818623353406
31
0
210
0
220
0
230
-1
40
0.06924
41
-1.56101782182201
42
-0.774400198844721
0
ELLIPSE
5
1B3
100
AcDbEntity
8
1
62
256
6
ByLayer
370
18
48
1
60
0
100
AcDbEllipse
10
53.106337
20
11.973303
30
0
11
0.239997044663673
21
0.0169489929762817
31
0
210
0
220
0
230
-1
40
0.070266
41
-1.73995037646431
42
-1.4439556710322
0
ELLIPSE
5
1B4
100
AcDbEntity
8
1
62
256
6
ByLayer
370
18
48
1
60
0
100
AcDbEllipse
10
50.39757
20
11.634169
30
0
11
0.058624730201206
21
-0.191752852286547
31
0
210
-1.59644179966719E-15
220
4.38574520942052E-19
230
1
40
0.997435
41
2.91526219766618
42
-2.91526219766617
0
ELLIPSE
5
1B5
100
AcDbEntity
8
1
62
256
6
ByLayer
370
18
48
1
60
0
100
AcDbEllipse
10
50.409275
20
9.365013
30
0
11
0.00297293931671267
21
0.200467814146891
31
0
210
-1.59612295829283E-15
220
-1.26268957575375E-19
230
1
40
0.997557
41
2.63386280411413
42
3.08674247812914
0
POINT
5
6C
100
AcDbEntity
8
81
62
256
6
ByLayer
370
18
48
1
60
0
100
AcDbPoint
10
53.6
20
12
30
0
39
0
210
0
220
0
230
1
50
360
0
POINT
5
6E
100
AcDbEntity
8
80
62
256
6
ByLayer
370
18
48
1
60
0
100
AcDbPoint
10
0
20
0
30
0
39
0
210
0
220
0
230
1
50
360
0
SPLINE
5
1B6
100
AcDbEntity
8
1
62
256
6
ByLayer
370
18
48
1
60
0
100
AcDbSpline
70
4
71
3
72
8
73
4
40
0
40
0
40
0
40
0
40
1
40
1
40
1
40
1
41
1
10
11.8888368758453
20
-0.317851501380005
30
0
41
1
10
11.9229095417618
20
-0.322189872669611
30
0
41
1
10
11.9563743682046
20
-0.324980947161691
30
0
41
1
10
11.9882514452425
20
-0.324980947161663
30
0
0
SPLINE
5
1B7
100
AcDbEntity
8
1
62
256
6
ByLayer
370
13
48
1
60
0
100
AcDbSpline
70
4
71
3
72
10
73
6
40
0
40
0
40
0
40
0
40
0.664993946719532
40
0.664993946719532
40
1
40
1
40
1
40
1
41
1
10
50.631795236158
20
9.85126368904278
30
0
41
1
10
50.6544008183664
20
9.87209027076196
30
0
41
1
10
50.6719726297129
20
9.89793460222623
30
0
41
1
10
50.6836688596485
20
9.94621065245698
30
0
41
1
10
50.6849134160383
20
9.96439108444753
30
0
41
1
10
50.6838678419132
20
9.98372671565298
30
0
0
SPLINE
5
1B8
100
AcDbEntity
8
1
62
256
6
ByLayer
370
13
48
1
60
0
100
AcDbSpline
70
4
71
3
72
12
73
8
40
0
40
0
40
0
40
0
40
0.274450233641753
40
0.274450233641753
40
0.728710906931613
40
0.728710906931613
40
1
40
1
40
1
40
1
41
1
10
51.7146869282979
20
9.68061578016471
30
0
41
1
10
51.6122143236957
20
9.71109506557377
30
0
41
1
10
51.509497462749
20
9.74144238625547
30
0
41
1
10
51.2439453836002
20
9.81957758597798
30
0
41
1
10
51.0820473482734
20
9.86687077176356
30
0
41
1
10
50.846079380226
20
9.93594806822509
30
0
41
1
10
50.7617198878048
20
9.96051590479553
30
0
41
1
10
50.6838678419132
20
9.98372671565298
30
0
0
SPLINE
5
1B9
100
AcDbEntity
8
1
62
256
6
ByLayer
370
13
48
1
60
0
100
AcDbSpline
70
4
71
3
72
16
73
12
40
0
40
0
40
0
40
0
40
0.0442199247554627
40
0.0442199247554627
40
0.048439955548864
40
0.048439955548864
40
0.216895358525141
40
0.216895358525141
40
0.889245809546153
40
0.889245809546153
40
1
40
1
40
1
40
1
41
1
10
52.4219297662852
20
9.60870448775108
30
0
41
1
10
52.4113300785451
20
9.60833475472188
30
0
41
1
10
52.4007291289449
20
9.60800343229539
30
0
41
1
10
52.3891179461187
20
9.60759664249338
30
0
41
1
10
52.3881063966876
20
9.60756107529031
30
0
41
1
10
52.3467182945273
20
9.60610091658862
30
0
41
1
10
52.3063476610928
20
9.60420472300413
30
0
41
1
10
52.1067119730517
20
9.5974612869648
30
0
41
1
10
51.9453726295507
20
9.61840747459479
30
0
41
1
10
51.7656324617667
20
9.66588812760102
30
0
41
1
10
51.7400997197492
20
9.67305704066851
30
0
41
1
10
51.7146869282979
20
9.68061578016471
30
0
0
SPLINE
5
1BA
100
AcDbEntity
8
1
62
256
6
ByLayer
370
13
48
1
60
0
100
AcDbSpline
70
4
71
3
72
12
73
8
40
0
40
0
40
0
40
0
40
0.609383607480292
40
0.609383607480292
40
0.614539779329414
40
0.614539779329414
40
1
40
1
40
1
40
1
41
1
10
52.9656057053218
20
9.62970626448671
30
0
41
1
10
52.8600213620048
20
9.62535325233668
30
0
41
1
10
52.7496097970341
20
9.62102379935843
30
0
41
1
10
52.6373081383666
20
9.61675228722785
30
0
41
1
10
52.6363601843112
20
9.61671623209108
30
0
41
1
10
52.5647049543389
20
9.61399093307588
30
0
41
1
10
52.4932165299022
20
9.6111910771393
30
0
41
1
10
52.4219297662852
20
9.60870448775108
30
0
0
SPLINE
5
1BB
100
AcDbEntity
8
1
62
256
6
ByLayer
370
13
48
1
60
0
100
AcDbSpline
70
4
71
3
72
12
73
8
40
0
40
0
40
0
40
0
40
0.178891096392299
40
0.178891096392299
40
0.986291642516443
40
0.986291642516443
40
1
40
1
40
1
40
1
41
1
10
53.3213895076228
20
9.64630122296228
30
0
41
1
10
53.3003115269679
20
9.64546488191513
30
0
41
1
10
53.2792221384665
20
9.64462186156521
30
0
41
1
10
53.1629014296375
20
9.63993316949367
30
0
41
1
10
53.0679540502601
20
9.63428950719978
30
0
41
1
10
52.9689156735317
20
9.62984573106547
30
0
41
1
10
52.9672607449414
20
9.62977449815986
30
0
41
1
10
52.9656057053218
20
9.62970626448671
30
0
0
SPLINE
5
1BC
100
AcDbEntity
8
1
62
256
6
ByLayer
370
13
48
1
60
0
100
AcDbSpline
70
4
71
3
72
8
73
4
40
0
40
0
40
0
40
0
40
1
40
1
40
1
40
1
41
1
10
53.1900286630424
20
9.56497603366438
30
0
41
1
10
53.234090020669
20
9.59163900157122
30
0
41
1
10
53.2778395366007
20
9.61881582011878
30
0
41
1
10
53.3213895076228
20
9.64630122296228
30
0
0
SPLINE
5
1BD
100
AcDbEntity
8
1
62
256
6
ByLayer
370
13
48
1
60
0
100
AcDbSpline
70
4
71
3
72
8
73
4
40
0
40
0
40
0
40
0
40
1
40
1
40
1
40
1
41
1
10
52.7158957172693
20
9.48645578783794
30
0
41
1
10
52.8755545267195
20
9.48697220005593
30
0
41
1
10
53.0354150796997
20
9.52116494922794
30
0
41
1
10
53.1900286630425
20
9.56497603366438
30
0
0
SPLINE
5
1BE
100
AcDbEntity
8
1
62
256
6
ByLayer
370
13
48
1
60
0
100
AcDbSpline
70
4
71
3
72
8
73
4
40
0
40
0
40
0
40
0
40
1
40
1
40
1
40
1
41
1
10
52.3528986418118
20
9.4868594681308
30
0
41
1
10
52.4744062234274
20
9.49090962369365
30
0
41
1
10
52.5966210532665
20
9.48606999707397
30
0
41
1
10
52.7158957172706
20
9.48645578783612
30
0
0
SPLINE
5
1BF
100
AcDbEntity
8
1
62
256
6
ByLayer
370
13
48
1
60
0
100
AcDbSpline
70
4
71
3
72
8
73
4
40
0
40
0
40
0
40
0
40
1
40
1
40
1
40
1
41
1
10
52.0823771357601
20
9.50333672307809
30
0
41
1
10
52.1716495580755
20
9.48963514174548
30
0
41
1
10
52.2625883571385
20
9.48384919752024
30
0
41
1
10
52.3528986418103
20
9.48685946813038
30
0
0
SPLINE
5
1C0
100
AcDbEntity
8
1
62
256
6
ByLayer
370
13
48
1
60
0
100
AcDbSpline
70
4
71
3
72
14
73
10
40
0
40
0
40
0
40
0
40
0.102691686735347
40
0.102691686735347
40
0.53816841361549
40
0.53816841361549
40
0.926474667639871
40
0.926474667639871
40
1
40
1
40
1
40
1
41
1
10
50.9509720530678
20
9.60028381155033
30
0
41
1
10
50.980893999408
20
9.60352669466906
30
0
41
1
10
51.0122711139628
20
9.6057316613352
30
0
41
1
10
51.1807977171794
20
9.61241438821179
30
0
41
1
10
51.342161843352
20
9.60209976082984
30
0
41
1
10
51.6640413220707
20
9.56753394534596
30
0
41
1
10
51.8272620626366
20
9.54405495529056
30
0
41
1
10
52.0201021624027
20
9.51295801199529
30
0
41
1
10
52.0512578164011
20
9.50811293362739
30
0
41
1
10
52.0823771357602
20
9.50333672307821
30
0
0
SPLINE
5
1C1
100
AcDbEntity
8
1
62
256
6
ByLayer
370
13
48
1
60
0
100
AcDbSpline
70
4
71
3
72
8
73
4
40
0
40
0
40
0
40
0
40
1
40
1
40
1
40
1
41
1
10
50.8573483090604
20
9.59401927453263
30
0
41
1
10
50.8886707932501
20
9.59468562269382
30
0
41
1
10
50.9198681643653
20
9.59691283178677
30
0
41
1
10
50.9509720530678
20
9.60028381155033
30
0
0
SPLINE
5
1C2
100
AcDbEntity
8
1
62
256
6
ByLayer
370
13
48
1
60
0
100
AcDbSpline
70
4
71
3
72
10
73
6
40
0
40
0
40
0
40
0
40
0.436659189793396
40
0.436659189793396
40
1
40
1
40
1
40
1
41
1
10
50.6305156049705
20
9.8062711708626
30
0
41
1
10
50.6626760675876
20
9.77448677798313
30
0
41
1
10
50.6951835994714
20
9.74304868670544
30
0
41
1
10
50.7705662077347
20
9.67203303953573
30
0
41
1
10
50.8138220700954
20
9.6328254651429
30
0
41
1
10
50.8573483090634
20
9.59401927453192
30
0
0
SPLINE
5
1C3
100
AcDbEntity
8
1
62
256
6
ByLayer
370
13
48
1
60
0
100
AcDbSpline
70
4
71
3
72
10
73
6
40
0
40
0
40
0
40
0
40
0.73561768390405
40
0.73561768390405
40
1
40
1
40
1
40
1
41
1
10
50.6305156049705
20
9.8062711708626
30
0
41
1
10
50.6246851208416
20
9.81203347597742
30
0
41
1
10
50.6191348692197
20
9.81834601222394
30
0
41
1
10
50.61316259116
20
9.82712298892929
30
0
41
1
10
50.6117118978094
20
9.82950475361392
30
0
41
1
10
50.610489557918
20
9.83185405410816
30
0
0
SPLINE
5
1C4
100
AcDbEntity
8
1
62
256
6
ByLayer
370
13
48
1
60
0
100
AcDbSpline
70
4
71
3
72
8
73
4
40
0
40
0
40
0
40
0
40
1
40
1
40
1
40
1
41
1
10
50.610489557921
20
9.83185405411155
30
0
41
1
10
50.6176603296031
20
9.83831664745691
30
0
41
1
10
50.6247646325939
20
9.84478637568225
30
0
41
1
10
50.631795236158
20
9.85126368904278
30
0
0
SPLINE
5
1C5
100
AcDbEntity
8
1
62
256
6
ByLayer
370
13
48
1
60
0
100
AcDbSpline
70
4
71
3
72
12
73
8
40
0
40
0
40
0
40
0
40
0.233793069268613
40
0.233793069268613
40
0.849542984529965
40
0.849542984529965
40
1
40
1
40
1
40
1
41
1
10
50.610489557929
20
11.1681459458965
30
0
41
1
10
50.6115678802706
20
11.1702184489941
30
0
41
1
10
50.6128235703367
20
11.1723158151391
30
0
41
1
10
50.6177801949081
20
11.1797891721237
30
0
41
1
10
50.6222297367628
20
11.185129444746
30
0
41
1
10
50.6281198492317
20
11.1913255833098
30
0
41
1
10
50.6293089587678
20
11.1925362929033
30
0
41
1
10
50.6305156049705
20
11.1937288291374
30
0
0
SPLINE
5
1C6
100
AcDbEntity
8
1
62
256
6
ByLayer
370
13
48
1
60
0
100
AcDbSpline
70
4
71
3
72
10
73
6
40
0
40
0
40
0
40
0
40
0.436659189793399
40
0.436659189793399
40
1
40
1
40
1
40
1
41
1
10
50.6305156049705
20
11.1937288291374
30
0
41
1
10
50.6626760675876
20
11.2255132220169
30
0
41
1
10
50.6951835994714
20
11.2569513132946
30
0
41
1
10
50.7705662077347
20
11.3279669604643
30
0
41
1
10
50.8138220700954
20
11.3671745348571
30
0
41
1
10
50.8573483090634
20
11.4059807254681
30
0
0
SPLINE
5
1C7
100
AcDbEntity
8
1
62
256
6
ByLayer
370
13
48
1
60
0
100
AcDbSpline
70
4
71
3
72
8
73
4
40
0
40
0
40
0
40
0
40
1
40
1
40
1
40
1
41
1
10
50.8573483090604
20
11.4059807254674
30
0
41
1
10
50.8886707932501
20
11.4053143773062
30
0
41
1
10
50.9198681643653
20
11.4030871682133
30
0
41
1
10
50.9509720530678
20
11.3997161884497
30
0
0
SPLINE
5
1C8
100
AcDbEntity
8
1
62
256
6
ByLayer
370
13
48
1
60
0
100
AcDbSpline
70
4
71
3
72
14
73
10
40
0
40
0
40
0
40
0
40
0.102691686735347
40
0.102691686735347
40
0.53816841361549
40
0.53816841361549
40
0.926474667639871
40
0.926474667639871
40
1
40
1
40
1
40
1
41
1
10
50.9509720530678
20
11.3997161884497
30
0
41
1
10
50.980893999408
20
11.396473305331
30
0
41
1
10
51.0122711139628
20
11.3942683386648
30
0
41
1
10
51.1807977171794
20
11.3875856117882
30
0
41
1
10
51.342161843352
20
11.3979002391702
30
0
41
1
10
51.6640413220707
20
11.4324660546541
30
0
41
1
10
51.8272620626366
20
11.4559450447095
30
0
41
1
10
52.0201021624027
20
11.4870419880047
30
0
41
1
10
52.0512578164011
20
11.4918870663726
30
0
41
1
10
52.0823771357602
20
11.4966632769218
30
0
0
SPLINE
5
1C9
100
AcDbEntity
8
1
62
256
6
ByLayer
370
13
48
1
60
0
100
AcDbSpline
70
4
71
3
72
8
73
4
40
0
40
0
40
0
40
0
40
1
40
1
40
1
40
1
41
1
10
52.0823771357601
20
11.4966632769219
30
0
41
1
10
52.1716495580755
20
11.5103648582545
30
0
41
1
10
52.2625883571385
20
11.5161508024798
30
0
41
1
10
52.3528986418103
20
11.5131405318697
30
0
0
SPLINE
5
1CA
100
AcDbEntity
8
1
62
256
6
ByLayer
370
13
48
1
60
0
100
AcDbSpline
70
4
71
3
72
8
73
4
40
0
40
0
40
0
40
0
40
1
40
1
40
1
40
1
41
1
10
52.3528986418118
20
11.5131405318692
30
0
41
1
10
52.4744062234274
20
11.5090903763064
30
0
41
1
10
52.5966210532665
20
11.5139300029261
30
0
41
1
10
52.7158957172706
20
11.5135442121639
30
0
0
SPLINE
5
1CB
100
AcDbEntity
8
1
62
256
6
ByLayer
370
13
48
1
60
0
100
AcDbSpline
70
4
71
3
72
8
73
4
40
0
40
0
40
0
40
0
40
1
40
1
40
1
40
1
41
1
10
52.7158957172693
20
11.5135442121621
30
0
41
1
10
52.8755545267195
20
11.5130277999441
30
0
41
1
10
53.0354150796997
20
11.4788350507721
30
0
41
1
10
53.1900286630425
20
11.4350239663357
30
0
0
SPLINE
5
1CC
100
AcDbEntity
8
1
62
256
6
ByLayer
370
13
48
1
60
0
100
AcDbSpline
70
4
71
3
72
8
73
4
40
0
40
0
40
0
40
0
40
1
40
1
40
1
40
1
41
1
10
53.1900286630424
20
11.4350239663357
30
0
41
1
10
53.234090020669
20
11.4083609984288
30
0
41
1
10
53.2778395366007
20
11.3811841798813
30
0
41
1
10
53.3213895076228
20
11.3536987770377
30
0
0
SPLINE
5
1CD
100
AcDbEntity
8
1
62
256
6
ByLayer
370
13
48
1
60
0
100
AcDbSpline
70
4
71
3
72
12
73
8
40
0
40
0
40
0
40
0
40
0.178891096392299
40
0.178891096392299
40
0.986291642516443
40
0.986291642516443
40
1
40
1
40
1
40
1
41
1
10
53.3213895076228
20
11.3536987770377
30
0
41
1
10
53.3003115269679
20
11.3545351180849
30
0
41
1
10
53.2792221384665
20
11.3553781384348
30
0
41
1
10
53.1629014296375
20
11.3600668305064
30
0
41
1
10
53.0679540502601
20
11.3657104928003
30
0
41
1
10
52.9689156735317
20
11.3701542689346
30
0
41
1
10
52.9672607449414
20
11.3702255018402
30
0
41
1
10
52.9656057053218
20
11.3702937355133
30
0
0
SPLINE
5
1CE
100
AcDbEntity
8
1
62
256
6
ByLayer
370
13
48
1
60
0
100
AcDbSpline
70
4
71
3
72
12
73
8
40
0
40
0
40
0
40
0
40
0.609383607480292
40
0.609383607480292
40
0.614539779329414
40
0.614539779329414
40
1
40
1
40
1
40
1
41
1
10
52.9656057053218
20
11.3702937355133
30
0
41
1
10
52.8600213620048
20
11.3746467476634
30
0
41
1
10
52.7496097970341
20
11.3789762006416
30
0
41
1
10
52.6373081383666
20
11.3832477127722
30
0
41
1
10
52.6363601843112
20
11.3832837679089
30
0
41
1
10
52.5647049543389
20
11.3860090669241
30
0
41
1
10
52.4932165299022
20
11.3888089228607
30
0
41
1
10
52.4219297662852
20
11.3912955122489
30
0
0
SPLINE
5
1CF
100
AcDbEntity
8
1
62
256
6
ByLayer
370
13
48
1
60
0
100
AcDbSpline
70
4
71
3
72
16
73
12
40
0
40
0
40
0
40
0
40
0.0442199247554627
40
0.0442199247554627
40
0.048439955548864
40
0.048439955548864
40
0.216895358525141
40
0.216895358525141
40
0.889245809546153
40
0.889245809546153
40
1
40
1
40
1
40
1
41
1
10
52.4219297662852
20
11.3912955122489
30
0
41
1
10
52.4113300785451
20
11.3916652452781
30
0
41
1
10
52.4007291289449
20
11.3919965677046
30
0
41
1
10
52.3891179461187
20
11.3924033575066
30
0
41
1
10
52.3881063966876
20
11.3924389247097
30
0
41
1
10
52.3467182945273
20
11.3938990834114
30
0
41
1
10
52.3063476610928
20
11.3957952769959
30
0
41
1
10
52.1067119730517
20
11.4025387130352
30
0
41
1
10
51.9453726295507
20
11.3815925254052
30
0
41
1
10
51.7656324617667
20
11.334111872399
30
0
41
1
10
51.7400997197492
20
11.3269429593315
30
0
41
1
10
51.7146869282979
20
11.3193842198353
30
0
0
SPLINE
5
1D0
100
AcDbEntity
8
1
62
256
6
ByLayer
370
13
48
1
60
0
100
AcDbSpline
70
4
71
3
72
12
73
8
40
0
40
0
40
0
40
0
40
0.274450233641753
40
0.274450233641753
40
0.728710906931611
40
0.728710906931611
40
1
40
1
40
1
40
1
41
1
10
51.7146869282979
20
11.3193842198353
30
0
41
1
10
51.6122143236957
20
11.2889049344263
30
0
41
1
10
51.509497462749
20
11.2585576137446
30
0
41
1
10
51.2439453836002
20
11.1804224140221
30
0
41
1
10
51.0820473482734
20
11.1331292282365
30
0
41
1
10
50.846079380226
20
11.0640519317749
30
0
41
1
10
50.7617198878048
20
11.0394840952045
30
0
41
1
10
50.6838678419132
20
11.0162732843471
30
0
0
SPLINE
5
1D1
100
AcDbEntity
8
1
62
256
6
ByLayer
370
13
48
1
60
0
100
AcDbSpline
70
4
71
3
72
10
73
6
40
0
40
0
40
0
40
0
40
0.659159716151023
40
0.659159716151023
40
1
40
1
40
1
40
1
41
1
10
50.6838678419132
20
11.0162732843471
30
0
41
1
10
50.6859020371366
20
11.053891323754
30
0
41
1
10
50.6777349617728
20
11.0862591638257
30
0
41
1
10
50.6536893544428
20
11.1257793063447
30
0
41
1
10
50.6434984870353
20
11.1379540754665
30
0
41
1
10
50.631795236158
20
11.1487363109573
30
0
0
SPLINE
5
1D2
100
AcDbEntity
8
1
62
256
6
ByLayer
370
13
48
1
60
0
100
AcDbSpline
70
4
71
3
72
8
73
4
40
0
40
0
40
0
40
0
40
1
40
1
40
1
40
1
41
1
10
50.631795236158
20
11.1487363109573
30
0
41
1
10
50.6247646325939
20
11.1552136243178
30
0
41
1
10
50.6176603296031
20
11.1616833525431
30
0
41
1
10
50.610489557921
20
11.1681459458885
30
0
0
SPLINE
5
1D3
100
AcDbEntity
8
1
62
256
6
ByLayer
370
13
48
1
60
0
100
AcDbSpline
70
4
71
3
72
8
73
4
40
0
40
0
40
0
40
0
40
1
40
1
40
1
40
1
41
1
10
50.7169741247547
20
9.43515530078398
30
0
41
1
10
50.6355486668608
20
9.50455068038403
30
0
41
1
10
50.5571073551695
20
9.57747945800563
30
0
41
1
10
50.4804455603128
20
9.6521038046522
30
0
0
SPLINE
5
1D4
100
AcDbEntity
8
1
62
256
6
ByLayer
370
13
48
1
60
0
100
AcDbSpline
70
4
71
3
72
8
73
4
40
0
40
0
40
0
40
0
40
1
40
1
40
1
40
1
41
1
10
50.7169741247547
20
11.564844699216
30
0
41
1
10
50.6355486668608
20
11.495449319616
30
0
41
1
10
50.5571073551695
20
11.4225205419944
30
0
41
1
10
50.4804455603128
20
11.3478961953478
30
0
0
SPLINE
5
1D5
100
AcDbEntity
8
1
62
256
6
ByLayer
370
13
48
1
60
0
100
AcDbSpline
70
4
71
3
72
12
73
8
40
0
40
0
40
0
40
0
40
0.46817896742225
40
0.46817896742225
40
0.899165978787896
40
0.899165978787896
40
1
40
1
40
1
40
1
41
1
10
52.0587805434612
20
11.6644241853511
30
0
41
1
10
51.8775060355049
20
11.6359004882466
30
0
41
1
10
51.6936117660435
20
11.601118270204
30
0
41
1
10
51.3658158689767
20
11.5574653627291
30
0
41
1
10
51.2153724323278
20
11.5433983198627
30
0
41
1
10
51.0560286247614
20
11.5446525221278
30
0
41
1
10
51.0264524991724
20
11.5457520960094
30
0
41
1
10
50.9981203716814
20
11.5478480284314
30
0
0
SPLINE
5
1D6
100
AcDbEntity
8
1
62
256
6
ByLayer
370
13
48
1
60
0
100
AcDbSpline
70
4
71
3
72
12
73
8
40
0
40
0
40
0
40
0
40
0.46817896742225
40
0.46817896742225
40
0.899165978787896
40
0.899165978787896
40
1
40
1
40
1
40
1
41
1
10
52.0587805434612
20
9.33557581464888
30
0
41
1
10
51.8775060355049
20
9.36409951175344
30
0
41
1
10
51.6936117660435
20
9.39888172979605
30
0
41
1
10
51.3658158689767
20
9.44253463727091
30
0
41
1
10
51.2153724323278
20
9.45660168013728
30
0
41
1
10
51.0560286247614
20
9.45534747787221
30
0
41
1
10
51.0264524991724
20
9.45424790399065
30
0
41
1
10
50.9981203716814
20
9.45215197156864
30
0
0
SPLINE
5
1D7
100
AcDbEntity
8
1
62
256
6
ByLayer
370
13
48
1
60
0
100
AcDbSpline
70
4
71
3
72
10
73
6
40
0
40
0
40
0
40
0
40
0.132191617121101
40
0.132191617121101
40
1
40
1
40
1
40
1
41
1
10
50.8573483090604
20
9.59401927453263
30
0
41
1
10
50.8564468305522
20
9.59305405934217
30
0
41
1
10
50.85552642843
20
9.59206336303708
30
0
41
1
10
50.8484541077129
20
9.5844123395128
30
0
41
1
10
50.8414978788606
20
9.57667080629327
30
0
41
1
10
50.8339180002563
20
9.56804139100487
30
0
0
SPLINE
5
1D8
100
AcDbEntity
8
1
62
256
6
ByLayer
370
13
48
1
60
0
100
AcDbSpline
70
4
71
3
72
14
73
10
40
0
40
0
40
0
40
0
40
0.447953066725052
40
0.447953066725052
40
0.912809598186729
40
0.912809598186729
40
0.983423615312508
40
0.983423615312508
40
1
40
1
40
1
40
1
41
1
10
50.8339180002563
20
9.56804139100427
30
0
41
1
10
50.8203040290404
20
9.55254238135404
30
0
41
1
10
50.80401541129
20
9.53400924865821
30
0
41
1
10
50.7683740707567
20
9.49349492029785
30
0
41
1
10
50.7483538761323
20
9.47075682721558
30
0
41
1
10
50.7253006224606
20
9.44460030707739
30
0
41
1
10
50.7222095971505
20
9.4410937049565
30
0
41
1
10
50.7184037038144
20
9.43677675969059
30
0
41
1
10
50.7176888999301
20
9.43596602775042
30
0
41
1
10
50.7169741247485
20
9.43515530078506
30
0
0
SPLINE
5
1D9
100
AcDbEntity
8
1
62
256
6
ByLayer
370
13
48
1
60
0
100
AcDbSpline
70
4
71
3
72
14
73
10
40
0
40
0
40
0
40
0
40
0.447953066725053
40
0.447953066725053
40
0.912809598186729
40
0.912809598186729
40
0.983423615312508
40
0.983423615312508
40
1
40
1
40
1
40
1
41
1
10
50.8339180002563
20
11.4319586089958
30
0
41
1
10
50.8203040290404
20
11.447457618646
30
0
41
1
10
50.80401541129
20
11.4659907513418
30
0
41
1
10
50.7683740707567
20
11.5065050797022
30
0
41
1
10
50.7483538761323
20
11.5292431727845
30
0
41
1
10
50.7253006224606
20
11.5553996929226
30
0
41
1
10
50.7222095971505
20
11.5589062950435
30
0
41
1
10
50.7184037038144
20
11.5632232403094
30
0
41
1
10
50.7176888999301
20
11.5640339722496
30
0
41
1
10
50.7169741247485
20
11.564844699215
30
0
0
SPLINE
5
1DA
100
AcDbEntity
8
1
62
256
6
ByLayer
370
13
48
1
60
0
100
AcDbSpline
70
4
71
3
72
10
73
6
40
0
40
0
40
0
40
0
40
0.132191617121101
40
0.132191617121101
40
1
40
1
40
1
40
1
41
1
10
50.8573483090604
20
11.4059807254674
30
0
41
1
10
50.8564468305522
20
11.4069459406579
30
0
41
1
10
50.85552642843
20
11.4079366369629
30
0
41
1
10
50.8484541077129
20
11.4155876604872
30
0
41
1
10
50.8414978788606
20
11.4233291937068
30
0
41
1
10
50.8339180002563
20
11.4319586089952
30
0
0
SPLINE
5
1DB
100
AcDbEntity
8
1
62
256
6
ByLayer
370
13
48
1
60
0
100
AcDbSpline
70
4
71
3
72
12
73
8
40
0
40
0
40
0
40
0
40
0.559278359968975
40
0.559278359968975
40
0.982064699130975
40
0.982064699130975
40
1
40
1
40
1
40
1
41
1
10
50.4655988415542
20
9.80299237657769
30
0
41
1
10
50.4639058993619
20
9.83519193784551
30
0
41
1
10
50.4615176185074
20
9.86436691248193
30
0
41
1
10
50.4565061637905
20
9.90536495386479
30
0
41
1
10
50.4540306406306
20
9.92010754028419
30
0
41
1
10
50.4512781291035
20
9.93148078708828
30
0
41
1
10
50.4511665651817
20
9.93193389479356
30
0
41
1
10
50.4510546870628
20
9.9323804861462
30
0
0
SPLINE
5
1DC
100
AcDbEntity
8
1
62
256
6
ByLayer
370
13
48
1
60
0
100
AcDbSpline
70
4
71
3
72
10
73
6
40
0
40
0
40
0
40
0
40
0.709641074204652
40
0.709641074204652
40
1
40
1
40
1
40
1
41
1
10
50.4804455603128
20
9.6521038046522
30
0
41
1
10
50.4753414889782
20
9.68896801140798
30
0
41
1
10
50.4711861437204
20
9.72660582344645
30
0
41
1
10
50.4672412502849
20
9.77560709751484
30
0
41
1
10
50.4663022439904
20
9.78961374501313
30
0
41
1
10
50.4655988415525
20
9.80299237657775
30
0
0
SPLINE
5
1DD
100
AcDbEntity
8
1
62
256
6
ByLayer
370
13
48
1
60
0
100
AcDbSpline
70
4
71
3
72
12
73
8
40
0
40
0
40
0
40
0
40
0.135507654329451
40
0.135507654329451
40
0.742115377580087
40
0.742115377580087
40
1
40
1
40
1
40
1
41
1
10
50.4804455603128
20
11.3478961953478
30
0
41
1
10
50.4794577311545
20
11.3407615892772
30
0
41
1
10
50.4785068164279
20
11.3336173270179
30
0
41
1
10
50.4735694178171
20
11.2949649545596
30
0
41
1
10
50.4702919601627
20
11.2632943509395
30
0
41
1
10
50.4670296012879
20
11.2212005106124
30
0
41
1
10
50.4662219824782
20
11.2088596904496
30
0
41
1
10
50.4655988415537
20
11.1970076234223
30
0
0
SPLINE
5
1DE
100
AcDbEntity
8
1
62
256
6
ByLayer
370
13
48
1
60
0
100
AcDbSpline
70
4
71
3
72
14
73
10
40
0
40
0
40
0
40
0
40
0.0177509856471946
40
0.0177509856471946
40
0.340726860481444
40
0.340726860481444
40
0.792711195890233
40
0.792711195890233
40
1
40
1
40
1
40
1
41
1
10
50.4510546870628
20
11.0676195138538
30
0
41
1
10
50.4511665651505
20
11.0680661052062
30
0
41
1
10
50.4512781289784
20
11.068519212911
30
0
41
1
10
50.4534062656342
20
11.0773125699555
30
0
41
1
10
50.455323964045
20
11.0878473759761
30
0
41
1
10
50.4595178404373
20
11.1174589617602
30
0
41
1
10
50.4616827821098
20
11.1386293781372
30
0
41
1
10
50.4642384176627
20
11.1733468777279
30
0
41
1
10
50.4649648606851
20
11.1849493819012
30
0
41
1
10
50.4655988415542
20
11.1970076234224
30
0
0
SPLINE
5
1DF
100
AcDbEntity
8
1
62
256
6
ByLayer
370
13
48
1
60
0
100
AcDbSpline
70
4
71
3
72
18
73
14
40
0
40
0
40
0
40
0
40
0.10212592206704
40
0.10212592206704
40
0.219798180864097
40
0.219798180864097
40
0.395678331134856
40
0.395678331134856
40
0.733655817510089
40
0.733655817510089
40
0.802063348489368
40
0.802063348489368
40
1
40
1
40
1
40
1
41
1
10
50.0559779585026
20
9.6732443225489
30
0
41
1
10
50.0564416368177
20
9.68652395278019
30
0
41
1
10
50.05608929913
20
9.69988304742867
30
0
41
1
10
50.0536446728814
20
9.72811536927799
30
0
41
1
10
50.0512850832915
20
9.74304789355728
30
0
41
1
10
50.0431564052165
20
9.77879844137541
30
0
41
1
10
50.0362096466949
20
9.7992266547455
30
0
41
1
10
50.0118798067115
20
9.85346644067832
30
0
41
1
10
49.9902866995539
20
9.88384818013495
30
0
41
1
10
49.9616240935597
20
9.91280606666726
30
0
41
1
10
49.956622989345
20
9.91750541354418
30
0
41
1
10
49.9368310070575
20
9.93483588450326
30
0
41
1
10
49.9212866355731
20
9.94578085370665
30
0
41
1
10
49.9052940680712
20
9.95482687762109
30
0
0
SPLINE
5
1E0
100
AcDbEntity
8
1
62
256
6
ByLayer
370
13
48
1
60
0
100
AcDbSpline
70
4
71
3
72
14
73
10
40
0
40
0
40
0
40
0
40
0.447954004797037
40
0.447954004797037
40
0.912810038934036
40
0.912810038934036
40
0.983423779130199
40
0.983423779130199
40
1
40
1
40
1
40
1
41
1
10
50.8933275812136
20
9.45046954405078
30
0
41
1
10
50.8727755286919
20
9.44868460397245
30
0
41
1
10
50.8481939779357
20
9.44654978992466
30
0
41
1
10
50.7944355442363
20
9.44188138166371
30
0
41
1
10
50.7642532997474
20
9.43926049606551
30
0
41
1
10
50.7295181484127
20
9.436244469748
30
0
41
1
10
50.7248611889835
20
9.43584011371499
30
0
41
1
10
50.7191276857054
20
9.435342288302
30
0
41
1
10
50.7180508939063
20
9.43524879367087
30
0
41
1
10
50.7169741247543
20
9.43515530078392
30
0
0
SPLINE
5
1E1
100
AcDbEntity
8
1
62
256
6
ByLayer
370
13
48
1
60
0
100
AcDbSpline
70
4
71
3
72
14
73
10
40
0
40
0
40
0
40
0
40
0.447954004797037
40
0.447954004797037
40
0.912810038934036
40
0.912810038934036
40
0.983423779130199
40
0.983423779130199
40
1
40
1
40
1
40
1
41
1
10
50.8933275812136
20
11.5495304559493
30
0
41
1
10
50.8727755286919
20
11.5513153960276
30
0
41
1
10
50.8481939779357
20
11.5534502100754
30
0
41
1
10
50.7944355442363
20
11.5581186183363
30
0
41
1
10
50.7642532997474
20
11.5607395039345
30
0
41
1
10
50.7295181484127
20
11.563755530252
30
0
41
1
10
50.7248611889835
20
11.564159886285
30
0
41
1
10
50.7191276857054
20
11.564657711698
30
0
41
1
10
50.7180508939063
20
11.5647512063292
30
0
41
1
10
50.7169741247543
20
11.5648446992161
30
0
0
SPLINE
5
1E2
100
AcDbEntity
8
1
62
256
6
ByLayer
370
13
48
1
60
0
100
AcDbSpline
70
4
71
3
72
12
73
8
40
0
40
0
40
0
40
0
40
0.356479833160399
40
0.356479833160399
40
0.824168720346733
40
0.824168720346733
40
1
40
1
40
1
40
1
41
1
10
50.464378753796
20
11.0563103127401
30
0
41
1
10
50.4767763033464
20
11.0497973135484
30
0
41
1
10
50.4880463981536
20
11.0422012362094
30
0
41
1
10
50.5095864832785
20
11.0216848911678
30
0
41
1
10
50.5185295226104
20
11.0075051064431
30
0
41
1
10
50.5240732667399
20
10.9847995599249
30
0
41
1
10
50.5249217874922
20
10.9781840176501
30
0
41
1
10
50.5250392603487
20
10.9712889523047
30
0
0
SPLINE
5
1E3
100
AcDbEntity
8
1
62
256
6
ByLayer
370
13
48
1
60
0
100
AcDbSpline
70
4
71
3
72
12
73
8
40
0
40
0
40
0
40
0
40
0.443558069836982
40
0.443558069836982
40
0.507222026557664
40
0.507222026557664
40
1
40
1
40
1
40
1
41
1
10
50.5250392603487
20
10.9712889523047
30
0
41
1
10
50.525625933741
20
10.9368541773395
30
0
41
1
10
50.5334575781989
20
10.8959258149453
30
0
41
1
10
50.5513800260717
20
10.8473840694133
30
0
41
1
10
50.5538277204396
20
10.8411593449478
30
0
41
1
10
50.576282853545
20
10.7873965381696
30
0
41
1
10
50.606340828125
20
10.7374991266033
30
0
41
1
10
50.6439598709927
20
10.6923814842148
30
0
0
SPLINE
5
1E4
100
AcDbEntity
8
1
62
256
6
ByLayer
370
13
48
1
60
0
100
AcDbSpline
70
4
71
3
72
18
73
14
40
0
40
0
40
0
40
0
40
0.262962488711577
40
0.262962488711577
40
0.43136352889061
40
0.43136352889061
40
0.488169625072958
40
0.488169625072958
40
0.652801403480982
40
0.652801403480982
40
0.712254155913291
40
0.712254155913291
40
1
40
1
40
1
40
1
41
1
10
50.6439598709927
20
10.6923814842148
30
0
41
1
10
50.6671201854563
20
10.6646046269139
30
0
41
1
10
50.6885389915201
20
10.6338433449175
30
0
41
1
10
50.713950371308
20
10.5779105161366
30
0
41
1
10
50.7214580237961
20
10.5542075721608
30
0
41
1
10
50.7259784141927
20
10.5217121666594
30
0
41
1
10
50.7266641796623
20
10.5133436996627
30
0
41
1
10
50.7274106952604
20
10.4810784942355
30
0
41
1
10
50.72374714007
20
10.456770657581
30
0
41
1
10
50.7143596854291
20
10.4258342117683
30
0
41
1
10
50.7114227244077
20
10.4176956184357
30
0
41
1
10
50.6925277493289
20
10.3718861575124
30
0
41
1
10
50.6692256559174
20
10.337920526735
30
0
41
1
10
50.6439598709998
20
10.3076185157938
30
0
0
SPLINE
5
1E5
100
AcDbEntity
8
1
62
256
6
ByLayer
370
13
48
1
60
0
100
AcDbSpline
70
4
71
3
72
12
73
8
40
0
40
0
40
0
40
0
40
0.0695374380305743
40
0.0695374380305743
40
0.564718845075643
40
0.564718845075643
40
1
40
1
40
1
40
1
41
1
10
50.6439598709998
20
10.3076185157938
30
0
41
1
10
50.6385610813285
20
10.3011435859938
30
0
41
1
10
50.6333230650435
20
10.2945890364697
30
0
41
1
10
50.5927993674551
20
10.2416736918414
30
0
41
1
10
50.5653523725794
20
10.1912111459125
30
0
41
1
10
50.5331669750442
20
10.1025882328152
30
0
41
1
10
50.5256153955241
20
10.0625272823779
30
0
41
1
10
50.5250392603487
20
10.0287110476954
30
0
0
SPLINE
5
1E6
100
AcDbEntity
8
1
62
256
6
ByLayer
370
13
48
1
60
0
100
AcDbSpline
70
4
71
3
72
10
73
6
40
0
40
0
40
0
40
0
40
0.323499890762715
40
0.323499890762715
40
1
40
1
40
1
40
1
41
1
10
50.5250392603487
20
10.0287110476954
30
0
41
1
10
50.5248229895013
20
10.0160170376031
30
0
41
1
10
50.5221009308091
20
10.0042534733332
30
0
41
1
10
50.5072698303882
20
9.9723139254817
30
0
41
1
10
50.4876680100064
20
9.95592459757478
30
0
41
1
10
50.464378753796
20
9.94368968725993
30
0
0
SPLINE
5
1E7
100
AcDbEntity
8
1
62
256
6
ByLayer
370
13
48
1
60
0
100
AcDbSpline
70
4
71
3
72
12
73
8
40
0
40
0
40
0
40
0
40
0.833271550695841
40
0.833271550695841
40
0.924873187913958
40
0.924873187913958
40
1
40
1
40
1
40
1
41
1
10
49.6610166945645
20
10.0059117968517
30
0
41
1
10
49.6544754484441
20
10.0404291002036
30
0
41
1
10
49.6449923927373
20
10.08310332067
30
0
41
1
10
49.640181068922
20
10.1364330658111
30
0
41
1
10
49.6397613475273
20
10.1418526944414
30
0
41
1
10
49.6391308505303
20
10.1518368338206
30
0
41
1
10
49.6388959908553
20
10.1563811081072
30
0
41
1
10
49.6387159227923
20
10.160967036757
30
0
0
SPLINE
5
1E8
100
AcDbEntity
8
1
62
256
6
ByLayer
370
13
48
1
60
0
100
AcDbSpline
70
4
71
3
72
8
73
4
40
0
40
0
40
0
40
0
40
1
40
1
40
1
40
1
41
1
10
49.6387159227923
20
10.160967036757
30
0
41
1
10
49.659987312203
20
10.1671057584704
30
0
41
1
10
49.6815114137464
20
10.1728477880506
30
0
41
1
10
49.7032105368037
20
10.1782243746423
30
0
0
SPLINE
5
1E9
100
AcDbEntity
8
1
62
256
6
ByLayer
370
13
48
1
60
0
100
AcDbSpline
70
4
71
3
72
8
73
4
40
0
40
0
40
0
40
0
40
1
40
1
40
1
40
1
41
1
10
49.7032105368034
20
10.178224374644
30
0
41
1
10
49.7062783445422
20
10.1789845129183
30
0
41
1
10
49.7093468504694
20
10.1797445572484
30
0
41
1
10
49.7124160421627
20
10.1805045089328
30
0
0
SPLINE
5
1EA
100
AcDbEntity
8
1
62
256
6
ByLayer
370
13
48
1
60
0
100
AcDbSpline
70
4
71
3
72
26
73
22
40
0
40
0
40
0
40
0
40
0.0783346115779722
40
0.0783346115779722
40
0.229067417424992
40
0.229067417424992
40
0.361148737487712
40
0.361148737487712
40
0.451044286208709
40
0.451044286208709
40
0.480076288213215
40
0.480076288213215
40
0.580804987892491
40
0.580804987892491
40
0.598553408472289
40
0.598553408472289
40
0.721865021031447
40
0.721865021031447
40
0.852573440596253
40
0.852573440596253
40
1
40
1
40
1
40
1
41
1
10
49.7124160421627
20
10.1805045089328
30
0
41
1
10
49.7363716105935
20
10.186436062384
30
0
41
1
10
49.7598327503349
20
10.193841329357
30
0
41
1
10
49.8253859658396
20
10.220099170392
30
0
41
1
10
49.8659116446279
20
10.2436989501763
30
0
41
1
10
49.9301656555827
20
10.3006515673917
30
0
41
1
10
49.9562012292316
20
10.3333707503135
30
0
41
1
10
49.9871009177855
20
10.3957730532854
30
0
41
1
10
49.9963228169934
20
10.4237818841851
30
0
41
1
10
50.0026526489823
20
10.4618523884057
30
0
41
1
10
50.0037565534503
20
10.4713529332155
30
0
41
1
10
50.006535622122
20
10.5133512575901
30
0
41
1
10
50.0029896944569
20
10.5469005497512
30
0
41
1
10
49.9928135335291
20
10.5834393763355
30
0
41
1
10
49.9911033398723
20
10.5889415381171
30
0
41
1
10
49.9765578244499
20
10.6313208818072
30
0
41
1
10
49.9563208175635
20
10.6654000053893
30
0
41
1
10
49.9056247831178
20
10.7243019219483
30
0
41
1
10
49.873851925294
20
10.7495852858509
30
0
41
1
10
49.8004676930902
20
10.7920558754541
30
0
41
1
10
49.7571805456305
20
10.8084115109145
30
0
41
1
10
49.7124160421627
20
10.8194954910672
30
0
0
SPLINE
5
1EB
100
AcDbEntity
8
1
62
256
6
ByLayer
370
13
48
1
60
0
100
AcDbSpline
70
4
71
3
72
8
73
4
40
0
40
0
40
0
40
0
40
1
40
1
40
1
40
1
41
1
10
49.7124160421627
20
10.8194954910672
30
0
41
1
10
49.7093468504694
20
10.8202554427517
30
0
41
1
10
49.7062783445422
20
10.8210154870818
30
0
41
1
10
49.7032105368033
20
10.8217756253561
30
0
0
SPLINE
5
1EC
100
AcDbEntity
8
1
62
256
6
ByLayer
370
13
48
1
60
0
100
AcDbSpline
70
4
71
3
72
8
73
4
40
0
40
0
40
0
40
0
40
1
40
1
40
1
40
1
41
1
10
49.7032105368033
20
10.8217756253561
30
0
41
1
10
49.681511413746
20
10.8271522119478
30
0
41
1
10
49.6599873122031
20
10.8328942415314
30
0
41
1
10
49.6387159227924
20
10.8390329632449
30
0
0
SPLINE
5
1ED
100
AcDbEntity
8
1
62
256
6
ByLayer
370
13
48
1
60
0
100
AcDbSpline
70
4
71
3
72
10
73
6
40
0
40
0
40
0
40
0
40
0.0748872813144652
40
0.0748872813144652
40
1
40
1
40
1
40
1
41
1
10
49.6387159227923
20
10.8390329632431
30
0
41
1
10
49.6388959908553
20
10.8436188918928
30
0
41
1
10
49.6391308505303
20
10.8481631661795
30
0
41
1
10
49.6428644178648
20
10.9072855043127
30
0
41
1
10
49.6537561749332
20
10.9557753872119
30
0
41
1
10
49.6610166945642
20
10.9940882031468
30
0
0
SPLINE
5
1EE
100
AcDbEntity
8
1
62
256
6
ByLayer
370
13
48
1
60
0
100
AcDbSpline
70
4
71
3
72
20
73
16
40
0
40
0
40
0
40
0
40
0.114266316237489
40
0.114266316237489
40
0.331231960429442
40
0.331231960429442
40
0.599155656755157
40
0.599155656755157
40
0.722874848940947
40
0.722874848940947
40
0.871512516236653
40
0.871512516236653
40
0.967654963824484
40
0.967654963824484
40
1
40
1
40
1
40
1
41
1
10
49.9052940680729
20
11.0451731223785
30
0
41
1
10
49.9145383163395
20
11.0504020320504
30
0
41
1
10
49.9236231348746
20
11.056259082421
30
0
41
1
10
49.9492280670811
20
11.0750317848484
30
0
41
1
10
49.965276744252
20
11.0896836944638
30
0
41
1
10
49.9980286906964
20
11.1275728816048
30
0
41
1
10
50.0143711478299
20
11.152468172238
30
0
41
1
10
50.0331414661541
20
11.1937696378455
30
0
41
1
10
50.0383907764822
20
11.2077143366655
30
0
41
1
10
50.047858461063
20
11.2396537849836
30
0
41
1
10
50.0517121178798
20
11.2581176853739
30
0
41
1
10
50.0553663096761
20
11.2891794188243
30
0
41
1
10
50.0561297476895
20
11.3016546428683
30
0
41
1
10
50.056190626378
20
11.3183324966693
30
0
41
1
10
50.0561249332387
20
11.3225463580113
30
0
41
1
10
50.0559779585028
20
11.3267556774511
30
0
0
SPLINE
5
1EF
100
AcDbEntity
8
1
62
256
6
ByLayer
370
13
48
1
60
0
100
AcDbSpline
70
4
71
3
72
16
73
12
40
0
40
0
40
0
40
0
40
0.249954056036558
40
0.249954056036558
40
0.699484194384015
40
0.699484194384015
40
0.851133931227642
40
0.851133931227642
40
0.935108677236773
40
0.935108677236773
40
1
40
1
40
1
40
1
41
1
10
49.8267110292774
20
9.77310250349541
30
0
41
1
10
49.8427048966234
20
9.76955099930473
30
0
41
1
10
49.8585947536485
20
9.76536809473089
30
0
41
1
10
49.9021970348682
20
9.75143251340032
30
0
41
1
10
49.9302297071817
20
9.7402285923954
30
0
41
1
10
49.9625570510524
20
9.7167806805129
30
0
41
1
10
49.9704121947256
20
9.70993493754867
30
0
41
1
10
49.9801629147231
20
9.69717885077819
30
0
41
1
10
49.9831940821262
20
9.69209224683894
30
0
41
1
10
49.9866841498693
20
9.68237019329663
30
0
41
1
10
49.9875739298375
20
9.67777995505844
30
0
41
1
10
49.9875739298375
20
9.6732443225489
30
0
0
SPLINE
5
1F0
100
AcDbEntity
8
1
62
256
6
ByLayer
370
13
48
1
60
0
100
AcDbSpline
70
4
71
3
72
20
73
16
40
0
40
0
40
0
40
0
40
0.0199906994069362
40
0.0199906994069362
40
0.0825919577440876
40
0.0825919577440876
40
0.195169299288357
40
0.195169299288357
40
0.306011529795777
40
0.306011529795777
40
0.591177675589546
40
0.591177675589546
40
0.85412822131223
40
0.85412822131223
40
1
40
1
40
1
40
1
41
1
10
49.9875739298376
20
11.3267556774511
30
0
41
1
10
49.9875739298376
20
11.3253441526498
30
0
41
1
10
49.9874914943693
20
11.3239301267546
30
0
41
1
10
49.9868329759385
20
11.3181971297719
30
0
41
1
10
49.9855574593884
20
11.3139281508097
30
0
41
1
10
49.9806296077618
20
11.3029621411123
30
0
41
1
10
49.9758782533064
20
11.2967136404374
30
0
41
1
10
49.9654630806491
20
11.2858548958313
30
0
41
1
10
49.959676381482
20
11.2810825901767
30
0
41
1
10
49.9382455610535
20
11.2657169261784
30
0
41
1
10
49.9211325656859
20
11.2573387132872
30
0
41
1
10
49.8877211729543
20
11.2437524351854
30
0
41
1
10
49.8712362948113
20
11.238380649353
30
0
41
1
10
49.8453568251732
20
11.2312641952955
30
0
41
1
10
49.8360536989462
20
11.228972074827
30
0
41
1
10
49.8267110292773
20
11.2268974965045
30
0
0
SPLINE
5
1F1
100
AcDbEntity
8
1
62
256
6
ByLayer
370
13
48
1
60
0
100
AcDbSpline
70
4
71
3
72
14
73
10
40
0
40
0
40
0
40
0
40
0.0177534078899156
40
0.0177534078899156
40
0.340744812432132
40
0.340744812432132
40
0.785966596962005
40
0.785966596962005
40
1
40
1
40
1
40
1
41
1
10
50.4510546870628
20
11.0676195138538
30
0
41
1
10
50.4520935591131
20
11.0678806818583
30
0
41
1
10
50.4531321595046
20
11.0681483436309
30
0
41
1
10
50.4729966272013
20
11.0733948442474
30
0
41
1
10
50.4917885884791
20
11.0805600597551
30
0
41
1
10
50.5347600859257
20
11.1021773103044
30
0
41
1
10
50.5587945413718
20
11.11861489802
30
0
41
1
10
50.5910000960522
20
11.1473261862981
30
0
41
1
10
50.6010527060187
20
11.1574417207899
30
0
41
1
10
50.610489557929
20
11.1681459458965
30
0
0
SPLINE
5
1F2
100
AcDbEntity
8
1
62
256
6
ByLayer
370
13
48
1
60
0
100
AcDbSpline
70
4
71
3
72
12
73
8
40
0
40
0
40
0
40
0
40
0.559301985460886
40
0.559301985460886
40
0.982067221682947
40
0.982067221682947
40
1
40
1
40
1
40
1
41
1
10
50.610489557929
20
9.83185405410353
30
0
41
1
10
50.5860762799805
20
9.8595460455893
30
0
41
1
10
50.5571861880885
20
9.88345389172824
30
0
41
1
10
50.5034740589433
20
9.91474871140662
30
0
41
1
10
50.4788250511787
20
9.9250657825142
30
0
41
1
10
50.4531321595027
20
9.93185165636794
30
0
41
1
10
50.4520935591125
20
9.93211931814133
30
0
41
1
10
50.4510546870628
20
9.9323804861462
30
0
0
SPLINE
5
1F3
100
AcDbEntity
8
1
62
256
6
ByLayer
370
13
48
1
60
0
100
AcDbSpline
70
4
71
3
72
8
73
4
40
0
40
0
40
0
40
0
40
1
40
1
40
1
40
1
41
1
10
49.2639115680548
20
9.3660827624787
30
0
41
1
10
49.3472851478712
20
9.50486553262152
30
0
41
1
10
49.416569163954
20
9.65303407505638
30
0
41
1
10
49.4825621452742
20
9.80203290561866
30
0
0
SPLINE
5
1F4
100
AcDbEntity
8
1
62
256
6
ByLayer
370
13
48
1
60
0
100
AcDbSpline
70
4
71
3
72
16
73
12
40
0
40
0
40
0
40
0
40
0.0745951303882249
40
0.0745951303882249
40
0.27553513169183
40
0.27553513169183
40
0.501427420118119
40
0.501427420118119
40
0.725494997757322
40
0.725494997757322
40
1
40
1
40
1
40
1
41
1
10
49.4825621452742
20
9.80203290561866
30
0
41
1
10
49.4837736749442
20
9.80476829505579
30
0
41
1
10
49.4851163296951
20
9.80744279212499
30
0
41
1
10
49.4905147865575
20
9.81692326417766
30
0
41
1
10
49.495461783055
20
9.82328945752229
30
0
41
1
10
49.5076198241713
20
9.8344368670451
30
0
41
1
10
49.515234293716
20
9.83907583280572
30
0
41
1
10
49.531205119136
20
9.84496898107557
30
0
41
1
10
49.5397662566658
20
9.84635990086215
30
0
41
1
10
49.5585207140201
20
9.84643579907771
30
0
41
1
10
49.5689309570328
20
9.84449545414142
30
0
41
1
10
49.5787842780358
20
9.84121572913679
30
0
0
SPLINE
5
1F5
100
AcDbEntity
8
1
62
256
6
ByLayer
370
13
48
1
60
0
100
AcDbSpline
70
4
71
3
72
16
73
12
40
0
40
0
40
0
40
0
40
0.108772443208259
40
0.108772443208259
40
0.369799377627614
40
0.369799377627614
40
0.571154122074464
40
0.571154122074464
40
0.786314444449857
40
0.786314444449857
40
1
40
1
40
1
40
1
41
1
10
49.5787842780346
20
11.1587842708624
30
0
41
1
10
49.574842530994
20
11.1574722415145
30
0
41
1
10
49.5708295616293
20
11.1563772864691
30
0
41
1
10
49.5571495011343
20
11.1535438589735
30
0
41
1
10
49.5470910912765
20
11.1529839150791
30
0
41
1
10
49.5298590002818
20
11.1554934049088
30
0
41
1
10
49.5223925092281
20
11.1578140053034
30
0
41
1
10
49.5083165495633
20
11.1651350048512
30
0
41
1
10
49.501614556307
20
11.170419821631
30
0
41
1
10
49.4905405846473
20
11.1828976860825
30
0
41
1
10
49.4859929686991
20
11.1902209876347
30
0
41
1
10
49.4825621452759
20
11.1979670943824
30
0
0
SPLINE
5
1F6
100
AcDbEntity
8
1
62
256
6
ByLayer
370
13
48
1
60
0
100
AcDbSpline
70
4
71
3
72
8
73
4
40
0
40
0
40
0
40
0
40
1
40
1
40
1
40
1
41
1
10
49.4825621452734
20
11.1979670943799
30
0
41
1
10
49.4165691639541
20
11.3469659249401
30
0
41
1
10
49.3472851478721
20
11.4951344673726
30
0
41
1
10
49.2639115680571
20
11.6339172375137
30
0
0
SPLINE
5
1F7
100
AcDbEntity
8
1
62
256
6
ByLayer
370
13
48
1
60
0
100
AcDbSpline
70
4
71
3
72
10
73
6
40
0
40
0
40
0
40
0
40
0.140418403423082
40
0.140418403423082
40
1
40
1
40
1
40
1
41
1
10
50.8950622867786
20
9.45083055006586
30
0
41
1
10
50.8949786281127
20
9.45083314027937
30
0
41
1
10
50.8948949964083
20
9.45083334436504
30
0
41
1
10
50.8943060068435
20
9.45081682801847
30
0
41
1
10
50.893796745917
20
9.45070661526344
30
0
41
1
10
50.8933275812036
20
9.45046954425527
30
0
0
SPLINE
5
1F8
100
AcDbEntity
8
1
62
256
6
ByLayer
370
13
48
1
60
0
100
AcDbSpline
70
4
71
3
72
8
73
4
40
0
40
0
40
0
40
0
40
1
40
1
40
1
40
1
41
1
10
50.9981203716814
20
9.45215197156864
30
0
41
1
10
50.9638409048776
20
9.45029558134885
30
0
41
1
10
50.9294607622627
20
9.4497655152027
30
0
41
1
10
50.8950622867787
20
9.45083055006586
30
0
0
SPLINE
5
1F9
100
AcDbEntity
8
1
62
256
6
ByLayer
370
13
48
1
60
0
100
AcDbSpline
70
4
71
3
72
8
73
4
40
0
40
0
40
0
40
0
40
1
40
1
40
1
40
1
41
1
10
50.9981203716814
20
11.5478480284314
30
0
41
1
10
50.9638409048776
20
11.5497044186512
30
0
41
1
10
50.9294607622627
20
11.5502344847973
30
0
41
1
10
50.8950622867787
20
11.5491694499342
30
0
0
SPLINE
5
1FA
100
AcDbEntity
8
1
62
256
6
ByLayer
370
13
48
1
60
0
100
AcDbSpline
70
4
71
3
72
10
73
6
40
0
40
0
40
0
40
0
40
0.140418403423082
40
0.140418403423082
40
1
40
1
40
1
40
1
41
1
10
50.8950622867786
20
11.5491694499342
30
0
41
1
10
50.8949786281127
20
11.5491668597207
30
0
41
1
10
50.8948949964083
20
11.549166655635
30
0
41
1
10
50.8943060068435
20
11.5491831719816
30
0
41
1
10
50.893796745917
20
11.5492933847366
30
0
41
1
10
50.8933275812036
20
11.5495304557448
30
0
0
SPLINE
5
1FB
100
AcDbEntity
8
1
62
256
6
ByLayer
370
13
48
1
60
0
100
AcDbSpline
70
4
71
3
72
8
73
4
40
0
40
0
40
0
40
0
40
1
40
1
40
1
40
1
41
1
10
50.464378753796
20
9.94368968725993
30
0
41
1
10
50.4599671112989
20
9.9399140828981
30
0
41
1
10
50.4555251065502
20
9.93614444226247
30
0
41
1
10
50.4510546870628
20
9.9323804861462
30
0
0
SPLINE
5
1FC
100
AcDbEntity
8
1
62
256
6
ByLayer
370
13
48
1
60
0
100
AcDbSpline
70
4
71
3
72
8
73
4
40
0
40
0
40
0
40
0
40
1
40
1
40
1
40
1
41
1
10
50.4510546870628
20
11.0676195138538
30
0
41
1
10
50.4555251065502
20
11.0638555577376
30
0
41
1
10
50.4599671112989
20
11.0600859171019
30
0
41
1
10
50.464378753796
20
11.0563103127401
30
0
0
SPLINE
5
1FD
100
AcDbEntity
8
1
62
256
6
ByLayer
370
13
48
1
60
0
100
AcDbSpline
70
4
71
3
72
12
73
8
40
0
40
0
40
0
40
0
40
0.473871515909109
40
0.473871515909109
40
0.928528687587425
40
0.928528687587425
40
1
40
1
40
1
40
1
41
1
10
50.78962014135
20
10.7885722263195
30
0
41
1
10
50.7605769079864
20
10.8270214794385
30
0
41
1
10
50.738076503972
20
10.8679291362362
30
0
41
1
10
50.7054858788087
20
10.9414716164867
30
0
41
1
10
50.6944900899473
20
10.9751866513815
30
0
41
1
10
50.6859581625812
20
11.0077405523203
30
0
41
1
10
50.684884631021
20
11.0120832781515
30
0
41
1
10
50.6838678419132
20
11.016273284347
30
0
0
SPLINE
5
1FE
100
AcDbEntity
8
1
62
256
6
ByLayer
370
13
48
1
60
0
100
AcDbSpline
70
4
71
3
72
12
73
8
40
0
40
0
40
0
40
0
40
0.152393412067187
40
0.152393412067187
40
0.68049007519868
40
0.68049007519868
40
1
40
1
40
1
40
1
41
1
10
50.7896201413456
20
10.7885722263145
30
0
41
1
10
50.8346105972805
20
10.7975263045544
30
0
41
1
10
50.8812734171468
20
10.8070165700635
30
0
41
1
10
51.0939294786754
20
10.8510824448215
30
0
41
1
10
51.2774173301441
20
10.8911680904636
30
0
41
1
10
51.578376870561
20
10.9601006649953
30
0
41
1
10
51.6952214954585
20
10.9876055334766
30
0
41
1
10
51.8112677608007
20
11.0158410745108
30
0
0
SPLINE
5
1FF
100
AcDbEntity
8
1
62
256
6
ByLayer
370
13
48
1
60
0
100
AcDbSpline
70
4
71
3
72
12
73
8
40
0
40
0
40
0
40
0
40
0.453713856043948
40
0.453713856043948
40
0.935255270278036
40
0.935255270278036
40
1
40
1
40
1
40
1
41
1
10
50.6838678419132
20
9.98372671565301
30
0
41
1
10
50.6902549278144
20
10.0100467551685
30
0
41
1
10
50.6997841086873
20
10.0423144614417
30
0
41
1
10
50.7293410835708
20
10.1145400013946
30
0
41
1
10
50.7503116579037
20
10.1558187317625
30
0
41
1
10
50.7817069341031
20
10.2007419109993
30
0
41
1
10
50.7855997151617
20
10.2061052814424
30
0
41
1
10
50.7896201413555
20
10.2114277736879
30
0
0
SPLINE
5
200
100
AcDbEntity
8
1
62
256
6
ByLayer
370
13
48
1
60
0
100
AcDbSpline
70
4
71
3
72
12
73
8
40
0
40
0
40
0
40
0
40
0.152393412053729
40
0.152393412053729
40
0.680490075193607
40
0.680490075193607
40
1
40
1
40
1
40
1
41
1
10
50.7896201413597
20
10.2114277736828
30
0
41
1
10
50.8346105972902
20
10.2024736954437
30
0
41
1
10
50.8812734171517
20
10.1929834299354
30
0
41
1
10
51.0939294786754
20
10.1489175551785
30
0
41
1
10
51.2774173301441
20
10.1088319095365
30
0
41
1
10
51.578376870561
20
10.0398993350047
30
0
41
1
10
51.6952214954585
20
10.0123944665234
30
0
41
1
10
51.8112677608007
20
9.98415892548925
30
0
0
SPLINE
5
201
100
AcDbEntity
8
1
62
256
6
ByLayer
370
13
48
1
60
0
100
AcDbSpline
70
4
71
3
72
16
73
12
40
0
40
0
40
0
40
0
40
0.257384746008501
40
0.257384746008501
40
0.483485531381172
40
0.483485531381172
40
0.71945910330869
40
0.71945910330869
40
0.925748185145375
40
0.925748185145375
40
1
40
1
40
1
40
1
41
1
10
49.6610166945645
20
10.0059117968517
30
0
41
1
10
49.6316687367362
20
10.0084138467547
30
0
41
1
10
49.6016686457385
20
10.0069683264853
30
0
41
1
10
49.5476222628195
20
9.99697441883467
30
0
41
1
10
49.5228412392242
20
9.98922306379947
30
0
41
1
10
49.4759336807441
20
9.96782198514475
30
0
41
1
10
49.4535298246701
20
9.95372310018104
30
0
41
1
10
49.4168300974004
20
9.92268625800824
30
0
41
1
10
49.4015959942174
20
9.90609479086928
30
0
41
1
10
49.3843415664157
20
9.8815849727747
30
0
41
1
10
49.3800684610182
20
9.87486152190317
30
0
41
1
10
49.3761342837701
20
9.86797103467123
30
0
0
SPLINE
5
202
100
AcDbEntity
8
1
62
256
6
ByLayer
370
13
48
1
60
0
100
AcDbSpline
70
4
71
3
72
16
73
12
40
0
40
0
40
0
40
0
40
0.215940694014332
40
0.215940694014332
40
0.440749342864023
40
0.440749342864023
40
0.6480631149087
40
0.6480631149087
40
0.900502256755734
40
0.900502256755734
40
1
40
1
40
1
40
1
41
1
10
49.3761342837701
20
11.1320289653274
30
0
41
1
10
49.3874887091377
20
11.1121423364115
30
0
41
1
10
49.4017703058923
20
11.0935638401863
30
0
41
1
10
49.4355311178213
20
11.0600806071032
30
0
41
1
10
49.4554935542141
20
11.0450642385112
30
0
41
1
10
49.4971485157203
20
11.0215249129441
30
0
41
1
10
49.5188925805651
20
11.0124103522789
30
0
41
1
10
49.5687388690062
20
10.9978535484766
30
0
41
1
10
49.5977360562636
20
10.9934778794564
30
0
41
1
10
49.6380565109323
20
10.9927292966024
30
0
41
1
10
49.6495709364866
20
10.9931123990362
30
0
41
1
10
49.6610166945642
20
10.9940882031468
30
0
0
SPLINE
5
203
100
AcDbEntity
8
1
62
256
6
ByLayer
370
13
48
1
60
0
100
AcDbSpline
70
4
71
3
72
14
73
10
40
0
40
0
40
0
40
0
40
0.0140696667047013
40
0.0140696667047013
40
0.158297294424887
40
0.158297294424887
40
0.557403345933072
40
0.557403345933072
40
1
40
1
40
1
40
1
41
1
10
49.6387159227631
20
10.8390329632411
30
0
41
1
10
49.6375460584102
20
10.8388697931993
30
0
41
1
10
49.6363754680049
20
10.8387106629965
30
0
41
1
10
49.6230171191251
20
10.8369343237183
30
0
41
1
10
49.6107456069811
20
10.835703072908
30
0
41
1
10
49.565092528665
20
10.8325609740111
30
0
41
1
10
49.5314247709742
20
10.8331854341251
30
0
41
1
10
49.4656728605842
20
10.8402964457491
30
0
41
1
10
49.4330791217041
20
10.8475289890551
30
0
41
1
10
49.4056329534176
20
10.8576935565735
30
0
0
SPLINE
5
204
100
AcDbEntity
8
1
62
256
6
ByLayer
370
13
48
1
60
0
100
AcDbSpline
70
4
71
3
72
8
73
4
40
0
40
0
40
0
40
0
40
1
40
1
40
1
40
1
41
1
10
49.4056329534174
20
10.8576935565949
30
0
41
1
10
49.396339183532
20
10.8611354633302
30
0
41
1
10
49.3875722949159
20
10.8645951739491
30
0
41
1
10
49.3794417210372
20
10.8679978802813
30
0
0
SPLINE
5
205
100
AcDbEntity
8
1
62
256
6
ByLayer
370
13
48
1
60
0
100
AcDbSpline
70
4
71
3
72
10
73
6
40
0
40
0
40
0
40
0
40
0.782589980152529
40
0.782589980152529
40
1
40
1
40
1
40
1
41
1
10
49.3761342837701
20
11.1320289653274
30
0
41
1
10
49.3750264075113
20
11.0721131959131
30
0
41
1
10
49.3733409185196
20
11.0027716116344
30
0
41
1
10
49.3768419616687
20
10.9097017149473
30
0
41
1
10
49.3779402791544
20
10.8889750972195
30
0
41
1
10
49.3794417210385
20
10.8679978802834
30
0
0
SPLINE
5
206
100
AcDbEntity
8
1
62
256
6
ByLayer
370
13
48
1
60
0
100
AcDbSpline
70
4
71
3
72
10
73
6
40
0
40
0
40
0
40
0
40
0.217410019846355
40
0.217410019846355
40
1
40
1
40
1
40
1
41
1
10
49.3794417210371
20
10.1320021197179
30
0
41
1
10
49.377940279153
20
10.1110249027818
30
0
41
1
10
49.3768419616687
20
10.0902982850527
30
0
41
1
10
49.3733409185196
20
9.99722838836504
30
0
41
1
10
49.3750264075113
20
9.92788680408583
30
0
41
1
10
49.3761342837701
20
9.8679710346712
30
0
0
SPLINE
5
207
100
AcDbEntity
8
1
62
256
6
ByLayer
370
13
48
1
60
0
100
AcDbSpline
70
4
71
3
72
8
73
4
40
0
40
0
40
0
40
0
40
1
40
1
40
1
40
1
41
1
10
49.3794417210371
20
10.1320021197179
30
0
41
1
10
49.3875722949159
20
10.1354048260501
30
0
41
1
10
49.396339183532
20
10.1388645366698
30
0
41
1
10
49.4056329534174
20
10.142306443405
30
0
0
SPLINE
5
208
100
AcDbEntity
8
1
62
256
6
ByLayer
370
13
48
1
60
0
100
AcDbSpline
70
4
71
3
72
14
73
10
40
0
40
0
40
0
40
0
40
0.362290872375782
40
0.362290872375782
40
0.75921727113372
40
0.75921727113372
40
0.985981513552925
40
0.985981513552925
40
1
40
1
40
1
40
1
41
1
10
49.4056329534176
20
10.1423064434265
30
0
41
1
10
49.4281812464505
20
10.150657104421
30
0
41
1
10
49.4541207849953
20
10.1570263758703
30
0
41
1
10
49.5118571823038
20
10.1655169866085
30
0
41
1
10
49.5447419197083
20
10.1672933991343
30
0
41
1
10
49.5968158183066
20
10.1655643617064
30
0
41
1
10
49.6161285437686
20
10.1639816912564
30
0
41
1
10
49.6363754679909
20
10.1612893369911
30
0
41
1
10
49.6375460583942
20
10.1611302068002
30
0
41
1
10
49.6387159227443
20
10.1609670367628
30
0
0
SPLINE
5
209
100
AcDbEntity
8
1
62
256
6
ByLayer
370
13
48
1
60
0
100
AcDbSpline
70
4
71
3
72
12
73
8
40
0
40
0
40
0
40
0
40
0.027753964396557
40
0.027753964396557
40
0.667826589987148
40
0.667826589987148
40
1
40
1
40
1
40
1
41
1
10
49.2639115680571
20
11.6339172375138
30
0
41
1
10
49.2630224938299
20
11.6334053128849
30
0
41
1
10
49.2621362973346
20
11.6328934632914
30
0
41
1
10
49.241139438886
20
11.620719907167
30
0
41
1
10
49.2223677783528
20
11.6088525752805
30
0
41
1
10
49.1985834198732
20
11.5922216916317
30
0
41
1
10
49.1911418620728
20
11.586679526679
30
0
41
1
10
49.1846560826641
20
11.5814799390646
30
0
0
SPLINE
5
20A
100
AcDbEntity
8
1
62
256
6
ByLayer
370
13
48
1
60
0
100
AcDbSpline
70
4
71
3
72
10
73
6
40
0
40
0
40
0
40
0
40
0.820434354426583
40
0.820434354426583
40
1
40
1
40
1
40
1
41
1
10
49.1772670677278
20
11.5759843313459
30
0
41
1
10
49.2373176229178
20
11.4572675818095
30
0
41
1
10
49.2907218307757
20
11.3351837494844
30
0
41
1
10
49.3537878651402
20
11.1858122906327
30
0
41
1
10
49.3650067820629
20
11.1589382774982
30
0
41
1
10
49.3761342837705
20
11.1320289653277
30
0
0
SPLINE
5
20B
100
AcDbEntity
8
1
62
256
6
ByLayer
370
13
48
1
60
0
100
AcDbSpline
70
4
71
3
72
8
73
4
40
0
40
0
40
0
40
0
40
1
40
1
40
1
40
1
41
1
10
49.1846560826641
20
11.5814799390646
30
0
41
1
10
49.1821308679729
20
11.5794554984845
30
0
41
1
10
49.1796628452491
20
11.577619801466
30
0
41
1
10
49.1772670677278
20
11.5759843313459
30
0
0
SPLINE
5
20C
100
AcDbEntity
8
1
62
256
6
ByLayer
370
13
48
1
60
0
100
AcDbSpline
70
4
71
3
72
12
73
8
40
0
40
0
40
0
40
0
40
0.0278313206712517
40
0.0278313206712517
40
0.611473023609022
40
0.611473023609022
40
1
40
1
40
1
40
1
41
1
10
49.2639115680654
20
9.36608276249649
30
0
41
1
10
49.2630224938381
20
9.36659468712233
30
0
41
1
10
49.2621362973421
20
9.36710653671202
30
0
41
1
10
49.2428803330612
20
9.37827075737761
30
0
41
1
10
49.2256423082254
20
9.38908124701462
30
0
41
1
10
49.2010972420242
20
9.40591770975661
30
0
41
1
10
49.1922210960019
20
9.41245526175322
30
0
41
1
10
49.184656082664
20
9.41852006093558
30
0
0
SPLINE
5
20D
100
AcDbEntity
8
1
62
256
6
ByLayer
370
13
48
1
60
0
100
AcDbSpline
70
4
71
3
72
8
73
4
40
0
40
0
40
0
40
0
40
1
40
1
40
1
40
1
41
1
10
49.184656082664
20
9.41852006093558
30
0
41
1
10
49.1821308679728
20
9.42054450151562
30
0
41
1
10
49.1796628452491
20
9.42238019853403
30
0
41
1
10
49.1772670677278
20
9.42401566865411
30
0
0
SPLINE
5
20E
100
AcDbEntity
8
1
62
256
6
ByLayer
370
13
48
1
60
0
100
AcDbSpline
70
4
71
3
72
10
73
6
40
0
40
0
40
0
40
0
40
0.819881036339605
40
0.819881036339605
40
1
40
1
40
1
40
1
41
1
10
49.3761342837701
20
9.8679710346712
30
0
41
1
10
49.3253430321445
20
9.74514403527431
30
0
41
1
10
49.2729973133248
20
9.62280646980264
30
0
41
1
10
49.2032770273131
20
9.47635779033533
30
0
41
1
10
49.1904566776892
20
9.45009082511694
30
0
41
1
10
49.1772670677279
20
9.42401566865408
30
0
0
SPLINE
5
20F
100
AcDbEntity
8
1
62
256
6
ByLayer
370
13
48
1
60
0
100
AcDbSpline
70
4
71
3
72
12
73
8
40
0
40
0
40
0
40
0
40
0.0277499781510944
40
0.0277499781510944
40
0.667808133384293
40
0.667808133384293
40
1
40
1
40
1
40
1
41
1
10
49.263911568057
20
11.6339172375138
30
0
41
1
10
49.2629034320477
20
11.63383882007
30
0
41
1
10
49.2618982158727
20
11.6337604048593
30
0
41
1
10
49.2380665525594
20
11.6318956322484
30
0
41
1
10
49.21651808857
20
11.6300806513405
30
0
41
1
10
49.1888224267558
20
11.6275408471302
30
0
41
1
10
49.180073554872
20
11.6266951287325
30
0
41
1
10
49.1723583203581
20
11.6259022231318
30
0
0
SPLINE
5
210
100
AcDbEntity
8
1
62
256
6
ByLayer
370
13
48
1
60
0
100
AcDbSpline
70
4
71
3
72
12
73
8
40
0
40
0
40
0
40
0
40
0.0278272716373759
40
0.0278272716373759
40
0.611453167879501
40
0.611453167879501
40
1
40
1
40
1
40
1
41
1
10
49.2639115680571
20
9.36608276248626
30
0
41
1
10
49.2629034319402
20
9.36616117835069
30
0
41
1
10
49.2618982154425
20
9.36623958882373
30
0
41
1
10
49.2400426145075
20
9.36794977374672
30
0
41
1
10
49.2202762805606
20
9.36960334048467
30
0
41
1
10
49.1917749645617
20
9.37217521682885
30
0
41
1
10
49.1813573467758
20
9.37317293415163
30
0
41
1
10
49.1723583203581
20
9.3740977768683
30
0
0
SPLINE
5
211
100
AcDbEntity
8
1
62
256
6
ByLayer
370
13
48
1
60
0
100
AcDbSpline
70
4
71
3
72
26
73
22
40
0
40
0
40
0
40
0
40
0.102035501666901
40
0.102035501666901
40
0.129284389714829
40
0.129284389714829
40
0.254161410871578
40
0.254161410871578
40
0.386333886983898
40
0.386333886983898
40
0.523125606178389
40
0.523125606178389
40
0.658908540792033
40
0.658908540792033
40
0.795133361230144
40
0.795133361230144
40
0.895568684120736
40
0.895568684120736
40
0.931575554525879
40
0.931575554525879
40
1
40
1
40
1
40
1
41
1
10
49.5964890019635
20
10.6973354503651
30
0
41
1
10
49.6131393767336
20
10.6920158765304
30
0
41
1
10
49.6291034127914
20
10.6843449067291
30
0
41
1
10
49.6463800184522
20
10.672127962676
30
0
41
1
10
49.64992822141
20
10.6693689521746
30
0
41
1
10
49.6686371526017
20
10.6534299623416
30
0
41
1
10
49.6810099307051
20
10.6374017094129
30
0
41
1
10
49.7005417637305
20
10.601126079016
30
0
41
1
10
49.7077186636934
20
10.5801138895916
30
0
41
1
10
49.716817379671
20
10.5357350472803
30
0
41
1
10
49.7186673668159
20
10.5116744656624
30
0
41
1
10
49.7168386014334
20
10.4648707988774
30
0
41
1
10
49.7131780830524
20
10.4414781392255
30
0
41
1
10
49.7002714091329
20
10.3983407554102
30
0
41
1
10
49.6908281262292
20
10.3779715024793
30
0
41
1
10
49.668731185536
20
10.3474967033749
30
0
41
1
10
49.6572851116735
20
10.3358032034334
30
0
41
1
10
49.6391386222023
20
10.3226853626634
30
0
41
1
10
49.6340445533438
20
10.3194433721891
30
0
41
1
10
49.6187059419968
20
10.3108943974576
30
0
41
1
10
49.6077600338148
20
10.3062654947761
30
0
41
1
10
49.5964890019635
20
10.302664549635
30
0
0
SPLINE
5
212
100
AcDbEntity
8
1
62
256
6
ByLayer
370
13
48
1
60
0
100
AcDbSpline
70
4
71
3
72
14
73
10
40
0
40
0
40
0
40
0
40
0.27475847941734
40
0.27475847941734
40
0.512436463803127
40
0.512436463803127
40
0.749993769781322
40
0.749993769781322
40
1
40
1
40
1
40
1
41
1
10
50.7896201413547
20
10.2114277736885
30
0
41
1
10
50.8118015893238
20
10.2595648572764
30
0
41
1
10
50.8306589366166
20
10.3110895546407
30
0
41
1
10
50.853462576975
20
10.4108959818218
30
0
41
1
10
50.8590594822313
20
10.459444909943
30
0
41
1
10
50.8578279543455
20
10.5554747740458
30
0
41
1
10
50.8510126304754
20
10.6037525640153
30
0
41
1
10
50.8272786525577
20
10.6980754040381
30
0
41
1
10
50.8098376614737
20
10.7446971620128
30
0
41
1
10
50.7896201413508
20
10.78857222632
30
0
0
SPLINE
5
213
100
AcDbEntity
8
1
62
256
6
ByLayer
370
13
48
1
60
0
100
AcDbSpline
70
4
71
3
72
8
73
4
40
0
40
0
40
0
40
0
40
1
40
1
40
1
40
1
41
1
10
49.1705951003268
20
9.37456207186469
30
0
41
1
10
49.1711929686634
20
9.37456207186469
30
0
41
1
10
49.1717967952489
20
9.37441187301863
30
0
41
1
10
49.1723583203562
20
9.37409777688291
30
0
0
SPLINE
5
214
100
AcDbEntity
8
1
62
256
6
ByLayer
370
13
48
1
60
0
100
AcDbSpline
70
4
71
3
72
8
73
4
40
0
40
0
40
0
40
0
40
1
40
1
40
1
40
1
41
1
10
49.1723583203562
20
11.6259022231305
30
0
41
1
10
49.1717967952486
20
11.625588126994
30
0
41
1
10
49.1711929686638
20
11.6254379281353
30
0
41
1
10
49.1705951003268
20
11.6254379281353
30
0
0
SPLINE
5
215
100
AcDbEntity
8
1
62
256
6
ByLayer
370
13
48
1
60
0
100
AcDbSpline
70
4
71
3
72
10
73
6
40
0
40
0
40
0
40
0
40
0.84896187346875
40
0.84896187346875
40
1
40
1
40
1
40
1
41
1
10
53.5256851850747
20
11.2647657471104
30
0
41
1
10
53.4912977154034
20
11.3166085502536
30
0
41
1
10
53.443874742716
20
11.3600641980188
30
0
41
1
10
53.3838155264512
20
11.4020697721383
30
0
41
1
10
53.3744787017949
20
11.4082637077778
30
0
41
1
10
53.3650107000385
20
11.4142433192397
30
0
0
SPLINE
5
216
100
AcDbEntity
8
1
62
256
6
ByLayer
370
13
48
1
60
0
100
AcDbSpline
70
4
71
3
72
8
73
4
40
0
40
0
40
0
40
0
40
1
40
1
40
1
40
1
41
1
10
53.3650107000385
20
11.4142433192397
30
0
41
1
10
53.3210937227593
20
11.4419795266748
30
0
41
1
10
53.2769798114244
20
11.4694091746337
30
0
41
1
10
53.2325607479569
20
11.4963326630824
30
0
0
SPLINE
5
217
100
AcDbEntity
8
1
62
256
6
ByLayer
370
13
48
1
60
0
100
AcDbSpline
70
4
71
3
72
10
73
6
40
0
40
0
40
0
40
0
40
0.657586553479613
40
0.657586553479613
40
1
40
1
40
1
40
1
41
1
10
53.232560747957
20
11.4963326630824
30
0
41
1
10
53.2092305437702
20
11.5104736744837
30
0
41
1
10
53.1864384919004
20
11.5257970940434
30
0
41
1
10
53.1548281900598
20
11.5527058945892
30
0
41
1
10
53.1444660370968
20
11.5626353341107
30
0
41
1
10
53.135515563742
20
11.5737056108807
30
0
0
SPLINE
5
218
100
AcDbEntity
8
1
62
256
6
ByLayer
370
13
48
1
60
0
100
AcDbSpline
70
4
71
3
72
10
73
6
40
0
40
0
40
0
40
0
40
0.657586553479614
40
0.657586553479614
40
1
40
1
40
1
40
1
41
1
10
53.232560747957
20
9.5036673369176
30
0
41
1
10
53.2092305437702
20
9.48952632551635
30
0
41
1
10
53.1864384919004
20
9.47420290595662
30
0
41
1
10
53.1548281900598
20
9.44729410541083
30
0
41
1
10
53.1444660370968
20
9.43736466588933
30
0
41
1
10
53.135515563742
20
9.42629438911933
30
0
0
SPLINE
5
219
100
AcDbEntity
8
1
62
256
6
ByLayer
370
13
48
1
60
0
100
AcDbSpline
70
4
71
3
72
8
73
4
40
0
40
0
40
0
40
0
40
1
40
1
40
1
40
1
41
1
10
53.3650107000385
20
9.58575668076031
30
0
41
1
10
53.3210937227593
20
9.5580204733252
30
0
41
1
10
53.2769798114244
20
9.53059082536637
30
0
41
1
10
53.2325607479569
20
9.5036673369176
30
0
0
SPLINE
5
21A
100
AcDbEntity
8
1
62
256
6
ByLayer
370
13
48
1
60
0
100
AcDbSpline
70
4
71
3
72
10
73
6
40
0
40
0
40
0
40
0
40
0.84896187346875
40
0.84896187346875
40
1
40
1
40
1
40
1
41
1
10
53.5256851850747
20
9.73523425288963
30
0
41
1
10
53.4912977154034
20
9.68339144974635
30
0
41
1
10
53.443874742716
20
9.63993580198124
30
0
41
1
10
53.3838155264512
20
9.59793022786172
30
0
41
1
10
53.3744787017949
20
9.59173629222221
30
0
41
1
10
53.3650107000385
20
9.58575668076031
30
0
0
SPLINE
5
21B
100
AcDbEntity
8
1
62
256
6
ByLayer
370
13
48
1
60
0
100
AcDbSpline
70
4
71
3
72
14
73
10
40
0
40
0
40
0
40
0
40
0.0140322366304758
40
0.0140322366304758
40
0.158091565624719
40
0.158091565624719
40
0.557043656612004
40
0.557043656612004
40
1
40
1
40
1
40
1
41
1
10
49.6387159228241
20
10.8390329632513
30
0
41
1
10
49.6379360645915
20
10.838272230359
30
0
41
1
10
49.6371559091054
20
10.8375149462292
30
0
41
1
10
49.628231668599
20
10.8289164348865
30
0
41
1
10
49.6199670064645
20
10.8214961540121
30
0
41
1
10
49.5889415558847
20
10.7956326020389
30
0
41
1
10
49.565536858211
20
10.7801946929804
30
0
41
1
10
49.5187541033904
20
10.7575108553181
30
0
41
1
10
49.4949133424734
20
10.7509900929662
30
0
41
1
10
49.4743263124385
20
10.7504858645476
30
0
0
SPLINE
5
21C
100
AcDbEntity
8
1
62
256
6
ByLayer
370
13
48
1
60
0
100
AcDbSpline
70
4
71
3
72
14
73
10
40
0
40
0
40
0
40
0
40
0.362636115875106
40
0.362636115875106
40
0.759502173372961
40
0.759502173372961
40
0.986017775516147
40
0.986017775516147
40
1
40
1
40
1
40
1
41
1
10
49.4743263124385
20
10.2495141354524
30
0
41
1
10
49.4912406290798
20
10.249099861071
30
0
41
1
10
49.5102969105352
20
10.2446666712413
30
0
41
1
10
49.5517568775429
20
10.2275878894302
30
0
41
1
10
49.5748386743135
20
10.2139874052551
30
0
41
1
10
49.6105592323138
20
10.1867736414941
30
0
41
1
10
49.623626747303
20
10.1755204096799
30
0
41
1
10
49.6371559091053
20
10.1624850537708
30
0
41
1
10
49.6379360645914
20
10.1617277696409
30
0
41
1
10
49.6387159228241
20
10.1609670367487
30
0
0
SPLINE
5
21D
100
AcDbEntity
8
1
62
256
6
ByLayer
370
13
48
1
60
0
100
AcDbSpline
70
4
71
3
72
8
73
4
40
0
40
0
40
0
40
0
40
1
40
1
40
1
40
1
41
1
10
49.4743263124397
20
10.7504858645451
30
0
41
1
10
49.5107270135584
20
10.7324713206331
30
0
41
1
10
49.5486103280918
20
10.7158801158889
30
0
41
1
10
49.5875073723822
20
10.7007556517983
30
0
0
SPLINE
5
21E
100
AcDbEntity
8
1
62
256
6
ByLayer
370
13
48
1
60
0
100
AcDbSpline
70
4
71
3
72
8
73
4
40
0
40
0
40
0
40
0
40
1
40
1
40
1
40
1
41
1
10
49.5875073723822
20
10.2992443482017
30
0
41
1
10
49.5486103280918
20
10.2841198841112
30
0
41
1
10
49.5107270135584
20
10.2675286793669
30
0
41
1
10
49.4743263124397
20
10.2495141354549
30
0
0
SPLINE
5
21F
100
AcDbEntity
8
1
62
256
6
ByLayer
370
13
48
1
60
0
100
AcDbSpline
70
4
71
3
72
16
73
12
40
0
40
0
40
0
40
0
40
0.0355702320992689
40
0.0355702320992689
40
0.09050817101665
40
0.09050817101665
40
0.198049233530909
40
0.198049233530909
40
0.436780146594192
40
0.436780146594192
40
1
40
1
40
1
40
1
41
1
10
53.0647600217562
20
11.6263220355865
30
0
41
1
10
53.0651586810189
20
11.6253552596239
30
0
41
1
10
53.0655584542086
20
11.6243889211321
30
0
41
1
10
53.0665771815565
20
11.6219268549543
30
0
41
1
10
53.0671970808021
20
11.6204315089406
30
0
41
1
10
53.0690334070427
20
11.6160112009545
30
0
41
1
10
53.0702528942053
20
11.613087796255
30
0
41
1
10
53.0741930527674
20
11.6036898385929
30
0
41
1
10
53.0769343827304
20
11.5972280597344
30
0
41
1
10
53.0861946238307
20
11.5756594360559
30
0
41
1
10
53.0928248586495
20
11.560652381451
30
0
41
1
10
53.0995116901682
20
11.5459979598175
30
0
0
SPLINE
5
220
100
AcDbEntity
8
1
62
256
6
ByLayer
370
13
48
1
60
0
100
AcDbSpline
70
4
71
3
72
10
73
6
40
0
40
0
40
0
40
0
40
0.638823417468865
40
0.638823417468865
40
1
40
1
40
1
40
1
41
1
10
53.1900286630425
20
11.4350239663357
30
0
41
1
10
53.166841990865
20
11.4547106579256
30
0
41
1
10
53.1449724664755
20
11.4765022876988
30
0
41
1
10
53.1161775948407
20
11.5150198729897
30
0
41
1
10
53.1068123576004
20
11.529998295635
30
0
41
1
10
53.0995116901682
20
11.5459979598174
30
0
0
SPLINE
5
221
100
AcDbEntity
8
1
62
256
6
ByLayer
370
13
48
1
60
0
100
AcDbSpline
70
4
71
3
72
8
73
4
40
0
40
0
40
0
40
0
40
1
40
1
40
1
40
1
41
1
10
53.0647600217523
20
11.6263220355884
30
0
41
1
10
52.9478492133727
20
11.6570735908761
30
0
41
1
10
52.8265101800571
20
11.6720572868028
30
0
41
1
10
52.7060768987951
20
11.6748687981324
30
0
0
SPLINE
5
222
100
AcDbEntity
8
1
62
256
6
ByLayer
370
13
48
1
60
0
100
AcDbSpline
70
4
71
3
72
10
73
6
40
0
40
0
40
0
40
0
40
0.638823417468865
40
0.638823417468865
40
1
40
1
40
1
40
1
41
1
10
53.1900286630425
20
9.56497603366438
30
0
41
1
10
53.166841990865
20
9.5452893420744
30
0
41
1
10
53.1449724664755
20
9.52349771230126
30
0
41
1
10
53.1161775948407
20
9.48498012701035
30
0
41
1
10
53.1068123576004
20
9.47000170436505
30
0
41
1
10
53.0995116901682
20
9.45400204018259
30
0
0
SPLINE
5
223
100
AcDbEntity
8
1
62
256
6
ByLayer
370
13
48
1
60
0
100
AcDbSpline
70
4
71
3
72
16
73
12
40
0
40
0
40
0
40
0
40
0.0355702320992689
40
0.0355702320992689
40
0.09050817101665
40
0.09050817101665
40
0.198049233530909
40
0.198049233530909
40
0.436780146594192
40
0.436780146594192
40
1
40
1
40
1
40
1
41
1
10
53.0647600217562
20
9.3736779644135
30
0
41
1
10
53.0651586810189
20
9.37464474037614
30
0
41
1
10
53.0655584542086
20
9.37561107886796
30
0
41
1
10
53.0665771815565
20
9.3780731450457
30
0
41
1
10
53.0671970808021
20
9.3795684910595
30
0
41
1
10
53.0690334070427
20
9.38398879904551
30
0
41
1
10
53.0702528942053
20
9.386912203745
30
0
41
1
10
53.0741930527674
20
9.39631016140711
30
0
41
1
10
53.0769343827304
20
9.40277194026567
30
0
41
1
10
53.0861946238307
20
9.42434056394416
30
0
41
1
10
53.0928248586495
20
9.43934761854908
30
0
41
1
10
53.0995116901682
20
9.45400204018256
30
0
0
SPLINE
5
224
100
AcDbEntity
8
1
62
256
6
ByLayer
370
13
48
1
60
0
100
AcDbSpline
70
4
71
3
72
8
73
4
40
0
40
0
40
0
40
0
40
1
40
1
40
1
40
1
41
1
10
53.0647600217523
20
9.3736779644116
30
0
41
1
10
52.9478492133727
20
9.34292640912398
30
0
41
1
10
52.8265101800571
20
9.32794271319722
30
0
41
1
10
52.7060768987951
20
9.32513120186761
30
0
0
SPLINE
5
225
100
AcDbEntity
8
1
62
256
6
ByLayer
370
13
48
1
60
0
100
AcDbSpline
70
4
71
3
72
8
73
4
40
0
40
0
40
0
40
0
40
1
40
1
40
1
40
1
41
1
10
49.5875073723822
20
10.7007556517983
30
0
41
1
10
49.590499776207
20
10.6996155679644
30
0
41
1
10
49.5934936621595
20
10.698475500369
30
0
41
1
10
49.5964890019635
20
10.6973354503651
30
0
0
SPLINE
5
226
100
AcDbEntity
8
1
62
256
6
ByLayer
370
13
48
1
60
0
100
AcDbSpline
70
4
71
3
72
8
73
4
40
0
40
0
40
0
40
0
40
1
40
1
40
1
40
1
41
1
10
49.5964890019635
20
10.302664549635
30
0
41
1
10
49.5934936621595
20
10.301524499631
30
0
41
1
10
49.590499776207
20
10.3003844320356
30
0
41
1
10
49.5875073723822
20
10.2992443482017
30
0
0
SPLINE
5
227
100
AcDbEntity
8
1
62
256
6
ByLayer
370
13
48
1
60
0
100
AcDbSpline
70
4
71
3
72
8
73
4
40
0
40
0
40
0
40
0
40
1
40
1
40
1
40
1
41
1
10
49.4661840397672
20
10.7510243555528
30
0
41
1
10
49.4686096513477
20
10.7510243555528
30
0
41
1
10
49.4713428169146
20
10.7508483599019
30
0
41
1
10
49.4743263124381
20
10.7504858645475
30
0
0
SPLINE
5
228
100
AcDbEntity
8
1
62
256
6
ByLayer
370
13
48
1
60
0
100
AcDbSpline
70
4
71
3
72
8
73
4
40
0
40
0
40
0
40
0
40
1
40
1
40
1
40
1
41
1
10
49.4743263124385
20
10.2495141354524
30
0
41
1
10
49.471342816915
20
10.2491516400981
30
0
41
1
10
49.4686096513474
20
10.2489756444471
30
0
41
1
10
49.4661840397669
20
10.2489756444471
30
0
0
SPLINE
5
229
100
AcDbEntity
8
1
62
256
6
ByLayer
370
13
48
1
60
0
100
AcDbSpline
70
4
71
3
72
16
73
12
40
0
40
0
40
0
40
0
40
0.0355303527441481
40
0.0355303527441481
40
0.0917680599187357
40
0.0917680599187357
40
0.200182520092063
40
0.200182520092063
40
0.439533504711995
40
0.439533504711995
40
1
40
1
40
1
40
1
41
1
10
53.0647600217524
20
9.3736779644116
30
0
41
1
10
53.0655855998636
20
9.37431169199354
30
0
41
1
10
53.0664120929671
20
9.37494492601056
30
0
41
1
10
53.0685507889317
20
9.37658284554408
30
0
41
1
10
53.0698640688781
20
9.37758715931412
30
0
41
1
10
53.0737129338245
20
9.38052602289963
30
0
41
1
10
53.0762525536656
20
9.38245948159189
30
0
41
1
10
53.0844114693382
20
9.38865073870954
30
0
41
1
10
53.0900517136001
20
9.39289905948615
30
0
41
1
10
53.1089188273347
20
9.40699552825606
30
0
41
1
10
53.1222466489562
20
9.41676826106348
30
0
41
1
10
53.135515563742
20
9.42629438911933
30
0
0
SPLINE
5
22A
100
AcDbEntity
8
1
62
256
6
ByLayer
370
13
48
1
60
0
100
AcDbSpline
70
4
71
3
72
16
73
12
40
0
40
0
40
0
40
0
40
0.0355303527441481
40
0.0355303527441481
40
0.0917680599187357
40
0.0917680599187357
40
0.200182520092063
40
0.200182520092063
40
0.439533504711995
40
0.439533504711995
40
1
40
1
40
1
40
1
41
1
10
53.0647600217524
20
11.6263220355884
30
0
41
1
10
53.0655855998636
20
11.6256883080065
30
0
41
1
10
53.0664120929671
20
11.6250550739895
30
0
41
1
10
53.0685507889317
20
11.623417154456
30
0
41
1
10
53.0698640688781
20
11.6224128406859
30
0
41
1
10
53.0737129338245
20
11.6194739771004
30
0
41
1
10
53.0762525536656
20
11.6175405184081
30
0
41
1
10
53.0844114693382
20
11.6113492612905
30
0
41
1
10
53.0900517136001
20
11.6071009405139
30
0
41
1
10
53.1089188273347
20
11.593004471744
30
0
41
1
10
53.1222466489562
20
11.5832317389366
30
0
41
1
10
53.135515563742
20
11.5737056108807
30
0
0
SPLINE
5
22B
100
AcDbEntity
8
1
62
256
6
ByLayer
370
13
48
1
60
0
100
AcDbSpline
70
4
71
3
72
8
73
4
40
0
40
0
40
0
40
0
40
1
40
1
40
1
40
1
41
1
10
52.7060768987951
20
9.32513120186761
30
0
41
1
10
52.5916360304014
20
9.32230782863675
30
0
41
1
10
52.4749005955276
20
9.32606103672924
30
0
41
1
10
52.3587805434612
20
9.32159077261767
30
0
0
SPLINE
5
22C
100
AcDbEntity
8
1
62
256
6
ByLayer
370
13
48
1
60
0
100
AcDbSpline
70
4
71
3
72
8
73
4
40
0
40
0
40
0
40
0
40
1
40
1
40
1
40
1
41
1
10
52.7060768987951
20
11.6748687981324
30
0
41
1
10
52.5916360304014
20
11.6776921713633
30
0
41
1
10
52.4749005955276
20
11.6739389632708
30
0
41
1
10
52.3587805434612
20
11.6784092273824
30
0
0
SPLINE
5
22D
100
AcDbEntity
8
1
62
256
6
ByLayer
370
13
48
1
60
0
100
AcDbSpline
70
4
71
3
72
10
73
6
40
0
40
0
40
0
40
0
40
0.155061591761428
40
0.155061591761428
40
1
40
1
40
1
40
1
41
1
10
53.3213895076228
20
9.64630122296228
30
0
41
1
10
53.3304066184318
20
9.65110706801798
30
0
41
1
10
53.3393274149502
20
9.65609803032982
30
0
41
1
10
53.3954797246052
20
9.68921922372741
30
0
41
1
10
53.4409287471059
20
9.72348206069941
30
0
41
1
10
53.4749811562301
20
9.76658708906047
30
0
0
SPLINE
5
22E
100
AcDbEntity
8
1
62
256
6
ByLayer
370
13
48
1
60
0
100
AcDbSpline
70
4
71
3
72
10
73
6
40
0
40
0
40
0
40
0
40
0.155061591761428
40
0.155061591761428
40
1
40
1
40
1
40
1
41
1
10
53.3213895076228
20
11.3536987770377
30
0
41
1
10
53.3304066184318
20
11.3488929319821
30
0
41
1
10
53.3393274149502
20
11.3439019696702
30
0
41
1
10
53.3954797246052
20
11.3107807762726
30
0
41
1
10
53.4409287471059
20
11.2765179393006
30
0
41
1
10
53.4749811562301
20
11.2334129109396
30
0
0
SPLINE
5
22F
100
AcDbEntity
8
1
62
256
6
ByLayer
370
13
48
1
60
0
100
AcDbSpline
70
4
71
3
72
8
73
4
40
0
40
0
40
0
40
0
40
1
40
1
40
1
40
1
41
1
10
53.4749811562301
20
11.2334129109396
30
0
41
1
10
53.4822263780105
20
11.2242415924233
30
0
41
1
10
53.4893737130963
20
11.214955333238
30
0
41
1
10
53.4964383490931
20
11.2056067904618
30
0
0
SPLINE
5
230
100
AcDbEntity
8
1
62
256
6
ByLayer
370
13
48
1
60
0
100
AcDbSpline
70
4
71
3
72
10
73
6
40
0
40
0
40
0
40
0
40
0.596085739020476
40
0.596085739020476
40
1
40
1
40
1
40
1
41
1
10
53.4964383490931
20
11.2056067904618
30
0
41
1
10
53.5128939358857
20
11.1838313221847
30
0
41
1
10
53.5267245821227
20
11.1594029005908
30
0
41
1
10
53.54081187438
20
11.1157305199559
30
0
41
1
10
53.544038381206
20
11.0969809852593
30
0
41
1
10
53.5441651422481
20
11.0783896186603
30
0
0
SPLINE
5
231
100
AcDbEntity
8
1
62
256
6
ByLayer
370
13
48
1
60
0
100
AcDbSpline
70
4
71
3
72
12
73
8
40
0
40
0
40
0
40
0
40
0.0075770979405842
40
0.0075770979405842
40
0.524912447401083
40
0.524912447401083
40
1
40
1
40
1
40
1
41
1
10
53.0213727254144
20
11.089075622423
30
0
41
1
10
53.0226938848631
20
11.089124635903
30
0
41
1
10
53.0240151186687
20
11.0891713047738
30
0
41
1
10
53.1154638182289
20
11.092237793021
30
0
41
1
10
53.205673527038
20
11.0874737396072
30
0
41
1
10
53.3786115881781
20
11.0834174108895
30
0
41
1
10
53.4613940232688
20
11.0810975498716
30
0
41
1
10
53.5441651422333
20
11.0783896186556
30
0
0
SPLINE
5
232
100
AcDbEntity
8
1
62
256
6
ByLayer
370
13
48
1
60
0
100
AcDbSpline
70
4
71
3
72
12
73
8
40
0
40
0
40
0
40
0
40
0.0075770979405842
40
0.0075770979405842
40
0.524912447401083
40
0.524912447401083
40
1
40
1
40
1
40
1
41
1
10
53.0213727254144
20
9.910924377577
30
0
41
1
10
53.0226938848631
20
9.91087536409702
30
0
41
1
10
53.0240151186687
20
9.9108286952262
30
0
41
1
10
53.1154638182289
20
9.90776220697904
30
0
41
1
10
53.205673527038
20
9.91252626039278
30
0
41
1
10
53.3786115881781
20
9.9165825891105
30
0
41
1
10
53.4613940232688
20
9.91890245012843
30
0
41
1
10
53.5441651422333
20
9.92161038134441
30
0
0
SPLINE
5
233
100
AcDbEntity
8
1
62
256
6
ByLayer
370
13
48
1
60
0
100
AcDbSpline
70
4
71
3
72
10
73
6
40
0
40
0
40
0
40
0
40
0.596085739020476
40
0.596085739020476
40
1
40
1
40
1
40
1
41
1
10
53.4964383490931
20
9.79439320953821
30
0
41
1
10
53.5128939358857
20
9.81616867781528
30
0
41
1
10
53.5267245821227
20
9.84059709940919
30
0
41
1
10
53.54081187438
20
9.88426948004408
30
0
41
1
10
53.544038381206
20
9.90301901474075
30
0
41
1
10
53.5441651422481
20
9.92161038133969
30
0
0
SPLINE
5
234
100
AcDbEntity
8
1
62
256
6
ByLayer
370
13
48
1
60
0
100
AcDbSpline
70
4
71
3
72
8
73
4
40
0
40
0
40
0
40
0
40
1
40
1
40
1
40
1
41
1
10
53.4749811562301
20
9.76658708906047
30
0
41
1
10
53.4822263780105
20
9.77575840757672
30
0
41
1
10
53.4893737130963
20
9.78504466676208
30
0
41
1
10
53.4964383490931
20
9.79439320953821
30
0
0
SPLINE
5
235
100
AcDbEntity
8
1
62
256
6
ByLayer
370
13
48
1
60
0
100
AcDbSpline
70
4
71
3
72
8
73
4
40
0
40
0
40
0
40
0
40
1
40
1
40
1
40
1
41
1
10
52.3587805434612
20
9.32159077261767
30
0
41
1
10
52.2587308196864
20
9.31815094090922
30
0
41
1
10
52.1579761895169
20
9.32211567249453
30
0
41
1
10
52.0587805434612
20
9.33557581464888
30
0
0
SPLINE
5
236
100
AcDbEntity
8
1
62
256
6
ByLayer
370
13
48
1
60
0
100
AcDbSpline
70
4
71
3
72
8
73
4
40
0
40
0
40
0
40
0
40
1
40
1
40
1
40
1
41
1
10
52.3587805434612
20
11.6784092273824
30
0
41
1
10
52.2587308196864
20
11.6818490590908
30
0
41
1
10
52.1579761895169
20
11.6778843275055
30
0
41
1
10
52.0587805434612
20
11.6644241853511
30
0
0
SPLINE
5
237
100
AcDbEntity
8
1
62
256
6
ByLayer
370
13
48
1
60
0
100
AcDbSpline
70
4
71
3
72
16
73
12
40
0
40
0
40
0
40
0
40
0.113631665737173
40
0.113631665737173
40
0.758132216188134
40
0.758132216188134
40
0.942823120099093
40
0.942823120099093
40
0.947778003019258
40
0.947778003019258
40
1
40
1
40
1
40
1
41
1
10
51.8112677608007
20
11.0158410745108
30
0
41
1
10
51.8332807942052
20
11.0228451433717
30
0
41
1
10
51.8554088133188
20
11.0294977911431
30
0
41
1
10
52.0026697940168
20
11.0711855692796
30
0
41
1
10
52.1333481685156
20
11.0939279587491
30
0
41
1
10
52.3009734748332
20
11.0924434259838
30
0
41
1
10
52.3386296238165
20
11.0906371905465
30
0
41
1
10
52.3773004835499
20
11.0892590357791
30
0
41
1
10
52.3783108496887
20
11.0892230184457
30
0
41
1
10
52.3899699703881
20
11.0888073752389
30
0
41
1
10
52.40061882194
20
11.0884304618729
30
0
41
1
10
52.4112677608007
20
11.088056041471
30
0
0
SPLINE
5
238
100
AcDbEntity
8
1
62
256
6
ByLayer
370
13
48
1
60
0
100
AcDbSpline
70
4
71
3
72
16
73
12
40
0
40
0
40
0
40
0
40
0.113631665737173
40
0.113631665737173
40
0.758132216188134
40
0.758132216188134
40
0.942823120099093
40
0.942823120099093
40
0.947778003019258
40
0.947778003019258
40
1
40
1
40
1
40
1
41
1
10
51.8112677608007
20
9.98415892548925
30
0
41
1
10
51.8332807942052
20
9.97715485662832
30
0
41
1
10
51.8554088133188
20
9.97050220885689
30
0
41
1
10
52.0026697940168
20
9.92881443072039
30
0
41
1
10
52.1333481685156
20
9.90607204125095
30
0
41
1
10
52.3009734748332
20
9.90755657401627
30
0
41
1
10
52.3386296238165
20
9.90936280945351
30
0
41
1
10
52.3773004835499
20
9.91074096422093
30
0
41
1
10
52.3783108496887
20
9.91077698155436
30
0
41
1
10
52.3899699703881
20
9.9111926247611
30
0
41
1
10
52.40061882194
20
9.91156953812711
30
0
41
1
10
52.4112677608007
20
9.91194395852907
30
0
0
SPLINE
5
239
100
AcDbEntity
8
1
62
256
6
ByLayer
370
13
48
1
60
0
100
AcDbSpline
70
4
71
3
72
10
73
6
40
0
40
0
40
0
40
0
40
0.411878619131049
40
0.411878619131049
40
1
40
1
40
1
40
1
41
1
10
53.5970257408783
20
9.92161038134427
30
0
41
1
10
53.5970257408783
20
9.89850187544039
30
0
41
1
10
53.5938567437525
20
9.8752198575113
30
0
41
1
10
53.5795589487909
20
9.82115244635568
30
0
41
1
10
53.5654981180153
20
9.79067373094423
30
0
41
1
10
53.5480487400853
20
9.762929861515
30
0
0
SPLINE
5
23A
100
AcDbEntity
8
1
62
256
6
ByLayer
370
13
48
1
60
0
100
AcDbSpline
70
4
71
3
72
10
73
6
40
0
40
0
40
0
40
0
40
0.411878619131049
40
0.411878619131049
40
1
40
1
40
1
40
1
41
1
10
53.5970257408783
20
11.0783896186558
30
0
41
1
10
53.5970257408783
20
11.1014981245596
30
0
41
1
10
53.5938567437525
20
11.1247801424887
30
0
41
1
10
53.5795589487909
20
11.1788475536443
30
0
41
1
10
53.5654981180153
20
11.2093262690558
30
0
41
1
10
53.5480487400853
20
11.237070138485
30
0
0
SPLINE
5
23B
100
AcDbEntity
8
1
62
256
6
ByLayer
370
13
48
1
60
0
100
AcDbSpline
70
4
71
3
72
8
73
4
40
0
40
0
40
0
40
0
40
1
40
1
40
1
40
1
41
1
10
53.5480487400851
20
11.237070138485
30
0
41
1
10
53.5406964490064
20
11.2464220365071
30
0
41
1
10
53.5332455329699
20
11.2556705144898
30
0
41
1
10
53.5256851850747
20
11.2647657471104
30
0
0
SPLINE
5
23C
100
AcDbEntity
8
1
62
256
6
ByLayer
370
13
48
1
60
0
100
AcDbSpline
70
4
71
3
72
8
73
4
40
0
40
0
40
0
40
0
40
1
40
1
40
1
40
1
41
1
10
53.5480487400851
20
9.76292986151506
30
0
41
1
10
53.5406964490064
20
9.75357796349289
30
0
41
1
10
53.5332455329699
20
9.74432948551021
30
0
41
1
10
53.5256851850747
20
9.7352342528896
30
0
0
SPLINE
5
23D
100
AcDbEntity
8
1
62
256
6
ByLayer
370
13
48
1
60
0
100
AcDbSpline
70
4
71
3
72
12
73
8
40
0
40
0
40
0
40
0
40
0.390105015408732
40
0.390105015408732
40
0.395238792462735
40
0.395238792462735
40
1
40
1
40
1
40
1
41
1
10
52.4112677608007
20
9.91194395852907
30
0
41
1
10
52.4930131894969
20
9.91405170355651
30
0
41
1
10
52.575069491157
20
9.91446245578172
30
0
41
1
10
52.6568134956408
20
9.91474795757438
30
0
41
1
10
52.6578786372164
20
9.91475156428348
30
0
41
1
10
52.7833815366521
20
9.91516313616165
30
0
41
1
10
52.906145891386
20
9.9140592174297
30
0
41
1
10
53.0213727254144
20
9.910924377577
30
0
0
SPLINE
5
23E
100
AcDbEntity
8
1
62
256
6
ByLayer
370
13
48
1
60
0
100
AcDbSpline
70
4
71
3
72
12
73
8
40
0
40
0
40
0
40
0
40
0.390105015408732
40
0.390105015408732
40
0.395238792462735
40
0.395238792462735
40
1
40
1
40
1
40
1
41
1
10
52.4112677608007
20
11.088056041471
30
0
41
1
10
52.4930131894969
20
11.0859482964435
30
0
41
1
10
52.575069491157
20
11.0855375442183
30
0
41
1
10
52.6568134956408
20
11.0852520424256
30
0
41
1
10
52.6578786372164
20
11.0852484357166
30
0
41
1
10
52.7833815366521
20
11.0848368638384
30
0
41
1
10
52.906145891386
20
11.0859407825703
30
0
41
1
10
53.0213727254144
20
11.089075622423
30
0
0
SPLINE
5
23F
100
AcDbEntity
8
1
62
256
6
ByLayer
370
18
48
1
60
0
100
AcDbSpline
70
4
71
3
72
8
73
4
40
0
40
0
40
0
40
0
40
1
40
1
40
1
40
1
41
1
10
-16.0923183384427
20
0.394519052838319
30
0
41
1
10
-15.7350293608484
20
0.175900366251454
30
0
41
1
10
-15.3747395684788
20
-0.0390955465932166
30
0
41
1
10
-15.011305873316
20
-0.249980947161674
30
0
0
SPLINE
5
240
100
AcDbEntity
8
1
62
256
6
ByLayer
370
18
48
1
60
0
100
AcDbSpline
70
4
71
3
72
14
73
10
40
0
40
0
40
0
40
0
40
0.158420228294802
40
0.158420228294802
40
0.383502935565563
40
0.383502935565563
40
0.741809944580246
40
0.741809944580246
40
1
40
1
40
1
40
1
41
1
10
18.4837089376593
20
-0.324980947161777
30
0
41
1
10
18.4860553308189
20
-0.324980947161777
30
0
41
1
10
18.4893700128427
20
-0.323992548254864
30
0
41
1
10
18.4990526114348
20
-0.319670166986071
30
0
41
1
10
18.5062205486188
20
-0.315479701706124
30
0
41
1
10
18.5266661591476
20
-0.301990526231805
30
0
41
1
10
18.5413857722147
20
-0.290950658335362
30
0
41
1
10
18.5677927070637
20
-0.269784604658497
30
0
41
1
10
18.5793710266251
20
-0.26010894588569
30
0
41
1
10
18.591105468188
20
-0.249980947161674
30
0
0
SPLINE
5
241
100
AcDbEntity
8
1
62
256
6
ByLayer
370
18
48
1
60
0
100
AcDbSpline
70
4
71
3
72
8
73
4
40
0
40
0
40
0
40
0
40
1
40
1
40
1
40
1
41
1
10
-11.6678057336411
20
0.394519052838319
30
0
41
1
10
-11.1044931479051
20
0.167075266492191
30
0
41
1
10
-10.5344723697693
20
-0.0483934946950342
30
0
41
1
10
-9.95818080364211
20
-0.249980947161674
30
0
0
SPLINE
5
242
100
AcDbEntity
8
1
62
256
6
ByLayer
370
18
48
1
60
0
100
AcDbSpline
70
4
71
3
72
8
73
4
40
0
40
0
40
0
40
0
40
1
40
1
40
1
40
1
41
1
10
9.95818080364211
20
-0.249980947161674
30
0
41
1
10
10.5344723697693
20
-0.0483934946950342
30
0
41
1
10
11.1044931479051
20
0.167075266492162
30
0
41
1
10
11.6678057336411
20
0.394519052838319
30
0
0
SPLINE
5
243
100
AcDbEntity
8
1
62
256
6
ByLayer
370
18
48
1
60
0
100
AcDbSpline
70
4
71
3
72
22
73
18
40
0
40
0
40
0
40
0
40
0.0788682030147977
40
0.0788682030147977
40
0.125385205688548
40
0.125385205688548
40
0.172693500923944
40
0.172693500923944
40
0.215469593624303
40
0.215469593624303
40
0.26274142556998
40
0.26274142556998
40
0.342722003608368
40
0.342722003608368
40
0.582518901502253
40
0.582518901502253
40
1
40
1
40
1
40
1
41
1
10
5.61238790983066
20
-0.249980947161674
30
0
41
1
10
5.6064070382885
20
-0.253907122300603
30
0
41
1
10
5.60068246041999
20
-0.258139974864093
30
0
41
1
10
5.59289366789912
20
-0.26551297758013
30
0
41
1
10
5.59026223940609
20
-0.268438452013442
30
0
41
1
10
5.58616244683444
20
-0.274553504985761
30
0
41
1
10
5.58468883424388
20
-0.277834605532462
30
0
41
1
10
5.58376815391787
20
-0.283877115295297
30
0
41
1
10
5.58414644153728
20
-0.286731240365867
30
0
41
1
10
5.5864325010628
20
-0.292103201615078
30
0
41
1
10
5.58849155053773
20
-0.294646726753285
30
0
41
1
10
5.59517929313074
20
-0.300565438673317
30
0
41
1
10
5.60065604671902
20
-0.303481449873203
30
0
41
1
10
5.6237378746203
20
-0.313083254394627
30
0
41
1
10
5.64438526068878
20
-0.316636779769311
30
0
41
1
10
5.70085095486729
20
-0.323791643110951
30
0
41
1
10
5.73840699253313
20
-0.324980947161691
30
0
41
1
10
5.77605947760023
20
-0.324980947161691
30
0
0
SPLINE
5
244
100
AcDbEntity
8
1
62
256
6
ByLayer
370
18
48
1
60
0
100
AcDbSpline
70
4
71
3
72
8
73
4
40
0
40
0
40
0
40
0
40
1
40
1
40
1
40
1
41
1
10
17.2234180953956
20
0.394519052838319
30
0
41
1
10
17.0465893021274
20
0.179667539911009
30
0
41
1
10
16.8697319891465
20
-0.0351663712000914
30
0
41
1
10
16.6928433719955
20
-0.249980947161418
30
0
0
SPLINE
5
245
100
AcDbEntity
8
1
62
256
6
ByLayer
370
18
48
1
60
0
100
AcDbSpline
70
4
71
3
72
22
73
18
40
0
40
0
40
0
40
0
40
0.179950371584695
40
0.179950371584695
40
0.330582840102327
40
0.330582840102327
40
0.450068996766956
40
0.450068996766956
40
0.570958630834341
40
0.570958630834341
40
0.673108526285204
40
0.673108526285204
40
0.774784733516888
40
0.774784733516888
40
0.928575686255428
40
0.928575686255428
40
1
40
1
40
1
40
1
41
1
10
19.5732661362727
20
0.394519052838319
30
0
41
1
10
19.5897542188033
20
0.409811528179063
30
0
41
1
10
19.6058371726624
20
0.424374574627194
30
0
41
1
10
19.6326356334644
20
0.447800441616408
30
0
41
1
10
19.6440343108134
20
0.457404667806912
30
0
41
1
10
19.6607747415594
20
0.47057350034612
30
0
41
1
10
19.6670161325704
20
0.47507256308802
30
0
41
1
10
19.6754367573932
20
0.479894856114413
30
0
41
1
10
19.677644640058
20
0.480188554744359
30
0
41
1
10
19.6771134940703
20
0.476315299614953
30
0
41
1
10
19.6750887404331
20
0.472790710641732
30
0
41
1
10
19.668134458301
20
0.463133821277125
30
0
41
1
10
19.6631634576382
20
0.456925623916646
30
0
41
1
10
19.6483415240208
20
0.439394170264905
30
0
41
1
10
19.6370893239844
20
0.426817933884166
30
0
41
1
10
19.6191858263395
20
0.407406617666112
30
0
41
1
10
19.6132179436929
20
0.401017516193661
30
0
41
1
10
19.6070845897382
20
0.394519052838319
30
0
0
SPLINE
5
246
100
AcDbEntity
8
1
62
256
6
ByLayer
370
18
48
1
60
0
100
AcDbSpline
70
4
71
3
72
8
73
4
40
0
40
0
40
0
40
0
40
1
40
1
40
1
40
1
41
1
10
6.93594876110097
20
-0.249980947161703
30
0
41
1
10
7.72806880567606
20
-0.0626871252384831
30
0
41
1
10
8.51165171787554
20
0.153545136850994
30
0
41
1
10
9.28418104530812
20
0.394519052838319
30
0
0
SPLINE
5
247
100
AcDbEntity
8
1
62
256
6
ByLayer
370
18
48
1
60
0
100
AcDbSpline
70
4
71
3
72
12
73
8
40
0
40
0
40
0
40
0
40
0.615301702098698
40
0.615301702098698
40
0.961706798328245
40
0.961706798328245
40
1
40
1
40
1
40
1
41
1
10
-13.7033325990739
20
-0.249980947161674
30
0
41
1
10
-13.6540352131323
20
-0.275247881244127
30
0
41
1
10
-13.6036020518143
20
-0.29632149397753
30
0
41
1
10
-13.5289763418102
20
-0.317976480917281
30
0
41
1
10
-13.5022660870475
20
-0.3236604882417
30
0
41
1
10
-13.4759353293386
20
-0.324914533088474
30
0
41
1
10
-13.4733236754212
20
-0.32498094716172
30
0
41
1
10
-13.4707590466701
20
-0.32498094716172
30
0
0
SPLINE
5
248
100
AcDbEntity
8
1
62
256
6
ByLayer
370
18
48
1
60
0
100
AcDbSpline
70
4
71
3
72
18
73
14
40
0
40
0
40
0
40
0
40
0.123937831480531
40
0.123937831480531
40
0.313098093381541
40
0.313098093381541
40
0.481528407194494
40
0.481528407194494
40
0.622658669203413
40
0.622658669203413
40
0.848310778203215
40
0.848310778203215
40
1
40
1
40
1
40
1
41
1
10
13.2410331525233
20
-0.249980947159685
30
0
41
1
10
13.2367094641673
20
-0.255116585692804
30
0
41
1
10
13.2327355743826
20
-0.260337990090903
30
0
41
1
10
13.2241890042849
20
-0.273376364216034
30
0
41
1
10
13.2202833455423
20
-0.281363091099848
30
0
41
1
10
13.2170367117722
20
-0.294926621248862
30
0
41
1
10
13.2172441345201
20
-0.300839956904923
30
0
41
1
10
13.2207187916851
20
-0.309651675120648
30
0
41
1
10
13.223492074514
20
-0.313004447296862
30
0
41
1
10
13.2326869110105
20
-0.319822507478307
30
0
41
1
10
13.2403866350276
20
-0.322339239659669
30
0
41
1
10
13.2546312854228
20
-0.324589889544484
30
0
41
1
10
13.2608142700645
20
-0.324980947164164
30
0
41
1
10
13.267244992439
20
-0.324980947164107
30
0
0
SPLINE
5
249
100
AcDbEntity
8
1
62
256
6
ByLayer
370
18
48
1
60
0
100
AcDbSpline
70
4
71
3
72
22
73
18
40
0
40
0
40
0
40
0
40
0.408684324364642
40
0.408684324364642
40
0.616236304630552
40
0.616236304630552
40
0.702098076173433
40
0.702098076173433
40
0.789387538086883
40
0.789387538086883
40
0.84447814326802
40
0.84447814326802
40
0.899761286274415
40
0.899761286274415
40
0.953309161336055
40
0.953309161336055
40
1
40
1
40
1
40
1
41
1
10
13.4751387226224
20
0.394519052838319
30
0
41
1
10
13.537810820098
20
0.42464613711013
30
0
41
1
10
13.6019684752477
20
0.449719995926529
30
0
41
1
10
13.6928941937859
20
0.473334413977796
30
0
41
1
10
13.7233281344957
20
0.479020166223251
30
0
41
1
10
13.7612545395208
20
0.479685312974482
30
0
41
1
10
13.7718681323131
20
0.478936632261423
30
0
41
1
10
13.7904363713798
20
0.474504984859635
30
0
41
1
10
13.7985758785161
20
0.470674894339055
30
0
41
1
10
13.8069973096748
20
0.460937156483766
30
0
41
1
10
13.809094012914
20
0.456191273611552
30
0
41
1
10
13.8101551818682
20
0.445237655013415
30
0
41
1
10
13.8091114815384
20
0.438887830944566
30
0
41
1
10
13.8043777070099
20
0.425834787815063
30
0
41
1
10
13.8007508484983
20
0.419014903663992
30
0
41
1
10
13.7924452721931
20
0.406330653686638
30
0
41
1
10
13.7879228458484
20
0.400377184476099
30
0
41
1
10
13.7830022040413
20
0.394519052838263
30
0
0
SPLINE
5
24A
100
AcDbEntity
8
1
62
256
6
ByLayer
370
18
48
1
60
0
100
AcDbSpline
70
4
71
3
72
20
73
16
40
0
40
0
40
0
40
0
40
0.286607810733623
40
0.286607810733623
40
0.438925525717915
40
0.438925525717915
40
0.593508619885468
40
0.593508619885468
40
0.710064884967606
40
0.710064884967606
40
0.826332653470752
40
0.826332653470752
40
0.993613255596691
40
0.993613255596691
40
1
40
1
40
1
40
1
41
1
10
-11.531152623331
20
-0.324980947161691
30
0
41
1
10
-11.5170039624523
20
-0.324980947161691
30
0
41
1
10
-11.5033410300966
20
-0.3238633943661
30
0
41
1
10
-11.4851777100478
20
-0.319015300149232
30
0
41
1
10
-11.4793120003969
20
-0.316698776429661
30
0
41
1
10
-11.4696128561097
20
-0.31035458295878
30
0
41
1
10
-11.4657232178889
20
-0.306192211150687
30
0
41
1
10
-11.4621654537654
20
-0.297228048412649
30
0
41
1
10
-11.46168920021
20
-0.292732418606562
30
0
41
1
10
-11.463052694229
20
-0.283178299023206
30
0
41
1
10
-11.4648890390718
20
-0.278018380372572
30
0
41
1
10
-11.471377328742
20
-0.265506204224323
30
0
41
1
10
-11.4769530343168
20
-0.257981340052709
30
0
41
1
10
-11.4835366918245
20
-0.250533373803762
30
0
41
1
10
-11.4837825806603
20
-0.250256991586866
30
0
41
1
10
-11.4840297216438
20
-0.249980947161646
30
0
0
SPLINE
5
24B
100
AcDbEntity
8
1
62
256
6
ByLayer
370
18
48
1
60
0
100
AcDbSpline
70
4
71
3
72
8
73
4
40
0
40
0
40
0
40
0
40
1
40
1
40
1
40
1
41
1
10
-18.4739743524118
20
0.394519052838319
30
0
41
1
10
-18.1962188143275
20
0.178025589846356
30
0
41
1
10
-17.9167894401584
20
-0.0368701453001563
30
0
41
1
10
-17.6355675589553
20
-0.249980947161674
30
0
0
SPLINE
5
24C
100
AcDbEntity
8
1
62
256
6
ByLayer
370
18
48
1
60
0
100
AcDbSpline
70
4
71
3
72
16
73
12
40
0
40
0
40
0
40
0
40
0.139294418755713
40
0.139294418755713
40
0.37316566660927
40
0.37316566660927
40
0.578220057613414
40
0.578220057613414
40
0.767384494360285
40
0.767384494360285
40
1
40
1
40
1
40
1
41
1
10
-16.678630528017
20
-0.32498094716189
30
0
41
1
10
-16.6749006414288
20
-0.32498094716189
30
0
41
1
10
-16.6715608890287
20
-0.324509925620276
30
0
41
1
10
-16.6641644827684
20
-0.321776149719597
30
0
41
1
10
-16.6610655199581
20
-0.318404104339976
30
0
41
1
10
-16.6594100484281
20
-0.309034415686114
30
0
41
1
10
-16.6603335449382
20
-0.303280494303237
30
0
41
1
10
-16.6650372093721
20
-0.290736621045141
30
0
41
1
10
-16.6686182084702
20
-0.2839327559266
30
0
41
1
10
-16.6785042140017
20
-0.268265264489543
30
0
41
1
10
-16.6853265492685
20
-0.259109420845249
30
0
41
1
10
-16.6928433719954
20
-0.249980947161418
30
0
0
SPLINE
5
24D
100
AcDbEntity
8
1
62
256
6
ByLayer
370
18
48
1
60
0
100
AcDbSpline
70
4
71
3
72
8
73
4
40
0
40
0
40
0
40
0
40
1
40
1
40
1
40
1
41
1
10
19.3876104526855
20
0.394519052838319
30
0
41
1
10
19.1919208736785
20
0.179435695072158
30
0
41
1
10
18.9958755564109
20
-0.0354053390300066
30
0
41
1
10
18.7994441682815
20
-0.249980947161646
30
0
0
SPLINE
5
24E
100
AcDbEntity
8
1
62
256
6
ByLayer
370
18
48
1
60
0
100
AcDbSpline
70
4
71
3
72
8
73
4
40
0
40
0
40
0
40
0
40
1
40
1
40
1
40
1
41
1
10
15.011305873316
20
-0.249980947161674
30
0
41
1
10
15.3747395684788
20
-0.0390955465932166
30
0
41
1
10
15.7350293608484
20
0.175900366251454
30
0
41
1
10
16.0923183384427
20
0.394519052838319
30
0
0
SPLINE
5
24F
100
AcDbEntity
8
1
62
256
6
ByLayer
370
18
48
1
60
0
100
AcDbSpline
70
4
71
3
72
8
73
4
40
0
40
0
40
0
40
0
40
1
40
1
40
1
40
1
41
1
10
-17.8422547739247
20
0.394519052838348
30
0
41
1
10
-17.5434843169751
20
0.177537098598037
30
0
41
1
10
-17.2426951415731
20
-0.0373804354690037
30
0
41
1
10
-16.939753936379
20
-0.249980947161674
30
0
0
SPLINE
5
250
100
AcDbEntity
8
1
62
256
6
ByLayer
370
18
48
1
60
0
100
AcDbSpline
70
4
71
3
72
12
73
8
40
0
40
0
40
0
40
0
40
0.183025184598867
40
0.183025184598867
40
0.526735094944526
40
0.526735094944526
40
1
40
1
40
1
40
1
41
1
10
16.7870313841585
20
-0.324980947167234
30
0
41
1
10
16.793329465927
20
-0.324980947166523
30
0
41
1
10
16.8008983003295
20
-0.323564867151902
30
0
41
1
10
16.8244275612491
20
-0.316700819517479
30
0
41
1
10
16.8422833192478
20
-0.308761278058853
30
0
41
1
10
16.885881903662
20
-0.285793966152596
30
0
41
1
10
16.9129079609012
20
-0.268821131413972
30
0
41
1
10
16.939753936379
20
-0.249980947161703
30
0
0
SPLINE
5
251
100
AcDbEntity
8
1
62
256
6
ByLayer
370
18
48
1
60
0
100
AcDbSpline
70
4
71
3
72
22
73
18
40
0
40
0
40
0
40
0
40
0.250828641170314
40
0.250828641170314
40
0.411502452975976
40
0.411502452975976
40
0.536118538597332
40
0.536118538597332
40
0.63415137333592
40
0.63415137333592
40
0.732817837877503
40
0.732817837877503
40
0.823088804657734
40
0.823088804657734
40
0.947597295962975
40
0.947597295962975
40
1
40
1
40
1
40
1
41
1
10
18.4739743524118
20
0.394519052838319
30
0
41
1
10
18.499914758328
20
0.414738013536436
30
0
41
1
10
18.5257981377012
20
0.433331336721494
30
0
41
1
10
18.5646342653364
20
0.457806838810228
30
0
41
1
10
18.5792014142595
20
0.466024409520742
30
0
41
1
10
18.6014561077749
20
0.476024660894098
30
0
41
1
10
18.6101348784836
20
0.478895027362512
30
0
41
1
10
18.6216837936205
20
0.479847343810348
30
0
41
1
10
18.6254762527657
20
0.478790786431119
30
0
41
1
10
18.6292892926581
20
0.47329303858595
30
0
41
1
10
18.6293104081995
20
0.468731522980391
30
0
41
1
10
18.6257293577357
20
0.457358651402529
30
0
41
1
10
18.6224154468732
20
0.450654695434935
30
0
41
1
10
18.6118395848942
20
0.433216805629115
30
0
41
1
10
18.6034373760454
20
0.421664916028163
30
0
41
1
10
18.589919542682
20
0.40479827299589
30
0
41
1
10
18.5856649893696
20
0.399678241747836
30
0
41
1
10
18.5812482082593
20
0.394519052838319
30
0
0
SPLINE
5
252
100
AcDbEntity
8
1
62
256
6
ByLayer
370
18
48
1
60
0
100
AcDbSpline
70
4
71
3
72
8
73
4
40
0
40
0
40
0
40
0
40
1
40
1
40
1
40
1
41
1
10
-16.6928433719955
20
-0.249980947161418
30
0
41
1
10
-16.8697319891465
20
-0.0351663712000629
30
0
41
1
10
-17.0465893021274
20
0.179667539911037
30
0
41
1
10
-17.2234180953956
20
0.394519052838319
30
0
0
SPLINE
5
253
100
AcDbEntity
8
1
62
256
6
ByLayer
370
18
48
1
60
0
100
AcDbSpline
70
4
71
3
72
8
73
4
40
0
40
0
40
0
40
0
40
1
40
1
40
1
40
1
41
1
10
-14.9171390202628
20
0.394519052838348
30
0
41
1
10
-14.516324377639
20
0.174425330040975
30
0
41
1
10
-14.1117592050607
20
-0.0406455446070595
30
0
41
1
10
-13.7033325990739
20
-0.249980947161674
30
0
0
SPLINE
5
254
100
AcDbEntity
8
1
62
256
6
ByLayer
370
18
48
1
60
0
100
AcDbSpline
70
4
71
3
72
20
73
16
40
0
40
0
40
0
40
0
40
0.0928116455680172
40
0.0928116455680172
40
0.248393409487353
40
0.248393409487353
40
0.36492390041317
40
0.36492390041317
40
0.481099622226446
40
0.481099622226446
40
0.651226534916412
40
0.651226534916412
40
0.944713939994358
40
0.944713939994358
40
1
40
1
40
1
40
1
41
1
10
11.4840297216472
20
-0.2499809471567
30
0
41
1
10
11.4804619182948
20
-0.25396600949486
30
0
41
1
10
11.4771421000847
20
-0.258035856448686
30
0
41
1
10
11.4693477502519
20
-0.268948085438382
30
0
41
1
10
11.4654915057364
20
-0.276018382009085
30
0
41
1
10
11.4620830475688
20
-0.287599381147743
30
0
41
1
10
11.4616884824179
20
-0.29241469879662
30
0
41
1
10
11.4631954574238
20
-0.300889389363732
30
0
41
1
10
11.4650920419126
20
-0.304653008195629
30
0
41
1
10
11.4717480606215
20
-0.312376862099882
30
0
41
1
10
11.4774722089602
20
-0.315792857243622
30
0
41
1
10
11.4951060717701
20
-0.322555386335125
30
0
41
1
10
11.5087533439068
20
-0.324352679274142
30
0
41
1
10
11.5256666156451
20
-0.324936716878227
30
0
41
1
10
11.5283967548234
20
-0.324980947161748
30
0
41
1
10
11.5311526233309
20
-0.324980947161748
30
0
0
SPLINE
5
255
100
AcDbEntity
8
1
62
256
6
ByLayer
370
18
48
1
60
0
100
AcDbSpline
70
4
71
3
72
22
73
18
40
0
40
0
40
0
40
0
40
0.0337191778455999
40
0.0337191778455999
40
0.0895646790802703
40
0.0895646790802703
40
0.131392810356541
40
0.131392810356541
40
0.173095412158189
40
0.173095412158189
40
0.233901905207916
40
0.233901905207916
40
0.338259240523273
40
0.338259240523273
40
0.556878508932909
40
0.556878508932909
40
1
40
1
40
1
40
1
41
1
10
-12.0587239255465
20
0.394519052838063
30
0
41
1
10
-12.0628458260448
20
0.399159486907337
30
0
41
1
10
-12.0666751985533
20
0.403897061978853
30
0
41
1
10
-12.0755695029156
20
0.416488812941964
30
0
41
1
10
-12.0799308589228
20
0.424593252610578
30
0
41
1
10
-12.0837380616332
20
0.437820583441891
30
0
41
1
10
-12.0841484785969
20
0.443304657509117
30
0
41
1
10
-12.0823456616943
20
0.452926515549421
30
0
41
1
10
-12.0801365022145
20
0.457183199664286
30
0
41
1
10
-12.07244086151
20
0.465860773716429
30
0
41
1
10
-12.0658628688763
20
0.469661657482646
30
0
41
1
10
-12.0456723621449
20
0.477095090395949
30
0
41
1
10
-12.0300954666452
20
0.478986900720912
30
0
41
1
10
-11.9800123416439
20
0.480331468618118
30
0
41
1
10
-11.9421309304839
20
0.475156462670156
30
0
41
1
10
-11.8274416641465
20
0.452287582667793
30
0
41
1
10
-11.7467648775053
20
0.426399694425044
30
0
41
1
10
-11.6678057336411
20
0.394519052838348
30
0
0
SPLINE
5
256
100
AcDbEntity
8
1
62
256
6
ByLayer
370
18
48
1
60
0
100
AcDbSpline
70
4
71
3
72
12
73
8
40
0
40
0
40
0
40
0
40
0.195464842941712
40
0.195464842941712
40
0.580247756261756
40
0.580247756261756
40
1
40
1
40
1
40
1
41
1
10
15.9014694779916
20
-0.3249809471763
30
0
41
1
10
15.909837292279
20
-0.324980947174708
30
0
41
1
10
15.9195916432662
20
-0.323351048349764
30
0
41
1
10
15.9502027056823
20
-0.315393057316697
30
0
41
1
10
15.9731746147681
20
-0.306002655926278
30
0
41
1
10
16.021929547067
20
-0.28211454650426
30
0
41
1
10
16.0484322921153
20
-0.266894165469012
30
0
41
1
10
16.0747405491864
20
-0.249980947161674
30
0
0
SPLINE
5
257
100
AcDbEntity
8
1
62
256
6
ByLayer
370
18
48
1
60
0
100
AcDbSpline
70
4
71
3
72
24
73
20
40
0
40
0
40
0
40
0
40
0.4239839469916
40
0.4239839469916
40
0.622637146756964
40
0.622637146756964
40
0.722302904446572
40
0.722302904446572
40
0.767750298903099
40
0.767750298903099
40
0.814003400478644
40
0.814003400478644
40
0.853837190983433
40
0.853837190983433
40
0.904883484540147
40
0.904883484540147
40
0.9963908138319
40
0.9963908138319
40
1
40
1
40
1
40
1
41
1
10
-5.77605947760023
20
-0.324980947161691
30
0
41
1
10
-5.73779746968944
20
-0.324980947161691
30
0
41
1
10
-5.69961871744928
20
-0.323767147163522
30
0
41
1
10
-5.6461401790269
20
-0.316792567857306
30
0
41
1
10
-5.62921997135012
20
-0.313804798756706
30
0
41
1
10
-5.60643808254881
20
-0.306174520164774
30
0
41
1
10
-5.5991279038974
20
-0.303038768809785
30
0
41
1
10
-5.59074538499482
20
-0.296837044095781
30
0
41
1
10
-5.58842518512361
20
-0.294610517188971
30
0
41
1
10
-5.58507950132048
20
-0.289565619543339
30
0
41
1
10
-5.58406621814496
20
-0.286651277435652
30
0
41
1
10
-5.58398439028542
20
-0.28100229353177
30
0
41
1
10
-5.58466438248411
20
-0.278234692635237
30
0
41
1
10
-5.58748100946826
20
-0.272152310668247
30
0
41
1
10
-5.58997588063102
20
-0.268803269241857
30
0
41
1
10
-5.59807588150429
20
-0.260131694329687
30
0
41
1
10
-5.60466493900844
20
-0.255108305126157
30
0
41
1
10
-5.61183742178798
20
-0.250343382971266
30
0
41
1
10
-5.61211231012786
20
-0.250161866061859
30
0
41
1
10
-5.61238790983103
20
-0.249980947161447
30
0
0
SPLINE
5
258
100
AcDbEntity
8
1
62
256
6
ByLayer
370
18
48
1
60
0
100
AcDbSpline
70
4
71
3
72
8
73
4
40
0
40
0
40
0
40
0
40
1
40
1
40
1
40
1
41
1
10
-13.2410331525237
20
-0.249980947159742
30
0
41
1
10
-13.4218276833375
20
-0.0352348131660847
30
0
41
1
10
-13.6024787589423
20
0.179601945162574
30
0
41
1
10
-13.7830022040407
20
0.394519052838319
30
0
0
SPLINE
5
259
100
AcDbEntity
8
1
62
256
6
ByLayer
370
18
48
1
60
0
100
AcDbSpline
70
4
71
3
72
8
73
4
40
0
40
0
40
0
40
0
40
1
40
1
40
1
40
1
41
1
10
18.8729219314524
20
-0.249980947161674
30
0
41
1
10
19.107364519588
20
-0.0359614008632434
30
0
41
1
10
19.3407877832485
20
0.178898499370177
30
0
41
1
10
19.5732661362727
20
0.394519052838319
30
0
0
SPLINE
5
25A
100
AcDbEntity
8
1
62
256
6
ByLayer
370
18
48
1
60
0
100
AcDbSpline
70
4
71
3
72
22
73
18
40
0
40
0
40
0
40
0
40
0.27291572620679
40
0.27291572620679
40
0.436610056927915
40
0.436610056927915
40
0.563360973334033
40
0.563360973334033
40
0.658857413301299
40
0.658857413301299
40
0.755190338856472
40
0.755190338856472
40
0.840768024903129
40
0.840768024903129
40
0.955645516929297
40
0.955645516929297
40
1
40
1
40
1
40
1
41
1
10
17.8422547739247
20
0.394519052838319
30
0
41
1
10
17.872062491358
20
0.416166898633264
30
0
41
1
10
17.902007127528
20
0.435797416086786
30
0
41
1
10
17.9461328495388
20
0.460279573202712
30
0
41
1
10
17.9621642454125
20
0.46805531162326
30
0
41
1
10
17.9870683640632
20
0.477135407653805
30
0
41
1
10
17.9969443103709
20
0.47955312723613
30
0
41
1
10
18.0102162856553
20
0.479492688712298
30
0
41
1
10
18.0146963943843
20
0.478032212565267
30
0
41
1
10
18.0198206699188
20
0.471754989419225
30
0
41
1
10
18.0204638772606
20
0.46678701114422
30
0
41
1
10
18.01779090349
20
0.45479845221746
30
0
41
1
10
18.014897702119
20
0.447941029922419
30
0
41
1
10
18.0053266043315
20
0.430569122266689
30
0
41
1
10
17.997592826459
20
0.419355141826031
30
0
41
1
10
17.9853037513096
20
0.403531993006226
30
0
41
1
10
17.9816671833407
20
0.399036008183401
30
0
41
1
10
17.9778880275985
20
0.394519052838319
30
0
0
SPLINE
5
25B
100
AcDbEntity
8
1
62
256
6
ByLayer
370
18
48
1
60
0
100
AcDbSpline
70
4
71
3
72
10
73
6
40
0
40
0
40
0
40
0
40
0.714320902179723
40
0.714320902179723
40
1
40
1
40
1
40
1
41
1
10
-12.0715924641049
20
-0.249980947161816
30
0
41
1
10
-12.0034758815138
20
-0.279771282393796
30
0
41
1
10
-11.9334098764061
20
-0.303449618178149
30
0
41
1
10
-11.8408730355727
20
-0.321515027831708
30
0
41
1
10
-11.8145602682299
20
-0.324980947160384
30
0
41
1
10
-11.7904053433558
20
-0.324980947161691
30
0
0
SPLINE
5
25C
100
AcDbEntity
8
1
62
256
6
ByLayer
370
18
48
1
60
0
100
AcDbSpline
70
4
71
3
72
16
73
12
40
0
40
0
40
0
40
0
40
0.253275512761258
40
0.253275512761258
40
0.495734960994393
40
0.495734960994393
40
0.741076288408496
40
0.741076288408496
40
0.949184595302417
40
0.949184595302417
40
1
40
1
40
1
40
1
41
1
10
18.02872875272
20
-0.249980947161589
30
0
41
1
10
18.0203010401962
20
-0.259797687981006
30
0
41
1
10
18.0124779452731
20
-0.269511663051731
30
0
41
1
10
17.999581232446
20
-0.287211654583302
30
0
41
1
10
17.9942991812083
20
-0.295423697794945
30
0
41
1
10
17.9872907726214
20
-0.309291111767863
30
0
41
1
10
17.9855489176432
20
-0.31509106766535
30
0
41
1
10
17.9863187804695
20
-0.322194130304297
30
0
41
1
10
17.9882255184319
20
-0.32414188765793
30
0
41
1
10
17.9921506207279
20
-0.324906942168155
30
0
41
1
10
17.9930033696459
20
-0.324980947161691
30
0
41
1
10
17.9939249199247
20
-0.324980947161691
30
0
0
SPLINE
5
25D
100
AcDbEntity
8
1
62
256
6
ByLayer
370
18
48
1
60
0
100
AcDbSpline
70
4
71
3
72
8
73
4
40
0
40
0
40
0
40
0
40
1
40
1
40
1
40
1
41
1
10
-17.0559192792915
20
0.394519052838319
30
0
41
1
10
-16.7313555006636
20
0.176865425835672
30
0
41
1
10
-16.4043439217116
20
-0.0380834512813806
30
0
41
1
10
-16.0747405491864
20
-0.249980947161674
30
0
0
SPLINE
5
25E
100
AcDbEntity
8
1
62
256
6
ByLayer
370
18
48
1
60
0
100
AcDbSpline
70
4
71
3
72
8
73
4
40
0
40
0
40
0
40
0
40
1
40
1
40
1
40
1
41
1
10
19.0327392125282
20
-0.249980947161674
30
0
41
1
10
19.2556670974128
20
-0.0357767269013607
30
0
41
1
10
19.4777657699182
20
0.179076567029881
30
0
41
1
10
19.6990969386236
20
0.394519052838319
30
0
0
SPLINE
5
25F
100
AcDbEntity
8
1
62
256
6
ByLayer
370
18
48
1
60
0
100
AcDbSpline
70
4
71
3
72
18
73
14
40
0
40
0
40
0
40
0
40
0.15043541345921
40
0.15043541345921
40
0.355090176427529
40
0.355090176427529
40
0.561953107090284
40
0.561953107090284
40
0.739387968277347
40
0.739387968277347
40
0.986215876208523
40
0.986215876208523
40
1
40
1
40
1
40
1
41
1
10
-15.767828240541
20
-0.324980947162317
30
0
41
1
10
-15.763101472641
20
-0.324980947162317
30
0
41
1
10
-15.7587571668661
20
-0.324484365155087
30
0
41
1
10
-15.7499564226083
20
-0.32186780661084
30
0
41
1
10
-15.7459428960202
20
-0.319163331965342
30
0
41
1
10
-15.7413647335261
20
-0.311112490389434
30
0
41
1
10
-15.7408167126847
20
-0.305586944128237
30
0
41
1
10
-15.7433107612256
20
-0.293565917025177
30
0
41
1
10
-15.7458606684657
20
-0.287190897498419
30
0
41
1
10
-15.7543401173141
20
-0.271359399745677
30
0
41
1
10
-15.7612832042177
20
-0.261431596246382
30
0
41
1
10
-15.7696101793364
20
-0.251087196815177
30
0
41
1
10
-15.7700586925501
20
-0.250534089826942
30
0
41
1
10
-15.7705104401656
20
-0.249980947161674
30
0
0
SPLINE
5
260
100
AcDbEntity
8
1
62
256
6
ByLayer
370
18
48
1
60
0
100
AcDbSpline
70
4
71
3
72
22
73
18
40
0
40
0
40
0
40
0
40
0.0471262959421869
40
0.0471262959421869
40
0.118694824008325
40
0.118694824008325
40
0.182349200535345
40
0.182349200535345
40
0.235540081599153
40
0.235540081599153
40
0.320073148402496
40
0.320073148402496
40
0.465406984164713
40
0.465406984164713
40
0.748729451042544
40
0.748729451042544
40
1
40
1
40
1
40
1
41
1
10
-13.7830022040413
20
0.394519052838263
30
0
41
1
10
-13.7879482596185
20
0.400407440124894
30
0
41
1
10
-13.7924921524683
20
0.406392393543172
30
0
41
1
10
-13.8022248830213
20
0.421281087343544
30
0
41
1
10
-13.8066613599842
20
0.430373128901039
30
0
41
1
10
-13.8103295555129
20
0.445779837153935
30
0
41
1
10
-13.8100792275569
20
0.452482540149731
30
0
41
1
10
-13.8060851787374
20
0.462433556843877
30
0
41
1
10
-13.8029125601754
20
0.466205691132899
30
0
41
1
10
-13.7924347121206
20
0.473826613574488
30
0
41
1
10
-13.7836945326192
20
0.476619192818191
30
0
41
1
10
-13.757495486281
20
0.48064238353237
30
0
41
1
10
-13.7378308605805
20
0.479580583515599
30
0
41
1
10
-13.6781158445143
20
0.471189325371597
30
0
41
1
10
-13.6348383150857
20
0.458832898641703
30
0
41
1
10
-13.5531632086497
20
0.429712010281719
30
0
41
1
10
-13.5139821935808
20
0.41319148554939
30
0
41
1
10
-13.4751387226224
20
0.394519052838319
30
0
0
SPLINE
5
261
100
AcDbEntity
8
1
62
256
6
ByLayer
370
18
48
1
60
0
100
AcDbSpline
70
4
71
3
72
16
73
12
40
0
40
0
40
0
40
0
40
0.229765673440754
40
0.229765673440754
40
0.461080070135095
40
0.461080070135095
40
0.694979532553192
40
0.694979532553192
40
0.894994565669964
40
0.894994565669964
40
1
40
1
40
1
40
1
41
1
10
17.4382636790639
20
-0.249980947161532
30
0
41
1
10
17.4307596152509
20
-0.258936628568165
30
0
41
1
10
17.4238421122452
20
-0.267850422109831
30
0
41
1
10
17.4122320588242
20
-0.28471524965255
30
0
41
1
10
17.407461082519
20
-0.292827308714209
30
0
41
1
10
17.4014538069154
20
-0.30675866138003
30
0
41
1
10
17.4002140532379
20
-0.312728591230297
30
0
41
1
10
17.4017164035059
20
-0.320509550441642
30
0
41
1
10
17.4039115445794
20
-0.322904003239103
30
0
41
1
10
17.409025579498
20
-0.324688648690483
30
0
41
1
10
17.411119962308
20
-0.32498094716172
30
0
41
1
10
17.4134725186275
20
-0.32498094716172
30
0
0
SPLINE
5
262
100
AcDbEntity
8
1
62
256
6
ByLayer
370
18
48
1
60
0
100
AcDbSpline
70
4
71
3
72
24
73
20
40
0
40
0
40
0
40
0
40
0.0206848588900794
40
0.0206848588900794
40
0.060646799495183
40
0.060646799495183
40
0.089333718187653
40
0.089333718187653
40
0.118032445257533
40
0.118032445257533
40
0.156500968169848
40
0.156500968169848
40
0.222054907436235
40
0.222054907436235
40
0.401081749780742
40
0.401081749780742
40
0.91881305507234
40
0.91881305507234
40
1
40
1
40
1
40
1
41
1
10
-9.81603258289664
20
0.394519052837552
30
0
41
1
10
-9.81931253702786
20
0.397789280829073
30
0
41
1
10
-9.82242019899934
20
0.401139924328277
30
0
41
1
10
-9.83072034130186
20
0.41109147296217
30
0
41
1
10
-9.83530976380467
20
0.418016583813056
30
0
41
1
10
-9.8399859851371
20
0.429650020447383
30
0
41
1
10
-9.84098333890589
20
0.434535828185574
30
0
41
1
10
-9.84063096940727
20
0.443493024226655
30
0
41
1
10
-9.8392799776588
20
0.44766659148678
30
0
41
1
10
-9.83401130677211
20
0.456104953267953
30
0
41
1
10
-9.82935528217584
20
0.460084318761034
30
0
41
1
10
-9.81472982228314
20
0.468717974947282
30
0
41
1
10
-9.80315016099806
20
0.472189805788503
30
0
41
1
10
-9.75803216908741
20
0.481028383485437
30
0
41
1
10
-9.71968745344631
20
0.480409679049018
30
0
41
1
10
-9.57144039272166
20
0.469937489977752
30
0
41
1
10
-9.45386467300796
20
0.44376687817882
30
0
41
1
10
-9.32057564412344
20
0.405632347866316
30
0
41
1
10
-9.30236739053862
20
0.400191892266008
30
0
41
1
10
-9.28418104530812
20
0.394519052838348
30
0
0
SPLINE
5
263
100
AcDbEntity
8
1
62
256
6
ByLayer
370
18
48
1
60
0
100
AcDbSpline
70
4
71
3
72
12
73
8
40
0
40
0
40
0
40
0
40
0.498327034704623
40
0.498327034704623
40
0.787830461837876
40
0.787830461837876
40
1
40
1
40
1
40
1
41
1
10
-16.939753936379
20
-0.249980947161674
30
0
41
1
10
-16.911511971339
20
-0.269800820179142
30
0
41
1
10
-16.8830332398094
20
-0.287583008921359
30
0
41
1
10
-16.8412601743114
20
-0.309094068569436
30
0
41
1
10
-16.8262966636271
20
-0.315715255916928
30
0
41
1
10
-16.8032870810781
20
-0.323089794283732
30
0
41
1
10
-16.7943104762386
20
-0.324980947172378
30
0
41
1
10
-16.7870313841534
20
-0.324980947173543
30
0
0
SPLINE
5
264
100
AcDbEntity
8
1
62
256
6
ByLayer
370
18
48
1
60
0
100
AcDbSpline
70
4
71
3
72
8
73
4
40
0
40
0
40
0
40
0
40
1
40
1
40
1
40
1
41
1
10
-18.202361120544
20
-0.0476388794560307
30
0
41
1
10
-18.3287348332497
20
0.0996969342461114
30
0
41
1
10
-18.4550290156095
20
0.247083931508115
30
0
41
1
10
-18.5812482082593
20
0.394519052838319
30
0
0
SPLINE
5
265
100
AcDbEntity
8
1
62
256
6
ByLayer
370
18
48
1
60
0
100
AcDbSpline
70
4
71
3
72
8
73
4
40
0
40
0
40
0
40
0
40
1
40
1
40
1
40
1
41
1
10
16.939753936379
20
-0.249980947161674
30
0
41
1
10
17.2426951415731
20
-0.0373804354690037
30
0
41
1
10
17.5434843169751
20
0.177537098598009
30
0
41
1
10
17.8422547739247
20
0.394519052838319
30
0
0
SPLINE
5
266
100
AcDbEntity
8
1
62
256
6
ByLayer
370
18
48
1
60
0
100
AcDbSpline
70
4
71
3
72
20
73
16
40
0
40
0
40
0
40
0
40
0.266295787723027
40
0.266295787723027
40
0.440821695974097
40
0.440821695974097
40
0.618793684174489
40
0.618793684174489
40
0.706558629008425
40
0.706558629008425
40
0.794978384569909
40
0.794978384569909
40
0.877229368138322
40
0.877229368138322
40
1
40
1
40
1
40
1
41
1
10
-9.24203289085611
20
-0.324980947161663
30
0
41
1
10
-9.22582961878865
20
-0.324980947161663
30
0
41
1
10
-9.20990564353878
20
-0.324207952504963
30
0
41
1
10
-9.18509450746686
20
-0.320642407864199
30
0
41
1
10
-9.1755866741139
20
-0.318620244774081
30
0
41
1
10
-9.15842040039084
20
-0.3125225263868
30
0
41
1
10
-9.15051548325278
20
-0.308305334340844
30
0
41
1
10
-9.14292077708893
20
-0.299412364375399
30
0
41
1
10
-9.14109295365401
20
-0.295950283178371
30
0
41
1
10
-9.13954818908798
20
-0.288307504983095
30
0
41
1
10
-9.13984876503184
20
-0.284022232046084
30
0
41
1
10
-9.14237253428334
20
-0.275648798264399
30
0
41
1
10
-9.14446358019703
20
-0.271480286515725
30
0
41
1
10
-9.15103150324327
20
-0.261420768871858
30
0
41
1
10
-9.15622156038282
20
-0.255533332946328
30
0
41
1
10
-9.16192765464785
20
-0.249980947161589
30
0
0
SPLINE
5
267
100
AcDbEntity
8
1
62
256
6
ByLayer
370
18
48
1
60
0
100
AcDbSpline
70
4
71
3
72
14
73
10
40
0
40
0
40
0
40
0
40
0.37693488222444
40
0.37693488222444
40
0.630520147758911
40
0.630520147758911
40
0.887324837677525
40
0.887324837677525
40
1
40
1
40
1
40
1
41
1
10
18.996344946724
20
-0.249980947161646
30
0
41
1
10
18.9825739880183
20
-0.26445320704218
30
0
41
1
10
18.9695223198434
20
-0.278478660367142
30
0
41
1
10
18.9514738133814
20
-0.298621574323988
30
0
41
1
10
18.9451018737954
20
-0.305986966146861
30
0
41
1
10
18.9357832641577
20
-0.317503050570963
30
0
41
1
10
18.9327841693733
20
-0.321745200387397
30
0
41
1
10
18.9317854442314
20
-0.324546635773032
30
0
41
1
10
18.9319121472382
20
-0.324980947161663
30
0
41
1
10
18.9324657830023
20
-0.324980947161663
30
0
0
SPLINE
5
268
100
AcDbEntity
8
1
62
256
6
ByLayer
370
18
48
1
60
0
100
AcDbSpline
70
4
71
3
72
8
73
4
40
0
40
0
40
0
40
0
40
1
40
1
40
1
40
1
41
1
10
-5.63509935370516
20
0.394519052838319
30
0
41
1
10
-1.90486641532195
20
-0.291747527511433
30
0
41
1
10
1.90270132202366
20
-0.29214584879557
30
0
41
1
10
5.63509935370516
20
0.394519052838291
30
0
0
SPLINE
5
269
100
AcDbEntity
8
1
62
256
6
ByLayer
370
18
48
1
60
0
100
AcDbSpline
70
4
71
3
72
16
73
12
40
0
40
0
40
0
40
0
40
0.29875193538347
40
0.29875193538347
40
0.559563354267165
40
0.559563354267165
40
0.778831630672495
40
0.778831630672495
40
0.999028509329296
40
0.999028509329296
40
1
40
1
40
1
40
1
41
1
10
18.7994441682815
20
-0.249980947161646
30
0
41
1
10
18.7889037684679
20
-0.261494955800998
30
0
41
1
10
18.7789567898548
20
-0.27274511689015
30
0
41
1
10
18.7629627881616
20
-0.291842372129139
30
0
41
1
10
18.7564474029675
20
-0.300112173260857
30
0
41
1
10
18.7477630003535
20
-0.312476341900009
30
0
41
1
10
18.7450024743643
20
-0.31713284204173
30
0
41
1
10
18.7427387467689
20
-0.323350193953189
30
0
41
1
10
18.7432328414874
20
-0.32496715634818
30
0
41
1
10
18.7452727544558
20
-0.324980913778177
30
0
41
1
10
18.7452827553925
20
-0.32498094719233
30
0
41
1
10
18.745292756394
20
-0.324980947161691
30
0
0
SPLINE
5
26A
100
AcDbEntity
8
1
62
256
6
ByLayer
370
18
48
1
60
0
100
AcDbSpline
70
4
71
3
72
8
73
4
40
0
40
0
40
0
40
0
40
1
40
1
40
1
40
1
41
1
10
-17.438263679064
20
-0.249980947161504
30
0
41
1
10
-17.6182278416682
20
-0.0352037617522569
30
0
41
1
10
-17.7981000086727
20
0.179631255542319
30
0
41
1
10
-17.9778880275985
20
0.394519052838319
30
0
0
SPLINE
5
26B
100
AcDbEntity
8
1
62
256
6
ByLayer
370
18
48
1
60
0
100
AcDbSpline
70
4
71
3
72
14
73
10
40
0
40
0
40
0
40
0
40
0.152236665744558
40
0.152236665744558
40
0.373117394901558
40
0.373117394901558
40
0.702734274373011
40
0.702734274373011
40
1
40
1
40
1
40
1
41
1
10
18.7775181327357
20
-0.32498094716172
30
0
41
1
10
18.7789582062073
20
-0.32498094716172
30
0
41
1
10
18.7812765650133
20
-0.324094494362413
30
0
41
1
10
18.7886343239383
20
-0.320085170366042
30
0
41
1
10
18.7945143648086
20
-0.316086301444812
30
0
41
1
10
18.8112400727183
20
-0.303571400409197
30
0
41
1
10
18.8233577437334
20
-0.293634938361919
30
0
41
1
10
18.8478075590943
20
-0.27262569282604
30
0
41
1
10
18.8602342470406
20
-0.261563366904625
30
0
41
1
10
18.8729219314524
20
-0.249980947161674
30
0
0
SPLINE
5
26C
100
AcDbEntity
8
1
62
256
6
ByLayer
370
18
48
1
60
0
100
AcDbSpline
70
4
71
3
72
22
73
18
40
0
40
0
40
0
40
0
40
0.329595021198349
40
0.329595021198349
40
0.48907103406699
40
0.48907103406699
40
0.623695791841101
40
0.623695791841101
40
0.710117683509743
40
0.710117683509743
40
0.797737703516766
40
0.797737703516766
40
0.871898588381376
40
0.871898588381376
40
0.964345464757229
40
0.964345464757229
40
1
40
1
40
1
40
1
41
1
10
16.0923183384427
20
0.394519052838319
30
0
41
1
10
16.1336369849735
20
0.419801188035848
30
0
41
1
10
16.1756351594972
20
0.441913681432311
30
0
41
1
10
16.233672835813
20
0.465468257674246
30
0
41
1
10
16.2522836809832
20
0.471783394713697
30
0
41
1
10
16.2834843725116
20
0.478867898182983
30
0
41
1
10
16.296854225777
20
0.480401196412089
30
0
41
1
10
16.3143381712665
20
0.478099010783041
30
0
41
1
10
16.3201498016436
20
0.475922004905527
30
0
41
1
10
16.3280074439739
20
0.468414125842031
30
0
41
1
10
16.3300521396582
20
0.462873638298646
30
0
41
1
10
16.3294051471908
20
0.450136688280111
30
0
41
1
10
16.327395870123
20
0.443177491108116
30
0
41
1
10
16.3198605292104
20
0.426574512986747
30
0
41
1
10
16.313530506219
20
0.416457509060422
30
0
41
1
10
16.3031803090136
20
0.402429365030258
30
0
41
1
10
16.3000936303098
20
0.398472598913258
30
0
41
1
10
16.2968648471027
20
0.394519052838319
30
0
0
SPLINE
5
26D
100
AcDbEntity
8
1
62
256
6
ByLayer
370
18
48
1
60
0
100
AcDbSpline
70
4
71
3
72
22
73
18
40
0
40
0
40
0
40
0
40
0.0865760041248209
40
0.0865760041248209
40
0.178747544888028
40
0.178747544888028
40
0.271926108476863
40
0.271926108476863
40
0.351775388849755
40
0.351775388849755
40
0.458632779957697
40
0.458632779957697
40
0.616926546418376
40
0.616926546418376
40
0.868957974205355
40
0.868957974205355
40
1
40
1
40
1
40
1
41
1
10
-17.2234180953957
20
0.394519052838348
30
0
41
1
10
-17.2308997470834
20
0.403609451266107
30
0
41
1
10
-17.2377597598622
20
0.412709940945547
30
0
41
1
10
-17.2495589658621
20
0.430660026879565
30
0
41
1
10
-17.2544403670075
20
0.439641974252623
30
0
41
1
10
-17.2602420820977
20
0.455358894415212
30
0
41
1
10
-17.2611518291119
20
0.462269640735769
30
0
41
1
10
-17.2587097950697
20
0.471769914679072
30
0
41
1
10
-17.2559408108655
20
0.474965858302028
30
0
41
1
10
-17.2466475385485
20
0.479527376407958
30
0
41
1
10
-17.2390790098101
20
0.480038448355401
30
0
41
1
10
-17.2175958445497
20
0.477550698966269
30
0
41
1
10
-17.2020532232456
20
0.472816231978697
30
0
41
1
10
-17.1597644317135
20
0.456000818241051
30
0
41
1
10
-17.1309368327234
20
0.440970408785972
30
0
41
1
10
-17.0867436085574
20
0.414636719070813
30
0
41
1
10
-17.0713338019868
20
0.404856086709799
30
0
41
1
10
-17.0559192792915
20
0.394519052838319
30
0
0
SPLINE
5
26E
100
AcDbEntity
8
1
62
256
6
ByLayer
370
18
48
1
60
0
100
AcDbSpline
70
4
71
3
72
22
73
18
40
0
40
0
40
0
40
0
40
0.501204601746444
40
0.501204601746444
40
0.668371074740838
40
0.668371074740838
40
0.751638215942059
40
0.751638215942059
40
0.81687957865712
40
0.81687957865712
40
0.862349608975766
40
0.862349608975766
40
0.908208578384301
40
0.908208578384301
40
0.949654235780413
40
0.949654235780413
40
1
40
1
40
1
40
1
41
1
10
11.6678057336411
20
0.394519052838405
30
0
41
1
10
11.7568783680756
20
0.430483129886539
30
0
41
1
10
11.8486538266279
20
0.459335522461714
30
0
41
1
10
11.9625698658215
20
0.477511563270298
30
0
41
1
10
11.9910078737772
20
0.48032821113037
30
0
41
1
10
12.0297560866315
20
0.478823564742811
30
0
41
1
10
12.0421441243299
20
0.477335309886371
30
0
41
1
10
12.0614113266723
20
0.471734054092423
30
0
41
1
10
12.0690435467857
20
0.468187595030315
30
0
41
1
10
12.0784732242377
20
0.459626867429449
30
0
41
1
10
12.0813734192935
20
0.455278961679198
30
0
41
1
10
12.0841510432408
20
0.445168200056514
30
0
41
1
10
12.0840053804978
20
0.439248001676845
30
0
41
1
10
12.0808667522932
20
0.427458052513941
30
0
41
1
10
12.0781439299216
20
0.421514755084559
30
0
41
1
10
12.070343651735
20
0.408544697677399
30
0
41
1
10
12.0648424056649
20
0.401407235506724
30
0
41
1
10
12.0587239255499
20
0.394519052837495
30
0
0
SPLINE
5
26F
100
AcDbEntity
8
1
62
256
6
ByLayer
370
18
48
1
60
0
100
AcDbSpline
70
4
71
3
72
8
73
4
40
0
40
0
40
0
40
0
40
1
40
1
40
1
40
1
41
1
10
12.0715924641049
20
-0.249980947161674
30
0
41
1
10
12.5442846312381
20
-0.0432521656405527
30
0
41
1
10
13.0121368755999
20
0.171949580535255
30
0
41
1
10
13.4751387226224
20
0.394519052838319
30
0
0
SPLINE
5
270
100
AcDbEntity
8
1
62
256
6
ByLayer
370
18
48
1
60
0
100
AcDbSpline
70
4
71
3
72
8
73
4
40
0
40
0
40
0
40
0
40
1
40
1
40
1
40
1
41
1
10
18.1816177175708
20
-0.249980947161674
30
0
41
1
10
18.4447144991339
20
-0.0364873455682471
30
0
41
1
10
18.7063187568174
20
0.178392735131837
30
0
41
1
10
18.9665337194095
20
0.394519052838319
30
0
0
SPLINE
5
271
100
AcDbEntity
8
1
62
256
6
ByLayer
370
18
48
1
60
0
100
AcDbSpline
70
4
71
3
72
8
73
4
40
0
40
0
40
0
40
0
40
1
40
1
40
1
40
1
41
1
10
-9.16192765464814
20
-0.249980947161674
30
0
41
1
10
-9.38149895432917
20
-0.0363243711459234
30
0
41
1
10
-9.5994545595567
20
0.178583254364014
30
0
41
1
10
-9.81603258289468
20
0.394519052838348
30
0
0
SPLINE
5
272
100
AcDbEntity
8
1
62
256
6
ByLayer
370
18
48
1
60
0
100
AcDbSpline
70
4
71
3
72
24
73
20
40
0
40
0
40
0
40
0
40
0.44108536409382
40
0.44108536409382
40
0.632349726738078
40
0.632349726738078
40
0.769815089434542
40
0.769815089434542
40
0.818093573861656
40
0.818093573861656
40
0.86698887448148
40
0.86698887448148
40
0.897729219202211
40
0.897729219202211
40
0.928744819832705
40
0.928744819832705
40
0.957005194047848
40
0.957005194047848
40
1
40
1
40
1
40
1
41
1
10
9.28418104530812
20
0.394519052838376
30
0
41
1
10
9.38250428331912
20
0.425188873199517
30
0
41
1
10
9.48211334891894
20
0.449882675710285
30
0
41
1
10
9.62130810046412
20
0.472231488335666
30
0
41
1
10
9.66336231315202
20
0.477297611577683
30
0
41
1
10
9.73290379120709
20
0.480174337999642
30
0
41
1
10
9.76164276994709
20
0.479771064349393
30
0
41
1
10
9.79635945319598
20
0.473663831624634
30
0
41
1
10
9.80507510835685
20
0.471512273660323
30
0
41
1
10
9.82082659342112
20
0.465476192632252
30
0
41
1
10
9.82800901879023
20
0.46149986833197
30
0
41
1
10
9.83636377353508
20
0.452876879253864
30
0
41
1
10
9.83879960142727
20
0.448932681092146
30
0
41
1
10
9.84116944658126
20
0.440086233306062
30
0
41
1
10
9.84108063858938
20
0.435053746645622
30
0
41
1
10
9.83851127653023
20
0.425216115211157
30
0
41
1
10
9.83624231582124
20
0.420327216262308
30
0
41
1
10
9.82883165461971
20
0.408342177572194
30
0
41
1
10
9.8227578504291
20
0.401224377748974
30
0
41
1
10
9.81603258289471
20
0.394519052838319
30
0
0
SPLINE
5
273
100
AcDbEntity
8
1
62
256
6
ByLayer
370
18
48
1
60
0
100
AcDbSpline
70
4
71
3
72
24
73
20
40
0
40
0
40
0
40
0
40
0.0250514837969013
40
0.0250514837969013
40
0.0399316364005519
40
0.0399316364005519
40
0.0550482702899594
40
0.0550482702899594
40
0.0684429815661031
40
0.0684429815661031
40
0.0857693518639489
40
0.0857693518639489
40
0.116437020859353
40
0.116437020859353
40
0.211608388214002
40
0.211608388214002
40
0.598389121297827
40
0.598389121297827
40
1
40
1
40
1
40
1
41
1
10
-6.54187806555939
20
0.394519052853212
30
0
41
1
10
-6.54872343436298
20
0.399506307901646
30
0
41
1
10
-6.5551949712474
20
0.404897278369219
30
0
41
1
10
-6.56362652995725
20
0.41419682284905
30
0
41
1
10
-6.56638243117391
20
0.417892164740209
30
0
41
1
10
-6.5702998873852
20
0.425453130793358
30
0
41
1
10
-6.57144872098837
20
0.429424481048699
30
0
41
1
10
-6.57146670306835
20
0.436457418640145
30
0
41
1
10
-6.57058216196066
20
0.439651362043577
30
0
41
1
10
-6.56697426039005
20
0.44616354164242
30
0
41
1
10
-6.56378163323333
20
0.449367219420566
30
0
41
1
10
-6.55349972481346
20
0.456901603491133
30
0
41
1
10
-6.54518969171301
20
0.460461741921705
30
0
41
1
10
-6.50967912725747
20
0.472135837180929
30
0
41
1
10
-6.47827709215903
20
0.475426693338761
30
0
41
1
10
-6.32092127490398
20
0.485646700794575
30
0
41
1
10
-6.18570768161396
20
0.472635526638328
30
0
41
1
10
-5.9139037930388
20
0.44161365268883
30
0
41
1
10
-5.77428858852861
20
0.420126279459737
30
0
41
1
10
-5.63509935370516
20
0.394519052838348
30
0
0
SPLINE
5
274
100
AcDbEntity
8
1
62
256
6
ByLayer
370
18
48
1
60
0
100
AcDbSpline
70
4
71
3
72
20
73
16
40
0
40
0
40
0
40
0
40
0.124635113587943
40
0.124635113587943
40
0.213935861791032
40
0.213935861791032
40
0.304108110701202
40
0.304108110701202
40
0.386409478540916
40
0.386409478540916
40
0.519623907090831
40
0.519623907090831
40
0.771425149745529
40
0.771425149745529
40
1
40
1
40
1
40
1
41
1
10
9.16192765463444
20
-0.249980947138766
30
0
41
1
10
9.15617583610779
20
-0.255577825480003
30
0
41
1
10
9.1509471929221
20
-0.261516395555873
30
0
41
1
10
9.14416541443688
20
-0.271961898158537
30
0
41
1
10
9.14197062882337
20
-0.276492861412862
30
0
41
1
10
9.13967639886783
20
-0.285235689816489
30
0
41
1
10
9.13959758727182
20
-0.28954787928609
30
0
41
1
10
9.1415356727631
20
-0.296865034394557
30
0
41
1
10
9.14336975121401
20
-0.300039188227629
30
0
41
1
10
9.14972756786011
20
-0.307198765132625
30
0
41
1
10
9.15525486005407
20
-0.3106449222295
30
0
41
1
10
9.17293690699947
20
-0.318438680009194
30
0
41
1
10
9.18689946127446
20
-0.321209534757372
30
0
41
1
10
9.214382862202
20
-0.324399434787921
30
0
41
1
10
9.22809407507145
20
-0.32498094718531
30
0
41
1
10
9.24203289084431
20
-0.324980947184315
30
0
0
SPLINE
5
275
100
AcDbEntity
8
1
62
256
6
ByLayer
370
18
48
1
60
0
100
AcDbSpline
70
4
71
3
72
8
73
4
40
0
40
0
40
0
40
0
40
1
40
1
40
1
40
1
41
1
10
19.6070845897382
20
0.394519052838319
30
0
41
1
10
19.4039939367894
20
0.179338716638313
30
0
41
1
10
19.2004273056163
20
-0.0355054703228177
30
0
41
1
10
18.996344946724
20
-0.249980947161646
30
0
0
SPLINE
5
276
100
AcDbEntity
8
1
62
256
6
ByLayer
370
18
48
1
60
0
100
AcDbSpline
70
4
71
3
72
10
73
6
40
0
40
0
40
0
40
0
40
0.71034414869496
40
0.71034414869496
40
1
40
1
40
1
40
1
41
1
10
-9.95818080364208
20
-0.249980947161987
30
0
41
1
10
-9.87162346008668
20
-0.280258805463575
30
0
41
1
10
-9.78322412421903
20
-0.303478624157634
30
0
41
1
10
-9.66295508608408
20
-0.32148053892422
30
0
41
1
10
-9.6281517249445
20
-0.32498094716118
30
0
41
1
10
-9.59510119943195
20
-0.324980947161663
30
0
0
SPLINE
5
277
100
AcDbEntity
8
1
62
256
6
ByLayer
370
18
48
1
60
0
100
AcDbSpline
70
4
71
3
72
26
73
22
40
0
40
0
40
0
40
0
40
0.275225058240895
40
0.275225058240895
40
0.6432464082369
40
0.6432464082369
40
0.804612005697611
40
0.804612005697611
40
0.885674716972355
40
0.885674716972355
40
0.913780944205259
40
0.913780944205259
40
0.929803296399283
40
0.929803296399283
40
0.943095909253756
40
0.943095909253756
40
0.956435608367649
40
0.956435608367649
40
0.973160928201273
40
0.973160928201273
40
1
40
1
40
1
40
1
41
1
10
5.63509935370516
20
0.394519052838319
30
0
41
1
10
5.73061940806102
20
0.412092277390372
30
0
41
1
10
5.82628570940065
20
0.427617902573814
30
0
41
1
10
6.04910688744886
20
0.458513504531481
30
0
41
1
10
6.17683343665649
20
0.472809692991689
30
0
41
1
10
6.35680390662995
20
0.480134077700484
30
0
41
1
10
6.41165645130394
20
0.480790536034334
30
0
41
1
10
6.49012613969913
20
0.473849128623982
30
0
41
1
10
6.51632461626107
20
0.470353004856548
30
0
41
1
10
6.54662375530265
20
0.459821159413593
30
0
41
1
10
6.55407780574063
20
0.456478322884664
30
0
41
1
10
6.5634870564902
20
0.449582893147834
30
0
41
1
10
6.56645926830774
20
0.446676568877166
30
0
41
1
10
6.57018311286544
20
0.440628082066894
30
0
41
1
10
6.57123577624947
20
0.437543463185875
30
0
41
1
10
6.57161578155294
20
0.431081319642743
30
0
41
1
10
6.57093615795915
20
0.427626813186123
30
0
41
1
10
6.567805082836
20
0.420043702596018
30
0
41
1
10
6.56494525107922
20
0.415849799432152
30
0
41
1
10
6.55610434693239
20
0.405651931464803
30
0
41
1
10
6.54919503965658
20
0.399849900181039
30
0
41
1
10
6.54187806553904
20
0.394519052838291
30
0
0
SPLINE
5
278
100
AcDbEntity
8
1
62
256
6
ByLayer
370
18
48
1
60
0
100
AcDbSpline
70
4
71
3
72
8
73
4
40
0
40
0
40
0
40
0
40
1
40
1
40
1
40
1
41
1
10
13.7033325990739
20
-0.249980947161674
30
0
41
1
10
14.1117592050607
20
-0.0406455446070595
30
0
41
1
10
14.516324377639
20
0.174425330040947
30
0
41
1
10
14.9171390202628
20
0.394519052838319
30
0
0
SPLINE
5
279
100
AcDbEntity
8
1
62
256
6
ByLayer
370
18
48
1
60
0
100
AcDbSpline
70
4
71
3
72
22
73
18
40
0
40
0
40
0
40
0
40
0.298588809861194
40
0.298588809861194
40
0.462731430266166
40
0.462731430266166
40
0.592200105857644
40
0.592200105857644
40
0.684071516115247
40
0.684071516115247
40
0.776983001615578
40
0.776983001615578
40
0.85720110026512
40
0.85720110026512
40
0.961507891186748
40
0.961507891186748
40
1
40
1
40
1
40
1
41
1
10
17.0559192792915
20
0.394519052838319
30
0
41
1
10
17.0906639763996
20
0.417818970582204
30
0
41
1
10
17.1257850172184
20
0.438602827032781
30
0
41
1
10
17.1762266313491
20
0.462832964494112
30
0
41
1
10
17.1937000427357
20
0.470002320026282
30
0
41
1
10
17.2215574006706
20
0.478087556028214
30
0
41
1
10
17.2328948453491
20
0.480049244674717
30
0
41
1
10
17.2480957763304
20
0.478926880891862
30
0
41
1
10
17.2532675786086
20
0.477087707393224
30
0
41
1
10
17.2597551858967
20
0.470114453109261
30
0
41
1
10
17.261068231578
20
0.464797218159873
30
0
41
1
10
17.2593444428697
20
0.452320905579114
30
0
41
1
10
17.2568742677526
20
0.44537439240554
30
0
41
1
10
17.2482913046946
20
0.428262599959282
30
0
41
1
10
17.2412280359862
20
0.417512005770021
30
0
41
1
10
17.2299950066617
20
0.402663159305263
30
0
41
1
10
17.2267728518461
20
0.398595167850885
30
0
41
1
10
17.2234180953956
20
0.394519052838319
30
0
0
SPLINE
5
27A
100
AcDbEntity
8
1
62
256
6
ByLayer
370
18
48
1
60
0
100
AcDbSpline
70
4
71
3
72
8
73
4
40
0
40
0
40
0
40
0
40
1
40
1
40
1
40
1
41
1
10
-13.4751387226224
20
0.394519052838348
30
0
41
1
10
-13.0121368755999
20
0.171949580535255
30
0
41
1
10
-12.5442846312381
20
-0.0432521656405527
30
0
41
1
10
-12.0715924641049
20
-0.249980947161674
30
0
0
SPLINE
5
27B
100
AcDbEntity
8
1
62
256
6
ByLayer
370
18
48
1
60
0
100
AcDbSpline
70
4
71
3
72
10
73
6
40
0
40
0
40
0
40
0
40
0.458235869640189
40
0.458235869640189
40
1
40
1
40
1
40
1
41
1
10
-6.93594876110097
20
-0.249980947161845
30
0
41
1
10
-6.84981863770352
20
-0.270346092702994
30
0
41
1
10
-6.76313934416442
20
-0.28677376098571
30
0
41
1
10
-6.57494561621041
20
-0.314383725675612
30
0
41
1
10
-6.47244978824423
20
-0.324980947162146
30
0
41
1
10
-6.37324688789292
20
-0.324980947161691
30
0
0
SPLINE
5
27C
100
AcDbEntity
8
1
62
256
6
ByLayer
370
18
48
1
60
0
100
AcDbSpline
70
4
71
3
72
14
73
10
40
0
40
0
40
0
40
0
40
0.467592821481844
40
0.467592821481844
40
0.765313187484634
40
0.765313187484634
40
0.993330689014326
40
0.993330689014326
40
1
40
1
40
1
40
1
41
1
10
-17.6355675589553
20
-0.249980947161674
30
0
41
1
10
-17.6112459850686
20
-0.268411910255111
30
0
41
1
10
-17.5868892355834
20
-0.285223515491907
30
0
41
1
10
-17.5501847687632
20
-0.306978426105758
30
0
41
1
10
-17.536392122987
20
-0.314163599411501
30
0
41
1
10
-17.5152199018867
20
-0.322575271080723
30
0
41
1
10
-17.5069217872542
20
-0.324848799825389
30
0
41
1
10
-17.5004293085476
20
-0.324979061598469
30
0
41
1
10
-17.5002439900365
20
-0.324980947161663
30
0
41
1
10
-17.5000603949211
20
-0.324980947161663
30
0
0
SPLINE
5
27D
100
AcDbEntity
8
1
62
256
6
ByLayer
370
18
48
1
60
0
100
AcDbSpline
70
4
71
3
72
8
73
4
40
0
40
0
40
0
40
0
40
1
40
1
40
1
40
1
41
1
10
18.591105468188
20
-0.249980947161674
30
0
41
1
10
18.8388034703858
20
-0.0361927547921823
30
0
41
1
10
19.0852634005435
20
0.178675800779445
30
0
41
1
10
19.3305735632813
20
0.394519052838319
30
0
0
SPLINE
5
27E
100
AcDbEntity
8
1
62
256
6
ByLayer
370
18
48
1
60
0
100
AcDbSpline
70
4
71
3
72
8
73
4
40
0
40
0
40
0
40
0
40
1
40
1
40
1
40
1
41
1
10
12.0587239255453
20
0.394519052838319
30
0
41
1
10
11.8676221276023
20
0.179376718804036
30
0
41
1
10
11.6760784149013
20
-0.0354719232411469
30
0
41
1
10
11.484029721648
20
-0.249980947156956
30
0
0
SPLINE
5
27F
100
AcDbEntity
8
1
62
256
6
ByLayer
370
18
48
1
60
0
100
AcDbSpline
70
4
71
3
72
22
73
18
40
0
40
0
40
0
40
0
40
0.182095798251063
40
0.182095798251063
40
0.321827949355736
40
0.321827949355736
40
0.435999820261691
40
0.435999820261691
40
0.551186941087953
40
0.551186941087953
40
0.652312135595734
40
0.652312135595734
40
0.757225905967082
40
0.757225905967082
40
0.920384549310637
40
0.920384549310637
40
1
40
1
40
1
40
1
41
1
10
19.6990969386236
20
0.394519052838319
30
0
41
1
10
19.7152543179305
20
0.410246552866369
30
0
41
1
10
19.7308752188008
20
0.425308683615754
30
0
41
1
10
19.7552276840418
20
0.448465713246719
30
0
41
1
10
19.7649189897359
20
0.457555752082527
30
0
41
1
10
19.7788539584737
20
0.470304206294372
30
0
41
1
10
19.7838800082448
20
0.47474949855166
30
0
41
1
10
19.7899945114866
20
0.479692190723824
30
0
41
1
10
19.7910978442709
20
0.480187441895225
30
0
41
1
10
19.7890616725117
20
0.477089684223898
30
0
41
1
10
19.7864130836086
20
0.473964393527495
30
0
41
1
10
19.7783452551176
20
0.465027356868461
30
0
41
1
10
19.7727587078626
20
0.459041380578185
30
0
41
1
10
19.7562591613048
20
0.441658364353969
30
0
41
1
10
19.743869578646
20
0.42884146234158
30
0
41
1
10
19.7240749469017
20
0.408552992926957
30
0
41
1
10
19.717272471001
20
0.401609156757644
30
0
41
1
10
19.710304237967
20
0.394519052838319
30
0
0
SPLINE
5
280
100
AcDbEntity
8
1
62
256
6
ByLayer
370
18
48
1
60
0
100
AcDbSpline
70
4
71
3
72
14
73
10
40
0
40
0
40
0
40
0
40
0.36706899633179
40
0.36706899633179
40
0.635184373079629
40
0.635184373079629
40
0.858759635080846
40
0.858759635080846
40
1
40
1
40
1
40
1
41
1
10
19.0736242396016
20
-0.249980947161674
30
0
41
1
10
19.0595861588407
20
-0.264116695428015
30
0
41
1
10
19.046116847108
20
-0.277713110049319
30
0
41
1
10
19.0260137389467
20
-0.298064705436502
30
0
41
1
10
19.0183533892788
20
-0.30584114618128
30
0
41
1
10
19.0075381064276
20
-0.316865710439174
30
0
41
1
10
19.0037606806076
20
-0.320738864304872
30
0
41
1
10
19.0003681497553
20
-0.324270124434833
30
0
41
1
10
18.9997075483724
20
-0.324980947161691
30
0
41
1
10
18.9997518271013
20
-0.324980947161691
30
0
0
SPLINE
5
281
100
AcDbEntity
8
1
62
256
6
ByLayer
370
18
48
1
60
0
100
AcDbSpline
70
4
71
3
72
22
73
18
40
0
40
0
40
0
40
0
40
0.231260126787036
40
0.231260126787036
40
0.387570852906686
40
0.387570852906686
40
0.510012572490319
40
0.510012572490319
40
0.609779905082876
40
0.609779905082876
40
0.709990143440007
40
0.709990143440007
40
0.804340392490653
40
0.804340392490653
40
0.937758789793738
40
0.937758789793738
40
1
40
1
40
1
40
1
41
1
10
18.9665337194095
20
0.394519052838319
30
0
41
1
10
18.9893456648831
20
0.413465933239877
30
0
41
1
10
19.0119418081171
20
0.431101708324377
30
0
41
1
10
19.0463016403559
20
0.455401046253286
30
0
41
1
10
19.0594843603781
20
0.463946549333485
30
0
41
1
10
19.0793494160292
20
0.474773250038254
30
0
41
1
10
19.0869824154913
20
0.478078074440106
30
0
41
1
10
19.0969460698151
20
0.480008141173357
30
0
41
1
10
19.1000659104202
20
0.479371180450954
30
0
41
1
10
19.1026167949237
20
0.47470272290883
30
0
41
1
10
19.1020486388594
20
0.470579582894913
30
0
41
1
10
19.0975657756679
20
0.459912467712911
30
0
41
1
10
19.093819438838
20
0.453418354473371
30
0
41
1
10
19.0821858184231
20
0.436077878689758
30
0
41
1
10
19.0730851976249
20
0.424289354222509
30
0
41
1
10
19.0581528057297
20
0.406349975501371
30
0
41
1
10
19.0531016869878
20
0.400467282736884
30
0
41
1
10
19.0478637127897
20
0.394519052838319
30
0
0
SPLINE
5
282
100
AcDbEntity
8
1
62
256
6
ByLayer
370
18
48
1
60
0
100
AcDbSpline
70
4
71
3
72
22
73
18
40
0
40
0
40
0
40
0
40
0.112744574252787
40
0.112744574252787
40
0.22093583506287
40
0.22093583506287
40
0.330432477937009
40
0.330432477937009
40
0.423105578090543
40
0.423105578090543
40
0.516499243841731
40
0.516499243841731
40
0.665297628488539
40
0.665297628488539
40
0.885227644616209
40
0.885227644616209
40
1
40
1
40
1
40
1
41
1
10
-18.5812482082594
20
0.394519052838348
30
0
41
1
10
-18.5906614843193
20
0.405514587422914
30
0
41
1
10
-18.5993943551555
20
0.416402452201055
30
0
41
1
10
-18.6137918562315
20
0.436302784384424
30
0
41
1
10
-18.6196832248233
20
0.445564647329064
30
0
41
1
10
-18.6274379539824
20
0.461262790967254
30
0
41
1
10
-18.6293136503589
20
0.467863799058961
30
0
41
1
10
-18.6282532709774
20
0.476033300873581
30
0
41
1
10
-18.6260096094435
20
0.478329528776044
30
0
41
1
10
-18.6186915120958
20
0.479981776712378
30
0
41
1
10
-18.6135397770739
20
0.479360105263339
30
0
41
1
10
-18.5978845359754
20
0.474860078033686
30
0
41
1
10
-18.5858012962845
20
0.469265973227067
30
0
41
1
10
-18.5536051836108
20
0.451507721099603
30
0
41
1
10
-18.531813020687
20
0.43721214638768
30
0
41
1
10
-18.4979089444933
20
0.412834536197835
30
0
41
1
10
-18.4859768226333
20
0.403874244675819
30
0
41
1
10
-18.4739743524118
20
0.394519052838319
30
0
0
SPLINE
5
283
100
AcDbEntity
8
1
62
256
6
ByLayer
370
18
48
1
60
0
100
AcDbSpline
70
4
71
3
72
8
73
4
40
0
40
0
40
0
40
0
40
1
40
1
40
1
40
1
41
1
10
9.81603258289468
20
0.394519052838319
30
0
41
1
10
9.59945455956128
20
0.178583254368562
30
0
41
1
10
9.38149895433838
20
-0.0363243711368568
30
0
41
1
10
9.16192765466209
20
-0.249980947148117
30
0
0
SPLINE
5
284
100
AcDbEntity
8
1
62
256
6
ByLayer
370
18
48
1
60
0
100
AcDbSpline
70
4
71
3
72
8
73
4
40
0
40
0
40
0
40
0
40
1
40
1
40
1
40
1
41
1
10
-5.61238790983106
20
-0.249980947161475
30
0
41
1
10
-5.92869063653893
20
-0.0423423290752964
30
0
41
1
10
-6.23815671381035
20
0.173240128683545
30
0
41
1
10
-6.54187806555939
20
0.394519052853212
30
0
0
SPLINE
5
285
100
AcDbEntity
8
1
62
256
6
ByLayer
370
18
48
1
60
0
100
AcDbSpline
70
4
71
3
72
8
73
4
40
0
40
0
40
0
40
0
40
1
40
1
40
1
40
1
41
1
10
15.1667226783066
20
0.394519052838319
30
0
41
1
10
14.9904557633514
20
0.179673252606676
30
0
41
1
10
14.8141693177327
20
-0.035160531136512
30
0
41
1
10
14.6378611567675
20
-0.249980947160765
30
0
0
SPLINE
5
286
100
AcDbEntity
8
1
62
256
6
ByLayer
370
18
48
1
60
0
100
AcDbSpline
70
4
71
3
72
12
73
8
40
0
40
0
40
0
40
0
40
0.535005413117328
40
0.535005413117328
40
0.837949059931853
40
0.837949059931853
40
1
40
1
40
1
40
1
41
1
10
-16.0747405491864
20
-0.249980947161674
30
0
41
1
10
-16.0413667809981
20
-0.271436485838422
30
0
41
1
10
-16.0075035038982
20
-0.290304587522939
30
0
41
1
10
-15.9579823894175
20
-0.311991203969399
30
0
41
1
10
-15.9404195022313
20
-0.31834786032141
30
0
41
1
10
-15.9163565802759
20
-0.323850221825438
30
0
41
1
10
-15.9084323242163
20
-0.32498094716675
30
0
41
1
10
-15.9014694779983
20
-0.324980947167688
30
0
0
SPLINE
5
287
100
AcDbEntity
8
1
62
256
6
ByLayer
370
18
48
1
60
0
100
AcDbSpline
70
4
71
3
72
8
73
4
40
0
40
0
40
0
40
0
40
1
40
1
40
1
40
1
41
1
10
13.7830022040407
20
0.394519052838319
30
0
41
1
10
13.6024787589423
20
0.179601945162574
30
0
41
1
10
13.4218276833375
20
-0.0352348131660847
30
0
41
1
10
13.2410331525237
20
-0.24998094715977
30
0
0
SPLINE
5
288
100
AcDbEntity
8
1
62
256
6
ByLayer
370
18
48
1
60
0
100
AcDbSpline
70
4
71
3
72
14
73
10
40
0
40
0
40
0
40
0
40
0.165262095025783
40
0.165262095025783
40
0.453368826742856
40
0.453368826742856
40
0.868484900015094
40
0.868484900015094
40
1
40
1
40
1
40
1
41
1
10
18.0610023243171
20
-0.324980947162231
30
0
41
1
10
18.0644149088857
20
-0.324980947162146
30
0
41
1
10
18.068890758976
20
-0.323874328702345
30
0
41
1
10
18.0829900256093
20
-0.31852319374488
30
0
41
1
10
18.094163119481
20
-0.312505598098454
30
0
41
1
10
18.1233510279863
20
-0.294385884529191
30
0
41
1
10
18.1427611361318
20
-0.280476233510711
30
0
41
1
10
18.1688092455181
20
-0.260265405512286
30
0
41
1
10
18.1751958974765
20
-0.255192023833018
30
0
41
1
10
18.1816177175708
20
-0.249980947161703
30
0
0
SPLINE
5
289
100
AcDbEntity
8
1
62
256
6
ByLayer
370
18
48
1
60
0
100
AcDbSpline
70
4
71
3
72
22
73
18
40
0
40
0
40
0
40
0
40
0.0996058959597501
40
0.0996058959597501
40
0.200053048632082
40
0.200053048632082
40
0.301645781814153
40
0.301645781814153
40
0.388258859234573
40
0.388258859234573
40
0.499069449606654
40
0.499069449606654
40
0.657716488414188
40
0.657716488414188
40
0.900399061610509
40
0.900399061610509
40
1
40
1
40
1
40
1
41
1
10
-17.9778880275986
20
0.394519052838348
30
0
41
1
10
-17.9863011376089
20
0.404574643246065
30
0
41
1
10
-17.9940548718637
20
0.414587426887323
30
0
41
1
10
-18.0070735891332
20
0.433572505425246
30
0
41
1
10
-18.0124220375215
20
0.442724613280063
30
0
41
1
10
-18.0191155281399
20
0.458484729048393
30
0
41
1
10
-18.0204602901618
20
0.465263962606372
30
0
41
1
10
-18.0186306360141
20
0.474147438762969
30
0
41
1
10
-18.0160872377471
20
0.476914865968894
30
0
41
1
10
-18.0073366577445
20
0.480118978036785
30
0
41
1
10
-18.000219343869
20
0.479790919031018
30
0
41
1
10
-17.9801687429301
20
0.475277139513196
30
0
41
1
10
-17.9657553997812
20
0.469507950899299
30
0
41
1
10
-17.9272440214238
20
0.450672548658815
30
0
41
1
10
-17.9012826679856
20
0.435056494855388
30
0
41
1
10
-17.8642416153249
20
0.410195410625647
30
0
41
1
10
-17.8532635274126
20
0.402514156738306
30
0
41
1
10
-17.8422547739247
20
0.394519052838348
30
0
0
SPLINE
5
28A
100
AcDbEntity
8
1
62
256
6
ByLayer
370
18
48
1
60
0
100
AcDbSpline
70
4
71
3
72
12
73
8
40
0
40
0
40
0
40
0
40
0.207070190992275
40
0.207070190992275
40
0.708233155162029
40
0.708233155162029
40
1
40
1
40
1
40
1
41
1
10
13.4707590466832
20
-0.324980947161663
30
0
41
1
10
13.4844495675558
20
-0.324980947160469
30
0
41
1
10
13.4994708163577
20
-0.323129365633236
30
0
41
1
10
13.5520592894348
20
-0.313046098828693
30
0
41
1
10
13.5924397503834
20
-0.299521508835284
30
0
41
1
10
13.656055544321
20
-0.273081794683691
30
0
41
1
10
13.6797666536627
20
-0.262059461628979
30
0
41
1
10
13.7033325990739
20
-0.249980947161674
30
0
0
SPLINE
5
28B
100
AcDbEntity
8
1
62
256
6
ByLayer
370
18
48
1
60
0
100
AcDbSpline
70
4
71
3
72
18
73
14
40
0
40
0
40
0
40
0
40
0.21635985196824
40
0.21635985196824
40
0.403178518558934
40
0.403178518558934
40
0.557121079507369
40
0.557121079507369
40
0.712142571002732
40
0.712142571002732
40
0.853283178041396
40
0.853283178041396
40
1
40
1
40
1
40
1
41
1
10
-13.2672449924339
20
-0.324980947170701
30
0
41
1
10
-13.2581224284342
20
-0.324980947171042
30
0
41
1
10
-13.249462399411
20
-0.324198214848991
30
0
41
1
10
-13.2353395273908
20
-0.320563452409544
30
0
41
1
10
-13.2295101004107
20
-0.317953792557944
30
0
41
1
10
-13.2216818248394
20
-0.311037343988431
30
0
41
1
10
-13.2191501561731
20
-0.307017153148138
30
0
41
1
10
-13.2170478231028
20
-0.297434239926218
30
0
41
1
10
-13.2174954056764
20
-0.291724026717901
30
0
41
1
10
-13.2210378447893
20
-0.280165420428744
30
0
41
1
10
-13.2239035805403
20
-0.274254856529836
30
0
41
1
10
-13.2312967930468
20
-0.262247191573863
30
0
41
1
10
-13.2359247363788
20
-0.25604867837265
30
0
41
1
10
-13.241033152523
20
-0.249980947159656
30
0
0
SPLINE
5
28C
100
AcDbEntity
8
1
62
256
6
ByLayer
370
18
48
1
60
0
100
AcDbSpline
70
4
71
3
72
12
73
8
40
0
40
0
40
0
40
0
40
0.540518353555937
40
0.540518353555937
40
0.86936997867956
40
0.86936997867956
40
1
40
1
40
1
40
1
41
1
10
-15.011305873316
20
-0.249980947161674
30
0
41
1
10
-14.973513323455
20
-0.271910386071767
30
0
41
1
10
-14.9350764040869
20
-0.290869165118408
30
0
41
1
10
-14.8764659336491
20
-0.313065159020596
30
0
41
1
10
-14.8545668106014
20
-0.319699525179431
30
0
41
1
10
-14.8269866907195
20
-0.32423303565048
30
0
41
1
10
-14.8194287506433
20
-0.324980947165045
30
0
41
1
10
-14.8124623350326
20
-0.324980947165955
30
0
0
SPLINE
5
28D
100
AcDbEntity
8
1
62
256
6
ByLayer
370
18
48
1
60
0
100
AcDbSpline
70
4
71
3
72
10
73
6
40
0
40
0
40
0
40
0
40
0.413072377760474
40
0.413072377760474
40
1
40
1
40
1
40
1
41
1
10
9.59510119943192
20
-0.324980947161663
30
0
41
1
10
9.64203355967936
20
-0.324980947160981
30
0
41
1
10
9.69231251695285
20
-0.318204568465319
30
0
41
1
10
9.81372420210246
20
-0.295048746910595
30
0
41
1
10
9.88648670976283
20
-0.275059623636508
30
0
41
1
10
9.95818080364211
20
-0.249980947161788
30
0
0
SPLINE
5
28E
100
AcDbEntity
8
1
62
256
6
ByLayer
370
18
48
1
60
0
100
AcDbSpline
70
4
71
3
72
8
73
4
40
0
40
0
40
0
40
0
40
1
40
1
40
1
40
1
41
1
10
6.54187806553898
20
0.394519052838319
30
0
41
1
10
6.23815671379637
20
0.173240128673825
30
0
41
1
10
5.92869063653163
20
-0.0423423290800997
30
0
41
1
10
5.61238790983072
20
-0.249980947161703
30
0
0
SPLINE
5
28F
100
AcDbEntity
8
1
62
256
6
ByLayer
370
18
48
1
60
0
100
AcDbSpline
70
4
71
3
72
22
73
18
40
0
40
0
40
0
40
0
40
0.0604025462158293
40
0.0604025462158293
40
0.147184383286022
40
0.147184383286022
40
0.221452263388165
40
0.221452263388165
40
0.284657112146506
40
0.284657112146506
40
0.383061855667252
40
0.383061855667252
40
0.545111187455039
40
0.545111187455039
40
0.834973778387932
40
0.834973778387932
40
1
40
1
40
1
40
1
41
1
10
-15.166722678307
20
0.394519052838319
30
0
41
1
10
-15.1724877232411
20
0.401545871754166
30
0
41
1
10
-15.1777590578898
20
0.408653238363001
30
0
41
1
10
-15.1885069696644
20
0.425540849239837
30
0
41
1
10
-15.1932159619238
20
0.435455897941495
30
0
41
1
10
-15.1967878114455
20
0.451418654021182
30
0
41
1
10
-15.1963973904129
20
0.458012524801461
30
0
41
1
10
-15.1920505872095
20
0.467515728943567
30
0
41
1
10
-15.1886184560727
20
0.470961777603236
30
0
41
1
10
-15.1774581090455
20
0.477348176262637
30
0
41
1
10
-15.1682851060533
20
0.479124696152013
30
0
41
1
10
-15.1414893474387
20
0.48000791264846
30
0
41
1
10
-15.1217726497934
20
0.476831674567649
30
0
41
1
10
-15.065074688198
20
0.462725220823472
30
0
41
1
10
-15.0253267629505
20
0.447445713169003
30
0
41
1
10
-14.9629721962769
20
0.418700289927244
30
0
41
1
10
-14.9400096461246
20
0.407077678829808
30
0
41
1
10
-14.9171390202628
20
0.394519052838348
30
0
0
SPLINE
5
290
100
AcDbEntity
8
1
62
256
6
ByLayer
370
18
48
1
60
0
100
AcDbSpline
70
4
71
3
72
12
73
8
40
0
40
0
40
0
40
0
40
0.264193092465801
40
0.264193092465801
40
0.911057272405818
40
0.911057272405818
40
1
40
1
40
1
40
1
41
1
10
11.7904053433559
20
-0.324980947161691
30
0
41
1
10
11.8126853032388
20
-0.324980947160498
30
0
41
1
10
11.8368161077743
20
-0.322013991291442
30
0
41
1
10
11.9207983977665
20
-0.306512406767837
30
0
41
1
10
11.9839538680773
20
-0.286254819875012
30
0
41
1
10
12.0544237103285
20
-0.257370294636416
30
0
41
1
10
12.0630148227294
20
-0.253732321678058
30
0
41
1
10
12.0715924641049
20
-0.249980947161674
30
0
0
SPLINE
5
291
100
AcDbEntity
8
1
62
256
6
ByLayer
370
18
48
1
60
0
100
AcDbSpline
70
4
71
3
72
8
73
4
40
0
40
0
40
0
40
0
40
1
40
1
40
1
40
1
41
1
10
17.6355675589552
20
-0.249980947161674
30
0
41
1
10
17.9167894401584
20
-0.0368701453001563
30
0
41
1
10
18.1962188143275
20
0.178025589846356
30
0
41
1
10
18.4739743524118
20
0.394519052838319
30
0
0
SPLINE
5
292
100
AcDbEntity
8
1
62
256
6
ByLayer
370
18
48
1
60
0
100
AcDbSpline
70
4
71
3
72
16
73
12
40
0
40
0
40
0
40
0
40
0.205245687107929
40
0.205245687107929
40
0.423587188088274
40
0.423587188088274
40
0.644255859554181
40
0.644255859554181
40
0.83405558743753
40
0.83405558743753
40
1
40
1
40
1
40
1
41
1
10
16.6928433719954
20
-0.249980947161418
30
0
41
1
10
16.6861964617715
20
-0.258052993990617
30
0
41
1
10
16.680102122491
20
-0.266132415192544
30
0
41
1
10
16.6696246650582
20
-0.282049955933388
30
0
41
1
10
16.6652914215173
20
-0.29000507100929
30
0
41
1
10
16.660121893933
20
-0.303900135764508
30
0
41
1
10
16.6592919077345
20
-0.309994853634834
30
0
41
1
10
16.6613767500816
20
-0.318359036730555
30
0
41
1
10
16.6637899404546
20
-0.321158558554828
30
0
41
1
10
16.6703136930314
20
-0.324313016982615
30
0
41
1
10
16.6741989633861
20
-0.324980947162032
30
0
41
1
10
16.6786305280169
20
-0.324980947162004
30
0
0
SPLINE
5
293
100
AcDbEntity
8
1
62
256
6
ByLayer
370
18
48
1
60
0
100
AcDbSpline
70
4
71
3
72
8
73
4
40
0
40
0
40
0
40
0
40
1
40
1
40
1
40
1
41
1
10
18.5812482082593
20
0.394519052838319
30
0
41
1
10
18.3972391510824
20
0.179580285593943
30
0
41
1
10
18.2130707755636
20
-0.0352562688701994
30
0
41
1
10
18.02872875272
20
-0.249980947161589
30
0
0
SPLINE
5
294
100
AcDbEntity
8
1
62
256
6
ByLayer
370
18
48
1
60
0
100
AcDbSpline
70
4
71
3
72
8
73
4
40
0
40
0
40
0
40
0
40
1
40
1
40
1
40
1
41
1
10
19.710304237967
20
0.394519052838319
30
0
41
1
10
19.4987067068065
20
0.179220787457297
30
0
41
1
10
19.2864967669467
20
-0.0356273962293869
30
0
41
1
10
19.0736242396016
20
-0.249980947161674
30
0
0
SPLINE
5
295
100
AcDbEntity
8
1
62
256
6
ByLayer
370
18
48
1
60
0
100
AcDbSpline
70
4
71
3
72
10
73
6
40
0
40
0
40
0
40
0
40
0.453711921574268
40
0.453711921574268
40
1
40
1
40
1
40
1
41
1
10
6.37324688789292
20
-0.324980947161691
30
0
41
1
10
6.45638947852447
20
-0.324980947162089
30
0
41
1
10
6.54193845517369
20
-0.317301823059751
30
0
41
1
10
6.72994439185723
20
-0.293012640935643
30
0
41
1
10
6.83335647808005
20
-0.274238508775852
30
0
41
1
10
6.93594876110097
20
-0.249980947162044
30
0
0
SPLINE
5
296
100
AcDbEntity
8
1
62
256
6
ByLayer
370
18
48
1
60
0
100
AcDbSpline
70
4
71
3
72
8
73
4
40
0
40
0
40
0
40
0
40
1
40
1
40
1
40
1
41
1
10
-11.4840297216438
20
-0.249980947161674
30
0
41
1
10
-11.6760784148985
20
-0.0354719232443017
30
0
41
1
10
-11.8676221276009
20
0.179376718802445
30
0
41
1
10
-12.0587239255453
20
0.394519052838319
30
0
0
SPLINE
5
297
100
AcDbEntity
8
1
62
256
6
ByLayer
370
18
48
1
60
0
100
AcDbSpline
70
4
71
3
72
8
73
4
40
0
40
0
40
0
40
0
40
1
40
1
40
1
40
1
41
1
10
17.9778880275985
20
0.394519052838319
30
0
41
1
10
17.7981000086727
20
0.17963125554229
30
0
41
1
10
17.6182278416682
20
-0.0352037617522569
30
0
41
1
10
17.438263679064
20
-0.249980947161532
30
0
0
SPLINE
5
298
100
AcDbEntity
8
1
62
256
6
ByLayer
370
18
48
1
60
0
100
AcDbSpline
70
4
71
3
72
8
73
4
40
0
40
0
40
0
40
0
40
1
40
1
40
1
40
1
41
1
10
16.0747405491864
20
-0.249980947161674
30
0
41
1
10
16.4043439217116
20
-0.0380834512813806
30
0
41
1
10
16.7313555006636
20
0.176865425835672
30
0
41
1
10
17.0559192792915
20
0.394519052838319
30
0
0
SPLINE
5
299
100
AcDbEntity
8
1
62
256
6
ByLayer
370
18
48
1
60
0
100
AcDbSpline
70
4
71
3
72
18
73
14
40
0
40
0
40
0
40
0
40
0.152772634398935
40
0.152772634398935
40
0.372656114344151
40
0.372656114344151
40
0.560907413904598
40
0.560907413904598
40
0.721874681190815
40
0.721874681190815
40
0.973308510758068
40
0.973308510758068
40
1
40
1
40
1
40
1
41
1
10
14.6378611567673
20
-0.249980947160765
30
0
41
1
10
14.6327878286321
20
-0.256162478716959
30
0
41
1
10
14.6281492818557
20
-0.262415921837857
30
0
41
1
10
14.6186816036047
20
-0.277294099717778
30
0
41
1
10
14.6145346924841
20
-0.28603824767751
30
0
41
1
10
14.6113803442181
20
-0.300123292160237
30
0
41
1
10
14.6117158340747
20
-0.305943852928095
30
0
41
1
10
14.6155103653912
20
-0.314360382541878
30
0
41
1
10
14.6185224173724
20
-0.317419998019574
30
0
41
1
10
14.6283387801472
20
-0.323098291485138
30
0
41
1
10
14.6364254441561
20
-0.324668751520278
30
0
41
1
10
14.6463275807696
20
-0.324966835007814
30
0
41
1
10
14.6472983237552
20
-0.324980947161691
30
0
41
1
10
14.6482797132063
20
-0.324980947161691
30
0
0
SPLINE
5
29A
100
AcDbEntity
8
1
62
256
6
ByLayer
370
18
48
1
60
0
100
AcDbSpline
70
4
71
3
72
14
73
10
40
0
40
0
40
0
40
0
40
0.146815366779467
40
0.146815366779467
40
0.364430219153091
40
0.364430219153091
40
0.668854808993107
40
0.668854808993107
40
1
40
1
40
1
40
1
41
1
10
18.948426804311
20
-0.324980947161663
30
0
41
1
10
18.9490797269465
20
-0.324980947161691
30
0
41
1
10
18.9505258281276
20
-0.324183520280769
30
0
41
1
10
18.9557916746307
20
-0.320453260649515
30
0
41
1
10
18.9604902016497
20
-0.316623400770908
30
0
41
1
10
18.974032798766
20
-0.3049389320297
30
0
41
1
10
18.9839687335512
20
-0.295938913574304
30
0
41
1
10
19.0064378800684
20
-0.275085496381905
30
0
41
1
10
19.0193915746697
20
-0.262806262223847
30
0
41
1
10
19.0327392125282
20
-0.249980947161674
30
0
0
SPLINE
5
29B
100
AcDbEntity
8
1
62
256
6
ByLayer
370
18
48
1
60
0
100
AcDbSpline
70
4
71
3
72
22
73
18
40
0
40
0
40
0
40
0
40
0.0735086950302044
40
0.0735086950302044
40
0.156709919125001
40
0.156709919125001
40
0.240804149356581
40
0.240804149356581
40
0.312964701291426
40
0.312964701291426
40
0.413770064538511
40
0.413770064538511
40
0.568942049261449
40
0.568942049261449
40
0.829011297684135
40
0.829011297684135
40
1
40
1
40
1
40
1
41
1
10
-16.2968648471028
20
0.394519052838348
30
0
41
1
10
-16.303468934732
20
0.402605555724818
30
0
41
1
10
-16.309506365058
20
0.410743385060727
30
0
41
1
10
-16.3202371938526
20
0.427514619923556
30
0
41
1
10
-16.3247358671331
20
0.436255233375562
30
0
41
1
10
-16.3298354226417
20
0.451806797757911
30
0
41
1
10
-16.3304169692215
20
0.458796216414981
30
0
41
1
10
-16.3275424378988
20
0.468794986962962
30
0
41
1
10
-16.3246388662849
20
0.472363983680822
30
0
41
1
10
-16.3149947254796
20
0.478225096261951
30
0
41
1
10
-16.3070952746492
20
0.479605597672389
30
0
41
1
10
-16.2843831431511
20
0.479375412191047
30
0
41
1
10
-16.2677842140924
20
0.475882935738099
30
0
41
1
10
-16.221409495349
20
0.461736002340245
30
0
41
1
10
-16.1892697067983
20
0.447641810888115
30
0
41
1
10
-16.1356652228069
20
0.420037007475884
30
0
41
1
10
-16.1139596645167
20
0.407760990258737
30
0
41
1
10
-16.0923183384427
20
0.394519052838348
30
0
0
SPLINE
5
29C
100
AcDbEntity
8
1
62
256
6
ByLayer
370
18
48
1
60
0
100
AcDbSpline
70
4
71
3
72
16
73
12
40
0
40
0
40
0
40
0
40
0.134334358042233
40
0.134334358042233
40
0.358398012407584
40
0.358398012407584
40
0.562335087439458
40
0.562335087439458
40
0.763799604549377
40
0.763799604549377
40
1
40
1
40
1
40
1
41
1
10
-17.4134725186275
20
-0.32498094716172
30
0
41
1
10
-17.410474826505
20
-0.32498094716172
30
0
41
1
10
-17.4078942988141
20
-0.32450411397852
30
0
41
1
10
-17.4025246765792
20
-0.321805321390002
30
0
41
1
10
-17.4006997517748
20
-0.31853369483693
30
0
41
1
10
-17.4008411993784
20
-0.309542189271809
30
0
41
1
10
-17.4024812235317
20
-0.303959691525705
30
0
41
1
10
-17.4083255800805
20
-0.291405739683597
30
0
41
1
10
-17.4125402693704
20
-0.284325701687465
30
0
41
1
10
-17.4234578890948
20
-0.26834632408287
30
0
41
1
10
-17.4305524055219
20
-0.259183921816629
30
0
41
1
10
-17.4382636790639
20
-0.249980947161532
30
0
0
SPLINE
5
29D
100
AcDbEntity
8
1
62
256
6
ByLayer
370
18
48
1
60
0
100
AcDbSpline
70
4
71
3
72
22
73
18
40
0
40
0
40
0
40
0
40
0.177047077222608
40
0.177047077222608
40
0.339785040524724
40
0.339785040524724
40
0.464788989047046
40
0.464788989047046
40
0.567727919244636
40
0.567727919244636
40
0.671115022733353
40
0.671115022733353
40
0.768485722371064
40
0.768485722371064
40
0.904659703727702
40
0.904659703727702
40
1
40
1
40
1
40
1
41
1
10
19.3305735632813
20
0.394519052838319
30
0
41
1
10
19.3474079527141
20
0.409331277986496
30
0
41
1
10
19.3639518224561
20
0.423368445185702
30
0
41
1
10
19.3934031678982
20
0.447107157831027
30
0
41
1
10
19.4067710602393
20
0.457281753137437
30
0
41
1
10
19.426675279175
20
0.470882718266608
30
0
41
1
10
19.4342379979462
20
0.47542184304146
30
0
41
1
10
19.4441839844956
20
0.479653035455499
30
0
41
1
10
19.4473170429572
20
0.480069149940647
30
0
41
1
10
19.4498921369933
20
0.477360526903539
30
0
41
1
10
19.4493361027783
20
0.474169203566333
30
0
41
1
10
19.4448670138594
20
0.465050569748286
30
0
41
1
10
19.4411209722358
20
0.459205803319236
30
0
41
1
10
19.4295379618711
20
0.44322350167937
30
0
41
1
10
19.4205240032207
20
0.432077623030921
30
0
41
1
10
19.4033666625409
20
0.412055391539724
30
0
41
1
10
19.3956608366666
20
0.403367268603091
30
0
41
1
10
19.3876104526855
20
0.394519052838319
30
0
0
SPLINE
5
29E
100
AcDbEntity
8
1
62
256
6
ByLayer
370
18
48
1
60
0
100
AcDbSpline
70
4
71
3
72
16
73
12
40
0
40
0
40
0
40
0
40
0.179734295377443
40
0.179734295377443
40
0.383266403843002
40
0.383266403843002
40
0.588925184528267
40
0.588925184528267
40
0.766117101794539
40
0.766117101794539
40
1
40
1
40
1
40
1
41
1
10
15.7705104401659
20
-0.249980947161219
30
0
41
1
10
15.764668757659
20
-0.257133799152257
30
0
41
1
10
15.7593292671481
20
-0.264332053878434
30
0
41
1
10
15.7498391375718
20
-0.279167049677596
30
0
41
1
10
15.7458626334012
20
-0.286897820481499
30
0
41
1
10
15.7413488729786
20
-0.300639900226571
30
0
41
1
10
15.7408261943328
20
-0.306808277672815
30
0
41
1
10
15.7433213860411
20
-0.315640504608439
30
0
41
1
10
15.7458657822589
20
-0.318791008349706
30
0
41
1
10
15.7540555129293
20
-0.323771710814128
30
0
41
1
10
15.7605037080438
20
-0.324980947161663
30
0
41
1
10
15.7678282405416
20
-0.324980947161663
30
0
0
SPLINE
5
29F
100
AcDbEntity
8
1
62
256
6
ByLayer
370
18
48
1
60
0
100
AcDbSpline
70
4
71
3
72
16
73
12
40
0
40
0
40
0
40
0
40
0.276351823813826
40
0.276351823813826
40
0.528716772105729
40
0.528716772105729
40
0.743136095900277
40
0.743136095900277
40
0.958147221840869
40
0.958147221840869
40
1
40
1
40
1
40
1
41
1
10
18.4790984828195
20
-0.249980947161618
30
0
41
1
10
18.4696648193085
20
-0.260647131689012
30
0
41
1
10
18.4608380910637
20
-0.271137086120035
30
0
41
1
10
18.4464866100013
20
-0.289577112777067
30
0
41
1
10
18.4406231881072
20
-0.297839929178792
30
0
41
1
10
18.4330991910473
20
-0.310480736674833
30
0
41
1
10
18.4308858315127
20
-0.315369217788998
30
0
41
1
10
18.4296419897003
20
-0.322226378270784
30
0
41
1
10
18.4306115705361
20
-0.324268066293257
30
0
41
1
10
18.4334745735416
20
-0.324927422014895
30
0
41
1
10
18.4340003777338
20
-0.324980947161663
30
0
41
1
10
18.4345773721769
20
-0.324980947161663
30
0
0
SPLINE
5
2A0
100
AcDbEntity
8
1
62
256
6
ByLayer
370
18
48
1
60
0
100
AcDbSpline
70
4
71
3
72
22
73
18
40
0
40
0
40
0
40
0
40
0.314547624694485
40
0.314547624694485
40
0.489188195690755
40
0.489188195690755
40
0.667037022369923
40
0.667037022369923
40
0.742177798145202
40
0.742177798145202
40
0.81837245440834
40
0.81837245440834
40
0.885209745218448
40
0.885209745218448
40
0.964339528007162
40
0.964339528007162
40
1
40
1
40
1
40
1
41
1
10
14.9171390202628
20
0.394519052838319
30
0
41
1
10
14.9603963824774
20
0.41827236141475
30
0
41
1
10
15.0042762027091
20
0.438918046351972
30
0
41
1
10
15.0695055028691
20
0.463039580774989
30
0
41
1
10
15.0925501744984
20
0.470164967175464
30
0
41
1
10
15.1357287826681
20
0.479208225768389
30
0
41
1
10
15.1565997747607
20
0.481247111523743
30
0
41
1
10
15.1790562776074
20
0.476358308188395
30
0
41
1
10
15.1849082348473
20
0.473814074127688
30
0
41
1
10
15.1933015194689
20
0.466047174658286
30
0
41
1
10
15.1958528695878
20
0.460630160135679
30
0
41
1
10
15.1963915399305
20
0.448237679219602
30
0
41
1
10
15.1949059312805
20
0.441382973977852
30
0
41
1
10
15.1885282570572
20
0.425599323042917
30
0
41
1
10
15.1830215404524
20
0.416302421604257
30
0
41
1
10
15.1734074191566
20
0.402907924232011
30
0
41
1
10
15.17015564785
20
0.398703383680527
30
0
41
1
10
15.1667226783067
20
0.394519052838319
30
0
0
SPLINE
5
2A1
100
AcDbEntity
8
1
62
256
6
ByLayer
370
18
48
1
60
0
100
AcDbSpline
70
4
71
3
72
8
73
4
40
0
40
0
40
0
40
0
40
1
40
1
40
1
40
1
41
1
10
16.2968648471026
20
0.394519052838319
30
0
41
1
10
16.1214142561083
20
0.179685181728644
30
0
41
1
10
15.945962816426
20
-0.0351481695533096
30
0
41
1
10
15.770510440166
20
-0.249980947161219
30
0
0
SPLINE
5
2A2
100
AcDbEntity
8
1
62
256
6
ByLayer
370
18
48
1
60
0
100
AcDbSpline
70
4
71
3
72
8
73
4
40
0
40
0
40
0
40
0
40
1
40
1
40
1
40
1
41
1
10
-9.28418104530812
20
0.394519052838319
30
0
41
1
10
-8.51165171787554
20
0.153545136850994
30
0
41
1
10
-7.72806880567606
20
-0.0626871252384831
30
0
41
1
10
-6.93594876110097
20
-0.249980947161703
30
0
0
SPLINE
5
2A3
100
AcDbEntity
8
1
62
256
6
ByLayer
370
18
48
1
60
0
100
AcDbSpline
70
4
71
3
72
18
73
14
40
0
40
0
40
0
40
0
40
0.172693384504573
40
0.172693384504573
40
0.374662771893739
40
0.374662771893739
40
0.540937515704552
40
0.540937515704552
40
0.707551575156848
40
0.707551575156848
40
0.908749454848532
40
0.908749454848532
40
1
40
1
40
1
40
1
41
1
10
-14.6482797132045
20
-0.324980947163851
30
0
41
1
10
-14.6419894989028
20
-0.324980947163908
30
0
41
1
10
-14.6361022616813
20
-0.324401449629562
30
0
41
1
10
-14.6249402069886
20
-0.321481528253599
30
0
41
1
10
-14.6198418750797
20
-0.318800509149071
30
0
41
1
10
-14.6137148518036
20
-0.31150813356652
30
0
41
1
10
-14.6120981946817
20
-0.307224062394568
30
0
41
1
10
-14.6117749820166
20
-0.297138770455916
30
0
41
1
10
-14.6130740659361
20
-0.291210931737538
30
0
41
1
10
-14.6186211310805
20
-0.277427723684014
30
0
41
1
10
-14.6234603308767
20
-0.269237461406505
30
0
41
1
10
-14.6319359920037
20
-0.257416084496612
30
0
41
1
10
-14.6348176476572
20
-0.253689271776352
30
0
41
1
10
-14.6378611567675
20
-0.249980947160765
30
0
0
SPLINE
5
2A4
100
AcDbEntity
8
1
62
256
6
ByLayer
370
18
48
1
60
0
100
AcDbSpline
70
4
71
3
72
8
73
4
40
0
40
0
40
0
40
0
40
1
40
1
40
1
40
1
41
1
10
-15.7705104401656
20
-0.249980947161674
30
0
41
1
10
-15.9459628164257
20
-0.0351481695535938
30
0
41
1
10
-16.1214142561081
20
0.179685181728502
30
0
41
1
10
-16.2968648471026
20
0.394519052838348
30
0
0
SPLINE
5
2A5
100
AcDbEntity
8
1
62
256
6
ByLayer
370
18
48
1
60
0
100
AcDbSpline
70
4
71
3
72
12
73
8
40
0
40
0
40
0
40
0
40
0.238284110315797
40
0.238284110315797
40
0.693499188837076
40
0.693499188837076
40
1
40
1
40
1
40
1
41
1
10
14.8124623350354
20
-0.324980947161691
30
0
41
1
10
14.8250665622847
20
-0.324980947160412
30
0
41
1
10
14.8395827836259
20
-0.322563957303316
30
0
41
1
10
14.8834060296336
20
-0.311510242767753
30
0
41
1
10
14.9150040044866
20
-0.299099798672415
30
0
41
1
10
14.9679953734617
20
-0.273999713189198
30
0
41
1
10
14.989708598613
20
-0.262512944022546
30
0
41
1
10
15.011305873316
20
-0.249980947161674
30
0
0
SPLINE
5
2A6
100
AcDbEntity
8
1
62
256
6
ByLayer
370
18
48
1
60
0
100
AcDbSpline
70
4
71
3
72
8
73
4
40
0
40
0
40
0
40
0
40
1
40
1
40
1
40
1
41
1
10
-14.6378611567675
20
-0.249980947160765
30
0
41
1
10
-14.8141693177327
20
-0.035160531136512
30
0
41
1
10
-14.9904557633514
20
0.179673252606676
30
0
41
1
10
-15.1667226783066
20
0.394519052838319
30
0
0
SPLINE
5
2A7
100
AcDbEntity
8
1
62
256
6
ByLayer
370
18
48
1
60
0
100
AcDbSpline
70
4
71
3
72
14
73
10
40
0
40
0
40
0
40
0
40
0.173406569625427
40
0.173406569625427
40
0.486237054863841
40
0.486237054863841
40
0.947014098831341
40
0.947014098831341
40
1
40
1
40
1
40
1
41
1
10
17.5000603949206
20
-0.324980947163539
30
0
41
1
10
17.5047589732248
20
-0.324980947163254
30
0
41
1
10
17.5106212635558
20
-0.323734576929695
30
0
41
1
10
17.5288576775035
20
-0.317711363292403
30
0
41
1
10
17.5429413036
20
-0.310854210033739
30
0
41
1
10
17.5793909261422
20
-0.290089958966007
30
0
41
1
10
17.6032703638716
20
-0.27401088966684
30
0
41
1
10
17.629983835738
20
-0.254190442382821
30
0
41
1
10
17.6327735927218
20
-0.252098223320388
30
0
41
1
10
17.6355675589552
20
-0.249980947161674
30
0
0
SPLINE
5
2A8
100
AcDbEntity
8
1
62
256
6
ByLayer
370
18
48
1
60
0
100
AcDbSpline
70
4
71
3
72
8
73
4
40
0
40
0
40
0
40
0
40
1
40
1
40
1
40
1
41
1
10
19.0478637127897
20
0.394519052838319
30
0
41
1
10
18.8585328632802
20
0.179515431750104
30
0
41
1
10
18.6689517405164
20
-0.0353231021630336
30
0
41
1
10
18.4790984828195
20
-0.249980947161618
30
0
0
SPLINE
5
2A9
100
AcDbEntity
8
1
62
256
6
ByLayer
370
18
48
1
60
0
100
AcDbSpline
70
4
71
3
72
8
73
4
40
0
40
0
40
0
40
0
40
1
40
1
40
1
40
1
41
1
10
17.5838708003716
20
0.669999999999987
30
0
41
1
10
17.6251337419023
20
0.669999999999987
30
0
41
1
10
17.6673457181571
20
0.671668349105374
30
0
41
1
10
17.7105045798883
20
0.675000000000011
30
0
0
SPLINE
5
2AA
100
AcDbEntity
8
1
62
256
6
ByLayer
370
18
48
1
60
0
100
AcDbSpline
70
4
71
3
72
8
73
4
40
0
40
0
40
0
40
0
40
1
40
1
40
1
40
1
41
1
10
-18.202361120544
20
-0.0476388794560307
30
0
41
1
10
-18.4415424541197
20
0.191542454119656
30
0
41
1
10
-18.6807562808491
20
0.430756280849067
30
0
41
1
10
-18.92
20
0.669999999999987
30
0
0
SPLINE
5
2AB
100
AcDbEntity
8
1
62
256
6
ByLayer
370
18
48
1
60
0
100
AcDbSpline
70
4
71
3
72
16
73
12
40
0
40
0
40
0
40
0
40
0.296559716676294
40
0.296559716676294
40
0.557170963250219
40
0.557170963250219
40
0.753697017983543
40
0.753697017983543
40
0.915508991851186
40
0.915508991851186
40
1
40
1
40
1
40
1
41
1
10
21.6
20
9.32500000000013
30
0
41
1
10
21.3624620107298
20
9.32500000000013
30
0
41
1
10
21.1266315936286
20
9.27103927847531
30
0
41
1
10
20.7301830297544
20
9.0835455030772
30
0
41
1
10
20.5575624751438
20
8.95748943230495
30
0
41
1
10
20.3054016554772
20
8.6790512342503
30
0
41
1
10
20.2107719442002
20
8.53721980754958
30
0
41
1
10
20.0821321993742
20
8.2505797835291
30
0
41
1
10
20.0392871701435
20
8.10737301926838
30
0
41
1
10
20.0059077109755
20
7.88311272545585
30
0
41
1
10
20
20
7.80388242987456
30
0
41
1
10
20
20
7.72500000000014
30
0
0
SPLINE
5
2AC
100
AcDbEntity
8
1
62
256
6
ByLayer
370
18
48
1
60
0
100
AcDbSpline
70
4
71
3
72
10
73
6
40
0
40
0
40
0
40
0
40
0.499999999999998
40
0.499999999999998
40
1
40
1
40
1
40
1
41
1
10
-0.199972498109588
20
0.669999999999987
30
0
41
1
10
-0.133317498713666
20
0.669333375006715
30
0
41
1
10
-0.066658332812608
20
0.668999999999983
30
0
41
1
10
0.0666583328125796
20
0.668999999999983
30
0
41
1
10
0.133317498713666
20
0.669333375006715
30
0
41
1
10
0.199972498109588
20
0.669999999999987
30
0
0
SPLINE
5
2AD
100
AcDbEntity
8
1
62
256
6
ByLayer
370
18
48
1
60
0
100
AcDbSpline
70
4
71
3
72
16
73
12
40
0
40
0
40
0
40
0
40
0.210601603648632
40
0.210601603648632
40
0.421213120937357
40
0.421213120937357
40
0.631488126460197
40
0.631488126460197
40
0.839116239420829
40
0.839116239420829
40
1
40
1
40
1
40
1
41
1
10
53.6046912194301
20
11.805556253853
30
0
41
1
10
53.604885104101
20
11.8284783623567
30
0
41
1
10
53.6011366843306
20
11.8517152848398
30
0
41
1
10
53.5864049129777
20
11.894975364706
30
0
41
1
10
53.5752157349576
20
11.915599734747
30
0
41
1
10
53.5470242400575
20
11.9513452122231
30
0
41
1
10
53.52963219728
20
11.9669744061746
30
0
41
1
10
53.4913444393929
20
11.9908763407796
30
0
41
1
10
53.4699543211539
20
11.9995700363138
30
0
41
1
10
53.4309045828753
20
12.0079407305389
30
0
41
1
10
53.4131262908524
20
12.0092818527199
30
0
41
1
10
53.3956316353027
20
12.0082037976607
30
0
0
SPLINE
5
2AE
100
AcDbEntity
8
1
62
256
6
ByLayer
370
18
48
1
60
0
100
AcDbSpline
70
4
71
3
72
10
73
6
40
0
40
0
40
0
40
0
40
0.584711417492912
40
0.584711417492912
40
1
40
1
40
1
40
1
41
1
10
45.2351939284819
20
9.25
30
0
41
1
10
45.2376165600086
20
9.25
30
0
41
1
10
45.2400566535847
20
9.25
30
0
41
1
10
45.2442589248979
20
9.25
30
0
41
1
10
45.2460127381757
20
9.25
30
0
41
1
10
45.2477750315741
20
9.25
30
0
0
SPLINE
5
2AF
100
AcDbEntity
8
1
62
256
6
ByLayer
370
18
48
1
60
0
100
AcDbSpline
70
4
71
3
72
16
73
12
40
0
40
0
40
0
40
0
40
0.202092460849674
40
0.202092460849674
40
0.404032245588857
40
0.404032245588857
40
0.608298678109005
40
0.608298678109005
40
0.816163444624768
40
0.816163444624768
40
1
40
1
40
1
40
1
41
1
10
53.3956316353027
20
8.99179620233934
30
0
41
1
10
53.4174897444444
20
8.99044926269374
30
0
41
1
10
53.4398491383955
20
8.99291408466246
30
0
41
1
10
53.4818390291393
20
9.00496425263555
30
0
41
1
10
53.5020457535964
20
9.01470396616972
30
0
41
1
10
53.5378824730738
20
9.0400724179085
30
0
41
1
10
53.5539463831898
20
9.05610774732909
30
0
41
1
10
53.5798894042432
20
9.09240351253334
30
0
41
1
10
53.5900129368111
20
9.11322860356105
30
0
41
1
10
53.6020260177163
20
9.15408429659743
30
0
41
1
10
53.6048610089749
20
9.17437029551925
30
0
41
1
10
53.6046912194301
20
9.19444374614704
30
0
0
SPLINE
5
2B0
100
AcDbEntity
8
1
62
256
6
ByLayer
370
18
48
1
60
0
100
AcDbSpline
70
4
71
3
72
10
73
6
40
0
40
0
40
0
40
0
40
0.629562107774395
40
0.629562107774395
40
1
40
1
40
1
40
1
41
1
10
43.8
20
9.25
30
0
41
1
10
43.7782969300918
20
9.25
30
0
41
1
10
43.756172793229
20
9.25364106319336
30
0
41
1
10
43.7231987911384
20
9.26487821310499
30
0
41
1
10
43.7112516429095
20
9.27029878018018
30
0
41
1
10
43.6999999999999
20
9.27679491924289
30
0
0
SPLINE
5
2B1
100
AcDbEntity
8
1
62
256
6
ByLayer
370
18
48
1
60
0
100
AcDbSpline
70
4
71
3
72
10
73
6
40
0
40
0
40
0
40
0
40
0.62956174027551
40
0.62956174027551
40
1
40
1
40
1
40
1
41
1
10
43.7
20
11.7232050807569
30
0
41
1
10
43.718944038489
20
11.7341424264781
30
0
41
1
10
43.7400004695306
20
11.7420308411127
30
0
41
1
10
43.7741148019193
20
11.7487405286444
30
0
41
1
10
43.7871096425299
20
11.7500000000001
30
0
41
1
10
43.8
20
11.7500000000001
30
0
0
SPLINE
5
2B2
100
AcDbEntity
8
1
62
256
6
ByLayer
370
18
48
1
60
0
100
AcDbSpline
70
4
71
3
72
10
73
6
40
0
40
0
40
0
40
0
40
0.76746257010027
40
0.76746257010027
40
1
40
1
40
1
40
1
41
1
10
45.2477750315741
20
11.75
30
0
41
1
10
45.2445183560327
20
11.75
30
0
41
1
10
45.2412905642182
20
11.75
30
0
41
1
10
45.237123695827
20
11.75
30
0
41
1
10
45.2361574346187
20
11.75
30
0
41
1
10
45.2351939284819
20
11.75
30
0
0
SPLINE
5
2B3
100
AcDbEntity
8
1
62
256
6
ByLayer
370
18
48
1
60
0
100
AcDbSpline
70
4
71
3
72
14
73
10
40
0
40
0
40
0
40
0
40
0.209562190252725
40
0.209562190252725
40
0.419048660097219
40
0.419048660097219
40
0.628042586344193
40
0.628042586344193
40
1
40
1
40
1
40
1
41
1
10
52.0587805434612
20
11.9097853116085
30
0
41
1
10
51.9766126081606
20
11.9040112672195
30
0
41
1
10
51.894096633241
20
11.8986916757138
30
0
41
1
10
51.7317767669575
20
11.8891850947952
30
0
41
1
10
51.6514176992139
20
11.8849652769821
30
0
41
1
10
51.49577107806
20
11.8777765091767
30
0
41
1
10
51.4199400027966
20
11.8747800931392
30
0
41
1
10
51.219734627046
20
11.868306129688
30
0
41
1
10
51.1007351939601
20
11.8661821282841
30
0
41
1
10
50.9981203716825
20
11.8661997365008
30
0
0
SPLINE
5
2B4
100
AcDbEntity
8
1
62
256
6
ByLayer
370
18
48
1
60
0
100
AcDbSpline
70
4
71
3
72
8
73
4
40
0
40
0
40
0
40
0
40
1
40
1
40
1
40
1
41
1
10
52.7060768987951
20
11.957412012964
30
0
41
1
10
52.591741836253
20
11.9479573909197
30
0
41
1
10
52.4750917668497
20
11.9390400260503
30
0
41
1
10
52.3587805434612
20
11.9308666897686
30
0
0
SPLINE
5
2B5
100
AcDbEntity
8
1
62
256
6
ByLayer
370
18
48
1
60
0
100
AcDbSpline
70
4
71
3
72
14
73
10
40
0
40
0
40
0
40
0
40
0.208995027535852
40
0.208995027535852
40
0.417850725206471
40
0.417850725206471
40
0.626704295977397
40
0.626704295977397
40
1
40
1
40
1
40
1
41
1
10
50.9981203716814
20
9.13380026349824
30
0
41
1
10
51.0562077150717
20
9.13381023101081
30
0
41
1
10
51.1193237323134
20
9.1331440464028
30
0
41
1
10
51.2529850333382
20
9.13048554733072
30
0
41
1
10
51.3239830856551
20
9.12848500379275
30
0
41
1
10
51.4714347232615
20
9.12322301235301
30
0
41
1
10
51.5483929364638
20
9.11994357877302
30
0
41
1
10
51.7664550970089
20
9.10923721197776
30
0
41
1
10
51.9134966889726
20
9.10042396798215
30
0
41
1
10
52.0587805434602
20
9.09021468839214
30
0
0
SPLINE
5
2B6
100
AcDbEntity
8
1
62
256
6
ByLayer
370
18
48
1
60
0
100
AcDbSpline
70
4
71
3
72
8
73
4
40
0
40
0
40
0
40
0
40
1
40
1
40
1
40
1
41
1
10
52.3587805434612
20
9.06913331023145
30
0
41
1
10
52.4750917668497
20
9.06095997394974
30
0
41
1
10
52.591741836253
20
9.05204260908033
30
0
41
1
10
52.7060768987951
20
9.04258798703606
30
0
0
LINE
5
70
100
AcDbEntity
8
81
62
256
6
ByLayer
370
18
48
1
60
0
100
AcDbLine
10
53.6
20
12
30
0
11
58.6
21
12
31
0
39
0
210
0
220
0
230
1
0
LINE
5
71
100
AcDbEntity
8
80
62
256
6
ByLayer
370
18
48
1
60
0
100
AcDbLine
10
0
20
0
30
0
11
-5
21
0
31
0
39
0
210
0
220
0
230
1
0
LINE
5
72
100
AcDbEntity
8
1
62
256
6
ByLayer
370
18
48
1
60
0
100
AcDbLine
10
20
20
0.675
30
0
11
20
21
0.75
31
0
39
0
210
0
220
0
230
1
0
LINE
5
74
100
AcDbEntity
8
1
62
256
6
ByLayer
370
18
48
1
60
0
100
AcDbLine
10
19.000019
20
-0.324981
30
0
11
20
21
0.675
31
0
39
0
210
0
220
0
230
1
0
LINE
5
75
100
AcDbEntity
8
1
62
256
6
ByLayer
370
18
48
1
60
0
100
AcDbLine
10
18.999752
20
-0.324981
30
0
11
19.000019
21
-0.324981
31
0
39
0
210
0
220
0
230
1
0
LINE
5
76
100
AcDbEntity
8
1
62
256
6
ByLayer
370
18
48
1
60
0
100
AcDbLine
10
20
20
0.675
30
0
11
17.710505
21
0.675
31
0
39
0
210
0
220
0
230
1
0
LINE
5
77
100
AcDbEntity
8
1
62
256
6
ByLayer
370
13
48
1
60
0
100
AcDbLine
10
45.189581
20
9.25
30
0
11
45.145758
21
9.325002
31
0
39
0
210
0
220
0
230
1
0
LINE
5
78
100
AcDbEntity
8
1
62
256
6
ByLayer
370
13
48
1
60
0
100
AcDbLine
10
-9.816033
20
0.394519
30
0
11
-9.284126
21
0.394519
31
0
39
0
210
0
220
0
230
1
0
LINE
5
79
100
AcDbEntity
8
1
62
256
6
ByLayer
370
13
48
1
60
0
100
AcDbLine
10
9.284126
20
0.394519
30
0
11
9.816033
21
0.394519
31
0
39
0
210
0
220
0
230
1
0
LINE
5
7A
100
AcDbEntity
8
1
62
256
6
ByLayer
370
13
48
1
60
0
100
AcDbLine
10
44.265685
20
9.325003
30
0
11
44.265685
21
9.25
31
0
39
0
210
0
220
0
230
1
0
LINE
5
7B
100
AcDbEntity
8
1
62
256
6
ByLayer
370
13
48
1
60
0
100
AcDbLine
10
-9.161928
20
-0.249981
30
0
11
-6.935866
21
-0.249981
31
0
39
0
210
0
220
0
230
1
0
LINE
5
7C
100
AcDbEntity
8
1
62
256
6
ByLayer
370
13
48
1
60
0
100
AcDbLine
10
6.935866
20
-0.249981
30
0
11
9.161928
21
-0.249981
31
0
39
0
210
0
220
0
230
1
0
LINE
5
7D
100
AcDbEntity
8
1
62
256
6
ByLayer
370
18
48
1
60
0
100
AcDbLine
10
-9.242033
20
-0.324981
30
0
11
-6.372959
21
-0.324981
31
0
39
0
210
0
220
0
230
1
0
LINE
5
7E
100
AcDbEntity
8
1
62
256
6
ByLayer
370
18
48
1
60
0
100
AcDbLine
10
6.372959
20
-0.324981
30
0
11
9.242033
21
-0.324981
31
0
39
0
210
0
220
0
230
1
0
LINE
5
7F
100
AcDbEntity
8
1
62
256
6
ByLayer
370
13
48
1
60
0
100
AcDbLine
10
43.7
20
11.723205
30
0
11
43.7
21
11.674965
31
0
39
0
210
0
220
0
230
1
0
LINE
5
80
100
AcDbEntity
8
1
62
256
6
ByLayer
370
13
48
1
60
0
100
AcDbLine
10
43.7
20
9.325035
30
0
11
43.7
21
9.276795
31
0
39
0
210
0
220
0
230
1
0
LINE
5
81
100
AcDbEntity
8
1
62
256
6
ByLayer
370
13
48
1
60
0
100
AcDbLine
10
-12.058724
20
0.394519
30
0
11
-11.667569
21
0.394519
31
0
39
0
210
0
220
0
230
1
0
LINE
5
82
100
AcDbEntity
8
1
62
256
6
ByLayer
370
13
48
1
60
0
100
AcDbLine
10
11.667569
20
0.394519
30
0
11
12.058724
21
0.394519
31
0
39
0
210
0
220
0
230
1
0
LINE
5
83
100
AcDbEntity
8
1
62
256
6
ByLayer
370
13
48
1
60
0
100
AcDbLine
10
17.583871
20
11.675
30
0
11
17.583871
21
0.67
31
0
39
0
210
0
220
0
230
1
0
LINE
5
84
100
AcDbEntity
8
1
62
256
6
ByLayer
370
13
48
1
60
0
100
AcDbLine
10
-11.48403
20
-0.249981
30
0
11
-9.958089
21
-0.249981
31
0
39
0
210
0
220
0
230
1
0
LINE
5
85
100
AcDbEntity
8
1
62
256
6
ByLayer
370
13
48
1
60
0
100
AcDbLine
10
9.958089
20
-0.249981
30
0
11
11.48403
21
-0.249981
31
0
39
0
210
0
220
0
230
1
0
LINE
5
86
100
AcDbEntity
8
1
62
256
6
ByLayer
370
18
48
1
60
0
100
AcDbLine
10
-11.531153
20
-0.324981
30
0
11
-9.595
21
-0.324981
31
0
39
0
210
0
220
0
230
1
0
LINE
5
87
100
AcDbEntity
8
1
62
256
6
ByLayer
370
18
48
1
60
0
100
AcDbLine
10
9.595
20
-0.324981
30
0
11
11.531153
21
-0.324981
31
0
39
0
210
0
220
0
230
1
0
LINE
5
88
100
AcDbEntity
8
1
62
256
6
ByLayer
370
13
48
1
60
0
100
AcDbLine
10
-6.541878
20
0.394519
30
0
11
-5.63501
21
0.394519
31
0
39
0
210
0
220
0
230
1
0
LINE
5
89
100
AcDbEntity
8
1
62
256
6
ByLayer
370
13
48
1
60
0
100
AcDbLine
10
5.63501
20
0.394519
30
0
11
6.541878
21
0.394519
31
0
39
0
210
0
220
0
230
1
0
LINE
5
8A
100
AcDbEntity
8
1
62
256
6
ByLayer
370
13
48
1
60
0
100
AcDbLine
10
-5.612388
20
-0.249981
30
0
11
5.612388
21
-0.249981
31
0
39
0
210
0
220
0
230
1
0
LINE
5
8B
100
AcDbEntity
8
1
62
256
6
ByLayer
370
13
48
1
60
0
100
AcDbLine
10
-13.241033
20
-0.249981
30
0
11
-12.071618
21
-0.249981
31
0
39
0
210
0
220
0
230
1
0
LINE
5
8C
100
AcDbEntity
8
1
62
256
6
ByLayer
370
13
48
1
60
0
100
AcDbLine
10
-13.783002
20
0.394519
30
0
11
-13.475038
21
0.394519
31
0
39
0
210
0
220
0
230
1
0
LINE
5
8D
100
AcDbEntity
8
1
62
256
6
ByLayer
370
13
48
1
60
0
100
AcDbLine
10
13.475038
20
0.394519
30
0
11
13.783002
21
0.394519
31
0
39
0
210
0
220
0
230
1
0
LINE
5
8E
100
AcDbEntity
8
1
62
256
6
ByLayer
370
13
48
1
60
0
100
AcDbLine
10
12.071618
20
-0.249981
30
0
11
13.241033
21
-0.249981
31
0
39
0
210
0
220
0
230
1
0
LINE
5
8F
100
AcDbEntity
8
1
62
256
6
ByLayer
370
13
48
1
60
0
100
AcDbLine
10
-15.166723
20
0.394519
30
0
11
-14.91713
21
0.394519
31
0
39
0
210
0
220
0
230
1
0
LINE
5
90
100
AcDbEntity
8
1
62
256
6
ByLayer
370
13
48
1
60
0
100
AcDbLine
10
14.91713
20
0.394519
30
0
11
15.166723
21
0.394519
31
0
39
0
210
0
220
0
230
1
0
LINE
5
91
100
AcDbEntity
8
1
62
256
6
ByLayer
370
18
48
1
60
0
100
AcDbLine
10
-15.767828
20
-0.324981
30
0
11
-14.812475
21
-0.324981
31
0
39
0
210
0
220
0
230
1
0
LINE
5
92
100
AcDbEntity
8
1
62
256
6
ByLayer
370
18
48
1
60
0
100
AcDbLine
10
14.812475
20
-0.324981
30
0
11
15.767828
21
-0.324981
31
0
39
0
210
0
220
0
230
1
0
LINE
5
93
100
AcDbEntity
8
1
62
256
6
ByLayer
370
13
48
1
60
0
100
AcDbLine
10
13.70335
20
-0.249981
30
0
11
14.637861
21
-0.249981
31
0
39
0
210
0
220
0
230
1
0
LINE
5
94
100
AcDbEntity
8
1
62
256
6
ByLayer
370
13
48
1
60
0
100
AcDbLine
10
-14.637861
20
-0.249981
30
0
11
-13.70335
21
-0.249981
31
0
39
0
210
0
220
0
230
1
0
LINE
5
95
100
AcDbEntity
8
1
62
256
6
ByLayer
370
13
48
1
60
0
100
AcDbLine
10
16.092304
20
0.394519
30
0
11
16.296865
21
0.394519
31
0
39
0
210
0
220
0
230
1
0
LINE
5
96
100
AcDbEntity
8
1
62
256
6
ByLayer
370
13
48
1
60
0
100
AcDbLine
10
-16.296865
20
0.394519
30
0
11
-16.092304
21
0.394519
31
0
39
0
210
0
220
0
230
1
0
LINE
5
97
100
AcDbEntity
8
1
62
256
6
ByLayer
370
13
48
1
60
0
100
AcDbLine
10
15.011285
20
-0.249981
30
0
11
15.77051
21
-0.249981
31
0
39
0
210
0
220
0
230
1
0
LINE
5
98
100
AcDbEntity
8
1
62
256
6
ByLayer
370
18
48
1
60
0
100
AcDbLine
10
-16.678631
20
-0.324981
30
0
11
-15.901439
21
-0.324981
31
0
39
0
210
0
220
0
230
1
0
LINE
5
99
100
AcDbEntity
8
1
62
256
6
ByLayer
370
18
48
1
60
0
100
AcDbLine
10
15.901439
20
-0.324981
30
0
11
16.678631
21
-0.324981
31
0
39
0
210
0
220
0
230
1
0
LINE
5
9A
100
AcDbEntity
8
1
62
256
6
ByLayer
370
13
48
1
60
0
100
AcDbLine
10
-15.77051
20
-0.249981
30
0
11
-15.011285
21
-0.249981
31
0
39
0
210
0
220
0
230
1
0
LINE
5
9B
100
AcDbEntity
8
1
62
256
6
ByLayer
370
13
48
1
60
0
100
AcDbLine
10
-17.223418
20
0.394519
30
0
11
-17.055898
21
0.394519
31
0
39
0
210
0
220
0
230
1
0
LINE
5
9C
100
AcDbEntity
8
1
62
256
6
ByLayer
370
13
48
1
60
0
100
AcDbLine
10
17.055898
20
0.394519
30
0
11
17.223418
21
0.394519
31
0
39
0
210
0
220
0
230
1
0
LINE
5
9D
100
AcDbEntity
8
1
62
256
6
ByLayer
370
13
48
1
60
0
100
AcDbLine
10
-16.692843
20
-0.249981
30
0
11
-16.07471
21
-0.249981
31
0
39
0
210
0
220
0
230
1
0
LINE
5
9E
100
AcDbEntity
8
1
62
256
6
ByLayer
370
18
48
1
60
0
100
AcDbLine
10
16.786998
20
-0.324981
30
0
11
17.413473
21
-0.324981
31
0
39
0
210
0
220
0
230
1
0
LINE
5
9F
100
AcDbEntity
8
1
62
256
6
ByLayer
370
18
48
1
60
0
100
AcDbLine
10
-17.413473
20
-0.324981
30
0
11
-16.786998
21
-0.324981
31
0
39
0
210
0
220
0
230
1
0
LINE
5
A0
100
AcDbEntity
8
1
62
256
6
ByLayer
370
13
48
1
60
0
100
AcDbLine
10
16.07471
20
-0.249981
30
0
11
16.692843
21
-0.249981
31
0
39
0
210
0
220
0
230
1
0
LINE
5
A1
100
AcDbEntity
8
1
62
256
6
ByLayer
370
13
48
1
60
0
100
AcDbLine
10
26.553887
20
9.325
30
0
11
26.553887
21
11.675
31
0
39
0
210
0
220
0
230
1
0
LINE
5
A2
100
AcDbEntity
8
1
62
256
6
ByLayer
370
13
48
1
60
0
100
AcDbLine
10
17.842221
20
0.394519
30
0
11
17.977888
21
0.394519
31
0
39
0
210
0
220
0
230
1
0
LINE
5
A3
100
AcDbEntity
8
1
62
256
6
ByLayer
370
13
48
1
60
0
100
AcDbLine
10
-17.977888
20
0.394519
30
0
11
-17.842221
21
0.394519
31
0
39
0
210
0
220
0
230
1
0
LINE
5
A4
100
AcDbEntity
8
1
62
256
6
ByLayer
370
18
48
1
60
0
100
AcDbLine
10
-17.925019
20
-0.324981
30
0
11
-17.499984
21
-0.324981
31
0
39
0
210
0
220
0
230
1
0
LINE
5
A5
100
AcDbEntity
8
1
62
256
6
ByLayer
370
18
48
1
60
0
100
AcDbLine
10
17.499994
20
-0.324981
30
0
11
17.993925
21
-0.324981
31
0
39
0
210
0
220
0
230
1
0
LINE
5
A6
100
AcDbEntity
8
1
62
256
6
ByLayer
370
13
48
1
60
0
100
AcDbLine
10
-17.438264
20
-0.249981
30
0
11
-16.939739
21
-0.249981
31
0
39
0
210
0
220
0
230
1
0
LINE
5
A7
100
AcDbEntity
8
1
62
256
6
ByLayer
370
13
48
1
60
0
100
AcDbLine
10
16.939739
20
-0.249981
30
0
11
17.438264
21
-0.249981
31
0
39
0
210
0
220
0
230
1
0
LINE
5
A8
100
AcDbEntity
8
1
62
256
6
ByLayer
370
18
48
1
60
0
100
AcDbLine
10
18.060977
20
-0.324981
30
0
11
18.434577
21
-0.324981
31
0
39
0
210
0
220
0
230
1
0
LINE
5
A9
100
AcDbEntity
8
1
62
256
6
ByLayer
370
13
48
1
60
0
100
AcDbLine
10
18.473913
20
0.394519
30
0
11
18.581248
21
0.394519
31
0
39
0
210
0
220
0
230
1
0
LINE
5
AA
100
AcDbEntity
8
1
62
256
6
ByLayer
370
13
48
1
60
0
100
AcDbLine
10
-18.581248
20
0.394519
30
0
11
-18.473913
21
0.394519
31
0
39
0
210
0
220
0
230
1
0
LINE
5
AB
100
AcDbEntity
8
1
62
256
6
ByLayer
370
13
48
1
60
0
100
AcDbLine
10
17.635501
20
-0.249981
30
0
11
18.028729
21
-0.249981
31
0
39
0
210
0
220
0
230
1
0
LINE
5
AC
100
AcDbEntity
8
1
62
256
6
ByLayer
370
13
48
1
60
0
100
AcDbLine
10
-18.000019
20
-0.249981
30
0
11
-17.635544
21
-0.249981
31
0
39
0
210
0
220
0
230
1
0
LINE
5
AD
100
AcDbEntity
8
1
62
256
6
ByLayer
370
18
48
1
60
0
100
AcDbLine
10
18.483688
20
-0.324981
30
0
11
18.745291
21
-0.324981
31
0
39
0
210
0
220
0
230
1
0
LINE
5
AE
100
AcDbEntity
8
1
62
256
6
ByLayer
370
13
48
1
60
0
100
AcDbLine
10
18.181589
20
-0.249981
30
0
11
18.479098
21
-0.249981
31
0
39
0
210
0
220
0
230
1
0
LINE
5
AF
100
AcDbEntity
8
1
62
256
6
ByLayer
370
13
48
1
60
0
100
AcDbLine
10
18.966461
20
0.394519
30
0
11
19.047864
21
0.394519
31
0
39
0
210
0
220
0
230
1
0
LINE
5
B0
100
AcDbEntity
8
1
62
256
6
ByLayer
370
18
48
1
60
0
100
AcDbLine
10
18.777454
20
-0.324981
30
0
11
18.932466
21
-0.324981
31
0
39
0
210
0
220
0
230
1
0
LINE
5
B1
100
AcDbEntity
8
1
62
256
6
ByLayer
370
13
48
1
60
0
100
AcDbLine
10
39.890738
20
11.675
30
0
11
39.890738
21
9.325
31
0
39
0
210
0
220
0
230
1
0
LINE
5
B2
100
AcDbEntity
8
1
62
256
6
ByLayer
370
13
48
1
60
0
100
AcDbLine
10
44.890738
20
9.325
30
0
11
44.890738
21
11.675
31
0
39
0
210
0
220
0
230
1
0
LINE
5
B3
100
AcDbEntity
8
1
62
256
6
ByLayer
370
18
48
1
60
0
100
AcDbLine
10
18.94836
20
-0.324981
30
0
11
18.999752
21
-0.324981
31
0
39
0
210
0
220
0
230
1
0
LINE
5
B4
100
AcDbEntity
8
1
62
256
6
ByLayer
370
13
48
1
60
0
100
AcDbLine
10
19.330508
20
0.394519
30
0
11
19.38761
21
0.394519
31
0
39
0
210
0
220
0
230
1
0
LINE
5
B5
100
AcDbEntity
8
1
62
256
6
ByLayer
370
13
48
1
60
0
100
AcDbLine
10
18.591032
20
-0.249981
30
0
11
18.799444
21
-0.249981
31
0
39
0
210
0
220
0
230
1
0
LINE
5
B6
100
AcDbEntity
8
1
62
256
6
ByLayer
370
13
48
1
60
0
100
AcDbLine
10
19.573114
20
0.394519
30
0
11
19.607085
21
0.394519
31
0
39
0
210
0
220
0
230
1
0
LINE
5
B7
100
AcDbEntity
8
1
62
256
6
ByLayer
370
13
48
1
60
0
100
AcDbLine
10
18.872848
20
-0.249981
30
0
11
18.996345
21
-0.249981
31
0
39
0
210
0
220
0
230
1
0
LINE
5
B8
100
AcDbEntity
8
1
62
256
6
ByLayer
370
13
48
1
60
0
100
AcDbLine
10
44.265685
20
11.674997
30
0
11
44.265685
21
11.75
31
0
39
0
210
0
220
0
230
1
0
LINE
5
B9
100
AcDbEntity
8
1
62
256
6
ByLayer
370
13
48
1
60
0
100
AcDbLine
10
19.699024
20
0.394519
30
0
11
19.710304
21
0.394519
31
0
39
0
210
0
220
0
230
1
0
LINE
5
BA
100
AcDbEntity
8
1
62
256
6
ByLayer
370
13
48
1
60
0
100
AcDbLine
10
50.055978
20
9.25
30
0
11
50.055978
21
9.673244
31
0
39
0
210
0
220
0
230
1
0
LINE
5
BB
100
AcDbEntity
8
1
62
256
6
ByLayer
370
13
48
1
60
0
100
AcDbLine
10
50.207676
20
9.665535
30
0
11
50.480446
21
9.652104
31
0
39
0
210
0
220
0
230
1
0
LINE
5
BC
100
AcDbEntity
8
1
62
256
6
ByLayer
370
13
48
1
60
0
100
AcDbLine
10
50.737538
20
9.141081
30
0
11
50.716974
21
9.435155
31
0
39
0
210
0
220
0
230
1
0
LINE
5
BD
100
AcDbEntity
8
1
62
256
6
ByLayer
370
13
48
1
60
0
100
AcDbLine
10
50.737538
20
11.858919
30
0
11
50.716974
21
11.564845
31
0
39
0
210
0
220
0
230
1
0
LINE
5
BE
100
AcDbEntity
8
1
62
256
6
ByLayer
370
13
48
1
60
0
100
AcDbLine
10
50.480446
20
11.347896
30
0
11
50.207676
21
11.334465
31
0
39
0
210
0
220
0
230
1
0
LINE
5
BF
100
AcDbEntity
8
1
62
256
6
ByLayer
370
13
48
1
60
0
100
AcDbLine
10
50.055978
20
11.326756
30
0
11
50.055978
21
11.75
31
0
39
0
210
0
220
0
230
1
0
LINE
5
C0
100
AcDbEntity
8
1
62
256
6
ByLayer
370
13
48
1
60
0
100
AcDbLine
10
50.99812
20
9.452152
30
0
11
50.99812
21
9.1338
31
0
39
0
210
0
220
0
230
1
0
LINE
5
C1
100
AcDbEntity
8
1
62
256
6
ByLayer
370
13
48
1
60
0
100
AcDbLine
10
52.058781
20
9.335576
30
0
11
52.058781
21
9.090215
31
0
39
0
210
0
220
0
230
1
0
LINE
5
C2
100
AcDbEntity
8
1
62
256
6
ByLayer
370
13
48
1
60
0
100
AcDbLine
10
52.058781
20
11.664424
30
0
11
52.058781
21
11.909785
31
0
39
0
210
0
220
0
230
1
0
LINE
5
C3
100
AcDbEntity
8
1
62
256
6
ByLayer
370
13
48
1
60
0
100
AcDbLine
10
50.99812
20
11.547848
30
0
11
50.99812
21
11.8662
31
0
39
0
210
0
220
0
230
1
0
LINE
5
C4
100
AcDbEntity
8
1
62
256
6
ByLayer
370
13
48
1
60
0
100
AcDbLine
10
50.480446
20
9.652104
30
0
11
50.630516
21
9.806271
31
0
39
0
210
0
220
0
230
1
0
LINE
5
C5
100
AcDbEntity
8
1
62
256
6
ByLayer
370
13
48
1
60
0
100
AcDbLine
10
50.630516
20
11.193729
30
0
11
50.480446
21
11.347896
31
0
39
0
210
0
220
0
230
1
0
LINE
5
C6
100
AcDbEntity
8
1
62
256
6
ByLayer
370
13
48
1
60
0
100
AcDbLine
10
50.207676
20
9.665535
30
0
11
50.221372
21
9.94369
31
0
39
0
210
0
220
0
230
1
0
LINE
5
C7
100
AcDbEntity
8
1
62
256
6
ByLayer
370
13
48
1
60
0
100
AcDbLine
10
50.451055
20
9.93238
30
0
11
50.221372
21
9.94369
31
0
39
0
210
0
220
0
230
1
0
LINE
5
C8
100
AcDbEntity
8
1
62
256
6
ByLayer
370
13
48
1
60
0
100
AcDbLine
10
50.221372
20
11.05631
30
0
11
50.451055
21
11.06762
31
0
39
0
210
0
220
0
230
1
0
LINE
5
C9
100
AcDbEntity
8
1
62
256
6
ByLayer
370
13
48
1
60
0
100
AcDbLine
10
50.221372
20
11.05631
30
0
11
50.207676
21
11.334465
31
0
39
0
210
0
220
0
230
1
0
LINE
5
CA
100
AcDbEntity
8
1
62
256
6
ByLayer
370
13
48
1
60
0
100
AcDbLine
10
50.893328
20
9.45047
30
0
11
50.915472
21
9.133786
31
0
39
0
210
0
220
0
230
1
0
LINE
5
CB
100
AcDbEntity
8
1
62
256
6
ByLayer
370
13
48
1
60
0
100
AcDbLine
10
50.893328
20
11.54953
30
0
11
50.915472
21
11.866214
31
0
39
0
210
0
220
0
230
1
0
LINE
5
CC
100
AcDbEntity
8
1
62
256
6
ByLayer
370
13
48
1
60
0
100
AcDbLine
10
50.464379
20
11.05631
30
0
11
50.221372
21
11.05631
31
0
39
0
210
0
220
0
230
1
0
LINE
5
CD
100
AcDbEntity
8
1
62
256
6
ByLayer
370
13
48
1
60
0
100
AcDbLine
10
50.464379
20
9.94369
30
0
11
50.221372
21
9.94369
31
0
39
0
210
0
220
0
230
1
0
LINE
5
CE
100
AcDbEntity
8
1
62
256
6
ByLayer
370
13
48
1
60
0
100
AcDbLine
10
49.987574
20
9.673244
30
0
11
50.055978
21
9.673244
31
0
39
0
210
0
220
0
230
1
0
LINE
5
CF
100
AcDbEntity
8
1
62
256
6
ByLayer
370
13
48
1
60
0
100
AcDbLine
10
49.987574
20
11.326756
30
0
11
50.055978
21
11.326756
31
0
39
0
210
0
220
0
230
1
0
LINE
5
D0
100
AcDbEntity
8
1
62
256
6
ByLayer
370
13
48
1
60
0
100
AcDbLine
10
49.987574
20
11.75
30
0
11
49.987574
21
11.326756
31
0
39
0
210
0
220
0
230
1
0
LINE
5
D1
100
AcDbEntity
8
1
62
256
6
ByLayer
370
13
48
1
60
0
100
AcDbLine
10
49.987574
20
9.673244
30
0
11
49.987574
21
9.25
31
0
39
0
210
0
220
0
230
1
0
LINE
5
D2
100
AcDbEntity
8
1
62
256
6
ByLayer
370
13
48
1
60
0
100
AcDbLine
10
49.263912
20
9.25
30
0
11
49.263912
21
9.366083
31
0
39
0
210
0
220
0
230
1
0
LINE
5
D3
100
AcDbEntity
8
1
62
256
6
ByLayer
370
13
48
1
60
0
100
AcDbLine
10
49.263912
20
11.633917
30
0
11
49.263912
21
11.75
31
0
39
0
210
0
220
0
230
1
0
LINE
5
D4
100
AcDbEntity
8
1
62
256
6
ByLayer
370
13
48
1
60
0
100
AcDbLine
10
51.714687
20
11.319384
30
0
11
51.811268
21
11.015841
31
0
39
0
210
0
220
0
230
1
0
LINE
5
D5
100
AcDbEntity
8
1
62
256
6
ByLayer
370
13
48
1
60
0
100
AcDbLine
10
51.714687
20
9.680616
30
0
11
51.811268
21
9.984159
31
0
39
0
210
0
220
0
230
1
0
LINE
5
D6
100
AcDbEntity
8
1
62
256
6
ByLayer
370
13
48
1
60
0
100
AcDbLine
10
49.06942
20
10.867998
30
0
11
49.379442
21
10.867998
31
0
39
0
210
0
220
0
230
1
0
LINE
5
D7
100
AcDbEntity
8
1
62
256
6
ByLayer
370
13
48
1
60
0
100
AcDbLine
10
49.015611
20
11.31851
30
0
11
49.06942
21
10.867998
31
0
39
0
210
0
220
0
230
1
0
LINE
5
D8
100
AcDbEntity
8
1
62
256
6
ByLayer
370
13
48
1
60
0
100
AcDbLine
10
49.177267
20
11.575984
30
0
11
48.984859
21
11.575984
31
0
39
0
210
0
220
0
230
1
0
LINE
5
D9
100
AcDbEntity
8
1
62
256
6
ByLayer
370
13
48
1
60
0
100
AcDbLine
10
49.177267
20
9.424016
30
0
11
48.984859
21
9.424016
31
0
39
0
210
0
220
0
230
1
0
LINE
5
DA
100
AcDbEntity
8
1
62
256
6
ByLayer
370
13
48
1
60
0
100
AcDbLine
10
49.015611
20
9.68149
30
0
11
49.06942
21
10.132002
31
0
39
0
210
0
220
0
230
1
0
LINE
5
DB
100
AcDbEntity
8
1
62
256
6
ByLayer
370
13
48
1
60
0
100
AcDbLine
10
49.06942
20
10.132002
30
0
11
49.379442
21
10.132002
31
0
39
0
210
0
220
0
230
1
0
LINE
5
DC
100
AcDbEntity
8
1
62
256
6
ByLayer
370
13
48
1
60
0
100
AcDbLine
10
49.172358
20
11.75
30
0
11
49.172358
21
11.625902
31
0
39
0
210
0
220
0
230
1
0
LINE
5
DD
100
AcDbEntity
8
1
62
256
6
ByLayer
370
13
48
1
60
0
100
AcDbLine
10
49.172358
20
9.374098
30
0
11
49.172358
21
9.25
31
0
39
0
210
0
220
0
230
1
0
LINE
5
DE
100
AcDbEntity
8
1
62
256
6
ByLayer
370
13
48
1
60
0
100
AcDbLine
10
51.811268
20
11.015841
30
0
11
51.811268
21
9.984159
31
0
39
0
210
0
220
0
230
1
0
LINE
5
DF
100
AcDbEntity
8
1
62
256
6
ByLayer
370
13
48
1
60
0
100
AcDbLine
10
48.98199
20
11.625438
30
0
11
49.170595
21
11.625438
31
0
39
0
210
0
220
0
230
1
0
LINE
5
E0
100
AcDbEntity
8
1
62
256
6
ByLayer
370
13
48
1
60
0
100
AcDbLine
10
48.98199
20
11.75
30
0
11
48.98199
21
11.625438
31
0
39
0
210
0
220
0
230
1
0
LINE
5
E1
100
AcDbEntity
8
1
62
256
6
ByLayer
370
13
48
1
60
0
100
AcDbLine
10
48.98199
20
9.25
30
0
11
48.98199
21
9.374562
31
0
39
0
210
0
220
0
230
1
0
LINE
5
E2
100
AcDbEntity
8
1
62
256
6
ByLayer
370
13
48
1
60
0
100
AcDbLine
10
48.98199
20
9.374562
30
0
11
49.170595
21
9.374562
31
0
39
0
210
0
220
0
230
1
0
LINE
5
E3
100
AcDbEntity
8
1
62
256
6
ByLayer
370
13
48
1
60
0
100
AcDbLine
10
53.600117
20
11.264766
30
0
11
53.525685
21
11.264766
31
0
39
0
210
0
220
0
230
1
0
LINE
5
E4
100
AcDbEntity
8
1
62
256
6
ByLayer
370
13
48
1
60
0
100
AcDbLine
10
53.135516
20
11.573706
30
0
11
53.135516
21
11.992175
31
0
39
0
210
0
220
0
230
1
0
LINE
5
E5
100
AcDbEntity
8
1
62
256
6
ByLayer
370
13
48
1
60
0
100
AcDbLine
10
53.135516
20
9.426294
30
0
11
53.135516
21
9.007825
31
0
39
0
210
0
220
0
230
1
0
LINE
5
E6
100
AcDbEntity
8
1
62
256
6
ByLayer
370
13
48
1
60
0
100
AcDbLine
10
53.600117
20
9.735234
30
0
11
53.525685
21
9.735234
31
0
39
0
210
0
220
0
230
1
0
LINE
5
E7
100
AcDbEntity
8
1
62
256
6
ByLayer
370
13
48
1
60
0
100
AcDbLine
10
52.706077
20
9.325131
30
0
11
52.706077
21
9.042588
31
0
39
0
210
0
220
0
230
1
0
LINE
5
E8
100
AcDbEntity
8
1
62
256
6
ByLayer
370
13
48
1
60
0
100
AcDbLine
10
53.06476
20
9.012928
30
0
11
53.06476
21
9.373678
31
0
39
0
210
0
220
0
230
1
0
LINE
5
E9
100
AcDbEntity
8
1
62
256
6
ByLayer
370
13
48
1
60
0
100
AcDbLine
10
53.06476
20
11.987072
30
0
11
53.06476
21
11.626322
31
0
39
0
210
0
220
0
230
1
0
LINE
5
EA
100
AcDbEntity
8
1
62
256
6
ByLayer
370
13
48
1
60
0
100
AcDbLine
10
52.706077
20
11.674869
30
0
11
52.706077
21
11.957412
31
0
39
0
210
0
220
0
230
1
0
LINE
5
EB
100
AcDbEntity
8
1
62
256
6
ByLayer
370
13
48
1
60
0
100
AcDbLine
10
49.106333
20
10.751024
30
0
11
49.466184
21
10.751024
31
0
39
0
210
0
220
0
230
1
0
LINE
5
EC
100
AcDbEntity
8
1
62
256
6
ByLayer
370
13
48
1
60
0
100
AcDbLine
10
49.106333
20
10.248976
30
0
11
49.466184
21
10.248976
31
0
39
0
210
0
220
0
230
1
0
LINE
5
ED
100
AcDbEntity
8
1
62
256
6
ByLayer
370
13
48
1
60
0
100
AcDbLine
10
52.358781
20
9.321591
30
0
11
52.358781
21
9.069133
31
0
39
0
210
0
220
0
230
1
0
LINE
5
EE
100
AcDbEntity
8
1
62
256
6
ByLayer
370
13
48
1
60
0
100
AcDbLine
10
52.358781
20
11.678409
30
0
11
52.358781
21
11.930867
31
0
39
0
210
0
220
0
230
1
0
LINE
5
EF
100
AcDbEntity
8
1
62
256
6
ByLayer
370
13
48
1
60
0
100
AcDbLine
10
48.974468
20
11.625438
30
0
11
48.98199
21
11.625438
31
0
39
0
210
0
220
0
230
1
0
LINE
5
F0
100
AcDbEntity
8
1
62
256
6
ByLayer
370
13
48
1
60
0
100
AcDbLine
10
45.566112
20
11.675001
30
0
11
45.566112
21
11.75
31
0
39
0
210
0
220
0
230
1
0
LINE
5
F1
100
AcDbEntity
8
1
62
256
6
ByLayer
370
13
48
1
60
0
100
AcDbLine
10
45.566112
20
9.324999
30
0
11
45.566112
21
9.25
31
0
39
0
210
0
220
0
230
1
0
LINE
5
F2
100
AcDbEntity
8
1
62
256
6
ByLayer
370
13
48
1
60
0
100
AcDbLine
10
48.974468
20
9.374562
30
0
11
48.98199
21
9.374562
31
0
39
0
210
0
220
0
230
1
0
LINE
5
F3
100
AcDbEntity
8
1
62
256
6
ByLayer
370
13
48
1
60
0
100
AcDbLine
10
49.000093
20
10.132002
30
0
11
49.06942
21
10.132002
31
0
39
0
210
0
220
0
230
1
0
LINE
5
F4
100
AcDbEntity
8
1
62
256
6
ByLayer
370
13
48
1
60
0
100
AcDbLine
10
49.000093
20
10.867998
30
0
11
49.06942
21
10.867998
31
0
39
0
210
0
220
0
230
1
0
LINE
5
F5
100
AcDbEntity
8
1
62
256
6
ByLayer
370
13
48
1
60
0
100
AcDbLine
10
49.14904
20
10.700756
30
0
11
49.587507
21
10.700756
31
0
39
0
210
0
220
0
230
1
0
LINE
5
F6
100
AcDbEntity
8
1
62
256
6
ByLayer
370
13
48
1
60
0
100
AcDbLine
10
52.42193
20
11.391296
30
0
11
52.411268
21
11.088056
31
0
39
0
210
0
220
0
230
1
0
LINE
5
F7
100
AcDbEntity
8
1
62
256
6
ByLayer
370
13
48
1
60
0
100
AcDbLine
10
49.14904
20
10.299244
30
0
11
49.587507
21
10.299244
31
0
39
0
210
0
220
0
230
1
0
LINE
5
F8
100
AcDbEntity
8
1
62
256
6
ByLayer
370
13
48
1
60
0
100
AcDbLine
10
52.42193
20
9.608704
30
0
11
52.411268
21
9.911944
31
0
39
0
210
0
220
0
230
1
0
LINE
5
F9
100
AcDbEntity
8
1
62
256
6
ByLayer
370
13
48
1
60
0
100
AcDbLine
10
53.544165
20
9.92161
30
0
11
53.597026
21
9.92161
31
0
39
0
210
0
220
0
230
1
0
LINE
5
FA
100
AcDbEntity
8
1
62
256
6
ByLayer
370
13
48
1
60
0
100
AcDbLine
10
53.544165
20
11.07839
30
0
11
53.597026
21
11.07839
31
0
39
0
210
0
220
0
230
1
0
LINE
5
FB
100
AcDbEntity
8
1
62
256
6
ByLayer
370
13
48
1
60
0
100
AcDbLine
10
53.548049
20
9.76293
30
0
11
53.6
21
9.76293
31
0
39
0
210
0
220
0
230
1
0
LINE
5
FC
100
AcDbEntity
8
1
62
256
6
ByLayer
370
13
48
1
60
0
100
AcDbLine
10
53.597026
20
9.92161
30
0
11
53.597026
21
11.07839
31
0
39
0
210
0
220
0
230
1
0
LINE
5
FD
100
AcDbEntity
8
1
62
256
6
ByLayer
370
13
48
1
60
0
100
AcDbLine
10
53.548049
20
11.23707
30
0
11
53.6
21
11.23707
31
0
39
0
210
0
220
0
230
1
0
LINE
5
FE
100
AcDbEntity
8
1
62
256
6
ByLayer
370
13
48
1
60
0
100
AcDbLine
10
49.152254
20
10.302665
30
0
11
49.596489
21
10.302665
31
0
39
0
210
0
220
0
230
1
0
LINE
5
FF
100
AcDbEntity
8
1
62
256
6
ByLayer
370
13
48
1
60
0
100
AcDbLine
10
49.152254
20
10.697335
30
0
11
49.596489
21
10.697335
31
0
39
0
210
0
220
0
230
1
0
LINE
5
100
100
AcDbEntity
8
1
62
256
6
ByLayer
370
13
48
1
60
0
100
AcDbLine
10
53.544165
20
11.07839
30
0
11
53.544165
21
9.92161
31
0
39
0
210
0
220
0
230
1
0
LINE
5
101
100
AcDbEntity
8
1
62
256
6
ByLayer
370
13
48
1
60
0
100
AcDbLine
10
53.021373
20
11.089076
30
0
11
53.021373
21
9.910924
31
0
39
0
210
0
220
0
230
1
0
LINE
5
102
100
AcDbEntity
8
1
62
256
6
ByLayer
370
13
48
1
60
0
100
AcDbLine
10
49.14904
20
10.299244
30
0
11
49.152254
21
10.302665
31
0
39
0
210
0
220
0
230
1
0
LINE
5
103
100
AcDbEntity
8
1
62
256
6
ByLayer
370
13
48
1
60
0
100
AcDbLine
10
49.14904
20
10.700756
30
0
11
49.152254
21
10.697335
31
0
39
0
210
0
220
0
230
1
0
LINE
5
104
100
AcDbEntity
8
1
62
256
6
ByLayer
370
13
48
1
60
0
100
AcDbLine
10
52.411268
20
11.088056
30
0
11
52.411268
21
9.911944
31
0
39
0
210
0
220
0
230
1
0
LINE
5
105
100
AcDbEntity
8
1
62
256
6
ByLayer
370
13
48
1
60
0
100
AcDbLine
10
48.993871
20
10.248976
30
0
11
49.106333
21
10.248976
31
0
39
0
210
0
220
0
230
1
0
LINE
5
106
100
AcDbEntity
8
1
62
256
6
ByLayer
370
13
48
1
60
0
100
AcDbLine
10
48.993871
20
10.751024
30
0
11
49.106333
21
10.751024
31
0
39
0
210
0
220
0
230
1
0
LINE
5
107
100
AcDbEntity
8
1
62
256
6
ByLayer
370
13
48
1
60
0
100
AcDbLine
10
48.992089
20
10.700756
30
0
11
49.14904
21
10.700756
31
0
39
0
210
0
220
0
230
1
0
LINE
5
108
100
AcDbEntity
8
1
62
256
6
ByLayer
370
13
48
1
60
0
100
AcDbLine
10
48.992089
20
10.299244
30
0
11
49.14904
21
10.299244
31
0
39
0
210
0
220
0
230
1
0
LINE
5
109
100
AcDbEntity
8
1
62
256
6
ByLayer
370
13
48
1
60
0
100
AcDbLine
10
45.189581
20
11.75
30
0
11
45.145758
21
11.674998
31
0
39
0
210
0
220
0
230
1
0
LINE
5
10A
100
AcDbEntity
8
1
62
256
6
ByLayer
370
13
48
1
60
0
100
AcDbLine
10
48.991978
20
10.697335
30
0
11
49.152254
21
10.697335
31
0
39
0
210
0
220
0
230
1
0
LINE
5
10B
100
AcDbEntity
8
1
62
256
6
ByLayer
370
13
48
1
60
0
100
AcDbLine
10
48.991978
20
10.302665
30
0
11
49.152254
21
10.302665
31
0
39
0
210
0
220
0
230
1
0
LINE
5
10C
100
AcDbEntity
8
1
62
256
6
ByLayer
370
13
48
1
60
0
100
AcDbLine
10
19.03268
20
-0.249981
30
0
11
19.073624
21
-0.249981
31
0
39
0
210
0
220
0
230
1
0
LINE
5
10D
100
AcDbEntity
8
1
62
256
6
ByLayer
370
18
48
1
60
0
100
AcDbLine
10
39.890738
20
11.675
30
0
11
26.553887
21
11.675
31
0
39
0
210
0
220
0
230
1
0
LINE
5
10E
100
AcDbEntity
8
1
62
256
6
ByLayer
370
18
48
1
60
0
100
AcDbLine
10
44.890738
20
9.325
30
0
11
39.890738
21
9.325
31
0
39
0
210
0
220
0
230
1
0
LINE
5
10F
100
AcDbEntity
8
1
62
256
6
ByLayer
370
18
48
1
60
0
100
AcDbLine
10
48.95928
20
11.675
30
0
11
44.890738
21
11.675
31
0
39
0
210
0
220
0
230
1
0
LINE
5
110
100
AcDbEntity
8
1
62
256
6
ByLayer
370
18
48
1
60
0
100
AcDbLine
10
44.890738
20
11.675
30
0
11
39.890738
21
11.675
31
0
39
0
210
0
220
0
230
1
0
LINE
5
111
100
AcDbEntity
8
1
62
256
6
ByLayer
370
18
48
1
60
0
100
AcDbLine
10
39.890738
20
9.325
30
0
11
26.553887
21
9.325
31
0
39
0
210
0
220
0
230
1
0
LINE
5
112
100
AcDbEntity
8
1
62
256
6
ByLayer
370
18
48
1
60
0
100
AcDbLine
10
48.95928
20
9.325
30
0
11
44.890738
21
9.325
31
0
39
0
210
0
220
0
230
1
0
LINE
5
113
100
AcDbEntity
8
1
62
256
6
ByLayer
370
18
48
1
60
0
100
AcDbLine
10
48.95928
20
11.675
30
0
11
49.015611
21
11.491569
31
0
39
0
210
0
220
0
230
1
0
LINE
5
114
100
AcDbEntity
8
1
62
256
6
ByLayer
370
18
48
1
60
0
100
AcDbLine
10
49.015611
20
9.508431
30
0
11
49.015611
21
9.978186
31
0
39
0
210
0
220
0
230
1
0
LINE
5
115
100
AcDbEntity
8
1
62
256
6
ByLayer
370
18
48
1
60
0
100
AcDbLine
10
49.015611
20
9.508431
30
0
11
48.95928
21
9.325
31
0
39
0
210
0
220
0
230
1
0
LINE
5
116
100
AcDbEntity
8
1
62
256
6
ByLayer
370
18
48
1
60
0
100
AcDbLine
10
11.988251
20
-0.324981
30
0
11
13.267245
21
-0.324981
31
0
39
0
210
0
220
0
230
1
0
LINE
5
117
100
AcDbEntity
8
1
62
256
6
ByLayer
370
18
48
1
60
0
100
AcDbLine
10
13.534977
20
-0.324981
30
0
11
14.64828
21
-0.324981
31
0
39
0
210
0
220
0
230
1
0
LINE
5
118
100
AcDbEntity
8
1
62
256
6
ByLayer
370
18
48
1
60
0
100
AcDbLine
10
-5.776059
20
-0.324981
30
0
11
5.776059
21
-0.324981
31
0
39
0
210
0
220
0
230
1
0
LINE
5
119
100
AcDbEntity
8
1
62
256
6
ByLayer
370
18
48
1
60
0
100
AcDbLine
10
-14.64828
20
-0.324981
30
0
11
-13.534977
21
-0.324981
31
0
39
0
210
0
220
0
230
1
0
LINE
5
11A
100
AcDbEntity
8
1
62
256
6
ByLayer
370
18
48
1
60
0
100
AcDbLine
10
14.64828
20
-0.324981
30
0
11
14.812462
21
-0.324981
31
0
39
0
210
0
220
0
230
1
0
LINE
5
11B
100
AcDbEntity
8
1
62
256
6
ByLayer
370
18
48
1
60
0
100
AcDbLine
10
11.531153
20
-0.324981
30
0
11
11.790405
21
-0.324981
31
0
39
0
210
0
220
0
230
1
0
LINE
5
11C
100
AcDbEntity
8
1
62
256
6
ByLayer
370
18
48
1
60
0
100
AcDbLine
10
-14.812462
20
-0.324981
30
0
11
-14.64828
21
-0.324981
31
0
39
0
210
0
220
0
230
1
0
LINE
5
11D
100
AcDbEntity
8
1
62
256
6
ByLayer
370
18
48
1
60
0
100
AcDbLine
10
17.413473
20
-0.324981
30
0
11
17.50006
21
-0.324981
31
0
39
0
210
0
220
0
230
1
0
LINE
5
11E
100
AcDbEntity
8
1
62
256
6
ByLayer
370
18
48
1
60
0
100
AcDbLine
10
5.776059
20
-0.324981
30
0
11
6.373247
21
-0.324981
31
0
39
0
210
0
220
0
230
1
0
LINE
5
11F
100
AcDbEntity
8
1
62
256
6
ByLayer
370
18
48
1
60
0
100
AcDbLine
10
13.267245
20
-0.324981
30
0
11
13.470759
21
-0.324981
31
0
39
0
210
0
220
0
230
1
0
LINE
5
120
100
AcDbEntity
8
1
62
256
6
ByLayer
370
18
48
1
60
0
100
AcDbLine
10
16.678631
20
-0.324981
30
0
11
16.787031
21
-0.324981
31
0
39
0
210
0
220
0
230
1
0
LINE
5
121
100
AcDbEntity
8
1
62
256
6
ByLayer
370
18
48
1
60
0
100
AcDbLine
10
15.767828
20
-0.324981
30
0
11
15.901469
21
-0.324981
31
0
39
0
210
0
220
0
230
1
0
LINE
5
122
100
AcDbEntity
8
1
62
256
6
ByLayer
370
18
48
1
60
0
100
AcDbLine
10
18.745291
20
-0.324981
30
0
11
18.777518
21
-0.324981
31
0
39
0
210
0
220
0
230
1
0
LINE
5
123
100
AcDbEntity
8
1
62
256
6
ByLayer
370
18
48
1
60
0
100
AcDbLine
10
-15.901469
20
-0.324981
30
0
11
-15.767828
21
-0.324981
31
0
39
0
210
0
220
0
230
1
0
LINE
5
124
100
AcDbEntity
8
1
62
256
6
ByLayer
370
18
48
1
60
0
100
AcDbLine
10
9.242033
20
-0.324981
30
0
11
9.595101
21
-0.324981
31
0
39
0
210
0
220
0
230
1
0
LINE
5
125
100
AcDbEntity
8
1
62
256
6
ByLayer
370
18
48
1
60
0
100
AcDbLine
10
18.434577
20
-0.324981
30
0
11
18.483709
21
-0.324981
31
0
39
0
210
0
220
0
230
1
0
LINE
5
126
100
AcDbEntity
8
1
62
256
6
ByLayer
370
18
48
1
60
0
100
AcDbLine
10
-9.595101
20
-0.324981
30
0
11
-9.242033
21
-0.324981
31
0
39
0
210
0
220
0
230
1
0
LINE
5
127
100
AcDbEntity
8
1
62
256
6
ByLayer
370
18
48
1
60
0
100
AcDbLine
10
-13.267245
20
-0.324981
30
0
11
-11.988251
21
-0.324981
31
0
39
0
210
0
220
0
230
1
0
LINE
5
128
100
AcDbEntity
8
1
62
256
6
ByLayer
370
18
48
1
60
0
100
AcDbLine
10
18.932466
20
-0.324981
30
0
11
18.948427
21
-0.324981
31
0
39
0
210
0
220
0
230
1
0
LINE
5
129
100
AcDbEntity
8
1
62
256
6
ByLayer
370
18
48
1
60
0
100
AcDbLine
10
-11.790405
20
-0.324981
30
0
11
-11.531153
21
-0.324981
31
0
39
0
210
0
220
0
230
1
0
LINE
5
12A
100
AcDbEntity
8
1
62
256
6
ByLayer
370
18
48
1
60
0
100
AcDbLine
10
-6.373247
20
-0.324981
30
0
11
-5.776059
21
-0.324981
31
0
39
0
210
0
220
0
230
1
0
LINE
5
12B
100
AcDbEntity
8
1
62
256
6
ByLayer
370
18
48
1
60
0
100
AcDbLine
10
-16.787031
20
-0.324981
30
0
11
-16.678631
21
-0.324981
31
0
39
0
210
0
220
0
230
1
0
LINE
5
12C
100
AcDbEntity
8
1
62
256
6
ByLayer
370
18
48
1
60
0
100
AcDbLine
10
17.993925
20
-0.324981
30
0
11
18.061002
21
-0.324981
31
0
39
0
210
0
220
0
230
1
0
LINE
5
12D
100
AcDbEntity
8
1
62
256
6
ByLayer
370
18
48
1
60
0
100
AcDbLine
10
-13.470759
20
-0.324981
30
0
11
-13.267245
21
-0.324981
31
0
39
0
210
0
220
0
230
1
0
LINE
5
12E
100
AcDbEntity
8
1
62
256
6
ByLayer
370
18
48
1
60
0
100
AcDbLine
10
-17.50006
20
-0.324981
30
0
11
-17.413473
21
-0.324981
31
0
39
0
210
0
220
0
230
1
0
LINE
5
12F
100
AcDbEntity
8
1
62
256
6
ByLayer
370
18
48
1
60
0
100
AcDbLine
10
-19
20
11.675
30
0
11
-19
21
0.75
31
0
39
0
210
0
220
0
230
1
0
LINE
5
130
100
AcDbEntity
8
1
62
256
6
ByLayer
370
18
48
1
60
0
100
AcDbLine
10
-0.199972
20
11.675
30
0
11
-0.199972
21
0.67
31
0
39
0
210
0
220
0
230
1
0
LINE
5
131
100
AcDbEntity
8
1
62
256
6
ByLayer
370
18
48
1
60
0
100
AcDbLine
10
0.199972
20
11.675
30
0
11
0.199972
21
0.67
31
0
39
0
210
0
220
0
230
1
0
LINE
5
132
100
AcDbEntity
8
1
62
256
6
ByLayer
370
18
48
1
60
0
100
AcDbLine
10
-19
20
0.75
30
0
11
-18.92
21
0.67
31
0
39
0
210
0
220
0
230
1
0
LINE
5
133
100
AcDbEntity
8
1
62
256
6
ByLayer
370
18
48
1
60
0
100
AcDbLine
10
-17.925019
20
-0.324981
30
0
11
-18.000019
21
-0.249981
31
0
39
0
210
0
220
0
230
1
0
LINE
5
134
100
AcDbEntity
8
1
62
256
6
ByLayer
370
18
48
1
60
0
100
AcDbLine
10
-18.000019
20
-0.249981
30
0
11
-18.202361
21
-0.047639
31
0
39
0
210
0
220
0
230
1
0
LINE
5
135
100
AcDbEntity
8
1
62
256
6
ByLayer
370
18
48
1
60
0
100
AcDbLine
10
0.199972
20
11.675
30
0
11
17.583871
21
11.675
31
0
39
0
210
0
220
0
230
1
0
LINE
5
136
100
AcDbEntity
8
1
62
256
6
ByLayer
370
18
48
1
60
0
100
AcDbLine
10
-18.92
20
0.67
30
0
11
-0.199972
21
0.67
31
0
39
0
210
0
220
0
230
1
0
LINE
5
137
100
AcDbEntity
8
1
62
256
6
ByLayer
370
18
48
1
60
0
100
AcDbLine
10
-0.199972
20
11.675
30
0
11
0.199972
21
11.675
31
0
39
0
210
0
220
0
230
1
0
LINE
5
138
100
AcDbEntity
8
1
62
256
6
ByLayer
370
18
48
1
60
0
100
AcDbLine
10
-19
20
11.675
30
0
11
-0.199972
21
11.675
31
0
39
0
210
0
220
0
230
1
0
LINE
5
139
100
AcDbEntity
8
1
62
256
6
ByLayer
370
18
48
1
60
0
100
AcDbLine
10
20
20
0.75
30
0
11
20
21
7.725
31
0
39
0
210
0
220
0
230
1
0
LINE
5
13A
100
AcDbEntity
8
1
62
256
6
ByLayer
370
18
48
1
60
0
100
AcDbLine
10
17.710505
20
0.75
30
0
11
17.710505
21
0.675
31
0
39
0
210
0
220
0
230
1
0
LINE
5
13B
100
AcDbEntity
8
1
62
256
6
ByLayer
370
18
48
1
60
0
100
AcDbLine
10
0.199972
20
0.67
30
0
11
17.583871
21
0.67
31
0
39
0
210
0
220
0
230
1
0
LINE
5
13C
100
AcDbEntity
8
1
62
256
6
ByLayer
370
18
48
1
60
0
100
AcDbLine
10
17.583871
20
11.675
30
0
11
26.553887
21
11.675
31
0
39
0
210
0
220
0
230
1
0
LINE
5
13D
100
AcDbEntity
8
1
62
256
6
ByLayer
370
18
48
1
60
0
100
AcDbLine
10
20
20
0.75
30
0
11
17.710505
21
0.75
31
0
39
0
210
0
220
0
230
1
0
LINE
5
13E
100
AcDbEntity
8
1
62
256
6
ByLayer
370
18
48
1
60
0
100
AcDbLine
10
21.6
20
9.325
30
0
11
26.553887
21
9.325
31
0
39
0
210
0
220
0
230
1
0
LINE
5
13F
100
AcDbEntity
8
1
62
256
6
ByLayer
370
18
48
1
60
0
100
AcDbLine
10
49.015611
20
11.021814
30
0
11
49.015611
21
11.491569
31
0
39
0
210
0
220
0
230
1
0
LINE
5
140
100
AcDbEntity
8
1
62
256
6
ByLayer
370
18
48
1
60
0
100
AcDbLine
10
53.600117
20
11.264766
30
0
11
53.604691
21
11.805556
31
0
39
0
210
0
220
0
230
1
0
LINE
5
141
100
AcDbEntity
8
1
62
256
6
ByLayer
370
18
48
1
60
0
100
AcDbLine
10
53.6
20
9.76293
30
0
11
53.6
21
11.23707
31
0
39
0
210
0
220
0
230
1
0
LINE
5
142
100
AcDbEntity
8
1
62
256
6
ByLayer
370
18
48
1
60
0
100
AcDbLine
10
50.29752
20
11.807909
30
0
11
50.24436
21
11.777217
31
0
39
0
210
0
220
0
230
1
0
LINE
5
143
100
AcDbEntity
8
1
62
256
6
ByLayer
370
18
48
1
60
0
100
AcDbLine
10
43.8
20
9.25
30
0
11
44.265685
21
9.25
31
0
39
0
210
0
220
0
230
1
0
LINE
5
144
100
AcDbEntity
8
1
62
256
6
ByLayer
370
18
48
1
60
0
100
AcDbLine
10
45.189581
20
11.75
30
0
11
44.265685
21
11.75
31
0
39
0
210
0
220
0
230
1
0
LINE
5
145
100
AcDbEntity
8
1
62
256
6
ByLayer
370
18
48
1
60
0
100
AcDbLine
10
49.263912
20
9.25
30
0
11
49.987574
21
9.25
31
0
39
0
210
0
220
0
230
1
0
LINE
5
146
100
AcDbEntity
8
1
62
256
6
ByLayer
370
18
48
1
60
0
100
AcDbLine
10
44.265685
20
9.25
30
0
11
45.189581
21
9.25
31
0
39
0
210
0
220
0
230
1
0
LINE
5
147
100
AcDbEntity
8
1
62
256
6
ByLayer
370
18
48
1
60
0
100
AcDbLine
10
50.99812
20
11.8662
30
0
11
50.915472
21
11.866214
31
0
39
0
210
0
220
0
230
1
0
LINE
5
148
100
AcDbEntity
8
1
62
256
6
ByLayer
370
18
48
1
60
0
100
AcDbLine
10
50.395343
20
9.165009
30
0
11
50.737538
21
9.141081
31
0
39
0
210
0
220
0
230
1
0
LINE
5
149
100
AcDbEntity
8
1
62
256
6
ByLayer
370
18
48
1
60
0
100
AcDbLine
10
45.566112
20
11.75
30
0
11
45.247775
21
11.75
31
0
39
0
210
0
220
0
230
1
0
LINE
5
14A
100
AcDbEntity
8
1
62
256
6
ByLayer
370
18
48
1
60
0
100
AcDbLine
10
53.135516
20
9.007825
30
0
11
53.395632
21
8.991796
31
0
39
0
210
0
220
0
230
1
0
LINE
5
14B
100
AcDbEntity
8
1
62
256
6
ByLayer
370
18
48
1
60
0
100
AcDbLine
10
45.566112
20
9.25
30
0
11
48.98199
21
9.25
31
0
39
0
210
0
220
0
230
1
0
LINE
5
14C
100
AcDbEntity
8
1
62
256
6
ByLayer
370
18
48
1
60
0
100
AcDbLine
10
49.987574
20
11.75
30
0
11
49.263912
21
11.75
31
0
39
0
210
0
220
0
230
1
0
LINE
5
14D
100
AcDbEntity
8
1
62
256
6
ByLayer
370
18
48
1
60
0
100
AcDbLine
10
53.06476
20
11.987072
30
0
11
52.706077
21
11.957412
31
0
39
0
210
0
220
0
230
1
0
LINE
5
14E
100
AcDbEntity
8
1
62
256
6
ByLayer
370
18
48
1
60
0
100
AcDbLine
10
48.98199
20
11.75
30
0
11
45.566112
21
11.75
31
0
39
0
210
0
220
0
230
1
0
LINE
5
14F
100
AcDbEntity
8
1
62
256
6
ByLayer
370
18
48
1
60
0
100
AcDbLine
10
50.153398
20
9.25
30
0
11
50.055978
21
9.25
31
0
39
0
210
0
220
0
230
1
0
LINE
5
150
100
AcDbEntity
8
1
62
256
6
ByLayer
370
18
48
1
60
0
100
AcDbLine
10
45.247775
20
9.25
30
0
11
45.566112
21
9.25
31
0
39
0
210
0
220
0
230
1
0
LINE
5
151
100
AcDbEntity
8
1
62
256
6
ByLayer
370
18
48
1
60
0
100
AcDbLine
10
50.055978
20
11.75
30
0
11
49.987574
21
11.75
31
0
39
0
210
0
220
0
230
1
0
LINE
5
152
100
AcDbEntity
8
1
62
256
6
ByLayer
370
18
48
1
60
0
100
AcDbLine
10
53.395632
20
12.008204
30
0
11
53.135516
21
11.992175
31
0
39
0
210
0
220
0
230
1
0
LINE
5
153
100
AcDbEntity
8
1
62
256
6
ByLayer
370
18
48
1
60
0
100
AcDbLine
10
52.058781
20
9.090215
30
0
11
52.358781
21
9.069133
31
0
39
0
210
0
220
0
230
1
0
LINE
5
154
100
AcDbEntity
8
1
62
256
6
ByLayer
370
18
48
1
60
0
100
AcDbLine
10
50.254705
20
9.222882
30
0
11
50.309449
21
9.191276
31
0
39
0
210
0
220
0
230
1
0
LINE
5
155
100
AcDbEntity
8
1
62
256
6
ByLayer
370
18
48
1
60
0
100
AcDbLine
10
49.987574
20
9.25
30
0
11
50.055978
21
9.25
31
0
39
0
210
0
220
0
230
1
0
LINE
5
156
100
AcDbEntity
8
1
62
256
6
ByLayer
370
18
48
1
60
0
100
AcDbLine
10
52.706077
20
9.042588
30
0
11
53.06476
21
9.012928
31
0
39
0
210
0
220
0
230
1
0
LINE
5
157
100
AcDbEntity
8
1
62
256
6
ByLayer
370
18
48
1
60
0
100
AcDbLine
10
50.915472
20
9.133786
30
0
11
50.99812
21
9.1338
31
0
39
0
210
0
220
0
230
1
0
LINE
5
158
100
AcDbEntity
8
1
62
256
6
ByLayer
370
18
48
1
60
0
100
AcDbLine
10
49.172358
20
11.75
30
0
11
48.98199
21
11.75
31
0
39
0
210
0
220
0
230
1
0
LINE
5
159
100
AcDbEntity
8
1
62
256
6
ByLayer
370
18
48
1
60
0
100
AcDbLine
10
45.189581
20
9.25
30
0
11
45.235194
21
9.25
31
0
39
0
210
0
220
0
230
1
0
LINE
5
15A
100
AcDbEntity
8
1
62
256
6
ByLayer
370
18
48
1
60
0
100
AcDbLine
10
52.358781
20
11.930867
30
0
11
52.058781
21
11.909785
31
0
39
0
210
0
220
0
230
1
0
LINE
5
15B
100
AcDbEntity
8
1
62
256
6
ByLayer
370
18
48
1
60
0
100
AcDbLine
10
50.737538
20
11.858919
30
0
11
50.38336
21
11.834153
31
0
39
0
210
0
220
0
230
1
0
LINE
5
15C
100
AcDbEntity
8
1
62
256
6
ByLayer
370
18
48
1
60
0
100
AcDbLine
10
49.263912
20
11.75
30
0
11
49.172358
21
11.75
31
0
39
0
210
0
220
0
230
1
0
LINE
5
15D
100
AcDbEntity
8
1
62
256
6
ByLayer
370
18
48
1
60
0
100
AcDbLine
10
49.172358
20
9.25
30
0
11
49.263912
21
9.25
31
0
39
0
210
0
220
0
230
1
0
LINE
5
15E
100
AcDbEntity
8
1
62
256
6
ByLayer
370
18
48
1
60
0
100
AcDbLine
10
45.235194
20
11.75
30
0
11
45.189581
21
11.75
31
0
39
0
210
0
220
0
230
1
0
LINE
5
15F
100
AcDbEntity
8
1
62
256
6
ByLayer
370
18
48
1
60
0
100
AcDbLine
10
53.604691
20
9.194444
30
0
11
53.600117
21
9.735234
31
0
39
0
210
0
220
0
230
1
0
LINE
5
160
100
AcDbEntity
8
1
62
256
6
ByLayer
370
18
48
1
60
0
100
AcDbLine
10
50.055978
20
11.75
30
0
11
50.142652
21
11.75
31
0
39
0
210
0
220
0
230
1
0
LINE
5
161
100
AcDbEntity
8
1
62
256
6
ByLayer
370
18
48
1
60
0
100
AcDbLine
10
48.98199
20
9.25
30
0
11
49.172358
21
9.25
31
0
39
0
210
0
220
0
230
1
0
LINE
5
162
100
AcDbEntity
8
1
62
256
6
ByLayer
370
18
48
1
60
0
100
AcDbLine
10
44.265685
20
11.75
30
0
11
43.8
21
11.75
31
0
39
0
210
0
220
0
230
1
0
MTEXT
5
2B7
100
AcDbEntity
8
SK6
62
256
6
ByLayer
370
18
48
1
60
0
100
AcDbMText
10
-14.325
20
-45.61295
30
0
210
0
220
0
230
1
1
\W0.7914;SL-QD-LGG32C40
40
3.5
41
0
44
1.084337
50
0
71
7
72
5
7
iso_b_vert
0
DIMENSION
5
2C9
100
AcDbEntity
8
2
62
256
6
ByLayer
370
13
48
1
60
0
100
AcDbDimension
2
DimnDraft3D1
10
78.7
20
12
30
0
11
78.7
21
4.346711
31
0
70
32
71
5
72
1
41
1
210
0
220
0
230
1
3
Standard
100
AcDbAlignedDimension
13
23.6
23
0
33
0
14
55.6
24
12
34
0
50
90
100
AcDbRotatedDimension
1001
ACAD
1000
DSTYLE
1002
{
1070
    74
1070
     0
1070
   279
1070
     0
1070
   172
1070
     1
1070
   173
1070
     1
1070
   340
1005
2B8
1070
   271
1070
     1
1070
    77
1070
     1
1070
    73
1070
     0
1070
   171
1070
     3
1070
   274
1070
     4
1070
   177
1070
     2
1070
   176
1070
     2
1070
   178
1070
     7
1070
    78
1070
     8
1070
    41
1041
3.175
1070
   147
1041
1.75
1070
    42
1041
2.0
1070
    44
1041
2.0
1070
   140
1041
3.5
1070
   343
1005
2CA
1070
   344
1005
2CA
1002
}
0
DIMENSION
5
2DF
100
AcDbEntity
8
SK2
62
256
6
ByLayer
370
13
48
1
60
0
100
AcDbDimension
2
DimnDraft3D2
10
53.6
20
34.608569
30
0
11
22.692105
21
34.608569
31
0
70
32
71
5
72
1
41
1
210
0
220
0
230
1
3
Standard
100
AcDbAlignedDimension
13
0
23
2
33
0
14
53.6
24
14
34
0
50
0
100
AcDbRotatedDimension
1001
ACAD
1000
DSTYLE
1002
{
1070
   279
1070
     0
1070
   172
1070
     1
1070
   173
1070
     1
1070
   340
1005
2B8
1070
   271
1070
     1
1070
    77
1070
     1
1070
    73
1070
     0
1070
   171
1070
     3
1070
   274
1070
     4
1070
   177
1070
     2
1070
   176
1070
     2
1070
   178
1070
     7
1070
    78
1070
     8
1070
    41
1041
3.175
1070
   147
1041
1.75
1070
    42
1041
2.0
1070
    44
1041
2.0
1070
   140
1041
3.5
1070
   343
1005
2CA
1070
   344
1005
2CA
1002
}
0
DIMENSION
5
2ED
100
AcDbEntity
8
2
62
256
6
ByLayer
370
13
48
1
60
0
100
AcDbDimension
2
DimnDraft3D3
10
21.6
20
-14.584469
30
0
11
35.509211
21
-14.584469
31
0
70
32
71
5
72
1
41
1
210
0
220
0
230
1
3
Standard
100
AcDbAlignedDimension
13
53.6
23
10
33
0
14
21.6
24
-2
34
0
50
0
100
AcDbRotatedDimension
1001
ACAD
1000
DSTYLE
1002
{
1070
   279
1070
     0
1070
   172
1070
     1
1070
   173
1070
     1
1070
   340
1005
2B8
1070
   271
1070
     1
1070
    77
1070
     1
1070
    73
1070
     0
1070
   171
1070
     3
1070
   274
1070
     4
1070
   177
1070
     2
1070
   176
1070
     2
1070
   178
1070
     7
1070
    78
1070
     8
1070
    41
1041
3.175
1070
   147
1041
1.75
1070
    42
1041
2.0
1070
    44
1041
2.0
1070
   140
1041
3.5
1070
   343
1005
2CA
1070
   344
1005
2CA
1002
}
0
DIMENSION
5
2FB
100
AcDbEntity
8
2
62
256
6
ByLayer
370
13
48
1
60
0
100
AcDbDimension
2
DimnDraft3D4
10
71.7
20
9
30
0
11
71.7
21
-2.820789
31
0
70
32
71
5
72
1
41
1
210
0
220
0
230
1
3
Standard
100
AcDbAlignedDimension
13
55.6
23
12
33
0
14
55.6
24
9
34
0
50
90
100
AcDbRotatedDimension
1001
ACAD
1000
DSTYLE
1002
{
1070
    74
1070
     0
1070
   279
1070
     0
1070
   172
1070
     1
1070
   173
1070
     1
1070
   340
1005
2B8
1070
   271
1070
     1
1070
    77
1070
     1
1070
    73
1070
     0
1070
   171
1070
     3
1070
   274
1070
     4
1070
   177
1070
     2
1070
   176
1070
     2
1070
   178
1070
     7
1070
    78
1070
     8
1070
    41
1041
3.175
1070
   147
1041
1.75
1070
    42
1041
2.0
1070
    44
1041
2.0
1070
   140
1041
3.5
1070
   343
1005
2CA
1070
   344
1005
2CA
1002
}
0
ENDSEC
0
SECTION
2
OBJECTS
0
DICTIONARY
5
364
330
0
100
AcDbDictionary
280
0
281
1
3
ACAD_GROUP
350
365
3
ACAD_MLINESTYLE
350
366
0
DICTIONARY
5
365
330
0
100
AcDbDictionary
280
0
281
1
0
DICTIONARY
5
366
330
0
100
AcDbDictionary
280
0
281
1
3
Standard
350
18
0
MLINESTYLE
5
18
330
366
100
AcDbMlineStyle
2
Standard
70
0
3

62
256
51
90
52
90
71
2
49
-0.5
62
256
6
ByLayer
49
0.5
62
256
6
ByLayer
0
RASTERVARIABLES
5
354
330

100
AcDbRasterVariables
90
0
70
1
71
1
72
1
0
ENDSEC
0
EOF
