0
SECTION
2
HEADER
9
$ACADVER
1
AC1015
9
$DWGCODEPAGE
3
ANSI_1252
9
$HANDSEED
5
349
9
$ANGBASE
50
0
9
$ANGDIR
70
0
9
$ATTMODE
70
1
9
$AUNITS
70
0
9
$AUPREC
70
0
9
$CECOLOR
62
256
9
$CELTSCALE
40
1
9
$CELTYPE
6
ByLayer
9
$CELWEIGHT
370
18
9
$CLAYER
8
0
9
$CMLJUST
70
0
9
$CMLSCALE
40
1
9
$CMLSTYLE
2
Standard
9
$DIMSTYLE
2
Standard
9
$TEXTSIZE
40
0.2
9
$TEXTSTYLE
7
Standard
9
$LUNITS
70
2
9
$LUPREC
70
4
9
$EXTNAMES
290
1
9
$INSUNITS
70
4
9
$LTSCALE
40
1
9
$LWDISPLAY
290
1
9
$PDMODE
70
0
9
$PDSIZE
40
0
9
$PLINEGEN
70
0
0
ENDSEC
0
SECTION
2
CLASSES
0
CLASS
1
RASTERVARIABLES
2
AcDbRasterVariables
3
ISM
90
0
280
0
281
0
0
ENDSEC
0
SECTION
2
TABLES
0
TABLE
2
VPORT
5
33f
100
AcDbSymbolTable
0
VPORT
5
1
100
AcDbSymbolTableRecord
100
AcDbViewportTableRecord
2
*Active
70
0
10
0
20
0
11
1
21
1
12
-1
22
1
13
0
23
0
14
0.5
24
0.5
15
10
25
10
16
0
26
0
36
1
17
0
27
0
37
0
0
ENDTAB
0
TABLE
2
LTYPE
5
340
100
AcDbSymbolTable
0
LTYPE
5
14
100
AcDbSymbolTableRecord
100
AcDbLinetypeTableRecord
70
0
2
ByBlock
3

72
65
73
0
40
0
0
LTYPE
5
15
100
AcDbSymbolTableRecord
100
AcDbLinetypeTableRecord
70
0
2
ByLayer
3

72
65
73
0
40
0
0
LTYPE
5
16
100
AcDbSymbolTableRecord
100
AcDbLinetypeTableRecord
70
0
2
CONTINUOUS
3
Solid line
72
65
73
0
40
0
0
LTYPE
5
6A
100
AcDbSymbolTableRecord
100
AcDbLinetypeTableRecord
70
0
2
CENTER
3
____ _ ____ _ ____ _ ____
72
65
73
4
40
47.5
49
22
74
0
49
-8.5
74
0
49
8.5
74
0
49
-8.5
74
0
0
LTYPE
5
6B
100
AcDbSymbolTableRecord
100
AcDbLinetypeTableRecord
70
0
2
DASHED
3
__ __ __ __ __ __ __ __ __
72
65
73
2
40
25.72
49
12.86
74
0
49
-12.86
74
0
0
ENDTAB
0
TABLE
2
LAYER
5
341
100
AcDbSymbolTable
0
LAYER
5
10
100
AcDbSymbolTableRecord
100
AcDbLayerTableRecord
2
0
70
0
62
7
6
CONTINUOUS
290
1
370
-3
390
0
0
LAYER
5
6D
100
AcDbSymbolTableRecord
100
AcDbLayerTableRecord
2
81
70
0
62
-3
6
CONTINUOUS
290
1
370
-3
390
0
0
LAYER
5
6F
100
AcDbSymbolTableRecord
100
AcDbLayerTableRecord
2
80
70
0
62
-6
6
CONTINUOUS
290
1
370
-3
390
0
0
LAYER
5
73
100
AcDbSymbolTableRecord
100
AcDbLayerTableRecord
2
1
70
0
62
4
6
CONTINUOUS
290
1
370
-3
390
0
0
LAYER
5
295
100
AcDbSymbolTableRecord
100
AcDbLayerTableRecord
2
2
70
0
62
7
6
CONTINUOUS
290
1
370
-3
390
0
0
LAYER
5
32d
100
AcDbSymbolTableRecord
100
AcDbLayerTableRecord
2
SK6
70
0
62
5
6
CONTINUOUS
290
1
370
-3
390
0
0
LAYER
5
32e
100
AcDbSymbolTableRecord
100
AcDbLayerTableRecord
2
SK2
70
0
62
7
6
CONTINUOUS
290
1
370
-3
390
0
0
ENDTAB
0
TABLE
2
STYLE
5
342
100
AcDbSymbolTable
0
STYLE
5
11
100
AcDbSymbolTableRecord
100
AcDbTextStyleTableRecord
2
Standard
3
txt
70
0
71
0
40
0
41
1
42
0
50
0
0
STYLE
5
290
100
AcDbSymbolTableRecord
100
AcDbTextStyleTableRecord
2
iso_b_vert
3
simplex.shx
70
0
71
0
40
0
41
1
42
0
50
0
0
STYLE
5
291
100
AcDbSymbolTableRecord
100
AcDbTextStyleTableRecord
2
DWGDirectTextStyle
3
simplex
70
0
71
0
40
0
41
1
42
0
50
0
0
ENDTAB
0
TABLE
2
DIMSTYLE
5
343
100
AcDbSymbolTable
100
AcDbDimStyleTable
0
DIMSTYLE
105
27
100
AcDbSymbolTableRecord
100
AcDbDimStyleTableRecord
2
Standard
70
0
3
<>
41
0.18
42
0.0625
44
0.18
140
0.18
147
0.09
73
0
74
0
77
1
271
2
275
0
278
52
280
0
340
11
0
ENDTAB
0
TABLE
2
VIEW
5
344
100
AcDbSymbolTable
0
ENDTAB
0
TABLE
2
UCS
5
345
100
AcDbSymbolTable
0
ENDTAB
0
TABLE
2
APPID
5
346
100
AcDbSymbolTable
0
APPID
5
12
100
AcDbSymbolTableRecord
100
AcDbRegAppTableRecord
2
ACAD
70
0
0
ENDTAB
0
TABLE
2
BLOCK_RECORD
5
347
100
AcDbSymbolTable
0
BLOCK_RECORD
5
1F
100
AcDbSymbolTableRecord
100
AcDbBlockTableRecord
2
*Model_Space
340
0
70
0
0
BLOCK_RECORD
5
1B
100
AcDbSymbolTableRecord
100
AcDbBlockTableRecord
2
*Paper_Space
340
0
70
0
0
BLOCK_RECORD
5
23
100
AcDbSymbolTableRecord
100
AcDbBlockTableRecord
2
*Paper_Space0
340
0
70
0
0
BLOCK_RECORD
5
293
100
AcDbSymbolTableRecord
100
AcDbBlockTableRecord
2
DimnDraft3D1
340
0
70
0
0
BLOCK_RECORD
5
2A2
100
AcDbSymbolTableRecord
100
AcDbBlockTableRecord
2
_CLOSED
340
0
70
0
0
BLOCK_RECORD
5
2A9
100
AcDbSymbolTableRecord
100
AcDbBlockTableRecord
2
DimnDraft3D2
340
0
70
0
0
BLOCK_RECORD
5
2B8
100
AcDbSymbolTableRecord
100
AcDbBlockTableRecord
2
DimnDraft3D3
340
0
70
0
0
BLOCK_RECORD
5
2C6
100
AcDbSymbolTableRecord
100
AcDbBlockTableRecord
2
DimnDraft3D4
340
0
70
0
0
ENDTAB
0
ENDSEC
0
SECTION
2
BLOCKS
0
BLOCK
5
20
100
AcDbEntity
8
0
100
AcDbBlockBegin
2
*Model_Space
70
0
10
0
20
0
30
0
3
*Model_Space
0
ENDBLK
5
21
100
AcDbEntity
8
0
100
AcDbBlockEnd
0
BLOCK
5
1C
100
AcDbEntity
8
0
100
AcDbBlockBegin
2
*Paper_Space
70
0
10
0
20
0
30
0
3
*Paper_Space
0
ENDBLK
5
1D
100
AcDbEntity
8
0
100
AcDbBlockEnd
0
BLOCK
5
24
100
AcDbEntity
8
0
100
AcDbBlockBegin
2
*Paper_Space0
70
0
10
0
20
0
30
0
3
*Paper_Space0
0
ENDBLK
5
25
100
AcDbEntity
8
0
100
AcDbBlockEnd
0
BLOCK
5
29F
100
AcDbEntity
8
0
100
AcDbBlockBegin
2
DimnDraft3D1
70
0
10
0
20
0
30
0
3
DimnDraft3D1
0
MTEXT
5
294
100
AcDbEntity
8
2
62
256
6
ByLayer
370
18
48
1
60
0
100
AcDbMText
10
67.825
20
5.159211
30
0
210
0
220
0
230
1
1
\W0.4657;11
40
3.5
41
0
44
1.084337
50
90
71
7
72
5
7
iso_b_vert
0
LINE
5
296
100
AcDbEntity
8
2
62
256
6
ByLayer
370
13
48
1
60
0
100
AcDbLine
10
19.6
20
0
30
0
11
70.7
21
0
31
0
39
0
210
0
220
0
230
1
0
LINE
5
297
100
AcDbEntity
8
2
62
256
6
ByLayer
370
13
48
1
60
0
100
AcDbLine
10
45.6
20
11
30
0
11
70.7
21
11
31
0
39
0
210
0
220
0
230
1
0
LINE
5
298
100
AcDbEntity
8
2
62
256
6
ByLayer
370
13
48
1
60
0
100
AcDbLine
10
68.7
20
-8.75
30
0
11
68.7
21
19.75
31
0
39
0
210
0
220
0
230
1
0
LINE
5
299
100
AcDbEntity
8
2
62
256
6
ByLayer
370
13
48
1
60
0
100
AcDbLine
10
68.7
20
0
30
0
11
69.117997
21
-3.174998
31
0
39
0
210
0
220
0
230
1
0
LINE
5
29A
100
AcDbEntity
8
2
62
256
6
ByLayer
370
13
48
1
60
0
100
AcDbLine
10
68.7
20
0
30
0
11
68.282003
21
-3.175002
31
0
39
0
210
0
220
0
230
1
0
LINE
5
29B
100
AcDbEntity
8
2
62
256
6
ByLayer
370
13
48
1
60
0
100
AcDbLine
10
69.117997
20
-3.174998
30
0
11
68.282003
21
-3.175002
31
0
39
0
210
0
220
0
230
1
0
LINE
5
29C
100
AcDbEntity
8
2
62
256
6
ByLayer
370
13
48
1
60
0
100
AcDbLine
10
68.7
20
11
30
0
11
68.282003
21
14.174998
31
0
39
0
210
0
220
0
230
1
0
LINE
5
29D
100
AcDbEntity
8
2
62
256
6
ByLayer
370
13
48
1
60
0
100
AcDbLine
10
68.7
20
11
30
0
11
69.117997
21
14.175002
31
0
39
0
210
0
220
0
230
1
0
LINE
5
29E
100
AcDbEntity
8
2
62
256
6
ByLayer
370
13
48
1
60
0
100
AcDbLine
10
68.282003
20
14.174998
30
0
11
69.117997
21
14.175002
31
0
39
0
210
0
220
0
230
1
0
ENDBLK
5
2A0
100
AcDbEntity
8
0
100
AcDbBlockEnd
0
BLOCK
5
2A3
100
AcDbEntity
8
0
100
AcDbBlockBegin
2
_CLOSED
70
0
10
0
20
0
30
0
3
_CLOSED
0
LINE
5
2A5
100
AcDbEntity
8
0
62
256
6
ByLayer
370
-2
48
1
60
0
100
AcDbLine
10
-1
20
0.166667
30
0
11
0
21
0
31
0
39
0
210
0
220
0
230
1
0
LINE
5
2A6
100
AcDbEntity
8
0
62
256
6
ByLayer
370
-2
48
1
60
0
100
AcDbLine
10
0
20
0
30
0
11
-1
21
-0.166667
31
0
39
0
210
0
220
0
230
1
0
LINE
5
2A7
100
AcDbEntity
8
0
62
256
6
ByLayer
370
-2
48
1
60
0
100
AcDbLine
10
-1
20
0.166667
30
0
11
-1
21
-0.166667
31
0
39
0
210
0
220
0
230
1
0
LINE
5
2A8
100
AcDbEntity
8
0
62
256
6
ByLayer
370
-2
48
1
60
0
100
AcDbLine
10
0
20
0
30
0
11
-1
21
0
31
0
39
0
210
0
220
0
230
1
0
ENDBLK
5
2A4
100
AcDbEntity
8
0
100
AcDbBlockEnd
0
BLOCK
5
2B5
100
AcDbEntity
8
0
100
AcDbBlockBegin
2
DimnDraft3D2
70
0
10
0
20
0
30
0
3
DimnDraft3D2
0
MTEXT
5
2AA
100
AcDbEntity
8
SK2
62
256
6
ByLayer
370
18
48
1
60
0
100
AcDbMText
10
18.382895
20
34.475889
30
0
210
0
220
0
230
1
1
\W0.7640;43.6
40
3.5
41
0
44
1.084337
50
0
71
7
72
5
7
iso_b_vert
0
LINE
5
2AC
100
AcDbEntity
8
SK2
62
256
6
ByLayer
370
13
48
1
60
0
100
AcDbLine
10
0
20
2
30
0
11
0
21
35.600889
31
0
39
0
210
0
220
0
230
1
0
LINE
5
2AD
100
AcDbEntity
8
SK2
62
256
6
ByLayer
370
13
48
1
60
0
100
AcDbLine
10
43.6
20
13
30
0
11
43.6
21
35.600889
31
0
39
0
210
0
220
0
230
1
0
LINE
5
2AE
100
AcDbEntity
8
SK2
62
256
6
ByLayer
370
13
48
1
60
0
100
AcDbLine
10
0
20
33.600889
30
0
11
43.6
21
33.600889
31
0
39
0
210
0
220
0
230
1
0
LINE
5
2AF
100
AcDbEntity
8
SK2
62
256
6
ByLayer
370
13
48
1
60
0
100
AcDbLine
10
0
20
33.600889
30
0
11
3.174998
21
34.018886
31
0
39
0
210
0
220
0
230
1
0
LINE
5
2B0
100
AcDbEntity
8
SK2
62
256
6
ByLayer
370
13
48
1
60
0
100
AcDbLine
10
0
20
33.600889
30
0
11
3.175002
21
33.182892
31
0
39
0
210
0
220
0
230
1
0
LINE
5
2B1
100
AcDbEntity
8
SK2
62
256
6
ByLayer
370
13
48
1
60
0
100
AcDbLine
10
3.174998
20
34.018886
30
0
11
3.175002
21
33.182892
31
0
39
0
210
0
220
0
230
1
0
LINE
5
2B2
100
AcDbEntity
8
SK2
62
256
6
ByLayer
370
13
48
1
60
0
100
AcDbLine
10
43.6
20
33.600889
30
0
11
40.425002
21
33.182892
31
0
39
0
210
0
220
0
230
1
0
LINE
5
2B3
100
AcDbEntity
8
SK2
62
256
6
ByLayer
370
13
48
1
60
0
100
AcDbLine
10
43.6
20
33.600889
30
0
11
40.424998
21
34.018886
31
0
39
0
210
0
220
0
230
1
0
LINE
5
2B4
100
AcDbEntity
8
SK2
62
256
6
ByLayer
370
13
48
1
60
0
100
AcDbLine
10
40.425002
20
33.182892
30
0
11
40.424998
21
34.018886
31
0
39
0
210
0
220
0
230
1
0
ENDBLK
5
2B6
100
AcDbEntity
8
0
100
AcDbBlockEnd
0
BLOCK
5
2C3
100
AcDbEntity
8
0
100
AcDbBlockBegin
2
DimnDraft3D3
70
0
10
0
20
0
30
0
3
DimnDraft3D3
0
MTEXT
5
2B9
100
AcDbEntity
8
2
62
256
6
ByLayer
370
18
48
1
60
0
100
AcDbMText
10
29.384211
20
-12.946553
30
0
210
0
220
0
230
1
1
\W0.6740;26
40
3.5
41
0
44
1.084337
50
0
71
7
72
5
7
iso_b_vert
0
LINE
5
2BA
100
AcDbEntity
8
2
62
256
6
ByLayer
370
13
48
1
60
0
100
AcDbLine
10
43.6
20
9
30
0
11
43.6
21
-15.821553
31
0
39
0
210
0
220
0
230
1
0
LINE
5
2BB
100
AcDbEntity
8
2
62
256
6
ByLayer
370
13
48
1
60
0
100
AcDbLine
10
17.6
20
-2
30
0
11
17.6
21
-15.821553
31
0
39
0
210
0
220
0
230
1
0
LINE
5
2BC
100
AcDbEntity
8
2
62
256
6
ByLayer
370
13
48
1
60
0
100
AcDbLine
10
43.6
20
-13.821553
30
0
11
17.6
21
-13.821553
31
0
39
0
210
0
220
0
230
1
0
LINE
5
2BD
100
AcDbEntity
8
2
62
256
6
ByLayer
370
13
48
1
60
0
100
AcDbLine
10
43.6
20
-13.821553
30
0
11
40.425002
21
-14.23955
31
0
39
0
210
0
220
0
230
1
0
LINE
5
2BE
100
AcDbEntity
8
2
62
256
6
ByLayer
370
13
48
1
60
0
100
AcDbLine
10
43.6
20
-13.821553
30
0
11
40.424998
21
-13.403557
31
0
39
0
210
0
220
0
230
1
0
LINE
5
2BF
100
AcDbEntity
8
2
62
256
6
ByLayer
370
13
48
1
60
0
100
AcDbLine
10
40.425002
20
-14.23955
30
0
11
40.424998
21
-13.403557
31
0
39
0
210
0
220
0
230
1
0
LINE
5
2C0
100
AcDbEntity
8
2
62
256
6
ByLayer
370
13
48
1
60
0
100
AcDbLine
10
17.6
20
-13.821553
30
0
11
20.774998
21
-13.403557
31
0
39
0
210
0
220
0
230
1
0
LINE
5
2C1
100
AcDbEntity
8
2
62
256
6
ByLayer
370
13
48
1
60
0
100
AcDbLine
10
17.6
20
-13.821553
30
0
11
20.775002
21
-14.23955
31
0
39
0
210
0
220
0
230
1
0
LINE
5
2C2
100
AcDbEntity
8
2
62
256
6
ByLayer
370
13
48
1
60
0
100
AcDbLine
10
20.774998
20
-13.403557
30
0
11
20.775002
21
-14.23955
31
0
39
0
210
0
220
0
230
1
0
ENDBLK
5
2C4
100
AcDbEntity
8
0
100
AcDbBlockEnd
0
BLOCK
5
2D1
100
AcDbEntity
8
0
100
AcDbBlockBegin
2
DimnDraft3D4
70
0
10
0
20
0
30
0
3
DimnDraft3D4
0
MTEXT
5
2C7
100
AcDbEntity
8
2
62
256
6
ByLayer
370
18
48
1
60
0
100
AcDbMText
10
60.825
20
-6.48
30
0
210
0
220
0
230
1
1
\W0.7121;2.5
40
3.5
41
0
44
1.084337
50
90
71
7
72
5
7
iso_b_vert
0
LINE
5
2C8
100
AcDbEntity
8
2
62
256
6
ByLayer
370
13
48
1
60
0
100
AcDbLine
10
45.6
20
11
30
0
11
63.7
21
11
31
0
39
0
210
0
220
0
230
1
0
LINE
5
2C9
100
AcDbEntity
8
2
62
256
6
ByLayer
370
13
48
1
60
0
100
AcDbLine
10
45.6
20
8.5
30
0
11
63.7
21
8.5
31
0
39
0
210
0
220
0
230
1
0
LINE
5
2CA
100
AcDbEntity
8
2
62
256
6
ByLayer
370
13
48
1
60
0
100
AcDbLine
10
61.7
20
-7.355
30
0
11
61.7
21
19.75
31
0
39
0
210
0
220
0
230
1
0
LINE
5
2CB
100
AcDbEntity
8
2
62
256
6
ByLayer
370
13
48
1
60
0
100
AcDbLine
10
61.7
20
11
30
0
11
61.282003
21
14.174998
31
0
39
0
210
0
220
0
230
1
0
LINE
5
2CC
100
AcDbEntity
8
2
62
256
6
ByLayer
370
13
48
1
60
0
100
AcDbLine
10
61.7
20
11
30
0
11
62.117997
21
14.175002
31
0
39
0
210
0
220
0
230
1
0
LINE
5
2CD
100
AcDbEntity
8
2
62
256
6
ByLayer
370
13
48
1
60
0
100
AcDbLine
10
61.282003
20
14.174998
30
0
11
62.117997
21
14.175002
31
0
39
0
210
0
220
0
230
1
0
LINE
5
2CE
100
AcDbEntity
8
2
62
256
6
ByLayer
370
13
48
1
60
0
100
AcDbLine
10
61.7
20
8.5
30
0
11
62.117997
21
5.325002
31
0
39
0
210
0
220
0
230
1
0
LINE
5
2CF
100
AcDbEntity
8
2
62
256
6
ByLayer
370
13
48
1
60
0
100
AcDbLine
10
61.7
20
8.5
30
0
11
61.282003
21
5.324998
31
0
39
0
210
0
220
0
230
1
0
LINE
5
2D0
100
AcDbEntity
8
2
62
256
6
ByLayer
370
13
48
1
60
0
100
AcDbLine
10
62.117997
20
5.325002
30
0
11
61.282003
21
5.324998
31
0
39
0
210
0
220
0
230
1
0
ENDBLK
5
2D2
100
AcDbEntity
8
0
100
AcDbBlockEnd
0
ENDSEC
0
SECTION
2
ENTITIES
0
ELLIPSE
5
14B
100
AcDbEntity
8
1
62
256
6
ByLayer
370
13
48
1
60
0
100
AcDbEllipse
10
42.158781
20
8.70026
30
0
11
0.01872883045826
21
0.23926811511287
31
0
210
0
220
0
230
1
40
0.005457
41
0.689493843879762
42
1.50119639836385
0
ELLIPSE
5
14C
100
AcDbEntity
8
1
62
256
6
ByLayer
370
13
48
1
60
0
100
AcDbEllipse
10
40.928622
20
8.804714
30
0
11
-0.0140720258040037
21
0.239587099172246
31
0
210
0
220
0
230
1
40
0.707947
41
-1.56290533331169
42
-0.878776813451913
0
ELLIPSE
5
14D
100
AcDbEntity
8
1
62
256
6
ByLayer
370
13
48
1
60
0
100
AcDbEllipse
10
42.158781
20
10.79974
30
0
11
0.01872883045826
21
-0.23926811511287
31
0
210
0
220
0
230
1
40
0.005457
41
-1.50119639836385
42
-0.689493843876087
0
ELLIPSE
5
14E
100
AcDbEntity
8
1
62
256
6
ByLayer
370
13
48
1
60
0
100
AcDbEllipse
10
40.928622
20
10.695286
30
0
11
-0.014072025804004
21
-0.239587099172246
31
0
210
0
220
0
230
1
40
0.707947
41
0.878776813451913
42
1.56290533331169
0
ELLIPSE
5
14F
100
AcDbEntity
8
1
62
256
6
ByLayer
370
13
48
1
60
0
100
AcDbEllipse
10
40.03649
20
8.991414
30
0
11
0.0157922723805345
21
-0.29983583739238
31
0
210
0
220
0
230
-1
40
0.9154
41
-2.66737195204805
42
-1.4775383358504
0
ELLIPSE
5
150
100
AcDbEntity
8
1
62
256
6
ByLayer
370
13
48
1
60
0
100
AcDbEllipse
10
40.03649
20
10.508586
30
0
11
0.0157922723777171
21
0.299835837393167
31
0
210
0
220
0
230
-1
40
0.9154
41
1.47753833586122
42
2.66737195205681
0
ELLIPSE
5
151
100
AcDbEntity
8
1
62
256
6
ByLayer
370
13
48
1
60
0
100
AcDbEllipse
10
40.825674
20
10.697585
30
0
11
0.108797387019834
21
0.213923183824607
31
0
210
0
220
0
230
1
40
0.678268
41
-1.85056859826456
42
-1.29102409435773
0
ELLIPSE
5
152
100
AcDbEntity
8
1
62
256
6
ByLayer
370
13
48
1
60
0
100
AcDbEllipse
10
40.825674
20
8.802415
30
0
11
0.108797387019834
21
-0.213923183824607
31
0
210
0
220
0
230
1
40
0.678268
41
1.29102409435776
42
1.85056859826456
0
ELLIPSE
5
153
100
AcDbEntity
8
1
62
256
6
ByLayer
370
13
48
1
60
0
100
AcDbEllipse
10
40.615335
20
8.988477
30
0
11
0.218929773670482
21
0.120705236839962
31
0
210
0
220
0
230
1
40
0.451067
41
0.609381009277236
42
1.29921470224115
0
ELLIPSE
5
154
100
AcDbEntity
8
1
62
256
6
ByLayer
370
13
48
1
60
0
100
AcDbEllipse
10
40.615335
20
10.511523
30
0
11
-0.218929773670479
21
0.120705236839969
31
0
210
0
220
0
230
1
40
0.451067
41
1.84237795134867
42
2.53221164431265
0
ELLIPSE
5
155
100
AcDbEntity
8
1
62
256
6
ByLayer
370
13
48
1
60
0
100
AcDbEllipse
10
40.570529
20
9.75
30
0
11
1.42452172461314
21
1.43967728970732E-15
31
0
210
0
220
0
230
-1
40
0.350995
41
-2.25836112869909
42
-1.9547687622426
0
ELLIPSE
5
156
100
AcDbEntity
8
1
62
256
6
ByLayer
370
13
48
1
60
0
100
AcDbEllipse
10
40.570529
20
9.75
30
0
11
1.42452172490389
21
1.43967729000117E-15
31
0
210
0
220
0
230
-1
40
0.350995
41
1.95476876222752
42
2.25836112861307
0
ELLIPSE
5
157
100
AcDbEntity
8
1
62
256
6
ByLayer
370
13
48
1
60
0
100
AcDbEllipse
10
39.968086
20
10.508586
30
0
11
0.274689327593768
21
0.0155897448650753
31
0
210
0
220
0
230
-1
40
0.363396
41
0.0206212699772825
42
1.21045488617407
0
ELLIPSE
5
158
100
AcDbEntity
8
1
62
256
6
ByLayer
370
13
48
1
60
0
100
AcDbEllipse
10
40.138645
20
10.420672
30
0
11
-0.0383160393775672
21
0.196295392524676
31
0
210
0
220
0
230
1
40
0.336408
41
1.50522506223046
42
2.7357139470443
0
ELLIPSE
5
159
100
AcDbEntity
8
1
62
256
6
ByLayer
370
13
48
1
60
0
100
AcDbEllipse
10
39.968086
20
8.991414
30
0
11
0.274689327594013
21
-0.0155897448649745
31
0
210
0
220
0
230
-1
40
0.363396
41
-1.21045488617326
42
-0.0206212699771223
0
ELLIPSE
5
15A
100
AcDbEntity
8
1
62
256
6
ByLayer
370
13
48
1
60
0
100
AcDbEllipse
10
40.138645
20
9.079328
30
0
11
-0.0383160393775681
21
-0.196295392524676
31
0
210
0
220
0
230
1
40
0.336408
41
-2.73571394704442
42
-1.50522506223053
0
ELLIPSE
5
15B
100
AcDbEntity
8
1
62
256
6
ByLayer
370
13
48
1
60
0
100
AcDbEllipse
10
40.502124
20
9.75
30
0
11
1.44889559343431
21
1.46431047346145E-15
31
0
210
0
220
0
230
-1
40
0.483127
41
-2.25836112865834
42
-1.95476876223602
0
ELLIPSE
5
15C
100
AcDbEntity
8
1
62
256
6
ByLayer
370
13
48
1
60
0
100
AcDbEllipse
10
40.502124
20
9.75
30
0
11
1.44889559349701
21
1.46431047352482E-15
31
0
210
0
220
0
230
-1
40
0.483127
41
1.95476876223203
42
2.2583611286391
0
ELLIPSE
5
15D
100
AcDbEntity
8
1
62
256
6
ByLayer
370
13
48
1
60
0
100
AcDbEllipse
10
40.827398
20
10.697216
30
0
11
0.00548700145360587
21
-0.239937268499598
31
0
210
0
220
0
230
1
40
0.706448
41
0.849098397829185
42
1.50523037236397
0
ELLIPSE
5
15E
100
AcDbEntity
8
1
62
256
6
ByLayer
370
13
48
1
60
0
100
AcDbEllipse
10
40.827398
20
8.802784
30
0
11
0.00548700145360604
21
0.239937268499598
31
0
210
0
220
0
230
1
40
0.706448
41
-1.50523037236397
42
-0.849098397829185
0
ELLIPSE
5
15F
100
AcDbEntity
8
1
62
256
6
ByLayer
370
13
48
1
60
0
100
AcDbEllipse
10
40.027763
20
10.399029
30
0
11
-0.0383160393775672
21
0.196295392524676
31
0
210
0
220
0
230
1
40
0.336408
41
1.50522506223046
42
2.73571394704442
0
ELLIPSE
5
160
100
AcDbEntity
8
1
62
256
6
ByLayer
370
13
48
1
60
0
100
AcDbEllipse
10
40.027763
20
9.100971
30
0
11
-0.0383160393775681
21
-0.196295392524676
31
0
210
0
220
0
230
1
40
0.336408
41
-2.73571394704433
42
-1.5052250622305
0
ELLIPSE
5
161
100
AcDbEntity
8
1
62
256
6
ByLayer
370
13
48
1
60
0
100
AcDbEllipse
10
40.64569
20
9.008253
30
0
11
-0.199155198215831
21
0.224359548545662
31
0
210
0
220
0
230
1
40
0.867907
41
-1.48925493040504
42
-0.845841420110089
0
ELLIPSE
5
162
100
AcDbEntity
8
1
62
256
6
ByLayer
370
13
48
1
60
0
100
AcDbEllipse
10
39.650977
20
9.209044
30
0
11
-0.073759863887595
21
-0.185901808703636
31
0
210
0
220
0
230
1
40
0.32047
41
-2.41409938327903
42
-1.44432262990152
0
ELLIPSE
5
163
100
AcDbEntity
8
1
62
256
6
ByLayer
370
13
48
1
60
0
100
AcDbEllipse
10
39.650977
20
10.290956
30
0
11
-0.0737598638875999
21
0.185901808703635
31
0
210
0
220
0
230
1
40
0.32047
41
1.44432262990152
42
2.41409938327881
0
ELLIPSE
5
164
100
AcDbEntity
8
1
62
256
6
ByLayer
370
13
48
1
60
0
100
AcDbEllipse
10
40.64569
20
10.491747
30
0
11
-0.199155198215836
21
-0.224359548545657
31
0
210
0
220
0
230
1
40
0.867907
41
0.845841420110057
42
1.48925493040509
0
ELLIPSE
5
165
100
AcDbEntity
8
1
62
256
6
ByLayer
370
13
48
1
60
0
100
AcDbEllipse
10
41.848298
20
9.36998
30
0
11
-0.11829996020908
21
-0.382106162492219
31
0
210
0
220
0
230
1
40
0.046276
41
-1.55647013370581
42
-0.635362849071728
0
ELLIPSE
5
166
100
AcDbEntity
8
1
62
256
6
ByLayer
370
13
48
1
60
0
100
AcDbEllipse
10
41.848298
20
10.13002
30
0
11
-0.11829996020908
21
0.382106162492219
31
0
210
0
220
0
230
1
40
0.046276
41
0.635362849071728
42
1.55647013370581
0
ELLIPSE
5
167
100
AcDbEntity
8
1
62
256
6
ByLayer
370
13
48
1
60
0
100
AcDbEllipse
10
39.557016
20
9.177976
30
0
11
0.179591653469728
21
-0.0880161235456843
31
0
210
0
220
0
230
1
40
0.15816
41
-2.6766625399629
42
-1.88296142475573
0
ELLIPSE
5
168
100
AcDbEntity
8
1
62
256
6
ByLayer
370
13
48
1
60
0
100
AcDbEllipse
10
39.557016
20
10.322024
30
0
11
0.179591653469724
21
0.088016123545693
31
0
210
0
220
0
230
1
40
0.15816
41
1.8829614247557
42
2.67666253996285
0
ELLIPSE
5
169
100
AcDbEntity
8
1
62
256
6
ByLayer
370
13
48
1
60
0
100
AcDbEllipse
10
40.692262
20
10.372657
30
0
11
-0.299347745291831
21
0.0197718837923224
31
0
210
0
220
0
230
1
40
0.777951
41
1.69879303455142
42
2.22934227679637
0
ELLIPSE
5
16A
100
AcDbEntity
8
1
62
256
6
ByLayer
370
13
48
1
60
0
100
AcDbEllipse
10
40.692262
20
9.127343
30
0
11
-0.299347745291887
21
-0.0197718837914809
31
0
210
0
220
0
230
1
40
0.777951
41
-2.22934227679353
42
-1.6987930345492
0
ELLIPSE
5
16B
100
AcDbEntity
8
1
62
256
6
ByLayer
370
13
48
1
60
0
100
AcDbEllipse
10
39.694521
20
9.270757
30
0
11
-0.108483181757181
21
0.279698765238315
31
0
210
0
220
0
230
1
40
0.360955
41
-1.02016075382498
42
-0.199709661794585
0
ELLIPSE
5
16C
100
AcDbEntity
8
1
62
256
6
ByLayer
370
13
48
1
60
0
100
AcDbEllipse
10
39.694521
20
10.229243
30
0
11
-0.108483181757197
21
-0.279698765238309
31
0
210
0
220
0
230
1
40
0.360955
41
0.199709661794766
42
1.02016075382501
0
ELLIPSE
5
16D
100
AcDbEntity
8
1
62
256
6
ByLayer
370
13
48
1
60
0
100
AcDbEllipse
10
39.346868
20
10.625983
30
0
11
0.0582979366851085
21
-0.138207635745132
31
0
210
0
220
0
230
1
40
0.750326
41
-1.87731940571838
42
-1.57180531127302
0
ELLIPSE
5
16E
100
AcDbEntity
8
1
62
256
6
ByLayer
370
13
48
1
60
0
100
AcDbEllipse
10
39.55842
20
9.317393
30
0
11
-0.0312161822556663
21
0.197548854629383
31
0
210
0
220
0
230
1
40
0.644886
41
0.29634022481462
42
1.02563059493706
0
ELLIPSE
5
16F
100
AcDbEntity
8
1
62
256
6
ByLayer
370
13
48
1
60
0
100
AcDbEllipse
10
39.55842
20
10.182607
30
0
11
-0.031216182255666
21
-0.197548854629383
31
0
210
0
220
0
230
1
40
0.644886
41
-1.02563059493702
42
-0.296340224814581
0
ELLIPSE
5
170
100
AcDbEntity
8
1
62
256
6
ByLayer
370
13
48
1
60
0
100
AcDbEllipse
10
39.346868
20
8.874017
30
0
11
-0.0582979366828939
21
-0.138207635746066
31
0
210
0
220
0
230
1
40
0.750326
41
-1.56978734232582
42
-1.26427324788344
0
ELLIPSE
5
171
100
AcDbEntity
8
1
62
256
6
ByLayer
370
13
48
1
60
0
100
AcDbEllipse
10
39.68571
20
10.232663
30
0
11
-0.10863468183397
21
-0.279639957629149
31
0
210
0
220
0
230
1
40
0.363718
41
0.200467310718441
42
1.01550685106551
0
ELLIPSE
5
172
100
AcDbEntity
8
1
62
256
6
ByLayer
370
13
48
1
60
0
100
AcDbEllipse
10
39.68571
20
9.267337
30
0
11
-0.108634681833984
21
0.279639957629143
31
0
210
0
220
0
230
1
40
0.363718
41
-1.01550685106545
42
-0.200467310718377
0
ELLIPSE
5
173
100
AcDbEntity
8
1
62
256
6
ByLayer
370
13
48
1
60
0
100
AcDbEllipse
10
40.773143
20
9.935403
30
0
11
-0.27643120211388
21
-0.11655809923757
31
0
210
0
220
0
230
1
40
0.259655
41
1.58999251460064
42
2.12275416956029
0
ELLIPSE
5
174
100
AcDbEntity
8
1
62
256
6
ByLayer
370
13
48
1
60
0
100
AcDbEllipse
10
40.773143
20
9.564597
30
0
11
-0.276431202115174
21
0.116558099234502
31
0
210
0
220
0
230
1
40
0.259655
41
-2.12275416956319
42
-1.58999251460353
0
ELLIPSE
5
175
100
AcDbEntity
8
1
62
256
6
ByLayer
370
13
48
1
60
0
100
AcDbEllipse
10
42.747654
20
10.800449
30
0
11
-0.00522684702752689
21
-0.239943076728942
31
0
210
0
220
0
230
1
40
0.172153
41
-1.49827444467687
42
-0.73075990712236
0
ELLIPSE
5
176
100
AcDbEntity
8
1
62
256
6
ByLayer
370
13
48
1
60
0
100
AcDbEllipse
10
42.747654
20
8.699551
30
0
11
-0.00522684702752667
21
0.239943076728942
31
0
210
0
220
0
230
1
40
0.172153
41
0.73075990712236
42
1.49827444467684
0
ELLIPSE
5
177
100
AcDbEntity
8
1
62
256
6
ByLayer
370
13
48
1
60
0
100
AcDbEllipse
10
39.344099
20
8.874562
30
0
11
4.24912383924225E-17
21
0.15
31
0
210
0
220
0
230
1
40
0.772149
41
1.23482044578598
42
1.5707963267949
0
ELLIPSE
5
178
100
AcDbEntity
8
1
62
256
6
ByLayer
370
13
48
1
60
0
100
AcDbEllipse
10
39.344099
20
10.625438
30
0
11
4.24912383924225E-17
21
0.15
31
0
210
0
220
0
230
1
40
0.772149
41
1.5707963267949
42
1.90677220780382
0
ELLIPSE
5
179
100
AcDbEntity
8
1
62
256
6
ByLayer
370
13
48
1
60
0
100
AcDbEllipse
10
39.543122
20
9.316064
30
0
11
5.665498452323E-17
21
0.2
31
0
210
0
220
0
230
1
40
0.817574
41
0.416381924289158
42
1.23482044578601
0
ELLIPSE
5
17A
100
AcDbEntity
8
1
62
256
6
ByLayer
370
13
48
1
60
0
100
AcDbEllipse
10
39.543122
20
10.183936
30
0
11
5.665498452323E-17
21
0.2
31
0
210
0
220
0
230
1
40
0.817574
41
1.90677220780382
42
2.72521072930064
0
ELLIPSE
5
17B
100
AcDbEntity
8
1
62
256
6
ByLayer
370
13
48
1
60
0
100
AcDbEllipse
10
39.133999
20
10.183936
30
0
11
5.665498452323E-17
21
0.2
31
0
210
0
220
0
230
1
40
0.34202
41
1.90677220780379
42
2.72521072930056
0
ELLIPSE
5
17C
100
AcDbEntity
8
1
62
256
6
ByLayer
370
13
48
1
60
0
100
AcDbEllipse
10
39.133999
20
9.316064
30
0
11
-3.67381906146713E-17
21
-0.2
31
0
210
0
220
0
230
1
40
0.34202
41
-2.72521072930056
42
-1.90677220780379
0
ELLIPSE
5
17D
100
AcDbEntity
8
1
62
256
6
ByLayer
370
13
48
1
60
0
100
AcDbEllipse
10
43.3528
20
8.968957
30
0
11
-0.053394885983678
21
0.0845516773978496
31
0
210
0
220
0
230
1
40
0.139768
41
-1.577169446413
42
-0.739917285382686
0
ELLIPSE
5
17E
100
AcDbEntity
8
1
62
256
6
ByLayer
370
13
48
1
60
0
100
AcDbEllipse
10
43.513536
20
9.118497
30
0
11
-0.0833383062250993
21
0.0552695821906731
31
0
210
0
220
0
230
1
40
0.125147
41
-1.63389016497502
42
-1.00886584004915
0
ELLIPSE
5
17F
100
AcDbEntity
8
1
62
256
6
ByLayer
370
13
48
1
60
0
100
AcDbEllipse
10
43.3528
20
10.531043
30
0
11
-0.053394885983678
21
-0.0845516773978496
31
0
210
0
220
0
230
1
40
0.139768
41
0.739917285382497
42
1.57716944641307
0
ELLIPSE
5
180
100
AcDbEntity
8
1
62
256
6
ByLayer
370
13
48
1
60
0
100
AcDbEllipse
10
43.513536
20
10.381503
30
0
11
-0.0833383062250994
21
-0.0552695821906731
31
0
210
0
220
0
230
1
40
0.125147
41
1.00886584004903
42
1.63389016497502
0
ELLIPSE
5
181
100
AcDbEntity
8
1
62
256
6
ByLayer
370
13
48
1
60
0
100
AcDbEllipse
10
42.858678
20
10.198773
30
0
11
0.0150020396796469
21
-0.399718574506427
31
0
210
0
220
0
230
1
40
0.406498
41
1.55554103694364
42
2.33646244174222
0
ELLIPSE
5
182
100
AcDbEntity
8
1
62
256
6
ByLayer
370
13
48
1
60
0
100
AcDbEllipse
10
42.858678
20
9.301227
30
0
11
0.0150020396796473
21
0.399718574506427
31
0
210
0
220
0
230
1
40
0.406498
41
-2.33646244174224
42
-1.55554103694364
0
ELLIPSE
5
183
100
AcDbEntity
8
1
62
256
6
ByLayer
370
13
48
1
60
0
100
AcDbEllipse
10
43.220468
20
8.887003
30
0
11
-0.0517697807122172
21
0.0855563545565667
31
0
210
0
220
0
230
1
40
0.139863
41
-1.57449803098181
42
-0.736209352900527
0
ELLIPSE
5
184
100
AcDbEntity
8
1
62
256
6
ByLayer
370
13
48
1
60
0
100
AcDbEllipse
10
43.123358
20
8.809726
30
0
11
-0.0777352233758327
21
0.0629065580580387
31
0
210
0
220
0
230
1
40
0.130472
41
-1.621770564385
42
-1.15591732835939
0
ELLIPSE
5
185
100
AcDbEntity
8
1
62
256
6
ByLayer
370
13
48
1
60
0
100
AcDbEllipse
10
43.220468
20
10.612997
30
0
11
-0.0517697807122172
21
-0.0855563545565667
31
0
210
0
220
0
230
1
40
0.139863
41
0.736209352900527
42
1.57449803098181
0
ELLIPSE
5
186
100
AcDbEntity
8
1
62
256
6
ByLayer
370
13
48
1
60
0
100
AcDbEllipse
10
43.123358
20
10.690274
30
0
11
-0.0777352233758327
21
-0.0629065580580387
31
0
210
0
220
0
230
1
40
0.130472
41
1.15591732835946
42
1.62177056438514
0
ELLIPSE
5
187
100
AcDbEntity
8
1
62
256
6
ByLayer
370
13
48
1
60
0
100
AcDbEllipse
10
42.358781
20
10.803593
30
0
11
-0.00794321942284783
21
-0.239868516619419
31
0
210
0
220
0
230
1
40
0.002314
41
0.706533322269729
42
1.50102146588752
0
ELLIPSE
5
188
100
AcDbEntity
8
1
62
256
6
ByLayer
370
13
48
1
60
0
100
AcDbEllipse
10
42.358781
20
8.696407
30
0
11
-0.00794321942284761
21
0.239868516619419
31
0
210
0
220
0
230
1
40
0.002314
41
-1.5010214658884
42
-0.706533322290504
0
ELLIPSE
5
189
100
AcDbEntity
8
1
62
256
6
ByLayer
370
13
48
1
60
0
100
AcDbEllipse
10
39.382996
20
11.830141
30
0
11
5.66549845232303E-16
21
2.00000000000001
31
0
210
0
220
0
230
1
40
0.34202
41
2.72521072930059
42
2.79252680319092
0
ELLIPSE
5
18A
100
AcDbEntity
8
1
62
256
6
ByLayer
370
13
48
1
60
0
100
AcDbEllipse
10
39.382996
20
7.669859
30
0
11
-3.67381906146715E-16
21
-2.00000000000001
31
0
210
0
220
0
230
1
40
0.34202
41
-2.79252680319092
42
-2.7252107293006
0
ELLIPSE
5
18B
100
AcDbEntity
8
1
62
256
6
ByLayer
370
13
48
1
60
0
100
AcDbEllipse
10
39.127689
20
9.75
30
0
11
5.94877337493915E-17
21
0.21
31
0
210
0
220
0
230
1
40
0.34202
41
-2.79252680319101
42
-0.349065850398808
0
ELLIPSE
5
18C
100
AcDbEntity
8
1
62
256
6
ByLayer
370
13
48
1
60
0
100
AcDbEllipse
10
43.535867
20
10.346883
30
0
11
-0.0846523861242153
21
-0.053235077941868
31
0
210
0
220
0
230
1
40
0.065225
41
1.04575763084791
42
1.6741455154359
0
ELLIPSE
5
18D
100
AcDbEntity
8
1
62
256
6
ByLayer
370
13
48
1
60
0
100
AcDbEllipse
10
43.535867
20
9.153117
30
0
11
-0.0846523861242153
21
0.053235077941868
31
0
210
0
220
0
230
1
40
0.065225
41
-1.67414551543583
42
-1.04575763084759
0
ELLIPSE
5
18E
100
AcDbEntity
8
1
62
256
6
ByLayer
370
18
48
1
60
0
100
AcDbEllipse
10
39.041428
20
9.75
30
0
11
-3.67381906146581E-17
21
0.599999999999784
31
0
210
0
220
0
230
-1
40
0.087172
41
-2.62536935320544
42
-0.51622330038435
0
ELLIPSE
5
18F
100
AcDbEntity
8
1
62
256
6
ByLayer
370
18
48
1
60
0
100
AcDbEllipse
10
38.382033
20
9.75
30
0
11
1.28358760011048
21
1.29724375929109E-15
31
0
210
0
220
0
230
-1
40
0.46744
41
1.0545730264099
42
-1.05457302640987
0
ELLIPSE
5
190
100
AcDbEntity
8
1
62
256
6
ByLayer
370
18
48
1
60
0
100
AcDbEllipse
10
40.829028
20
10.84703
30
0
11
0.25184192197879
21
0.0177818623372335
31
0
210
0
220
0
230
-1
40
0.06924
41
-1.56101782177738
42
-0.774400198845056
0
ELLIPSE
5
191
100
AcDbEntity
8
1
62
256
6
ByLayer
370
18
48
1
60
0
100
AcDbEllipse
10
43.648748
20
9.153117
30
0
11
1.1330996904646E-16
21
0.4
31
0
210
0
220
0
230
1
40
0.121869
41
1.5707963267949
42
1.64009079051255
0
ELLIPSE
5
192
100
AcDbEntity
8
1
62
256
6
ByLayer
370
18
48
1
60
0
100
AcDbEllipse
10
43.648748
20
10.346883
30
0
11
1.1330996904646E-16
21
0.4
31
0
210
0
220
0
230
1
40
0.121869
41
1.50150186307725
42
1.5707963267949
0
ELLIPSE
5
193
100
AcDbEntity
8
1
62
256
6
ByLayer
370
18
48
1
60
0
100
AcDbEllipse
10
40.363694
20
10.95
30
0
11
0.201946432116473
21
0
31
0
210
0
220
0
230
1
40
0.990362
41
-1.5707963267949
42
-1.04299365512072
0
ELLIPSE
5
194
100
AcDbEntity
8
1
62
256
6
ByLayer
370
18
48
1
60
0
100
AcDbEllipse
10
43.106337
20
10.971995
30
0
11
0.239997045104608
21
0.0169489930048289
31
0
210
0
220
0
230
-1
40
0.070266
41
-1.73995037630475
42
-1.44395567141958
0
ELLIPSE
5
195
100
AcDbEntity
8
1
62
256
6
ByLayer
370
18
48
1
60
0
100
AcDbEllipse
10
40.829028
20
8.65297
30
0
11
0.251841921977933
21
-0.0177818623371306
31
0
210
0
220
0
230
-1
40
0.06924
41
0.774400198844834
42
1.56101782177968
0
ELLIPSE
5
196
100
AcDbEntity
8
1
62
256
6
ByLayer
370
18
48
1
60
0
100
AcDbEllipse
10
40.64757
20
10.650887
30
0
11
0.0586247302012056
21
-0.191752852286547
31
0
210
-1.56326331346004E-15
220
1.05822557188231E-17
230
1
40
0.997435
41
2.91526219766618
42
-2.91526219766615
0
ELLIPSE
5
197
100
AcDbEntity
8
1
62
256
6
ByLayer
370
18
48
1
60
0
100
AcDbEllipse
10
43.106337
20
8.528005
30
0
11
0.239997045001618
21
-0.0169489929985019
31
0
210
0
220
0
230
-1
40
0.070266
41
1.443955671309
42
1.73995037632178
0
ELLIPSE
5
198
100
AcDbEntity
8
1
62
256
6
ByLayer
370
18
48
1
60
0
100
AcDbEllipse
10
40.659275
20
8.848294
30
0
11
0.0029729393167071
21
0.200467814146891
31
0
210
-1.59613097713202E-15
220
-6.66986070676025E-19
230
1
40
0.997557
41
2.6338628041141
42
3.08674247812912
0
ELLIPSE
5
199
100
AcDbEntity
8
1
62
256
6
ByLayer
370
18
48
1
60
0
100
AcDbEllipse
10
40.37444
20
8.55
30
0
11
-0.201490790302156
21
2.46746902040712E-17
31
0
210
0
220
0
230
1
40
0.992601
41
-2.09761674342106
42
-1.5707963267949
0
POINT
5
6C
100
AcDbEntity
8
81
62
256
6
ByLayer
370
18
48
1
60
0
100
AcDbPoint
10
43.6
20
11
30
0
39
0
210
0
220
0
230
1
50
360
0
POINT
5
6E
100
AcDbEntity
8
80
62
256
6
ByLayer
370
18
48
1
60
0
100
AcDbPoint
10
0
20
0
30
0
39
0
210
0
220
0
230
1
50
360
0
SPLINE
5
19A
100
AcDbEntity
8
1
62
256
6
ByLayer
370
13
48
1
60
0
100
AcDbSpline
70
4
71
3
72
10
73
6
40
0
40
0
40
0
40
0
40
0.709896843428722
40
0.709896843428722
40
1
40
1
40
1
40
1
41
1
10
40.7845849620887
20
9.11788157128015
30
0
41
1
10
40.7786971522085
20
9.12352704246896
30
0
41
1
10
40.7730792764886
20
9.12971090867876
30
0
41
1
10
40.7667433148843
20
9.13866857148392
30
0
41
1
10
40.7650681599822
20
9.14134468366714
30
0
41
1
10
40.763694842982
20
9.14397753247991
30
0
0
SPLINE
5
19B
100
AcDbEntity
8
1
62
256
6
ByLayer
370
13
48
1
60
0
100
AcDbSpline
70
4
71
3
72
8
73
4
40
0
40
0
40
0
40
0
40
1
40
1
40
1
40
1
41
1
10
40.7636948430068
20
9.14397753247849
30
0
41
1
10
40.7842500998041
20
9.16220503413251
30
0
41
1
10
40.804612279328
20
9.18015167998706
30
0
41
1
10
40.8235446149629
20
9.19880114410157
30
0
0
SPLINE
5
19C
100
AcDbEntity
8
1
62
256
6
ByLayer
370
13
48
1
60
0
100
AcDbSpline
70
4
71
3
72
10
73
6
40
0
40
0
40
0
40
0
40
0.644331995687774
40
0.644331995687774
40
1
40
1
40
1
40
1
41
1
10
40.8235446149629
20
9.19880114410157
30
0
41
1
10
40.8423417535849
20
9.21731743120662
30
0
41
1
10
40.8543614792979
20
9.24266643237846
30
0
41
1
10
40.8635582436185
20
9.28748693665202
30
0
41
1
10
40.8646514454074
20
9.30499210213392
30
0
41
1
10
40.8632877280427
20
9.32362133313637
30
0
0
SPLINE
5
19D
100
AcDbEntity
8
1
62
256
6
ByLayer
370
13
48
1
60
0
100
AcDbSpline
70
4
71
3
72
12
73
8
40
0
40
0
40
0
40
0
40
0.0568772518374145
40
0.0568772518374145
40
0.598921195001007
40
0.598921195001007
40
1
40
1
40
1
40
1
41
1
10
41.7425891010003
20
9.06568845082532
30
0
41
1
10
41.7245515992803
20
9.07103303613468
30
0
41
1
10
41.7065274742932
20
9.07636523695487
30
0
41
1
10
41.5189632613311
20
9.13178061371318
30
0
41
1
10
41.3497242492963
20
9.18127310240482
30
0
41
1
10
41.0764510412474
20
9.26113946875344
30
0
41
1
10
40.965133916484
20
9.29368019372075
30
0
41
1
10
40.8632877280432
20
9.32362133313757
30
0
0
SPLINE
5
19E
100
AcDbEntity
8
1
62
256
6
ByLayer
370
13
48
1
60
0
100
AcDbSpline
70
4
71
3
72
12
73
8
40
0
40
0
40
0
40
0
40
0.432851996086571
40
0.432851996086571
40
0.716418616561771
40
0.716418616561771
40
1
40
1
40
1
40
1
41
1
10
41.8151325614844
20
9.04418180397977
30
0
41
1
10
41.8046568328338
20
9.04728141449107
30
0
41
1
10
41.7941840602843
20
9.05038518615527
30
0
41
1
10
41.7768579385476
20
9.05552441599923
30
0
41
1
10
41.770001810704
20
9.05755981491504
30
0
41
1
10
41.7562928218783
20
9.06162679518971
30
0
41
1
10
41.7494397680902
20
9.06365857023232
30
0
41
1
10
41.7425891010003
20
9.06568845082532
30
0
0
SPLINE
5
19F
100
AcDbEntity
8
1
62
256
6
ByLayer
370
13
48
1
60
0
100
AcDbSpline
70
4
71
3
72
14
73
10
40
0
40
0
40
0
40
0
40
0.0559482231425851
40
0.0559482231425851
40
0.255082555375332
40
0.255082555375332
40
0.91736630964965
40
0.91736630964965
40
1
40
1
40
1
40
1
41
1
10
42.4217062023472
20
8.99881824753044
30
0
41
1
10
42.4102710337184
20
8.99842296286002
30
0
41
1
10
42.3988345011549
20
8.99806619512526
30
0
41
1
10
42.346704106935
20
8.99615823726901
30
0
41
1
10
42.3060132231142
20
8.99422714077448
30
0
41
1
10
42.1310688272088
20
8.9885267267972
30
0
41
1
10
41.9936591146985
20
8.99362637972195
30
0
41
1
10
41.8478771051644
20
9.03462646348342
30
0
41
1
10
41.8314856310116
20
9.03934317672159
30
0
41
1
10
41.8151325614844
20
9.04418180397977
30
0
0
SPLINE
5
1A0
100
AcDbEntity
8
1
62
256
6
ByLayer
370
13
48
1
60
0
100
AcDbSpline
70
4
71
3
72
12
73
8
40
0
40
0
40
0
40
0
40
0.580466676309606
40
0.580466676309606
40
0.902092447109163
40
0.902092447109163
40
1
40
1
40
1
40
1
41
1
10
42.96542001724
20
9.01981853491984
30
0
41
1
10
42.8648041446478
20
9.01555084642186
30
0
41
1
10
42.7598849325172
20
9.01151896166496
30
0
41
1
10
42.5950542118574
20
9.00524713783838
30
0
41
1
10
42.5355659682511
20
9.00291712525498
30
0
41
1
10
42.4579762169911
20
9.00009920255715
30
0
41
1
10
42.4398403518264
20
8.99944509891606
30
0
41
1
10
42.4217062023472
20
8.99881824753044
30
0
0
SPLINE
5
1A1
100
AcDbEntity
8
1
62
256
6
ByLayer
370
13
48
1
60
0
100
AcDbSpline
70
4
71
3
72
14
73
10
40
0
40
0
40
0
40
0
40
0.0740326958458219
40
0.0740326958458219
40
0.743257125695834
40
0.743257125695834
40
0.939124438646558
40
0.939124438646558
40
1
40
1
40
1
40
1
41
1
10
43.3213347612452
20
9.03643256334982
30
0
41
1
10
43.3126059855915
20
9.03608269316786
30
0
41
1
10
43.3038751248009
20
9.035731491805
30
0
41
1
10
43.2162008436679
20
9.03219304676503
30
0
41
1
10
43.1369961926742
20
9.0287622149462
30
0
41
1
10
43.0347137397946
20
9.0247732146056
30
0
41
1
10
43.0110630969842
20
9.02233418815015
30
0
41
1
10
42.9801088915618
20
9.0205021830744
30
0
41
1
10
42.9727654069312
20
9.020130094461
30
0
41
1
10
42.96542001724
20
9.01981853491984
30
0
0
SPLINE
5
1A2
100
AcDbEntity
8
1
62
256
6
ByLayer
370
13
48
1
60
0
100
AcDbSpline
70
4
71
3
72
8
73
4
40
0
40
0
40
0
40
0
40
1
40
1
40
1
40
1
41
1
10
43.1901406592839
20
8.95526372542977
30
0
41
1
10
43.2341557915993
20
8.9818582443894
30
0
41
1
10
43.2778467711874
20
9.00898829346724
30
0
41
1
10
43.3213347612452
20
9.03643256334968
30
0
0
SPLINE
5
1A3
100
AcDbEntity
8
1
62
256
6
ByLayer
370
13
48
1
60
0
100
AcDbSpline
70
4
71
3
72
8
73
4
40
0
40
0
40
0
40
0
40
1
40
1
40
1
40
1
41
1
10
42.7161920011118
20
8.87762853522756
30
0
41
1
10
42.8757348334777
20
8.87779324949545
30
0
41
1
10
43.0355792331503
20
8.91162146379494
30
0
41
1
10
43.1901406592828
20
8.95526372542912
30
0
0
SPLINE
5
1A4
100
AcDbEntity
8
1
62
256
6
ByLayer
370
13
48
1
60
0
100
AcDbSpline
70
4
71
3
72
8
73
4
40
0
40
0
40
0
40
0
40
1
40
1
40
1
40
1
41
1
10
42.3530991918524
20
8.87886715841316
30
0
41
1
10
42.4746599531638
20
8.88260094166813
30
0
41
1
10
42.5968950955519
20
8.87750537141977
30
0
41
1
10
42.7161920011129
20
8.8776285352258
30
0
0
SPLINE
5
1A5
100
AcDbEntity
8
1
62
256
6
ByLayer
370
13
48
1
60
0
100
AcDbSpline
70
4
71
3
72
8
73
4
40
0
40
0
40
0
40
0
40
1
40
1
40
1
40
1
41
1
10
42.172400536749
20
8.88493715835577
30
0
41
1
10
42.2323837831874
20
8.87920305140247
30
0
41
1
10
42.2928500715066
20
8.87701658464036
30
0
41
1
10
42.3530991918524
20
8.8788671584131
30
0
0
SPLINE
5
1A6
100
AcDbEntity
8
1
62
256
6
ByLayer
370
13
48
1
60
0
100
AcDbSpline
70
4
71
3
72
12
73
8
40
0
40
0
40
0
40
0
40
0.140444200279774
40
0.140444200279774
40
0.578672846880988
40
0.578672846880988
40
1
40
1
40
1
40
1
41
1
10
41.0502390423
20
8.96526349937653
30
0
41
1
10
41.0907683260285
20
8.96991227980212
30
0
41
1
10
41.1340049971858
20
8.97265805402665
30
0
41
1
10
41.3188333798473
20
8.9773436177573
30
0
41
1
10
41.4828017897204
20
8.96600566529546
30
0
41
1
10
41.8193415913498
20
8.92921608847962
30
0
41
1
10
41.9971452699764
20
8.90169071044693
30
0
41
1
10
42.172400536749
20
8.88493715835577
30
0
0
SPLINE
5
1A7
100
AcDbEntity
8
1
62
256
6
ByLayer
370
13
48
1
60
0
100
AcDbSpline
70
4
71
3
72
8
73
4
40
0
40
0
40
0
40
0
40
1
40
1
40
1
40
1
41
1
10
40.9582665042272
20
8.95839085458627
30
0
41
1
10
40.9890156099214
20
8.95938122766793
30
0
41
1
10
41.0196882286926
20
8.96175926709759
30
0
41
1
10
41.0502390423
20
8.96526349937653
30
0
0
SPLINE
5
1A8
100
AcDbEntity
8
1
62
256
6
ByLayer
370
13
48
1
60
0
100
AcDbSpline
70
4
71
3
72
10
73
6
40
0
40
0
40
0
40
0
40
0.258944711528363
40
0.258944711528363
40
1
40
1
40
1
40
1
41
1
10
40.7845849620887
20
9.11788157128015
30
0
41
1
10
40.799277300327
20
9.1037939607919
30
0
41
1
10
40.8140493078695
20
9.08978898921495
30
0
41
1
10
40.8714142308746
20
9.03604019246285
30
0
41
1
10
40.9146891560262
20
8.99698895699785
30
0
41
1
10
40.958266504227
20
8.95839085458613
30
0
0
SPLINE
5
1A9
100
AcDbEntity
8
1
62
256
6
ByLayer
370
13
48
1
60
0
100
AcDbSpline
70
4
71
3
72
10
73
6
40
0
40
0
40
0
40
0
40
0.649009211321481
40
0.649009211321481
40
1
40
1
40
1
40
1
41
1
10
40.8632877280426
20
10.1763786668633
30
0
41
1
10
40.8657560063979
20
10.2100968909232
30
0
41
1
10
40.8599458432007
20
10.2401231563404
30
0
41
1
10
40.8416692657146
20
10.2784699031433
30
0
41
1
10
40.8338663110395
20
10.2910313781876
30
0
41
1
10
40.8235446149629
20
10.3011988558984
30
0
0
SPLINE
5
1AA
100
AcDbEntity
8
1
62
256
6
ByLayer
370
13
48
1
60
0
100
AcDbSpline
70
4
71
3
72
8
73
4
40
0
40
0
40
0
40
0
40
1
40
1
40
1
40
1
41
1
10
40.8235446149629
20
10.3011988558984
30
0
41
1
10
40.804612279328
20
10.3198483200129
30
0
41
1
10
40.7842500998041
20
10.3377949658674
30
0
41
1
10
40.7636948430068
20
10.3560224675215
30
0
0
SPLINE
5
1AB
100
AcDbEntity
8
1
62
256
6
ByLayer
370
13
48
1
60
0
100
AcDbSpline
70
4
71
3
72
12
73
8
40
0
40
0
40
0
40
0
40
0.276452079067817
40
0.276452079067817
40
0.899464630432222
40
0.899464630432222
40
1
40
1
40
1
40
1
41
1
10
40.7636948430209
20
10.3560224675355
30
0
41
1
10
40.7650009626683
20
10.3585264892341
30
0
41
1
10
40.7665799094947
20
10.3610694515511
30
0
41
1
10
40.7722215249124
20
10.3691382817803
30
0
41
1
10
40.777018376239
20
10.374604904679
30
0
41
1
10
40.7829057388044
20
10.3804918673114
30
0
41
1
10
40.7837412366061
20
10.3813094304674
30
0
41
1
10
40.7845849620887
20
10.3821184287198
30
0
0
SPLINE
5
1AC
100
AcDbEntity
8
1
62
256
6
ByLayer
370
13
48
1
60
0
100
AcDbSpline
70
4
71
3
72
10
73
6
40
0
40
0
40
0
40
0
40
0.258944711528364
40
0.258944711528364
40
1
40
1
40
1
40
1
41
1
10
40.7845849620887
20
10.3821184287198
30
0
41
1
10
40.799277300327
20
10.3962060392081
30
0
41
1
10
40.8140493078695
20
10.410211010785
30
0
41
1
10
40.8714142308746
20
10.4639598075371
30
0
41
1
10
40.9146891560262
20
10.5030110430021
30
0
41
1
10
40.958266504227
20
10.5416091454138
30
0
0
SPLINE
5
1AD
100
AcDbEntity
8
1
62
256
6
ByLayer
370
13
48
1
60
0
100
AcDbSpline
70
4
71
3
72
8
73
4
40
0
40
0
40
0
40
0
40
1
40
1
40
1
40
1
41
1
10
40.9582665042272
20
10.5416091454137
30
0
41
1
10
40.9890156099214
20
10.540618772332
30
0
41
1
10
41.0196882286926
20
10.5382407329024
30
0
41
1
10
41.0502390423
20
10.5347365006234
30
0
0
SPLINE
5
1AE
100
AcDbEntity
8
1
62
256
6
ByLayer
370
13
48
1
60
0
100
AcDbSpline
70
4
71
3
72
12
73
8
40
0
40
0
40
0
40
0
40
0.140444200279774
40
0.140444200279774
40
0.578672846880988
40
0.578672846880988
40
1
40
1
40
1
40
1
41
1
10
41.0502390423
20
10.5347365006234
30
0
41
1
10
41.0907683260285
20
10.5300877201978
30
0
41
1
10
41.1340049971858
20
10.5273419459733
30
0
41
1
10
41.3188333798473
20
10.5226563822427
30
0
41
1
10
41.4828017897204
20
10.5339943347045
30
0
41
1
10
41.8193415913498
20
10.5707839115203
30
0
41
1
10
41.9971452699764
20
10.598309289553
30
0
41
1
10
42.172400536749
20
10.6150628416442
30
0
0
SPLINE
5
1AF
100
AcDbEntity
8
1
62
256
6
ByLayer
370
13
48
1
60
0
100
AcDbSpline
70
4
71
3
72
8
73
4
40
0
40
0
40
0
40
0
40
1
40
1
40
1
40
1
41
1
10
42.172400536749
20
10.6150628416442
30
0
41
1
10
42.2323837831874
20
10.6207969485975
30
0
41
1
10
42.2928500715066
20
10.6229834153596
30
0
41
1
10
42.3530991918524
20
10.6211328415868
30
0
0
SPLINE
5
1B0
100
AcDbEntity
8
1
62
256
6
ByLayer
370
13
48
1
60
0
100
AcDbSpline
70
4
71
3
72
8
73
4
40
0
40
0
40
0
40
0
40
1
40
1
40
1
40
1
41
1
10
42.3530991918524
20
10.6211328415868
30
0
41
1
10
42.4746599531638
20
10.6173990583318
30
0
41
1
10
42.5968950955519
20
10.6224946285802
30
0
41
1
10
42.7161920011129
20
10.6223714647742
30
0
0
SPLINE
5
1B1
100
AcDbEntity
8
1
62
256
6
ByLayer
370
13
48
1
60
0
100
AcDbSpline
70
4
71
3
72
8
73
4
40
0
40
0
40
0
40
0
40
1
40
1
40
1
40
1
41
1
10
42.7161920011118
20
10.6223714647724
30
0
41
1
10
42.8757348334777
20
10.6222067505045
30
0
41
1
10
43.0355792331503
20
10.588378536205
30
0
41
1
10
43.1901406592828
20
10.5447362745708
30
0
0
SPLINE
5
1B2
100
AcDbEntity
8
1
62
256
6
ByLayer
370
13
48
1
60
0
100
AcDbSpline
70
4
71
3
72
8
73
4
40
0
40
0
40
0
40
0
40
1
40
1
40
1
40
1
41
1
10
43.1901406592839
20
10.5447362745702
30
0
41
1
10
43.2341557915993
20
10.5181417556105
30
0
41
1
10
43.2778467711874
20
10.4910117065327
30
0
41
1
10
43.3213347612452
20
10.4635674366503
30
0
0
SPLINE
5
1B3
100
AcDbEntity
8
1
62
256
6
ByLayer
370
13
48
1
60
0
100
AcDbSpline
70
4
71
3
72
14
73
10
40
0
40
0
40
0
40
0
40
0.0740326958458219
40
0.0740326958458219
40
0.743257125695834
40
0.743257125695834
40
0.939124438646558
40
0.939124438646558
40
1
40
1
40
1
40
1
41
1
10
43.3213347612452
20
10.4635674366501
30
0
41
1
10
43.3126059855915
20
10.4639173068321
30
0
41
1
10
43.3038751248009
20
10.4642685081949
30
0
41
1
10
43.2162008436679
20
10.4678069532349
30
0
41
1
10
43.1369961926742
20
10.4712377850538
30
0
41
1
10
43.0347137397946
20
10.4752267853943
30
0
41
1
10
43.0110630969842
20
10.4776658118498
30
0
41
1
10
42.9801088915618
20
10.4794978169255
30
0
41
1
10
42.9727654069312
20
10.4798699055389
30
0
41
1
10
42.96542001724
20
10.4801814650801
30
0
0
SPLINE
5
1B4
100
AcDbEntity
8
1
62
256
6
ByLayer
370
13
48
1
60
0
100
AcDbSpline
70
4
71
3
72
12
73
8
40
0
40
0
40
0
40
0
40
0.580466676309606
40
0.580466676309606
40
0.902092447109163
40
0.902092447109163
40
1
40
1
40
1
40
1
41
1
10
42.96542001724
20
10.4801814650801
30
0
41
1
10
42.8648041446478
20
10.4844491535781
30
0
41
1
10
42.7598849325172
20
10.488481038335
30
0
41
1
10
42.5950542118574
20
10.4947528621616
30
0
41
1
10
42.5355659682511
20
10.497082874745
30
0
41
1
10
42.4579762169911
20
10.4999007974428
30
0
41
1
10
42.4398403518264
20
10.5005549010839
30
0
41
1
10
42.4217062023472
20
10.5011817524695
30
0
0
SPLINE
5
1B5
100
AcDbEntity
8
1
62
256
6
ByLayer
370
13
48
1
60
0
100
AcDbSpline
70
4
71
3
72
14
73
10
40
0
40
0
40
0
40
0
40
0.0559482231425851
40
0.0559482231425851
40
0.255082555375332
40
0.255082555375332
40
0.91736630964965
40
0.91736630964965
40
1
40
1
40
1
40
1
41
1
10
42.4217062023472
20
10.5011817524695
30
0
41
1
10
42.4102710337184
20
10.5015770371399
30
0
41
1
10
42.3988345011549
20
10.5019338048747
30
0
41
1
10
42.346704106935
20
10.5038417627309
30
0
41
1
10
42.3060132231142
20
10.5057728592255
30
0
41
1
10
42.1310688272088
20
10.5114732732027
30
0
41
1
10
41.9936591146985
20
10.506373620278
30
0
41
1
10
41.8478771051644
20
10.4653735365165
30
0
41
1
10
41.8314856310116
20
10.4606568232784
30
0
41
1
10
41.8151325614844
20
10.4558181960202
30
0
0
SPLINE
5
1B6
100
AcDbEntity
8
1
62
256
6
ByLayer
370
13
48
1
60
0
100
AcDbSpline
70
4
71
3
72
12
73
8
40
0
40
0
40
0
40
0
40
0.432851996086571
40
0.432851996086571
40
0.716418616561771
40
0.716418616561771
40
1
40
1
40
1
40
1
41
1
10
41.8151325614844
20
10.4558181960202
30
0
41
1
10
41.8046568328338
20
10.4527185855089
30
0
41
1
10
41.7941840602843
20
10.4496148138447
30
0
41
1
10
41.7768579385476
20
10.4444755840007
30
0
41
1
10
41.770001810704
20
10.4424401850849
30
0
41
1
10
41.7562928218783
20
10.4383732048102
30
0
41
1
10
41.7494397680902
20
10.4363414297676
30
0
41
1
10
41.7425891010003
20
10.4343115491746
30
0
0
SPLINE
5
1B7
100
AcDbEntity
8
1
62
256
6
ByLayer
370
13
48
1
60
0
100
AcDbSpline
70
4
71
3
72
12
73
8
40
0
40
0
40
0
40
0
40
0.0568772518374259
40
0.0568772518374259
40
0.598921195001127
40
0.598921195001127
40
1
40
1
40
1
40
1
41
1
10
41.7425891010003
20
10.4343115491746
30
0
41
1
10
41.7245515992803
20
10.4289669638653
30
0
41
1
10
41.7065274742932
20
10.4236347630451
30
0
41
1
10
41.5189632613311
20
10.3682193862868
30
0
41
1
10
41.3497242492963
20
10.3187268975951
30
0
41
1
10
41.0764510412475
20
10.2388605312465
30
0
41
1
10
40.9651339164841
20
10.2063198062792
30
0
41
1
10
40.8632877280433
20
10.1763786668624
30
0
0
SPLINE
5
1B8
100
AcDbEntity
8
1
62
256
6
ByLayer
370
13
48
1
60
0
100
AcDbSpline
70
4
71
3
72
8
73
4
40
0
40
0
40
0
40
0
40
1
40
1
40
1
40
1
41
1
10
40.8188209596174
20
8.79893124766915
30
0
41
1
10
40.7566840705692
20
8.85133909160098
30
0
41
1
10
40.6964721480718
20
8.90604468785739
30
0
41
1
10
40.6373478591962
20
8.96182903647895
30
0
0
SPLINE
5
1B9
100
AcDbEntity
8
1
62
256
6
ByLayer
370
13
48
1
60
0
100
AcDbSpline
70
4
71
3
72
8
73
4
40
0
40
0
40
0
40
0
40
1
40
1
40
1
40
1
41
1
10
40.8188209596174
20
10.7010687523308
30
0
41
1
10
40.7566840705692
20
10.648660908399
30
0
41
1
10
40.6964721480718
20
10.5939553121425
30
0
41
1
10
40.6373478591962
20
10.538170963521
30
0
0
SPLINE
5
1BA
100
AcDbEntity
8
1
62
256
6
ByLayer
370
13
48
1
60
0
100
AcDbSpline
70
4
71
3
72
12
73
8
40
0
40
0
40
0
40
0
40
0.430493117721161
40
0.430493117721161
40
0.862618336992714
40
0.862618336992714
40
1
40
1
40
1
40
1
41
1
10
42.1587805434613
20
8.71700205261365
30
0
41
1
10
41.9906987623659
20
8.73225867917688
30
0
41
1
10
41.8215883462255
20
8.76147754984379
30
0
41
1
10
41.5044434955373
20
8.80454263376603
30
0
41
1
10
41.351699988043
20
8.81967591651701
30
0
41
1
10
41.1772887625654
20
8.82083041259995
30
0
41
1
10
41.1365461454505
20
8.8196133329966
30
0
41
1
10
41.0981203716814
20
8.81656652204293
30
0
0
SPLINE
5
1BB
100
AcDbEntity
8
1
62
256
6
ByLayer
370
13
48
1
60
0
100
AcDbSpline
70
4
71
3
72
12
73
8
40
0
40
0
40
0
40
0
40
0.430493117721161
40
0.430493117721161
40
0.862618336992714
40
0.862618336992714
40
1
40
1
40
1
40
1
41
1
10
42.1587805434613
20
10.7829979473863
30
0
41
1
10
41.9906987623659
20
10.7677413208231
30
0
41
1
10
41.8215883462255
20
10.7385224501562
30
0
41
1
10
41.5044434955373
20
10.6954573662339
30
0
41
1
10
41.351699988043
20
10.6803240834829
30
0
41
1
10
41.1772887625654
20
10.6791695874
30
0
41
1
10
41.1365461454505
20
10.6803866670034
30
0
41
1
10
41.0981203716814
20
10.683433477957
30
0
0
SPLINE
5
1BC
100
AcDbEntity
8
1
62
256
6
ByLayer
370
13
48
1
60
0
100
AcDbSpline
70
4
71
3
72
12
73
8
40
0
40
0
40
0
40
0
40
0.018287446984155
40
0.018287446984155
40
0.429383149668921
40
0.429383149668921
40
1
40
1
40
1
40
1
41
1
10
40.6074254881241
20
9.24213188808389
30
0
41
1
10
40.607536236287
20
9.24168516931692
30
0
41
1
10
40.6076466703323
20
9.2412319287794
30
0
41
1
10
40.6102522277266
20
9.2303520411381
30
0
41
1
10
40.612595462443
20
9.21645055715541
30
0
41
1
10
40.6175084652176
20
9.17687315827294
30
0
41
1
10
40.6199051952737
20
9.14798609154619
30
0
41
1
10
40.6216132026687
20
9.11598961440242
30
0
0
SPLINE
5
1BD
100
AcDbEntity
8
1
62
256
6
ByLayer
370
13
48
1
60
0
100
AcDbSpline
70
4
71
3
72
10
73
6
40
0
40
0
40
0
40
0
40
0.318891167720856
40
0.318891167720856
40
1
40
1
40
1
40
1
41
1
10
40.6216132026687
20
9.11598961440242
30
0
41
1
10
40.6224098521601
20
9.10106580480655
30
0
41
1
10
40.6235152334821
20
9.08532606116529
30
0
41
1
10
40.6278307781878
20
9.03501753542986
30
0
41
1
10
40.6321174721148
20
8.9980494056679
30
0
41
1
10
40.6373478591962
20
8.96182903647895
30
0
0
SPLINE
5
1BE
100
AcDbEntity
8
1
62
256
6
ByLayer
370
13
48
1
60
0
100
AcDbSpline
70
4
71
3
72
12
73
8
40
0
40
0
40
0
40
0
40
0.089550281954247
40
0.089550281954247
40
0.695495664143286
40
0.695495664143286
40
1
40
1
40
1
40
1
41
1
10
40.6373478591962
20
10.538170963521
30
0
41
1
10
40.6366504824215
20
10.533341637536
30
0
41
1
10
40.6359706281935
20
10.5285083751667
30
0
41
1
10
40.630892834415
20
10.491421780142
30
0
41
1
10
40.627265294638
20
10.4588731646892
30
0
41
1
10
40.6234116552874
20
10.4131929125641
30
0
41
1
10
40.6223723977324
20
10.3982325531868
30
0
41
1
10
40.6216132026687
20
10.3840103855976
30
0
0
SPLINE
5
1BF
100
AcDbEntity
8
1
62
256
6
ByLayer
370
13
48
1
60
0
100
AcDbSpline
70
4
71
3
72
14
73
10
40
0
40
0
40
0
40
0
40
0.209495302841087
40
0.209495302841087
40
0.672464390491942
40
0.672464390491942
40
0.981903526404807
40
0.981903526404807
40
1
40
1
40
1
40
1
41
1
10
40.6216132026687
20
10.3840103855976
30
0
41
1
10
40.6209795101629
20
10.372139284902
30
0
41
1
10
40.6202559987988
20
10.3607268649116
30
0
41
1
10
40.6176940629878
20
10.326290787119
30
0
41
1
10
40.6155182997219
20
10.3052817464069
30
0
41
1
10
40.6114230927657
20
10.276849497582
30
0
41
1
10
40.6096341492853
20
10.2670670768217
30
0
41
1
10
40.6076466700101
20
10.2587680712184
30
0
41
1
10
40.6075362362064
20
10.2583148306824
30
0
41
1
10
40.6074254881241
20
10.2578681119161
30
0
0
SPLINE
5
1C0
100
AcDbEntity
8
1
62
256
6
ByLayer
370
13
48
1
60
0
100
AcDbSpline
70
4
71
3
72
8
73
4
40
0
40
0
40
0
40
0
40
1
40
1
40
1
40
1
41
1
10
40.9582665042275
20
8.9583908545863
30
0
41
1
10
40.9515452911909
20
8.95111146098412
30
0
41
1
10
40.9437211106933
20
8.94234368488179
30
0
41
1
10
40.9350869923574
20
8.93241113250139
30
0
0
SPLINE
5
1C1
100
AcDbEntity
8
1
62
256
6
ByLayer
370
13
48
1
60
0
100
AcDbSpline
70
4
71
3
72
14
73
10
40
0
40
0
40
0
40
0
40
0.448208770210974
40
0.448208770210974
40
0.913122348259776
40
0.913122348259776
40
0.983427664880478
40
0.983427664880478
40
1
40
1
40
1
40
1
41
1
10
40.9350869923623
20
8.93241113249718
30
0
41
1
10
40.9215455531755
20
8.91683327624082
30
0
41
1
10
40.905341588264
20
8.898204204162
30
0
41
1
10
40.8698920668223
20
8.85749071406417
30
0
41
1
10
40.8499835745949
20
8.83464689438284
30
0
41
1
10
40.8270726024479
20
8.80838663572001
30
0
41
1
10
40.8240126344075
20
8.80487989639747
30
0
41
1
10
40.8202420283414
20
8.80055945032609
30
0
41
1
10
40.8195314790725
20
8.79974534694549
30
0
41
1
10
40.8188209596159
20
8.79893124767031
30
0
0
SPLINE
5
1C2
100
AcDbEntity
8
1
62
256
6
ByLayer
370
13
48
1
60
0
100
AcDbSpline
70
4
71
3
72
14
73
10
40
0
40
0
40
0
40
0
40
0.448208770210974
40
0.448208770210974
40
0.913122348259776
40
0.913122348259776
40
0.983427664880478
40
0.983427664880478
40
1
40
1
40
1
40
1
41
1
10
40.9350869923623
20
10.5675888675028
30
0
41
1
10
40.9215455531755
20
10.5831667237591
30
0
41
1
10
40.905341588264
20
10.6017957958379
30
0
41
1
10
40.8698920668223
20
10.6425092859358
30
0
41
1
10
40.8499835745949
20
10.6653531056171
30
0
41
1
10
40.8270726024479
20
10.6916133642799
30
0
41
1
10
40.8240126344075
20
10.6951201036025
30
0
41
1
10
40.8202420283414
20
10.6994405496739
30
0
41
1
10
40.8195314790725
20
10.7002546530545
30
0
41
1
10
40.8188209596159
20
10.7010687523296
30
0
0
SPLINE
5
1C3
100
AcDbEntity
8
1
62
256
6
ByLayer
370
13
48
1
60
0
100
AcDbSpline
70
4
71
3
72
8
73
4
40
0
40
0
40
0
40
0
40
1
40
1
40
1
40
1
41
1
10
40.9582665042275
20
10.5416091454137
30
0
41
1
10
40.9515452911909
20
10.5488885390159
30
0
41
1
10
40.9437211106933
20
10.5576563151181
30
0
41
1
10
40.9350869923574
20
10.5675888674986
30
0
0
SPLINE
5
1C4
100
AcDbEntity
8
1
62
256
6
ByLayer
370
13
48
1
60
0
100
AcDbSpline
70
4
71
3
72
14
73
10
40
0
40
0
40
0
40
0
40
0.448209783482341
40
0.448209783482341
40
0.913122824433937
40
0.913122824433937
40
0.983427843025058
40
0.983427843025058
40
1
40
1
40
1
40
1
41
1
10
40.9951729104533
20
8.81426702231201
30
0
41
1
10
40.9746094473681
20
8.81247854644354
30
0
41
1
10
40.9500116922507
20
8.8103392878397
30
0
41
1
10
40.8962303412136
20
8.80566227373009
30
0
41
1
10
40.8660425013692
20
8.80303720146367
30
0
41
1
10
40.8313234526433
20
8.80001833523556
30
0
41
1
10
40.8266868400137
20
8.79961518023384
30
0
41
1
10
40.8209739567194
20
8.79911844867192
30
0
41
1
10
40.8198974468538
20
8.79902484730718
30
0
41
1
10
40.8188209596194
20
8.79893124766917
30
0
0
SPLINE
5
1C5
100
AcDbEntity
8
1
62
256
6
ByLayer
370
13
48
1
60
0
100
AcDbSpline
70
4
71
3
72
14
73
10
40
0
40
0
40
0
40
0
40
0.448209783482341
40
0.448209783482341
40
0.913122824433937
40
0.913122824433937
40
0.983427843025058
40
0.983427843025058
40
1
40
1
40
1
40
1
41
1
10
40.9951729104533
20
10.6857329776879
30
0
41
1
10
40.9746094473681
20
10.6875214535564
30
0
41
1
10
40.9500116922507
20
10.6896607121603
30
0
41
1
10
40.8962303412136
20
10.6943377262699
30
0
41
1
10
40.8660425013692
20
10.6969627985363
30
0
41
1
10
40.8313234526433
20
10.6999816647644
30
0
41
1
10
40.8266868400137
20
10.7003848197661
30
0
41
1
10
40.8209739567194
20
10.700881551328
30
0
41
1
10
40.8198974468538
20
10.7009751526928
30
0
41
1
10
40.8188209596194
20
10.7010687523308
30
0
0
SPLINE
5
1C6
100
AcDbEntity
8
1
62
256
6
ByLayer
370
13
48
1
60
0
100
AcDbSpline
70
4
71
3
72
12
73
8
40
0
40
0
40
0
40
0
40
0.37350315843554
40
0.37350315843554
40
0.795694705497851
40
0.795694705497851
40
1
40
1
40
1
40
1
41
1
10
40.659385679813
20
10.2135919272834
30
0
41
1
10
40.6710534635609
20
10.2077094237192
30
0
41
1
10
40.6816831597665
20
10.2007770398959
30
0
41
1
10
40.7006200088993
20
10.183343114605
30
0
41
1
10
40.7085333602959
20
10.1722624344718
30
0
41
1
10
40.7143528017274
20
10.1530639163961
30
0
41
1
10
40.7153239472322
20
10.1462800079991
30
0
41
1
10
40.7152169044538
20
10.1391609008841
30
0
0
SPLINE
5
1C7
100
AcDbEntity
8
1
62
256
6
ByLayer
370
13
48
1
60
0
100
AcDbSpline
70
4
71
3
72
12
73
8
40
0
40
0
40
0
40
0
40
0.0542763744367155
40
0.0542763744367155
40
0.496521492455521
40
0.496521492455521
40
1
40
1
40
1
40
1
41
1
10
40.7152169044538
20
10.139160900884
30
0
41
1
10
40.7151561390061
20
10.1351195658477
30
0
41
1
10
40.7151785928067
20
10.1309843746488
30
0
41
1
10
40.716167948326
20
10.0929378924047
30
0
41
1
10
40.7229550923539
20
10.0526628927128
30
0
41
1
10
40.7518066817856
20
9.96349232373379
30
0
41
1
10
40.7764269684705
20
9.9125220075444
30
0
41
1
10
40.8087083957605
20
9.86587696886946
30
0
0
SPLINE
5
1C8
100
AcDbEntity
8
1
62
256
6
ByLayer
370
13
48
1
60
0
100
AcDbSpline
70
4
71
3
72
16
73
12
40
0
40
0
40
0
40
0
40
0.298315131809684
40
0.298315131809684
40
0.533632825549725
40
0.533632825549725
40
0.64077898617517
40
0.64077898617517
40
0.930881665385067
40
0.930881665385067
40
1
40
1
40
1
40
1
41
1
10
40.8087083957605
20
9.86587696886946
30
0
41
1
10
40.8224586946462
20
9.84600847861989
30
0
41
1
10
40.8344062486955
20
9.8239245844789
30
0
41
1
10
40.8474662168349
20
9.78156881211333
30
0
41
1
10
40.8502777390208
20
9.76137615415811
30
0
41
1
10
40.8488025034954
20
9.73260406621344
30
0
41
1
10
40.8475581030794
20
9.723521729373
30
0
41
1
10
40.8404854878039
20
9.6910283934649
30
0
41
1
10
40.830331619189
20
9.66854722723178
30
0
41
1
10
40.8150440331609
20
9.64354042381305
30
0
41
1
10
40.8119321889307
20
9.63878125010461
30
0
41
1
10
40.8087083957605
20
9.63412303113049
30
0
0
SPLINE
5
1C9
100
AcDbEntity
8
1
62
256
6
ByLayer
370
13
48
1
60
0
100
AcDbSpline
70
4
71
3
72
12
73
8
40
0
40
0
40
0
40
0
40
0.072400628024118
40
0.072400628024118
40
0.542681200842481
40
0.542681200842481
40
1
40
1
40
1
40
1
41
1
10
40.8087083957605
20
9.63412303113049
30
0
41
1
10
40.8039784382181
20
9.62728848039907
30
0
41
1
10
40.7994173867099
20
9.62038158417747
30
0
41
1
10
40.7670358688112
20
9.56899857685539
30
0
41
1
10
40.7459582481575
20
9.52154631434999
30
0
41
1
10
40.7202219966361
20
9.43493893254617
30
0
41
1
10
40.7147143497319
20
9.39426256730093
30
0
41
1
10
40.7152169044538
20
9.36083909911579
30
0
0
SPLINE
5
1CA
100
AcDbEntity
8
1
62
256
6
ByLayer
370
13
48
1
60
0
100
AcDbSpline
70
4
71
3
72
10
73
6
40
0
40
0
40
0
40
0
40
0.334030053675942
40
0.334030053675942
40
1
40
1
40
1
40
1
41
1
10
40.7152169044538
20
9.36083909911579
30
0
41
1
10
40.7153918659962
20
9.34920291047843
30
0
41
1
10
40.712626158964
20
9.33846040463831
30
0
41
1
10
40.6979583359749
20
9.31066492037735
30
0
41
1
10
40.6800208663975
20
9.29681163874528
30
0
41
1
10
40.659385679813
20
9.28640807271657
30
0
0
SPLINE
5
1CB
100
AcDbEntity
8
1
62
256
6
ByLayer
370
13
48
1
60
0
100
AcDbSpline
70
4
71
3
72
8
73
4
40
0
40
0
40
0
40
0
40
1
40
1
40
1
40
1
41
1
10
39.6664455980651
20
9.36360308959217
30
0
41
1
10
39.6610646480122
20
9.38410520198201
30
0
41
1
10
39.6558908241367
20
9.40716032801501
30
0
41
1
10
39.6526147090177
20
9.43215659695963
30
0
0
SPLINE
5
1CC
100
AcDbEntity
8
1
62
256
6
ByLayer
370
13
48
1
60
0
100
AcDbSpline
70
4
71
3
72
8
73
4
40
0
40
0
40
0
40
0
40
1
40
1
40
1
40
1
41
1
10
39.6526147090177
20
9.43215659695963
30
0
41
1
10
39.6731026391489
20
9.43792831793144
30
0
41
1
10
39.6938876855838
20
9.44330920327937
30
0
41
1
10
39.7148664719513
20
9.44833535122405
30
0
0
SPLINE
5
1CD
100
AcDbEntity
8
1
62
256
6
ByLayer
370
13
48
1
60
0
100
AcDbSpline
70
4
71
3
72
8
73
4
40
0
40
0
40
0
40
0
40
1
40
1
40
1
40
1
41
1
10
39.7148664719505
20
9.44833535122868
30
0
41
1
10
39.7178417098663
20
9.4490481658631
30
0
41
1
10
39.7208179657886
20
9.44976070584417
30
0
41
1
10
39.723795214021
20
9.45047297712446
30
0
0
SPLINE
5
1CE
100
AcDbEntity
8
1
62
256
6
ByLayer
370
13
48
1
60
0
100
AcDbSpline
70
4
71
3
72
28
73
24
40
0
40
0
40
0
40
0
40
0.0824331628013926
40
0.0824331628013926
40
0.235485992714892
40
0.235485992714892
40
0.365353750303328
40
0.365353750303328
40
0.450881865339947
40
0.450881865339947
40
0.480850336949852
40
0.480850336949852
40
0.574325592928214
40
0.574325592928214
40
0.597106041801673
40
0.597106041801673
40
0.701976945932075
40
0.701976945932075
40
0.720205522192435
40
0.720205522192435
40
0.850377367168771
40
0.850377367168771
40
1
40
1
40
1
40
1
41
1
10
39.723795214021
20
9.45047297712446
30
0
41
1
10
39.747791077577
20
9.45621370249313
30
0
41
1
10
39.7712519946269
20
9.46343394515301
30
0
41
1
10
39.8351496262034
20
9.48865108690092
30
0
41
1
10
39.8740994363459
20
9.51101895823942
30
0
41
1
10
39.9349325388923
20
9.56470548315849
30
0
41
1
10
39.9592944515774
20
9.59503232085211
30
0
41
1
10
39.9879457247085
20
9.65253309803947
30
0
41
1
10
39.9964642542704
20
9.67787470102851
30
0
41
1
10
40.0026326894441
20
9.7131515380251
30
0
41
1
10
40.0037700606155
20
9.72252519506864
30
0
41
1
10
40.0063614612622
20
9.7607668250069
30
0
41
1
10
40.0034520633988
20
9.79056290234698
30
0
41
1
10
39.9943898978956
20
9.82501339889916
30
0
41
1
10
39.9923244016579
20
9.83176725012169
30
0
41
1
10
39.9795450947274
20
9.86842706949957
30
0
41
1
10
39.9637586656492
20
9.89626752866849
30
0
41
1
10
39.9414347991992
20
9.9244464163518
30
0
41
1
10
39.937982466813
20
9.92856657711496
30
0
41
1
10
39.9094104165165
20
9.9608841930436
30
0
41
1
10
39.8792041383534
20
9.98423753076474
30
0
41
1
10
39.808915041613
20
10.0238767329478
30
0
41
1
10
39.7671153730992
20
10.0391631893083
30
0
41
1
10
39.723795214021
20
10.0495270228755
30
0
0
SPLINE
5
1CF
100
AcDbEntity
8
1
62
256
6
ByLayer
370
13
48
1
60
0
100
AcDbSpline
70
4
71
3
72
8
73
4
40
0
40
0
40
0
40
0
40
1
40
1
40
1
40
1
41
1
10
39.723795214021
20
10.0495270228755
30
0
41
1
10
39.7208179657886
20
10.0502392941558
30
0
41
1
10
39.7178417098663
20
10.0509518341368
30
0
41
1
10
39.7148664719505
20
10.0516646487713
30
0
0
SPLINE
5
1D0
100
AcDbEntity
8
1
62
256
6
ByLayer
370
13
48
1
60
0
100
AcDbSpline
70
4
71
3
72
8
73
4
40
0
40
0
40
0
40
0
40
1
40
1
40
1
40
1
41
1
10
39.7148664719505
20
10.0516646487713
30
0
41
1
10
39.693887685583
20
10.0566907967159
30
0
41
1
10
39.6731026391491
20
10.0620716820734
30
0
41
1
10
39.6526147090178
20
10.0678434030451
30
0
0
SPLINE
5
1D1
100
AcDbEntity
8
1
62
256
6
ByLayer
370
13
48
1
60
0
100
AcDbSpline
70
4
71
3
72
10
73
6
40
0
40
0
40
0
40
0
40
0.151242748517103
40
0.151242748517103
40
1
40
1
40
1
40
1
41
1
10
39.6526147090177
20
10.0678434030403
30
0
41
1
10
39.6531149923946
20
10.0716604904696
30
0
41
1
10
39.6536590318523
20
10.0754307463966
30
0
41
1
10
39.6574716522986
20
10.0998113717288
30
0
41
1
10
39.6618827558909
20
10.1190118943507
30
0
41
1
10
39.6664455980651
20
10.1363969104078
30
0
0
SPLINE
5
1D2
100
AcDbEntity
8
1
62
256
6
ByLayer
370
13
48
1
60
0
100
AcDbSpline
70
4
71
3
72
14
73
10
40
0
40
0
40
0
40
0
40
0.0180992437321471
40
0.0180992437321471
40
0.327555555031554
40
0.327555555031554
40
0.783089016631575
40
0.783089016631575
40
1
40
1
40
1
40
1
41
1
10
40.6074254881241
20
10.2578681119161
30
0
41
1
10
40.6084604407255
20
10.2581319691149
30
0
41
1
10
40.6094951241647
20
10.2584023241464
30
0
41
1
10
40.6281664148288
20
10.2634011585195
30
0
41
1
10
40.6457666302326
20
10.2700605890146
30
0
41
1
10
40.6877311305171
20
10.290746626747
30
0
41
1
10
40.7118879593938
20
10.3070227106343
30
0
41
1
10
40.7442130974434
20
10.3354853466013
30
0
41
1
10
40.7542531544874
20
10.3454586974446
30
0
41
1
10
40.7636948430209
20
10.3560224675355
30
0
0
SPLINE
5
1D3
100
AcDbEntity
8
1
62
256
6
ByLayer
370
13
48
1
60
0
100
AcDbSpline
70
4
71
3
72
12
73
8
40
0
40
0
40
0
40
0
40
0.0182847240742239
40
0.0182847240742239
40
0.429358008400497
40
0.429358008400497
40
1
40
1
40
1
40
1
41
1
10
40.6074254881188
20
9.2421318880773
30
0
41
1
10
40.6084604407251
20
9.24186803088065
30
0
41
1
10
40.6094951241747
20
9.24159767585468
30
0
41
1
10
40.6339733233843
20
9.23504416723958
30
0
41
1
10
40.6574007313324
20
9.22530486160693
30
0
41
1
10
40.7101056255246
20
9.19514494168601
30
0
41
1
10
40.7391079375758
20
9.17148642723959
30
0
41
1
10
40.7636948430209
20
9.14397753246448
30
0
0
SPLINE
5
1D4
100
AcDbEntity
8
1
62
256
6
ByLayer
370
13
48
1
60
0
100
AcDbSpline
70
4
71
3
72
16
73
12
40
0
40
0
40
0
40
0
40
0.266114531305344
40
0.266114531305344
40
0.459598281789052
40
0.459598281789052
40
0.654681344527544
40
0.654681344527544
40
0.849490422247785
40
0.849490422247785
40
1
40
1
40
1
40
1
41
1
10
39.582572519129
20
10.2909556745709
30
0
41
1
10
39.5735711562898
20
10.2873842230479
30
0
41
1
10
39.564076996927
20
10.2848481182354
30
0
41
1
10
39.5475300168956
20
10.2833831783884
30
0
41
1
10
39.5404025170202
20
10.2836718093882
30
0
41
1
10
39.5266373127103
20
10.2865563606964
30
0
41
1
10
39.5198551395321
20
10.289228579034
30
0
41
1
10
39.5077423483697
20
10.2968160414449
30
0
41
1
10
39.502261079234
20
10.3018177214124
30
0
41
1
10
39.4941824291228
20
10.3119514009931
30
0
41
1
10
39.491139239586
20
10.3168679891544
30
0
41
1
10
39.4886123585658
20
10.3220239392492
30
0
0
SPLINE
5
1D5
100
AcDbEntity
8
1
62
256
6
ByLayer
370
13
48
1
60
0
100
AcDbSpline
70
4
71
3
72
8
73
4
40
0
40
0
40
0
40
0
40
1
40
1
40
1
40
1
41
1
10
39.4886123585655
20
10.322023939249
30
0
41
1
10
39.4362826886598
20
10.4287995113294
30
0
41
1
10
39.3808772994326
20
10.5343067771634
30
0
41
1
10
39.3172833606159
20
10.6339172375137
30
0
0
SPLINE
5
1D6
100
AcDbEntity
8
1
62
256
6
ByLayer
370
13
48
1
60
0
100
AcDbSpline
70
4
71
3
72
8
73
4
40
0
40
0
40
0
40
0
40
1
40
1
40
1
40
1
41
1
10
39.3172833606115
20
8.86608276247253
30
0
41
1
10
39.3808772994311
20
8.96569322282645
30
0
41
1
10
39.4362826886578
20
9.07120048866634
30
0
41
1
10
39.4886123585655
20
9.17797606075092
30
0
0
SPLINE
5
1D7
100
AcDbEntity
8
1
62
256
6
ByLayer
370
13
48
1
60
0
100
AcDbSpline
70
4
71
3
72
16
73
12
40
0
40
0
40
0
40
0
40
0.0863584761048735
40
0.0863584761048735
40
0.277083676707827
40
0.277083676707827
40
0.497685001356078
40
0.497685001356078
40
0.715930577764417
40
0.715930577764417
40
1
40
1
40
1
40
1
41
1
10
39.4886123585655
20
9.17797606075092
30
0
41
1
10
39.4900705944436
20
9.18095150413487
30
0
41
1
10
39.4916961209683
20
9.18384205656128
30
0
41
1
10
39.4974070451895
20
9.19264308767657
30
0
41
1
10
39.5022173965363
20
9.19815267871525
30
0
41
1
10
39.5139979851071
20
9.20773088656748
30
0
41
1
10
39.5213908281853
20
9.21156962221451
30
0
41
1
10
39.5366464624699
20
9.21596424469547
30
0
41
1
10
39.544705300207
20
9.216653979017
30
0
41
1
10
39.5627947729502
20
9.21548884898326
30
0
41
1
10
39.5729718531551
20
9.21285356117778
30
0
41
1
10
39.582572519129
20
9.20904432542903
30
0
0
SPLINE
5
1D8
100
AcDbEntity
8
1
62
256
6
ByLayer
370
13
48
1
60
0
100
AcDbSpline
70
4
71
3
72
8
73
4
40
0
40
0
40
0
40
0
40
1
40
1
40
1
40
1
41
1
10
40.659385679813
20
9.28640807271657
30
0
41
1
10
40.642634420939
20
9.27153863523088
30
0
41
1
10
40.6252541290505
20
9.25678875032813
30
0
41
1
10
40.6074254881232
20
9.24213188808113
30
0
0
SPLINE
5
1D9
100
AcDbEntity
8
1
62
256
6
ByLayer
370
13
48
1
60
0
100
AcDbSpline
70
4
71
3
72
8
73
4
40
0
40
0
40
0
40
0
40
1
40
1
40
1
40
1
41
1
10
40.6074254881232
20
10.2578681119188
30
0
41
1
10
40.6252541290505
20
10.2432112496718
30
0
41
1
10
40.642634420939
20
10.2284613647691
30
0
41
1
10
40.659385679813
20
10.2135919272834
30
0
0
SPLINE
5
1DA
100
AcDbEntity
8
1
62
256
6
ByLayer
370
13
48
1
60
0
100
AcDbSpline
70
4
71
3
72
8
73
4
40
0
40
0
40
0
40
0
40
1
40
1
40
1
40
1
41
1
10
41.0981203716814
20
10.683433477957
30
0
41
1
10
41.0644516713932
20
10.6854109918586
30
0
41
1
10
41.0306859121295
20
10.6861365103292
30
0
41
1
10
40.9968964503549
20
10.6853637965819
30
0
0
SPLINE
5
1DB
100
AcDbEntity
8
1
62
256
6
ByLayer
370
13
48
1
60
0
100
AcDbSpline
70
4
71
3
72
8
73
4
40
0
40
0
40
0
40
0
40
1
40
1
40
1
40
1
41
1
10
40.9968964503546
20
10.6853637965819
30
0
41
1
10
40.9963107228281
20
10.6853504018816
30
0
41
1
10
40.9957150920118
20
10.6854572334298
30
0
41
1
10
40.9951729104351
20
10.6857329769127
30
0
0
SPLINE
5
1DC
100
AcDbEntity
8
1
62
256
6
ByLayer
370
13
48
1
60
0
100
AcDbSpline
70
4
71
3
72
8
73
4
40
0
40
0
40
0
40
0
40
1
40
1
40
1
40
1
41
1
10
40.9968964503546
20
8.81463620341805
30
0
41
1
10
40.9963107228281
20
8.81464959811834
30
0
41
1
10
40.9957150920118
20
8.81454276657018
30
0
41
1
10
40.9951729104351
20
8.81426702308727
30
0
0
SPLINE
5
1DD
100
AcDbEntity
8
1
62
256
6
ByLayer
370
13
48
1
60
0
100
AcDbSpline
70
4
71
3
72
8
73
4
40
0
40
0
40
0
40
0
40
1
40
1
40
1
40
1
41
1
10
41.0981203716814
20
8.81656652204293
30
0
41
1
10
41.0644516713932
20
8.81458900814138
30
0
41
1
10
41.0306859121295
20
8.81386348967072
30
0
41
1
10
40.9968964503549
20
8.81463620341805
30
0
0
SPLINE
5
1DE
100
AcDbEntity
8
1
62
256
6
ByLayer
370
13
48
1
60
0
100
AcDbSpline
70
4
71
3
72
12
73
8
40
0
40
0
40
0
40
0
40
0.4751334286001
40
0.4751334286001
40
0.932572567163114
40
0.932572567163114
40
1
40
1
40
1
40
1
41
1
10
40.863287728043
20
9.32362133313615
30
0
41
1
10
40.868170611684
20
9.3516100966998
30
0
41
1
10
40.8754113106086
20
9.38689176860748
30
0
41
1
10
40.8979694230474
20
9.46332301899193
30
0
41
1
10
40.9132711544947
20
9.5051902838903
30
0
41
1
10
40.9372384178264
20
9.55237068084472
30
0
41
1
10
40.940483523696
20
9.55849737611277
30
0
41
1
10
40.9438616980138
20
9.56459684980499
30
0
0
SPLINE
5
1DF
100
AcDbEntity
8
1
62
256
6
ByLayer
370
13
48
1
60
0
100
AcDbSpline
70
4
71
3
72
12
73
8
40
0
40
0
40
0
40
0
40
0.317065405549387
40
0.317065405549387
40
0.935122454125188
40
0.935122454125188
40
1
40
1
40
1
40
1
41
1
10
40.9438616980199
20
9.56459684980001
30
0
41
1
10
41.0265429048384
20
9.54797483162665
30
0
41
1
10
41.1144360245087
20
9.52969027494774
30
0
41
1
10
41.382412259695
20
9.47248473404056
30
0
41
1
10
41.5751745905629
20
9.42949081080738
30
0
41
1
10
41.7879205279658
20
9.37966045767058
30
0
41
1
10
41.8084174418277
20
9.37483464921294
30
0
41
1
10
41.8289221872925
20
9.3699800948356
30
0
0
SPLINE
5
1E0
100
AcDbEntity
8
1
62
256
6
ByLayer
370
13
48
1
60
0
100
AcDbSpline
70
4
71
3
72
12
73
8
40
0
40
0
40
0
40
0
40
0.485156157749666
40
0.485156157749666
40
0.94199112372415
40
0.94199112372415
40
1
40
1
40
1
40
1
41
1
10
40.9438616980129
20
9.93540315019627
30
0
41
1
10
40.9199171752549
20
9.9786362616029
30
0
41
1
10
40.902462416397
20
10.0236484705228
30
0
41
1
10
40.8781770476215
20
10.1021405161352
30
0
41
1
10
40.8704660180375
20
10.1371829011119
30
0
41
1
10
40.8645310175682
20
10.1693436940068
30
0
41
1
10
40.8638924892732
20
10.1729121662615
30
0
41
1
10
40.863287728043
20
10.1763786668635
30
0
0
SPLINE
5
1E1
100
AcDbEntity
8
1
62
256
6
ByLayer
370
13
48
1
60
0
100
AcDbSpline
70
4
71
3
72
12
73
8
40
0
40
0
40
0
40
0
40
0.317065405549387
40
0.317065405549387
40
0.935122454125188
40
0.935122454125188
40
1
40
1
40
1
40
1
41
1
10
40.9438616980199
20
9.93540315019996
30
0
41
1
10
41.0265429048384
20
9.9520251683733
30
0
41
1
10
41.1144360245087
20
9.9703097250522
30
0
41
1
10
41.382412259695
20
10.0275152659594
30
0
41
1
10
41.5751745905629
20
10.0705091891926
30
0
41
1
10
41.7879205279658
20
10.1203395423294
30
0
41
1
10
41.8084174418277
20
10.125165350787
30
0
41
1
10
41.8289221872925
20
10.1300199051643
30
0
0
SPLINE
5
1E2
100
AcDbEntity
8
1
62
256
6
ByLayer
370
13
48
1
60
0
100
AcDbSpline
70
4
71
3
72
16
73
12
40
0
40
0
40
0
40
0
40
0.261377990657867
40
0.261377990657867
40
0.481934515979472
40
0.481934515979472
40
0.715311182526725
40
0.715311182526725
40
0.913572471675964
40
0.913572471675964
40
1
40
1
40
1
40
1
41
1
10
39.6664455980651
20
9.36360308959217
30
0
41
1
10
39.6382650854169
20
9.36585755395126
30
0
41
1
10
39.609482210257
20
9.36468175158799
30
0
41
1
10
39.5583119591351
20
9.35621266684674
30
0
41
1
10
39.5352599904951
20
9.34983591176277
30
0
41
1
10
39.4908020800965
20
9.33196437887543
30
0
41
1
10
39.4691978826307
20
9.32003580965707
30
0
41
1
10
39.4336106141681
20
9.29376375152057
30
0
41
1
10
39.4187432156443
20
9.27988281321959
30
0
41
1
10
39.4003266032143
20
9.25802013542966
30
0
41
1
10
39.3950841229876
20
9.25108145913683
30
0
41
1
10
39.3902464010371
20
9.24391418980349
30
0
0
SPLINE
5
1E3
100
AcDbEntity
8
1
62
256
6
ByLayer
370
13
48
1
60
0
100
AcDbSpline
70
4
71
3
72
16
73
12
40
0
40
0
40
0
40
0
40
0.151923161221768
40
0.151923161221768
40
0.356831087868239
40
0.356831087868239
40
0.562343627100699
40
0.562343627100699
40
0.755962877954035
40
0.755962877954035
40
1
40
1
40
1
40
1
41
1
10
39.3902464010371
20
10.2560858101964
30
0
41
1
10
39.3987219344628
20
10.2435289846022
30
0
41
1
10
39.4084607018454
20
10.2316577056382
30
0
41
1
10
39.4337693949216
20
10.206022819164
30
0
41
1
10
39.4503767517157
20
10.1928538450242
30
0
41
1
10
39.4864721144675
20
10.1704756252458
30
0
41
1
10
39.5062083156532
20
10.1611247325624
30
0
41
1
10
39.5462120188595
20
10.1471048458739
30
0
41
1
10
39.5666130313182
20
10.1421118357467
30
0
41
1
10
39.6132843685346
20
10.1351733324479
30
0
41
1
10
39.6401191697389
20
10.1342907743304
30
0
41
1
10
39.6664455980651
20
10.1363969104078
30
0
0
SPLINE
5
1E4
100
AcDbEntity
8
1
62
256
6
ByLayer
370
13
48
1
60
0
100
AcDbSpline
70
4
71
3
72
10
73
6
40
0
40
0
40
0
40
0
40
0.416310615910619
40
0.416310615910619
40
1
40
1
40
1
40
1
41
1
10
39.3887490202787
20
9.38200211971787
30
0
41
1
10
39.3881183420048
20
9.36168797922599
30
0
41
1
10
39.3879133394439
20
9.3417314123943
30
0
41
1
10
39.3882249830662
20
9.29512550690379
30
0
41
1
10
39.3890616222185
20
9.26885841278457
30
0
41
1
10
39.3902464010371
20
9.24391418980346
30
0
0
SPLINE
5
1E5
100
AcDbEntity
8
1
62
256
6
ByLayer
370
13
48
1
60
0
100
AcDbSpline
70
4
71
3
72
8
73
4
40
0
40
0
40
0
40
0
40
1
40
1
40
1
40
1
41
1
10
39.3887490202787
20
9.38200211971787
30
0
41
1
10
39.4019833816743
20
9.38877127902373
30
0
41
1
10
39.4170039201152
20
9.39578229938436
30
0
41
1
10
39.4333034256004
20
9.40262148804243
30
0
0
SPLINE
5
1E6
100
AcDbEntity
8
1
62
256
6
ByLayer
370
13
48
1
60
0
100
AcDbSpline
70
4
71
3
72
14
73
10
40
0
40
0
40
0
40
0
40
0.374928384423448
40
0.374928384423448
40
0.811710849728661
40
0.811710849728661
40
0.984903138272893
40
0.984903138272893
40
1
40
1
40
1
40
1
41
1
10
39.4333034255968
20
9.40262148803868
30
0
41
1
10
39.4561224099593
20
9.41219621649691
30
0
41
1
10
39.4818640226196
20
9.41985701309852
30
0
41
1
10
39.5403666129891
20
9.43137622053925
30
0
41
1
10
39.5743985825837
20
9.43456608545515
30
0
41
1
10
39.6218660913331
20
9.4342697252595
30
0
41
1
10
39.6355336219256
20
9.43364615591466
30
0
41
1
10
39.6502708355023
20
9.43237176854427
30
0
41
1
10
39.6514431034481
20
9.43226640854206
30
0
41
1
10
39.6526147090185
20
9.43215659695991
30
0
0
SPLINE
5
1E7
100
AcDbEntity
8
1
62
256
6
ByLayer
370
13
48
1
60
0
100
AcDbSpline
70
4
71
3
72
14
73
10
40
0
40
0
40
0
40
0
40
0.437747259254554
40
0.437747259254554
40
0.876374424145627
40
0.876374424145627
40
0.984868425798996
40
0.984868425798996
40
1
40
1
40
1
40
1
41
1
10
39.4333034255968
20
10.0973785119613
30
0
41
1
10
39.4598845893819
20
10.0862251923685
30
0
41
1
10
39.4905059503584
20
10.077662718158
30
0
41
1
10
39.5548008624908
20
10.0669887063206
30
0
41
1
10
39.5893598844025
20
10.0647446589911
30
0
41
1
10
39.6320199308042
20
10.0662698214384
30
0
41
1
10
39.640577126936
20
10.066789976627
30
0
41
1
10
39.6502708354997
20
10.0676282314977
30
0
41
1
10
39.6514431034474
20
10.0677335914685
30
0
41
1
10
39.6526147090185
20
10.06784340304
30
0
0
SPLINE
5
1E8
100
AcDbEntity
8
1
62
256
6
ByLayer
370
13
48
1
60
0
100
AcDbSpline
70
4
71
3
72
8
73
4
40
0
40
0
40
0
40
0
40
1
40
1
40
1
40
1
41
1
10
39.3887490202787
20
10.1179978802821
30
0
41
1
10
39.4019833816743
20
10.1112287209762
30
0
41
1
10
39.4170039201152
20
10.1042177006156
30
0
41
1
10
39.4333034256004
20
10.0973785119575
30
0
0
SPLINE
5
1E9
100
AcDbEntity
8
1
62
256
6
ByLayer
370
13
48
1
60
0
100
AcDbSpline
70
4
71
3
72
10
73
6
40
0
40
0
40
0
40
0
40
0.583689384089929
40
0.583689384089929
40
1
40
1
40
1
40
1
41
1
10
39.3902464010371
20
10.2560858101964
30
0
41
1
10
39.3890616222185
20
10.2311415872153
30
0
41
1
10
39.3882249830662
20
10.2048744930961
30
0
41
1
10
39.3879133394439
20
10.1582685876057
30
0
41
1
10
39.3881183420067
20
10.1383120207759
30
0
41
1
10
39.3887490202806
20
10.1179978802841
30
0
0
SPLINE
5
1EA
100
AcDbEntity
8
1
62
256
6
ByLayer
370
13
48
1
60
0
100
AcDbSpline
70
4
71
3
72
12
73
8
40
0
40
0
40
0
40
0
40
0.0293465478546648
40
0.0293465478546648
40
0.716199296865611
40
0.716199296865611
40
1
40
1
40
1
40
1
41
1
10
39.3172833606159
20
10.6339172375137
30
0
41
1
10
39.3164151127
20
10.6333880477086
30
0
41
1
10
39.3155496765878
20
10.6328589381974
30
0
41
1
10
39.2947885333711
20
10.6201172448751
30
0
41
1
10
39.2762446429395
20
10.6076860493392
30
0
41
1
10
39.2544391961912
20
10.5914831342277
30
0
41
1
10
39.2484807608144
20
10.5868256015918
30
0
41
1
10
39.2431084369488
20
10.5823796559062
30
0
0
SPLINE
5
1EB
100
AcDbEntity
8
1
62
256
6
ByLayer
370
13
48
1
60
0
100
AcDbSpline
70
4
71
3
72
8
73
4
40
0
40
0
40
0
40
0
40
1
40
1
40
1
40
1
41
1
10
39.2347524090111
20
10.5759843313459
30
0
41
1
10
39.2914003240087
20
10.4719070175354
30
0
41
1
10
39.3417769804954
20
10.3643116460174
30
0
41
1
10
39.3902464010371
20
10.2560858101964
30
0
0
SPLINE
5
1EC
100
AcDbEntity
8
1
62
256
6
ByLayer
370
13
48
1
60
0
100
AcDbSpline
70
4
71
3
72
8
73
4
40
0
40
0
40
0
40
0
40
1
40
1
40
1
40
1
41
1
10
39.2431084369488
20
10.5823796559062
30
0
41
1
10
39.2402587641267
20
10.5800213672227
30
0
41
1
10
39.2374665445716
20
10.577884545361
30
0
41
1
10
39.2347524090111
20
10.5759843313459
30
0
0
SPLINE
5
1ED
100
AcDbEntity
8
1
62
256
6
ByLayer
370
13
48
1
60
0
100
AcDbSpline
70
4
71
3
72
12
73
8
40
0
40
0
40
0
40
0
40
0.0294712126629231
40
0.0294712126629231
40
0.622158766529877
40
0.622158766529877
40
1
40
1
40
1
40
1
41
1
10
39.3172833606159
20
8.86608276248614
30
0
41
1
10
39.3164151127001
20
8.86661195229269
30
0
41
1
10
39.3155496765894
20
8.86714106180759
30
0
41
1
10
39.2974755734967
20
8.87823364354119
30
0
41
1
10
39.2812985888191
20
8.88894078175767
30
0
41
1
10
39.2583964628079
20
8.90545136614281
30
0
41
1
10
39.2502306848161
20
8.91172622304498
30
0
41
1
10
39.2431084369488
20
8.91762034409382
30
0
0
SPLINE
5
1EE
100
AcDbEntity
8
1
62
256
6
ByLayer
370
13
48
1
60
0
100
AcDbSpline
70
4
71
3
72
8
73
4
40
0
40
0
40
0
40
0
40
1
40
1
40
1
40
1
41
1
10
39.2431084369444
20
8.9176203440837
30
0
41
1
10
39.2402587641224
20
8.91997863276711
30
0
41
1
10
39.2374665445714
20
8.92211545463914
30
0
41
1
10
39.2347524090111
20
8.92401566865399
30
0
0
SPLINE
5
1EF
100
AcDbEntity
8
1
62
256
6
ByLayer
370
13
48
1
60
0
100
AcDbSpline
70
4
71
3
72
8
73
4
40
0
40
0
40
0
40
0
40
1
40
1
40
1
40
1
41
1
10
39.3902464010371
20
9.24391418980346
30
0
41
1
10
39.3417769804954
20
9.13568835398252
30
0
41
1
10
39.2914003240087
20
9.02809298246453
30
0
41
1
10
39.2347524090112
20
8.92401566865408
30
0
0
SPLINE
5
1F0
100
AcDbEntity
8
1
62
256
6
ByLayer
370
13
48
1
60
0
100
AcDbSpline
70
4
71
3
72
26
73
22
40
0
40
0
40
0
40
0
40
0.0827515238844934
40
0.0827515238844934
40
0.12581559206367
40
0.12581559206367
40
0.250670450127126
40
0.250670450127126
40
0.38565988459967
40
0.38565988459967
40
0.523243120522087
40
0.523243120522087
40
0.658177082710726
40
0.658177082710726
40
0.794420311219042
40
0.794420311219042
40
0.893778828576378
40
0.893778828576378
40
0.931785368228296
40
0.931785368228296
40
1
40
1
40
1
40
1
41
1
10
39.6082223121694
20
9.94733545036502
30
0
41
1
10
39.6214322023478
20
9.94277209633037
30
0
41
1
10
39.6338393291367
20
9.9365896158333
30
0
41
1
10
39.650164463161
20
9.9252889499229
30
0
41
1
10
39.6554067929997
20
9.92102639906108
30
0
41
1
10
39.674118215414
20
9.90340959461341
30
0
41
1
10
39.6849906535055
20
9.88764479307346
30
0
41
1
10
39.7024421427667
20
9.8515451025302
30
0
41
1
10
39.7088810701151
20
9.83035951411418
30
0
41
1
10
39.7169546526535
20
9.78573559679194
30
0
41
1
10
39.7185900386567
20
9.76160200071567
30
0
41
1
10
39.7169724550515
20
9.71501664016972
30
0
41
1
10
39.7137934005019
20
9.69188671935913
30
0
41
1
10
39.7026256115211
20
9.64923016378702
30
0
41
1
10
39.6944617984535
20
9.62911412743017
30
0
41
1
10
39.6752524001788
20
9.59894455236036
30
0
41
1
10
39.6653654595556
20
9.58735488760627
30
0
41
1
10
39.6489068076275
20
9.57380736356194
30
0
41
1
10
39.6440023231556
20
9.57028231467999
30
0
41
1
10
39.6295383953429
20
9.56130590206621
30
0
41
1
10
39.6191535387159
20
9.55644073975392
30
0
41
1
10
39.6082223121694
20
9.55266454963493
30
0
0
SPLINE
5
1F1
100
AcDbEntity
8
1
62
256
6
ByLayer
370
13
48
1
60
0
100
AcDbSpline
70
4
71
3
72
12
73
8
40
0
40
0
40
0
40
0
40
0.0293420255455753
40
0.0293420255455753
40
0.716180168206404
40
0.716180168206404
40
1
40
1
40
1
40
1
41
1
10
39.3172833606158
20
10.6339172375137
30
0
41
1
10
39.3162857859542
20
10.6338356004967
30
0
41
1
10
39.3152910702585
20
10.6337539703257
30
0
41
1
10
39.2914121035417
20
10.631788202065
30
0
41
1
10
39.2698109573743
20
10.6298735124065
30
0
41
1
10
39.2439993417919
20
10.6273815158011
30
0
41
1
10
39.236886377975
20
10.6266656215295
30
0
41
1
10
39.2304097099877
20
10.6259826339722
30
0
0
SPLINE
5
1F2
100
AcDbEntity
8
1
62
256
6
ByLayer
370
13
48
1
60
0
100
AcDbSpline
70
4
71
3
72
14
73
10
40
0
40
0
40
0
40
0
40
0.375382008196676
40
0.375382008196676
40
0.812033352237096
40
0.812033352237096
40
0.984956163702167
40
0.984956163702167
40
1
40
1
40
1
40
1
41
1
10
39.4913621168403
20
9.50045269829664
30
0
41
1
10
39.509071919611
20
9.50131634556513
30
0
41
1
10
39.5286858369908
20
9.49847805653977
30
0
41
1
10
39.5723411561591
20
9.48469207657834
30
0
41
1
10
39.5971677204448
20
9.47231112023408
30
0
41
1
10
39.6310180351576
20
9.44931175384735
30
0
41
1
10
39.6406668461475
20
9.44205263759437
30
0
41
1
10
39.6509791789015
20
9.43352507376611
30
0
41
1
10
39.6517970365626
20
9.4328427491678
30
0
41
1
10
39.6526147090192
20
9.43215659696358
30
0
0
SPLINE
5
1F3
100
AcDbEntity
8
1
62
256
6
ByLayer
370
13
48
1
60
0
100
AcDbSpline
70
4
71
3
72
14
73
10
40
0
40
0
40
0
40
0
40
0.438226381079498
40
0.438226381079498
40
0.876606497754705
40
0.876606497754705
40
0.984922379464605
40
0.984922379464605
40
1
40
1
40
1
40
1
41
1
10
39.4913621168403
20
9.9995473017033
30
0
41
1
10
39.5119904710236
20
9.99854132653945
30
0
41
1
10
39.5352526901998
20
10.002591615233
30
0
41
1
10
39.5829208610344
20
10.0202028482759
30
0
41
1
10
39.6079577365153
20
10.0340019869652
30
0
41
1
10
39.6381767807407
20
10.0561714015669
30
0
41
1
10
39.6441974945511
20
10.0608669568702
30
0
41
1
10
39.650979178902
20
10.0664749262334
30
0
41
1
10
39.6517970365627
20
10.067157250832
30
0
41
1
10
39.6526147090192
20
10.0678434030363
30
0
0
SPLINE
5
1F4
100
AcDbEntity
8
1
62
256
6
ByLayer
370
13
48
1
60
0
100
AcDbSpline
70
4
71
3
72
12
73
8
40
0
40
0
40
0
40
0
40
0.0294665749521175
40
0.0294665749521175
40
0.622136526669372
40
0.622136526669372
40
1
40
1
40
1
40
1
41
1
10
39.3172833606161
20
8.86608276248623
30
0
41
1
10
39.3162857859714
20
8.86616439973253
30
0
41
1
10
39.3152910703256
20
8.86624603059138
30
0
41
1
10
39.2945028901904
20
8.86795735376998
30
0
41
1
10
39.2756947131271
20
8.86960688878406
30
0
41
1
10
39.2487161066196
20
8.8721472603599
30
0
41
1
10
39.2389959740471
20
8.87311191409961
30
0
41
1
10
39.2304097099877
20
8.8740173660278
30
0
0
SPLINE
5
1F5
100
AcDbEntity
8
1
62
256
6
ByLayer
370
13
48
1
60
0
100
AcDbSpline
70
4
71
3
72
8
73
4
40
0
40
0
40
0
40
0
40
1
40
1
40
1
40
1
41
1
10
39.4913621168403
20
9.9995473017033
30
0
41
1
10
39.5259374584495
20
9.98191663018326
30
0
41
1
10
39.5621644089747
20
9.96562451546714
30
0
41
1
10
39.5995036654583
20
9.95075565179826
30
0
0
SPLINE
5
1F6
100
AcDbEntity
8
1
62
256
6
ByLayer
370
13
48
1
60
0
100
AcDbSpline
70
4
71
3
72
8
73
4
40
0
40
0
40
0
40
0
40
1
40
1
40
1
40
1
41
1
10
39.5995036654583
20
9.54924434820168
30
0
41
1
10
39.5621644089747
20
9.5343754845328
30
0
41
1
10
39.5259374584495
20
9.51808336981668
30
0
41
1
10
39.4913621168403
20
9.50045269829664
30
0
0
SPLINE
5
1F7
100
AcDbEntity
8
1
62
256
6
ByLayer
370
13
48
1
60
0
100
AcDbSpline
70
4
71
3
72
10
73
6
40
0
40
0
40
0
40
0
40
0.848569790661836
40
0.848569790661836
40
1
40
1
40
1
40
1
41
1
10
43.5256934551194
20
10.3745788312225
30
0
41
1
10
43.4913120258512
20
10.4264209108482
30
0
41
1
10
43.4438979962596
20
10.4698795395593
30
0
41
1
10
43.3838192549264
20
10.5119087603839
30
0
41
1
10
43.374454665912
20
10.5181215620119
30
0
41
1
10
43.3649581024897
20
10.5241186981632
30
0
0
SPLINE
5
1F8
100
AcDbEntity
8
1
62
256
6
ByLayer
370
13
48
1
60
0
100
AcDbSpline
70
4
71
3
72
8
73
4
40
0
40
0
40
0
40
0
40
1
40
1
40
1
40
1
41
1
10
43.3649581024897
20
10.5241186981632
30
0
41
1
10
43.3210882094167
20
10.5518227959509
30
0
41
1
10
43.2770162605411
20
10.5792127140154
30
0
41
1
10
43.2326256850655
20
10.6060732595583
30
0
0
SPLINE
5
1F9
100
AcDbEntity
8
1
62
256
6
ByLayer
370
13
48
1
60
0
100
AcDbSpline
70
4
71
3
72
10
73
6
40
0
40
0
40
0
40
0
40
0.654900204513161
40
0.654900204513161
40
1
40
1
40
1
40
1
41
1
10
43.2326256850655
20
10.6060732595583
30
0
41
1
10
43.2093808214963
20
10.620138626133
30
0
41
1
10
43.1866679047493
20
10.6353717983152
30
0
41
1
10
43.1550034980856
20
10.6622122939027
30
0
41
1
10
43.1445398484845
20
10.6721988227359
30
0
41
1
10
43.135515563742
20
10.6833503594265
30
0
0
SPLINE
5
1FA
100
AcDbEntity
8
1
62
256
6
ByLayer
370
13
48
1
60
0
100
AcDbSpline
70
4
71
3
72
10
73
6
40
0
40
0
40
0
40
0
40
0.654900204513161
40
0.654900204513161
40
1
40
1
40
1
40
1
41
1
10
43.2326256850655
20
8.89392674044163
30
0
41
1
10
43.2093808214963
20
8.87986137386699
30
0
41
1
10
43.1866679047493
20
8.86462820168478
30
0
41
1
10
43.1550034980856
20
8.8377877060972
30
0
41
1
10
43.1445398484845
20
8.82780117726401
30
0
41
1
10
43.135515563742
20
8.81664964057342
30
0
0
SPLINE
5
1FB
100
AcDbEntity
8
1
62
256
6
ByLayer
370
13
48
1
60
0
100
AcDbSpline
70
4
71
3
72
8
73
4
40
0
40
0
40
0
40
0
40
1
40
1
40
1
40
1
41
1
10
43.3649581024897
20
8.97588130183678
30
0
41
1
10
43.3210882094167
20
8.94817720404905
30
0
41
1
10
43.2770162605411
20
8.92078728598457
30
0
41
1
10
43.2326256850655
20
8.8939267404416
30
0
0
SPLINE
5
1FC
100
AcDbEntity
8
1
62
256
6
ByLayer
370
13
48
1
60
0
100
AcDbSpline
70
4
71
3
72
10
73
6
40
0
40
0
40
0
40
0
40
0.848569790661836
40
0.848569790661836
40
1
40
1
40
1
40
1
41
1
10
43.5256934551194
20
9.12542116877742
30
0
41
1
10
43.4913120258512
20
9.07357908915171
30
0
41
1
10
43.4438979962596
20
9.03012046044068
30
0
41
1
10
43.3838192549264
20
8.98809123961604
30
0
41
1
10
43.374454665912
20
8.981878437988
30
0
41
1
10
43.3649581024897
20
8.97588130183678
30
0
0
SPLINE
5
1FD
100
AcDbEntity
8
1
62
256
6
ByLayer
370
13
48
1
60
0
100
AcDbSpline
70
4
71
3
72
16
73
12
40
0
40
0
40
0
40
0
40
0.0355583019934282
40
0.0355583019934282
40
0.0904281096557084
40
0.0904281096557084
40
0.198001345750339
40
0.198001345750339
40
0.437176612921005
40
0.437176612921005
40
1
40
1
40
1
40
1
41
1
10
43.0647600217524
20
10.7359759393779
30
0
41
1
10
43.0651593706654
20
10.7350095259846
30
0
41
1
10
43.0655599456349
20
10.7340435966873
30
0
41
1
10
43.0665795843354
20
10.7315837044205
30
0
41
1
10
43.0671995476743
20
10.7300901041743
30
0
41
1
10
43.0690371309082
20
10.7256701246157
30
0
41
1
10
43.0702570500455
20
10.7227449890971
30
0
41
1
10
43.0741994345501
20
10.713329978571
30
0
41
1
10
43.0769367796375
20
10.7068505766709
30
0
41
1
10
43.0861842955318
20
10.6852687938578
30
0
41
1
10
43.0928353954249
20
10.6702776439929
30
0
41
1
10
43.0995357068633
20
10.6556360564024
30
0
0
SPLINE
5
1FE
100
AcDbEntity
8
1
62
256
6
ByLayer
370
13
48
1
60
0
100
AcDbSpline
70
4
71
3
72
10
73
6
40
0
40
0
40
0
40
0
40
0.635943996638209
40
0.635943996638209
40
1
40
1
40
1
40
1
41
1
10
43.1901406592828
20
10.5447362745708
30
0
41
1
10
43.1670478691558
20
10.5643206661568
30
0
41
1
10
43.1452589478459
20
10.5859872888782
30
0
41
1
10
43.1163860503718
20
10.624440265537
30
0
41
1
10
43.1069119843145
20
10.6395173411184
30
0
41
1
10
43.0995357068632
20
10.6556360564023
30
0
0
SPLINE
5
1FF
100
AcDbEntity
8
1
62
256
6
ByLayer
370
13
48
1
60
0
100
AcDbSpline
70
4
71
3
72
8
73
4
40
0
40
0
40
0
40
0
40
1
40
1
40
1
40
1
41
1
10
43.0647600217523
20
10.7359759393778
30
0
41
1
10
42.9478211015789
20
10.7665185658306
30
0
41
1
10
42.826489880715
20
10.7813372267107
30
0
41
1
10
42.7060768987951
20
10.7839602664966
30
0
0
SPLINE
5
200
100
AcDbEntity
8
1
62
256
6
ByLayer
370
13
48
1
60
0
100
AcDbSpline
70
4
71
3
72
10
73
6
40
0
40
0
40
0
40
0
40
0.635943996638209
40
0.635943996638209
40
1
40
1
40
1
40
1
41
1
10
43.1901406592828
20
8.95526372542912
30
0
41
1
10
43.1670478691558
20
8.93567933384318
30
0
41
1
10
43.1452589478459
20
8.9140127111217
30
0
41
1
10
43.1163860503718
20
8.87555973446291
30
0
41
1
10
43.1069119843145
20
8.86048265888158
30
0
41
1
10
43.0995357068632
20
8.84436394359761
30
0
0
SPLINE
5
201
100
AcDbEntity
8
1
62
256
6
ByLayer
370
13
48
1
60
0
100
AcDbSpline
70
4
71
3
72
16
73
12
40
0
40
0
40
0
40
0
40
0.0355583019934282
40
0.0355583019934282
40
0.0904281096557084
40
0.0904281096557084
40
0.198001345750339
40
0.198001345750339
40
0.437176612921005
40
0.437176612921005
40
1
40
1
40
1
40
1
41
1
10
43.0647600217524
20
8.76402406062206
30
0
41
1
10
43.0651593706654
20
8.76499047401529
30
0
41
1
10
43.0655599456349
20
8.76595640331263
30
0
41
1
10
43.0665795843354
20
8.76841629557947
30
0
41
1
10
43.0671995476743
20
8.76990989582569
30
0
41
1
10
43.0690371309082
20
8.77432987538421
30
0
41
1
10
43.0702570500455
20
8.77725501090285
30
0
41
1
10
43.0741994345501
20
8.78667002142896
30
0
41
1
10
43.0769367796375
20
8.79314942332906
30
0
41
1
10
43.0861842955318
20
8.81473120614214
30
0
41
1
10
43.0928353954249
20
8.82972235600704
30
0
41
1
10
43.0995357068633
20
8.84436394359759
30
0
0
SPLINE
5
202
100
AcDbEntity
8
1
62
256
6
ByLayer
370
13
48
1
60
0
100
AcDbSpline
70
4
71
3
72
8
73
4
40
0
40
0
40
0
40
0
40
1
40
1
40
1
40
1
41
1
10
43.0647600217523
20
8.76402406062212
30
0
41
1
10
42.9478211015789
20
8.73348143416931
30
0
41
1
10
42.826489880715
20
8.71866277328925
30
0
41
1
10
42.7060768987951
20
8.71603973350329
30
0
0
SPLINE
5
203
100
AcDbEntity
8
1
62
256
6
ByLayer
370
13
48
1
60
0
100
AcDbSpline
70
4
71
3
72
12
73
8
40
0
40
0
40
0
40
0
40
0.351723890194534
40
0.351723890194534
40
0.712129136736367
40
0.712129136736367
40
1
40
1
40
1
40
1
41
1
10
40.9438616980133
20
9.56459684980527
30
0
41
1
10
40.9585427486301
20
9.60555900664542
30
0
41
1
10
40.9694774148618
20
9.64917376001341
30
0
41
1
10
40.9795833503618
20
9.73870095491776
30
0
41
1
10
40.9783942316414
20
9.78553430009765
30
0
41
1
10
40.9654620411648
20
9.86641971124507
30
0
41
1
10
40.9559204052135
20
9.90175769330523
30
0
41
1
10
40.9438616980127
20
9.93540315019615
30
0
0
SPLINE
5
204
100
AcDbEntity
8
1
62
256
6
ByLayer
370
13
48
1
60
0
100
AcDbSpline
70
4
71
3
72
8
73
4
40
0
40
0
40
0
40
0
40
1
40
1
40
1
40
1
41
1
10
39.5995036654583
20
9.95075565179826
30
0
41
1
10
39.6024077881538
20
9.94961545901865
30
0
41
1
10
39.605314019696
20
9.94847539166412
30
0
41
1
10
39.6082223121694
20
9.94733545036502
30
0
0
SPLINE
5
205
100
AcDbEntity
8
1
62
256
6
ByLayer
370
13
48
1
60
0
100
AcDbSpline
70
4
71
3
72
8
73
4
40
0
40
0
40
0
40
0
40
1
40
1
40
1
40
1
41
1
10
39.6082223121694
20
9.55266454963493
30
0
41
1
10
39.605314019696
20
9.55152460833583
30
0
41
1
10
39.6024077881538
20
9.5503845409813
30
0
41
1
10
39.5995036654583
20
9.54924434820168
30
0
0
SPLINE
5
206
100
AcDbEntity
8
1
62
256
6
ByLayer
370
13
48
1
60
0
100
AcDbSpline
70
4
71
3
72
8
73
4
40
0
40
0
40
0
40
0
40
1
40
1
40
1
40
1
41
1
10
39.2282766666319
20
8.87456207185849
30
0
41
1
10
39.2289998534678
20
8.874562071859
30
0
41
1
10
39.2297316666812
20
8.87438863680342
30
0
41
1
10
39.2304097099816
20
8.87401736607058
30
0
0
SPLINE
5
207
100
AcDbEntity
8
1
62
256
6
ByLayer
370
13
48
1
60
0
100
AcDbSpline
70
4
71
3
72
8
73
4
40
0
40
0
40
0
40
0
40
1
40
1
40
1
40
1
41
1
10
39.2304097099816
20
10.6259826339681
30
0
41
1
10
39.2297316666801
20
10.6256113632328
30
0
41
1
10
39.2289998534693
20
10.6254379281353
30
0
41
1
10
39.2282766666318
20
10.6254379281353
30
0
0
SPLINE
5
208
100
AcDbEntity
8
1
62
256
6
ByLayer
370
13
48
1
60
0
100
AcDbSpline
70
4
71
3
72
8
73
4
40
0
40
0
40
0
40
0
40
1
40
1
40
1
40
1
41
1
10
39.4913621168403
20
9.50045269829664
30
0
41
1
10
39.4858744381612
20
9.49945713746484
30
0
41
1
10
39.4809941941611
20
9.49897564445092
30
0
41
1
10
39.4769872801707
20
9.49897564445101
30
0
0
SPLINE
5
209
100
AcDbEntity
8
1
62
256
6
ByLayer
370
13
48
1
60
0
100
AcDbSpline
70
4
71
3
72
8
73
4
40
0
40
0
40
0
40
0
40
1
40
1
40
1
40
1
41
1
10
39.4769872801694
20
10.0010243555529
30
0
41
1
10
39.4809941941598
20
10.0010243555529
30
0
41
1
10
39.4858744381614
20
10.0005428625351
30
0
41
1
10
39.4913621168403
20
9.9995473017033
30
0
0
SPLINE
5
20A
100
AcDbEntity
8
1
62
256
6
ByLayer
370
13
48
1
60
0
100
AcDbSpline
70
4
71
3
72
10
73
6
40
0
40
0
40
0
40
0
40
0.155458310972556
40
0.155458310972556
40
1
40
1
40
1
40
1
41
1
10
43.3213347612452
20
9.03643256334982
30
0
41
1
10
43.3303785370381
20
9.0412526423934
30
0
41
1
10
43.3393254653622
20
9.04625890019909
30
0
41
1
10
43.3954964008332
20
9.0794008739114
30
0
41
1
10
43.4409371698566
20
9.11366729502535
30
0
41
1
10
43.4749845771854
20
9.15677179614693
30
0
0
SPLINE
5
20B
100
AcDbEntity
8
1
62
256
6
ByLayer
370
13
48
1
60
0
100
AcDbSpline
70
4
71
3
72
10
73
6
40
0
40
0
40
0
40
0
40
0.155458310972556
40
0.155458310972556
40
1
40
1
40
1
40
1
41
1
10
43.3213347612452
20
10.4635674366501
30
0
41
1
10
43.3303785370381
20
10.4587473576065
30
0
41
1
10
43.3393254653622
20
10.4537410998008
30
0
41
1
10
43.3954964008332
20
10.4205991260886
30
0
41
1
10
43.4409371698566
20
10.3863327049746
30
0
41
1
10
43.4749845771854
20
10.343228203853
30
0
0
SPLINE
5
20C
100
AcDbEntity
8
1
62
256
6
ByLayer
370
13
48
1
60
0
100
AcDbSpline
70
4
71
3
72
16
73
12
40
0
40
0
40
0
40
0
40
0.0355250902269691
40
0.0355250902269691
40
0.0916529298118418
40
0.0916529298118418
40
0.199749877619611
40
0.199749877619611
40
0.438904840271112
40
0.438904840271112
40
1
40
1
40
1
40
1
41
1
10
43.0647600217524
20
8.76402406062209
30
0
41
1
10
43.0655860030917
20
8.76465708872001
30
0
41
1
10
43.0664129457398
20
8.76528956133672
30
0
41
1
10
43.0685502103392
20
8.76692402472224
30
0
41
1
10
43.0698615812701
20
8.76792567622181
30
0
41
1
10
43.0737020316477
20
8.77085532473799
30
0
41
1
10
43.0762348060014
20
8.77278266245915
30
0
41
1
10
43.0843821111612
20
8.778965257929
30
0
41
1
10
43.090015337342
20
8.78321402947526
30
0
41
1
10
43.1088835392968
20
8.79733271380488
30
0
41
1
10
43.1222269173127
20
8.80711796456757
30
0
41
1
10
43.135515563742
20
8.81664964057342
30
0
0
SPLINE
5
20D
100
AcDbEntity
8
1
62
256
6
ByLayer
370
13
48
1
60
0
100
AcDbSpline
70
4
71
3
72
16
73
12
40
0
40
0
40
0
40
0
40
0.0355250902269691
40
0.0355250902269691
40
0.0916529298118417
40
0.0916529298118417
40
0.199749877619611
40
0.199749877619611
40
0.438904840271112
40
0.438904840271112
40
1
40
1
40
1
40
1
41
1
10
43.0647600217524
20
10.7359759393779
30
0
41
1
10
43.0655860030917
20
10.7353429112799
30
0
41
1
10
43.0664129457398
20
10.7347104386632
30
0
41
1
10
43.0685502103392
20
10.7330759752777
30
0
41
1
10
43.0698615812701
20
10.7320743237782
30
0
41
1
10
43.0737020316477
20
10.7291446752619
30
0
41
1
10
43.0762348060014
20
10.7272173375408
30
0
41
1
10
43.0843821111612
20
10.7210347420709
30
0
41
1
10
43.090015337342
20
10.7167859705247
30
0
41
1
10
43.1088835392968
20
10.7026672861951
30
0
41
1
10
43.1222269173127
20
10.6928820354324
30
0
41
1
10
43.135515563742
20
10.6833503594265
30
0
0
SPLINE
5
20E
100
AcDbEntity
8
1
62
256
6
ByLayer
370
13
48
1
60
0
100
AcDbSpline
70
4
71
3
72
8
73
4
40
0
40
0
40
0
40
0
40
1
40
1
40
1
40
1
41
1
10
42.7060768987951
20
8.71603973350329
30
0
41
1
10
42.5916344595783
20
8.713416391121
30
0
41
1
10
42.474906152167
20
8.71745452422871
30
0
41
1
10
42.3587805434613
20
8.71314870321356
30
0
0
SPLINE
5
20F
100
AcDbEntity
8
1
62
256
6
ByLayer
370
13
48
1
60
0
100
AcDbSpline
70
4
71
3
72
8
73
4
40
0
40
0
40
0
40
0
40
1
40
1
40
1
40
1
41
1
10
42.7060768987951
20
10.7839602664966
30
0
41
1
10
42.5916344595783
20
10.7865836088789
30
0
41
1
10
42.474906152167
20
10.7825454757712
30
0
41
1
10
42.3587805434613
20
10.7868512967864
30
0
0
SPLINE
5
210
100
AcDbEntity
8
1
62
256
6
ByLayer
370
13
48
1
60
0
100
AcDbSpline
70
4
71
3
72
8
73
4
40
0
40
0
40
0
40
0
40
1
40
1
40
1
40
1
41
1
10
43.4749845771854
20
10.343228203853
30
0
41
1
10
43.4822290280936
20
10.3340566261384
30
0
41
1
10
43.489375686801
20
10.3247702002571
30
0
41
1
10
43.4964397360486
20
10.3154215696969
30
0
0
SPLINE
5
211
100
AcDbEntity
8
1
62
256
6
ByLayer
370
13
48
1
60
0
100
AcDbSpline
70
4
71
3
72
12
73
8
40
0
40
0
40
0
40
0
40
0.447676549458682
40
0.447676549458682
40
0.911865963480885
40
0.911865963480885
40
1
40
1
40
1
40
1
41
1
10
43.4964397360486
20
10.3154215696969
30
0
41
1
10
43.5088546309063
20
10.2989915787105
30
0
41
1
10
43.5197349842376
20
10.2811598569943
30
0
41
1
10
43.5363651532997
20
10.2427597147233
30
0
41
1
10
43.5420103553974
20
10.2216639319446
30
0
41
1
10
43.5439641163249
20
10.1963934864672
30
0
41
1
10
43.5441371532748
20
10.1922988701589
30
0
41
1
10
43.5441651422481
20
10.1882057701249
30
0
0
SPLINE
5
212
100
AcDbEntity
8
1
62
256
6
ByLayer
370
13
48
1
60
0
100
AcDbSpline
70
4
71
3
72
14
73
10
40
0
40
0
40
0
40
0
40
0.0334466877100648
40
0.0334466877100648
40
0.147634490130718
40
0.147634490130718
40
0.594775924699149
40
0.594775924699149
40
1
40
1
40
1
40
1
41
1
10
43.0213727254144
20
10.1987731616328
30
0
41
1
10
43.0272002143374
20
10.1989918760625
30
0
41
1
10
43.03302932197
20
10.199164227102
30
0
41
1
10
43.0587574615068
20
10.1997120032925
30
0
41
1
10
43.0786653670229
20
10.1993881038734
30
0
41
1
10
43.176494145549
20
10.1977035844335
30
0
41
1
10
43.2544227194233
20
10.1962526243353
30
0
41
1
10
43.4029558192714
20
10.1925692061203
30
0
41
1
10
43.473564429311
20
10.1905222623142
30
0
41
1
10
43.5441651422594
20
10.1882057701258
30
0
0
SPLINE
5
213
100
AcDbEntity
8
1
62
256
6
ByLayer
370
13
48
1
60
0
100
AcDbSpline
70
4
71
3
72
14
73
10
40
0
40
0
40
0
40
0
40
0.0334466877100648
40
0.0334466877100648
40
0.147634490130718
40
0.147634490130718
40
0.594775924699149
40
0.594775924699149
40
1
40
1
40
1
40
1
41
1
10
43.0213727254144
20
9.30122683836717
30
0
41
1
10
43.0272002143374
20
9.30100812393749
30
0
41
1
10
43.03302932197
20
9.30083577289795
30
0
41
1
10
43.0587574615068
20
9.30028799670748
30
0
41
1
10
43.0786653670229
20
9.30061189612655
30
0
41
1
10
43.176494145549
20
9.30229641556647
30
0
41
1
10
43.2544227194233
20
9.30374737566461
30
0
41
1
10
43.4029558192714
20
9.30743079387966
30
0
41
1
10
43.473564429311
20
9.30947773768574
30
0
41
1
10
43.5441651422594
20
9.31179422987412
30
0
0
SPLINE
5
214
100
AcDbEntity
8
1
62
256
6
ByLayer
370
13
48
1
60
0
100
AcDbSpline
70
4
71
3
72
12
73
8
40
0
40
0
40
0
40
0
40
0.447676549458682
40
0.447676549458682
40
0.911865963480885
40
0.911865963480885
40
1
40
1
40
1
40
1
41
1
10
43.4964397360486
20
9.18457843030299
30
0
41
1
10
43.5088546309063
20
9.20100842128949
30
0
41
1
10
43.5197349842376
20
9.21884014300568
30
0
41
1
10
43.5363651532997
20
9.25724028527662
30
0
41
1
10
43.5420103553974
20
9.27833606805538
30
0
41
1
10
43.5439641163249
20
9.30360651353271
30
0
41
1
10
43.5441371532748
20
9.30770112984106
30
0
41
1
10
43.5441651422481
20
9.31179422987501
30
0
0
SPLINE
5
215
100
AcDbEntity
8
1
62
256
6
ByLayer
370
13
48
1
60
0
100
AcDbSpline
70
4
71
3
72
8
73
4
40
0
40
0
40
0
40
0
40
1
40
1
40
1
40
1
41
1
10
43.4749845771854
20
9.15677179614693
30
0
41
1
10
43.4822290280936
20
9.16594337386155
30
0
41
1
10
43.489375686801
20
9.17522979974285
30
0
41
1
10
43.4964397360486
20
9.18457843030299
30
0
0
SPLINE
5
216
100
AcDbEntity
8
1
62
256
6
ByLayer
370
13
48
1
60
0
100
AcDbSpline
70
4
71
3
72
8
73
4
40
0
40
0
40
0
40
0
40
1
40
1
40
1
40
1
41
1
10
42.3587805434613
20
8.71314870321356
30
0
41
1
10
42.2921381523133
20
8.7109418477946
30
0
41
1
10
42.2252553140707
20
8.71179870695303
30
0
41
1
10
42.1587805434613
20
8.71700205261365
30
0
0
SPLINE
5
217
100
AcDbEntity
8
1
62
256
6
ByLayer
370
13
48
1
60
0
100
AcDbSpline
70
4
71
3
72
8
73
4
40
0
40
0
40
0
40
0
40
1
40
1
40
1
40
1
41
1
10
42.3587805434613
20
10.7868512967864
30
0
41
1
10
42.2921381523133
20
10.7890581522054
30
0
41
1
10
42.2252553140707
20
10.7882012930469
30
0
41
1
10
42.1587805434613
20
10.7829979473863
30
0
0
SPLINE
5
218
100
AcDbEntity
8
1
62
256
6
ByLayer
370
13
48
1
60
0
100
AcDbSpline
70
4
71
3
72
12
73
8
40
0
40
0
40
0
40
0
40
0.708579779368488
40
0.708579779368488
40
0.932133973697437
40
0.932133973697437
40
1
40
1
40
1
40
1
41
1
10
41.9112677608007
20
9.35034072241675
30
0
41
1
10
42.0244377716514
20
9.31480485886817
30
0
41
1
10
42.1446553749491
20
9.29732796467721
30
0
41
1
10
42.3011317076579
20
9.29838381403161
30
0
41
1
10
42.338967387079
20
9.30017856617283
30
0
41
1
10
42.3882933798859
20
9.30189835527165
30
0
41
1
10
42.3997803862395
20
9.30230360033784
30
0
41
1
10
42.4112677608007
20
9.3026981979009
30
0
0
SPLINE
5
219
100
AcDbEntity
8
1
62
256
6
ByLayer
370
13
48
1
60
0
100
AcDbSpline
70
4
71
3
72
12
73
8
40
0
40
0
40
0
40
0
40
0.708579779368488
40
0.708579779368488
40
0.932133973697437
40
0.932133973697437
40
1
40
1
40
1
40
1
41
1
10
41.9112677608007
20
10.1496592775832
30
0
41
1
10
42.0244377716514
20
10.1851951411318
30
0
41
1
10
42.1446553749491
20
10.2026720353228
30
0
41
1
10
42.3011317076579
20
10.2016161859683
30
0
41
1
10
42.338967387079
20
10.1998214338271
30
0
41
1
10
42.3882933798859
20
10.1981016447283
30
0
41
1
10
42.3997803862395
20
10.1976963996621
30
0
41
1
10
42.4112677608007
20
10.197301802099
30
0
0
SPLINE
5
21A
100
AcDbEntity
8
1
62
256
6
ByLayer
370
13
48
1
60
0
100
AcDbSpline
70
4
71
3
72
10
73
6
40
0
40
0
40
0
40
0
40
0.561541747824135
40
0.561541747824135
40
1
40
1
40
1
40
1
41
1
10
43.5970257409067
20
10.1882057701258
30
0
41
1
10
43.5970257409067
20
10.2195113555596
30
0
41
1
10
43.5911036869238
20
10.2511937739819
30
0
41
1
10
43.5723010966289
20
10.3038265408453
30
0
41
1
10
43.5611390447479
20
10.3260755805457
30
0
41
1
10
43.5480538087948
20
10.3468832225976
30
0
0
SPLINE
5
21B
100
AcDbEntity
8
1
62
256
6
ByLayer
370
13
48
1
60
0
100
AcDbSpline
70
4
71
3
72
10
73
6
40
0
40
0
40
0
40
0
40
0.561541747824135
40
0.561541747824135
40
1
40
1
40
1
40
1
41
1
10
43.5970257409067
20
9.31179422987412
30
0
41
1
10
43.5970257409067
20
9.28048864444031
30
0
41
1
10
43.5911036869238
20
9.24880622601808
30
0
41
1
10
43.5723010966289
20
9.19617345915469
30
0
41
1
10
43.5611390447479
20
9.17392441945424
30
0
41
1
10
43.5480538087948
20
9.15311677740232
30
0
0
SPLINE
5
21C
100
AcDbEntity
8
1
62
256
6
ByLayer
370
13
48
1
60
0
100
AcDbSpline
70
4
71
3
72
8
73
4
40
0
40
0
40
0
40
0
40
1
40
1
40
1
40
1
41
1
10
43.5480538087933
20
9.15311677740286
30
0
41
1
10
43.5407025010737
20
9.14376496256713
30
0
41
1
10
43.5332526545728
20
9.1345164868043
30
0
41
1
10
43.5256934551194
20
9.12542116877742
30
0
0
SPLINE
5
21D
100
AcDbEntity
8
1
62
256
6
ByLayer
370
13
48
1
60
0
100
AcDbSpline
70
4
71
3
72
8
73
4
40
0
40
0
40
0
40
0
40
1
40
1
40
1
40
1
41
1
10
43.5480538087933
20
10.3468832225971
30
0
41
1
10
43.5407025010737
20
10.3562350374328
30
0
41
1
10
43.5332526545728
20
10.3654835131956
30
0
41
1
10
43.5256934551194
20
10.3745788312225
30
0
0
SPLINE
5
21E
100
AcDbEntity
8
1
62
256
6
ByLayer
370
13
48
1
60
0
100
AcDbSpline
70
4
71
3
72
12
73
8
40
0
40
0
40
0
40
0
40
0.103790018033927
40
0.103790018033927
40
0.424238012362856
40
0.424238012362856
40
1
40
1
40
1
40
1
41
1
10
42.4112677608007
20
9.3026981979009
30
0
41
1
10
42.4330673288143
20
9.30324733771261
30
0
41
1
10
42.4548777846228
20
9.30355489078116
30
0
41
1
10
42.5437817615811
20
9.30474109482159
30
0
41
1
10
42.6108617198122
20
9.30524774843445
30
0
41
1
10
42.795202236924
20
9.30549814759914
30
0
41
1
10
42.9116787067388
20
9.3042459582152
30
0
41
1
10
43.0213727254144
20
9.30122683836717
30
0
0
SPLINE
5
21F
100
AcDbEntity
8
1
62
256
6
ByLayer
370
13
48
1
60
0
100
AcDbSpline
70
4
71
3
72
12
73
8
40
0
40
0
40
0
40
0
40
0.103790018033927
40
0.103790018033927
40
0.424238012362856
40
0.424238012362856
40
1
40
1
40
1
40
1
41
1
10
42.4112677608007
20
10.197301802099
30
0
41
1
10
42.4330673288143
20
10.1967526622873
30
0
41
1
10
42.4548777846228
20
10.1964451092188
30
0
41
1
10
42.5437817615811
20
10.1952589051784
30
0
41
1
10
42.6108617198122
20
10.1947522515655
30
0
41
1
10
42.795202236924
20
10.1945018524008
30
0
41
1
10
42.9116787067388
20
10.1957540417847
30
0
41
1
10
43.0213727254144
20
10.1987731616328
30
0
0
SPLINE
5
220
100
AcDbEntity
8
1
62
256
6
ByLayer
370
13
48
1
60
0
100
AcDbSpline
70
4
71
3
72
16
73
12
40
0
40
0
40
0
40
0
40
0.0007084940797618
40
0.0007084940797618
40
0.283937687189524
40
0.283937687189524
40
0.567818407080674
40
0.567818407080674
40
0.999291505920235
40
0.999291505920235
40
1
40
1
40
1
40
1
41
1
10
41.8289221872925
20
9.3699800948356
30
0
41
1
10
41.828941627443
20
9.3699754913859
30
0
41
1
10
41.8289610676156
20
9.36997088796073
30
0
41
1
10
41.8367519568993
20
9.36812598923458
30
0
41
1
10
41.8445252383642
20
9.36628173244617
30
0
41
1
10
41.8600911151086
20
9.36258094452182
30
0
41
1
10
41.8678840471777
20
9.36072423995387
30
0
41
1
10
41.8875212263735
20
9.35603587395843
30
0
41
1
10
41.8993665335016
20
9.35319899647672
30
0
41
1
10
41.911228866792
20
9.3503500635131
30
0
41
1
10
41.9112483137939
20
9.35034539295464
30
0
41
1
10
41.9112677608007
20
9.35034072241675
30
0
0
SPLINE
5
221
100
AcDbEntity
8
1
62
256
6
ByLayer
370
13
48
1
60
0
100
AcDbSpline
70
4
71
3
72
16
73
12
40
0
40
0
40
0
40
0
40
0.0007084940797618
40
0.0007084940797618
40
0.283937687189524
40
0.283937687189524
40
0.567818407080674
40
0.567818407080674
40
0.999291505920235
40
0.999291505920235
40
1
40
1
40
1
40
1
41
1
10
41.8289221872925
20
10.1300199051643
30
0
41
1
10
41.8289416274202
20
10.130024508756
30
0
41
1
10
41.8289610676156
20
10.1300291120392
30
0
41
1
10
41.8367519568993
20
10.1318740107654
30
0
41
1
10
41.8445252383642
20
10.1337182675538
30
0
41
1
10
41.8600911151086
20
10.1374190554781
30
0
41
1
10
41.8678840471777
20
10.1392757600461
30
0
41
1
10
41.8875212263735
20
10.1439641260415
30
0
41
1
10
41.8993665335016
20
10.1468010035232
30
0
41
1
10
41.911228866792
20
10.1496499364868
30
0
41
1
10
41.9112483137594
20
10.1496546071888
30
0
41
1
10
41.9112677608007
20
10.1496592775832
30
0
0
SPLINE
5
222
100
AcDbEntity
8
1
62
256
6
ByLayer
370
13
48
1
60
0
100
AcDbSpline
70
4
71
3
72
8
73
4
40
0
40
0
40
0
40
0
40
1
40
1
40
1
40
1
41
1
10
41.8289221872925
20
9.74999999999997
30
0
41
1
10
41.8563707117952
20
9.74999999999997
30
0
41
1
10
41.883819236298
20
9.74999999999997
30
0
41
1
10
41.9112677608007
20
9.74999999999997
30
0
0
SPLINE
5
223
100
AcDbEntity
8
1
62
256
6
ByLayer
370
18
48
1
60
0
100
AcDbSpline
70
4
71
3
72
8
73
4
40
0
40
0
40
0
40
0
40
1
40
1
40
1
40
1
41
1
10
-9.40454881002674
20
-0.324980947161663
30
0
41
1
10
-9.34846004046801
20
-0.324980947161691
30
0
41
1
10
-9.28900630985683
20
-0.31869496716709
30
0
41
1
10
-9.22947581257566
20
-0.310875644344577
30
0
0
SPLINE
5
224
100
AcDbEntity
8
1
62
256
6
ByLayer
370
18
48
1
60
0
100
AcDbSpline
70
4
71
3
72
12
73
8
40
0
40
0
40
0
40
0
40
0.309978170957349
40
0.309978170957349
40
0.914100099190282
40
0.914100099190282
40
1
40
1
40
1
40
1
41
1
10
-11.0234674519018
20
-0.324980947170928
30
0
41
1
10
-11.0165910359161
20
-0.32498094716982
30
0
41
1
10
-11.0083932398606
20
-0.323570006052421
30
0
41
1
10
-10.9824416996123
20
-0.316682630182555
30
0
41
1
10
-10.9626023344069
20
-0.308594995545576
30
0
41
1
10
-10.9393732267815
20
-0.297455602783401
30
0
41
1
10
-10.9364708492725
20
-0.296035245867017
30
0
41
1
10
-10.9335512174316
20
-0.294578846202739
30
0
0
SPLINE
5
225
100
AcDbEntity
8
1
62
256
6
ByLayer
370
18
48
1
60
0
100
AcDbSpline
70
4
71
3
72
8
73
4
40
0
40
0
40
0
40
0
40
1
40
1
40
1
40
1
41
1
10
-9.65715131095578
20
-0.132506028025262
30
0
41
1
10
-9.76123627902163
20
-0.169241188379061
30
0
41
1
10
-9.86434587433698
20
-0.208478326897278
30
0
41
1
10
-9.96637832280638
20
-0.249980947161504
30
0
0
SPLINE
5
226
100
AcDbEntity
8
1
62
256
6
ByLayer
370
18
48
1
60
0
100
AcDbSpline
70
4
71
3
72
8
73
4
40
0
40
0
40
0
40
0
40
1
40
1
40
1
40
1
41
1
10
9.65715131095578
20
-0.132506028025262
30
0
41
1
10
9.76123627902163
20
-0.16924118837909
30
0
41
1
10
9.86434587433698
20
-0.208478326897278
30
0
41
1
10
9.96637832280638
20
-0.249980947161504
30
0
0
SPLINE
5
227
100
AcDbEntity
8
1
62
256
6
ByLayer
370
18
48
1
60
0
100
AcDbSpline
70
4
71
3
72
12
73
8
40
0
40
0
40
0
40
0
40
0.314377362618994
40
0.314377362618994
40
0.92707295312336
40
0.92707295312336
40
1
40
1
40
1
40
1
41
1
10
11.0234674519018
20
-0.324980947170928
30
0
41
1
10
11.0165910359161
20
-0.32498094716982
30
0
41
1
10
11.0083932398606
20
-0.323570006052421
30
0
41
1
10
10.9824416996123
20
-0.316682630182584
30
0
41
1
10
10.9626023344069
20
-0.308594995545576
30
0
41
1
10
10.9398428532867
20
-0.297680809630691
30
0
41
1
10
10.9374159430748
20
-0.296497000857471
30
0
41
1
10
10.9349766839354
20
-0.295287724163415
30
0
0
SPLINE
5
228
100
AcDbEntity
8
1
62
256
6
ByLayer
370
18
48
1
60
0
100
AcDbSpline
70
4
71
3
72
8
73
4
40
0
40
0
40
0
40
0
40
1
40
1
40
1
40
1
41
1
10
9.40454881002671
20
-0.324980947161663
30
0
41
1
10
9.34846004046801
20
-0.324980947161691
30
0
41
1
10
9.28900630985677
20
-0.31869496716709
30
0
41
1
10
9.22947581257563
20
-0.310875644344577
30
0
0
SPLINE
5
229
100
AcDbEntity
8
1
62
256
6
ByLayer
370
18
48
1
60
0
100
AcDbSpline
70
4
71
3
72
22
73
18
40
0
40
0
40
0
40
0
40
0.178865598239802
40
0.178865598239802
40
0.333948743761287
40
0.333948743761287
40
0.45545894255435
40
0.45545894255435
40
0.557751029167339
40
0.557751029167339
40
0.660327139873267
40
0.660327139873267
40
0.75936733904929
40
0.75936733904929
40
0.901760049528622
40
0.901760049528622
40
1
40
1
40
1
40
1
41
1
10
15.5356555966799
20
0.394519052838319
30
0
41
1
10
15.5522829965869
20
0.40962220103313
30
0
41
1
10
15.568553023354
20
0.423976551510492
30
0
41
1
10
15.5963653595426
20
0.44750675583154
30
0
41
1
10
15.6084982993522
20
0.457321492633383
30
0
41
1
10
15.6264263810834
20
0.47065927340816
30
0
41
1
10
15.6331694048322
20
0.475180169869446
30
0
41
1
10
15.6417753756047
20
0.479568294692399
30
0
41
1
10
15.6443028607756
20
0.480073927107895
30
0
41
1
10
15.6457515436026
20
0.477612615054767
30
0
41
1
10
15.6446729406514
20
0.474596132329168
30
0
41
1
10
15.639368742115
20
0.465829997804804
30
0
41
1
10
15.6352144142513
20
0.460097160979672
30
0
41
1
10
15.6225870266212
20
0.444099065418953
30
0
41
1
10
15.6128576054198
20
0.432720137787669
30
0
41
1
10
15.5946551334517
20
0.412307204464298
30
0
41
1
10
15.5866093430678
20
0.403505556286547
30
0
41
1
10
15.5782416750557
20
0.394519052838319
30
0
0
SPLINE
5
22A
100
AcDbEntity
8
1
62
256
6
ByLayer
370
18
48
1
60
0
100
AcDbSpline
70
4
71
3
72
8
73
4
40
0
40
0
40
0
40
0
40
1
40
1
40
1
40
1
41
1
10
-10.8261977204867
20
0.394519052838319
30
0
41
1
10
-10.3636372717123
20
0.169952411830309
30
0
41
1
10
-9.89494647866684
20
-0.0454688023105234
30
0
41
1
10
-9.420146049799
20
-0.249980947161674
30
0
0
SPLINE
5
22B
100
AcDbEntity
8
1
62
256
6
ByLayer
370
18
48
1
60
0
100
AcDbSpline
70
4
71
3
72
8
73
4
40
0
40
0
40
0
40
0
40
1
40
1
40
1
40
1
41
1
10
-6.22292588126976
20
-0.249980947141125
30
0
41
1
10
-6.46647219368259
20
-0.0379421778026483
30
0
41
1
10
-6.7065013514862
20
0.17715199684153
30
0
41
1
10
-6.94370199057266
20
0.394519052838319
30
0
0
SPLINE
5
22C
100
AcDbEntity
8
1
62
256
6
ByLayer
370
18
48
1
60
0
100
AcDbSpline
70
4
71
3
72
14
73
10
40
0
40
0
40
0
40
0
40
0.367430351557454
40
0.367430351557454
40
0.635305398553984
40
0.635305398553984
40
0.858922027746181
40
0.858922027746181
40
1
40
1
40
1
40
1
41
1
10
15.0732541015804
20
-0.249980947161674
30
0
41
1
10
15.0592275144155
20
-0.264130899040481
30
0
41
1
10
15.0457752271129
20
-0.27774400827451
30
0
41
1
10
15.0257367688889
20
-0.298096914428157
30
0
41
1
10
15.0181157045468
20
-0.305864790053278
30
0
41
1
10
15.0073653477873
20
-0.316879956538202
30
0
41
1
10
15.0036169228056
20
-0.320749585109383
30
0
41
1
10
15.0002693224851
20
-0.324272713318436
30
0
41
1
10
14.99962457845
20
-0.32498094716172
30
0
41
1
10
14.9996805655565
20
-0.32498094716172
30
0
0
SPLINE
5
22D
100
AcDbEntity
8
1
62
256
6
ByLayer
370
18
48
1
60
0
100
AcDbSpline
70
4
71
3
72
26
73
22
40
0
40
0
40
0
40
0
40
0.0312500000000001
40
0.0312500000000001
40
0.0625000000000001
40
0.0625000000000001
40
0.125
40
0.125
40
0.25
40
0.25
40
0.5
40
0.5
40
0.75
40
0.75
40
0.875
40
0.875
40
0.9375
40
0.9375
40
0.96875
40
0.96875
40
1
40
1
40
1
40
1
41
1
10
-1.91224221527452
20
0.39451905284318
30
0
41
1
10
-1.95367444877496
20
0.406324370581871
30
0
41
1
10
-1.98746154239728
20
0.439272216727005
30
0
41
1
10
-1.90884184778318
20
0.460630769935534
30
0
41
1
10
-1.8654803126127
20
0.463993071207426
30
0
41
1
10
-1.73764538957636
20
0.473972136578624
30
0
41
1
10
-1.65102511892329
20
0.476174861694858
30
0
41
1
10
-1.39159588783573
20
0.480678675815966
30
0
41
1
10
-1.21804078248547
20
0.479621542873531
30
0
41
1
10
-0.696617515176342
20
0.476143979777078
30
0
41
1
10
-0.348495379296281
20
0.47269752349618
30
0
41
1
10
0.346337288191933
20
0.472686789337132
30
0
41
1
10
0.693468026598083
20
0.476104976342015
30
0
41
1
10
1.21344427037604
20
0.479599726343054
30
0
41
1
10
1.38665742916626
20
0.480670638880554
30
0
41
1
10
1.64605540813437
20
0.47630602842321
30
0
41
1
10
1.73246557979124
20
0.474189774064996
30
0
41
1
10
1.86175165882935
20
0.46437076888293
30
0
41
1
10
1.90571859291279
20
0.461023043723884
30
0
41
1
10
1.98633854565875
20
0.440009744028004
30
0
41
1
10
1.9545596171161
20
0.406576582267832
30
0
41
1
10
1.91224221525752
20
0.394519052838348
30
0
0
SPLINE
5
22E
100
AcDbEntity
8
1
62
256
6
ByLayer
370
18
48
1
60
0
100
AcDbSpline
70
4
71
3
72
8
73
4
40
0
40
0
40
0
40
0
40
1
40
1
40
1
40
1
41
1
10
-6.31056345909084
20
0.394519052838035
30
0
41
1
10
-5.23174171602631
20
0.111228400779481
30
0
41
1
10
-4.1359861011268
20
-0.107222523982642
30
0
41
1
10
-3.02046224884998
20
-0.249980947161646
30
0
0
SPLINE
5
22F
100
AcDbEntity
8
1
62
256
6
ByLayer
370
18
48
1
60
0
100
AcDbSpline
70
4
71
3
72
22
73
18
40
0
40
0
40
0
40
0
40
0.525219663020727
40
0.525219663020727
40
0.66713328715023
40
0.66713328715023
40
0.766268598112303
40
0.766268598112303
40
0.821760925541373
40
0.821760925541373
40
0.866355311823556
40
0.866355311823556
40
0.911384894499083
40
0.911384894499083
40
0.950928332518213
40
0.950928332518213
40
1
40
1
40
1
40
1
41
1
10
8.98692851463403
20
0.394519052838405
30
0
41
1
10
9.08313778017265
20
0.431842530483323
30
0
41
1
10
9.18243562077984
20
0.461763974801869
30
0
41
1
10
9.2991866206952
20
0.477933450542366
30
0
41
1
10
9.32400286622908
20
0.480028263918115
30
0
41
1
10
9.36310522377877
20
0.478990945845169
30
0
41
1
10
9.37857693777281
20
0.477245184085405
30
0
41
1
10
9.39890248597831
20
0.470590802692129
30
0
41
1
10
9.40551824792112
20
0.467335387275824
30
0
41
1
10
9.41458874391833
20
0.459411465515387
30
0
41
1
10
9.41764965302434
20
0.455046003742922
30
0
41
1
10
9.42065665057328
20
0.444862357391372
30
0
41
1
10
9.42057359169493
20
0.438875845679036
30
0
41
1
10
9.41746995235724
20
0.427130358448835
30
0
41
1
10
9.41480489744671
20
0.421308424699134
30
0
41
1
10
9.40707457591338
20
0.408478998308823
30
0
41
1
10
9.40154209077858
20
0.401366576716839
30
0
41
1
10
9.39538846339318
20
0.394519052837154
30
0
0
SPLINE
5
230
100
AcDbEntity
8
1
62
256
6
ByLayer
370
18
48
1
60
0
100
AcDbSpline
70
4
71
3
72
20
73
16
40
0
40
0
40
0
40
0
40
0.0782700489531504
40
0.0782700489531504
40
0.217081097569791
40
0.217081097569791
40
0.319714950977513
40
0.319714950977513
40
0.422221310200599
40
0.422221310200599
40
0.564519788257764
40
0.564519788257764
40
0.806526878283856
40
0.806526878283856
40
1
40
1
40
1
40
1
41
1
10
9.83200555996117
20
-0.249980947154484
30
0
41
1
10
9.83525242125867
20
-0.253462276162509
30
0
41
1
10
9.83829540701822
20
-0.25702339225154
30
0
41
1
10
9.84582373804216
20
-0.266969211539418
30
0
41
1
10
9.84972810843354
20
-0.27360328337852
30
0
41
1
10
9.85343844539801
20
-0.284613533261165
30
0
41
1
10
9.85405201415648
20
-0.289228006150665
30
0
41
1
10
9.85306866934107
20
-0.297499957250721
30
0
41
1
10
9.85147163547688
20
-0.30125540053973
30
0
41
1
10
9.84571342562151
20
-0.308849005346929
30
0
41
1
10
9.8407627917974
20
-0.312313484880264
30
0
41
1
10
9.82546059476923
20
-0.319500000838531
30
0
41
1
10
9.81354778547086
20
-0.321985033876416
30
0
41
1
10
9.791073782447
20
-0.324536234191044
30
0
41
1
10
9.78054069051169
20
-0.324980947182013
30
0
41
1
10
9.76977062536781
20
-0.324980947181274
30
0
0
SPLINE
5
231
100
AcDbEntity
8
1
62
256
6
ByLayer
370
18
48
1
60
0
100
AcDbSpline
70
4
71
3
72
18
73
14
40
0
40
0
40
0
40
0
40
0.162902450377397
40
0.162902450377397
40
0.366852175854903
40
0.366852175854903
40
0.537713683465904
40
0.537713683465904
40
0.708673754670337
40
0.708673754670337
40
0.922911607884422
40
0.922911607884422
40
1
40
1
40
1
40
1
41
1
10
-11.9237814416138
20
-0.324980947163056
30
0
41
1
10
-11.918170764532
20
-0.324980947163084
30
0
41
1
10
-11.9129518878175
20
-0.324439609695361
30
0
41
1
10
-11.9027345546503
20
-0.321657051926849
30
0
41
1
10
-11.8980307324232
20
-0.318960951327966
30
0
41
1
10
-11.8926021349242
20
-0.311570210018687
30
0
41
1
10
-11.8913307960847
20
-0.307172178919643
30
0
41
1
10
-11.8916776359247
20
-0.296862843094658
30
0
41
1
10
-11.8932995073009
20
-0.290829461483753
30
0
41
1
10
-11.8995615525351
20
-0.276533486596378
30
0
41
1
10
-11.9049078359011
20
-0.267891502873255
30
0
41
1
10
-11.9135259624943
20
-0.256216980493008
30
0
41
1
10
-11.915963084937
20
-0.253095025214918
30
0
41
1
10
-11.9185094462047
20
-0.249980947160964
30
0
0
SPLINE
5
232
100
AcDbEntity
8
1
62
256
6
ByLayer
370
18
48
1
60
0
100
AcDbSpline
70
4
71
3
72
8
73
4
40
0
40
0
40
0
40
0
40
1
40
1
40
1
40
1
41
1
10
-14.1255646241438
20
0.394519052838319
30
0
41
1
10
-13.821933986661
20
0.176823691691681
30
0
41
1
10
-13.5156694864504
20
-0.0381530827979475
30
0
41
1
10
-13.2065548385553
20
-0.249980947161674
30
0
0
SPLINE
5
233
100
AcDbEntity
8
1
62
256
6
ByLayer
370
18
48
1
60
0
100
AcDbSpline
70
4
71
3
72
12
73
8
40
0
40
0
40
0
40
0
40
0.18709029616942
40
0.18709029616942
40
0.543094633370729
40
0.543094633370729
40
1
40
1
40
1
40
1
41
1
10
13.0480635116143
20
-0.324980947169223
30
0
41
1
10
13.0549624170436
20
-0.324980947168314
30
0
41
1
10
13.0631671541132
20
-0.323499309088135
30
0
41
1
10
13.0887039678359
20
-0.316306266344782
30
0
41
1
10
13.1079917011475
20
-0.307940673435724
30
0
41
1
10
13.1530531925814
20
-0.284689675204646
30
0
41
1
10
13.1798976719487
20
-0.268248378714077
30
0
41
1
10
13.2065548385553
20
-0.249980947161674
30
0
0
SPLINE
5
234
100
AcDbEntity
8
1
62
256
6
ByLayer
370
18
48
1
60
0
100
AcDbSpline
70
4
71
3
72
20
73
16
40
0
40
0
40
0
40
0
40
0.0875813217047806
40
0.0875813217047806
40
0.237504420911573
40
0.237504420911573
40
0.349404051864385
40
0.349404051864385
40
0.461003689020085
40
0.461003689020085
40
0.623095268981751
40
0.623095268981751
40
0.903463262378061
40
0.903463262378061
40
1
40
1
40
1
40
1
41
1
10
8.81287846405175
20
-0.249980947155791
30
0
41
1
10
8.80943603988072
20
-0.253766702350987
30
0
41
1
10
8.80622370292224
20
-0.257635494335631
30
0
41
1
10
8.79853363640359
20
-0.268168928287281
30
0
41
1
10
8.79466199608734
20
-0.275071939030596
30
0
41
1
10
8.79114982092597
20
-0.28644336161338
30
0
41
1
10
8.79068049685563
20
-0.291190014766102
30
0
41
1
10
8.79200279820444
20
-0.299600397228147
30
0
41
1
10
8.7937895616268
20
-0.303366213457991
30
0
41
1
10
8.80013098536276
20
-0.311113427404393
30
0
41
1
10
8.80561155549782
20
-0.314594943469302
30
0
41
1
10
8.82257307161166
20
-0.321649505330555
30
0
41
1
10
8.83576051227678
20
-0.323736521178262
30
0
41
1
10
8.85427199496274
20
-0.324850505366129
30
0
41
1
10
8.85914102755717
20
-0.324980947162288
30
0
41
1
10
8.86408179867593
20
-0.32498094716226
30
0
0
SPLINE
5
235
100
AcDbEntity
8
1
62
256
6
ByLayer
370
18
48
1
60
0
100
AcDbSpline
70
4
71
3
72
22
73
18
40
0
40
0
40
0
40
0
40
0.181772850343082
40
0.181772850343082
40
0.32281551984505
40
0.32281551984505
40
0.437578610523973
40
0.437578610523973
40
0.553408878823885
40
0.553408878823885
40
0.654532489364973
40
0.654532489364973
40
0.758894757369998
40
0.758894757369998
40
0.920738959234214
40
0.920738959234214
40
1
40
1
40
1
40
1
41
1
10
15.6938926902978
20
0.394519052838319
30
0
41
1
10
15.7100993995085
20
0.410183154935709
30
0
41
1
10
15.7257901851152
20
0.425172077720617
30
0
41
1
10
15.7504758169639
20
0.448354013349416
30
0
41
1
10
15.7603897296714
20
0.457507515141884
30
0
41
1
10
15.7746927533701
20
0.470312785284051
30
0
41
1
10
15.7798802943113
20
0.474769109577323
30
0
41
1
10
15.7862985998495
20
0.479711279410424
30
0
41
1
10
15.7875454625328
20
0.480191571095389
30
0
41
1
10
15.7857074032174
20
0.477019245593283
30
0
41
1
10
15.783143433935
20
0.473857813432858
30
0
41
1
10
15.7752327443485
20
0.464861402071307
30
0
41
1
10
15.7697341400886
20
0.458865204825401
30
0
41
1
10
15.7534702772872
20
0.441503109410888
30
0
41
1
10
15.741236064848
20
0.428738371857321
30
0
41
1
10
15.7216384663189
20
0.408527141991868
30
0
41
1
10
15.7148822671471
20
0.401595001924392
30
0
41
1
10
15.707957879066
20
0.394519052838319
30
0
0
SPLINE
5
236
100
AcDbEntity
8
1
62
256
6
ByLayer
370
18
48
1
60
0
100
AcDbSpline
70
4
71
3
72
8
73
4
40
0
40
0
40
0
40
0
40
1
40
1
40
1
40
1
41
1
10
12.4454802424853
20
0.394519052838319
30
0
41
1
10
12.2698302504263
20
0.179681463779445
30
0
41
1
10
12.0941736247426
20
-0.0351520577178803
30
0
41
1
10
11.9185094462047
20
-0.249980947160992
30
0
0
SPLINE
5
237
100
AcDbEntity
8
1
62
256
6
ByLayer
370
18
48
1
60
0
100
AcDbSpline
70
4
71
3
72
8
73
4
40
0
40
0
40
0
40
0
40
1
40
1
40
1
40
1
41
1
10
-13.2887133686799
20
0.394519052838319
30
0
41
1
10
-12.9499086383337
20
0.175618156092071
30
0
41
1
10
-12.6077271251985
20
-0.039431113194496
30
0
41
1
10
-12.2619374897428
20
-0.249980947161674
30
0
0
SPLINE
5
238
100
AcDbEntity
8
1
62
256
6
ByLayer
370
18
48
1
60
0
100
AcDbSpline
70
4
71
3
72
12
73
8
40
0
40
0
40
0
40
0
40
0.250501186961752
40
0.250501186961752
40
0.690759397520652
40
0.690759397520652
40
1
40
1
40
1
40
1
41
1
10
12.0749439034002
20
-0.32498094716172
30
0
41
1
10
12.0870297057275
20
-0.324980947160526
30
0
41
1
10
12.101271621459
20
-0.322332695747036
30
0
41
1
10
12.142259790453
20
-0.310893880716208
30
0
41
1
10
12.1711060415636
20
-0.298818023442664
30
0
41
1
10
12.2204611517658
20
-0.274155071989668
30
0
41
1
10
12.2412480564073
20
-0.262578654863177
30
0
41
1
10
12.2619374897428
20
-0.249980947161703
30
0
0
SPLINE
5
239
100
AcDbEntity
8
1
62
256
6
ByLayer
370
18
48
1
60
0
100
AcDbSpline
70
4
71
3
72
20
73
16
40
0
40
0
40
0
40
0
40
0.278928968982882
40
0.278928968982882
40
0.430787869034953
40
0.430787869034953
40
0.584804254833635
40
0.584804254833635
40
0.697680278628949
40
0.697680278628949
40
0.810547895831329
40
0.810547895831329
40
0.962053583533758
40
0.962053583533758
40
1
40
1
40
1
40
1
41
1
10
-8.86408179867624
20
-0.32498094716172
30
0
41
1
10
-8.84991457610059
20
-0.32498094716172
30
0
41
1
10
-8.8361877163392
20
-0.323950561370879
30
0
41
1
10
-8.81741609014003
20
-0.319480728041412
30
0
41
1
10
-8.81119517893785
20
-0.317307132825988
30
0
41
1
10
-8.80063120771732
20
-0.311296877214829
30
0
41
1
10
-8.79621539706463
20
-0.307340233842524
30
0
41
1
10
-8.79174178093083
20
-0.298755681521612
30
0
41
1
10
-8.79082747453774
20
-0.29449016374079
30
0
41
1
10
-8.79134609699625
20
-0.285301639069218
30
0
41
1
10
-8.79277969429364
20
-0.280275914507968
30
0
41
1
10
-8.79823224312477
20
-0.268506710673847
30
0
41
1
10
-8.80299566985462
20
-0.261582669591434
30
0
41
1
10
-8.80992645045384
20
-0.253291093630395
30
0
41
1
10
-8.81137987661211
20
-0.251628996584913
30
0
41
1
10
-8.8128784640478
20
-0.24998094716139
30
0
0
SPLINE
5
23A
100
AcDbEntity
8
1
62
256
6
ByLayer
370
18
48
1
60
0
100
AcDbSpline
70
4
71
3
72
22
73
18
40
0
40
0
40
0
40
0
40
0.276904862057262
40
0.276904862057262
40
0.440378089561781
40
0.440378089561781
40
0.567349638111103
40
0.567349638111103
40
0.66227047263863
40
0.66227047263863
40
0.758052620965399
40
0.758052620965399
40
0.842833993820813
40
0.842833993820813
40
0.95626125222019
40
0.95626125222019
40
1
40
1
40
1
40
1
41
1
10
14.1255646241438
20
0.394519052838319
30
0
41
1
10
14.1561027751906
20
0.416414122044813
30
0
41
1
10
14.1868111743156
20
0.436225978985306
30
0
41
1
10
14.2318216524419
20
0.460666721959285
30
0
41
1
10
14.2480310969721
20
0.468340165783815
30
0
41
1
10
14.2733112414394
20
0.477271802943164
30
0
41
1
10
14.2833756903394
20
0.479627936026532
30
0
41
1
10
14.2968992872168
20
0.479430659435963
30
0
41
1
10
14.301472156284
20
0.477922129125829
30
0
41
1
10
14.3067775057108
20
0.471561147519083
30
0
41
1
10
14.3075089447586
20
0.46655366965112
30
0
41
1
10
14.3049671316133
20
0.454514737126033
30
0
41
1
10
14.302134465377
20
0.447652764003806
30
0
41
1
10
14.2927061874223
20
0.430323679530602
30
0
41
1
10
14.2850661591479
20
0.419171414471265
30
0
41
1
10
14.2729092274056
20
0.403456909170046
30
0
41
1
10
14.2693133690861
20
0.398997673434451
30
0
41
1
10
14.2655750866985
20
0.394519052838319
30
0
0
SPLINE
5
23B
100
AcDbEntity
8
1
62
256
6
ByLayer
370
18
48
1
60
0
100
AcDbSpline
70
4
71
3
72
8
73
4
40
0
40
0
40
0
40
0
40
1
40
1
40
1
40
1
41
1
10
9.420146049799
20
-0.249980947161674
30
0
41
1
10
9.89494647866684
20
-0.0454688023105234
30
0
41
1
10
10.3636372717123
20
0.169952411830309
30
0
41
1
10
10.8261977204867
20
0.394519052838319
30
0
0
SPLINE
5
23C
100
AcDbEntity
8
1
62
256
6
ByLayer
370
18
48
1
60
0
100
AcDbSpline
70
4
71
3
72
20
73
16
40
0
40
0
40
0
40
0
40
0.110997941837659
40
0.110997941837659
40
0.182855767056561
40
0.182855767056561
40
0.255583965819778
40
0.255583965819778
40
0.320826318216314
40
0.320826318216314
40
0.421508907020666
40
0.421508907020666
40
0.611537958607743
40
0.611537958607743
40
1
40
1
40
1
40
1
41
1
10
6.22292588126999
20
-0.249980947140926
30
0
41
1
10
6.21700189086698
20
-0.25513855195814
30
0
41
1
10
6.21153119273689
20
-0.260669889630805
30
0
41
1
10
6.20460106979363
20
-0.270220289161159
30
0
41
1
10
6.20238635324549
20
-0.27417030417547
30
0
41
1
10
6.19977205631105
20
-0.2819633183897
30
0
41
1
10
6.19939409326147
20
-0.285900877531361
30
0
41
1
10
6.20063898426443
20
-0.292662400721298
30
0
41
1
10
6.20205658937482
20
-0.295638285126017
30
0
41
1
10
6.20709265777455
20
-0.302267216638882
30
0
41
1
10
6.21151315690375
20
-0.305559324929504
30
0
41
1
10
6.22579726086587
20
-0.313316566644829
30
0
41
1
10
6.23722001595649
20
-0.316553369882399
30
0
41
1
10
6.27303292021031
20
-0.323671640508792
30
0
41
1
10
6.29947387788931
20
-0.324980947161691
30
0
41
1
10
6.32610759209336
20
-0.324980947161663
30
0
0
SPLINE
5
23D
100
AcDbEntity
8
1
62
256
6
ByLayer
370
18
48
1
60
0
100
AcDbSpline
70
4
71
3
72
12
73
8
40
0
40
0
40
0
40
0
40
0.270493766512464
40
0.270493766512464
40
0.937473171635053
40
0.937473171635053
40
1
40
1
40
1
40
1
41
1
10
9.13284665392285
20
-0.32498094716172
30
0
41
1
10
9.1563098934038
20
-0.324980947160583
30
0
41
1
10
9.18164916525356
20
-0.321893661506039
30
0
41
1
10
9.27013861207982
20
-0.305719778991829
30
0
41
1
10
9.33664638771847
20
-0.284503252289255
30
0
41
1
10
9.40783697801413
20
-0.255222466306066
30
0
41
1
10
9.41399493183226
20
-0.252630435772346
30
0
41
1
10
9.420146049799
20
-0.249980947161703
30
0
0
SPLINE
5
23E
100
AcDbEntity
8
1
62
256
6
ByLayer
370
18
48
1
60
0
100
AcDbSpline
70
4
71
3
72
14
73
10
40
0
40
0
40
0
40
0
40
0.163922202963386
40
0.163922202963386
40
0.447629355473066
40
0.447629355473066
40
0.853626542417345
40
0.853626542417345
40
1
40
1
40
1
40
1
41
1
10
14.3404094665877
20
-0.324980947162061
30
0
41
1
10
14.343576822164
20
-0.324980947162004
30
0
41
1
10
14.3477860924133
20
-0.323899409094537
30
0
41
1
10
14.3611013135176
20
-0.318667391324482
30
0
41
1
10
14.3717227233429
20
-0.312798470757315
30
0
41
1
10
14.3995130838981
20
-0.295161885386847
30
0
41
1
10
14.4180448798573
20
-0.281660834956625
30
0
41
1
10
14.4438308966933
20
-0.261397956646505
30
0
41
1
10
14.4508107418718
20
-0.255772547828514
30
0
41
1
10
14.4578369788356
20
-0.249980947161674
30
0
0
SPLINE
5
23F
100
AcDbEntity
8
1
62
256
6
ByLayer
370
18
48
1
60
0
100
AcDbSpline
70
4
71
3
72
16
73
12
40
0
40
0
40
0
40
0
40
0.22741571292796
40
0.22741571292796
40
0.457641561796661
40
0.457641561796661
40
0.690417551127987
40
0.690417551127987
40
0.889707449012444
40
0.889707449012444
40
1
40
1
40
1
40
1
41
1
10
13.7271595028412
20
-0.249980947161532
30
0
41
1
10
13.7197430906429
20
-0.258850837079848
30
0
41
1
10
13.7129109428634
20
-0.267684371409871
30
0
41
1
10
13.7014187703802
20
-0.284464549269558
30
0
41
1
10
13.6966939348733
20
-0.292566649093658
30
0
41
1
10
13.6907758907585
20
-0.306502066570943
30
0
41
1
10
13.6895799417863
20
-0.312486515213322
30
0
41
1
10
13.6911409179432
20
-0.320329787434986
30
0
41
1
10
13.6933579231819
20
-0.3227653936938
30
0
41
1
10
13.6985867822314
20
-0.324660810844762
30
0
41
1
10
13.7008168382724
20
-0.324980947161748
30
0
41
1
10
13.7033273915928
20
-0.324980947161748
30
0
0
SPLINE
5
240
100
AcDbEntity
8
1
62
256
6
ByLayer
370
18
48
1
60
0
100
AcDbSpline
70
4
71
3
72
16
73
12
40
0
40
0
40
0
40
0
40
0.196106062070698
40
0.196106062070698
40
0.409364297385028
40
0.409364297385028
40
0.624861773934903
40
0.624861773934903
40
0.810538195133194
40
0.810538195133194
40
1
40
1
40
1
40
1
41
1
10
12.941904331197
20
-0.249980947161362
30
0
41
1
10
12.9355565595585
20
-0.257722605445195
30
0
41
1
10
12.9297451486101
20
-0.265486959719368
30
0
41
1
10
12.9196443071011
20
-0.281028918341008
30
0
41
1
10
12.9154513250267
20
-0.288912527954437
30
0
41
1
10
12.9105435541865
20
-0.302768370066531
30
0
41
1
10
12.9098378901371
20
-0.308896379450914
30
0
41
1
10
12.9120892622652
20
-0.317447759258869
30
0
41
1
10
12.9145591942265
20
-0.320382983309258
30
0
41
1
10
12.9216438870887
20
-0.324136772285755
30
0
41
1
10
12.9263401550438
20
-0.324980947161777
30
0
41
1
10
12.9317003032969
20
-0.324980947161777
30
0
0
SPLINE
5
241
100
AcDbEntity
8
1
62
256
6
ByLayer
370
18
48
1
60
0
100
AcDbSpline
70
4
71
3
72
22
73
18
40
0
40
0
40
0
40
0
40
0.0651068082730268
40
0.0651068082730268
40
0.142111387455036
40
0.142111387455036
40
0.219953719948775
40
0.219953719948775
40
0.286554263579544
40
0.286554263579544
40
0.381930833608193
40
0.381930833608193
40
0.53275409541
40
0.53275409541
40
0.796290651784007
40
0.796290651784007
40
1
40
1
40
1
40
1
41
1
10
-12.4454802424856
20
0.394519052838319
30
0
41
1
10
-12.45155133317
20
0.401944606749794
30
0
41
1
10
-12.4570998251587
20
0.409441253119041
30
0
41
1
10
-12.4672330005863
20
0.425379017628217
30
0
41
1
10
-12.4715407272944
20
0.433923530893225
30
0
41
1
10
-12.4763100262172
20
0.449297392431163
30
0
41
1
10
-12.476746651074
20
0.456306221234314
30
0
41
1
10
-12.4737008162747
20
0.466542519561074
30
0
41
1
10
-12.4707668614746
20
0.47030786321443
30
0
41
1
10
-12.4610342485579
20
0.476928873798158
30
0
41
1
10
-12.4530209408447
20
0.478862268755023
30
0
41
1
10
-12.4297231341027
20
0.480180743540217
30
0
41
1
10
-12.4125498532825
20
0.477607479963041
30
0
41
1
10
-12.3634348863377
20
0.465628815629856
30
0
41
1
10
-12.3288981465176
20
0.452420123097454
30
0
41
1
10
-12.2673515372039
20
0.42424215112618
30
0
41
1
10
-12.2399150401122
20
0.410068070088357
30
0
41
1
10
-12.2126258453701
20
0.394519052838319
30
0
0
SPLINE
5
242
100
AcDbEntity
8
1
62
256
6
ByLayer
370
18
48
1
60
0
100
AcDbSpline
70
4
71
3
72
8
73
4
40
0
40
0
40
0
40
0
40
1
40
1
40
1
40
1
41
1
10
-13.7271595028413
20
-0.249980947161504
30
0
41
1
10
-13.9067346952574
20
-0.0352123843836978
30
0
41
1
10
-14.0862027448653
20
0.179623391888498
30
0
41
1
10
-14.2655750866985
20
0.394519052838319
30
0
0
SPLINE
5
243
100
AcDbEntity
8
1
62
256
6
ByLayer
370
18
48
1
60
0
100
AcDbSpline
70
4
71
3
72
8
73
4
40
0
40
0
40
0
40
0
40
1
40
1
40
1
40
1
41
1
10
3.02046224884998
20
-0.249980947161674
30
0
41
1
10
4.1359861011268
20
-0.107222523982642
30
0
41
1
10
5.23174171602631
20
0.111228400779481
30
0
41
1
10
6.31056345909084
20
0.394519052838035
30
0
0
SPLINE
5
244
100
AcDbEntity
8
1
62
256
6
ByLayer
370
18
48
1
60
0
100
AcDbSpline
70
4
71
3
72
16
73
12
40
0
40
0
40
0
40
0
40
0.222512850668347
40
0.222512850668347
40
0.448070552248659
40
0.448070552248659
40
0.676305315130625
40
0.676305315130625
40
0.869704041580538
40
0.869704041580538
40
1
40
1
40
1
40
1
41
1
10
11.1114500273986
20
-0.249980947161504
30
0
41
1
10
11.1187156930949
20
-0.258687830989317
30
0
41
1
10
11.1254102591126
20
-0.267364003653455
30
0
41
1
10
11.1366779258046
20
-0.283899700786748
30
0
41
1
10
11.1413117528547
20
-0.29191191433759
30
0
41
1
10
11.1470518100655
20
-0.305778335253052
30
0
41
1
10
11.1481511231505
20
-0.311784666057719
30
0
41
1
10
11.1463476903669
20
-0.319726929309837
30
0
41
1
10
11.1440220975294
20
-0.32225255559058
30
0
41
1
10
11.1382155195722
20
-0.32455154437838
30
0
41
1
10
11.1353405374697
20
-0.324980947161862
30
0
41
1
10
11.1320782392769
20
-0.324980947161862
30
0
0
SPLINE
5
245
100
AcDbEntity
8
1
62
256
6
ByLayer
370
18
48
1
60
0
100
AcDbSpline
70
4
71
3
72
8
73
4
40
0
40
0
40
0
40
0
40
1
40
1
40
1
40
1
41
1
10
-12.9419043311971
20
-0.249980947161362
30
0
41
1
10
-13.1180471579124
20
-0.0351594867746314
30
0
41
1
10
-13.2941699218973
20
0.179674312264069
30
0
41
1
10
-13.4702748862138
20
0.394519052838319
30
0
0
SPLINE
5
246
100
AcDbEntity
8
1
62
256
6
ByLayer
370
18
48
1
60
0
100
AcDbSpline
70
4
71
3
72
8
73
4
40
0
40
0
40
0
40
0
40
1
40
1
40
1
40
1
41
1
10
-8.986928514634
20
0.394519052838319
30
0
41
1
10
-8.38516177118393
20
0.161069317297006
30
0
41
1
10
-7.77384685690504
20
-0.0549727571128926
30
0
41
1
10
-7.15410175340944
20
-0.249980947161674
30
0
0
SPLINE
5
247
100
AcDbEntity
8
1
62
256
6
ByLayer
370
18
48
1
60
0
100
AcDbSpline
70
4
71
3
72
8
73
4
40
0
40
0
40
0
40
0
40
1
40
1
40
1
40
1
41
1
10
14.8682534145172
20
0.394519052838319
30
0
41
1
10
14.6835653387693
20
0.179542411258922
30
0
41
1
10
14.4986631981295
20
-0.0352964558153417
30
0
41
1
10
14.313522568363
20
-0.249980947161589
30
0
0
SPLINE
5
248
100
AcDbEntity
8
1
62
256
6
ByLayer
370
18
48
1
60
0
100
AcDbSpline
70
4
71
3
72
22
73
18
40
0
40
0
40
0
40
0
40
0.0485408047848819
40
0.0485408047848819
40
0.121700065890981
40
0.121700065890981
40
0.186464246858647
40
0.186464246858647
40
0.2407216761582
40
0.2407216761582
40
0.326741478729981
40
0.326741478729981
40
0.473947643156115
40
0.473947643156115
40
0.758629254012485
40
0.758629254012485
40
1
40
1
40
1
40
1
41
1
10
-11.1279670839752
20
0.394519052838263
30
0
41
1
10
-11.1330069698958
20
0.400543513623347
30
0
41
1
10
-11.137633253428
20
0.406663360636173
30
0
41
1
10
-11.1474740757499
20
0.421795498974518
30
0
41
1
10
-11.1519335224167
20
0.430989429741288
30
0
41
1
10
-11.1555727644029
20
0.44647397511531
30
0
41
1
10
-11.1552967579191
20
0.453169127790034
30
0
41
1
10
-11.1512440923678
20
0.463079795593814
30
0
41
1
10
-11.1480317861239
20
0.466820525886504
30
0
41
1
10
-11.1374474597103
20
0.474313217668282
30
0
41
1
10
-11.1286375214951
20
0.476995995770295
30
0
41
1
10
-11.1023055403978
20
0.480671824366738
30
0
41
1
10
-11.0825854198276
20
0.479371647615864
30
0
41
1
10
-11.0230067149692
20
0.470306194524142
30
0
41
1
10
-10.9799571914669
20
0.457583466177311
30
0
41
1
10
-10.9003829542895
20
0.428421026205484
30
0
41
1
10
-10.863143535361
20
0.412455730233916
30
0
41
1
10
-10.8261977204867
20
0.394519052838319
30
0
0
SPLINE
5
249
100
AcDbEntity
8
1
62
256
6
ByLayer
370
18
48
1
60
0
100
AcDbSpline
70
4
71
3
72
20
73
16
40
0
40
0
40
0
40
0
40
0.351004631278576
40
0.351004631278576
40
0.599784582614431
40
0.599784582614431
40
0.680874013660034
40
0.680874013660034
40
0.763419678392805
40
0.763419678392805
40
0.834177460377081
40
0.834177460377081
40
0.920890721034164
40
0.920890721034164
40
1
40
1
40
1
40
1
41
1
10
-6.32610759209336
20
-0.324980947161663
30
0
41
1
10
-6.30204634075892
20
-0.324980947161691
30
0
41
1
10
-6.27822747147852
20
-0.323864433309296
30
0
41
1
10
-6.24045733959551
20
-0.317587819156216
30
0
41
1
10
-6.22506440704004
20
-0.313720170715669
30
0
41
1
10
-6.20980501392336
20
-0.304221502610204
30
0
41
1
10
-6.20644181990488
20
-0.301435726660003
30
0
41
1
10
-6.20150231204315
20
-0.294882642141374
30
0
41
1
10
-6.19993628340313
20
-0.290979498000809
30
0
41
1
10
-6.19958154652628
20
-0.283187307782981
30
0
41
1
10
-6.20042822007008
20
-0.279284161761154
30
0
41
1
10
-6.20410634126972
20
-0.270768981436106
30
0
41
1
10
-6.20734665431323
20
-0.266064039378449
30
0
41
1
10
-6.21464483521268
20
-0.257592495463314
30
0
41
1
10
-6.21865579637998
20
-0.253698611878804
30
0
41
1
10
-6.22292588124969
20
-0.249980947131121
30
0
0
SPLINE
5
24A
100
AcDbEntity
8
1
62
256
6
ByLayer
370
18
48
1
60
0
100
AcDbSpline
70
4
71
3
72
14
73
10
40
0
40
0
40
0
40
0
40
0.468197083471099
40
0.468197083471099
40
0.766665401973158
40
0.766665401973158
40
0.995281522766892
40
0.995281522766892
40
1
40
1
40
1
40
1
41
1
10
-13.9273497265336
20
-0.249980947161703
30
0
41
1
10
-13.902940676933
20
-0.26845070998175
30
0
41
1
10
-13.8784902297835
20
-0.285286719688031
30
0
41
1
10
-13.8416039408362
20
-0.307060048933522
30
0
41
1
10
-13.8277268136715
20
-0.314247725520346
30
0
41
1
10
-13.8064081434458
20
-0.322635136974157
30
0
41
1
10
-13.7980453969051
20
-0.324888267958301
30
0
41
1
10
-13.7915526825564
20
-0.324980003393961
30
0
41
1
10
-13.7914204166523
20
-0.324980947161777
30
0
41
1
10
-13.7912890092215
20
-0.32498094716172
30
0
0
SPLINE
5
24B
100
AcDbEntity
8
1
62
256
6
ByLayer
370
18
48
1
60
0
100
AcDbSpline
70
4
71
3
72
22
73
18
40
0
40
0
40
0
40
0
40
0.0317323625053017
40
0.0317323625053017
40
0.0851401845628518
40
0.0851401845628518
40
0.125053949265445
40
0.125053949265445
40
0.164860608923332
40
0.164860608923332
40
0.222445792033019
40
0.222445792033019
40
0.321378848856645
40
0.321378848856645
40
0.530840992707687
40
0.530840992707687
40
1
40
1
40
1
40
1
41
1
10
-9.3953884633886
20
0.394519052838035
30
0
41
1
10
-9.39939362771642
20
0.398975848262893
30
0
41
1
10
-9.40312267174656
20
0.403528476147983
30
0
41
1
10
-9.41191505673706
20
0.415772826342248
30
0
41
1
10
-9.41628554004802
20
0.423723923580184
30
0
41
1
10
-9.42018387566256
20
0.436763405325962
30
0
41
1
10
-9.42066160747328
20
0.442188415053465
30
0
41
1
10
-9.4190242905544
20
0.451758932357308
30
0
41
1
10
-9.41691298354252
20
0.456021442193219
30
0
41
1
10
-9.40950120229184
20
0.464722262970554
30
0
41
1
10
-9.40314789522955
20
0.468584217235559
30
0
41
1
10
-9.38358679808741
20
0.476285765287742
30
0
41
1
10
-9.36844720188375
20
0.478450389599317
30
0
41
1
10
-9.31938177976289
20
0.480807016815191
30
0
41
1
10
-9.28206946253559
20
0.476441913711056
30
0
41
1
10
-9.1612359799189
20
0.454941676027062
30
0
41
1
10
-9.07308677616265
20
0.427943338223827
30
0
41
1
10
-8.986928514634
20
0.394519052838376
30
0
0
SPLINE
5
24C
100
AcDbEntity
8
1
62
256
6
ByLayer
370
18
48
1
60
0
100
AcDbSpline
70
4
71
3
72
18
73
14
40
0
40
0
40
0
40
0
40
0.210384928257507
40
0.210384928257507
40
0.399953115580487
40
0.399953115580487
40
0.555251499627316
40
0.555251499627316
40
0.711542171406334
40
0.711542171406334
40
0.855218421794866
40
0.855218421794866
40
1
40
1
40
1
40
1
41
1
10
-10.612457538214
20
-0.324980947169166
30
0
41
1
10
-10.6037369377625
20
-0.32498094716945
30
0
41
1
10
-10.5954708159508
20
-0.324226198081362
30
0
41
1
10
-10.5817089310945
20
-0.320688736227879
30
0
41
1
10
-10.5759267131651
20
-0.318059091924084
30
0
41
1
10
-10.5682733307577
20
-0.311074790610604
30
0
41
1
10
-10.565846646834
20
-0.307024278124999
30
0
41
1
10
-10.5639471484762
20
-0.297386529274547
30
0
41
1
10
-10.56449090744
20
-0.291654817212901
30
0
41
1
10
-10.5681879286571
20
-0.280006233149692
30
0
41
1
10
-10.5711402052196
20
-0.274020740661911
30
0
41
1
10
-10.578590246886
20
-0.262042266124638
30
0
41
1
10
-10.5831385206061
20
-0.255952528977218
30
0
41
1
10
-10.588146538497
20
-0.249980947159827
30
0
0
SPLINE
5
24D
100
AcDbEntity
8
1
62
256
6
ByLayer
370
18
48
1
60
0
100
AcDbSpline
70
4
71
3
72
12
73
8
40
0
40
0
40
0
40
0
40
0.557840308776426
40
0.557840308776426
40
0.870895438625502
40
0.870895438625502
40
1
40
1
40
1
40
1
41
1
10
-12.2619374897428
20
-0.249980947161703
30
0
41
1
10
-12.2249529975132
20
-0.272500646712672
30
0
41
1
10
-12.187304448988
20
-0.292031881804491
30
0
41
1
10
-12.1322216451675
20
-0.313762562795489
30
0
41
1
10
-12.1127281494877
20
-0.319936476700946
30
0
41
1
10
-12.0881232605539
20
-0.324254223101548
30
0
41
1
10
-12.0812378299215
20
-0.324980947163994
30
0
41
1
10
-12.0749439033983
20
-0.324980947164761
30
0
0
SPLINE
5
24E
100
AcDbEntity
8
1
62
256
6
ByLayer
370
18
48
1
60
0
100
AcDbSpline
70
4
71
3
72
8
73
4
40
0
40
0
40
0
40
0
40
1
40
1
40
1
40
1
41
1
10
13.9273497265336
20
-0.249980947161674
30
0
41
1
10
14.2084077471454
20
-0.0373108488043101
30
0
41
1
10
14.4872010191426
20
0.177620629481936
30
0
41
1
10
14.763917126115
20
0.394519052838319
30
0
0
SPLINE
5
24F
100
AcDbEntity
8
1
62
256
6
ByLayer
370
18
48
1
60
0
100
AcDbSpline
70
4
71
3
72
8
73
4
40
0
40
0
40
0
40
0
40
1
40
1
40
1
40
1
41
1
10
9.39538846338741
20
0.394519052838319
30
0
41
1
10
9.20190706823553
20
0.179220272028289
30
0
41
1
10
9.00777767281835
20
-0.0356434176900109
30
0
41
1
10
8.81287846405274
20
-0.249980947156104
30
0
0
SPLINE
5
250
100
AcDbEntity
8
1
62
256
6
ByLayer
370
18
48
1
60
0
100
AcDbSpline
70
4
71
3
72
8
73
4
40
0
40
0
40
0
40
0
40
1
40
1
40
1
40
1
41
1
10
-14.2323721156023
20
-0.01762788439774
30
0
41
1
10
-14.130991014615
20
-0.0953664616924641
30
0
41
1
10
-14.0293199572607
20
-0.172822433944134
30
0
41
1
10
-13.9273497265336
20
-0.249980947161674
30
0
0
SPLINE
5
251
100
AcDbEntity
8
1
62
256
6
ByLayer
370
18
48
1
60
0
100
AcDbSpline
70
4
71
3
72
12
73
8
40
0
40
0
40
0
40
0
40
0.212424564223095
40
0.212424564223095
40
0.706118788306915
40
0.706118788306915
40
1
40
1
40
1
40
1
41
1
10
10.8100221617363
20
-0.324980947161663
30
0
41
1
10
10.8235634343596
20
-0.324980947160441
30
0
41
1
10
10.8385147593294
20
-0.323043253440488
30
0
41
1
10
10.8894755192771
20
-0.312800800404204
30
0
41
1
10
10.9281971461761
20
-0.299463929793092
30
0
41
1
10
10.9897538197902
20
-0.273237127770869
30
0
41
1
10
11.0130356983498
20
-0.262138416025522
30
0
41
1
10
11.036173761814
20
-0.249980947161674
30
0
0
SPLINE
5
252
100
AcDbEntity
8
1
62
256
6
ByLayer
370
18
48
1
60
0
100
AcDbSpline
70
4
71
3
72
8
73
4
40
0
40
0
40
0
40
0
40
1
40
1
40
1
40
1
41
1
10
-8.81287846404788
20
-0.249980947161418
30
0
41
1
10
-9.00777767281514
20
-0.0356434176935636
30
0
41
1
10
-9.20190706823394
20
0.179220272026527
30
0
41
1
10
-9.39538846338738
20
0.394519052838319
30
0
0
SPLINE
5
253
100
AcDbEntity
8
1
62
256
6
ByLayer
370
18
48
1
60
0
100
AcDbSpline
70
4
71
3
72
22
73
18
40
0
40
0
40
0
40
0
40
0.035874427414886
40
0.035874427414886
40
0.0600576992991003
40
0.0600576992991003
40
0.0845052422599205
40
0.0845052422599205
40
0.106630112294777
40
0.106630112294777
40
0.141378883581292
40
0.141378883581292
40
0.206648741888596
40
0.206648741888596
40
0.411568015247495
40
0.411568015247495
40
1
40
1
40
1
40
1
41
1
10
-6.94370199057266
20
0.394519052838319
30
0
41
1
10
-6.95034734071959
20
0.400608750585633
30
0
41
1
10
-6.95643314520078
20
0.407116861173847
30
0
41
1
10
-6.96417313612531
20
0.418414923905601
30
0
41
1
10
-6.96664824781237
20
0.423176061550549
30
0
41
1
10
-6.96940339887621
20
0.432469789435942
30
0
41
1
10
-6.96965941604773
20
0.437111999643321
30
0
41
1
10
-6.96786621671291
20
0.445042112141692
30
0
41
1
10
-6.96603521944621
20
0.448510803521913
30
0
41
1
10
-6.9596477172565
20
0.456261904861265
30
0
41
1
10
-6.95409394450675
20
0.460058879451594
30
0
41
1
10
-6.9362973885662
20
0.468830094958776
30
0
41
1
10
-6.92218909027108
20
0.472283896678363
30
0
41
1
10
-6.86227539325384
20
0.482055853493108
30
0
41
1
10
-6.81070324518259
20
0.480255945198564
30
0
41
1
10
-6.61374926543502
20
0.465294190163235
30
0
41
1
10
-6.46067485118868
20
0.433937199925566
30
0
41
1
10
-6.31056345909079
20
0.394519052838518
30
0
0
SPLINE
5
254
100
AcDbEntity
8
1
62
256
6
ByLayer
370
18
48
1
60
0
100
AcDbSpline
70
4
71
3
72
10
73
6
40
0
40
0
40
0
40
0
40
0.629205937832082
40
0.629205937832082
40
1
40
1
40
1
40
1
41
1
10
-7.15410175340941
20
-0.249980947161959
30
0
41
1
10
-7.06739922208141
20
-0.277262653159397
30
0
41
1
10
-6.97939877650324
20
-0.29827446842782
30
0
41
1
10
-6.84209578550008
20
-0.319542756326399
30
0
41
1
10
-6.79111584066891
20
-0.324980947161521
30
0
41
1
10
-6.74249188881672
20
-0.324980947161663
30
0
0
SPLINE
5
255
100
AcDbEntity
8
1
62
256
6
ByLayer
370
18
48
1
60
0
100
AcDbSpline
70
4
71
3
72
8
73
4
40
0
40
0
40
0
40
0
40
1
40
1
40
1
40
1
41
1
10
11.036173761814
20
-0.249980947161674
30
0
41
1
10
11.4328923426465
20
-0.0415324829398855
30
0
41
1
10
11.8249775203537
20
0.173642235123822
30
0
41
1
10
12.2126258453701
20
0.394519052838319
30
0
0
SPLINE
5
256
100
AcDbEntity
8
1
62
256
6
ByLayer
370
18
48
1
60
0
100
AcDbSpline
70
4
71
3
72
14
73
10
40
0
40
0
40
0
40
0
40
0.174167309435959
40
0.174167309435959
40
0.488739615517209
40
0.488739615517209
40
0.951751467282083
40
0.951751467282083
40
1
40
1
40
1
40
1
41
1
10
13.791289009236
20
-0.324980947163681
30
0
41
1
10
13.7960627803677
20
-0.324980947163397
30
0
41
1
10
13.802005030081
20
-0.323724224414491
30
0
41
1
10
13.8204745348529
20
-0.317651703378232
30
0
41
1
10
13.8347164587752
20
-0.310735758799979
30
0
41
1
10
13.8715229385192
20
-0.289803673462671
30
0
41
1
10
13.8955993441316
20
-0.273600893417125
30
0
41
1
10
13.9222528409053
20
-0.253819346811838
30
0
41
1
10
13.9247995592002
20
-0.251910599752449
30
0
41
1
10
13.9273497265336
20
-0.249980947161703
30
0
0
SPLINE
5
257
100
AcDbEntity
8
1
62
256
6
ByLayer
370
18
48
1
60
0
100
AcDbSpline
70
4
71
3
72
16
73
12
40
0
40
0
40
0
40
0
40
0.13484533516966
40
0.13484533516966
40
0.359804782479988
40
0.359804782479988
40
0.563972966163057
40
0.563972966163057
40
0.764441046204123
40
0.764441046204123
40
1
40
1
40
1
40
1
41
1
10
-13.7033273915928
20
-0.324980947161777
30
0
41
1
10
-13.7002684501948
20
-0.324980947161777
30
0
41
1
10
-13.6976241507593
20
-0.324503790926315
30
0
41
1
10
-13.6920859334474
20
-0.321798390197102
30
0
41
1
10
-13.6901547625057
20
-0.318515148994322
30
0
41
1
10
-13.6901404778534
20
-0.309484335495654
30
0
41
1
10
-13.6917170794748
20
-0.303881795093503
30
0
41
1
10
-13.6974564672318
20
-0.291318771539835
30
0
41
1
10
-13.7016123344558
20
-0.284258174950224
30
0
41
1
10
-13.7124259605319
20
-0.268312663326867
30
0
41
1
10
-13.7194812869049
20
-0.259163949441273
30
0
41
1
10
-13.7271595028412
20
-0.249980947161532
30
0
0
SPLINE
5
258
100
AcDbEntity
8
1
62
256
6
ByLayer
370
18
48
1
60
0
100
AcDbSpline
70
4
71
3
72
22
73
18
40
0
40
0
40
0
40
0
40
0.403554417729527
40
0.403554417729527
40
0.609178824389587
40
0.609178824389587
40
0.697673294122037
40
0.697673294122037
40
0.787731934191172
40
0.787731934191172
40
0.843631299333548
40
0.843631299333548
40
0.899688994902858
40
0.899688994902858
40
0.966989308847291
40
0.966989308847291
40
1
40
1
40
1
40
1
41
1
10
10.8261977204867
20
0.394519052838319
30
0
41
1
10
10.88746536971
20
0.42426364130236
30
0
41
1
10
10.9501472037041
20
0.449131011779116
30
0
41
1
10
11.0390471768234
20
0.472881386412468
30
0
41
1
10
11.0688427000681
20
0.478681435501613
30
0
41
1
10
11.106469603353
20
0.479768618414539
30
0
41
1
10
11.1172821228746
20
0.479114547017218
30
0
41
1
10
11.1361165854978
20
0.474728634959661
30
0
41
1
10
11.1443303180467
20
0.470835364283573
30
0
41
1
10
11.1525576732897
20
0.46088688295211
30
0
41
1
10
11.1545221389686
20
0.456082336030761
30
0
41
1
10
11.1553161804266
20
0.445019242695679
30
0
41
1
10
11.1541394388524
20
0.438620526101943
30
0
41
1
10
11.1486202659421
20
0.423965529593517
30
0
41
1
10
11.1436624982509
20
0.415391274043827
30
0
41
1
10
11.1346727150117
20
0.40281081024105
30
0
41
1
10
11.1314193740737
20
0.398645770515543
30
0
41
1
10
11.1279670839748
20
0.394519052838319
30
0
0
SPLINE
5
259
100
AcDbEntity
8
1
62
256
6
ByLayer
370
18
48
1
60
0
100
AcDbSpline
70
4
71
3
72
18
73
14
40
0
40
0
40
0
40
0
40
0.162980199901452
40
0.162980199901452
40
0.356090667569235
40
0.356090667569235
40
0.55123446372587
40
0.55123446372587
40
0.719046923534032
40
0.719046923534032
40
0.960494301745714
40
0.960494301745714
40
1
40
1
40
1
40
1
41
1
10
11.9185094462046
20
-0.249980947160964
30
0
41
1
10
11.9131557419053
20
-0.256528271485081
30
0
41
1
10
11.9082638589417
20
-0.263139223614388
30
0
41
1
10
11.8993237127585
20
-0.277208753028162
30
0
41
1
10
11.8955247450956
20
-0.284758179154124
30
0
41
1
10
11.8913177846097
20
-0.298335350777933
30
0
41
1
10
11.8909291014857
20
-0.304520769636895
30
0
41
1
10
11.8935780496815
20
-0.313578122122038
30
0
41
1
10
11.8961493899794
20
-0.316914751345337
30
0
41
1
10
11.9047042479253
20
-0.322785071146171
30
0
41
1
10
11.9117710643691
20
-0.324478414921543
30
0
41
1
10
11.9210636588488
20
-0.32494866619615
30
0
41
1
10
11.9224100797441
20
-0.32498094716172
30
0
41
1
10
11.923781441615
20
-0.32498094716172
30
0
0
SPLINE
5
25A
100
AcDbEntity
8
1
62
256
6
ByLayer
370
18
48
1
60
0
100
AcDbSpline
70
4
71
3
72
8
73
4
40
0
40
0
40
0
40
0
40
1
40
1
40
1
40
1
41
1
10
15.3010877601029
20
0.394519052838319
30
0
41
1
10
15.1093595857448
20
0.179433515691386
30
0
41
1
10
14.9172681033559
20
-0.0354095843731841
30
0
41
1
10
14.7247732958313
20
-0.249980947161618
30
0
0
SPLINE
5
25B
100
AcDbEntity
8
1
62
256
6
ByLayer
370
18
48
1
60
0
100
AcDbSpline
70
4
71
3
72
10
73
6
40
0
40
0
40
0
40
0
40
0.771301735540518
40
0.771301735540518
40
1
40
1
40
1
40
1
41
1
10
-9.96637832280632
20
-0.249980947161674
30
0
41
1
10
-10.0408176727152
20
-0.280259825286521
30
0
41
1
10
-10.1173452415099
20
-0.306006207234816
30
0
41
1
10
-10.2078746221614
20
-0.32243128656242
30
0
41
1
10
-10.2284030215098
20
-0.324980947161663
30
0
41
1
10
-10.2470436468824
20
-0.324980947161663
30
0
0
SPLINE
5
25C
100
AcDbEntity
8
1
62
256
6
ByLayer
370
18
48
1
60
0
100
AcDbSpline
70
4
71
3
72
22
73
18
40
0
40
0
40
0
40
0
40
0.323172278774556
40
0.323172278774556
40
0.490152222025259
40
0.490152222025259
40
0.660190604983224
40
0.660190604983224
40
0.73741251366138
40
0.73741251366138
40
0.815633519565075
40
0.815633519565075
40
0.884255350975238
40
0.884255350975238
40
0.969517169838586
40
0.969517169838586
40
1
40
1
40
1
40
1
41
1
10
12.2126258453701
20
0.394519052838319
30
0
41
1
10
12.2556206881461
20
0.419016937744914
30
0
41
1
10
12.2992752960346
20
0.440341029653865
30
0
41
1
10
12.3619640352685
20
0.464159551058543
30
0
41
1
10
12.3830541966667
20
0.470865546495134
30
0
41
1
10
12.4222712052285
20
0.47929632153901
30
0
41
1
10
12.4410353311503
20
0.481102964797117
30
0
41
1
10
12.4613668184495
20
0.476412735130765
30
0
41
1
10
12.466814837908
20
0.473798042975375
30
0
41
1
10
12.4742719141018
20
0.465832645269359
30
0
41
1
10
12.4762826618685
20
0.460290398144849
30
0
41
1
10
12.4759328108252
20
0.447730671815947
30
0
41
1
10
12.4740819540271
20
0.440831018126033
30
0
41
1
10
12.4669344962668
20
0.424558122441653
30
0
41
1
10
12.4608600538216
20
0.414760027191647
30
0
41
1
10
12.4510955243926
20
0.401544991603032
30
0
41
1
10
12.4483489214258
20
0.398027735418566
30
0
41
1
10
12.4454802424854
20
0.394519052838319
30
0
0
SPLINE
5
25D
100
AcDbEntity
8
1
62
256
6
ByLayer
370
18
48
1
60
0
100
AcDbSpline
70
4
71
3
72
14
73
10
40
0
40
0
40
0
40
0
40
0.15555629196745
40
0.15555629196745
40
0.378751034641537
40
0.378751034641537
40
0.722785971246571
40
0.722785971246571
40
1
40
1
40
1
40
1
41
1
10
14.7171680292952
20
-0.324980947161777
30
0
41
1
10
14.719060081557
20
-0.324980947161777
30
0
41
1
10
14.7218760609527
20
-0.324041805466237
30
0
41
1
10
14.7304008276169
20
-0.319867550757351
30
0
41
1
10
14.7369286514939
20
-0.315765633847235
30
0
41
1
10
14.7554841035043
20
-0.302750618528393
30
0
41
1
10
14.7688692606162
20
-0.292259110148592
30
0
41
1
10
14.7942776550935
20
-0.271173884100875
30
0
41
1
10
14.8062715360495
20
-0.260821302394191
30
0
41
1
10
14.8184692127086
20
-0.249980947161703
30
0
0
SPLINE
5
25E
100
AcDbEntity
8
1
62
256
6
ByLayer
370
18
48
1
60
0
100
AcDbSpline
70
4
71
3
72
10
73
6
40
0
40
0
40
0
40
0
40
0.72375867224534
40
0.72375867224534
40
1
40
1
40
1
40
1
41
1
10
-9.420146049799
20
-0.249980947161873
30
0
41
1
10
-9.34978188957527
20
-0.280289102869119
30
0
41
1
10
-9.27735970080957
20
-0.304186047462508
30
0
41
1
10
-9.18287570874259
20
-0.321747895137577
30
0
41
1
10
-9.15687945203629
20
-0.324980947160554
30
0
41
1
10
-9.13284665392285
20
-0.32498094716172
30
0
0
SPLINE
5
25F
100
AcDbEntity
8
1
62
256
6
ByLayer
370
18
48
1
60
0
100
AcDbSpline
70
4
71
3
72
26
73
22
40
0
40
0
40
0
40
0
40
0.38247197334873
40
0.38247197334873
40
0.625449054363933
40
0.625449054363933
40
0.748463939430319
40
0.748463939430319
40
0.831219382810826
40
0.831219382810826
40
0.867984099034851
40
0.867984099034851
40
0.905512539774495
40
0.905512539774495
40
0.928181706020554
40
0.928181706020554
40
0.950834872423898
40
0.950834872423898
40
0.982425700347511
40
0.982425700347511
40
1
40
1
40
1
40
1
41
1
10
6.31056345909079
20
0.394519052838348
30
0
41
1
10
6.4086323276064
20
0.420271216147086
30
0
41
1
10
6.50733445696676
20
0.441698753458439
30
0
41
1
10
6.66675413116076
20
0.467351798296136
30
0
41
1
10
6.72865720414853
20
0.475143376042354
30
0
41
1
10
6.81919215471822
20
0.47981373074299
30
0
41
1
10
6.84936891726929
20
0.480202992195217
30
0
41
1
10
6.89735152130652
20
0.476613751246191
30
0
41
1
10
6.91625712849003
20
0.474057688129818
30
0
41
1
10
6.94029920209485
20
0.466661856806752
30
0
41
1
10
6.94731234465885
20
0.463824586540682
30
0
41
1
10
6.95931276673684
20
0.456444764848499
30
0
41
1
10
6.96441004850317
20
0.45171547006845
30
0
41
1
10
6.96875463726229
20
0.442439793923882
30
0
41
1
10
6.96951602371581
20
0.438459934074359
30
0
41
1
10
6.96894382724866
20
0.430158710081059
30
0
41
1
10
6.96761243442782
20
0.425746462629604
30
0
41
1
10
6.96256900802354
20
0.415407857029606
30
0
41
1
10
6.9581053704126
20
0.409401555471362
30
0
41
1
10
6.95008835095845
20
0.400598318186155
30
0
41
1
10
6.94697205939914
20
0.397515694141958
30
0
41
1
10
6.94370199056786
20
0.394519052828656
30
0
0
SPLINE
5
260
100
AcDbEntity
8
1
62
256
6
ByLayer
370
18
48
1
60
0
100
AcDbSpline
70
4
71
3
72
22
73
18
40
0
40
0
40
0
40
0
40
0.0815479292501048
40
0.0815479292501048
40
0.170286194894272
40
0.170286194894272
40
0.259987307065422
40
0.259987307065422
40
0.336897977620643
40
0.336897977620643
40
0.441506022418959
40
0.441506022418959
40
0.598780439335268
40
0.598780439335268
40
0.854308199178528
40
0.854308199178528
40
1
40
1
40
1
40
1
41
1
10
-13.470274886214
20
0.394519052838348
30
0
41
1
10
-13.4774199131377
20
0.403235851151038
30
0
41
1
10
-13.4839622686567
20
0.411979505650322
30
0
41
1
10
-13.4953406359315
20
0.429500549190152
30
0
41
1
10
-13.5000672127184
20
0.438398285275412
30
0
41
1
10
-13.505580332615
20
0.454065835007242
30
0
41
1
10
-13.5063525160425
20
0.461012684915346
30
0
41
1
10
-13.5037195393392
20
0.470714363996081
30
0
41
1
10
-13.5008855492315
20
0.474057874117165
30
0
41
1
10
-13.4914274326218
20
0.479120852094439
30
0
41
1
10
-13.483713670478
20
0.47996257954523
30
0
41
1
10
-13.461715687001
20
0.478322463938099
30
0
41
1
10
-13.4457404908276
20
0.474048864934218
30
0
41
1
10
-13.4018237016311
20
0.458195593022367
30
0
41
1
10
-13.3716887911461
20
0.443483285186403
30
0
41
1
10
-13.3240104068217
20
0.416623447994653
30
0
41
1
10
-13.3063543150315
20
0.405916824563263
30
0
41
1
10
-13.2887133686799
20
0.394519052838319
30
0
0
SPLINE
5
261
100
AcDbEntity
8
1
62
256
6
ByLayer
370
18
48
1
60
0
100
AcDbSpline
70
4
71
3
72
20
73
16
40
0
40
0
40
0
40
0
40
0.0782700489531455
40
0.0782700489531455
40
0.217081097569781
40
0.217081097569781
40
0.319714950977507
40
0.319714950977507
40
0.422221310200598
40
0.422221310200598
40
0.564519788257758
40
0.564519788257758
40
0.806526878283858
40
0.806526878283858
40
1
40
1
40
1
40
1
41
1
10
-9.83200555996117
20
-0.249980947154484
30
0
41
1
10
-9.83525242125867
20
-0.253462276162509
30
0
41
1
10
-9.83829540701822
20
-0.25702339225154
30
0
41
1
10
-9.84582373804216
20
-0.266969211539418
30
0
41
1
10
-9.84972810843354
20
-0.27360328337852
30
0
41
1
10
-9.85343844539801
20
-0.284613533261137
30
0
41
1
10
-9.85405201415648
20
-0.289228006150665
30
0
41
1
10
-9.85306866934107
20
-0.297499957250721
30
0
41
1
10
-9.85147163547688
20
-0.30125540053973
30
0
41
1
10
-9.84571342562151
20
-0.308849005346929
30
0
41
1
10
-9.8407627917974
20
-0.312313484880264
30
0
41
1
10
-9.82546059476923
20
-0.319500000838531
30
0
41
1
10
-9.81354778547086
20
-0.321985033876416
30
0
41
1
10
-9.791073782447
20
-0.324536234191044
30
0
41
1
10
-9.78054069051169
20
-0.324980947182013
30
0
41
1
10
-9.76977062536781
20
-0.324980947181274
30
0
0
SPLINE
5
262
100
AcDbEntity
8
1
62
256
6
ByLayer
370
18
48
1
60
0
100
AcDbSpline
70
4
71
3
72
14
73
10
40
0
40
0
40
0
40
0
40
0.472416645933587
40
0.472416645933587
40
0.754234861604964
40
0.754234861604964
40
0.972176091415335
40
0.972176091415335
40
1
40
1
40
1
40
1
41
1
10
-11.1539311130556
20
-0.249980947161731
30
0
41
1
10
-11.1784958675692
20
-0.268353193107771
30
0
41
1
10
-11.2030684433588
20
-0.285202409613959
30
0
41
1
10
-11.2388582763983
20
-0.306587962389159
30
0
41
1
10
-11.251730815516
20
-0.313482838046156
30
0
41
1
10
-11.2714726313544
20
-0.321924817891897
30
0
41
1
10
-11.2791937481622
20
-0.324375754121348
30
0
41
1
10
-11.2857666502022
20
-0.324947526556343
30
0
41
1
10
-11.2864883874295
20
-0.32498094716172
30
0
41
1
10
-11.2871772280887
20
-0.32498094716172
30
0
0
SPLINE
5
263
100
AcDbEntity
8
1
62
256
6
ByLayer
370
18
48
1
60
0
100
AcDbSpline
70
4
71
3
72
8
73
4
40
0
40
0
40
0
40
0
40
1
40
1
40
1
40
1
41
1
10
7.15410175340944
20
-0.249980947161674
30
0
41
1
10
7.77384685690504
20
-0.0549727571128926
30
0
41
1
10
8.38516177118393
20
0.161069317297006
30
0
41
1
10
8.986928514634
20
0.394519052838319
30
0
0
SPLINE
5
264
100
AcDbEntity
8
1
62
256
6
ByLayer
370
18
48
1
60
0
100
AcDbSpline
70
4
71
3
72
14
73
10
40
0
40
0
40
0
40
0
40
0.472416645933593
40
0.472416645933593
40
0.754234861604956
40
0.754234861604956
40
0.972176091415319
40
0.972176091415319
40
1
40
1
40
1
40
1
41
1
10
11.1539311130556
20
-0.249980947161731
30
0
41
1
10
11.1784958675692
20
-0.268353193107799
30
0
41
1
10
11.2030684433588
20
-0.285202409613959
30
0
41
1
10
11.2388582763983
20
-0.306587962389159
30
0
41
1
10
11.251730815516
20
-0.313482838046156
30
0
41
1
10
11.2714726313544
20
-0.321924817891897
30
0
41
1
10
11.2791937481622
20
-0.324375754121348
30
0
41
1
10
11.2857666502022
20
-0.324947526556372
30
0
41
1
10
11.2864883874295
20
-0.32498094716172
30
0
41
1
10
11.2871772280887
20
-0.32498094716172
30
0
0
SPLINE
5
265
100
AcDbEntity
8
1
62
256
6
ByLayer
370
18
48
1
60
0
100
AcDbSpline
70
4
71
3
72
12
73
8
40
0
40
0
40
0
40
0
40
0.508133068758706
40
0.508133068758706
40
0.802161846397802
40
0.802161846397802
40
1
40
1
40
1
40
1
41
1
10
-13.2065548385553
20
-0.249980947161674
30
0
41
1
10
-13.1769738212829
20
-0.270252014085202
30
0
41
1
10
-13.1470858319735
20
-0.288333149597634
30
0
41
1
10
-13.1032005615561
20
-0.30992653783926
30
0
41
1
10
-13.0874867279878
20
-0.316494043953241
30
0
41
1
10
-13.0640991076044
20
-0.32332741768542
30
0
41
1
10
-13.0553525699327
20
-0.324980947170587
30
0
41
1
10
-13.0480635116123
20
-0.324980947171696
30
0
0
SPLINE
5
266
100
AcDbEntity
8
1
62
256
6
ByLayer
370
18
48
1
60
0
100
AcDbSpline
70
4
71
3
72
8
73
4
40
0
40
0
40
0
40
0
40
1
40
1
40
1
40
1
41
1
10
13.2065548385553
20
-0.249980947161674
30
0
41
1
10
13.5156694864504
20
-0.0381530827979475
30
0
41
1
10
13.821933986661
20
0.176823691691681
30
0
41
1
10
14.1255646241438
20
0.394519052838319
30
0
0
SPLINE
5
267
100
AcDbEntity
8
1
62
256
6
ByLayer
370
18
48
1
60
0
100
AcDbSpline
70
4
71
3
72
8
73
4
40
0
40
0
40
0
40
0
40
1
40
1
40
1
40
1
41
1
10
15.5782416750557
20
0.394519052838319
30
0
41
1
10
15.3778369233613
20
0.17929325880246
30
0
41
1
10
15.176890810297
20
-0.0355555125066189
30
0
41
1
10
14.9753453687125
20
-0.249980947161646
30
0
0
SPLINE
5
268
100
AcDbEntity
8
1
62
256
6
ByLayer
370
18
48
1
60
0
100
AcDbSpline
70
4
71
3
72
8
73
4
40
0
40
0
40
0
40
0
40
1
40
1
40
1
40
1
41
1
10
-11.9185094462047
20
-0.249980947160964
30
0
41
1
10
-12.0941736247426
20
-0.0351520577178803
30
0
41
1
10
-12.2698302504263
20
0.179681463779445
30
0
41
1
10
-12.4454802424853
20
0.394519052838319
30
0
0
SPLINE
5
269
100
AcDbEntity
8
1
62
256
6
ByLayer
370
18
48
1
60
0
100
AcDbSpline
70
4
71
3
72
8
73
4
40
0
40
0
40
0
40
0
40
1
40
1
40
1
40
1
41
1
10
14.2655750866985
20
0.394519052838319
30
0
41
1
10
14.0862027448653
20
0.179623391888498
30
0
41
1
10
13.9067346952574
20
-0.0352123843836978
30
0
41
1
10
13.7271595028413
20
-0.249980947161504
30
0
0
SPLINE
5
26A
100
AcDbEntity
8
1
62
256
6
ByLayer
370
18
48
1
60
0
100
AcDbSpline
70
4
71
3
72
8
73
4
40
0
40
0
40
0
40
0
40
1
40
1
40
1
40
1
41
1
10
12.2619374897428
20
-0.249980947161674
30
0
41
1
10
12.6077271251985
20
-0.039431113194496
30
0
41
1
10
12.9499086383337
20
0.175618156092071
30
0
41
1
10
13.2887133686799
20
0.394519052838319
30
0
0
SPLINE
5
26B
100
AcDbEntity
8
1
62
256
6
ByLayer
370
18
48
1
60
0
100
AcDbSpline
70
4
71
3
72
16
73
12
40
0
40
0
40
0
40
0
40
0.28611402952292
40
0.28611402952292
40
0.542453234580619
40
0.542453234580619
40
0.759339564281142
40
0.759339564281142
40
0.976956743594421
40
0.976956743594421
40
1
40
1
40
1
40
1
41
1
10
14.7247732958313
20
-0.249980947161646
30
0
41
1
10
14.7148744379392
20
-0.261015070394677
30
0
41
1
10
14.7055791214772
20
-0.271836923516133
30
0
41
1
10
14.6905375708415
20
-0.29057761474985
30
0
41
1
10
14.6843977096198
20
-0.298853194918252
30
0
41
1
10
14.6763800692694
20
-0.311388354711056
30
0
41
1
10
14.6739334652851
20
-0.316180660745033
30
0
41
1
10
14.6722549008063
20
-0.32276228010798
30
0
41
1
10
14.6730216871088
20
-0.324617603447791
30
0
41
1
10
14.6754983907166
20
-0.324964257946363
30
0
41
1
10
14.6757551636965
20
-0.32498094716172
30
0
41
1
10
14.6760280503601
20
-0.32498094716172
30
0
0
SPLINE
5
26C
100
AcDbEntity
8
1
62
256
6
ByLayer
370
18
48
1
60
0
100
AcDbSpline
70
4
71
3
72
8
73
4
40
0
40
0
40
0
40
0
40
1
40
1
40
1
40
1
41
1
10
13.4702748862138
20
0.394519052838319
30
0
41
1
10
13.2941699218973
20
0.179674312264069
30
0
41
1
10
13.1180471579124
20
-0.0351594867746599
30
0
41
1
10
12.9419043311971
20
-0.249980947161362
30
0
0
SPLINE
5
26D
100
AcDbEntity
8
1
62
256
6
ByLayer
370
18
48
1
60
0
100
AcDbSpline
70
4
71
3
72
10
73
6
40
0
40
0
40
0
40
0
40
0.186271610582106
40
0.186271610582106
40
1
40
1
40
1
40
1
41
1
10
-3.02046224884998
20
-0.249980947161873
30
0
41
1
10
-2.94090381043355
20
-0.260162385412372
30
0
41
1
10
-2.86122003430509
20
-0.268979833515374
30
0
41
1
10
-2.43368518173998
20
-0.310420554991737
30
0
41
1
10
-2.08440322297619
20
-0.32498094716172
30
0
41
1
10
-1.73594520006293
20
-0.32498094716172
30
0
0
SPLINE
5
26E
100
AcDbEntity
8
1
62
256
6
ByLayer
370
18
48
1
60
0
100
AcDbSpline
70
4
71
3
72
14
73
10
40
0
40
0
40
0
40
0
40
0.148310540889382
40
0.148310540889382
40
0.366899149537833
40
0.366899149537833
40
0.677417792654788
40
0.677417792654788
40
1
40
1
40
1
40
1
41
1
10
14.9346150246876
20
-0.324980947161663
30
0
41
1
10
14.9354552366067
20
-0.324980947161663
30
0
41
1
10
14.9371092645473
20
-0.324160754848719
30
0
41
1
10
14.9428783796013
20
-0.320356494810255
30
0
41
1
10
14.9478622177256
20
-0.316479718203851
30
0
41
1
10
14.9621470625307
20
-0.304584318241069
30
0
41
1
10
14.9725832434923
20
-0.295356052143575
30
0
41
1
10
14.995506260303
20
-0.274467117840317
30
0
41
1
10
15.0083160559166
20
-0.262494720911747
30
0
41
1
10
15.0214849302391
20
-0.249980947161674
30
0
0
SPLINE
5
26F
100
AcDbEntity
8
1
62
256
6
ByLayer
370
18
48
1
60
0
100
AcDbSpline
70
4
71
3
72
8
73
4
40
0
40
0
40
0
40
0
40
1
40
1
40
1
40
1
41
1
10
14.4578369788356
20
-0.249980947161674
30
0
41
1
10
14.7165545878482
20
-0.0367246786073565
30
0
41
1
10
14.9734743701885
20
0.17817695458001
30
0
41
1
10
15.2287531289572
20
0.394519052838319
30
0
0
SPLINE
5
270
100
AcDbEntity
8
1
62
256
6
ByLayer
370
18
48
1
60
0
100
AcDbSpline
70
4
71
3
72
16
73
12
40
0
40
0
40
0
40
0
40
0.257145754580417
40
0.257145754580417
40
0.501449018457545
40
0.501449018457545
40
0.748679536951173
40
0.748679536951173
40
0.958167133841554
40
0.958167133841554
40
1
40
1
40
1
40
1
41
1
10
14.313522568363
20
-0.249980947161589
30
0
41
1
10
14.3049332565084
20
-0.259940900570143
30
0
41
1
10
14.2969504836048
20
-0.269786851084405
30
0
41
1
10
14.2838210882242
20
-0.287621827702054
30
0
41
1
10
14.2784452929685
20
-0.295849370532579
30
0
41
1
10
14.2712514213406
20
-0.309700739300354
30
0
41
1
10
14.2694151928763
20
-0.315467972624077
30
0
41
1
10
14.270041259184
20
-0.322447315574749
30
0
41
1
10
14.2718896826005
20
-0.324314198467249
30
0
41
1
10
14.2756222576543
20
-0.324930139654441
30
0
41
1
10
14.2763007288185
20
-0.324980947161663
30
0
41
1
10
14.2770266676248
20
-0.324980947161663
30
0
0
SPLINE
5
271
100
AcDbEntity
8
1
62
256
6
ByLayer
370
18
48
1
60
0
100
AcDbSpline
70
4
71
3
72
8
73
4
40
0
40
0
40
0
40
0
40
1
40
1
40
1
40
1
41
1
10
11.1279670839746
20
0.394519052838319
30
0
41
1
10
10.9481691530415
20
0.179596413473433
30
0
41
1
10
10.768236032589
20
-0.0352414690105434
30
0
41
1
10
10.5881465384976
20
-0.249980947159912
30
0
0
SPLINE
5
272
100
AcDbEntity
8
1
62
256
6
ByLayer
370
18
48
1
60
0
100
AcDbSpline
70
4
71
3
72
8
73
4
40
0
40
0
40
0
40
0
40
1
40
1
40
1
40
1
41
1
10
14.8184692127086
20
-0.249980947161674
30
0
41
1
10
15.0589048317345
20
-0.0363002935724239
30
0
41
1
10
15.2979243688086
20
0.17858090344896
30
0
41
1
10
15.5356555966799
20
0.394519052838319
30
0
0
SPLINE
5
273
100
AcDbEntity
8
1
62
256
6
ByLayer
370
18
48
1
60
0
100
AcDbSpline
70
4
71
3
72
12
73
8
40
0
40
0
40
0
40
0
40
0.490356236384203
40
0.490356236384203
40
0.864056390512571
40
0.864056390512571
40
1
40
1
40
1
40
1
41
1
10
-11.036173761814
20
-0.249980947161674
30
0
41
1
10
-10.9977722679888
20
-0.270158304105451
30
0
41
1
10
-10.9588104596628
20
-0.287555869172252
30
0
41
1
10
-10.8923425048367
20
-0.311015321082152
30
0
41
1
10
-10.8637571176936
20
-0.319006108865409
30
0
41
1
10
-10.8280127034473
20
-0.324171043632873
30
0
41
1
10
-10.8187227741418
20
-0.324980947168598
30
0
41
1
10
-10.810022161731
20
-0.324980947169763
30
0
0
SPLINE
5
274
100
AcDbEntity
8
1
62
256
6
ByLayer
370
18
48
1
60
0
100
AcDbSpline
70
4
71
3
72
16
73
12
40
0
40
0
40
0
40
0
40
0.142613309573481
40
0.142613309573481
40
0.381791799294491
40
0.381791799294491
40
0.587602847273146
40
0.587602847273146
40
0.772393592555001
40
0.772393592555001
40
1
40
1
40
1
40
1
41
1
10
-12.9317003032967
20
-0.324980947161976
30
0
41
1
10
-12.9276522986873
20
-0.324980947161976
30
0
41
1
10
-12.923989683158
20
-0.32450333187802
30
0
41
1
10
-12.9157706357179
20
-0.321710438722988
30
0
41
1
10
-12.9121701672709
20
-0.318252652394392
30
0
41
1
10
-12.9098900544253
20
-0.308628353720536
30
0
41
1
10
-12.9105863184268
20
-0.30276462731905
30
0
41
1
10
-12.9149767119328
20
-0.290152044566611
30
0
41
1
10
-12.9183810115474
20
-0.283424119783007
30
0
41
1
10
-12.9279080628973
20
-0.267962196418011
30
0
41
1
10
-12.9345536299968
20
-0.258945765065846
30
0
41
1
10
-12.9419043311969
20
-0.249980947161362
30
0
0
SPLINE
5
275
100
AcDbEntity
8
1
62
256
6
ByLayer
370
18
48
1
60
0
100
AcDbSpline
70
4
71
3
72
18
73
14
40
0
40
0
40
0
40
0
40
0.127059116657846
40
0.127059116657846
40
0.319583881778271
40
0.319583881778271
40
0.490236787955877
40
0.490236787955877
40
0.63376868576633
40
0.63376868576633
40
0.863005301773146
40
0.863005301773146
40
1
40
1
40
1
40
1
41
1
10
10.5881465384972
20
-0.249980947159855
30
0
41
1
10
10.583745643922
20
-0.255228592555369
30
0
41
1
10
10.5797041598131
20
-0.260561272209287
30
0
41
1
10
10.5710704497747
20
-0.273801219610902
30
0
41
1
10
10.5671484769107
20
-0.281872802476471
30
0
41
1
10
10.5639288048516
20
-0.295501270288412
30
0
41
1
10
10.5641572751432
20
-0.301408049502612
30
0
41
1
10
10.5676736335364
20
-0.310193414945729
30
0
41
1
10
10.5704775131361
20
-0.313525013493461
30
0
41
1
10
10.5797593562549
20
-0.320249995223065
30
0
41
1
10
10.5875211929803
20
-0.32267773819612
30
0
41
1
10
10.6012425092499
20
-0.324655384442025
30
0
41
1
10
10.6067446240557
20
-0.324980947163254
30
0
41
1
10
10.6124575382186
20
-0.324980947163198
30
0
0
SPLINE
5
276
100
AcDbEntity
8
1
62
256
6
ByLayer
370
18
48
1
60
0
100
AcDbSpline
70
4
71
3
72
8
73
4
40
0
40
0
40
0
40
0
40
1
40
1
40
1
40
1
41
1
10
6.94370199056411
20
0.394519052830475
30
0
41
1
10
6.70650135148043
20
0.177151996836358
30
0
41
1
10
6.46647219367966
20
-0.0379421778052063
30
0
41
1
10
6.22292588126976
20
-0.249980947141125
30
0
0
SPLINE
5
277
100
AcDbEntity
8
1
62
256
6
ByLayer
370
18
48
1
60
0
100
AcDbSpline
70
4
71
3
72
8
73
4
40
0
40
0
40
0
40
0
40
1
40
1
40
1
40
1
41
1
10
1.91224221525752
20
0.394519052838319
30
0
41
1
10
0.670321048517366
20
0.0406575122095774
30
0
41
1
10
-0.669664464343356
20
0.0404704311793864
30
0
41
1
10
-1.91224221527554
20
0.394519052843464
30
0
0
SPLINE
5
278
100
AcDbEntity
8
1
62
256
6
ByLayer
370
18
48
1
60
0
100
AcDbSpline
70
4
71
3
72
8
73
4
40
0
40
0
40
0
40
0
40
1
40
1
40
1
40
1
41
1
10
15.707957879066
20
0.394519052838319
30
0
41
1
10
15.4971665587786
20
0.179113932172044
30
0
41
1
10
15.2856247684893
20
-0.0357424669155932
30
0
41
1
10
15.0732541015804
20
-0.249980947161674
30
0
0
SPLINE
5
279
100
AcDbEntity
8
1
62
256
6
ByLayer
370
18
48
1
60
0
100
AcDbSpline
70
4
71
3
72
22
73
18
40
0
40
0
40
0
40
0
40
0.224920131299892
40
0.224920131299892
40
0.379221808200373
40
0.379221808200373
40
0.500684329844811
40
0.500684329844811
40
0.600779192241998
40
0.600779192241998
40
0.701249220571197
40
0.701249220571197
40
0.796838639679275
40
0.796838639679275
40
0.93332668196365
40
0.93332668196365
40
1
40
1
40
1
40
1
41
1
10
15.2287531289572
20
0.394519052838319
30
0
41
1
10
15.2506189180694
20
0.413049739525434
30
0
41
1
10
15.2722205146504
20
0.430366451336511
30
0
41
1
10
15.3051600407172
20
0.454559591326159
30
0
41
1
10
15.3178618463378
20
0.463187130264487
30
0
41
1
10
15.3369126587579
20
0.474279133571258
30
0
41
1
10
15.3441925151118
20
0.477735613090999
30
0
41
1
10
15.3536032850623
20
0.480019223018615
30
0
41
1
10
15.3564802049761
20
0.479543559611784
30
0
41
1
10
15.3585784841317
20
0.475203902692158
30
0
41
1
10
15.3578005077481
20
0.471258548980899
30
0
41
1
10
15.3529877551612
20
0.460894675055727
30
0
41
1
10
15.3490803817328
20
0.454504382157495
30
0
41
1
10
15.3370431818937
20
0.437262775683081
30
0
41
1
10
15.3276728876383
20
0.425420273162786
30
0
41
1
10
15.3121361911584
20
0.407056904780234
30
0
41
1
10
15.3067111309111
20
0.400827493081408
30
0
41
1
10
15.3010877601029
20
0.394519052838319
30
0
0
SPLINE
5
27A
100
AcDbEntity
8
1
62
256
6
ByLayer
370
18
48
1
60
0
100
AcDbSpline
70
4
71
3
72
10
73
6
40
0
40
0
40
0
40
0
40
0.459319796283903
40
0.459319796283903
40
1
40
1
40
1
40
1
41
1
10
6.74249188881672
20
-0.324980947161663
30
0
41
1
10
6.80261331658281
20
-0.324980947161492
30
0
41
1
10
6.8661944337764
20
-0.316913867325894
30
0
41
1
10
7.00399613287334
20
-0.292170762438673
30
0
41
1
10
7.0794900436585
20
-0.273458170931548
30
0
41
1
10
7.15410175340941
20
-0.249980947161816
30
0
0
SPLINE
5
27B
100
AcDbEntity
8
1
62
256
6
ByLayer
370
18
48
1
60
0
100
AcDbSpline
70
4
71
3
72
14
73
10
40
0
40
0
40
0
40
0
40
0.379746953879905
40
0.379746953879905
40
0.629410406217444
40
0.629410406217444
40
0.882071193138918
40
0.882071193138918
40
1
40
1
40
1
40
1
41
1
10
14.9753453687125
20
-0.249980947161646
30
0
41
1
10
14.9616513873485
20
-0.264550058142447
30
0
41
1
10
14.9487265143989
20
-0.278704445568565
30
0
41
1
10
14.9312760899335
20
-0.298796181188891
30
0
41
1
10
14.9252602249748
20
-0.30604935349038
30
0
41
1
10
14.9166378061508
20
-0.317405805404803
30
0
41
1
10
14.913986811678
20
-0.321600939104854
30
0
41
1
10
14.9133574207557
20
-0.324511930873484
30
0
41
1
10
14.913629185068
20
-0.324980947161663
30
0
41
1
10
14.9143591280969
20
-0.324980947161663
30
0
0
SPLINE
5
27C
100
AcDbEntity
8
1
62
256
6
ByLayer
370
18
48
1
60
0
100
AcDbSpline
70
4
71
3
72
8
73
4
40
0
40
0
40
0
40
0
40
1
40
1
40
1
40
1
41
1
10
-12.2126258453701
20
0.394519052838319
30
0
41
1
10
-11.8249775203537
20
0.173642235123822
30
0
41
1
10
-11.4328923426465
20
-0.0415324829398855
30
0
41
1
10
-11.036173761814
20
-0.249980947161674
30
0
0
SPLINE
5
27D
100
AcDbEntity
8
1
62
256
6
ByLayer
370
18
48
1
60
0
100
AcDbSpline
70
4
71
3
72
10
73
6
40
0
40
0
40
0
40
0
40
0.144705430509796
40
0.144705430509796
40
1
40
1
40
1
40
1
41
1
10
1.7359452000629
20
-0.324980947161834
30
0
41
1
10
1.79799804895688
20
-0.324980947161805
30
0
41
1
10
1.86006771777377
20
-0.324462216526342
30
0
41
1
10
2.28847201001918
20
-0.317515076447023
30
0
41
1
10
2.65571656419706
20
-0.296659033601657
30
0
41
1
10
3.02046224884998
20
-0.249980947161703
30
0
0
SPLINE
5
27E
100
AcDbEntity
8
1
62
256
6
ByLayer
370
18
48
1
60
0
100
AcDbSpline
70
4
71
3
72
22
73
18
40
0
40
0
40
0
40
0
40
0.310963157825463
40
0.310963157825463
40
0.473303258737706
40
0.473303258737706
40
0.604311055077311
40
0.604311055077311
40
0.694160899696357
40
0.694160899696357
40
0.785116473786429
40
0.785116473786429
40
0.862958867247374
40
0.862958867247374
40
0.962755724221674
40
0.962755724221674
40
1
40
1
40
1
40
1
41
1
10
13.2887133686799
20
0.394519052838319
30
0
41
1
10
13.3259767530881
20
0.418594833168868
30
0
41
1
10
13.3637302428538
20
0.439916252179614
30
0
41
1
10
13.4170689658376
20
0.463904065277632
30
0
41
1
10
13.4349849274663
20
0.470732084820156
30
0
41
1
10
13.4640621597707
20
0.478407435824011
30
0
41
1
10
13.4761138407324
20
0.480200935288139
30
0
41
1
10
13.4921531702907
20
0.478643688768472
30
0
41
1
10
13.497580528275
20
0.476672329370274
30
0
41
1
10
13.5045990863472
20
0.469483355213271
30
0
41
1
10
13.5061876278541
20
0.46407181268583
30
0
41
1
10
13.504866285042
20
0.451484190139468
30
0
41
1
10
13.5025717318282
20
0.444533214072265
30
0
41
1
10
13.4943929866603
20
0.427601809744345
30
0
41
1
10
13.4876074343615
20
0.417078427528878
30
0
41
1
10
13.4767208880617
20
0.402543796275012
30
0
41
1
10
13.4735654074438
20
0.398533426781398
30
0
41
1
10
13.4702748862138
20
0.394519052838319
30
0
0
SPLINE
5
27F
100
AcDbEntity
8
1
62
256
6
ByLayer
370
18
48
1
60
0
100
AcDbSpline
70
4
71
3
72
8
73
4
40
0
40
0
40
0
40
0
40
1
40
1
40
1
40
1
41
1
10
-10.5881465384976
20
-0.249980947159912
30
0
41
1
10
-10.768236032589
20
-0.0352414690105434
30
0
41
1
10
-10.9481691530415
20
0.179596413473433
30
0
41
1
10
-11.1279670839746
20
0.394519052838319
30
0
0
SPLINE
5
280
100
AcDbEntity
8
1
62
256
6
ByLayer
370
18
48
1
60
0
100
AcDbSpline
70
4
71
3
72
22
73
18
40
0
40
0
40
0
40
0
40
0.097897130357258
40
0.097897130357258
40
0.19722099486869
40
0.19722099486869
40
0.297674478037221
40
0.297674478037221
40
0.383340149294784
40
0.383340149294784
40
0.493549622564552
40
0.493549622564552
40
0.652120311394792
40
0.652120311394792
40
0.896265038071923
40
0.896265038071923
40
1
40
1
40
1
40
1
41
1
10
-14.2655750866986
20
0.394519052838348
30
0
41
1
10
-14.2738698492025
20
0.40445652955566
30
0
41
1
10
-14.2815093880685
20
0.414358192498867
30
0
41
1
10
-14.2943681274782
20
0.43321805971604
30
0
41
1
10
-14.2996541198795
20
0.442349329307035
30
0
41
1
10
-14.3062268105037
20
0.458106704743415
30
0
41
1
10
-14.3075114560563
20
0.464904709133435
30
0
41
1
10
-14.3055906435839
20
0.473869644645958
30
0
41
1
10
-14.3030117267558
20
0.476693412357577
30
0
41
1
10
-14.2941774119321
20
0.480074004307681
30
0
41
1
10
-14.2869944113003
20
0.479855532803128
30
0
41
1
10
-14.2667365010242
20
0.475607351824806
30
0
41
1
10
-14.2521594753836
20
0.46997479906679
30
0
41
1
10
-14.2130931440665
20
0.451397153570554
30
0
41
1
10
-14.1867055568193
20
0.435848291499326
30
0
41
1
10
-14.1486880497904
20
0.410777599051585
30
0
41
1
10
-14.1371407013158
20
0.40281880256552
30
0
41
1
10
-14.1255646241438
20
0.394519052838319
30
0
0
SPLINE
5
281
100
AcDbEntity
8
1
62
256
6
ByLayer
370
18
48
1
60
0
100
AcDbSpline
70
4
71
3
72
8
73
4
40
0
40
0
40
0
40
0
40
1
40
1
40
1
40
1
41
1
10
15.0214849302391
20
-0.249980947161674
30
0
41
1
10
15.2466848965984
20
-0.0359838082621025
30
0
41
1
10
15.4707869492618
20
0.178882981340649
30
0
41
1
10
15.6938926902978
20
0.394519052838319
30
0
0
SPLINE
5
282
100
AcDbEntity
8
1
62
256
6
ByLayer
370
18
48
1
60
0
100
AcDbSpline
70
4
71
3
72
10
73
6
40
0
40
0
40
0
40
0
40
0.771301735540524
40
0.771301735540524
40
1
40
1
40
1
40
1
41
1
10
9.96637832280632
20
-0.249980947161703
30
0
41
1
10
10.0408176727152
20
-0.280259825286521
30
0
41
1
10
10.1173452415099
20
-0.306006207234816
30
0
41
1
10
10.2078746221614
20
-0.322431286562448
30
0
41
1
10
10.2284030215098
20
-0.324980947161663
30
0
41
1
10
10.2470436468824
20
-0.324980947161663
30
0
0
SPLINE
5
283
100
AcDbEntity
8
1
62
256
6
ByLayer
370
18
48
1
60
0
100
AcDbSpline
70
4
71
3
72
16
73
12
40
0
40
0
40
0
40
0
40
0.22251285066835
40
0.22251285066835
40
0.448070552248662
40
0.448070552248662
40
0.676305315130621
40
0.676305315130621
40
0.869704041580533
40
0.869704041580533
40
1
40
1
40
1
40
1
41
1
10
-11.1114500273986
20
-0.249980947161504
30
0
41
1
10
-11.1187156930949
20
-0.258687830989317
30
0
41
1
10
-11.1254102591126
20
-0.267364003653455
30
0
41
1
10
-11.1366779258046
20
-0.283899700786748
30
0
41
1
10
-11.1413117528547
20
-0.29191191433759
30
0
41
1
10
-11.1470518100655
20
-0.305778335253052
30
0
41
1
10
-11.1481511231505
20
-0.311784666057719
30
0
41
1
10
-11.1463476903669
20
-0.319726929309837
30
0
41
1
10
-11.1440220975294
20
-0.32225255559058
30
0
41
1
10
-11.1382155195722
20
-0.324551544378352
30
0
41
1
10
-11.1353405374696
20
-0.324980947161862
30
0
41
1
10
-11.1320782392769
20
-0.324980947161862
30
0
0
SPLINE
5
284
100
AcDbEntity
8
1
62
256
6
ByLayer
370
18
48
1
60
0
100
AcDbSpline
70
4
71
3
72
22
73
18
40
0
40
0
40
0
40
0
40
0.248961952473749
40
0.248961952473749
40
0.40888751743087
40
0.40888751743087
40
0.533140377008294
40
0.533140377008294
40
0.63126850235244
40
0.63126850235244
40
0.730005436408639
40
0.730005436408639
40
0.820668477418996
40
0.820668477418996
40
0.946178447764334
40
0.946178447764334
40
1
40
1
40
1
40
1
41
1
10
14.763917126115
20
0.394519052838319
30
0
41
1
10
14.789550435784
20
0.414611213404754
30
0
41
1
10
14.81510967061
20
0.433113616388141
30
0
41
1
10
14.8534601335993
20
0.457561046288731
30
0
41
1
10
14.8678551770616
20
0.465799589323154
30
0
41
1
10
14.8898221017138
20
0.475884498919754
30
0
41
1
10
14.8983781859349
20
0.47880525721456
30
0
41
1
10
14.9097397660641
20
0.47987618326394
30
0
41
1
10
14.913453095127
20
0.478872496919251
30
0
41
1
10
14.9171176068637
20
0.473484794718246
30
0
41
1
10
14.9170695568085
20
0.468984295953589
30
0
41
1
10
14.9133884681728
20
0.457713881430919
30
0
41
1
10
14.9100281223292
20
0.451044199560471
30
0
41
1
10
14.8993388981663
20
0.433632627406894
30
0
41
1
10
14.8908592654963
20
0.422057167878847
30
0
41
1
10
14.877160672125
20
0.405038759915442
30
0
41
1
10
14.8727904400247
20
0.399800143685212
30
0
41
1
10
14.8682534145172
20
0.394519052838319
30
0
0
SPLINE
5
285
100
AcDbEntity
8
1
62
256
6
ByLayer
370
18
48
1
60
0
100
AcDbSpline
70
4
71
3
72
8
73
4
40
0
40
0
40
0
40
0
40
1
40
1
40
1
40
1
41
1
10
13.3715670945776
20
0.669999999999987
30
0
41
1
10
13.417242697882
20
0.669999999999987
30
0
41
1
10
13.4637442462305
20
0.671668558128289
30
0
41
1
10
13.5110697207457
20
0.674999999999983
30
0
0
SPLINE
5
286
100
AcDbEntity
8
1
62
256
6
ByLayer
370
18
48
1
60
0
100
AcDbSpline
70
4
71
3
72
10
73
6
40
0
40
0
40
0
40
0
40
0.500000000000003
40
0.500000000000003
40
1
40
1
40
1
40
1
41
1
10
-0.178854689622881
20
0.669999999999987
30
0
41
1
10
-0.119239254797094
20
0.669333385427166
30
0
41
1
10
-0.0596191617221677
20
0.668999999999983
30
0
41
1
10
0.0596191617221677
20
0.668999999999983
30
0
41
1
10
0.119239254797094
20
0.669333385427166
30
0
41
1
10
0.178854689622881
20
0.669999999999987
30
0
0
SPLINE
5
287
100
AcDbEntity
8
1
62
256
6
ByLayer
370
18
48
1
60
0
100
AcDbSpline
70
4
71
3
72
8
73
4
40
0
40
0
40
0
40
0
40
1
40
1
40
1
40
1
41
1
10
-14.2323721156023
20
-0.01762788439774
30
0
41
1
10
-14.4615350743973
20
0.211535074397318
30
0
41
1
10
-14.6907458971993
20
0.440745897199349
30
0
41
1
10
-14.92
20
0.669999999999987
30
0
0
SPLINE
5
288
100
AcDbEntity
8
1
62
256
6
ByLayer
370
18
48
1
60
0
100
AcDbSpline
70
4
71
3
72
16
73
12
40
0
40
0
40
0
40
0
40
0.247552615783251
40
0.247552615783251
40
0.494998787744203
40
0.494998787744203
40
0.742273482038965
40
0.742273482038965
40
0.915467695109102
40
0.915467695109102
40
1
40
1
40
1
40
1
41
1
10
17.5999999999999
20
8.75000000000006
30
0
41
1
10
17.3988538022214
20
8.75000000000006
30
0
41
1
10
17.1982815371933
20
8.71132659757205
30
0
41
1
10
16.830263775865
20
8.56654074755266
30
0
41
1
10
16.657277607061
20
8.45842773841656
30
0
41
1
10
16.362544621857
20
8.18396964808423
30
0
41
1
10
16.2357163727507
20
8.01244646217305
30
0
41
1
10
16.0841416074346
20
7.68350668090696
30
0
41
1
10
16.0388509283393
20
7.53321836095796
30
0
41
1
10
16.005598658736
20
7.30406501455423
30
0
41
1
10
15.9999999999999
20
7.22688816755138
30
0
41
1
10
15.9999999999999
20
7.15000000000006
30
0
0
SPLINE
5
289
100
AcDbEntity
8
1
62
256
6
ByLayer
370
18
48
1
60
0
100
AcDbSpline
70
4
71
3
72
14
73
10
40
0
40
0
40
0
40
0
40
0.208995027535852
40
0.208995027535852
40
0.417850725206471
40
0.417850725206471
40
0.626704295977396
40
0.626704295977396
40
1
40
1
40
1
40
1
41
1
10
41.0981203716814
20
8.62808059894545
30
0
41
1
10
41.1562077150717
20
8.62809056645801
30
0
41
1
10
41.2193237323134
20
8.62742438184998
30
0
41
1
10
41.3529850333382
20
8.62476588277792
30
0
41
1
10
41.4239830856551
20
8.62276533923995
30
0
41
1
10
41.5714347232615
20
8.61750334780021
30
0
41
1
10
41.6483929364638
20
8.61422391422022
30
0
41
1
10
41.8664550970089
20
8.60351754742493
30
0
41
1
10
42.0134966889726
20
8.59470430342935
30
0
41
1
10
42.1587805434602
20
8.58449502383934
30
0
0
SPLINE
5
28A
100
AcDbEntity
8
1
62
256
6
ByLayer
370
18
48
1
60
0
100
AcDbSpline
70
4
71
3
72
8
73
4
40
0
40
0
40
0
40
0
40
1
40
1
40
1
40
1
41
1
10
42.3587805434613
20
8.57044077173202
30
0
41
1
10
42.4750917668497
20
8.56226743545031
30
0
41
1
10
42.591741836253
20
8.55335007058088
30
0
41
1
10
42.7060768987951
20
8.5438954485366
30
0
0
SPLINE
5
28B
100
AcDbEntity
8
1
62
256
6
ByLayer
370
18
48
1
60
0
100
AcDbSpline
70
4
71
3
72
16
73
12
40
0
40
0
40
0
40
0
40
0.202092460849677
40
0.202092460849677
40
0.40403224558886
40
0.40403224558886
40
0.608298678109016
40
0.608298678109016
40
0.816163444624776
40
0.816163444624776
40
1
40
1
40
1
40
1
41
1
10
43.2892494524132
20
8.49965914303488
30
0
41
1
10
43.3220366161256
20
8.4976387335665
30
0
41
1
10
43.3555757070522
20
8.50133596651955
30
0
41
1
10
43.418560543168
20
8.51941121847918
30
0
41
1
10
43.4488706298536
20
8.53402078878045
30
0
41
1
10
43.5026257090698
20
8.57207346638862
30
0
41
1
10
43.5267215742437
20
8.59612646051949
30
0
41
1
10
43.5656361058238
20
8.65057010832589
30
0
41
1
10
43.5808214046758
20
8.68180774486743
30
0
41
1
10
43.5988410260334
20
8.74309128442204
30
0
41
1
10
43.6030935129214
20
8.77352028280475
30
0
41
1
10
43.6028388286042
20
8.80363045874643
30
0
0
SPLINE
5
28C
100
AcDbEntity
8
1
62
256
6
ByLayer
370
18
48
1
60
0
100
AcDbSpline
70
4
71
3
72
16
73
12
40
0
40
0
40
0
40
0
40
0.21060160365595
40
0.21060160365595
40
0.421213120944743
40
0.421213120944743
40
0.631488126466471
40
0.631488126466471
40
0.839116239426997
40
0.839116239426997
40
1
40
1
40
1
40
1
41
1
10
43.6028388286042
20
10.6963695412535
30
0
41
1
10
43.6031296556105
20
10.7307527040103
30
0
41
1
10
43.5975070259551
20
10.7656080877359
30
0
41
1
10
43.5754093689247
20
10.8304982075362
30
0
41
1
10
43.5586256018935
20
10.8614347625975
30
0
41
1
10
43.5163383595429
20
10.9150529788111
30
0
41
1
10
43.4902502953765
20
10.938496769738
30
0
41
1
10
43.4328186585456
20
10.9743496716447
30
0
41
1
10
43.4007334811871
20
10.9873902149457
30
0
41
1
10
43.34215887377
20
10.9999462562826
30
0
41
1
10
43.3154914357367
20
11.0019579395539
30
0
41
1
10
43.2892494524132
20
11.0003408569651
30
0
0
SPLINE
5
28D
100
AcDbEntity
8
1
62
256
6
ByLayer
370
18
48
1
60
0
100
AcDbSpline
70
4
71
3
72
14
73
10
40
0
40
0
40
0
40
0
40
0.209562190252725
40
0.209562190252725
40
0.419048660097218
40
0.419048660097218
40
0.628042586344193
40
0.628042586344193
40
1
40
1
40
1
40
1
41
1
10
42.1587805434613
20
10.9155049761612
30
0
41
1
10
42.0766126081606
20
10.9097309317722
30
0
41
1
10
41.9940966332411
20
10.9044113402666
30
0
41
1
10
41.8317767669575
20
10.8949047593479
30
0
41
1
10
41.751417699214
20
10.8906849415349
30
0
41
1
10
41.59577107806
20
10.8834961737295
30
0
41
1
10
41.5199400027966
20
10.880499757692
30
0
41
1
10
41.3197346270461
20
10.8740257942407
30
0
41
1
10
41.2007351939601
20
10.8719017928368
30
0
41
1
10
41.0981203716825
20
10.8719194010535
30
0
0
SPLINE
5
28E
100
AcDbEntity
8
1
62
256
6
ByLayer
370
18
48
1
60
0
100
AcDbSpline
70
4
71
3
72
8
73
4
40
0
40
0
40
0
40
0
40
1
40
1
40
1
40
1
41
1
10
42.7060768987951
20
10.9561045514633
30
0
41
1
10
42.591741836253
20
10.9466499294191
30
0
41
1
10
42.4750917668497
20
10.9377325645496
30
0
41
1
10
42.3587805434613
20
10.9295592282679
30
0
0
LINE
5
70
100
AcDbEntity
8
81
62
256
6
ByLayer
370
18
48
1
60
0
100
AcDbLine
10
43.6
20
11
30
0
11
48.6
21
11
31
0
39
0
210
0
220
0
230
1
0
LINE
5
71
100
AcDbEntity
8
80
62
256
6
ByLayer
370
18
48
1
60
0
100
AcDbLine
10
0
20
0
30
0
11
-5
21
0
31
0
39
0
210
0
220
0
230
1
0
LINE
5
72
100
AcDbEntity
8
1
62
256
6
ByLayer
370
18
48
1
60
0
100
AcDbLine
10
15.000019
20
-0.324981
30
0
11
16
21
0.675
31
0
39
0
210
0
220
0
230
1
0
LINE
5
74
100
AcDbEntity
8
1
62
256
6
ByLayer
370
18
48
1
60
0
100
AcDbLine
10
16
20
0.675
30
0
11
16
21
0.75
31
0
39
0
210
0
220
0
230
1
0
LINE
5
75
100
AcDbEntity
8
1
62
256
6
ByLayer
370
18
48
1
60
0
100
AcDbLine
10
14.9346
20
-0.324981
30
0
11
14.999681
21
-0.324981
31
0
39
0
210
0
220
0
230
1
0
LINE
5
76
100
AcDbEntity
8
1
62
256
6
ByLayer
370
13
48
1
60
0
100
AcDbLine
10
15.228676
20
0.394519
30
0
11
15.301088
21
0.394519
31
0
39
0
210
0
220
0
230
1
0
LINE
5
77
100
AcDbEntity
8
1
62
256
6
ByLayer
370
13
48
1
60
0
100
AcDbLine
10
14.457757
20
-0.249981
30
0
11
14.724773
21
-0.249981
31
0
39
0
210
0
220
0
230
1
0
LINE
5
78
100
AcDbEntity
8
1
62
256
6
ByLayer
370
13
48
1
60
0
100
AcDbLine
10
15.535623
20
0.394519
30
0
11
15.578242
21
0.394519
31
0
39
0
210
0
220
0
230
1
0
LINE
5
79
100
AcDbEntity
8
1
62
256
6
ByLayer
370
13
48
1
60
0
100
AcDbLine
10
14.81846
20
-0.249981
30
0
11
14.975345
21
-0.249981
31
0
39
0
210
0
220
0
230
1
0
LINE
5
7A
100
AcDbEntity
8
1
62
256
6
ByLayer
370
13
48
1
60
0
100
AcDbLine
10
15.693845
20
0.394519
30
0
11
15.707958
21
0.394519
31
0
39
0
210
0
220
0
230
1
0
LINE
5
7B
100
AcDbEntity
8
1
62
256
6
ByLayer
370
13
48
1
60
0
100
AcDbLine
10
40.311238
20
8.75
30
0
11
40.311238
21
8.977886
31
0
39
0
210
0
220
0
230
1
0
LINE
5
7C
100
AcDbEntity
8
1
62
256
6
ByLayer
370
13
48
1
60
0
100
AcDbLine
10
40.311238
20
8.977886
30
0
11
40.637348
21
8.961829
31
0
39
0
210
0
220
0
230
1
0
LINE
5
7D
100
AcDbEntity
8
1
62
256
6
ByLayer
370
13
48
1
60
0
100
AcDbLine
10
40.830259
20
8.63536
30
0
11
40.818821
21
8.798931
31
0
39
0
210
0
220
0
230
1
0
LINE
5
7E
100
AcDbEntity
8
1
62
256
6
ByLayer
370
13
48
1
60
0
100
AcDbLine
10
40.830259
20
10.86464
30
0
11
40.818821
21
10.701069
31
0
39
0
210
0
220
0
230
1
0
LINE
5
7F
100
AcDbEntity
8
1
62
256
6
ByLayer
370
13
48
1
60
0
100
AcDbLine
10
40.637348
20
10.538171
30
0
11
40.311238
21
10.522114
31
0
39
0
210
0
220
0
230
1
0
LINE
5
80
100
AcDbEntity
8
1
62
256
6
ByLayer
370
13
48
1
60
0
100
AcDbLine
10
40.311238
20
10.522114
30
0
11
40.311238
21
10.75
31
0
39
0
210
0
220
0
230
1
0
LINE
5
81
100
AcDbEntity
8
1
62
256
6
ByLayer
370
13
48
1
60
0
100
AcDbLine
10
41.09812
20
8.816567
30
0
11
41.09812
21
8.628081
31
0
39
0
210
0
220
0
230
1
0
LINE
5
82
100
AcDbEntity
8
1
62
256
6
ByLayer
370
13
48
1
60
0
100
AcDbLine
10
42.158781
20
8.717002
30
0
11
42.158781
21
8.584495
31
0
39
0
210
0
220
0
230
1
0
LINE
5
83
100
AcDbEntity
8
1
62
256
6
ByLayer
370
13
48
1
60
0
100
AcDbLine
10
42.158781
20
10.782998
30
0
11
42.158781
21
10.915505
31
0
39
0
210
0
220
0
230
1
0
LINE
5
84
100
AcDbEntity
8
1
62
256
6
ByLayer
370
13
48
1
60
0
100
AcDbLine
10
41.09812
20
10.683433
30
0
11
41.09812
21
10.871919
31
0
39
0
210
0
220
0
230
1
0
LINE
5
85
100
AcDbEntity
8
1
62
256
6
ByLayer
370
13
48
1
60
0
100
AcDbLine
10
40.607425
20
9.242132
30
0
11
40.147776
21
9.264764
31
0
39
0
210
0
220
0
230
1
0
LINE
5
86
100
AcDbEntity
8
1
62
256
6
ByLayer
370
13
48
1
60
0
100
AcDbLine
10
40.147776
20
10.235236
30
0
11
40.607425
21
10.257868
31
0
39
0
210
0
220
0
230
1
0
LINE
5
87
100
AcDbEntity
8
1
62
256
6
ByLayer
370
13
48
1
60
0
100
AcDbLine
10
40.637348
20
8.961829
30
0
11
40.784585
21
9.117882
31
0
39
0
210
0
220
0
230
1
0
LINE
5
88
100
AcDbEntity
8
1
62
256
6
ByLayer
370
13
48
1
60
0
100
AcDbLine
10
40.784585
20
10.382118
30
0
11
40.637348
21
10.538171
31
0
39
0
210
0
220
0
230
1
0
LINE
5
89
100
AcDbEntity
8
1
62
256
6
ByLayer
370
13
48
1
60
0
100
AcDbLine
10
40.995173
20
8.814267
30
0
11
41.008193
21
8.628065
31
0
39
0
210
0
220
0
230
1
0
LINE
5
8A
100
AcDbEntity
8
1
62
256
6
ByLayer
370
13
48
1
60
0
100
AcDbLine
10
40.995173
20
10.685733
30
0
11
41.008193
21
10.871935
31
0
39
0
210
0
220
0
230
1
0
LINE
5
8B
100
AcDbEntity
8
1
62
256
6
ByLayer
370
13
48
1
60
0
100
AcDbLine
10
40.659386
20
10.213592
30
0
11
40.036893
21
10.213592
31
0
39
0
210
0
220
0
230
1
0
LINE
5
8C
100
AcDbEntity
8
1
62
256
6
ByLayer
370
13
48
1
60
0
100
AcDbLine
10
40.659386
20
9.286408
30
0
11
40.036893
21
9.286408
31
0
39
0
210
0
220
0
230
1
0
LINE
5
8D
100
AcDbEntity
8
1
62
256
6
ByLayer
370
13
48
1
60
0
100
AcDbLine
10
40.242833
20
10.522114
30
0
11
40.311238
21
10.522114
31
0
39
0
210
0
220
0
230
1
0
LINE
5
8E
100
AcDbEntity
8
1
62
256
6
ByLayer
370
13
48
1
60
0
100
AcDbLine
10
40.242833
20
8.977886
30
0
11
40.311238
21
8.977886
31
0
39
0
210
0
220
0
230
1
0
LINE
5
8F
100
AcDbEntity
8
1
62
256
6
ByLayer
370
13
48
1
60
0
100
AcDbLine
10
40.242833
20
10.75
30
0
11
40.242833
21
10.522114
31
0
39
0
210
0
220
0
230
1
0
LINE
5
90
100
AcDbEntity
8
1
62
256
6
ByLayer
370
13
48
1
60
0
100
AcDbLine
10
40.242833
20
8.977886
30
0
11
40.242833
21
8.75
31
0
39
0
210
0
220
0
230
1
0
LINE
5
91
100
AcDbEntity
8
1
62
256
6
ByLayer
370
13
48
1
60
0
100
AcDbLine
10
40.070241
20
10.420672
30
0
11
39.959359
21
10.399029
31
0
39
0
210
0
220
0
230
1
0
LINE
5
92
100
AcDbEntity
8
1
62
256
6
ByLayer
370
13
48
1
60
0
100
AcDbLine
10
39.317283
20
10.633917
30
0
11
39.317283
21
10.75
31
0
39
0
210
0
220
0
230
1
0
LINE
5
93
100
AcDbEntity
8
1
62
256
6
ByLayer
370
13
48
1
60
0
100
AcDbLine
10
39.317283
20
8.75
30
0
11
39.317283
21
8.866083
31
0
39
0
210
0
220
0
230
1
0
LINE
5
94
100
AcDbEntity
8
1
62
256
6
ByLayer
370
13
48
1
60
0
100
AcDbLine
10
39.959359
20
9.100971
30
0
11
40.070241
21
9.079328
31
0
39
0
210
0
220
0
230
1
0
LINE
5
95
100
AcDbEntity
8
1
62
256
6
ByLayer
370
13
48
1
60
0
100
AcDbLine
10
40.147776
20
9.264764
30
0
11
40.036893
21
9.286408
31
0
39
0
210
0
220
0
230
1
0
LINE
5
96
100
AcDbEntity
8
1
62
256
6
ByLayer
370
13
48
1
60
0
100
AcDbLine
10
40.036893
20
10.213592
30
0
11
40.147776
21
10.235236
31
0
39
0
210
0
220
0
230
1
0
LINE
5
97
100
AcDbEntity
8
1
62
256
6
ByLayer
370
13
48
1
60
0
100
AcDbLine
10
29.890738
20
10.75
30
0
11
29.890738
21
8.75
31
0
39
0
210
0
220
0
230
1
0
LINE
5
98
100
AcDbEntity
8
1
62
256
6
ByLayer
370
13
48
1
60
0
100
AcDbLine
10
39.23041
20
10.75
30
0
11
39.23041
21
10.625983
31
0
39
0
210
0
220
0
230
1
0
LINE
5
99
100
AcDbEntity
8
1
62
256
6
ByLayer
370
13
48
1
60
0
100
AcDbLine
10
39.23041
20
8.874017
30
0
11
39.23041
21
8.75
31
0
39
0
210
0
220
0
230
1
0
LINE
5
9A
100
AcDbEntity
8
1
62
256
6
ByLayer
370
13
48
1
60
0
100
AcDbLine
10
39.06942
20
10.117998
30
0
11
39.388749
21
10.117998
31
0
39
0
210
0
220
0
230
1
0
LINE
5
9B
100
AcDbEntity
8
1
62
256
6
ByLayer
370
13
48
1
60
0
100
AcDbLine
10
39.015612
20
10.568506
30
0
11
39.06942
21
10.117998
31
0
39
0
210
0
220
0
230
1
0
LINE
5
9C
100
AcDbEntity
8
1
62
256
6
ByLayer
370
13
48
1
60
0
100
AcDbLine
10
39.234752
20
10.575984
30
0
11
39.014718
21
10.575984
31
0
39
0
210
0
220
0
230
1
0
LINE
5
9D
100
AcDbEntity
8
1
62
256
6
ByLayer
370
13
48
1
60
0
100
AcDbLine
10
39.234752
20
8.924016
30
0
11
39.014718
21
8.924016
31
0
39
0
210
0
220
0
230
1
0
LINE
5
9E
100
AcDbEntity
8
1
62
256
6
ByLayer
370
13
48
1
60
0
100
AcDbLine
10
39.015612
20
8.931494
30
0
11
39.06942
21
9.382002
31
0
39
0
210
0
220
0
230
1
0
LINE
5
9F
100
AcDbEntity
8
1
62
256
6
ByLayer
370
13
48
1
60
0
100
AcDbLine
10
39.06942
20
9.382002
30
0
11
39.388749
21
9.382002
31
0
39
0
210
0
220
0
230
1
0
LINE
5
A0
100
AcDbEntity
8
1
62
256
6
ByLayer
370
13
48
1
60
0
100
AcDbLine
10
43.600117
20
10.374579
30
0
11
43.525693
21
10.374579
31
0
39
0
210
0
220
0
230
1
0
LINE
5
A1
100
AcDbEntity
8
1
62
256
6
ByLayer
370
13
48
1
60
0
100
AcDbLine
10
43.135516
20
10.68335
30
0
11
43.135516
21
10.990867
31
0
39
0
210
0
220
0
230
1
0
LINE
5
A2
100
AcDbEntity
8
1
62
256
6
ByLayer
370
13
48
1
60
0
100
AcDbLine
10
43.135516
20
8.81665
30
0
11
43.135516
21
8.509133
31
0
39
0
210
0
220
0
230
1
0
LINE
5
A3
100
AcDbEntity
8
1
62
256
6
ByLayer
370
13
48
1
60
0
100
AcDbLine
10
43.600117
20
9.125421
30
0
11
43.525693
21
9.125421
31
0
39
0
210
0
220
0
230
1
0
LINE
5
A4
100
AcDbEntity
8
1
62
256
6
ByLayer
370
13
48
1
60
0
100
AcDbLine
10
41.828922
20
10.13002
30
0
11
41.828922
21
9.75
31
0
39
0
210
0
220
0
230
1
0
LINE
5
A5
100
AcDbEntity
8
1
62
256
6
ByLayer
370
13
48
1
60
0
100
AcDbLine
10
41.828922
20
9.36998
30
0
11
41.828922
21
9.75
31
0
39
0
210
0
220
0
230
1
0
LINE
5
A6
100
AcDbEntity
8
1
62
256
6
ByLayer
370
13
48
1
60
0
100
AcDbLine
10
39.01185
20
8.874562
30
0
11
39.228277
21
8.874562
31
0
39
0
210
0
220
0
230
1
0
LINE
5
A7
100
AcDbEntity
8
1
62
256
6
ByLayer
370
13
48
1
60
0
100
AcDbLine
10
39.01185
20
10.625438
30
0
11
39.228277
21
10.625438
31
0
39
0
210
0
220
0
230
1
0
LINE
5
A8
100
AcDbEntity
8
1
62
256
6
ByLayer
370
13
48
1
60
0
100
AcDbLine
10
43.06476
20
10.985765
30
0
11
43.06476
21
10.735976
31
0
39
0
210
0
220
0
230
1
0
LINE
5
A9
100
AcDbEntity
8
1
62
256
6
ByLayer
370
13
48
1
60
0
100
AcDbLine
10
42.706077
20
10.78396
30
0
11
42.706077
21
10.956105
31
0
39
0
210
0
220
0
230
1
0
LINE
5
AA
100
AcDbEntity
8
1
62
256
6
ByLayer
370
13
48
1
60
0
100
AcDbLine
10
42.706077
20
8.71604
30
0
11
42.706077
21
8.543895
31
0
39
0
210
0
220
0
230
1
0
LINE
5
AB
100
AcDbEntity
8
1
62
256
6
ByLayer
370
13
48
1
60
0
100
AcDbLine
10
43.06476
20
8.514235
30
0
11
43.06476
21
8.764024
31
0
39
0
210
0
220
0
230
1
0
LINE
5
AC
100
AcDbEntity
8
1
62
256
6
ByLayer
370
13
48
1
60
0
100
AcDbLine
10
39.106333
20
10.001024
30
0
11
39.476987
21
10.001024
31
0
39
0
210
0
220
0
230
1
0
LINE
5
AD
100
AcDbEntity
8
1
62
256
6
ByLayer
370
13
48
1
60
0
100
AcDbLine
10
39.106333
20
9.498976
30
0
11
39.476987
21
9.498976
31
0
39
0
210
0
220
0
230
1
0
LINE
5
AE
100
AcDbEntity
8
1
62
256
6
ByLayer
370
13
48
1
60
0
100
AcDbLine
10
42.358781
20
8.713149
30
0
11
42.358781
21
8.570441
31
0
39
0
210
0
220
0
230
1
0
LINE
5
AF
100
AcDbEntity
8
1
62
256
6
ByLayer
370
13
48
1
60
0
100
AcDbLine
10
42.358781
20
10.786851
30
0
11
42.358781
21
10.929559
31
0
39
0
210
0
220
0
230
1
0
LINE
5
B0
100
AcDbEntity
8
1
62
256
6
ByLayer
370
13
48
1
60
0
100
AcDbLine
10
39.14904
20
9.950756
30
0
11
39.599504
21
9.950756
31
0
39
0
210
0
220
0
230
1
0
LINE
5
B1
100
AcDbEntity
8
1
62
256
6
ByLayer
370
13
48
1
60
0
100
AcDbLine
10
39.14904
20
9.549244
30
0
11
39.599504
21
9.549244
31
0
39
0
210
0
220
0
230
1
0
LINE
5
B2
100
AcDbEntity
8
1
62
256
6
ByLayer
370
13
48
1
60
0
100
AcDbLine
10
39.152254
20
9.552665
30
0
11
39.608222
21
9.552665
31
0
39
0
210
0
220
0
230
1
0
LINE
5
B3
100
AcDbEntity
8
1
62
256
6
ByLayer
370
13
48
1
60
0
100
AcDbLine
10
39.152254
20
9.947335
30
0
11
39.608222
21
9.947335
31
0
39
0
210
0
220
0
230
1
0
LINE
5
B4
100
AcDbEntity
8
1
62
256
6
ByLayer
370
13
48
1
60
0
100
AcDbLine
10
41.911268
20
9.350341
30
0
11
41.815133
21
9.044182
31
0
39
0
210
0
220
0
230
1
0
LINE
5
B5
100
AcDbEntity
8
1
62
256
6
ByLayer
370
13
48
1
60
0
100
AcDbLine
10
42.421706
20
8.998818
30
0
11
42.411268
21
9.302698
31
0
39
0
210
0
220
0
230
1
0
LINE
5
B6
100
AcDbEntity
8
1
62
256
6
ByLayer
370
13
48
1
60
0
100
AcDbLine
10
41.911268
20
10.149659
30
0
11
41.815133
21
10.455818
31
0
39
0
210
0
220
0
230
1
0
LINE
5
B7
100
AcDbEntity
8
1
62
256
6
ByLayer
370
13
48
1
60
0
100
AcDbLine
10
42.421706
20
10.501182
30
0
11
42.411268
21
10.197302
31
0
39
0
210
0
220
0
230
1
0
LINE
5
B8
100
AcDbEntity
8
1
62
256
6
ByLayer
370
13
48
1
60
0
100
AcDbLine
10
43.544165
20
10.188206
30
0
11
43.597026
21
10.188206
31
0
39
0
210
0
220
0
230
1
0
LINE
5
B9
100
AcDbEntity
8
1
62
256
6
ByLayer
370
13
48
1
60
0
100
AcDbLine
10
43.544165
20
9.311794
30
0
11
43.597026
21
9.311794
31
0
39
0
210
0
220
0
230
1
0
LINE
5
BA
100
AcDbEntity
8
1
62
256
6
ByLayer
370
13
48
1
60
0
100
AcDbLine
10
43.548054
20
9.153117
30
0
11
43.6
21
9.153117
31
0
39
0
210
0
220
0
230
1
0
LINE
5
BB
100
AcDbEntity
8
1
62
256
6
ByLayer
370
13
48
1
60
0
100
AcDbLine
10
43.597026
20
9.311794
30
0
11
43.597026
21
10.188206
31
0
39
0
210
0
220
0
230
1
0
LINE
5
BC
100
AcDbEntity
8
1
62
256
6
ByLayer
370
13
48
1
60
0
100
AcDbLine
10
43.548054
20
10.346883
30
0
11
43.6
21
10.346883
31
0
39
0
210
0
220
0
230
1
0
LINE
5
BD
100
AcDbEntity
8
1
62
256
6
ByLayer
370
13
48
1
60
0
100
AcDbLine
10
39.000093
20
9.382002
30
0
11
39.06942
21
9.382002
31
0
39
0
210
0
220
0
230
1
0
LINE
5
BE
100
AcDbEntity
8
1
62
256
6
ByLayer
370
13
48
1
60
0
100
AcDbLine
10
39.000093
20
10.117998
30
0
11
39.06942
21
10.117998
31
0
39
0
210
0
220
0
230
1
0
LINE
5
BF
100
AcDbEntity
8
1
62
256
6
ByLayer
370
13
48
1
60
0
100
AcDbLine
10
39.14904
20
9.549244
30
0
11
39.152254
21
9.552665
31
0
39
0
210
0
220
0
230
1
0
LINE
5
C0
100
AcDbEntity
8
1
62
256
6
ByLayer
370
13
48
1
60
0
100
AcDbLine
10
39.14904
20
9.950756
30
0
11
39.152254
21
9.947335
31
0
39
0
210
0
220
0
230
1
0
LINE
5
C1
100
AcDbEntity
8
1
62
256
6
ByLayer
370
13
48
1
60
0
100
AcDbLine
10
43.544165
20
10.188206
30
0
11
43.544165
21
9.311794
31
0
39
0
210
0
220
0
230
1
0
LINE
5
C2
100
AcDbEntity
8
1
62
256
6
ByLayer
370
13
48
1
60
0
100
AcDbLine
10
43.021373
20
10.198773
30
0
11
43.021373
21
9.301227
31
0
39
0
210
0
220
0
230
1
0
LINE
5
C3
100
AcDbEntity
8
1
62
256
6
ByLayer
370
13
48
1
60
0
100
AcDbLine
10
42.411268
20
10.197302
30
0
11
42.411268
21
9.302698
31
0
39
0
210
0
220
0
230
1
0
LINE
5
C4
100
AcDbEntity
8
1
62
256
6
ByLayer
370
13
48
1
60
0
100
AcDbLine
10
38.993871
20
10.001024
30
0
11
39.106333
21
10.001024
31
0
39
0
210
0
220
0
230
1
0
LINE
5
C5
100
AcDbEntity
8
1
62
256
6
ByLayer
370
13
48
1
60
0
100
AcDbLine
10
38.993871
20
9.498976
30
0
11
39.106333
21
9.498976
31
0
39
0
210
0
220
0
230
1
0
LINE
5
C6
100
AcDbEntity
8
1
62
256
6
ByLayer
370
13
48
1
60
0
100
AcDbLine
10
38.992089
20
9.950756
30
0
11
39.14904
21
9.950756
31
0
39
0
210
0
220
0
230
1
0
LINE
5
C7
100
AcDbEntity
8
1
62
256
6
ByLayer
370
13
48
1
60
0
100
AcDbLine
10
38.992089
20
9.549244
30
0
11
39.14904
21
9.549244
31
0
39
0
210
0
220
0
230
1
0
LINE
5
C8
100
AcDbEntity
8
1
62
256
6
ByLayer
370
13
48
1
60
0
100
AcDbLine
10
41.911268
20
9.350341
30
0
11
41.911268
21
9.75
31
0
39
0
210
0
220
0
230
1
0
LINE
5
C9
100
AcDbEntity
8
1
62
256
6
ByLayer
370
13
48
1
60
0
100
AcDbLine
10
41.911268
20
10.149659
30
0
11
41.911268
21
9.75
31
0
39
0
210
0
220
0
230
1
0
LINE
5
CA
100
AcDbEntity
8
1
62
256
6
ByLayer
370
18
48
1
60
0
100
AcDbLine
10
14.999681
20
-0.324981
30
0
11
15.000019
21
-0.324981
31
0
39
0
210
0
220
0
230
1
0
LINE
5
CB
100
AcDbEntity
8
1
62
256
6
ByLayer
370
18
48
1
60
0
100
AcDbLine
10
16
20
0.675
30
0
11
13.51107
21
0.675
31
0
39
0
210
0
220
0
230
1
0
LINE
5
CC
100
AcDbEntity
8
1
62
256
6
ByLayer
370
13
48
1
60
0
100
AcDbLine
10
-14.000019
20
-0.249981
30
0
11
-13.927339
21
-0.249981
31
0
39
0
210
0
220
0
230
1
0
LINE
5
CD
100
AcDbEntity
8
1
62
256
6
ByLayer
370
13
48
1
60
0
100
AcDbLine
10
-1.912242
20
0.394519
30
0
11
1.912242
21
0.394519
31
0
39
0
210
0
220
0
230
1
0
LINE
5
CE
100
AcDbEntity
8
1
62
256
6
ByLayer
370
18
48
1
60
0
100
AcDbLine
10
-6.326108
20
-0.324981
30
0
11
-1.735923
21
-0.324981
31
0
39
0
210
0
220
0
230
1
0
LINE
5
CF
100
AcDbEntity
8
1
62
256
6
ByLayer
370
18
48
1
60
0
100
AcDbLine
10
1.735923
20
-0.324981
30
0
11
6.326108
21
-0.324981
31
0
39
0
210
0
220
0
230
1
0
LINE
5
D0
100
AcDbEntity
8
1
62
256
6
ByLayer
370
13
48
1
60
0
100
AcDbLine
10
38.991978
20
9.947335
30
0
11
39.152254
21
9.947335
31
0
39
0
210
0
220
0
230
1
0
LINE
5
D1
100
AcDbEntity
8
1
62
256
6
ByLayer
370
13
48
1
60
0
100
AcDbLine
10
-6.943702
20
0.394519
30
0
11
-6.310523
21
0.394519
31
0
39
0
210
0
220
0
230
1
0
LINE
5
D2
100
AcDbEntity
8
1
62
256
6
ByLayer
370
13
48
1
60
0
100
AcDbLine
10
6.310523
20
0.394519
30
0
11
6.943702
21
0.394519
31
0
39
0
210
0
220
0
230
1
0
LINE
5
D3
100
AcDbEntity
8
1
62
256
6
ByLayer
370
13
48
1
60
0
100
AcDbLine
10
38.991978
20
9.552665
30
0
11
39.152254
21
9.552665
31
0
39
0
210
0
220
0
230
1
0
LINE
5
D4
100
AcDbEntity
8
1
62
256
6
ByLayer
370
13
48
1
60
0
100
AcDbLine
10
-6.222926
20
-0.249981
30
0
11
-3.020453
21
-0.249981
31
0
39
0
210
0
220
0
230
1
0
LINE
5
D5
100
AcDbEntity
8
1
62
256
6
ByLayer
370
13
48
1
60
0
100
AcDbLine
10
3.020453
20
-0.249981
30
0
11
6.222926
21
-0.249981
31
0
39
0
210
0
220
0
230
1
0
LINE
5
D6
100
AcDbEntity
8
1
62
256
6
ByLayer
370
18
48
1
60
0
100
AcDbLine
10
-8.864082
20
-0.324981
30
0
11
-6.742242
21
-0.324981
31
0
39
0
210
0
220
0
230
1
0
LINE
5
D7
100
AcDbEntity
8
1
62
256
6
ByLayer
370
18
48
1
60
0
100
AcDbLine
10
6.742242
20
-0.324981
30
0
11
8.864082
21
-0.324981
31
0
39
0
210
0
220
0
230
1
0
LINE
5
D8
100
AcDbEntity
8
1
62
256
6
ByLayer
370
13
48
1
60
0
100
AcDbLine
10
13.371567
20
10.75
30
0
11
13.371567
21
0.67
31
0
39
0
210
0
220
0
230
1
0
LINE
5
D9
100
AcDbEntity
8
1
62
256
6
ByLayer
370
13
48
1
60
0
100
AcDbLine
10
-9.395388
20
0.394519
30
0
11
-8.986689
21
0.394519
31
0
39
0
210
0
220
0
230
1
0
LINE
5
DA
100
AcDbEntity
8
1
62
256
6
ByLayer
370
13
48
1
60
0
100
AcDbLine
10
8.986689
20
0.394519
30
0
11
9.395388
21
0.394519
31
0
39
0
210
0
220
0
230
1
0
LINE
5
DB
100
AcDbEntity
8
1
62
256
6
ByLayer
370
13
48
1
60
0
100
AcDbLine
10
-8.812878
20
-0.249981
30
0
11
-7.153854
21
-0.249981
31
0
39
0
210
0
220
0
230
1
0
LINE
5
DC
100
AcDbEntity
8
1
62
256
6
ByLayer
370
13
48
1
60
0
100
AcDbLine
10
7.153854
20
-0.249981
30
0
11
8.812878
21
-0.249981
31
0
39
0
210
0
220
0
230
1
0
LINE
5
DD
100
AcDbEntity
8
1
62
256
6
ByLayer
370
13
48
1
60
0
100
AcDbLine
10
-11.127967
20
0.394519
30
0
11
-10.826121
21
0.394519
31
0
39
0
210
0
220
0
230
1
0
LINE
5
DE
100
AcDbEntity
8
1
62
256
6
ByLayer
370
13
48
1
60
0
100
AcDbLine
10
10.826121
20
0.394519
30
0
11
11.127967
21
0.394519
31
0
39
0
210
0
220
0
230
1
0
LINE
5
DF
100
AcDbEntity
8
1
62
256
6
ByLayer
370
13
48
1
60
0
100
AcDbLine
10
9.966378
20
-0.249981
30
0
11
10.588147
21
-0.249981
31
0
39
0
210
0
220
0
230
1
0
LINE
5
E0
100
AcDbEntity
8
1
62
256
6
ByLayer
370
13
48
1
60
0
100
AcDbLine
10
-10.588147
20
-0.249981
30
0
11
-9.966378
21
-0.249981
31
0
39
0
210
0
220
0
230
1
0
LINE
5
E1
100
AcDbEntity
8
1
62
256
6
ByLayer
370
13
48
1
60
0
100
AcDbLine
10
12.212601
20
0.394519
30
0
11
12.44548
21
0.394519
31
0
39
0
210
0
220
0
230
1
0
LINE
5
E2
100
AcDbEntity
8
1
62
256
6
ByLayer
370
13
48
1
60
0
100
AcDbLine
10
-12.44548
20
0.394519
30
0
11
-12.212601
21
0.394519
31
0
39
0
210
0
220
0
230
1
0
LINE
5
E3
100
AcDbEntity
8
1
62
256
6
ByLayer
370
13
48
1
60
0
100
AcDbLine
10
-11.918509
20
-0.249981
30
0
11
-11.153931
21
-0.249981
31
0
39
0
210
0
220
0
230
1
0
LINE
5
E4
100
AcDbEntity
8
1
62
256
6
ByLayer
370
18
48
1
60
0
100
AcDbLine
10
12.074956
20
-0.324981
30
0
11
12.9317
21
-0.324981
31
0
39
0
210
0
220
0
230
1
0
LINE
5
E5
100
AcDbEntity
8
1
62
256
6
ByLayer
370
18
48
1
60
0
100
AcDbLine
10
-12.9317
20
-0.324981
30
0
11
-12.074956
21
-0.324981
31
0
39
0
210
0
220
0
230
1
0
LINE
5
E6
100
AcDbEntity
8
1
62
256
6
ByLayer
370
13
48
1
60
0
100
AcDbLine
10
11.153931
20
-0.249981
30
0
11
11.918509
21
-0.249981
31
0
39
0
210
0
220
0
230
1
0
LINE
5
E7
100
AcDbEntity
8
1
62
256
6
ByLayer
370
13
48
1
60
0
100
AcDbLine
10
21.898606
20
8.75
30
0
11
21.898606
21
10.75
31
0
39
0
210
0
220
0
230
1
0
LINE
5
E8
100
AcDbEntity
8
1
62
256
6
ByLayer
370
13
48
1
60
0
100
AcDbLine
10
13.288685
20
0.394519
30
0
11
13.470275
21
0.394519
31
0
39
0
210
0
220
0
230
1
0
LINE
5
E9
100
AcDbEntity
8
1
62
256
6
ByLayer
370
13
48
1
60
0
100
AcDbLine
10
-13.470275
20
0.394519
30
0
11
-13.288685
21
0.394519
31
0
39
0
210
0
220
0
230
1
0
LINE
5
EA
100
AcDbEntity
8
1
62
256
6
ByLayer
370
18
48
1
60
0
100
AcDbLine
10
11.132078
20
-0.324981
30
0
11
11.287197
21
-0.324981
31
0
39
0
210
0
220
0
230
1
0
LINE
5
EB
100
AcDbEntity
8
1
62
256
6
ByLayer
370
18
48
1
60
0
100
AcDbLine
10
13.048061
20
-0.324981
30
0
11
13.703327
21
-0.324981
31
0
39
0
210
0
220
0
230
1
0
LINE
5
EC
100
AcDbEntity
8
1
62
256
6
ByLayer
370
18
48
1
60
0
100
AcDbLine
10
-13.703327
20
-0.324981
30
0
11
-13.048061
21
-0.324981
31
0
39
0
210
0
220
0
230
1
0
LINE
5
ED
100
AcDbEntity
8
1
62
256
6
ByLayer
370
18
48
1
60
0
100
AcDbLine
10
-11.287197
20
-0.324981
30
0
11
-11.132078
21
-0.324981
31
0
39
0
210
0
220
0
230
1
0
LINE
5
EE
100
AcDbEntity
8
1
62
256
6
ByLayer
370
13
48
1
60
0
100
AcDbLine
10
-12.941904
20
-0.249981
30
0
11
-12.261918
21
-0.249981
31
0
39
0
210
0
220
0
230
1
0
LINE
5
EF
100
AcDbEntity
8
1
62
256
6
ByLayer
370
13
48
1
60
0
100
AcDbLine
10
12.261918
20
-0.249981
30
0
11
12.941904
21
-0.249981
31
0
39
0
210
0
220
0
230
1
0
LINE
5
F0
100
AcDbEntity
8
1
62
256
6
ByLayer
370
13
48
1
60
0
100
AcDbLine
10
14.125544
20
0.394519
30
0
11
14.265575
21
0.394519
31
0
39
0
210
0
220
0
230
1
0
LINE
5
F1
100
AcDbEntity
8
1
62
256
6
ByLayer
370
18
48
1
60
0
100
AcDbLine
10
-14.000019
20
-0.249981
30
0
11
-14.230116
21
-0.019884
31
0
39
0
210
0
220
0
230
1
0
LINE
5
F2
100
AcDbEntity
8
1
62
256
6
ByLayer
370
18
48
1
60
0
100
AcDbLine
10
-13.925019
20
-0.324981
30
0
11
-13.791272
21
-0.324981
31
0
39
0
210
0
220
0
230
1
0
LINE
5
F3
100
AcDbEntity
8
1
62
256
6
ByLayer
370
18
48
1
60
0
100
AcDbLine
10
-11.023487
20
-0.324981
30
0
11
-10.810076
21
-0.324981
31
0
39
0
210
0
220
0
230
1
0
LINE
5
F4
100
AcDbEntity
8
1
62
256
6
ByLayer
370
18
48
1
60
0
100
AcDbLine
10
-10.247105
20
-0.324981
30
0
11
-9.769771
21
-0.324981
31
0
39
0
210
0
220
0
230
1
0
LINE
5
F5
100
AcDbEntity
8
1
62
256
6
ByLayer
370
18
48
1
60
0
100
AcDbLine
10
9.769771
20
-0.324981
30
0
11
10.247047
21
-0.324981
31
0
39
0
210
0
220
0
230
1
0
LINE
5
F6
100
AcDbEntity
8
1
62
256
6
ByLayer
370
18
48
1
60
0
100
AcDbLine
10
10.810031
20
-0.324981
30
0
11
11.023492
21
-0.324981
31
0
39
0
210
0
220
0
230
1
0
LINE
5
F7
100
AcDbEntity
8
1
62
256
6
ByLayer
370
18
48
1
60
0
100
AcDbLine
10
13.791229
20
-0.324981
30
0
11
14.277027
21
-0.324981
31
0
39
0
210
0
220
0
230
1
0
LINE
5
F8
100
AcDbEntity
8
1
62
256
6
ByLayer
370
13
48
1
60
0
100
AcDbLine
10
-14.265575
20
0.394519
30
0
11
-14.125544
21
0.394519
31
0
39
0
210
0
220
0
230
1
0
LINE
5
F9
100
AcDbEntity
8
1
62
256
6
ByLayer
370
13
48
1
60
0
100
AcDbLine
10
-13.72716
20
-0.249981
30
0
11
-13.206552
21
-0.249981
31
0
39
0
210
0
220
0
230
1
0
LINE
5
FA
100
AcDbEntity
8
1
62
256
6
ByLayer
370
13
48
1
60
0
100
AcDbLine
10
13.206552
20
-0.249981
30
0
11
13.72716
21
-0.249981
31
0
39
0
210
0
220
0
230
1
0
LINE
5
FB
100
AcDbEntity
8
1
62
256
6
ByLayer
370
13
48
1
60
0
100
AcDbLine
10
14.763862
20
0.394519
30
0
11
14.868253
21
0.394519
31
0
39
0
210
0
220
0
230
1
0
LINE
5
FC
100
AcDbEntity
8
1
62
256
6
ByLayer
370
18
48
1
60
0
100
AcDbLine
10
14.34037
20
-0.324981
30
0
11
14.676028
21
-0.324981
31
0
39
0
210
0
220
0
230
1
0
LINE
5
FD
100
AcDbEntity
8
1
62
256
6
ByLayer
370
13
48
1
60
0
100
AcDbLine
10
13.927342
20
-0.249981
30
0
11
14.313523
21
-0.249981
31
0
39
0
210
0
220
0
230
1
0
LINE
5
FE
100
AcDbEntity
8
1
62
256
6
ByLayer
370
18
48
1
60
0
100
AcDbLine
10
14.717118
20
-0.324981
30
0
11
14.914359
21
-0.324981
31
0
39
0
210
0
220
0
230
1
0
LINE
5
FF
100
AcDbEntity
8
1
62
256
6
ByLayer
370
13
48
1
60
0
100
AcDbLine
10
34.890738
20
8.75
30
0
11
34.890738
21
10.75
31
0
39
0
210
0
220
0
230
1
0
LINE
5
100
100
AcDbEntity
8
1
62
256
6
ByLayer
370
13
48
1
60
0
100
AcDbLine
10
15.021423
20
-0.249981
30
0
11
15.073254
21
-0.249981
31
0
39
0
210
0
220
0
230
1
0
LINE
5
101
100
AcDbEntity
8
1
62
256
6
ByLayer
370
18
48
1
60
0
100
AcDbLine
10
34.890738
20
10.75
30
0
11
29.890738
21
10.75
31
0
39
0
210
0
220
0
230
1
0
LINE
5
102
100
AcDbEntity
8
1
62
256
6
ByLayer
370
18
48
1
60
0
100
AcDbLine
10
39.013022
20
8.75
30
0
11
34.890738
21
8.75
31
0
39
0
210
0
220
0
230
1
0
LINE
5
103
100
AcDbEntity
8
1
62
256
6
ByLayer
370
18
48
1
60
0
100
AcDbLine
10
29.890738
20
8.75
30
0
11
21.898606
21
8.75
31
0
39
0
210
0
220
0
230
1
0
LINE
5
104
100
AcDbEntity
8
1
62
256
6
ByLayer
370
18
48
1
60
0
100
AcDbLine
10
29.890738
20
10.75
30
0
11
21.898606
21
10.75
31
0
39
0
210
0
220
0
230
1
0
LINE
5
105
100
AcDbEntity
8
1
62
256
6
ByLayer
370
18
48
1
60
0
100
AcDbLine
10
34.890738
20
8.75
30
0
11
29.890738
21
8.75
31
0
39
0
210
0
220
0
230
1
0
LINE
5
106
100
AcDbEntity
8
1
62
256
6
ByLayer
370
18
48
1
60
0
100
AcDbLine
10
39.013022
20
10.75
30
0
11
34.890738
21
10.75
31
0
39
0
210
0
220
0
230
1
0
LINE
5
107
100
AcDbEntity
8
1
62
256
6
ByLayer
370
18
48
1
60
0
100
AcDbLine
10
39.013022
20
10.75
30
0
11
39.015611
21
10.741569
31
0
39
0
210
0
220
0
230
1
0
LINE
5
108
100
AcDbEntity
8
1
62
256
6
ByLayer
370
18
48
1
60
0
100
AcDbLine
10
39.015611
20
8.758431
30
0
11
39.013022
21
8.75
31
0
39
0
210
0
220
0
230
1
0
LINE
5
109
100
AcDbEntity
8
1
62
256
6
ByLayer
370
18
48
1
60
0
100
AcDbLine
10
39.015611
20
8.758431
30
0
11
39.015611
21
9.228186
31
0
39
0
210
0
220
0
230
1
0
LINE
5
10A
100
AcDbEntity
8
1
62
256
6
ByLayer
370
18
48
1
60
0
100
AcDbLine
10
10.247044
20
-0.324981
30
0
11
10.612458
21
-0.324981
31
0
39
0
210
0
220
0
230
1
0
LINE
5
10B
100
AcDbEntity
8
1
62
256
6
ByLayer
370
18
48
1
60
0
100
AcDbLine
10
11.287177
20
-0.324981
30
0
11
11.923781
21
-0.324981
31
0
39
0
210
0
220
0
230
1
0
LINE
5
10C
100
AcDbEntity
8
1
62
256
6
ByLayer
370
18
48
1
60
0
100
AcDbLine
10
14.914359
20
-0.324981
30
0
11
14.934615
21
-0.324981
31
0
39
0
210
0
220
0
230
1
0
LINE
5
10D
100
AcDbEntity
8
1
62
256
6
ByLayer
370
18
48
1
60
0
100
AcDbLine
10
12.9317
20
-0.324981
30
0
11
13.048064
21
-0.324981
31
0
39
0
210
0
220
0
230
1
0
LINE
5
10E
100
AcDbEntity
8
1
62
256
6
ByLayer
370
18
48
1
60
0
100
AcDbLine
10
9.769771
20
-0.324981
30
0
11
9.404549
21
-0.324981
31
0
39
0
210
0
220
0
230
1
0
LINE
5
10F
100
AcDbEntity
8
1
62
256
6
ByLayer
370
18
48
1
60
0
100
AcDbLine
10
11.923781
20
-0.324981
30
0
11
12.074944
21
-0.324981
31
0
39
0
210
0
220
0
230
1
0
LINE
5
110
100
AcDbEntity
8
1
62
256
6
ByLayer
370
18
48
1
60
0
100
AcDbLine
10
-11.923781
20
-0.324981
30
0
11
-11.287177
21
-0.324981
31
0
39
0
210
0
220
0
230
1
0
LINE
5
111
100
AcDbEntity
8
1
62
256
6
ByLayer
370
18
48
1
60
0
100
AcDbLine
10
8.864082
20
-0.324981
30
0
11
9.132847
21
-0.324981
31
0
39
0
210
0
220
0
230
1
0
LINE
5
112
100
AcDbEntity
8
1
62
256
6
ByLayer
370
18
48
1
60
0
100
AcDbLine
10
6.326108
20
-0.324981
30
0
11
6.742492
21
-0.324981
31
0
39
0
210
0
220
0
230
1
0
LINE
5
113
100
AcDbEntity
8
1
62
256
6
ByLayer
370
18
48
1
60
0
100
AcDbLine
10
-9.132847
20
-0.324981
30
0
11
-8.864082
21
-0.324981
31
0
39
0
210
0
220
0
230
1
0
LINE
5
114
100
AcDbEntity
8
1
62
256
6
ByLayer
370
18
48
1
60
0
100
AcDbLine
10
11.132078
20
-0.324981
30
0
11
11.023467
21
-0.324981
31
0
39
0
210
0
220
0
230
1
0
LINE
5
115
100
AcDbEntity
8
1
62
256
6
ByLayer
370
18
48
1
60
0
100
AcDbLine
10
14.277027
20
-0.324981
30
0
11
14.340409
21
-0.324981
31
0
39
0
210
0
220
0
230
1
0
LINE
5
116
100
AcDbEntity
8
1
62
256
6
ByLayer
370
18
48
1
60
0
100
AcDbLine
10
-10.612458
20
-0.324981
30
0
11
-10.247044
21
-0.324981
31
0
39
0
210
0
220
0
230
1
0
LINE
5
117
100
AcDbEntity
8
1
62
256
6
ByLayer
370
18
48
1
60
0
100
AcDbLine
10
-6.742492
20
-0.324981
30
0
11
-6.326108
21
-0.324981
31
0
39
0
210
0
220
0
230
1
0
LINE
5
118
100
AcDbEntity
8
1
62
256
6
ByLayer
370
18
48
1
60
0
100
AcDbLine
10
-1.735945
20
-0.324981
30
0
11
1.735945
21
-0.324981
31
0
39
0
210
0
220
0
230
1
0
LINE
5
119
100
AcDbEntity
8
1
62
256
6
ByLayer
370
18
48
1
60
0
100
AcDbLine
10
-10.810022
20
-0.324981
30
0
11
-10.612458
21
-0.324981
31
0
39
0
210
0
220
0
230
1
0
LINE
5
11A
100
AcDbEntity
8
1
62
256
6
ByLayer
370
18
48
1
60
0
100
AcDbLine
10
-13.791289
20
-0.324981
30
0
11
-13.703327
21
-0.324981
31
0
39
0
210
0
220
0
230
1
0
LINE
5
11B
100
AcDbEntity
8
1
62
256
6
ByLayer
370
18
48
1
60
0
100
AcDbLine
10
13.703327
20
-0.324981
30
0
11
13.791289
21
-0.324981
31
0
39
0
210
0
220
0
230
1
0
LINE
5
11C
100
AcDbEntity
8
1
62
256
6
ByLayer
370
18
48
1
60
0
100
AcDbLine
10
-9.769771
20
-0.324981
30
0
11
-9.404549
21
-0.324981
31
0
39
0
210
0
220
0
230
1
0
LINE
5
11D
100
AcDbEntity
8
1
62
256
6
ByLayer
370
18
48
1
60
0
100
AcDbLine
10
10.612458
20
-0.324981
30
0
11
10.810022
21
-0.324981
31
0
39
0
210
0
220
0
230
1
0
LINE
5
11E
100
AcDbEntity
8
1
62
256
6
ByLayer
370
18
48
1
60
0
100
AcDbLine
10
14.676028
20
-0.324981
30
0
11
14.717168
21
-0.324981
31
0
39
0
210
0
220
0
230
1
0
LINE
5
11F
100
AcDbEntity
8
1
62
256
6
ByLayer
370
18
48
1
60
0
100
AcDbLine
10
-13.048064
20
-0.324981
30
0
11
-12.9317
21
-0.324981
31
0
39
0
210
0
220
0
230
1
0
LINE
5
120
100
AcDbEntity
8
1
62
256
6
ByLayer
370
18
48
1
60
0
100
AcDbLine
10
-12.074944
20
-0.324981
30
0
11
-11.923781
21
-0.324981
31
0
39
0
210
0
220
0
230
1
0
LINE
5
121
100
AcDbEntity
8
1
62
256
6
ByLayer
370
18
48
1
60
0
100
AcDbLine
10
-11.132078
20
-0.324981
30
0
11
-11.023467
21
-0.324981
31
0
39
0
210
0
220
0
230
1
0
LINE
5
122
100
AcDbEntity
8
1
62
256
6
ByLayer
370
18
48
1
60
0
100
AcDbLine
10
0.178855
20
10.75
30
0
11
0.178855
21
0.67
31
0
39
0
210
0
220
0
230
1
0
LINE
5
123
100
AcDbEntity
8
1
62
256
6
ByLayer
370
18
48
1
60
0
100
AcDbLine
10
-0.178855
20
10.75
30
0
11
-0.178855
21
0.67
31
0
39
0
210
0
220
0
230
1
0
LINE
5
124
100
AcDbEntity
8
1
62
256
6
ByLayer
370
18
48
1
60
0
100
AcDbLine
10
-15
20
10.75
30
0
11
-15
21
0.75
31
0
39
0
210
0
220
0
230
1
0
LINE
5
125
100
AcDbEntity
8
1
62
256
6
ByLayer
370
18
48
1
60
0
100
AcDbLine
10
-15
20
0.75
30
0
11
-14.92
21
0.67
31
0
39
0
210
0
220
0
230
1
0
LINE
5
126
100
AcDbEntity
8
1
62
256
6
ByLayer
370
18
48
1
60
0
100
AcDbLine
10
0.178855
20
10.75
30
0
11
13.371567
21
10.75
31
0
39
0
210
0
220
0
230
1
0
LINE
5
127
100
AcDbEntity
8
1
62
256
6
ByLayer
370
18
48
1
60
0
100
AcDbLine
10
13.371567
20
10.75
30
0
11
21.898606
21
10.75
31
0
39
0
210
0
220
0
230
1
0
LINE
5
128
100
AcDbEntity
8
1
62
256
6
ByLayer
370
18
48
1
60
0
100
AcDbLine
10
17.6
20
8.75
30
0
11
21.898606
21
8.75
31
0
39
0
210
0
220
0
230
1
0
LINE
5
129
100
AcDbEntity
8
1
62
256
6
ByLayer
370
18
48
1
60
0
100
AcDbLine
10
-0.178855
20
10.75
30
0
11
0.178855
21
10.75
31
0
39
0
210
0
220
0
230
1
0
LINE
5
12A
100
AcDbEntity
8
1
62
256
6
ByLayer
370
18
48
1
60
0
100
AcDbLine
10
-15
20
10.75
30
0
11
-0.178855
21
10.75
31
0
39
0
210
0
220
0
230
1
0
LINE
5
12B
100
AcDbEntity
8
1
62
256
6
ByLayer
370
18
48
1
60
0
100
AcDbLine
10
-13.925019
20
-0.324981
30
0
11
-14.000019
21
-0.249981
31
0
39
0
210
0
220
0
230
1
0
LINE
5
12C
100
AcDbEntity
8
1
62
256
6
ByLayer
370
18
48
1
60
0
100
AcDbLine
10
16
20
0.75
30
0
11
16
21
7.15
31
0
39
0
210
0
220
0
230
1
0
LINE
5
12D
100
AcDbEntity
8
1
62
256
6
ByLayer
370
18
48
1
60
0
100
AcDbLine
10
13.51107
20
0.75
30
0
11
13.51107
21
0.675
31
0
39
0
210
0
220
0
230
1
0
LINE
5
12E
100
AcDbEntity
8
1
62
256
6
ByLayer
370
18
48
1
60
0
100
AcDbLine
10
0.178855
20
0.67
30
0
11
13.371567
21
0.67
31
0
39
0
210
0
220
0
230
1
0
LINE
5
12F
100
AcDbEntity
8
1
62
256
6
ByLayer
370
18
48
1
60
0
100
AcDbLine
10
16
20
0.75
30
0
11
13.51107
21
0.75
31
0
39
0
210
0
220
0
230
1
0
LINE
5
130
100
AcDbEntity
8
1
62
256
6
ByLayer
370
18
48
1
60
0
100
AcDbLine
10
-14.92
20
0.67
30
0
11
-0.178855
21
0.67
31
0
39
0
210
0
220
0
230
1
0
LINE
5
131
100
AcDbEntity
8
1
62
256
6
ByLayer
370
18
48
1
60
0
100
AcDbLine
10
39.015611
20
10.271814
30
0
11
39.015611
21
10.741569
31
0
39
0
210
0
220
0
230
1
0
LINE
5
132
100
AcDbEntity
8
1
62
256
6
ByLayer
370
18
48
1
60
0
100
AcDbLine
10
39.317283
20
10.75
30
0
11
39.23041
21
10.75
31
0
39
0
210
0
220
0
230
1
0
LINE
5
133
100
AcDbEntity
8
1
62
256
6
ByLayer
370
18
48
1
60
0
100
AcDbLine
10
40.311238
20
10.75
30
0
11
40.242833
21
10.75
31
0
39
0
210
0
220
0
230
1
0
LINE
5
134
100
AcDbEntity
8
1
62
256
6
ByLayer
370
18
48
1
60
0
100
AcDbLine
10
40.475747
20
8.722882
30
0
11
40.559449
21
8.674557
31
0
39
0
210
0
220
0
230
1
0
LINE
5
135
100
AcDbEntity
8
1
62
256
6
ByLayer
370
18
48
1
60
0
100
AcDbLine
10
40.645343
20
8.64829
30
0
11
40.830259
21
8.63536
31
0
39
0
210
0
220
0
230
1
0
LINE
5
136
100
AcDbEntity
8
1
62
256
6
ByLayer
370
18
48
1
60
0
100
AcDbLine
10
41.09812
20
10.871919
30
0
11
41.008193
21
10.871935
31
0
39
0
210
0
220
0
230
1
0
LINE
5
137
100
AcDbEntity
8
1
62
256
6
ByLayer
370
18
48
1
60
0
100
AcDbLine
10
42.158781
20
8.584495
30
0
11
42.358781
21
8.570441
31
0
39
0
210
0
220
0
230
1
0
LINE
5
138
100
AcDbEntity
8
1
62
256
6
ByLayer
370
18
48
1
60
0
100
AcDbLine
10
41.008193
20
8.628065
30
0
11
41.09812
21
8.628081
31
0
39
0
210
0
220
0
230
1
0
LINE
5
139
100
AcDbEntity
8
1
62
256
6
ByLayer
370
18
48
1
60
0
100
AcDbLine
10
40.54752
20
10.824628
30
0
11
40.465402
21
10.777217
31
0
39
0
210
0
220
0
230
1
0
LINE
5
13A
100
AcDbEntity
8
1
62
256
6
ByLayer
370
18
48
1
60
0
100
AcDbLine
10
39.23041
20
10.75
30
0
11
39.01185
21
10.75
31
0
39
0
210
0
220
0
230
1
0
LINE
5
13B
100
AcDbEntity
8
1
62
256
6
ByLayer
370
18
48
1
60
0
100
AcDbLine
10
43.289249
20
11.000341
30
0
11
43.135516
21
10.990867
31
0
39
0
210
0
220
0
230
1
0
LINE
5
13C
100
AcDbEntity
8
1
62
256
6
ByLayer
370
18
48
1
60
0
100
AcDbLine
10
39.317283
20
8.75
30
0
11
40.242833
21
8.75
31
0
39
0
210
0
220
0
230
1
0
LINE
5
13D
100
AcDbEntity
8
1
62
256
6
ByLayer
370
18
48
1
60
0
100
AcDbLine
10
43.600117
20
10.374579
30
0
11
43.602839
21
10.69637
31
0
39
0
210
0
220
0
230
1
0
LINE
5
13E
100
AcDbEntity
8
1
62
256
6
ByLayer
370
18
48
1
60
0
100
AcDbLine
10
39.23041
20
8.75
30
0
11
39.317283
21
8.75
31
0
39
0
210
0
220
0
230
1
0
LINE
5
13F
100
AcDbEntity
8
1
62
256
6
ByLayer
370
18
48
1
60
0
100
AcDbLine
10
42.358781
20
10.929559
30
0
11
42.158781
21
10.915505
31
0
39
0
210
0
220
0
230
1
0
LINE
5
140
100
AcDbEntity
8
1
62
256
6
ByLayer
370
18
48
1
60
0
100
AcDbLine
10
42.706077
20
8.543895
30
0
11
43.06476
21
8.514235
31
0
39
0
210
0
220
0
230
1
0
LINE
5
141
100
AcDbEntity
8
1
62
256
6
ByLayer
370
18
48
1
60
0
100
AcDbLine
10
40.311238
20
10.75
30
0
11
40.363694
21
10.75
31
0
39
0
210
0
220
0
230
1
0
LINE
5
142
100
AcDbEntity
8
1
62
256
6
ByLayer
370
18
48
1
60
0
100
AcDbLine
10
43.602839
20
8.80363
30
0
11
43.600117
21
9.125421
31
0
39
0
210
0
220
0
230
1
0
LINE
5
143
100
AcDbEntity
8
1
62
256
6
ByLayer
370
18
48
1
60
0
100
AcDbLine
10
40.830259
20
10.86464
30
0
11
40.63336
21
10.850872
31
0
39
0
210
0
220
0
230
1
0
LINE
5
144
100
AcDbEntity
8
1
62
256
6
ByLayer
370
18
48
1
60
0
100
AcDbLine
10
40.242833
20
10.75
30
0
11
39.317283
21
10.75
31
0
39
0
210
0
220
0
230
1
0
LINE
5
145
100
AcDbEntity
8
1
62
256
6
ByLayer
370
18
48
1
60
0
100
AcDbLine
10
43.06476
20
10.985765
30
0
11
42.706077
21
10.956105
31
0
39
0
210
0
220
0
230
1
0
LINE
5
146
100
AcDbEntity
8
1
62
256
6
ByLayer
370
18
48
1
60
0
100
AcDbLine
10
40.242833
20
8.75
30
0
11
40.311238
21
8.75
31
0
39
0
210
0
220
0
230
1
0
LINE
5
147
100
AcDbEntity
8
1
62
256
6
ByLayer
370
18
48
1
60
0
100
AcDbLine
10
39.01185
20
8.75
30
0
11
39.23041
21
8.75
31
0
39
0
210
0
220
0
230
1
0
LINE
5
148
100
AcDbEntity
8
1
62
256
6
ByLayer
370
18
48
1
60
0
100
AcDbLine
10
43.6
20
9.153117
30
0
11
43.6
21
10.346883
31
0
39
0
210
0
220
0
230
1
0
LINE
5
149
100
AcDbEntity
8
1
62
256
6
ByLayer
370
18
48
1
60
0
100
AcDbLine
10
43.135516
20
8.509133
30
0
11
43.289249
21
8.499659
31
0
39
0
210
0
220
0
230
1
0
LINE
5
14A
100
AcDbEntity
8
1
62
256
6
ByLayer
370
18
48
1
60
0
100
AcDbLine
10
40.37444
20
8.75
30
0
11
40.311238
21
8.75
31
0
39
0
210
0
220
0
230
1
0
MTEXT
5
28F
100
AcDbEntity
8
SK6
62
256
6
ByLayer
370
18
48
1
60
0
100
AcDbMText
10
-17.325
20
-45.735332
30
0
210
0
220
0
230
1
1
\W0.7847;SL-QD-LGF26C32
40
3.5
41
0
44
1.084337
50
0
71
7
72
5
7
iso_b_vert
0
DIMENSION
5
2A1
100
AcDbEntity
8
2
62
256
6
ByLayer
370
13
48
1
60
0
100
AcDbDimension
2
DimnDraft3D1
10
68.7
20
11
30
0
11
68.7
21
4.284211
31
0
70
32
71
5
72
1
41
1
210
0
220
0
230
1
3
Standard
100
AcDbAlignedDimension
13
19.6
23
0
33
0
14
45.6
24
11
34
0
50
90
100
AcDbRotatedDimension
1001
ACAD
1000
DSTYLE
1002
{
1070
    74
1070
     0
1070
   279
1070
     0
1070
   172
1070
     1
1070
   173
1070
     1
1070
   340
1005
290
1070
   271
1070
     1
1070
    77
1070
     1
1070
    73
1070
     0
1070
   171
1070
     3
1070
   274
1070
     4
1070
   177
1070
     2
1070
   176
1070
     2
1070
   178
1070
     7
1070
    78
1070
     8
1070
    41
1041
3.175
1070
   147
1041
1.75
1070
    42
1041
2.0
1070
    44
1041
2.0
1070
   140
1041
3.5
1070
   343
1005
2A2
1070
   344
1005
2A2
1002
}
0
DIMENSION
5
2B7
100
AcDbEntity
8
SK2
62
256
6
ByLayer
370
13
48
1
60
0
100
AcDbDimension
2
DimnDraft3D2
10
43.6
20
33.600889
30
0
11
17.507895
21
33.600889
31
0
70
32
71
5
72
1
41
1
210
0
220
0
230
1
3
Standard
100
AcDbAlignedDimension
13
0
23
2
33
0
14
43.6
24
13
34
0
50
0
100
AcDbRotatedDimension
1001
ACAD
1000
DSTYLE
1002
{
1070
   279
1070
     0
1070
   172
1070
     1
1070
   173
1070
     1
1070
   340
1005
290
1070
   271
1070
     1
1070
    77
1070
     1
1070
    73
1070
     0
1070
   171
1070
     3
1070
   274
1070
     4
1070
   177
1070
     2
1070
   176
1070
     2
1070
   178
1070
     7
1070
    78
1070
     8
1070
    41
1041
3.175
1070
   147
1041
1.75
1070
    42
1041
2.0
1070
    44
1041
2.0
1070
   140
1041
3.5
1070
   343
1005
2A2
1070
   344
1005
2A2
1002
}
0
DIMENSION
5
2C5
100
AcDbEntity
8
2
62
256
6
ByLayer
370
13
48
1
60
0
100
AcDbDimension
2
DimnDraft3D3
10
17.6
20
-13.821553
30
0
11
28.509211
21
-13.821553
31
0
70
32
71
5
72
1
41
1
210
0
220
0
230
1
3
Standard
100
AcDbAlignedDimension
13
43.6
23
9
33
0
14
17.6
24
-2
34
0
50
0
100
AcDbRotatedDimension
1001
ACAD
1000
DSTYLE
1002
{
1070
   279
1070
     0
1070
   172
1070
     1
1070
   173
1070
     1
1070
   340
1005
290
1070
   271
1070
     1
1070
    77
1070
     1
1070
    73
1070
     0
1070
   171
1070
     3
1070
   274
1070
     4
1070
   177
1070
     2
1070
   176
1070
     2
1070
   178
1070
     7
1070
    78
1070
     8
1070
    41
1041
3.175
1070
   147
1041
1.75
1070
    42
1041
2.0
1070
    44
1041
2.0
1070
   140
1041
3.5
1070
   343
1005
2A2
1070
   344
1005
2A2
1002
}
0
DIMENSION
5
2D3
100
AcDbEntity
8
2
62
256
6
ByLayer
370
13
48
1
60
0
100
AcDbDimension
2
DimnDraft3D4
10
61.7
20
8.5
30
0
11
61.7
21
-7.355
31
0
70
32
71
5
72
1
41
1
210
0
220
0
230
1
3
Standard
100
AcDbAlignedDimension
13
45.6
23
11
33
0
14
45.6
24
8.5
34
0
50
90
100
AcDbRotatedDimension
1001
ACAD
1000
DSTYLE
1002
{
1070
    74
1070
     0
1070
   279
1070
     0
1070
   172
1070
     1
1070
   173
1070
     1
1070
   340
1005
290
1070
   271
1070
     1
1070
    77
1070
     1
1070
    73
1070
     0
1070
   171
1070
     3
1070
   274
1070
     4
1070
   177
1070
     2
1070
   176
1070
     2
1070
   178
1070
     7
1070
    78
1070
     8
1070
    41
1041
3.175
1070
   147
1041
1.75
1070
    42
1041
2.0
1070
    44
1041
2.0
1070
   140
1041
3.5
1070
   343
1005
2A2
1070
   344
1005
2A2
1002
}
0
ENDSEC
0
SECTION
2
OBJECTS
0
DICTIONARY
5
33c
330
0
100
AcDbDictionary
280
0
281
1
3
ACAD_GROUP
350
33d
3
ACAD_MLINESTYLE
350
33e
0
DICTIONARY
5
33d
330
0
100
AcDbDictionary
280
0
281
1
0
DICTIONARY
5
33e
330
0
100
AcDbDictionary
280
0
281
1
3
Standard
350
18
0
MLINESTYLE
5
18
330
33e
100
AcDbMlineStyle
2
Standard
70
0
3

62
256
51
90
52
90
71
2
49
-0.5
62
256
6
ByLayer
49
0.5
62
256
6
ByLayer
0
RASTERVARIABLES
5
32c
330

100
AcDbRasterVariables
90
0
70
1
71
1
72
1
0
ENDSEC
0
EOF
