0
SECTION
2
HEADER
9
$ACADVER
1
AC1015
9
$DWGCODEPAGE
3
ANSI_1252
9
$HANDSEED
5
26f
9
$ANGBASE
50
0
9
$ANGDIR
70
0
9
$ATTMODE
70
1
9
$AUNITS
70
0
9
$AUPREC
70
0
9
$CECOLOR
62
256
9
$CELTSCALE
40
1
9
$CELTYPE
6
ByLayer
9
$CELWEIGHT
370
18
9
$CLAYER
8
0
9
$CMLJUST
70
0
9
$CMLSCALE
40
1
9
$CMLSTYLE
2
Standard
9
$DIMSTYLE
2
Standard
9
$TEXTSIZE
40
0.2
9
$TEXTSTYLE
7
Standard
9
$LUNITS
70
2
9
$LUPREC
70
4
9
$EXTNAMES
290
1
9
$INSUNITS
70
4
9
$LTSCALE
40
1
9
$LWDISPLAY
290
1
9
$PDMODE
70
0
9
$PDSIZE
40
0
9
$PLINEGEN
70
0
0
ENDSEC
0
SECTION
2
CLASSES
0
CLASS
1
RASTERVARIABLES
2
AcDbRasterVariables
3
ISM
90
0
280
0
281
0
0
ENDSEC
0
SECTION
2
TABLES
0
TABLE
2
VPORT
5
265
100
AcDbSymbolTable
0
VPORT
5
1
100
AcDbSymbolTableRecord
100
AcDbViewportTableRecord
2
*Active
70
0
10
0
20
0
11
1
21
1
12
-1
22
1
13
0
23
0
14
0.5
24
0.5
15
10
25
10
16
0
26
0
36
1
17
0
27
0
37
0
0
ENDTAB
0
TABLE
2
LTYPE
5
266
100
AcDbSymbolTable
0
LTYPE
5
14
100
AcDbSymbolTableRecord
100
AcDbLinetypeTableRecord
70
0
2
ByBlock
3

72
65
73
0
40
0
0
LTYPE
5
15
100
AcDbSymbolTableRecord
100
AcDbLinetypeTableRecord
70
0
2
ByLayer
3

72
65
73
0
40
0
0
LTYPE
5
16
100
AcDbSymbolTableRecord
100
AcDbLinetypeTableRecord
70
0
2
CONTINUOUS
3
Solid line
72
65
73
0
40
0
0
LTYPE
5
6A
100
AcDbSymbolTableRecord
100
AcDbLinetypeTableRecord
70
0
2
CENTER
3
____ _ ____ _ ____ _ ____
72
65
73
4
40
47.5
49
22
74
0
49
-8.5
74
0
49
8.5
74
0
49
-8.5
74
0
0
LTYPE
5
6B
100
AcDbSymbolTableRecord
100
AcDbLinetypeTableRecord
70
0
2
DASHED
3
__ __ __ __ __ __ __ __ __
72
65
73
2
40
25.72
49
12.86
74
0
49
-12.86
74
0
0
ENDTAB
0
TABLE
2
LAYER
5
267
100
AcDbSymbolTable
0
LAYER
5
10
100
AcDbSymbolTableRecord
100
AcDbLayerTableRecord
2
0
70
0
62
7
6
CONTINUOUS
290
1
370
-3
390
0
0
LAYER
5
6D
100
AcDbSymbolTableRecord
100
AcDbLayerTableRecord
2
80
70
0
62
-6
6
CONTINUOUS
290
1
370
-3
390
0
0
LAYER
5
6F
100
AcDbSymbolTableRecord
100
AcDbLayerTableRecord
2
81
70
0
62
-3
6
CONTINUOUS
290
1
370
-3
390
0
0
LAYER
5
73
100
AcDbSymbolTableRecord
100
AcDbLayerTableRecord
2
1
70
0
62
4
6
CONTINUOUS
290
1
370
-3
390
0
0
LAYER
5
FF
100
AcDbSymbolTableRecord
100
AcDbLayerTableRecord
2
4
70
0
62
-2
6
CENTER
290
1
370
-3
390
0
0
LAYER
5
1DA
100
AcDbSymbolTableRecord
100
AcDbLayerTableRecord
2
2
70
0
62
7
6
CONTINUOUS
290
1
370
-3
390
0
0
LAYER
5
251
100
AcDbSymbolTableRecord
100
AcDbLayerTableRecord
2
SK1
70
0
62
4
6
CONTINUOUS
290
1
370
-3
390
0
0
LAYER
5
252
100
AcDbSymbolTableRecord
100
AcDbLayerTableRecord
2
SK4
70
0
62
2
6
CENTER
290
1
370
-3
390
0
0
LAYER
5
253
100
AcDbSymbolTableRecord
100
AcDbLayerTableRecord
2
SK6
70
0
62
5
6
CONTINUOUS
290
1
370
-3
390
0
0
LAYER
5
254
100
AcDbSymbolTableRecord
100
AcDbLayerTableRecord
2
SK2
70
0
62
7
6
CONTINUOUS
290
1
370
-3
390
0
0
ENDTAB
0
TABLE
2
STYLE
5
268
100
AcDbSymbolTable
0
STYLE
5
11
100
AcDbSymbolTableRecord
100
AcDbTextStyleTableRecord
2
Standard
3
txt
70
0
71
0
40
0
41
1
42
0
50
0
0
STYLE
5
1C9
100
AcDbSymbolTableRecord
100
AcDbTextStyleTableRecord
2
blockfont
3
simplex.shx
70
0
71
0
40
0
41
1
42
0
50
0
0
STYLE
5
1CA
100
AcDbSymbolTableRecord
100
AcDbTextStyleTableRecord
2
DWGDirectTextStyle
3
simplex
70
0
71
0
40
0
41
1
42
0
50
0
0
ENDTAB
0
TABLE
2
DIMSTYLE
5
269
100
AcDbSymbolTable
100
AcDbDimStyleTable
0
DIMSTYLE
105
27
100
AcDbSymbolTableRecord
100
AcDbDimStyleTableRecord
2
Standard
70
0
3
<>
41
0.18
42
0.0625
44
0.18
140
0.18
147
0.09
73
0
74
0
77
1
271
2
275
0
278
52
280
0
340
11
0
ENDTAB
0
TABLE
2
VIEW
5
26a
100
AcDbSymbolTable
0
ENDTAB
0
TABLE
2
UCS
5
26b
100
AcDbSymbolTable
0
ENDTAB
0
TABLE
2
APPID
5
26c
100
AcDbSymbolTable
0
APPID
5
12
100
AcDbSymbolTableRecord
100
AcDbRegAppTableRecord
2
ACAD
70
0
0
ENDTAB
0
TABLE
2
BLOCK_RECORD
5
26d
100
AcDbSymbolTable
0
BLOCK_RECORD
5
1F
100
AcDbSymbolTableRecord
100
AcDbBlockTableRecord
2
*Model_Space
340
0
70
0
0
BLOCK_RECORD
5
1B
100
AcDbSymbolTableRecord
100
AcDbBlockTableRecord
2
*Paper_Space
340
0
70
0
0
BLOCK_RECORD
5
23
100
AcDbSymbolTableRecord
100
AcDbBlockTableRecord
2
*Paper_Space0
340
0
70
0
0
BLOCK_RECORD
5
1CC
100
AcDbSymbolTableRecord
100
AcDbBlockTableRecord
2
DimnDraft3D1
340
0
70
0
0
BLOCK_RECORD
5
1D8
100
AcDbSymbolTableRecord
100
AcDbBlockTableRecord
2
DimnDraft3D2
340
0
70
0
0
BLOCK_RECORD
5
1E3
100
AcDbSymbolTableRecord
100
AcDbBlockTableRecord
2
DimnDraft3D3
340
0
70
0
0
BLOCK_RECORD
5
1ED
100
AcDbSymbolTableRecord
100
AcDbBlockTableRecord
2
DimnDraft3D4
340
0
70
0
0
ENDTAB
0
ENDSEC
0
SECTION
2
BLOCKS
0
BLOCK
5
20
100
AcDbEntity
8
0
100
AcDbBlockBegin
2
*Model_Space
70
0
10
0
20
0
30
0
3
*Model_Space
0
ENDBLK
5
21
100
AcDbEntity
8
0
100
AcDbBlockEnd
0
BLOCK
5
1C
100
AcDbEntity
8
0
100
AcDbBlockBegin
2
*Paper_Space
70
0
10
0
20
0
30
0
3
*Paper_Space
0
ENDBLK
5
1D
100
AcDbEntity
8
0
100
AcDbBlockEnd
0
BLOCK
5
24
100
AcDbEntity
8
0
100
AcDbBlockBegin
2
*Paper_Space0
70
0
10
0
20
0
30
0
3
*Paper_Space0
0
ENDBLK
5
25
100
AcDbEntity
8
0
100
AcDbBlockEnd
0
BLOCK
5
1D5
100
AcDbEntity
8
0
100
AcDbBlockBegin
2
DimnDraft3D1
70
0
10
0
20
0
30
0
3
DimnDraft3D1
0
MTEXT
5
1CD
100
AcDbEntity
8
SK2
62
256
6
ByLayer
370
13
48
1
60
0
100
AcDbMText
10
-13.992153
20
1.858698
30
0
210
0
220
0
230
1
1
\W1.1795;40
40
3.175
41
0
44
0.903614
50
90
71
7
72
5
7
blockfont
0
MTEXT
5
1CF
100
AcDbEntity
8
SK2
62
256
6
ByLayer
370
13
48
1
60
0
100
AcDbMText
10
-13.992153
20
-5.260247
30
0
210
0
220
0
230
1
1
%%c
40
3.175
41
0
44
0.903614
50
90
71
7
72
5
7
blockfont
0
LINE
5
1D0
100
AcDbEntity
8
SK2
62
256
6
ByLayer
370
13
48
1
60
0
100
AcDbLine
10
-0.9125
20
20
30
0
11
-15.811164
21
20
31
0
39
0
210
0
220
0
230
1
0
LINE
5
1D1
100
AcDbEntity
8
SK2
62
256
6
ByLayer
370
13
48
1
60
0
100
AcDbLine
10
-0.9125
20
-20
30
0
11
-15.811164
21
-20
31
0
39
0
210
0
220
0
230
1
0
LINE
5
1D2
100
AcDbEntity
8
SK2
62
256
6
ByLayer
370
13
48
1
60
0
100
AcDbLine
10
-12.636164
20
20
30
0
11
-12.636164
21
-20
31
0
39
0
210
0
220
0
230
1
0
SOLID
5
1D3
100
AcDbEntity
8
SK2
62
256
6
ByLayer
370
13
48
1
60
0
100
AcDbTrace
10
-12.636164
20
20
30
0
11
-12.218167
21
16.825002
31
0
12
-13.05416
22
16.824998
32
0
13
-12.636164
23
20
33
0
39
0
210
0
220
0
230
1
0
SOLID
5
1D4
100
AcDbEntity
8
SK2
62
256
6
ByLayer
370
13
48
1
60
0
100
AcDbTrace
10
-12.636164
20
-20
30
0
11
-13.05416
21
-16.825002
31
0
12
-12.218167
22
-16.824998
32
0
13
-12.636164
23
-20
33
0
39
0
210
0
220
0
230
1
0
ENDBLK
5
1D6
100
AcDbEntity
8
0
100
AcDbBlockEnd
0
BLOCK
5
1E0
100
AcDbEntity
8
0
100
AcDbBlockBegin
2
DimnDraft3D2
70
0
10
0
20
0
30
0
3
DimnDraft3D2
0
MTEXT
5
1D9
100
AcDbEntity
8
2
62
256
6
ByLayer
370
13
48
1
60
0
100
AcDbMText
10
15.493073
20
-36.174145
30
0
210
0
220
0
230
1
1
\W1.1795;36
40
3.175
41
0
44
0.903614
50
0
71
7
72
5
7
blockfont
0
LINE
5
1DB
100
AcDbEntity
8
2
62
256
6
ByLayer
370
13
48
1
60
0
100
AcDbLine
10
0
20
-1.5875
30
0
11
0
21
-39.911385
31
0
39
0
210
0
220
0
230
1
0
LINE
5
1DC
100
AcDbEntity
8
2
62
256
6
ByLayer
370
13
48
1
60
0
100
AcDbLine
10
36
20
-31.5875
30
0
11
36
21
-39.911385
31
0
39
0
210
0
220
0
230
1
0
LINE
5
1DD
100
AcDbEntity
8
2
62
256
6
ByLayer
370
13
48
1
60
0
100
AcDbLine
10
0
20
-36.736385
30
0
11
36
21
-36.736385
31
0
39
0
210
0
220
0
230
1
0
SOLID
5
1DE
100
AcDbEntity
8
2
62
256
6
ByLayer
370
13
48
1
60
0
100
AcDbTrace
10
0
20
-36.736385
30
0
11
3.174998
21
-36.318388
31
0
12
3.175002
22
-37.154381
32
0
13
0
23
-36.736385
33
0
39
0
210
0
220
0
230
1
0
SOLID
5
1DF
100
AcDbEntity
8
2
62
256
6
ByLayer
370
13
48
1
60
0
100
AcDbTrace
10
36
20
-36.736385
30
0
11
32.825002
21
-37.154381
31
0
12
32.824998
22
-36.318388
32
0
13
36
23
-36.736385
33
0
39
0
210
0
220
0
230
1
0
ENDBLK
5
1E1
100
AcDbEntity
8
0
100
AcDbBlockEnd
0
BLOCK
5
1EA
100
AcDbEntity
8
0
100
AcDbBlockBegin
2
DimnDraft3D3
70
0
10
0
20
0
30
0
3
DimnDraft3D3
0
MTEXT
5
1E4
100
AcDbEntity
8
2
62
256
6
ByLayer
370
13
48
1
60
0
100
AcDbMText
10
58.334423
20
-17.506927
30
0
210
0
220
0
230
1
1
\W1.1795;30
40
3.175
41
0
44
0.903614
50
90
71
7
72
5
7
blockfont
0
LINE
5
1E5
100
AcDbEntity
8
2
62
256
6
ByLayer
370
13
48
1
60
0
100
AcDbLine
10
42.5875
20
0
30
0
11
62.071663
21
0
31
0
39
0
210
0
220
0
230
1
0
LINE
5
1E6
100
AcDbEntity
8
2
62
256
6
ByLayer
370
13
48
1
60
0
100
AcDbLine
10
37.5875
20
-30
30
0
11
62.071663
21
-30
31
0
39
0
210
0
220
0
230
1
0
LINE
5
1E7
100
AcDbEntity
8
2
62
256
6
ByLayer
370
13
48
1
60
0
100
AcDbLine
10
58.896663
20
0
30
0
11
58.896663
21
-30
31
0
39
0
210
0
220
0
230
1
0
SOLID
5
1E8
100
AcDbEntity
8
2
62
256
6
ByLayer
370
13
48
1
60
0
100
AcDbTrace
10
58.896663
20
0
30
0
11
59.31466
21
-3.174998
31
0
12
58.478666
22
-3.175002
32
0
13
58.896663
23
0
33
0
39
0
210
0
220
0
230
1
0
SOLID
5
1E9
100
AcDbEntity
8
2
62
256
6
ByLayer
370
13
48
1
60
0
100
AcDbTrace
10
58.896663
20
-30
30
0
11
58.478666
21
-26.825002
31
0
12
59.31466
22
-26.824998
32
0
13
58.896663
23
-30
33
0
39
0
210
0
220
0
230
1
0
ENDBLK
5
1EB
100
AcDbEntity
8
0
100
AcDbBlockEnd
0
BLOCK
5
1F5
100
AcDbEntity
8
0
100
AcDbBlockBegin
2
DimnDraft3D4
70
0
10
0
20
0
30
0
3
DimnDraft3D4
0
MTEXT
5
1EE
100
AcDbEntity
8
SK2
62
256
6
ByLayer
370
13
48
1
60
0
100
AcDbMText
10
44.98276
20
-41.776687
30
0
210
0
220
0
230
1
1
\W1.4729;93%%d
40
3.175
41
0
44
0.903614
50
53.8412726660068
71
7
72
5
7
blockfont
0
LINE
5
1EF
100
AcDbEntity
8
SK2
62
256
6
ByLayer
370
13
48
1
60
0
100
AcDbLine
10
35.302689
20
-15.777362
30
0
11
35.111277
21
-12.125017
31
0
39
0
210
0
220
0
230
1
0
LINE
5
1F0
100
AcDbEntity
8
SK2
62
256
6
ByLayer
370
13
48
1
60
0
100
AcDbLine
10
41.1875
20
-30
30
0
11
53.947579
21
-30
31
0
39
0
210
0
220
0
230
1
0
ARC
5
1F1
100
AcDbEntity
8
SK2
62
256
6
ByLayer
370
13
48
1
60
0
100
AcDbCircle
39
0
10
36.048066
20
-30
30
0
40
14.7245137785369
210
0
220
0
230
1
100
AcDbArc
50
304.979375
51
0
0
ARC
5
1F2
100
AcDbEntity
8
SK2
62
256
6
ByLayer
370
13
48
1
60
0
100
AcDbCircle
39
0
10
36.048066
20
-30
30
0
40
14.7245137785369
210
0
220
0
230
1
100
AcDbArc
50
0
51
93
0
SOLID
5
1F3
100
AcDbEntity
8
SK2
62
256
6
ByLayer
370
13
48
1
60
0
100
AcDbTrace
10
35.277444
20
-15.295666
30
0
11
38.453
21
-14.881922
31
0
12
38.451883
22
-15.717915
32
0
13
35.277444
23
-15.295666
33
0
39
0
210
0
220
0
230
1
0
SOLID
5
1F4
100
AcDbEntity
8
SK2
62
256
6
ByLayer
370
13
48
1
60
0
100
AcDbTrace
10
50.772579
20
-30
30
0
11
50.184772
21
-26.852014
31
0
12
51.01956
22
-26.80714
32
0
13
50.772579
23
-30
33
0
39
0
210
0
220
0
230
1
0
ENDBLK
5
1F6
100
AcDbEntity
8
0
100
AcDbBlockEnd
0
ENDSEC
0
SECTION
2
ENTITIES
0
ARC
5
104
100
AcDbEntity
8
SK1
62
256
6
ByLayer
370
18
48
1
60
0
100
AcDbCircle
39
0
10
0
20
0
30
-3.825
40
2.65358983848623
210
1
220
0
230
0
100
AcDbArc
50
0
51
90
0
ARC
5
105
100
AcDbEntity
8
SK1
62
256
6
ByLayer
370
18
48
1
60
0
100
AcDbCircle
39
0
10
0
20
0
30
-3.825
40
2.65358983848623
210
1
220
0
230
0
100
AcDbArc
50
90
51
180
0
ARC
5
106
100
AcDbEntity
8
1
62
256
6
ByLayer
370
18
48
1
60
0
100
AcDbCircle
39
0
10
-27.221482
20
0.417676
30
0
40
6.50000000000438
210
0
220
0
230
-1
100
AcDbArc
50
126.564284
51
163.300553
0
ARC
5
107
100
AcDbEntity
8
1
62
256
6
ByLayer
370
18
48
1
60
0
100
AcDbCircle
39
0
10
-5.894204
20
-5.771547
30
0
40
11.2000000000157
210
0
220
0
230
-1
100
AcDbArc
50
145.984221
51
166.827582
0
ARC
5
108
100
AcDbEntity
8
1
62
256
6
ByLayer
370
18
48
1
60
0
100
AcDbCircle
39
0
10
-6.02911
20
-5.992551
30
0
40
10
210
0
220
0
230
-1
100
AcDbArc
50
145.984221
51
166.827582
0
ELLIPSE
5
109
100
AcDbEntity
8
1
62
256
6
ByLayer
370
18
48
1
60
0
100
AcDbEllipse
10
27.269818
20
-3.891752
30
0
11
-3.41417668984644
21
-2.08408193949086
31
0
210
0
220
0
230
-1
40
0.976444
41
1.98908783520338
42
3.14159265358979
0
ELLIPSE
5
10A
100
AcDbEntity
8
1
62
256
6
ByLayer
370
18
48
1
60
0
100
AcDbEllipse
10
26.95295
20
-3.372654
30
0
11
-1.2803162586915
21
-0.781530727310014
31
0
210
0
220
0
230
-1
40
0.976444
41
-3.13578004329212
42
-2.08858249209545
0
ELLIPSE
5
10B
100
AcDbEntity
8
1
62
256
6
ByLayer
370
18
48
1
60
0
100
AcDbEllipse
10
27.331251
20
-3.992393
30
0
11
-3.41417668984831
21
-2.08408193948715
31
0
210
0
220
0
230
-1
40
0.976444
41
1.57660893709075
42
3.14159265358979
0
ELLIPSE
5
10C
100
AcDbEntity
8
1
62
256
6
ByLayer
370
18
48
1
60
0
100
AcDbEllipse
10
15.312605
20
0.272966
30
0
11
-0.994660246868123
21
-0.671305439647219
31
0
210
0
220
0
230
-1
40
0.215557
41
0
42
1.58064113117738
0
ELLIPSE
5
10D
100
AcDbEntity
8
1
62
256
6
ByLayer
370
18
48
1
60
0
100
AcDbEllipse
10
11.43683
20
9.899495
30
0
11
-46.4032083357901
21
-0.985232083111246
31
0
210
0
220
0
230
-1
40
0.111129
41
-2.00586234078755
42
-1.59591509438818
0
ELLIPSE
5
10E
100
AcDbEntity
8
1
62
256
6
ByLayer
370
18
48
1
60
0
100
AcDbEllipse
10
27.402634
20
-4.109334
30
0
11
-1.47838187320866
21
-0.902433951581635
31
0
210
0
220
0
230
-1
40
0.976444
41
2.62380648828707
42
-2.61218126769584
0
ELLIPSE
5
10F
100
AcDbEntity
8
1
62
256
6
ByLayer
370
18
48
1
60
0
100
AcDbEllipse
10
26.840528
20
-3.188483
30
0
11
-1.28031619973314
21
-0.781530942539086
31
0
210
0
220
0
230
-1
40
0.976444
41
-0.193139317008709
42
-0.142003479161606
0
ELLIPSE
5
110
100
AcDbEntity
8
1
62
256
6
ByLayer
370
18
48
1
60
0
100
AcDbEllipse
10
27.402634
20
-4.109334
30
0
11
-1.4783818732099
21
-0.902433951580307
31
0
210
0
220
0
230
-1
40
0.976444
41
0.529411385892912
42
1.57660893708944
0
ELLIPSE
5
111
100
AcDbEntity
8
1
62
256
6
ByLayer
370
18
48
1
60
0
100
AcDbEllipse
10
16.934423
20
-3.440271
30
0
11
-1.16842646044948
21
-0.273458601110978
31
0
210
0
220
0
230
-1
40
0.205412
41
0
42
1.50325083967664
0
ELLIPSE
5
112
100
AcDbEntity
8
1
62
256
6
ByLayer
370
18
48
1
60
0
100
AcDbEllipse
10
26.95295
20
-3.372654
30
0
11
-1.28031625869339
21
-0.781530727307472
31
0
210
0
220
0
230
-1
40
0.976444
41
-2.08858249209752
42
-1.04138494090102
0
ELLIPSE
5
113
100
AcDbEntity
8
1
62
256
6
ByLayer
370
18
48
1
60
0
100
AcDbEllipse
10
26.95295
20
-3.372654
30
0
11
-1.28031625869358
21
-0.781530727306746
31
0
210
0
220
0
230
-1
40
0.976444
41
-1.04138494090147
42
0.00581261029517124
0
ELLIPSE
5
114
100
AcDbEntity
8
1
62
256
6
ByLayer
370
18
48
1
60
0
100
AcDbEllipse
10
27.402634
20
-4.109334
30
0
11
-1.47838187320805
21
-0.902433951583227
31
0
210
0
220
0
230
-1
40
0.976444
41
1.57660893709149
42
2.62380648828806
0
ELLIPSE
5
115
100
AcDbEntity
8
1
62
256
6
ByLayer
370
18
48
1
60
0
100
AcDbEllipse
10
26.840528
20
-3.188483
30
0
11
-1.28031625869313
21
-0.781530727307655
31
0
210
0
220
0
230
-1
40
0.976444
41
-2.9933897804712
42
-0.193139460565878
0
ELLIPSE
5
116
100
AcDbEntity
8
1
62
256
6
ByLayer
370
18
48
1
60
0
100
AcDbEllipse
10
27.12214
20
-14.542127
30
0
11
-1.67798897349626
21
-2.09904051490886
31
0
210
0
220
0
230
-1
40
0.982447
41
-1.38853419326651
42
-0.810517727664304
0
ELLIPSE
5
117
100
AcDbEntity
8
1
62
256
6
ByLayer
370
18
48
1
60
0
100
AcDbEllipse
10
20.175514
20
-9.157958
30
0
11
-2.22273349736119
21
-1.35680105118154
31
0
210
0
220
0
230
-1
40
0.976444
41
-0.471971293153766
42
-0.430568164548189
0
ELLIPSE
5
118
100
AcDbEntity
8
1
62
256
6
ByLayer
370
18
48
1
60
0
100
AcDbEllipse
10
35.211033
20
-29.119582
30
0
11
-0.677714072934688
21
-0.413690264988527
31
0
210
0
220
0
230
-1
40
0.976444
41
-2.65581449899501
42
-0.47415293400209
0
ELLIPSE
5
119
100
AcDbEntity
8
1
62
256
6
ByLayer
370
18
48
1
60
0
100
AcDbEllipse
10
27.302803
20
-16.029954
30
0
11
-2.72067204972334
21
-1.66075279552822
31
0
210
0
220
0
230
-1
40
0.976444
41
-2.33668586303843
42
-0.804906790551748
0
ELLIPSE
5
11A
100
AcDbEntity
8
1
62
256
6
ByLayer
370
18
48
1
60
0
100
AcDbEllipse
10
28.435446
20
-17.885469
30
0
11
-2.20214396495768
21
-1.34423285095888
31
0
210
0
220
0
230
-1
40
0.976444
41
-1.56498371650372
42
-0.275406468942843
0
ELLIPSE
5
11B
100
AcDbEntity
8
1
62
256
6
ByLayer
370
18
48
1
60
0
100
AcDbEllipse
10
18.877251
20
-11.226411
30
0
11
-0.0772565854630699
21
-0.128574569813349
31
0
210
0
220
0
230
-1
40
0.192182
41
0.0884938891120401
42
1.6709257442508
0
ELLIPSE
5
11C
100
AcDbEntity
8
1
62
256
6
ByLayer
370
18
48
1
60
0
100
AcDbEllipse
10
23.087608
20
-8.990318
30
0
11
-0.677714072934969
21
-0.413690264988036
31
0
210
0
220
0
230
-1
40
0.976444
41
0.485778154594014
42
2.667439719587
0
ELLIPSE
5
11D
100
AcDbEntity
8
1
62
256
6
ByLayer
370
18
48
1
60
0
100
AcDbEllipse
10
28.435446
20
-17.885469
30
0
11
-2.20214396495092
21
-1.34423285097098
31
0
210
0
220
0
230
-1
40
0.976444
41
-2.86618618465051
42
-1.56498371649819
0
ELLIPSE
5
11E
100
AcDbEntity
8
1
62
256
6
ByLayer
370
18
48
1
60
0
100
AcDbEllipse
10
20.158454
20
-9.130011
30
0
11
-2.09471049164495
21
-1.27865336659086
31
0
210
0
220
0
230
-1
40
0.976444
41
-0.471971250524738
42
-0.381205772159068
0
ELLIPSE
5
11F
100
AcDbEntity
8
1
62
256
6
ByLayer
370
18
48
1
60
0
100
AcDbEllipse
10
28.044783
20
-17.245478
30
0
11
-2.72067204972299
21
-1.66075279552954
31
0
210
0
220
0
230
-1
40
0.976444
41
-2.15129401238066
42
-0.990298641218345
0
ELLIPSE
5
120
100
AcDbEntity
8
1
62
256
6
ByLayer
370
18
48
1
60
0
100
AcDbEllipse
10
19.863447
20
-8.243454
30
0
11
-2.13386043115609
21
-1.3025512121778
31
0
210
0
220
0
230
-1
40
0.976444
41
-1.85951364686315
42
-0.406919656068922
0
ELLIPSE
5
121
100
AcDbEntity
8
1
62
256
6
ByLayer
370
18
48
1
60
0
100
AcDbEllipse
10
29.149321
20
-19.05495
30
0
11
-2.20214396495226
21
-1.34423285096904
31
0
210
0
220
0
230
-1
40
0.976444
41
3.14159265358979
42
0
0
ELLIPSE
5
122
100
AcDbEntity
8
1
62
256
6
ByLayer
370
18
48
1
60
0
100
AcDbEllipse
10
19.982046
20
-16.462068
30
0
11
-1.16842646044946
21
-0.273458601110988
31
0
210
0
220
0
230
-1
40
0.205412
41
0
42
1.50325083967664
0
ELLIPSE
5
123
100
AcDbEntity
8
1
62
256
6
ByLayer
370
18
48
1
60
0
100
AcDbEllipse
10
21.802363
20
-13.343757
30
0
11
-0.155261326491268
21
0.0956371148982544
31
0
210
0
220
0
230
-1
40
0.071867
41
-0.163853712193787
42
1.41857814294102
0
ELLIPSE
5
124
100
AcDbEntity
8
1
62
256
6
ByLayer
370
18
48
1
60
0
100
AcDbEllipse
10
32.931969
20
-15.336106
30
0
11
-1.0165711093751
21
-0.62053539756703
31
0
210
0
220
0
230
-1
40
0.976444
41
2.66743971966236
42
-3.13578004322309
0
ELLIPSE
5
125
100
AcDbEntity
8
1
62
256
6
ByLayer
370
18
48
1
60
0
100
AcDbEllipse
10
29.149321
20
-19.05495
30
0
11
-2.20214396495288
21
-1.34423285096788
31
0
210
0
220
0
230
-1
40
0.976444
41
1.57660893709014
42
3.14159265358979
0
ELLIPSE
5
126
100
AcDbEntity
8
1
62
256
6
ByLayer
370
18
48
1
60
0
100
AcDbEllipse
10
21.181487
20
-10.80596
30
0
11
-2.13386043144422
21
-1.30255121208231
31
0
210
0
220
0
230
-1
40
0.976444
41
-0.0526817949621961
42
0.183195492166694
0
ELLIPSE
5
127
100
AcDbEntity
8
1
62
256
6
ByLayer
370
18
48
1
60
0
100
AcDbEllipse
10
28.300753
20
-13.852329
30
0
11
-2.13386043114725
21
-1.30255121220819
31
0
210
0
220
0
230
-1
40
0.976444
41
2.66962138116418
42
3.01778740243658
0
ELLIPSE
5
128
100
AcDbEntity
8
1
62
256
6
ByLayer
370
18
48
1
60
0
100
AcDbEllipse
10
29.149321
20
-19.05495
30
0
11
-2.20214396495193
21
-1.34423285096953
31
0
210
0
220
0
230
-1
40
0.976444
41
0
42
1.5766089370909
0
ELLIPSE
5
129
100
AcDbEntity
8
1
62
256
6
ByLayer
370
18
48
1
60
0
100
AcDbEllipse
10
19.919658
20
-8.335539
30
0
11
-2.13386043115651
21
-1.30255121217703
31
0
210
0
220
0
230
-1
40
0.976444
41
-1.83103771005536
42
-0.379902972807285
0
ELLIPSE
5
12A
100
AcDbEntity
8
1
62
256
6
ByLayer
370
18
48
1
60
0
100
AcDbEllipse
10
22.373734
20
-7.820837
30
0
11
-0.677714072896404
21
-0.413690265041574
31
0
210
0
220
0
230
-1
40
0.976444
41
0.485778154676022
42
0.924399761640671
0
ELLIPSE
5
12B
100
AcDbEntity
8
1
62
256
6
ByLayer
370
18
48
1
60
0
100
AcDbEllipse
10
19.306201
20
-25.427879
30
0
11
-4.35307527953424
21
-2.65720447289053
31
0
210
0
220
0
230
-1
40
0.976444
41
2.17766288891753
42
2.66962138116846
0
ELLIPSE
5
12C
100
AcDbEntity
8
1
62
256
6
ByLayer
370
18
48
1
60
0
100
AcDbEllipse
10
25.615488
20
-12.238834
30
0
11
-2.13386043106184
21
-1.30255121236565
31
0
210
0
220
0
230
-1
40
0.976444
41
2.32145535996308
42
2.66962138123464
0
ELLIPSE
5
12D
100
AcDbEntity
8
1
62
256
6
ByLayer
370
18
48
1
60
0
100
AcDbEllipse
10
25.366673
20
-22.773794
30
0
11
-1.01657110934627
21
-0.620535397634084
31
0
210
0
220
0
230
-1
40
0.976444
41
-0.474152933866091
42
0.00581261042584587
0
ELLIPSE
5
12E
100
AcDbEntity
8
1
62
256
6
ByLayer
370
18
48
1
60
0
100
AcDbEllipse
10
34.203905
20
-17.44798
30
0
11
-1.01657110931496
21
-0.620535397579853
31
0
210
0
220
0
230
-1
40
0.976444
41
-3.13578004318841
42
-2.65581449888498
0
ELLIPSE
5
12F
100
AcDbEntity
8
1
62
256
6
ByLayer
370
18
48
1
60
0
100
AcDbEllipse
10
25.138829
20
-9.899495
30
0
11
-8.38997771954826
21
5.22721973267718
31
0
210
0
220
0
230
-1
40
0.058229
41
1.27299318877556
42
1.55125481325606
0
ELLIPSE
5
130
100
AcDbEntity
8
1
62
256
6
ByLayer
370
18
48
1
60
0
100
AcDbEllipse
10
21.181487
20
-10.80596
30
0
11
-2.13386043107611
21
-1.3025512123897
31
0
210
0
220
0
230
-1
40
0.976444
41
-0.47197127234738
42
-0.0526817947864573
0
ELLIPSE
5
131
100
AcDbEntity
8
1
62
256
6
ByLayer
370
18
48
1
60
0
100
AcDbEllipse
10
27.331251
20
-3.992393
30
0
11
-3.41417668984841
21
-2.08408193948695
31
0
210
0
220
0
230
-1
40
0.976444
41
3.14159265358979
42
-2.27401269222845E-16
0
ELLIPSE
5
132
100
AcDbEntity
8
1
62
256
6
ByLayer
370
18
48
1
60
0
100
AcDbEllipse
10
27.402634
20
-4.109334
30
0
11
-1.47838187320702
21
-0.902433951585188
31
0
210
0
220
0
230
-1
40
0.976444
41
-1.56498371649699
42
-0.517786165300501
0
ELLIPSE
5
133
100
AcDbEntity
8
1
62
256
6
ByLayer
370
18
48
1
60
0
100
AcDbEllipse
10
27.402634
20
-4.109334
30
0
11
-1.47838187320946
21
-0.902433951580925
31
0
210
0
220
0
230
-1
40
0.976444
41
-2.61218126769646
42
-1.5649837164999
0
ELLIPSE
5
134
100
AcDbEntity
8
1
62
256
6
ByLayer
370
18
48
1
60
0
100
AcDbEllipse
10
27.402634
20
-4.109334
30
0
11
-2.707868887136
21
-1.65293748825564
31
0
210
0
220
0
230
-1
40
0.976444
41
0
42
6.28318530717959
0
ELLIPSE
5
135
100
AcDbEntity
8
1
62
256
6
ByLayer
370
18
48
1
60
0
100
AcDbEllipse
10
27.269818
20
-3.891752
30
0
11
-3.41417668984838
21
-2.08408193948701
31
0
210
0
220
0
230
-1
40
0.976444
41
0
42
1.98908783520228
0
ELLIPSE
5
136
100
AcDbEntity
8
1
62
256
6
ByLayer
370
18
48
1
60
0
100
AcDbEllipse
10
27.331251
20
-3.992393
30
0
11
-3.41417668984828
21
-2.08408193948715
31
0
210
0
220
0
230
-1
40
0.976444
41
0
42
1.57660893709075
0
ELLIPSE
5
137
100
AcDbEntity
8
1
62
256
6
ByLayer
370
18
48
1
60
0
100
AcDbEllipse
10
27.402634
20
-4.109334
30
0
11
-1.47838187321001
21
-0.902433951582856
31
0
210
0
220
0
230
-1
40
0.976444
41
-0.517786165302259
42
0.529411385893863
0
ELLIPSE
5
138
100
AcDbEntity
8
1
62
256
6
ByLayer
370
18
48
1
60
0
100
AcDbEllipse
10
7.775
20
-7.865104
30
0
11
1.57570608040472E-16
21
-0.857802768204629
31
0
210
0
220
0
230
-1
40
0.466308
41
0
42
0.816726919048818
0
ELLIPSE
5
139
100
AcDbEntity
8
1
62
256
6
ByLayer
370
18
48
1
60
0
100
AcDbEllipse
10
-20.998195
20
-9.899495
30
0
11
-46.4032083358513
21
-0.985232083110566
31
0
210
0
220
0
230
-1
40
0.111129
41
2.55162032408536
42
-3.06554213614597
0
ELLIPSE
5
13A
100
AcDbEntity
8
1
62
256
6
ByLayer
370
18
48
1
60
0
100
AcDbEllipse
10
-20.962165
20
-9.901136
30
0
11
-46.3667547729372
21
-0.986545286133447
31
0
210
0
220
0
230
-1
40
0.111152
41
-2.60109811385231
42
-2.59847033798184
0
ELLIPSE
5
13B
100
AcDbEntity
8
1
62
256
6
ByLayer
370
18
48
1
60
0
100
AcDbEllipse
10
43.96505
20
5.57506
30
0
11
-32.7216395211176
21
-29.8298662313643
31
0
210
0
220
0
230
-1
40
0.142966
41
-0.467508404269808
42
-0.109841518118818
0
POINT
5
6C
100
AcDbEntity
8
80
62
256
6
ByLayer
370
13
48
1
60
0
100
AcDbPoint
10
0
20
0
30
0
39
0
210
0
220
0
230
1
50
360
0
POINT
5
6E
100
AcDbEntity
8
81
62
256
6
ByLayer
370
13
48
1
60
0
100
AcDbPoint
10
36
20
-30
30
0
39
0
210
0
220
0
230
1
50
360
0
SPLINE
5
13C
100
AcDbEntity
8
1
62
256
6
ByLayer
370
18
48
1
60
0
100
AcDbSpline
70
4
71
3
72
10
73
6
40
0
40
0
40
0
40
0
40
0.0973687239808651
40
0.869350211749324
40
1
40
1
40
1
40
1
41
1
10
0.445250819439462
20
9.65319653452229
30
0
41
1
10
0.44487924957175
20
9.63674055698614
30
0
41
1
10
0.439277210114552
20
9.48925615197942
30
0
41
1
10
0.397746041576942
20
9.30463469041956
30
0
41
1
10
0.350538851777682
20
9.14236623599246
30
0
41
1
10
0.343278579257562
20
9.11879287402927
30
0
0
SPLINE
5
13D
100
AcDbEntity
8
1
62
256
6
ByLayer
370
18
48
1
60
0
100
AcDbSpline
70
4
71
1
72
4
73
2
40
0
40
0
40
1
40
1
41
1
10
-0.324999999999993
20
17.3753372269433
30
0
41
1
10
0.343278579257496
20
17.93495223803
30
0
0
SPLINE
5
13E
100
AcDbEntity
8
1
62
256
6
ByLayer
370
18
48
1
60
0
100
AcDbSpline
70
4
71
1
72
4
73
2
40
0
40
0
40
1
40
1
41
1
10
-0.325
20
14.8816949219503
30
0
41
1
10
0.343278579257497
20
16.0085106636411
30
0
0
SPLINE
5
13F
100
AcDbEntity
8
1
62
256
6
ByLayer
370
18
48
1
60
0
100
AcDbSpline
70
4
71
3
72
14
73
10
40
0
40
0
40
0
40
0
40
0.0951138196713902
40
0.251234824831249
40
0.368749334776926
40
0.486114072412483
40
0.656465668092925
40
0.947867871263775
40
1
40
1
40
1
40
1
41
1
10
0.343278579251503
20
12.0130158376624
30
0
41
1
10
0.348910212672862
20
12.018144316371
30
0
41
1
10
0.363738829287914
20
12.0299280809997
30
0
41
1
10
0.386556132654237
20
12.0424010202522
30
0
41
1
10
0.408246643388889
20
12.0439969399759
30
0
41
1
10
0.425734644034439
20
12.0348859932232
30
0
41
1
10
0.441054078202899
20
12.0082505162581
30
0
41
1
10
0.444963169803972
20
11.9754397641241
30
0
41
1
10
0.445304168214731
20
11.9523608855339
30
0
41
1
10
0.445276696077777
20
11.9487961174388
30
0
0
SPLINE
5
140
100
AcDbEntity
8
1
62
256
6
ByLayer
370
18
48
1
60
0
100
AcDbSpline
70
4
71
1
72
4
73
2
40
0
40
0
40
1
40
1
41
1
10
-0.325
20
11.8991530686012
30
0
41
1
10
0.343278579257497
20
13.3683356695468
30
0
0
SPLINE
5
141
100
AcDbEntity
8
1
62
256
6
ByLayer
370
18
48
1
60
0
100
AcDbSpline
70
4
71
3
72
12
73
8
40
0
40
0
40
0
40
0
40
0.293885513933755
40
0.551583630341992
40
0.768298095454827
40
0.985598031296858
40
1
40
1
40
1
40
1
41
1
10
0.343278579257458
20
19.340953677083
30
0
41
1
10
0.359327636723334
20
19.3556655023032
30
0
41
1
10
0.386672782147694
20
19.3794794312371
30
0
41
1
10
0.420081069610372
20
19.4053624667613
30
0
41
1
10
0.440263916400314
20
19.4165970325708
30
0
41
1
10
0.445141600358913
20
19.4148321413423
30
0
41
1
10
0.445279018769181
20
19.4115786999383
30
0
41
1
10
0.445278576731548
20
19.4113671396395
30
0
0
SPLINE
5
142
100
AcDbEntity
8
1
62
256
6
ByLayer
370
18
48
1
60
0
100
AcDbSpline
70
4
71
3
72
11
73
7
40
0
40
0
40
0
40
0
40
0.106198987855083
40
0.389067987887682
40
0.820910985054663
40
1
40
1
40
1
40
1
41
1
10
0.445277405909418
20
17.9663561103937
30
0
41
1
10
0.445123306617712
20
17.9618896801901
30
0
41
1
10
0.442940411932288
20
17.9442877136092
30
0
41
1
10
0.422782322103147
20
17.8940836374509
30
0
41
1
10
0.384184187616995
20
17.8298654793235
30
0
41
1
10
0.353005850161078
20
17.7850553634904
30
0
41
1
10
0.343278579257499
20
17.7716749003053
30
0
0
SPLINE
5
143
100
AcDbEntity
8
1
62
256
6
ByLayer
370
18
48
1
60
0
100
AcDbSpline
70
4
71
2
72
6
73
3
40
0
40
0
40
0
40
1
40
1
40
1
41
1
10
-0.325
20
6.6117201808607
30
0
41
1
10
-0.0372120069985921
20
7.88172906724872
30
0
41
1
10
0.343278579257497
20
9.11879287402918
30
0
0
SPLINE
5
144
100
AcDbEntity
8
1
62
256
6
ByLayer
370
18
48
1
60
0
100
AcDbSpline
70
4
71
1
72
4
73
2
40
0
40
0
40
1
40
1
41
1
10
-0.324999999999993
20
18.9990748130008
30
0
41
1
10
0.343278579257496
20
19.6599204994536
30
0
0
SPLINE
5
145
100
AcDbEntity
8
1
62
256
6
ByLayer
370
18
48
1
60
0
100
AcDbSpline
70
4
71
1
72
4
73
2
40
0
40
0
40
1
40
1
41
1
10
-0.324999999999993
20
9.08445616148819
30
0
41
1
10
0.343278579257496
20
9.76435133857415
30
0
0
SPLINE
5
146
100
AcDbEntity
8
1
62
256
6
ByLayer
370
18
48
1
60
0
100
AcDbSpline
70
4
71
3
72
12
73
8
40
0
40
0
40
0
40
0
40
0.249911022237586
40
0.489614640952239
40
0.731048898773426
40
0.936573073655151
40
1
40
1
40
1
40
1
41
1
10
0.343278579257387
20
18.5373273217392
30
0
41
1
10
0.356942052465513
20
18.5491687676409
30
0
41
1
10
0.381802671138952
20
18.568884063502
30
0
41
1
10
0.415680000592191
20
18.590622099859
30
0
41
1
10
0.437936738137041
20
18.5969346372919
30
0
41
1
10
0.444665341769799
20
18.5901966797518
30
0
41
1
10
0.445296386196723
20
18.5838485956857
30
0
41
1
10
0.445278348722847
20
18.5821760187423
30
0
0
SPLINE
5
147
100
AcDbEntity
8
1
62
256
6
ByLayer
370
18
48
1
60
0
100
AcDbSpline
70
4
71
1
72
4
73
2
40
0
40
0
40
1
40
1
41
1
10
-0.324999999999993
20
15.709148409446
30
0
41
1
10
0.343278579257496
20
16.2549231580666
30
0
0
SPLINE
5
148
100
AcDbEntity
8
1
62
256
6
ByLayer
370
18
48
1
60
0
100
AcDbSpline
70
4
71
1
72
4
73
2
40
0
40
0
40
1
40
1
41
1
10
-0.325
20
17.5364575598951
30
0
41
1
10
0.343278579257497
20
18.408216543415
30
0
0
SPLINE
5
149
100
AcDbEntity
8
1
62
256
6
ByLayer
370
18
48
1
60
0
100
AcDbSpline
70
4
71
3
72
10
73
6
40
0
40
0
40
0
40
0
40
0.246284594069602
40
0.724455311353436
40
1
40
1
40
1
40
1
41
1
10
0.445278119583145
20
15.1092803777227
30
0
41
1
10
0.44412707464122
20
15.0891805624018
30
0
41
1
10
0.435659770605649
20
15.0277798493013
30
0
41
1
10
0.396094936570763
20
14.9267678139018
30
0
41
1
10
0.358702007898459
20
14.8517197144237
30
0
41
1
10
0.343278579257496
20
14.8237109429722
30
0
0
SPLINE
5
14A
100
AcDbEntity
8
1
62
256
6
ByLayer
370
18
48
1
60
0
100
AcDbSpline
70
4
71
3
72
13
73
9
40
0
40
0
40
0
40
0
40
0.124381710383834
40
0.31154808237655
40
0.4523106373034
40
0.592791007258019
40
0.800773201982933
40
1
40
1
40
1
40
1
41
1
10
0.343278579255034
20
13.7398159364984
30
0
41
1
10
0.350473078317281
20
13.7460060781993
30
0
41
1
10
0.368162409076179
20
13.7591996526113
30
0
41
1
10
0.394393134318746
20
13.7722142789085
30
0
41
1
10
0.417062404234518
20
13.772420394954
30
0
41
1
10
0.434068511965464
20
13.761076935972
30
0
41
1
10
0.443571553924196
20
13.7365702700505
30
0
41
1
10
0.445689947594568
20
13.7145628294119
30
0
41
1
10
0.445272100753345
20
13.7023655376355
30
0
0
SPLINE
5
14B
100
AcDbEntity
8
1
62
256
6
ByLayer
370
18
48
1
60
0
100
AcDbSpline
70
4
71
3
72
10
73
6
40
0
40
0
40
0
40
0
40
0.144664166532566
40
0.404927225093701
40
1
40
1
40
1
40
1
41
1
10
0.445254189009828
20
6.25956455740041
30
0
41
1
10
0.445175073921622
20
6.21673330372422
30
0
41
1
10
0.442535017866241
20
6.09628248965106
30
0
41
1
10
0.411839385009437
20
5.79256913480837
30
0
41
1
10
0.376339534953995
20
5.53240657584607
30
0
41
1
10
0.343278579257497
20
5.34998840487803
30
0
0
SPLINE
5
14C
100
AcDbEntity
8
1
62
256
6
ByLayer
370
18
48
1
60
0
100
AcDbSpline
70
4
71
3
72
12
73
8
40
0
40
0
40
0
40
0
40
0.179365425844843
40
0.381815697063602
40
0.585600282111726
40
0.761575933387327
40
1
40
1
40
1
40
1
41
1
10
0.343278579256907
20
16.2549231580664
30
0
41
1
10
0.353231057005824
20
16.2632052906846
30
0
41
1
10
0.373586207190966
20
16.278058524467
30
0
41
1
10
0.403838683001089
20
16.2938265615468
30
0
41
1
10
0.427565016982749
20
16.2958160296083
30
0
41
1
10
0.442289253486513
20
16.2832966139005
30
0
41
1
10
0.44562956194144
20
16.268406549665
30
0
41
1
10
0.44527854984874
20
16.2572737352011
30
0
0
SPLINE
5
14D
100
AcDbEntity
8
1
62
256
6
ByLayer
370
18
48
1
60
0
100
AcDbSpline
70
4
71
3
72
10
73
6
40
0
40
0
40
0
40
0
40
0.432827970052509
40
0.740995514031993
40
1
40
1
40
1
40
1
41
1
10
0.343278579257484
20
19.6599204994536
30
0
41
1
10
0.363674819027281
20
19.6800229202904
30
0
41
1
10
0.393973745994608
20
19.7095475386709
30
0
41
1
10
0.428052902907384
20
19.7419955553642
30
0
41
1
10
0.438717579381209
20
19.7514205938281
30
0
41
1
10
0.44219994765644
20
19.7542756911138
30
0
0
SPLINE
5
14E
100
AcDbEntity
8
1
62
256
6
ByLayer
370
18
48
1
60
0
100
AcDbSpline
70
4
71
3
72
15
73
11
40
0
40
0
40
0
40
0
40
0.0856011818570566
40
0.136793106851732
40
0.188458482577188
40
0.234430364548984
40
0.293389902841387
40
0.397106801703236
40
0.715174581256909
40
1
40
1
40
1
40
1
41
1
10
0.343278579257499
20
6.47090137540599
30
0
41
1
10
0.349212575622312
20
6.47972344933508
30
0
41
1
10
0.35950031231095
20
6.49139548765144
30
0
41
1
10
0.375569672796225
20
6.50376564919156
30
0
41
1
10
0.389116145198395
20
6.50777601075674
30
0
41
1
10
0.402040526512335
20
6.5042587447119
30
0
41
1
10
0.415407148990431
20
6.49096630455039
30
0
41
1
10
0.434793971546992
20
6.44576157210668
30
0
41
1
10
0.443247497466649
20
6.36400233288709
30
0
41
1
10
0.446302482797614
20
6.29406876068547
30
0
41
1
10
0.445254189009828
20
6.25956455740041
30
0
0
SPLINE
5
14F
100
AcDbEntity
8
1
62
256
6
ByLayer
370
18
48
1
60
0
100
AcDbSpline
70
4
71
1
72
4
73
2
40
0
40
0
40
1
40
1
41
1
10
-0.325
20
13.5564502636199
30
0
41
1
10
0.343278579257497
20
14.8237109429722
30
0
0
SPLINE
5
150
100
AcDbEntity
8
1
62
256
6
ByLayer
370
18
48
1
60
0
100
AcDbSpline
70
4
71
3
72
11
73
7
40
0
40
0
40
0
40
0
40
0.172631841068125
40
0.433288647058142
40
0.798977060677774
40
1
40
1
40
1
40
1
41
1
10
0.445278576731548
20
19.4113671396395
30
0
41
1
10
0.445008376110254
20
19.4082162591869
30
0
41
1
10
0.441472922893602
20
19.3977468991209
30
0
41
1
10
0.419088150177296
20
19.363625065103
30
0
41
1
10
0.382685056579662
20
19.3179230670645
30
0
41
1
10
0.354101261463687
20
19.2846106626576
30
0
41
1
10
0.343278579257151
20
19.2723234562772
30
0
0
SPLINE
5
151
100
AcDbEntity
8
1
62
256
6
ByLayer
370
18
48
1
60
0
100
AcDbSpline
70
4
71
1
72
4
73
2
40
0
40
0
40
1
40
1
41
1
10
-0.324999999999993
20
5.49680304813634
30
0
41
1
10
0.343278579257496
20
6.47090137540599
30
0
0
SPLINE
5
152
100
AcDbEntity
8
1
62
256
6
ByLayer
370
18
48
1
60
0
100
AcDbSpline
70
4
71
1
72
4
73
2
40
0
40
0
40
1
40
1
41
1
10
-0.324999999999993
20
18.5041169405622
30
0
41
1
10
0.343278579257497
20
19.2723234562802
30
0
0
SPLINE
5
153
100
AcDbEntity
8
1
62
256
6
ByLayer
370
18
48
1
60
0
100
AcDbSpline
70
4
71
1
72
4
73
2
40
0
40
0
40
1
40
1
41
1
10
-0.324999999999993
20
18.9546127301509
30
0
41
1
10
0.343278579257497
20
19.6464364834369
30
0
0
SPLINE
5
154
100
AcDbEntity
8
1
62
256
6
ByLayer
370
18
48
1
60
0
100
AcDbSpline
70
4
71
1
72
4
73
2
40
0
40
0
40
1
40
1
41
1
10
-0.324999999999993
20
18.7906850260974
30
0
41
1
10
0.343278579257497
20
19.5180034570805
30
0
0
SPLINE
5
155
100
AcDbEntity
8
1
62
256
6
ByLayer
370
18
48
1
60
0
100
AcDbSpline
70
4
71
2
72
6
73
3
40
0
40
0
40
0
40
1
40
1
40
1
41
1
10
0.445276696077777
20
11.9487961174388
30
0
41
1
10
0.435256087330975
20
11.7572184002966
30
0
41
1
10
0.343278579257506
20
11.54046753934
30
0
0
SPLINE
5
156
100
AcDbEntity
8
1
62
256
6
ByLayer
370
18
48
1
60
0
100
AcDbSpline
70
4
71
1
72
4
73
2
40
0
40
0
40
1
40
1
41
1
10
-0.325
20
16.8327016176846
30
0
41
1
10
0.343278579257497
20
17.7716749003053
30
0
0
SPLINE
5
157
100
AcDbEntity
8
1
62
256
6
ByLayer
370
18
48
1
60
0
100
AcDbSpline
70
4
71
3
72
13
73
9
40
0
40
0
40
0
40
0
40
0.153120007309582
40
0.371061266991218
40
0.558070078771867
40
0.71840287674264
40
0.966760479932337
40
1
40
1
40
1
40
1
41
1
10
0.343278579256345
20
15.1245672474208
30
0
41
1
10
0.351911344989998
20
15.1318115299512
30
0
41
1
10
0.372158726005778
20
15.1465643542532
30
0
41
1
10
0.402494540970269
20
15.1612418176068
30
0
41
1
10
0.426115765692792
20
15.1597293885332
30
0
41
1
10
0.441314685066633
20
15.1444854055131
30
0
41
1
10
0.445053568677742
20
15.1249309807666
30
0
41
1
10
0.445287961447456
20
15.11096384431
30
0
41
1
10
0.445278119583145
20
15.1092803777227
30
0
0
SPLINE
5
158
100
AcDbEntity
8
1
62
256
6
ByLayer
370
18
48
1
60
0
100
AcDbSpline
70
4
71
1
72
4
73
2
40
0
40
0
40
1
40
1
41
1
10
-0.324999999999993
20
18.7307192534083
30
0
41
1
10
0.343278579257496
20
19.340953677083
30
0
0
SPLINE
5
159
100
AcDbEntity
8
1
62
256
6
ByLayer
370
18
48
1
60
0
100
AcDbSpline
70
4
71
1
72
4
73
2
40
0
40
0
40
1
40
1
41
1
10
-0.324999999999993
20
11.4166476581351
30
0
41
1
10
0.343278579257496
20
12.0130158376654
30
0
0
SPLINE
5
15A
100
AcDbEntity
8
1
62
256
6
ByLayer
370
18
48
1
60
0
100
AcDbSpline
70
4
71
1
72
4
73
2
40
0
40
0
40
1
40
1
41
1
10
-0.325
20
9.7417833967914
30
0
41
1
10
0.343278579257497
20
11.54046753934
30
0
0
SPLINE
5
15B
100
AcDbEntity
8
1
62
256
6
ByLayer
370
18
48
1
60
0
100
AcDbSpline
70
4
71
3
72
11
73
7
40
0
40
0
40
0
40
0
40
0.0046144971206016
40
0.267804678343676
40
0.708008732143722
40
1
40
1
40
1
40
1
41
1
10
0.44527854984874
20
16.2572737352011
30
0
41
1
10
0.445278113165049
20
16.256985905268
30
0
41
1
10
0.445197089814703
20
16.2402412678275
30
0
41
1
10
0.434050163267922
20
16.1869489268442
30
0
41
1
10
0.395811157439265
20
16.099886710878
30
0
41
1
10
0.359569176577511
20
16.035017127777
30
0
41
1
10
0.343278579257498
20
16.0085106636411
30
0
0
SPLINE
5
15C
100
AcDbEntity
8
1
62
256
6
ByLayer
370
18
48
1
60
0
100
AcDbSpline
70
4
71
3
72
12
73
8
40
0
40
0
40
0
40
0
40
0.203270758909796
40
0.419252926883063
40
0.636673320998225
40
0.824123027314499
40
1
40
1
40
1
40
1
41
1
10
0.343278579257172
20
17.1811675775405
30
0
41
1
10
0.354505630456399
20
17.1905634675508
30
0
41
1
10
0.376498959911659
20
17.206892479093
30
0
41
1
10
0.408207329374485
20
17.2243244689358
30
0
41
1
10
0.431637050371858
20
17.2274087455663
30
0
41
1
10
0.443280547572835
20
17.2169363102184
30
0
41
1
10
0.445466876418018
20
17.2054051693497
30
0
41
1
10
0.445277225885613
20
17.1984554799941
30
0
0
SPLINE
5
15D
100
AcDbEntity
8
1
62
256
6
ByLayer
370
18
48
1
60
0
100
AcDbSpline
70
4
71
1
72
4
73
2
40
0
40
0
40
1
40
1
41
1
10
-0.324999999999993
20
14.5761738378081
30
0
41
1
10
0.343278579257496
20
15.1245672474212
30
0
0
SPLINE
5
15E
100
AcDbEntity
8
1
62
256
6
ByLayer
370
18
48
1
60
0
100
AcDbSpline
70
4
71
3
72
12
73
8
40
0
40
0
40
0
40
0
40
0.0717048724516534
40
0.270487942903299
40
0.534181099728667
40
0.895170451611489
40
1
40
1
40
1
40
1
41
1
10
0.445278539535516
20
19.7560426846343
30
0
41
1
10
0.445261270165039
20
19.7558022216784
30
0
41
1
10
0.444342779956793
20
19.7540443795163
30
0
41
1
10
0.435455451976636
20
19.7434589349704
30
0
41
1
10
0.407568226532956
20
19.7132191731861
30
0
41
1
10
0.372806344085139
20
19.6768709992717
30
0
41
1
10
0.348830765414636
20
19.6521448533471
30
0
41
1
10
0.343278579257367
20
19.6464364834368
30
0
0
SPLINE
5
15F
100
AcDbEntity
8
1
62
256
6
ByLayer
370
18
48
1
60
0
100
AcDbSpline
70
4
71
1
72
4
73
2
40
0
40
0
40
1
40
1
41
1
10
-0.324999999999993
20
13.177721493111
30
0
41
1
10
0.343278579257496
20
13.7398159364994
30
0
0
SPLINE
5
160
100
AcDbEntity
8
1
62
256
6
ByLayer
370
18
48
1
60
0
100
AcDbSpline
70
4
71
3
72
11
73
7
40
0
40
0
40
0
40
0
40
0.0558574186571579
40
0.331669256416659
40
0.769926106518293
40
1
40
1
40
1
40
1
41
1
10
0.445277225885613
20
17.1984554799941
30
0
41
1
10
0.445226417107385
20
17.1955864416562
30
0
41
1
10
0.444154887660019
20
17.1779799549074
30
0
41
1
10
0.428319243696324
20
17.1260459000451
30
0
41
1
10
0.389574627313926
20
17.05173580805
30
0
41
1
10
0.355913629967244
20
16.9982689250171
30
0
41
1
10
0.343278579260328
20
16.9794705811172
30
0
0
SPLINE
5
161
100
AcDbEntity
8
1
62
256
6
ByLayer
370
18
48
1
60
0
100
AcDbSpline
70
4
71
1
72
4
73
2
40
0
40
0
40
1
40
1
41
1
10
-0.324999999999993
20
18.4126951788705
30
0
41
1
10
0.343278579257496
20
19.0026970897867
30
0
0
SPLINE
5
162
100
AcDbEntity
8
1
62
256
6
ByLayer
370
18
48
1
60
0
100
AcDbSpline
70
4
71
3
72
12
73
8
40
0
40
0
40
0
40
0
40
0.226789456522466
40
0.455218713672515
40
0.685221605130316
40
0.882469461365298
40
1
40
1
40
1
40
1
41
1
10
0.34327857925731
20
17.9349522380299
30
0
41
1
10
0.355737109710151
20
17.9455282908492
30
0
41
1
10
0.379222619078102
20
17.9634728317158
30
0
41
1
10
0.412125534517442
20
17.982898249373
30
0
41
1
10
0.435053464964201
20
17.9874373627687
30
0
41
1
10
0.444055192580704
20
17.9789034438424
30
0
41
1
10
0.445355813670383
20
17.9702071332822
30
0
41
1
10
0.445277405909418
20
17.9663561103937
30
0
0
SPLINE
5
163
100
AcDbEntity
8
1
62
256
6
ByLayer
370
18
48
1
60
0
100
AcDbSpline
70
4
71
3
72
12
73
8
40
0
40
0
40
0
40
0
40
0.087967971862169
40
0.283055728612339
40
0.567672363101559
40
0.965694066278957
40
1
40
1
40
1
40
1
41
1
10
0.445278476027669
20
19.6418045876656
30
0
41
1
10
0.445238962358776
20
19.6409223299726
30
0
41
1
10
0.444027087766868
20
19.6370365604352
30
0
41
1
10
0.4336845217784
20
19.6214298034136
30
0
41
1
10
0.402818572871558
20
19.5836177147108
30
0
41
1
10
0.367715215504646
20
19.5444411610658
30
0
41
1
10
0.345090099933324
20
19.5199585642933
30
0
41
1
10
0.343278579257499
20
19.5180034570805
30
0
0
SPLINE
5
164
100
AcDbEntity
8
1
62
256
6
ByLayer
370
18
48
1
60
0
100
AcDbSpline
70
4
71
3
72
11
73
7
40
0
40
0
40
0
40
0
40
0.119043251223615
40
0.389913838451928
40
0.789509952301249
40
1
40
1
40
1
40
1
41
1
10
0.445278348722847
20
18.5821760187423
30
0
41
1
10
0.445121977203644
20
18.578225165663
30
0
41
1
10
0.442778322425689
20
18.5637923962997
30
0
41
1
10
0.423159807674397
20
18.5215044891387
30
0
41
1
10
0.385493562221765
20
18.4640799323163
30
0
41
1
10
0.354706973961011
20
18.4228504719757
30
0
41
1
10
0.343278579257578
20
18.4082165434148
30
0
0
SPLINE
5
165
100
AcDbEntity
8
1
62
256
6
ByLayer
370
18
48
1
60
0
100
AcDbSpline
70
4
71
3
72
10
73
6
40
0
40
0
40
0
40
0
40
0.0915222333176408
40
0.503585151909392
40
1
40
1
40
1
40
1
41
1
10
0.445272100753345
20
13.7023655376355
30
0
41
1
10
0.445064628163661
20
13.6934816835138
30
0
41
1
10
0.442357728494387
20
13.6438456537832
30
0
41
1
10
0.412840402106333
20
13.5304557976483
30
0
41
1
10
0.372092470306827
20
13.4271263072337
30
0
41
1
10
0.343278579257498
20
13.3683356695468
30
0
0
SPLINE
5
166
100
AcDbEntity
8
1
62
256
6
ByLayer
370
18
48
1
60
0
100
AcDbSpline
70
4
71
1
72
4
73
2
40
0
40
0
40
1
40
1
41
1
10
-0.324999999999993
20
16.6309904620862
30
0
41
1
10
0.343278579257496
20
17.1811675775407
30
0
0
SPLINE
5
167
100
AcDbEntity
8
1
62
256
6
ByLayer
370
18
48
1
60
0
100
AcDbSpline
70
4
71
3
72
14
73
10
40
0
40
0
40
0
40
0
40
0.062310351821649
40
0.18165621253537
40
0.267605111190415
40
0.353625913065695
40
0.468506553391117
40
0.66355522805905
40
1
40
1
40
1
40
1
41
1
10
0.343278579240753
20
9.7643513385631
30
0
41
1
10
0.347214695927333
20
9.76839913165593
30
0
41
1
10
0.358845891290926
20
9.77903269873502
30
0
41
1
10
0.377322319569333
20
9.79145668898989
30
0
41
1
10
0.397002275760523
20
9.79549683499396
30
0
41
1
10
0.413544611736605
20
9.7901274116757
30
0
41
1
10
0.429836972413411
20
9.77106934944372
30
0
41
1
10
0.443054992244443
20
9.72507283744328
30
0
41
1
10
0.446902707930014
20
9.68317315780637
30
0
41
1
10
0.445250819439462
20
9.65319653452229
30
0
0
SPLINE
5
168
100
AcDbEntity
8
1
62
256
6
ByLayer
370
18
48
1
60
0
100
AcDbSpline
70
4
71
1
72
4
73
2
40
0
40
0
40
1
40
1
41
1
10
-0.324999999999993
20
18.9249133089164
30
0
41
1
10
0.343278579257496
20
19.5586932485776
30
0
0
SPLINE
5
169
100
AcDbEntity
8
1
62
256
6
ByLayer
370
18
48
1
60
0
100
AcDbSpline
70
4
71
3
72
10
73
6
40
0
40
0
40
0
40
0
40
0.42990431872364
40
0.713919140088963
40
1
40
1
40
1
40
1
41
1
10
0.343278579257474
20
19.5586932485776
30
0
41
1
10
0.364260206963804
20
19.5786182731757
30
0
41
1
10
0.394360335798517
20
19.6061194135101
30
0
41
1
10
0.429494337833452
20
19.6356073283975
30
0
41
1
10
0.439918785953867
20
19.6419664623409
30
0
41
1
10
0.443267540242378
20
19.6430564575243
30
0
0
SPLINE
5
16A
100
AcDbEntity
8
1
62
256
6
ByLayer
370
18
48
1
60
0
100
AcDbSpline
70
4
71
3
72
11
73
7
40
0
40
0
40
0
40
0
40
0.129986378109094
40
0.389616123972264
40
0.761365350322161
40
1
40
1
40
1
40
1
41
1
10
0.44527846719985
20
19.0604083246195
30
0
41
1
10
0.445116242918304
20
19.0571365934628
30
0
41
1
10
0.442621235730308
20
19.045598795222
30
0
41
1
10
0.423556894287486
20
19.0100938973368
30
0
41
1
10
0.386717274614256
20
18.9585759137435
30
0
41
1
10
0.356229650754091
20
18.9203822968807
30
0
41
1
10
0.343278579257771
20
18.9048259409158
30
0
0
SPLINE
5
16B
100
AcDbEntity
8
1
62
256
6
ByLayer
370
18
48
1
60
0
100
AcDbSpline
70
4
71
1
72
4
73
2
40
0
40
0
40
1
40
1
41
1
10
-0.324999999999993
20
17.9642657448057
30
0
41
1
10
0.343278579257496
20
18.5373273217393
30
0
0
SPLINE
5
16C
100
AcDbEntity
8
1
62
256
6
ByLayer
370
18
48
1
60
0
100
AcDbSpline
70
4
71
1
72
4
73
2
40
0
40
0
40
1
40
1
41
1
10
-0.325
20
15.9578301704837
30
0
41
1
10
0.343278579257497
20
16.9794705811172
30
0
0
SPLINE
5
16D
100
AcDbEntity
8
1
62
256
6
ByLayer
370
18
48
1
60
0
100
AcDbSpline
70
4
71
1
72
4
73
2
40
0
40
0
40
1
40
1
41
1
10
-0.324999999999993
20
18.0890807878676
30
0
41
1
10
0.343278579257497
20
18.9048259409171
30
0
0
SPLINE
5
16E
100
AcDbEntity
8
1
62
256
6
ByLayer
370
18
48
1
60
0
100
AcDbSpline
70
4
71
3
72
12
73
8
40
0
40
0
40
0
40
0
40
0.271961273739276
40
0.521123041612982
40
0.732677904114362
40
0.944638079734964
40
1
40
1
40
1
40
1
41
1
10
0.343278579257433
20
19.0026970897866
30
0
41
1
10
0.358134580847604
20
19.0159093491319
30
0
41
1
10
0.384274922351629
20
19.0375752584702
30
0
41
1
10
0.417167558444378
20
19.0606857942675
30
0
41
1
10
0.438192886420755
20
19.0697013257015
30
0
41
1
10
0.444711556004383
20
19.0663953413087
30
0
41
1
10
0.445288662275376
20
19.0615488120661
30
0
41
1
10
0.44527846719985
20
19.0604083246195
30
0
0
SPLINE
5
16F
100
AcDbEntity
8
1
62
256
6
ByLayer
370
18
48
1
60
0
100
AcDbSpline
70
4
71
1
72
4
73
2
40
0
40
0
40
1
40
1
41
1
10
0.343278579257497
20
-18.9048259409171
30
0
41
1
10
-0.324999999999993
20
-18.0890807878676
30
0
0
SPLINE
5
170
100
AcDbEntity
8
1
62
256
6
ByLayer
370
18
48
1
60
0
100
AcDbSpline
70
4
71
1
72
4
73
2
40
0
40
0
40
1
40
1
41
1
10
0.343278579257496
20
-19.5586932485776
30
0
41
1
10
-0.324999999999993
20
-18.9249133089164
30
0
0
SPLINE
5
171
100
AcDbEntity
8
1
62
256
6
ByLayer
370
18
48
1
60
0
100
AcDbSpline
70
4
71
1
72
4
73
2
40
0
40
0
40
1
40
1
41
1
10
0.343278579257496
20
-19.340953677083
30
0
41
1
10
-0.324999999999993
20
-18.7307192534083
30
0
0
SPLINE
5
172
100
AcDbEntity
8
1
62
256
6
ByLayer
370
18
48
1
60
0
100
AcDbSpline
70
4
71
3
72
14
73
10
40
0
40
0
40
0
40
0
40
0.299554993682631
40
0.447283097936959
40
0.596044430847611
40
0.688952772893013
40
0.782416656876084
40
0.867545661811698
40
1
40
1
40
1
40
1
41
1
10
0.445270074839053
20
-9.65592105805471
30
0
41
1
10
0.446192164981636
20
-9.68175594106625
30
0
41
1
10
0.443491801190863
20
-9.71727095479042
30
0
41
1
10
0.433535456889544
20
-9.76042813944195
30
0
41
1
10
0.421216896446772
20
-9.78346809508264
30
0
41
1
10
0.40447357175095
20
-9.79444121536341
30
0
41
1
10
0.387118592193609
20
-9.79454649011406
30
0
41
1
10
0.365809949670611
20
-9.78467054375283
30
0
41
1
10
0.35174409865516
20
-9.77332644485806
30
0
41
1
10
0.343278579257478
20
-9.76435133857417
30
0
0
SPLINE
5
173
100
AcDbEntity
8
1
62
256
6
ByLayer
370
18
48
1
60
0
100
AcDbSpline
70
4
71
3
72
10
73
6
40
0
40
0
40
0
40
0
40
0.373562299847975
40
0.900072767599866
40
1
40
1
40
1
40
1
41
1
10
0.343278579257497
20
-5.34998840487803
30
0
41
1
10
0.363838197270988
20
-5.46424197604538
30
0
41
1
10
0.405239346638618
20
-5.73819331918366
30
0
41
1
10
0.440494413061709
20
-6.04371842445949
30
0
41
1
10
0.444858120752454
20
-6.23002569633104
30
0
41
1
10
0.445254773774907
20
-6.25968037350811
30
0
0
SPLINE
5
174
100
AcDbEntity
8
1
62
256
6
ByLayer
370
18
48
1
60
0
100
AcDbSpline
70
4
71
1
72
4
73
2
40
0
40
0
40
1
40
1
41
1
10
0.343278579257497
20
-14.8237109429722
30
0
41
1
10
-0.324999999999993
20
-13.5564502636199
30
0
0
SPLINE
5
175
100
AcDbEntity
8
1
62
256
6
ByLayer
370
18
48
1
60
0
100
AcDbSpline
70
4
71
3
72
15
73
11
40
0
40
0
40
0
40
0
40
0.323714811211409
40
0.610562841426935
40
0.70236220613721
40
0.758778713691681
40
0.804108471027023
40
0.849574306335173
40
0.905778779679077
40
1
40
1
40
1
40
1
41
1
10
0.445254773774906
20
-6.25968037350811
30
0
41
1
10
0.446667218177827
20
-6.29907080580913
30
0
41
1
10
0.443037668976165
20
-6.36955049877409
30
0
41
1
10
0.433262501928645
20
-6.45005417221294
30
0
41
1
10
0.415375424285039
20
-6.49044068862503
30
0
41
1
10
0.403344579663194
20
-6.50326430263815
30
0
41
1
10
0.391539766456011
20
-6.50754502100814
30
0
41
1
10
0.378301546330512
20
-6.50516162456164
30
0
41
1
10
0.361198151048714
20
-6.49336664084904
30
0
41
1
10
0.349829838979073
20
-6.48081043754065
30
0
41
1
10
0.343278579257357
20
-6.47090137540594
30
0
0
SPLINE
5
176
100
AcDbEntity
8
1
62
256
6
ByLayer
370
18
48
1
60
0
100
AcDbSpline
70
4
71
3
72
11
73
7
40
0
40
0
40
0
40
0
40
0.348035506514988
40
0.640076464216779
40
0.871815324061513
40
1
40
1
40
1
40
1
41
1
10
0.343278579257494
20
-19.5180034570805
30
0
41
1
10
0.36241622225532
20
-19.5385967369063
30
0
41
1
10
0.393343170400366
20
-19.5729181572726
30
0
41
1
10
0.42781077226825
20
-19.6138083693233
30
0
41
1
10
0.442967164178418
20
-19.6348645808948
30
0
41
1
10
0.445169801744644
20
-19.6404569289246
30
0
41
1
10
0.445278468411721
20
-19.6418037281452
30
0
0
SPLINE
5
177
100
AcDbEntity
8
1
62
256
6
ByLayer
370
18
48
1
60
0
100
AcDbSpline
70
4
71
3
72
10
73
6
40
0
40
0
40
0
40
0
40
0.518472063503961
40
0.804388165633816
40
1
40
1
40
1
40
1
41
1
10
0.343278579257499
20
-16.9794705811172
30
0
41
1
10
0.373154006176417
20
-17.0233146114618
30
0
41
1
10
0.409283392479342
20
-17.0861615294962
30
0
41
1
10
0.440133018209678
20
-17.1601050191045
30
0
41
1
10
0.444724835053305
20
-17.1881338076275
30
0
41
1
10
0.445278221262952
20
-17.1986612353246
30
0
0
SPLINE
5
178
100
AcDbEntity
8
1
62
256
6
ByLayer
370
18
48
1
60
0
100
AcDbSpline
70
4
71
3
72
10
73
6
40
0
40
0
40
0
40
0
40
0.21540276861512
40
0.632155040626726
40
1
40
1
40
1
40
1
41
1
10
0.400327262826628
20
-13.771366314836
30
0
41
1
10
0.396563726062908
20
-13.7707352845276
30
0
41
1
10
0.385302557483654
20
-13.7678423389504
30
0
41
1
10
0.365655785286193
20
-13.7573125319589
30
0
41
1
10
0.350489469226705
20
-13.7459997836923
30
0
41
1
10
0.343278579257497
20
-13.7398159364994
30
0
0
SPLINE
5
179
100
AcDbEntity
8
1
62
256
6
ByLayer
370
18
48
1
60
0
100
AcDbSpline
70
4
71
3
72
10
73
6
40
0
40
0
40
0
40
0
40
0.656803858759668
40
0.992209999913088
40
1
40
1
40
1
40
1
41
1
10
0.343278579257497
20
-13.3683356695468
30
0
41
1
10
0.383346644876848
20
-13.4481664582863
30
0
41
1
10
0.424160423914376
20
-13.5603947550812
30
0
41
1
10
0.445103440378741
20
-13.6702822609786
30
0
41
1
10
0.445277002774488
20
-13.7031393535352
30
0
41
1
10
0.44527850438958
20
-13.7038837939876
30
0
0
SPLINE
5
17A
100
AcDbEntity
8
1
62
256
6
ByLayer
370
18
48
1
60
0
100
AcDbSpline
70
4
71
3
72
11
73
7
40
0
40
0
40
0
40
0
40
0.321129485806231
40
0.664660234010756
40
0.887736079927302
40
1
40
1
40
1
40
1
41
1
10
0.44527850438958
20
-13.7038837939876
30
0
41
1
10
0.44568885126511
20
-13.7167474564223
30
0
41
1
10
0.443056919037484
20
-13.7398108419286
30
0
41
1
10
0.431801172553054
20
-13.7646464903191
30
0
41
1
10
0.41454473224526
20
-13.7723314667557
30
0
41
1
10
0.4040760252309
20
-13.7719308784024
30
0
41
1
10
0.400327262826628
20
-13.771366314836
30
0
0
SPLINE
5
17B
100
AcDbEntity
8
1
62
256
6
ByLayer
370
18
48
1
60
0
100
AcDbSpline
70
4
71
3
72
12
73
8
40
0
40
0
40
0
40
0
40
0.155910042952659
40
0.37203498149214
40
0.576306221689996
40
0.86409891427144
40
1
40
1
40
1
40
1
41
1
10
0.445278234941455
20
-19.0603637387078
30
0
41
1
10
0.445314636505362
20
-19.0636520292092
30
0
41
1
10
0.443008492725865
20
-19.0688639700201
30
0
41
1
10
0.429942636236092
20
-19.067136464836
30
0
41
1
10
0.403152930296962
20
-19.0516401102048
30
0
41
1
10
0.372384899069934
20
-19.0278297392995
30
0
41
1
10
0.350526580265174
20
-19.0091082605931
30
0
41
1
10
0.343278579244026
20
-19.0026970897806
30
0
0
SPLINE
5
17C
100
AcDbEntity
8
1
62
256
6
ByLayer
370
18
48
1
60
0
100
AcDbSpline
70
4
71
1
72
4
73
2
40
0
40
0
40
1
40
1
41
1
10
0.343278579257496
20
-18.5373273217393
30
0
41
1
10
-0.324999999999993
20
-17.9642657448057
30
0
0
SPLINE
5
17D
100
AcDbEntity
8
1
62
256
6
ByLayer
370
18
48
1
60
0
100
AcDbSpline
70
4
71
3
72
13
73
9
40
0
40
0
40
0
40
0
40
0.00240294643443
40
0.22042209110291
40
0.439620029841732
40
0.635378278972731
40
0.897417111562271
40
1
40
1
40
1
40
1
41
1
10
0.445278578418589
20
-17.9666666294273
30
0
41
1
10
0.445278612290269
20
-17.9667425564784
30
0
41
1
10
0.445260830136243
20
-17.9736863103221
30
0
41
1
10
0.441798294547964
20
-17.9845261716881
30
0
41
1
10
0.424758854576675
20
-17.9867261735205
30
0
41
1
10
0.39654602023248
20
-17.9748097612443
30
0
41
1
10
0.367884158535975
20
-17.9549767034547
30
0
41
1
10
0.34876896972457
20
-17.9395722557813
30
0
41
1
10
0.343278579251775
20
-17.9349522380281
30
0
0
SPLINE
5
17E
100
AcDbEntity
8
1
62
256
6
ByLayer
370
18
48
1
60
0
100
AcDbSpline
70
4
71
3
72
11
73
7
40
0
40
0
40
0
40
0
40
0.22505468825043
40
0.458989385134067
40
0.820976342794612
40
1
40
1
40
1
40
1
41
1
10
0.444112102127754
20
-19.7556952651756
30
0
41
1
10
0.442054461564032
20
-19.7542448911453
30
0
41
1
10
0.434920996668386
20
-19.7482423717984
30
0
41
1
10
0.409718864391173
20
-19.7246804776829
30
0
41
1
10
0.37695684012033
20
-19.692962624649
30
0
41
1
10
0.351945112403608
20
-19.6684507021674
30
0
41
1
10
0.343278579251102
20
-19.659920499448
30
0
0
SPLINE
5
17F
100
AcDbEntity
8
1
62
256
6
ByLayer
370
18
48
1
60
0
100
AcDbSpline
70
4
71
3
72
10
73
6
40
0
40
0
40
0
40
0
40
0.484210272283969
40
0.775759891235539
40
1
40
1
40
1
40
1
41
1
10
0.343278579257497
20
-17.7716749003053
30
0
41
1
10
0.370934683219434
20
-17.8092687365537
30
0
41
1
10
0.406316377930568
20
-17.8644963146343
30
0
41
1
10
0.439142429592598
20
-17.9312355204879
30
0
41
1
10
0.44459396011615
20
-17.9567526878108
30
0
41
1
10
0.445278578418589
20
-17.9666666294273
30
0
0
SPLINE
5
180
100
AcDbEntity
8
1
62
256
6
ByLayer
370
18
48
1
60
0
100
AcDbSpline
70
4
71
1
72
4
73
2
40
0
40
0
40
1
40
1
41
1
10
0.343278579257496
20
-17.1811675775407
30
0
41
1
10
-0.324999999999993
20
-16.6309904620862
30
0
0
SPLINE
5
181
100
AcDbEntity
8
1
62
256
6
ByLayer
370
18
48
1
60
0
100
AcDbSpline
70
4
71
1
72
4
73
2
40
0
40
0
40
1
40
1
41
1
10
0.343278579257497
20
-17.7716749003053
30
0
41
1
10
-0.324999999999993
20
-16.8327016176846
30
0
0
SPLINE
5
182
100
AcDbEntity
8
1
62
256
6
ByLayer
370
18
48
1
60
0
100
AcDbSpline
70
4
71
1
72
4
73
2
40
0
40
0
40
1
40
1
41
1
10
0.343278579257496
20
-13.7398159364994
30
0
41
1
10
-0.324999999999993
20
-13.177721493111
30
0
0
SPLINE
5
183
100
AcDbEntity
8
1
62
256
6
ByLayer
370
18
48
1
60
0
100
AcDbSpline
70
4
71
1
72
4
73
2
40
0
40
0
40
1
40
1
41
1
10
0.343278579257496
20
-19.6599204994536
30
0
41
1
10
-0.324999999999993
20
-18.9990748130008
30
0
0
SPLINE
5
184
100
AcDbEntity
8
1
62
256
6
ByLayer
370
18
48
1
60
0
100
AcDbSpline
70
4
71
3
72
10
73
6
40
0
40
0
40
0
40
0
40
0.257610712860046
40
0.593713309956453
40
1
40
1
40
1
40
1
41
1
10
0.4042402470061
20
-12.0428796777817
30
0
41
1
10
0.399510236992361
20
-12.043187870805
30
0
41
1
10
0.388275180658075
20
-12.0421471858103
30
0
41
1
10
0.367009386405888
20
-12.0322037520301
30
0
41
1
10
0.351734972464646
20
-12.0207974910254
30
0
41
1
10
0.343278579257496
20
-12.0130158376654
30
0
0
SPLINE
5
185
100
AcDbEntity
8
1
62
256
6
ByLayer
370
18
48
1
60
0
100
AcDbSpline
70
4
71
3
72
13
73
9
40
0
40
0
40
0
40
0
40
0.159607261867414
40
0.349187474989668
40
0.540335686645978
40
0.70857084964427
40
0.90624594331
40
1
40
1
40
1
40
1
41
1
10
0.445268008465134
20
-15.107879944568
30
0
41
1
10
0.445533112871731
20
-15.1163304117451
30
0
41
1
10
0.444034984519174
20
-15.1327570849863
30
0
41
1
10
0.435734230516101
20
-15.1531534626684
30
0
41
1
10
0.417359714532152
20
-15.1621557382585
30
0
41
1
10
0.390388826186606
20
-15.1565162597864
30
0
41
1
10
0.364703298214662
20
-15.1413052454819
30
0
41
1
10
0.348542417143033
20
-15.1289371124836
30
0
41
1
10
0.343278579223914
20
-15.1245672474116
30
0
0
SPLINE
5
186
100
AcDbEntity
8
1
62
256
6
ByLayer
370
18
48
1
60
0
100
AcDbSpline
70
4
71
3
72
10
73
6
40
0
40
0
40
0
40
0
40
0.651018237634394
40
0.941688302691959
40
1
40
1
40
1
40
1
41
1
10
0.343278579257497
20
-9.11879287402918
30
0
41
1
10
0.382101841517211
20
-9.23907725816411
30
0
41
1
10
0.421163780593175
20
-9.40863650215761
30
0
41
1
10
0.443767068358774
20
-9.58683530372375
30
0
41
1
10
0.445166123407131
20
-9.64607128163218
30
0
41
1
10
0.445270074839054
20
-9.65592105805471
30
0
0
SPLINE
5
187
100
AcDbEntity
8
1
62
256
6
ByLayer
370
18
48
1
60
0
100
AcDbSpline
70
4
71
3
72
13
73
9
40
0
40
0
40
0
40
0
40
0.0414554286394253
40
0.257288121419033
40
0.474594288463934
40
0.663371611005842
40
0.908281117885518
40
1
40
1
40
1
40
1
41
1
10
0.445278221262952
20
-17.1986612353246
30
0
41
1
10
0.445290471540205
20
-17.2002303990524
30
0
41
1
10
0.444956682976836
20
-17.2095582320094
30
0
41
1
10
0.440223987855066
20
-17.2232262883632
30
0
41
1
10
0.422160539089444
20
-17.2276881015109
30
0
41
1
10
0.393668585324257
20
-17.2175459167364
30
0
41
1
10
0.366115692588839
20
-17.1993747953103
30
0
41
1
10
0.348231995837734
20
-17.1852712862034
30
0
41
1
10
0.343278579252604
20
-17.1811675775391
30
0
0
SPLINE
5
188
100
AcDbEntity
8
1
62
256
6
ByLayer
370
18
48
1
60
0
100
AcDbSpline
70
4
71
1
72
4
73
2
40
0
40
0
40
1
40
1
41
1
10
0.343278579257496
20
-19.0026970897866
30
0
41
1
10
-0.324999999999993
20
-18.4126951788705
30
0
0
SPLINE
5
189
100
AcDbEntity
8
1
62
256
6
ByLayer
370
18
48
1
60
0
100
AcDbSpline
70
4
71
1
72
4
73
2
40
0
40
0
40
1
40
1
41
1
10
0.343278579257497
20
-19.6464364834369
30
0
41
1
10
-0.324999999999993
20
-18.9546127301509
30
0
0
SPLINE
5
18A
100
AcDbEntity
8
1
62
256
6
ByLayer
370
18
48
1
60
0
100
AcDbSpline
70
4
71
3
72
12
73
8
40
0
40
0
40
0
40
0
40
0.0927293581285227
40
0.4708478566295
40
0.741786882656589
40
0.938481534449222
40
1
40
1
40
1
40
1
41
1
10
0.445276896732487
20
-11.9488597401227
30
0
41
1
10
0.445308180126566
20
-11.9530012942195
30
0
41
1
10
0.444950323103565
20
-11.9736361379217
30
0
41
1
10
0.441396397271779
20
-12.0044517905256
30
0
41
1
10
0.428610603639785
20
-12.0317624045306
30
0
41
1
10
0.41461946880087
20
-12.04124622792
30
0
41
1
10
0.406307895816318
20
-12.0426888756107
30
0
41
1
10
0.4042402470061
20
-12.0428796777817
30
0
0
SPLINE
5
18B
100
AcDbEntity
8
1
62
256
6
ByLayer
370
18
48
1
60
0
100
AcDbSpline
70
4
71
1
72
4
73
2
40
0
40
0
40
1
40
1
41
1
10
0.343278579257496
20
-12.0130158376654
30
0
41
1
10
-0.324999999999993
20
-11.4166476581351
30
0
0
SPLINE
5
18C
100
AcDbEntity
8
1
62
256
6
ByLayer
370
18
48
1
60
0
100
AcDbSpline
70
4
71
1
72
4
73
2
40
0
40
0
40
1
40
1
41
1
10
0.343278579257497
20
-18.408216543415
30
0
41
1
10
-0.324999999999993
20
-17.536457559895
30
0
0
SPLINE
5
18D
100
AcDbEntity
8
1
62
256
6
ByLayer
370
18
48
1
60
0
100
AcDbSpline
70
4
71
3
72
11
73
7
40
0
40
0
40
0
40
0
40
0.335803928316608
40
0.644688862436789
40
0.882105351003142
40
1
40
1
40
1
40
1
41
1
10
0.343278579257497
20
-19.2723234562802
30
0
41
1
10
0.361724512446032
20
-19.2932157893378
30
0
41
1
10
0.392979421002161
20
-19.3302981334022
30
0
41
1
10
0.427886283965301
20
-19.3761074374814
30
0
41
1
10
0.443118682626504
20
-19.4014992680017
30
0
41
1
10
0.445169825212172
20
-19.4092708404394
30
0
41
1
10
0.445278434846716
20
-19.4113263027234
30
0
0
SPLINE
5
18E
100
AcDbEntity
8
1
62
256
6
ByLayer
370
18
48
1
60
0
100
AcDbSpline
70
4
71
1
72
4
73
2
40
0
40
0
40
1
40
1
41
1
10
0.343278579257497
20
-19.5180034570805
30
0
41
1
10
-0.324999999999993
20
-18.7906850260974
30
0
0
SPLINE
5
18F
100
AcDbEntity
8
1
62
256
6
ByLayer
370
18
48
1
60
0
100
AcDbSpline
70
4
71
2
72
6
73
3
40
0
40
0
40
0
40
1
40
1
40
1
41
1
10
0.343278579257497
20
-9.11879287402918
30
0
41
1
10
-0.0372097028531964
20
-7.88173052791118
30
0
41
1
10
-0.324999999999993
20
-6.6117201808607
30
0
0
SPLINE
5
190
100
AcDbEntity
8
1
62
256
6
ByLayer
370
18
48
1
60
0
100
AcDbSpline
70
4
71
1
72
4
73
2
40
0
40
0
40
1
40
1
41
1
10
0.343278579257496
20
-15.1245672474212
30
0
41
1
10
-0.324999999999993
20
-14.5761738378081
30
0
0
SPLINE
5
191
100
AcDbEntity
8
1
62
256
6
ByLayer
370
18
48
1
60
0
100
AcDbSpline
70
4
71
1
72
4
73
2
40
0
40
0
40
1
40
1
41
1
10
0.343278579257497
20
-11.54046753934
30
0
41
1
10
-0.324999999999993
20
-9.7417833967914
30
0
0
SPLINE
5
192
100
AcDbEntity
8
1
62
256
6
ByLayer
370
18
48
1
60
0
100
AcDbSpline
70
4
71
3
72
12
73
8
40
0
40
0
40
0
40
0
40
0.187849722396682
40
0.406096222995446
40
0.606677343088079
40
0.882425202251399
40
1
40
1
40
1
40
1
41
1
10
0.445278373861647
20
-18.582182295171
30
0
41
1
10
0.445354275577674
20
-18.5873012849739
30
0
41
1
10
0.442418788951868
20
-18.5948579492663
30
0
41
1
10
0.427384545505856
20
-18.5950746114102
30
0
41
1
10
0.39975494202629
20
-18.5813626775021
30
0
41
1
10
0.370009658106196
20
-18.5596731755941
30
0
41
1
10
0.349555716539096
20
-18.5427287095626
30
0
41
1
10
0.343278579248937
20
-18.537327321736
30
0
0
SPLINE
5
193
100
AcDbEntity
8
1
62
256
6
ByLayer
370
18
48
1
60
0
100
AcDbSpline
70
4
71
3
72
11
73
7
40
0
40
0
40
0
40
0
40
0.358759991097709
40
0.635283454213907
40
0.861255451520046
40
1
40
1
40
1
40
1
41
1
10
0.343278579257491
20
-19.6464364834369
30
0
41
1
10
0.363063141795495
20
-19.6667641633906
30
0
41
1
10
0.393715789184498
20
-19.6986286683902
30
0
41
1
10
0.427776069172773
20
-19.7349699059508
30
0
41
1
10
0.442851656513417
20
-19.7520465092696
30
0
41
1
10
0.445184076096937
20
-19.7555139734217
30
0
41
1
10
0.445278578549447
20
-19.7560469117246
30
0
0
SPLINE
5
194
100
AcDbEntity
8
1
62
256
6
ByLayer
370
18
48
1
60
0
100
AcDbSpline
70
4
71
3
72
10
73
6
40
0
40
0
40
0
40
0
40
0.519972815659762
40
0.811096427693655
40
1
40
1
40
1
40
1
41
1
10
0.343278579257498
20
-14.8237109429722
30
0
41
1
10
0.373158401212102
20
-14.8772801513825
30
0
41
1
10
0.409492882502981
20
-14.9569864428823
30
0
41
1
10
0.439827846720291
20
-15.0528272249789
30
0
41
1
10
0.44458250562365
20
-15.0927809032537
30
0
41
1
10
0.445268008465134
20
-15.107879944568
30
0
0
SPLINE
5
195
100
AcDbEntity
8
1
62
256
6
ByLayer
370
18
48
1
60
0
100
AcDbSpline
70
4
71
3
72
11
73
7
40
0
40
0
40
0
40
0
40
0.237639789405859
40
0.474810965323597
40
0.831854538681213
40
1
40
1
40
1
40
1
41
1
10
0.443577194443375
20
-19.6431099144333
30
0
41
1
10
0.441116206772015
20
-19.6425441575942
30
0
41
1
10
0.433194667655399
20
-19.6381116559691
30
0
41
1
10
0.407086056006903
20
-19.6171692747433
30
0
41
1
10
0.375030631595499
20
-19.5884338474197
30
0
41
1
10
0.351214610342905
20
-19.566201069071
30
0
41
1
10
0.343278579250227
20
-19.5586932485726
30
0
0
SPLINE
5
196
100
AcDbEntity
8
1
62
256
6
ByLayer
370
18
48
1
60
0
100
AcDbSpline
70
4
71
1
72
4
73
2
40
0
40
0
40
1
40
1
41
1
10
0.343278579257496
20
-17.93495223803
30
0
41
1
10
-0.324999999999993
20
-17.3753372269433
30
0
0
SPLINE
5
197
100
AcDbEntity
8
1
62
256
6
ByLayer
370
18
48
1
60
0
100
AcDbSpline
70
4
71
3
72
11
73
7
40
0
40
0
40
0
40
0
40
0.455277467965032
40
0.748092018745086
40
0.975425944721861
40
1
40
1
40
1
40
1
41
1
10
0.343278579257499
20
-18.408216543415
30
0
41
1
10
0.36902607361301
20
-18.4409191423207
30
0
41
1
10
0.40374650336959
20
-18.4900822569192
30
0
41
1
10
0.436759025524852
20
-18.5483177102067
30
0
41
1
10
0.444919717714691
20
-18.5731380551662
30
0
41
1
10
0.445271557367973
20
-18.5814001836208
30
0
41
1
10
0.445278373861647
20
-18.582182295171
30
0
0
SPLINE
5
198
100
AcDbEntity
8
1
62
256
6
ByLayer
370
18
48
1
60
0
100
AcDbSpline
70
4
71
1
72
4
73
2
40
0
40
0
40
1
40
1
41
1
10
0.343278579257497
20
-16.9794705811172
30
0
41
1
10
-0.324999999999993
20
-15.9578301704837
30
0
0
SPLINE
5
199
100
AcDbEntity
8
1
62
256
6
ByLayer
370
18
48
1
60
0
100
AcDbSpline
70
4
71
3
72
10
73
6
40
0
40
0
40
0
40
0
40
0.55975853548786
40
0.830946843984533
40
1
40
1
40
1
40
1
41
1
10
0.343278579257497
20
-16.0085106636411
30
0
41
1
10
0.375835000962209
20
-16.060685868099
30
0
41
1
10
0.412443345063813
20
-16.1327878433733
30
0
41
1
10
0.441035997145799
20
-16.2154682416438
30
0
41
1
10
0.444826546848872
20
-16.2457297423429
30
0
41
1
10
0.445276670197085
20
-16.2567364954148
30
0
0
SPLINE
5
19A
100
AcDbEntity
8
1
62
256
6
ByLayer
370
18
48
1
60
0
100
AcDbSpline
70
4
71
1
72
4
73
2
40
0
40
0
40
1
40
1
41
1
10
0.343278579257497
20
-19.2723234562802
30
0
41
1
10
-0.324999999999993
20
-18.5041169405622
30
0
0
SPLINE
5
19B
100
AcDbEntity
8
1
62
256
6
ByLayer
370
18
48
1
60
0
100
AcDbSpline
70
4
71
3
72
10
73
6
40
0
40
0
40
0
40
0
40
0.375231299578346
40
0.760800823940497
40
1
40
1
40
1
40
1
41
1
10
7.48343641916983
20
-8.45236523481398
30
0
41
1
10
7.45382497021524
20
-8.37891003189337
30
0
41
1
10
7.40580228686124
20
-8.22754110682721
30
0
41
1
10
7.37978046737485
20
-8.01926702632627
30
0
41
1
10
7.37481348629105
20
-7.88867534388046
30
0
41
1
10
7.375
20
-7.83836717690617
30
0
0
SPLINE
5
19C
100
AcDbEntity
8
1
62
256
6
ByLayer
370
18
48
1
60
0
100
AcDbSpline
70
4
71
1
72
4
73
2
40
0
40
0
40
1
40
1
41
1
10
0.343278579257496
20
-16.2549231580666
30
0
41
1
10
-0.324999999999993
20
-15.709148409446
30
0
0
SPLINE
5
19D
100
AcDbEntity
8
1
62
256
6
ByLayer
370
18
48
1
60
0
100
AcDbSpline
70
4
71
1
72
4
73
2
40
0
40
0
40
1
40
1
41
1
10
0.343278579257496
20
-6.47090137540599
30
0
41
1
10
-0.325
20
-5.49680304813634
30
0
0
SPLINE
5
19E
100
AcDbEntity
8
1
62
256
6
ByLayer
370
18
48
1
60
0
100
AcDbSpline
70
4
71
1
72
4
73
2
40
0
40
0
40
1
40
1
41
1
10
0.343278579257496
20
-9.76435133857415
30
0
41
1
10
-0.324999999999993
20
-9.08445616148819
30
0
0
SPLINE
5
19F
100
AcDbEntity
8
1
62
256
6
ByLayer
370
18
48
1
60
0
100
AcDbSpline
70
4
71
2
72
6
73
3
40
0
40
0
40
0
40
1
40
1
40
1
41
1
10
0.343278579257495
20
-11.54046753934
30
0
41
1
10
0.437514128700351
20
-11.7594541353348
30
0
41
1
10
0.445276896732487
20
-11.9488597401227
30
0
0
SPLINE
5
1A0
100
AcDbEntity
8
1
62
256
6
ByLayer
370
18
48
1
60
0
100
AcDbSpline
70
4
71
3
72
11
73
7
40
0
40
0
40
0
40
0
40
0.428889305017769
40
0.719916196301754
40
0.948052780218002
40
1
40
1
40
1
40
1
41
1
10
0.343278579257498
20
-18.9048259409171
30
0
41
1
10
0.367334862436487
20
-18.9335752321486
30
0
41
1
10
0.401092964365658
20
-18.9773880302465
30
0
41
1
10
0.434633759248654
20
-19.0289537733589
30
0
41
1
10
0.444479936763301
20
-19.0517797976306
30
0
41
1
10
0.44525388200671
20
-19.0591109236254
30
0
41
1
10
0.445278234941455
20
-19.0603637387078
30
0
0
SPLINE
5
1A1
100
AcDbEntity
8
1
62
256
6
ByLayer
370
18
48
1
60
0
100
AcDbSpline
70
4
71
1
72
4
73
2
40
0
40
0
40
1
40
1
41
1
10
0.343278579257497
20
-13.3683356695468
30
0
41
1
10
-0.324999999999993
20
-11.8991530686012
30
0
0
SPLINE
5
1A2
100
AcDbEntity
8
1
62
256
6
ByLayer
370
18
48
1
60
0
100
AcDbSpline
70
4
71
1
72
4
73
2
40
0
40
0
40
1
40
1
41
1
10
0.343278579257497
20
-16.0085106636411
30
0
41
1
10
-0.324999999999993
20
-14.8816949219503
30
0
0
SPLINE
5
1A3
100
AcDbEntity
8
1
62
256
6
ByLayer
370
18
48
1
60
0
100
AcDbSpline
70
4
71
3
72
12
73
8
40
0
40
0
40
0
40
0
40
0.0869922293586917
40
0.304723355848447
40
0.510492641011309
40
0.797151079008072
40
1
40
1
40
1
40
1
41
1
10
0.445278434846716
20
-19.4113263027234
30
0
41
1
10
0.445289858870742
20
-19.412627364029
30
0
41
1
10
0.444201243109257
20
-19.4159873014852
30
0
41
1
10
0.435311474222782
20
-19.4144768570078
30
0
41
1
10
0.411338334381423
20
-19.3990917995989
30
0
41
1
10
0.378978064464347
20
-19.3728484657292
30
0
41
1
10
0.354171820152461
20
-19.3509139748601
30
0
41
1
10
0.343278579257497
20
-19.340953677083
30
0
0
SPLINE
5
1A4
100
AcDbEntity
8
1
62
256
6
ByLayer
370
18
48
1
60
0
100
AcDbSpline
70
4
71
3
72
13
73
9
40
0
40
0
40
0
40
0
40
0.0873567378933913
40
0.29685869942525
40
0.508074974959284
40
0.688110787978943
40
0.912198191365209
40
1
40
1
40
1
40
1
41
1
10
0.445276670197085
20
-16.2567364954148
30
0
41
1
10
0.445339899564489
20
-16.2606390439809
30
0
41
1
10
0.444580912207138
20
-16.2729312134249
30
0
41
1
10
0.438424514079126
20
-16.2898822237655
30
0
41
1
10
0.419738195308071
20
-16.2967894116174
30
0
41
1
10
0.391459944511407
20
-16.2886249735707
30
0
41
1
10
0.364940634042532
20
-16.2719559799631
30
0
41
1
10
0.348088072645909
20
-16.2588832613755
30
0
41
1
10
0.343278579249784
20
-16.2549231580643
30
0
0
SPLINE
5
1A5
100
AcDbEntity
8
1
62
256
6
ByLayer
370
18
48
1
60
0
100
AcDbSpline
70
4
71
2
72
6
73
3
40
0
40
0
40
0
40
1
40
1
40
1
41
1
10
15.1776999718692
20
0.493970222898078
30
0
41
1
10
13.7940829557654
20
2.54441559178172
30
0
41
1
10
12.7117515259101
20
4.76914140238015
30
0
0
SPLINE
5
1A6
100
AcDbEntity
8
1
62
256
6
ByLayer
370
18
48
1
60
0
100
AcDbSpline
70
4
71
3
72
10
73
6
40
0
40
0
40
0
40
0
40
0.406859738014656
40
0.815132859966804
40
1
40
1
40
1
40
1
41
1
10
8.35805808743105
20
15.6471585156062
30
0
41
1
10
8.34561113363377
20
15.7481114456312
30
0
41
1
10
8.37267142896578
20
15.9369111858352
30
0
41
1
10
8.53762578935723
20
16.1520208911124
30
0
41
1
10
8.68721864269984
20
16.2510605219237
30
0
41
1
10
8.73907285914561
20
16.280003813524
30
0
0
SPLINE
5
1A7
100
AcDbEntity
8
1
62
256
6
ByLayer
370
18
48
1
60
0
100
AcDbSpline
70
4
71
3
72
28
73
24
40
0
40
0
40
0
40
0
40
0.0423279023345951
40
0.0849218457520814
40
0.128294000323222
40
0.171908366749906
40
0.218584360997373
40
0.265504983697586
40
0.313147399236684
40
0.361041793344935
40
0.403010032705451
40
0.445191673643238
40
0.488132746877321
40
0.53139533519258
40
0.594160056289633
40
0.658536308556836
40
0.721400436463597
40
0.753921868093044
40
0.786785401257818
40
0.841280221247887
40
0.897473667354222
40
0.95023153086308
40
1
40
1
40
1
40
1
41
1
10
18.7214821291211
20
6.91767620683362
30
0
41
1
10
18.5020511148066
20
6.91771939287567
30
0
41
1
10
18.0633737268407
20
6.93210245349588
30
0
41
1
10
17.403594474205
20
6.99746379576133
30
0
41
1
10
16.7457065621532
20
7.1071722461171
30
0
41
1
10
16.078856800093
20
7.26487213913967
30
0
41
1
10
15.4096132686372
20
7.47297619876984
30
0
41
1
10
14.73937376989
20
7.73526219282511
30
0
41
1
10
14.0843141561317
20
8.04780930369687
30
0
41
1
10
13.474413070748
20
8.39553669189206
30
0
41
1
10
12.9111526188572
20
8.77028400657242
30
0
41
1
10
12.3912845993467
20
9.16699225467687
30
0
41
1
10
11.8915453158499
20
9.60323466920613
30
0
41
1
10
11.3456037166812
20
10.1482202377828
30
0
41
1
10
10.7747437103992
20
10.8208865527889
30
0
41
1
10
10.2247656856715
20
11.6158536729485
30
0
41
1
10
9.84597974291659
20
12.294105472442
30
0
41
1
10
9.59580273129764
20
12.8207812908529
30
0
41
1
10
9.39551875938147
20
13.2943475076201
30
0
41
1
10
9.20743723732415
20
13.819314165983
30
0
41
1
10
9.05883682948088
20
14.3274915527483
30
0
41
1
10
8.96564182965905
20
14.7158477479457
30
0
41
1
10
8.92734487492199
20
14.8925376507392
30
0
41
1
10
8.91464946130402
20
14.9616514049875
30
0
0
SPLINE
5
1A8
100
AcDbEntity
8
1
62
256
6
ByLayer
370
18
48
1
60
0
100
AcDbSpline
70
4
71
3
72
11
73
7
40
0
40
0
40
0
40
0
40
0.264564460488347
40
0.534863678764533
40
0.765299739901805
40
1
40
1
40
1
40
1
41
1
10
25.6816199683256
20
-4.15919624761546
30
0
41
1
10
25.7497167844945
20
-4.02143711817217
30
0
41
1
10
25.8915298870592
20
-3.74504024857098
30
0
41
1
10
26.1081405054863
20
-3.34952764038989
30
0
41
1
10
26.3240290185682
20
-2.98584926491871
30
0
41
1
10
26.4606995116915
20
-2.76775864954579
30
0
41
1
10
26.530066254224
20
-2.6605562905101
30
0
0
SPLINE
5
1A9
100
AcDbEntity
8
1
62
256
6
ByLayer
370
18
48
1
60
0
100
AcDbSpline
70
4
71
3
72
14
73
10
40
0
40
0
40
0
40
0
40
0.106094724700075
40
0.212189328648827
40
0.382302405885775
40
0.552418465201343
40
0.72749160444503
40
0.902570389738893
40
1
40
1
40
1
40
1
41
1
10
9.87662791597504
20
8.71779788710518
30
0
41
1
10
9.78673767234572
20
8.99595995552882
30
0
41
1
10
9.61538731041641
20
9.54716225224306
30
0
41
1
10
9.33739171914611
20
10.5234341747004
30
0
41
1
10
9.05794098387949
20
11.6302152934641
30
0
41
1
10
8.79467673225575
20
12.8498910061696
30
0
41
1
10
8.58466839958031
20
14.0096026167406
30
0
41
1
10
8.44676000875466
20
14.9370589878489
30
0
41
1
10
8.37970365366489
20
15.4635560906262
30
0
41
1
10
8.35805808743104
20
15.6471585156062
30
0
0
SPLINE
5
1AA
100
AcDbEntity
8
1
62
256
6
ByLayer
370
18
48
1
60
0
100
AcDbSpline
70
4
71
3
72
13
73
9
40
0
40
0
40
0
40
0
40
0.192225367180871
40
0.389652202193806
40
0.581983435446651
40
0.780806842763874
40
0.89041287196472
40
1
40
1
40
1
40
1
41
1
10
27.2214821291211
20
6.91767620683362
30
0
41
1
10
27.5070820736017
20
6.91717939389307
30
0
41
1
10
28.0773300772255
20
6.88027196671295
30
0
41
1
10
28.9141432819184
20
6.71251035665567
30
0
41
1
10
29.7111537010309
20
6.44076787278779
30
0
41
1
10
30.32651686669
20
6.13925055670733
30
0
41
1
10
30.7805665436155
20
5.86122064155148
30
0
41
1
10
30.9933654895915
20
5.71343884928907
30
0
41
1
10
31.0936902013203
20
5.63840457034715
30
0
0
SPLINE
5
1AB
100
AcDbEntity
8
1
62
256
6
ByLayer
370
18
48
1
60
0
100
AcDbSpline
70
4
71
1
72
4
73
2
40
0
40
0
40
1
40
1
41
1
10
8.7595351482036
20
16.046118779357
30
0
41
1
10
8.73907285914561
20
16.280003813524
30
0
0
SPLINE
5
1AC
100
AcDbEntity
8
1
62
256
6
ByLayer
370
18
48
1
60
0
100
AcDbSpline
70
4
71
3
72
11
73
7
40
0
40
0
40
0
40
0
40
0.264564460488346
40
0.534863678764532
40
0.765299739901805
40
1
40
1
40
1
40
1
41
1
10
26.530066254224
20
-2.6605562905101
30
0
41
1
10
26.6734753992053
20
-2.64784282428014
30
0
41
1
10
26.9689594427638
20
-2.6265952115962
30
0
41
1
10
27.4122375626497
20
-2.60743251180011
30
0
41
1
10
27.8448198984032
20
-2.60354413615371
30
0
41
1
10
28.1150035597751
20
-2.60713359540622
30
0
41
1
10
28.2510806280469
20
-2.61069446805899
30
0
0
SPLINE
5
1AD
100
AcDbEntity
8
1
62
256
6
ByLayer
370
18
48
1
60
0
100
AcDbSpline
70
4
71
3
72
11
73
7
40
0
40
0
40
0
40
0
40
0.307306492509001
40
0.614968223947661
40
0.912465865548478
40
1
40
1
40
1
40
1
41
1
10
12.7117515259101
20
4.76914140238015
30
0
41
1
10
12.5451421871553
20
4.763369951846
30
0
41
1
10
12.2382151615631
20
4.74685900862941
30
0
41
1
10
11.8378047248555
20
4.69650255731685
30
0
41
1
10
11.6278833641812
20
4.66388423277376
30
0
41
1
10
11.553655999891
20
4.65486935679487
30
0
41
1
10
11.5387681538673
20
4.65313037285384
30
0
0
SPLINE
5
1AE
100
AcDbEntity
8
1
62
256
6
ByLayer
370
18
48
1
60
0
100
AcDbSpline
70
4
71
3
72
11
73
7
40
0
40
0
40
0
40
0
40
0.128709323381072
40
0.378483294965362
40
0.634356167321735
40
1
40
1
40
1
40
1
41
1
10
28.2510806280469
20
-2.61069446805899
30
0
41
1
10
28.2851702990531
20
-2.66734885481006
30
0
41
1
10
28.3869805596424
20
-2.83652805021788
30
0
41
1
10
28.5652640603158
20
-3.13269726515305
30
0
41
1
10
28.8245043591695
20
-3.56311840428229
30
0
41
1
10
29.0116952627287
20
-3.87375071797855
30
0
41
1
10
29.1236487159713
20
-4.05947260271323
30
0
0
SPLINE
5
1AF
100
AcDbEntity
8
1
62
256
6
ByLayer
370
18
48
1
60
0
100
AcDbSpline
70
4
71
3
72
13
73
9
40
0
40
0
40
0
40
0
40
0.211564581966907
40
0.42388026238351
40
0.567439744694322
40
0.710999276171644
40
0.855499595809089
40
1
40
1
40
1
40
1
41
1
10
14.3179451519947
20
-0.398339465886178
30
0
41
1
10
13.9161164566096
20
0.197109407710632
30
0
41
1
10
13.1479787620307
20
1.41149570603908
30
0
41
1
10
12.2171267537687
20
3.09740658478486
30
0
41
1
10
11.4735013527684
20
4.61934172591661
30
0
41
1
10
10.8842207806594
20
5.95947595717177
30
0
41
1
10
10.3483688405385
20
7.32546261792332
30
0
41
1
10
10.0276894368124
20
8.25135901494572
30
0
41
1
10
9.87662791597504
20
8.71779788710518
30
0
0
SPLINE
5
1B0
100
AcDbEntity
8
1
62
256
6
ByLayer
370
18
48
1
60
0
100
AcDbSpline
70
4
71
1
72
4
73
2
40
0
40
0
40
1
40
1
41
1
10
8.91732251531151
20
14.9482970490923
30
0
41
1
10
8.75953514820361
20
16.0461187793569
30
0
0
SPLINE
5
1B1
100
AcDbEntity
8
1
62
256
6
ByLayer
370
18
48
1
60
0
100
AcDbSpline
70
4
71
3
72
10
73
6
40
0
40
0
40
0
40
0
40
0.350410785141018
40
0.701238865037594
40
1
40
1
40
1
40
1
41
1
10
8.49895314391334
20
14.5944970695635
30
0
41
1
10
8.49047695174092
20
14.6535841131633
30
0
41
1
10
8.51367167549901
20
14.759355993695
30
0
41
1
10
8.67054483003878
20
14.877523243464
30
0
41
1
10
8.83034728959034
20
14.9293459606003
30
0
41
1
10
8.91732251531151
20
14.9482970490923
30
0
0
SPLINE
5
1B2
100
AcDbEntity
8
1
62
256
6
ByLayer
370
18
48
1
60
0
100
AcDbSpline
70
4
71
3
72
14
73
10
40
0
40
0
40
0
40
0
40
0.124730868570724
40
0.249627005709126
40
0.421985895536101
40
0.5944173258985
40
0.824341199728849
40
0.912354154925514
40
1
40
1
40
1
40
1
41
1
10
16.1012266097408
20
-5.14609002143419
30
0
41
1
10
16.1123998614458
20
-5.18959116111754
30
0
41
1
10
16.1486092316768
20
-5.27952431242915
30
0
41
1
10
16.2611604063149
20
-5.44293144867072
30
0
41
1
10
16.4366352333636
20
-5.63330257037523
30
0
41
1
10
16.7126499825194
20
-5.86541859102352
30
0
41
1
10
17.005921793214
20
-6.05213371364354
30
0
41
1
10
17.2935128237554
20
-6.16901894544975
30
0
41
1
10
17.4293665371387
20
-6.20028476256631
30
0
41
1
10
17.4999205115801
20
-6.21192785408381
30
0
0
SPLINE
5
1B3
100
AcDbEntity
8
1
62
256
6
ByLayer
370
18
48
1
60
0
100
AcDbSpline
70
4
71
3
72
13
73
9
40
0
40
0
40
0
40
0
40
0.192105808439145
40
0.386349729806837
40
0.537112823353262
40
0.688897398558324
40
0.843895065579102
40
1
40
1
40
1
40
1
41
1
10
19.6574290260075
20
-20.4209305254693
30
0
41
1
10
19.7429923968614
20
-20.1606275789403
30
0
41
1
10
19.8868596749608
20
-19.6322093568322
30
0
41
1
10
20.0086729021857
20
-18.8798424014322
30
0
41
1
10
20.0550694203994
20
-18.1791839640398
30
0
41
1
10
20.0442588209524
20
-17.5336107547341
30
0
41
1
10
19.9783738592946
20
-16.8844507758798
30
0
41
1
10
19.8972042943667
20
-16.4551064150906
30
0
41
1
10
19.8471400834842
20
-16.2410636909359
30
0
0
SPLINE
5
1B4
100
AcDbEntity
8
1
62
256
6
ByLayer
370
18
48
1
60
0
100
AcDbSpline
70
4
71
1
72
4
73
2
40
0
40
0
40
1
40
1
41
1
10
16.6765683606716
20
-23.1621238784629
30
0
41
1
10
16.8639585288868
20
-23.0715322861803
30
0
0
SPLINE
5
1B5
100
AcDbEntity
8
1
62
256
6
ByLayer
370
18
48
1
60
0
100
AcDbSpline
70
4
71
3
72
11
73
7
40
0
40
0
40
0
40
0
40
0.264564460488346
40
0.534863678764532
40
0.765299739901804
40
1
40
1
40
1
40
1
41
1
10
28.2752024300729
20
-5.55811255981859
30
0
41
1
10
28.1215262192958
20
-5.55400635305546
30
0
41
1
10
27.8108228444756
20
-5.550321411484
30
0
41
1
10
27.359963226602
20
-5.55706397884031
30
0
41
1
10
26.9377511028796
20
-5.57794100330844
30
0
41
1
10
26.6812639294358
20
-5.59678935176908
30
0
41
1
10
26.55418805625
20
-5.6079743822697
30
0
0
SPLINE
5
1B6
100
AcDbEntity
8
1
62
256
6
ByLayer
370
18
48
1
60
0
100
AcDbSpline
70
4
71
3
72
21
73
17
40
0
40
0
40
0
40
0
40
0.0696679422425717
40
0.141350941902731
40
0.211371357583805
40
0.283386407622857
40
0.354108520015597
40
0.426801643298619
40
0.498981865031014
40
0.573194530937198
40
0.646408727142851
40
0.721769672703604
40
0.794474403001795
40
0.869404842249758
40
0.940081620991643
40
1
40
1
40
1
40
1
41
1
10
8.71113389850428
20
-23.9000000000018
30
0
41
1
10
8.79097173088563
20
-23.9061856527954
30
0
41
1
10
8.96263815973289
20
-23.9217419574215
30
0
41
1
10
9.25265138391795
20
-23.9540887806333
30
0
41
1
10
9.56779286586571
20
-23.9961113481316
30
0
41
1
10
9.89534345847302
20
-24.0466776277489
30
0
41
1
10
10.2312786392347
20
-24.1056036002096
30
0
41
1
10
10.5628089408957
20
-24.1706730896832
30
0
41
1
10
10.8856954227425
20
-24.2407819988068
30
0
41
1
10
11.186664754259
20
-24.3124611219629
30
0
41
1
10
11.4603632381948
20
-24.3835373042764
30
0
41
1
10
11.6929843782117
20
-24.4493552882112
30
0
41
1
10
11.8807322807478
20
-24.5076293337356
30
0
41
1
10
12.0130902296364
20
-24.5539781810053
30
0
41
1
10
12.0854801386602
20
-24.5854529678494
30
0
41
1
10
12.0998980607056
20
-24.5974696045424
30
0
41
1
10
12.099999990436
20
-24.6013803261648
30
0
0
SPLINE
5
1B7
100
AcDbEntity
8
1
62
256
6
ByLayer
370
18
48
1
60
0
100
AcDbSpline
70
4
71
1
72
4
73
2
40
0
40
0
40
1
40
1
41
1
10
17.1335110712782
20
-22.8029959757886
30
0
41
1
10
16.8639585288868
20
-23.0715322861803
30
0
0
SPLINE
5
1B8
100
AcDbEntity
8
1
62
256
6
ByLayer
370
18
48
1
60
0
100
AcDbSpline
70
4
71
3
72
10
73
6
40
0
40
0
40
0
40
0
40
0.216819799470732
40
0.601588210071624
40
1
40
1
40
1
40
1
41
1
10
8.37005997710065
20
-23.9639987193518
30
0
41
1
10
8.3355873754777
20
-23.9579599322963
30
0
41
1
10
8.24901736909517
20
-23.9420547648699
30
0
41
1
10
8.14513745767279
20
-23.9195239799785
30
0
41
1
10
8.1094090866031
20
-23.9058958876228
30
0
41
1
10
8.102630585702
20
-23.8999999999999
30
0
0
SPLINE
5
1B9
100
AcDbEntity
8
1
62
256
6
ByLayer
370
18
48
1
60
0
100
AcDbSpline
70
4
71
3
72
12
73
8
40
0
40
0
40
0
40
0
40
0.224191914181331
40
0.44736030587831
40
0.695442514295405
40
0.95969567693007
40
1
40
1
40
1
40
1
41
1
10
18.4920534273194
20
-20.7025825545477
30
0
41
1
10
18.5076099061985
20
-20.670853796626
30
0
41
1
10
18.5752458387134
20
-20.6093128179158
30
0
41
1
10
18.8094222015547
20
-20.508576556347
30
0
41
1
10
19.1488954959159
20
-20.4317517326489
30
0
41
1
10
19.4593090496866
20
-20.4134712190412
30
0
41
1
10
19.6341133476523
20
-20.4198298201508
30
0
41
1
10
19.6574290260075
20
-20.4209305254692
30
0
0
SPLINE
5
1BA
100
AcDbEntity
8
1
62
256
6
ByLayer
370
18
48
1
60
0
100
AcDbSpline
70
4
71
2
72
6
73
3
40
0
40
0
40
0
40
1
40
1
40
1
41
1
10
7.85804067811008
20
-20.2675854626735
30
0
41
1
10
12.4711443273211
20
-21.6093071965023
30
0
41
1
10
17.1335110712782
20
-22.8029959757886
30
0
0
SPLINE
5
1BB
100
AcDbEntity
8
1
62
256
6
ByLayer
370
18
48
1
60
0
100
AcDbSpline
70
4
71
3
72
13
73
9
40
0
40
0
40
0
40
0
40
0.10658887322031
40
0.241798348882598
40
0.452286123026695
40
0.604844315818869
40
0.757496003327585
40
1
40
1
40
1
40
1
41
1
10
18.7890491046097
20
-11.7200813840821
30
0
41
1
10
18.7115387059133
20
-11.7389472134413
30
0
41
1
10
18.5497369880148
20
-11.8000020160587
30
0
41
1
10
18.3063940026119
20
-12.015964474858
30
0
41
1
10
18.1327472405865
20
-12.3074853337826
30
0
41
1
10
18.0242130086547
20
-12.6201045303631
30
0
41
1
10
17.967759261842
20
-12.9523125258722
30
0
41
1
10
17.9825661545219
20
-13.1779123805418
30
0
41
1
10
18.012506551317
20
-13.3125548829932
30
0
0
SPLINE
5
1BC
100
AcDbEntity
8
1
62
256
6
ByLayer
370
18
48
1
60
0
100
AcDbSpline
70
4
71
3
72
17
73
13
40
0
40
0
40
0
40
0
40
0.113146370703283
40
0.200812381947364
40
0.288481730008549
40
0.376126833325678
40
0.463773929858746
40
0.63890748449534
40
0.727969777763597
40
0.817031352152489
40
0.90851689119945
40
1
40
1
40
1
40
1
41
1
10
17.1335110712782
20
-22.8029959757886
30
0
41
1
10
17.3097525834651
20
-22.6169448744835
30
0
41
1
10
17.6011608560197
20
-22.2736205715366
30
0
41
1
10
17.9660371221855
20
-21.7447672446775
30
0
41
1
10
18.2538522989181
20
-21.2400308231466
30
0
41
1
10
18.4955293079372
20
-20.7156839808641
30
0
41
1
10
18.7551296526425
20
-19.9962162474469
30
0
41
1
10
18.920055866094
20
-19.2477942623525
30
0
41
1
10
18.9860104103899
20
-18.4870291839522
30
0
41
1
10
18.9851345784135
20
-17.9045063520445
30
0
41
1
10
18.9311604916979
20
-17.3184469036073
30
0
41
1
10
18.8588142628329
20
-16.9292168234908
30
0
41
1
10
18.8136190500286
20
-16.735526541184
30
0
0
SPLINE
5
1BD
100
AcDbEntity
8
1
62
256
6
ByLayer
370
18
48
1
60
0
100
AcDbSpline
70
4
71
3
72
21
73
17
40
0
40
0
40
0
40
0
40
0.0397248400787841
40
0.124569671207866
40
0.209310929716638
40
0.281330450499963
40
0.353343980636917
40
0.417958647215959
40
0.482598342697849
40
0.550114361108014
40
0.617652009246829
40
0.692031362987028
40
0.766406129448535
40
0.843885253661934
40
0.921341273743744
40
1
40
1
40
1
40
1
41
1
10
18.6734405348932
20
-11.0752250454389
30
0
41
1
10
18.6399542048646
20
-11.0095273951479
30
0
41
1
10
18.5437054295977
20
-10.7998057965304
30
0
41
1
10
18.4253359077263
20
-10.4237341663029
30
0
41
1
10
18.3676604054948
20
-9.96853912147293
30
0
41
1
10
18.394236833264
20
-9.53509199132634
30
0
41
1
10
18.48439218811
20
-9.151337855841
30
0
41
1
10
18.6324991854573
20
-8.8051688773224
30
0
41
1
10
18.8263910671594
20
-8.4956569633668
30
0
41
1
10
19.0699592580679
20
-8.21878175978513
30
0
41
1
10
19.3665856503202
20
-7.97129638150785
30
0
41
1
10
19.7115027747046
20
-7.76680843581636
30
0
41
1
10
20.1043366850478
20
-7.61054634423624
30
0
41
1
10
20.5264958223717
20
-7.51689718297054
30
0
41
1
10
20.9698021174823
20
-7.48977577824115
30
0
41
1
10
21.2618717763944
20
-7.5202605376247
30
0
41
1
10
21.4090708448998
20
-7.54773933400446
30
0
0
SPLINE
5
1BE
100
AcDbEntity
8
1
62
256
6
ByLayer
370
18
48
1
60
0
100
AcDbSpline
70
4
71
3
72
12
73
8
40
0
40
0
40
0
40
0
40
0.0585947430861889
40
0.368646875460638
40
0.687853539155977
40
0.995484778753413
40
1
40
1
40
1
40
1
41
1
10
12.099999990436
20
-24.6013803261648
30
0
41
1
10
12.0999979041129
20
-24.6022109032768
30
0
41
1
10
12.098019773658
20
-24.6069259977488
30
0
41
1
10
12.071063767409
20
-24.6097209381808
30
0
41
1
10
11.9812638336717
20
-24.5996253302788
30
0
41
1
10
11.8868879626452
20
-24.5841033103814
30
0
41
1
10
11.8327219561607
20
-24.5745597492933
30
0
41
1
10
11.8319367841499
20
-24.5744212810588
30
0
0
SPLINE
5
1BF
100
AcDbEntity
8
1
62
256
6
ByLayer
370
18
48
1
60
0
100
AcDbSpline
70
4
71
2
72
6
73
3
40
0
40
0
40
0
40
1
40
1
40
1
41
1
10
18.6734405348932
20
-11.0752250454389
30
0
41
1
10
18.7267695510349
20
-11.4056643107838
30
0
41
1
10
18.8516341589048
20
-11.7071412216233
30
0
0
SPLINE
5
1C0
100
AcDbEntity
8
1
62
256
6
ByLayer
370
18
48
1
60
0
100
AcDbSpline
70
4
71
3
72
12
73
8
40
0
40
0
40
0
40
0
40
0.243246824095186
40
0.493094174036904
40
0.74258452350358
40
0.999450813701698
40
1
40
1
40
1
40
1
41
1
10
22.9680149553435
20
-7.89868157470558
30
0
41
1
10
22.8556813526642
20
-7.83169665161879
30
0
41
1
10
22.6197962796
20
-7.71473824605982
30
0
41
1
10
22.2349395710921
20
-7.5949302498406
30
0
41
1
10
21.8268311376875
20
-7.53454991412073
30
0
41
1
10
21.5490157959367
20
-7.53619750507342
30
0
41
1
10
21.4093687758279
20
-7.54771471341643
30
0
41
1
10
21.4090708448998
20
-7.54773933400446
30
0
0
SPLINE
5
1C1
100
AcDbEntity
8
1
62
256
6
ByLayer
370
18
48
1
60
0
100
AcDbSpline
70
4
71
1
72
4
73
2
40
0
40
0
40
1
40
1
41
1
10
8.67028353679046
20
-23.9
30
0
41
1
10
8.71113389849724
20
-23.9
30
0
0
SPLINE
5
1C2
100
AcDbEntity
8
1
62
256
6
ByLayer
370
18
48
1
60
0
100
AcDbSpline
70
4
71
3
72
20
73
16
40
0
40
0
40
0
40
0
40
0.0772659484953143
40
0.154758893030285
40
0.234388599350541
40
0.313901966006735
40
0.395640999013571
40
0.47654953108861
40
0.559794254989597
40
0.640827527516816
40
0.724250715755185
40
0.804571336494504
40
0.887267134966594
40
0.966798143132679
40
1
40
1
40
1
40
1
41
1
10
11.8319367841499
20
-24.5744212810588
30
0
41
1
10
11.7770360383668
20
-24.5646214222914
30
0
41
1
10
11.6540487798758
20
-24.54202189551
30
0
41
1
10
11.4254289798288
20
-24.4977510981001
30
0
41
1
10
11.1599333395545
20
-24.4459266290492
30
0
41
1
10
10.8608666501268
20
-24.3881561970535
30
0
41
1
10
10.539126575741
20
-24.3275269603539
30
0
41
1
10
10.1998820093937
20
-24.2657477509736
30
0
41
1
10
9.85823046577353
20
-24.2059605869273
30
0
41
1
10
9.51972820878687
20
-24.1490961178182
30
0
41
1
10
9.20130251996551
20
-24.0975285932874
30
0
41
1
10
8.90662346018527
20
-24.0509760003844
30
0
41
1
10
8.65051280897361
20
-24.0106658499103
30
0
41
1
10
8.47748702471944
20
-23.9825877886315
30
0
41
1
10
8.39350855858788
20
-23.9681114542334
30
0
41
1
10
8.37005997710065
20
-23.9639987193518
30
0
0
SPLINE
5
1C3
100
AcDbEntity
8
1
62
256
6
ByLayer
370
18
48
1
60
0
100
AcDbSpline
70
4
71
3
72
11
73
7
40
0
40
0
40
0
40
0
40
0.264564460488348
40
0.534863678764533
40
0.765299739901805
40
1
40
1
40
1
40
1
41
1
10
29.1236487159713
20
-4.05947260271323
30
0
41
1
10
29.0452848340066
20
-4.18041205916342
30
0
41
1
10
28.8882524001802
20
-4.43187637450923
30
0
41
1
10
28.6640602837654
20
-4.81496885025053
30
0
41
1
10
28.4585419827147
20
-5.19563587454344
30
0
41
1
10
28.3355679775194
20
-5.43616429762951
30
0
41
1
10
28.2752024300729
20
-5.55811255981859
30
0
0
SPLINE
5
1C4
100
AcDbEntity
8
1
62
256
6
ByLayer
370
18
48
1
60
0
100
AcDbSpline
70
4
71
3
72
13
73
9
40
0
40
0
40
0
40
0
40
0.495007406068026
40
0.64605880727723
40
0.846661626287652
40
0.915204513996221
40
0.984433183733445
40
1
40
1
40
1
40
1
41
1
10
7.375
20
7.83836717690617
30
0
41
1
10
7.36758105417694
20
8.01331528528417
30
0
41
1
10
7.3989892680696
20
8.23136401296474
30
0
41
1
10
7.49989631953041
20
8.50268143974248
30
0
41
1
10
7.58113531503554
20
8.62893847716363
30
0
41
1
10
7.6816495507235
20
8.69947646212521
30
0
41
1
10
7.73765986983334
20
8.71644162241409
30
0
41
1
10
7.76915457446157
20
8.71777896612742
30
0
41
1
10
7.77500000000343
20
8.71779788708134
30
0
0
SPLINE
5
1C5
100
AcDbEntity
8
1
62
256
6
ByLayer
370
18
48
1
60
0
100
AcDbSpline
70
4
71
3
72
13
73
9
40
0
40
0
40
0
40
0
40
0.207438039460515
40
0.416274474974618
40
0.629718048959333
40
0.737283553742744
40
0.84485032378618
40
1
40
1
40
1
40
1
41
1
10
0.343278579257497
20
-5.34998840487803
30
0
41
1
10
0.214505649867323
20
-4.61831987097285
30
0
41
1
10
0.0093632726892019
20
-3.14355578497441
30
0
41
1
10
-0.142590593077843
20
-0.886004580706361
30
0
41
1
10
-0.126728631207405
20
1.01860707860898
30
0
41
1
10
-0.0266272122474481
20
2.55327635307169
30
0
41
1
10
0.109554434618197
20
3.8739214056737
30
0
41
1
10
0.247350709853282
20
4.8034008288537
30
0
41
1
10
0.343278579257497
20
5.34998840487803
30
0
0
SPLINE
5
1C6
100
AcDbEntity
8
1
62
256
6
ByLayer
370
18
48
1
60
0
100
AcDbSpline
70
4
71
3
72
11
73
7
40
0
40
0
40
0
40
0
40
0.249590761431164
40
0.499373461245184
40
0.749629599074229
40
1
40
1
40
1
40
1
41
1
10
7.175
20
-8.45236523481398
30
0
41
1
10
7.17560627296344
20
-9.43734506959276
30
0
41
1
10
7.20622603860298
20
-11.4072118737291
30
0
41
1
10
7.3441502866735
20
-14.3625489135239
30
0
41
1
10
7.56345760584324
20
-17.3167070605073
30
0
41
1
10
7.75210918891563
20
-19.2843247313864
30
0
41
1
10
7.85804067811008
20
-20.2675854626735
30
0
0
SPLINE
5
1C7
100
AcDbEntity
8
1
62
256
6
ByLayer
370
18
48
1
60
0
100
AcDbSpline
70
4
71
3
72
11
73
7
40
0
40
0
40
0
40
0
40
0.365642136698638
40
0.615102327343337
40
0.871291253056326
40
1
40
1
40
1
40
1
41
1
10
26.55418805625
20
-5.6079743822697
30
0
41
1
10
26.4422492407183
20
-5.42227673497301
30
0
41
1
10
26.2569725841945
20
-5.11482095031116
30
0
41
1
10
25.9976963690328
20
-4.68434293686342
30
0
41
1
10
25.8192410869258
20
-4.38788995585973
30
0
41
1
10
25.715709222216
20
-4.21584996075701
30
0
41
1
10
25.6816199683256
20
-4.15919624761546
30
0
0
LINE
5
70
100
AcDbEntity
8
SK1
62
256
6
ByLayer
370
18
48
1
60
0
100
AcDbLine
10
-3.225
20
3
30
0
11
-0.325
21
3
31
0
39
0
210
0
220
0
230
1
0
LINE
5
72
100
AcDbEntity
8
1
62
256
6
ByLayer
370
18
48
1
60
0
100
AcDbLine
10
0.343279
20
13.739816
30
0
11
0.343279
21
13.368336
31
0
39
0
210
0
220
0
230
1
0
LINE
5
74
100
AcDbEntity
8
1
62
256
6
ByLayer
370
18
48
1
60
0
100
AcDbLine
10
-0.325
20
11.416648
30
0
11
-0.325
21
11.899153
31
0
39
0
210
0
220
0
230
1
0
LINE
5
75
100
AcDbEntity
8
1
62
256
6
ByLayer
370
18
48
1
60
0
100
AcDbLine
10
0.343279
20
19.002697
30
0
11
0.343279
21
18.904826
31
0
39
0
210
0
220
0
230
1
0
LINE
5
76
100
AcDbEntity
8
1
62
256
6
ByLayer
370
18
48
1
60
0
100
AcDbLine
10
0.343279
20
18.537327
30
0
11
0.343279
21
18.408217
31
0
39
0
210
0
220
0
230
1
0
LINE
5
77
100
AcDbEntity
8
SK1
62
256
6
ByLayer
370
18
48
1
60
0
100
AcDbLine
10
-0.325
20
-3
30
0
11
-3.225
21
-3
31
0
39
0
210
0
220
0
230
1
0
LINE
5
78
100
AcDbEntity
8
1
62
256
6
ByLayer
370
18
48
1
60
0
100
AcDbLine
10
-0.325
20
5.496803
30
0
11
-0.325
21
6.61172
31
0
39
0
210
0
220
0
230
1
0
LINE
5
79
100
AcDbEntity
8
1
62
256
6
ByLayer
370
18
48
1
60
0
100
AcDbLine
10
-0.325
20
15.709148
30
0
11
-0.325
21
14.881695
31
0
39
0
210
0
220
0
230
1
0
LINE
5
7A
100
AcDbEntity
8
1
62
256
6
ByLayer
370
18
48
1
60
0
100
AcDbLine
10
0.343279
20
19.558693
30
0
11
0.343279
21
19.518003
31
0
39
0
210
0
220
0
230
1
0
LINE
5
7B
100
AcDbEntity
8
1
62
256
6
ByLayer
370
18
48
1
60
0
100
AcDbLine
10
-0.325
20
17.375337
30
0
11
-0.325
21
16.832702
31
0
39
0
210
0
220
0
230
1
0
LINE
5
7C
100
AcDbEntity
8
1
62
256
6
ByLayer
370
18
48
1
60
0
100
AcDbLine
10
-0.325
20
9.084456
30
0
11
-0.325
21
6.61172
31
0
39
0
210
0
220
0
230
1
0
LINE
5
7D
100
AcDbEntity
8
1
62
256
6
ByLayer
370
18
48
1
60
0
100
AcDbLine
10
-0.325
20
14.576174
30
0
11
-0.325
21
13.55645
31
0
39
0
210
0
220
0
230
1
0
LINE
5
7E
100
AcDbEntity
8
1
62
256
6
ByLayer
370
18
48
1
60
0
100
AcDbLine
10
-0.325
20
16.63099
30
0
11
-0.325
21
16.832702
31
0
39
0
210
0
220
0
230
1
0
LINE
5
7F
100
AcDbEntity
8
1
62
256
6
ByLayer
370
18
48
1
60
0
100
AcDbLine
10
0.343279
20
19.340954
30
0
11
0.343279
21
19.272323
31
0
39
0
210
0
220
0
230
1
0
LINE
5
80
100
AcDbEntity
8
SK1
62
256
6
ByLayer
370
18
48
1
60
0
100
AcDbLine
10
-3.225
20
-3
30
0
11
-3.825
21
-2.65359
31
0
39
0
210
0
220
0
230
1
0
LINE
5
81
100
AcDbEntity
8
1
62
256
6
ByLayer
370
18
48
1
60
0
100
AcDbLine
10
0.343279
20
17.181168
30
0
11
0.343279
21
16.979471
31
0
39
0
210
0
220
0
230
1
0
LINE
5
82
100
AcDbEntity
8
1
62
256
6
ByLayer
370
18
48
1
60
0
100
AcDbLine
10
-0.325
20
18.924913
30
0
11
-0.325
21
18.954613
31
0
39
0
210
0
220
0
230
1
0
LINE
5
83
100
AcDbEntity
8
1
62
256
6
ByLayer
370
18
48
1
60
0
100
AcDbLine
10
0.343279
20
17.934952
30
0
11
0.343279
21
17.771675
31
0
39
0
210
0
220
0
230
1
0
LINE
5
84
100
AcDbEntity
8
SK1
62
256
6
ByLayer
370
18
48
1
60
0
100
AcDbLine
10
-3.825
20
2.65359
30
0
11
-3.225
21
3
31
0
39
0
210
0
220
0
230
1
0
LINE
5
85
100
AcDbEntity
8
1
62
256
6
ByLayer
370
18
48
1
60
0
100
AcDbLine
10
-0.325
20
9.084456
30
0
11
-0.325
21
9.741783
31
0
39
0
210
0
220
0
230
1
0
LINE
5
86
100
AcDbEntity
8
1
62
256
6
ByLayer
370
18
48
1
60
0
100
AcDbLine
10
-0.325
20
18.412695
30
0
11
-0.325
21
18.089081
31
0
39
0
210
0
220
0
230
1
0
LINE
5
87
100
AcDbEntity
8
1
62
256
6
ByLayer
370
18
48
1
60
0
100
AcDbLine
10
-0.325
20
17.964266
30
0
11
-0.325
21
17.536458
31
0
39
0
210
0
220
0
230
1
0
LINE
5
88
100
AcDbEntity
8
1
62
256
6
ByLayer
370
18
48
1
60
0
100
AcDbLine
10
-0.325
20
17.375337
30
0
11
-0.325
21
17.536458
31
0
39
0
210
0
220
0
230
1
0
LINE
5
89
100
AcDbEntity
8
1
62
256
6
ByLayer
370
18
48
1
60
0
100
AcDbLine
10
-0.325
20
16.63099
30
0
11
-0.325
21
15.95783
31
0
39
0
210
0
220
0
230
1
0
LINE
5
8A
100
AcDbEntity
8
1
62
256
6
ByLayer
370
18
48
1
60
0
100
AcDbLine
10
-0.325
20
18.999075
30
0
11
-0.325
21
19
31
0
39
0
210
0
220
0
230
1
0
LINE
5
8B
100
AcDbEntity
8
1
62
256
6
ByLayer
370
18
48
1
60
0
100
AcDbLine
10
0.343279
20
19.65992
30
0
11
0.343279
21
19.646436
31
0
39
0
210
0
220
0
230
1
0
LINE
5
8C
100
AcDbEntity
8
1
62
256
6
ByLayer
370
18
48
1
60
0
100
AcDbLine
10
-0.325
20
18.730719
30
0
11
-0.325
21
18.790685
31
0
39
0
210
0
220
0
230
1
0
LINE
5
8D
100
AcDbEntity
8
1
62
256
6
ByLayer
370
18
48
1
60
0
100
AcDbLine
10
-0.325
20
14.576174
30
0
11
-0.325
21
14.881695
31
0
39
0
210
0
220
0
230
1
0
LINE
5
8E
100
AcDbEntity
8
1
62
256
6
ByLayer
370
18
48
1
60
0
100
AcDbLine
10
0.343279
20
15.124567
30
0
11
0.343279
21
14.823711
31
0
39
0
210
0
220
0
230
1
0
LINE
5
8F
100
AcDbEntity
8
1
62
256
6
ByLayer
370
18
48
1
60
0
100
AcDbLine
10
-0.325
20
19
30
0
11
0.675
21
20
31
0
39
0
210
0
220
0
230
1
0
LINE
5
90
100
AcDbEntity
8
SK1
62
256
6
ByLayer
370
18
48
1
60
0
100
AcDbLine
10
-3.225
20
0
30
0
11
-3.225
21
3
31
0
39
0
210
0
220
0
230
1
0
LINE
5
91
100
AcDbEntity
8
1
62
256
6
ByLayer
370
18
48
1
60
0
100
AcDbLine
10
0.343279
20
12.013016
30
0
11
0.343279
21
11.540468
31
0
39
0
210
0
220
0
230
1
0
LINE
5
92
100
AcDbEntity
8
1
62
256
6
ByLayer
370
18
48
1
60
0
100
AcDbLine
10
-0.325
20
18.999075
30
0
11
-0.325
21
18.954613
31
0
39
0
210
0
220
0
230
1
0
LINE
5
93
100
AcDbEntity
8
1
62
256
6
ByLayer
370
18
48
1
60
0
100
AcDbLine
10
0.343279
20
9.764351
30
0
11
0.343279
21
9.118793
31
0
39
0
210
0
220
0
230
1
0
LINE
5
94
100
AcDbEntity
8
1
62
256
6
ByLayer
370
18
48
1
60
0
100
AcDbLine
10
-0.325
20
18.730719
30
0
11
-0.325
21
18.504117
31
0
39
0
210
0
220
0
230
1
0
LINE
5
95
100
AcDbEntity
8
1
62
256
6
ByLayer
370
18
48
1
60
0
100
AcDbLine
10
-0.325
20
18.924913
30
0
11
-0.325
21
18.790685
31
0
39
0
210
0
220
0
230
1
0
LINE
5
96
100
AcDbEntity
8
1
62
256
6
ByLayer
370
18
48
1
60
0
100
AcDbLine
10
0.343279
20
6.470901
30
0
11
0.343279
21
5.349988
31
0
39
0
210
0
220
0
230
1
0
LINE
5
97
100
AcDbEntity
8
1
62
256
6
ByLayer
370
18
48
1
60
0
100
AcDbLine
10
-0.325
20
11.416648
30
0
11
-0.325
21
9.741783
31
0
39
0
210
0
220
0
230
1
0
LINE
5
98
100
AcDbEntity
8
1
62
256
6
ByLayer
370
18
48
1
60
0
100
AcDbLine
10
-0.325
20
18.412695
30
0
11
-0.325
21
18.504117
31
0
39
0
210
0
220
0
230
1
0
LINE
5
99
100
AcDbEntity
8
SK1
62
256
6
ByLayer
370
18
48
1
60
0
100
AcDbLine
10
-3.225
20
-3
30
0
11
-3.225
21
0
31
0
39
0
210
0
220
0
230
1
0
LINE
5
9A
100
AcDbEntity
8
1
62
256
6
ByLayer
370
18
48
1
60
0
100
AcDbLine
10
-0.325
20
13.177721
30
0
11
-0.325
21
13.55645
31
0
39
0
210
0
220
0
230
1
0
LINE
5
9B
100
AcDbEntity
8
1
62
256
6
ByLayer
370
18
48
1
60
0
100
AcDbLine
10
-0.325
20
13.177721
30
0
11
-0.325
21
11.899153
31
0
39
0
210
0
220
0
230
1
0
LINE
5
9C
100
AcDbEntity
8
1
62
256
6
ByLayer
370
18
48
1
60
0
100
AcDbLine
10
-0.325
20
17.964266
30
0
11
-0.325
21
18.089081
31
0
39
0
210
0
220
0
230
1
0
LINE
5
9D
100
AcDbEntity
8
1
62
256
6
ByLayer
370
18
48
1
60
0
100
AcDbLine
10
-0.325
20
15.709148
30
0
11
-0.325
21
15.95783
31
0
39
0
210
0
220
0
230
1
0
LINE
5
9E
100
AcDbEntity
8
1
62
256
6
ByLayer
370
18
48
1
60
0
100
AcDbLine
10
0.343279
20
16.254923
30
0
11
0.343279
21
16.008511
31
0
39
0
210
0
220
0
230
1
0
LINE
5
9F
100
AcDbEntity
8
1
62
256
6
ByLayer
370
18
48
1
60
0
100
AcDbLine
10
-0.325
20
-16.63099
30
0
11
-0.325
21
-15.95783
31
0
39
0
210
0
220
0
230
1
0
LINE
5
A0
100
AcDbEntity
8
1
62
256
6
ByLayer
370
18
48
1
60
0
100
AcDbLine
10
0.343279
20
-13.368336
30
0
11
0.343279
21
-13.739816
31
0
39
0
210
0
220
0
230
1
0
LINE
5
A1
100
AcDbEntity
8
1
62
256
6
ByLayer
370
18
48
1
60
0
100
AcDbLine
10
0.343279
20
-9.118793
30
0
11
0.343279
21
-9.764351
31
0
39
0
210
0
220
0
230
1
0
LINE
5
A2
100
AcDbEntity
8
1
62
256
6
ByLayer
370
18
48
1
60
0
100
AcDbLine
10
7.175
20
-20
30
0
11
0.675
21
-20
31
0
39
0
210
0
220
0
230
1
0
LINE
5
A3
100
AcDbEntity
8
1
62
256
6
ByLayer
370
18
48
1
60
0
100
AcDbLine
10
0.343279
20
-11.540468
30
0
11
0.343279
21
-12.013016
31
0
39
0
210
0
220
0
230
1
0
LINE
5
A4
100
AcDbEntity
8
1
62
256
6
ByLayer
370
18
48
1
60
0
100
AcDbLine
10
0.343279
20
-16.008511
30
0
11
0.343279
21
-16.254923
31
0
39
0
210
0
220
0
230
1
0
LINE
5
A5
100
AcDbEntity
8
1
62
256
6
ByLayer
370
18
48
1
60
0
100
AcDbLine
10
0.343279
20
-18.408217
30
0
11
0.343279
21
-18.537327
31
0
39
0
210
0
220
0
230
1
0
LINE
5
A6
100
AcDbEntity
8
1
62
256
6
ByLayer
370
18
48
1
60
0
100
AcDbLine
10
0.343279
20
-18.904826
30
0
11
0.343279
21
-19.002697
31
0
39
0
210
0
220
0
230
1
0
LINE
5
A7
100
AcDbEntity
8
1
62
256
6
ByLayer
370
18
48
1
60
0
100
AcDbLine
10
-0.325
20
-17.536458
30
0
11
-0.325
21
-17.964266
31
0
39
0
210
0
220
0
230
1
0
LINE
5
A8
100
AcDbEntity
8
1
62
256
6
ByLayer
370
18
48
1
60
0
100
AcDbLine
10
-0.325
20
-18.790685
30
0
11
-0.325
21
-18.924913
31
0
39
0
210
0
220
0
230
1
0
LINE
5
A9
100
AcDbEntity
8
1
62
256
6
ByLayer
370
18
48
1
60
0
100
AcDbLine
10
-0.325
20
-9.741783
30
0
11
-0.325
21
-11.416648
31
0
39
0
210
0
220
0
230
1
0
LINE
5
AA
100
AcDbEntity
8
1
62
256
6
ByLayer
370
18
48
1
60
0
100
AcDbLine
10
-0.325
20
-14.576174
30
0
11
-0.325
21
-13.55645
31
0
39
0
210
0
220
0
230
1
0
LINE
5
AB
100
AcDbEntity
8
1
62
256
6
ByLayer
370
18
48
1
60
0
100
AcDbLine
10
0.343279
20
-16.979471
30
0
11
0.343279
21
-17.181168
31
0
39
0
210
0
220
0
230
1
0
LINE
5
AC
100
AcDbEntity
8
1
62
256
6
ByLayer
370
18
48
1
60
0
100
AcDbLine
10
0.343279
20
-17.771675
30
0
11
0.343279
21
-17.934952
31
0
39
0
210
0
220
0
230
1
0
LINE
5
AD
100
AcDbEntity
8
1
62
256
6
ByLayer
370
18
48
1
60
0
100
AcDbLine
10
-0.325
20
-13.177721
30
0
11
-0.325
21
-11.899153
31
0
39
0
210
0
220
0
230
1
0
LINE
5
AE
100
AcDbEntity
8
1
62
256
6
ByLayer
370
18
48
1
60
0
100
AcDbLine
10
0.675
20
-20
30
0
11
-0.325
21
-19
31
0
39
0
210
0
220
0
230
1
0
LINE
5
AF
100
AcDbEntity
8
1
62
256
6
ByLayer
370
18
48
1
60
0
100
AcDbLine
10
-0.325
20
-18.089081
30
0
11
-0.325
21
-18.412695
31
0
39
0
210
0
220
0
230
1
0
LINE
5
B0
100
AcDbEntity
8
1
62
256
6
ByLayer
370
18
48
1
60
0
100
AcDbLine
10
0.343279
20
-14.823711
30
0
11
0.343279
21
-15.124567
31
0
39
0
210
0
220
0
230
1
0
LINE
5
B1
100
AcDbEntity
8
1
62
256
6
ByLayer
370
18
48
1
60
0
100
AcDbLine
10
-0.325
20
-17.375337
30
0
11
-0.325
21
-16.832702
31
0
39
0
210
0
220
0
230
1
0
LINE
5
B2
100
AcDbEntity
8
1
62
256
6
ByLayer
370
18
48
1
60
0
100
AcDbLine
10
0.343279
20
-19.646436
30
0
11
0.343279
21
-19.65992
31
0
39
0
210
0
220
0
230
1
0
LINE
5
B3
100
AcDbEntity
8
1
62
256
6
ByLayer
370
18
48
1
60
0
100
AcDbLine
10
-0.325
20
-15.709148
30
0
11
-0.325
21
-14.881695
31
0
39
0
210
0
220
0
230
1
0
LINE
5
B4
100
AcDbEntity
8
1
62
256
6
ByLayer
370
18
48
1
60
0
100
AcDbLine
10
0.343279
20
-5.349988
30
0
11
0.343279
21
-6.470901
31
0
39
0
210
0
220
0
230
1
0
LINE
5
B5
100
AcDbEntity
8
1
62
256
6
ByLayer
370
18
48
1
60
0
100
AcDbLine
10
-0.325
20
-18.954613
30
0
11
-0.325
21
-18.999075
31
0
39
0
210
0
220
0
230
1
0
LINE
5
B6
100
AcDbEntity
8
1
62
256
6
ByLayer
370
18
48
1
60
0
100
AcDbLine
10
-0.325
20
-6.61172
30
0
11
-0.325
21
-9.084456
31
0
39
0
210
0
220
0
230
1
0
LINE
5
B7
100
AcDbEntity
8
1
62
256
6
ByLayer
370
18
48
1
60
0
100
AcDbLine
10
7.483436
20
-8.452365
30
0
11
7.175
21
-8.452365
31
0
39
0
210
0
220
0
230
1
0
LINE
5
B8
100
AcDbEntity
8
1
62
256
6
ByLayer
370
18
48
1
60
0
100
AcDbLine
10
-0.325
20
-18.504117
30
0
11
-0.325
21
-18.730719
31
0
39
0
210
0
220
0
230
1
0
LINE
5
B9
100
AcDbEntity
8
1
62
256
6
ByLayer
370
18
48
1
60
0
100
AcDbLine
10
0.343279
20
-19.272323
30
0
11
0.343279
21
-19.340954
31
0
39
0
210
0
220
0
230
1
0
LINE
5
BA
100
AcDbEntity
8
1
62
256
6
ByLayer
370
18
48
1
60
0
100
AcDbLine
10
0.343279
20
-19.518003
30
0
11
0.343279
21
-19.558693
31
0
39
0
210
0
220
0
230
1
0
LINE
5
BB
100
AcDbEntity
8
1
62
256
6
ByLayer
370
18
48
1
60
0
100
AcDbLine
10
28.673964
20
-3.322792
30
0
11
28.249741
21
-4.072112
31
0
39
0
210
0
220
0
230
1
0
LINE
5
BC
100
AcDbEntity
8
1
62
256
6
ByLayer
370
18
48
1
60
0
100
AcDbLine
10
9.876628
20
8.717798
30
0
11
7.775
21
8.717798
31
0
39
0
210
0
220
0
230
1
0
LINE
5
BD
100
AcDbEntity
8
1
62
256
6
ByLayer
370
18
48
1
60
0
100
AcDbLine
10
27.825518
20
-4.821432
30
0
11
26.96501
21
-4.846363
31
0
39
0
210
0
220
0
230
1
0
LINE
5
BE
100
AcDbEntity
8
1
62
256
6
ByLayer
370
18
48
1
60
0
100
AcDbLine
10
28.673964
20
-3.322792
30
0
11
29.123649
21
-4.059473
31
0
39
0
210
0
220
0
230
1
0
LINE
5
BF
100
AcDbEntity
8
1
62
256
6
ByLayer
370
18
48
1
60
0
100
AcDbLine
10
28.249741
20
-4.072112
30
0
11
27.825518
21
-4.821432
31
0
39
0
210
0
220
0
230
1
0
LINE
5
C0
100
AcDbEntity
8
1
62
256
6
ByLayer
370
18
48
1
60
0
100
AcDbLine
10
30.683994
20
-1.80767
30
0
11
30.745428
21
-1.908311
31
0
39
0
210
0
220
0
230
1
0
LINE
5
C1
100
AcDbEntity
8
1
62
256
6
ByLayer
370
18
48
1
60
0
100
AcDbLine
10
27.221482
20
6.917676
30
0
11
18.721482
21
6.917676
31
0
39
0
210
0
220
0
230
1
0
LINE
5
C2
100
AcDbEntity
8
1
62
256
6
ByLayer
370
18
48
1
60
0
100
AcDbLine
10
26.96501
20
-4.846363
30
0
11
26.104503
21
-4.871294
31
0
39
0
210
0
220
0
230
1
0
LINE
5
C3
100
AcDbEntity
8
1
62
256
6
ByLayer
370
18
48
1
60
0
100
AcDbLine
10
8.413615
20
20
30
0
11
8.739073
21
16.280004
31
0
39
0
210
0
220
0
230
1
0
LINE
5
C4
100
AcDbEntity
8
1
62
256
6
ByLayer
370
18
48
1
60
0
100
AcDbLine
10
28.23768
20
-2.598403
30
0
11
28.673964
21
-3.322792
31
0
39
0
210
0
220
0
230
1
0
LINE
5
C5
100
AcDbEntity
8
1
62
256
6
ByLayer
370
18
48
1
60
0
100
AcDbLine
10
8.694668
20
-23.9
30
0
11
8.654755
21
-23.9
31
0
39
0
210
0
220
0
230
1
0
LINE
5
C6
100
AcDbEntity
8
1
62
256
6
ByLayer
370
18
48
1
60
0
100
AcDbLine
10
25.279206
20
-9.308904
30
0
11
26.140999
21
-9.82673
31
0
39
0
210
0
220
0
230
1
0
LINE
5
C7
100
AcDbEntity
8
1
62
256
6
ByLayer
370
18
48
1
60
0
100
AcDbLine
10
18.860388
20
-11.198786
30
0
11
21.854148
21
-12.997646
31
0
39
0
210
0
220
0
230
1
0
LINE
5
C8
100
AcDbEntity
8
1
62
256
6
ByLayer
370
18
48
1
60
0
100
AcDbLine
10
8.749548
20
-23.9
30
0
11
8.694668
21
-23.9
31
0
39
0
210
0
220
0
230
1
0
LINE
5
C9
100
AcDbEntity
8
1
62
256
6
ByLayer
370
18
48
1
60
0
100
AcDbLine
10
18.813619
20
-16.735527
30
0
11
16.938345
21
-8.722907
31
0
39
0
210
0
220
0
230
1
0
LINE
5
CA
100
AcDbEntity
8
1
62
256
6
ByLayer
370
18
48
1
60
0
100
AcDbLine
10
22.92311
20
-21.681117
30
0
11
22.00375
21
-21.128701
31
0
39
0
210
0
220
0
230
1
0
LINE
5
CB
100
AcDbEntity
8
1
62
256
6
ByLayer
370
18
48
1
60
0
100
AcDbLine
10
21.585823
20
-7.8777
30
0
11
22.299697
21
-9.047181
31
0
39
0
210
0
220
0
230
1
0
LINE
5
CC
100
AcDbEntity
8
1
62
256
6
ByLayer
370
18
48
1
60
0
100
AcDbLine
10
22.531899
20
-14.519369
30
0
11
19.85916
21
-12.9134
31
0
39
0
210
0
220
0
230
1
0
LINE
5
CD
100
AcDbEntity
8
1
62
256
6
ByLayer
370
18
48
1
60
0
100
AcDbLine
10
33.952044
20
-14.721351
30
0
11
33.758089
21
-14.40361
31
0
39
0
210
0
220
0
230
1
0
LINE
5
CE
100
AcDbEntity
8
1
62
256
6
ByLayer
370
18
48
1
60
0
100
AcDbLine
10
24.346597
20
-23.388549
30
0
11
23.632723
21
-22.219068
31
0
39
0
210
0
220
0
230
1
0
LINE
5
CF
100
AcDbEntity
8
1
62
256
6
ByLayer
370
18
48
1
60
0
100
AcDbLine
10
23.506122
20
-8.320121
30
0
11
33.559738
21
-14.330811
31
0
39
0
210
0
220
0
230
1
0
LINE
5
D0
100
AcDbEntity
8
1
62
256
6
ByLayer
370
18
48
1
60
0
100
AcDbLine
10
34.79252
20
-29.789779
30
0
11
24.738904
21
-23.779089
31
0
39
0
210
0
220
0
230
1
0
LINE
5
D1
100
AcDbEntity
8
1
62
256
6
ByLayer
370
18
48
1
60
0
100
AcDbLine
10
8.376156
20
-23.965074
30
0
11
7.858041
21
-23.873716
31
0
39
0
210
0
220
0
230
1
0
LINE
5
D2
100
AcDbEntity
8
1
62
256
6
ByLayer
370
18
48
1
60
0
100
AcDbLine
10
18.798113
20
-11.353171
30
0
11
19.85916
21
-12.9134
31
0
39
0
210
0
220
0
230
1
0
LINE
5
D3
100
AcDbEntity
8
1
62
256
6
ByLayer
370
18
48
1
60
0
100
AcDbLine
10
22.884647
20
-20.976992
30
0
11
23.632723
21
-22.219068
31
0
39
0
210
0
220
0
230
1
0
LINE
5
D4
100
AcDbEntity
8
1
62
256
6
ByLayer
370
18
48
1
60
0
100
AcDbLine
10
30.261219
20
-12.302446
30
0
11
34.379379
21
-14.776924
31
0
39
0
210
0
220
0
230
1
0
LINE
5
D5
100
AcDbEntity
8
1
62
256
6
ByLayer
370
18
48
1
60
0
100
AcDbLine
10
11.908103
20
-24.587851
30
0
11
11.831605
21
-24.574363
31
0
39
0
210
0
220
0
230
1
0
LINE
5
D6
100
AcDbEntity
8
1
62
256
6
ByLayer
370
18
48
1
60
0
100
AcDbLine
10
22.531899
20
-14.519369
30
0
11
21.64806
21
-13.251221
31
0
39
0
210
0
220
0
230
1
0
LINE
5
D7
100
AcDbEntity
8
1
62
256
6
ByLayer
370
18
48
1
60
0
100
AcDbLine
10
35.223981
20
-16.833225
30
0
11
33.952044
21
-14.721351
31
0
39
0
210
0
220
0
230
1
0
LINE
5
D8
100
AcDbEntity
8
1
62
256
6
ByLayer
370
18
48
1
60
0
100
AcDbLine
10
8.654755
20
-23.9
30
0
11
8.1
21
-23.9
31
0
39
0
210
0
220
0
230
1
0
LINE
5
D9
100
AcDbEntity
8
1
62
256
6
ByLayer
370
18
48
1
60
0
100
AcDbLine
10
21.873723
20
-13.371168
30
0
11
21.785614
21
-13.318226
31
0
39
0
210
0
220
0
230
1
0
LINE
5
DA
100
AcDbEntity
8
1
62
256
6
ByLayer
370
18
48
1
60
0
100
AcDbLine
10
23.506122
20
-8.320121
30
0
11
23.411528
21
-8.165157
31
0
39
0
210
0
220
0
230
1
0
LINE
5
DB
100
AcDbEntity
8
1
62
256
6
ByLayer
370
18
48
1
60
0
100
AcDbLine
10
7.775
20
-8.722907
30
0
11
16.938345
21
-8.722907
31
0
39
0
210
0
220
0
230
1
0
LINE
5
DC
100
AcDbEntity
8
1
62
256
6
ByLayer
370
18
48
1
60
0
100
AcDbLine
10
23.917074
20
-6.076475
30
0
11
23.855641
21
-5.975834
31
0
39
0
210
0
220
0
230
1
0
LINE
5
DD
100
AcDbEntity
8
1
62
256
6
ByLayer
370
18
48
1
60
0
100
AcDbLine
10
21.885274
20
-13.59158
30
0
11
21.585823
21
-7.8777
31
0
39
0
210
0
220
0
230
1
0
LINE
5
DE
100
AcDbEntity
8
1
62
256
6
ByLayer
370
18
48
1
60
0
100
AcDbLine
10
26.937816
20
-10.131394
30
0
11
29.623081
21
-11.744889
31
0
39
0
210
0
220
0
230
1
0
LINE
5
DF
100
AcDbEntity
8
1
62
256
6
ByLayer
370
18
48
1
60
0
100
AcDbLine
10
35.385772
20
-17.362686
30
0
11
35.998945
21
-29.062719
31
0
39
0
210
0
220
0
230
1
0
LINE
5
E0
100
AcDbEntity
8
1
62
256
6
ByLayer
370
18
48
1
60
0
100
AcDbLine
10
22.92311
20
-21.681117
30
0
11
22.531899
21
-14.519369
31
0
39
0
210
0
220
0
230
1
0
LINE
5
E1
100
AcDbEntity
8
1
62
256
6
ByLayer
370
18
48
1
60
0
100
AcDbLine
10
19.84714
20
-16.241064
30
0
11
18.789049
21
-11.720081
31
0
39
0
210
0
220
0
230
1
0
LINE
5
E2
100
AcDbEntity
8
1
62
256
6
ByLayer
370
18
48
1
60
0
100
AcDbLine
10
21.785614
20
-13.318226
30
0
11
21.79334
21
-13.459672
31
0
39
0
210
0
220
0
230
1
0
LINE
5
E3
100
AcDbEntity
8
1
62
256
6
ByLayer
370
18
48
1
60
0
100
AcDbLine
10
21.864526
20
-13.195686
30
0
11
18.798113
21
-11.353171
31
0
39
0
210
0
220
0
230
1
0
LINE
5
E4
100
AcDbEntity
8
1
62
256
6
ByLayer
370
18
48
1
60
0
100
AcDbLine
10
22.91287
20
-20.747214
30
0
11
22.299697
21
-9.047181
31
0
39
0
210
0
220
0
230
1
0
LINE
5
E5
100
AcDbEntity
8
1
62
256
6
ByLayer
370
18
48
1
60
0
100
AcDbLine
10
7.858041
20
-23.873716
30
0
11
7.175
21
-20
31
0
39
0
210
0
220
0
230
1
0
LINE
5
E6
100
AcDbEntity
8
1
62
256
6
ByLayer
370
18
48
1
60
0
100
AcDbLine
10
-0.325
20
-14.881695
30
0
11
-0.325
21
-14.576174
31
0
39
0
210
0
220
0
230
1
0
LINE
5
E7
100
AcDbEntity
8
1
62
256
6
ByLayer
370
18
48
1
60
0
100
AcDbLine
10
7.775
20
-8.722907
30
0
11
7.775
21
8.717798
31
0
39
0
210
0
220
0
230
1
0
LINE
5
E8
100
AcDbEntity
8
1
62
256
6
ByLayer
370
18
48
1
60
0
100
AcDbLine
10
0.675
20
20
30
0
11
8.413615
21
20
31
0
39
0
210
0
220
0
230
1
0
LINE
5
E9
100
AcDbEntity
8
1
62
256
6
ByLayer
370
18
48
1
60
0
100
AcDbLine
10
-0.325
20
-18.790685
30
0
11
-0.325
21
-18.730719
31
0
39
0
210
0
220
0
230
1
0
LINE
5
EA
100
AcDbEntity
8
1
62
256
6
ByLayer
370
18
48
1
60
0
100
AcDbLine
10
-0.325
20
-13.55645
30
0
11
-0.325
21
-13.177721
31
0
39
0
210
0
220
0
230
1
0
LINE
5
EB
100
AcDbEntity
8
1
62
256
6
ByLayer
370
18
48
1
60
0
100
AcDbLine
10
-0.325
20
-18.954613
30
0
11
-0.325
21
-18.924913
31
0
39
0
210
0
220
0
230
1
0
LINE
5
EC
100
AcDbEntity
8
1
62
256
6
ByLayer
370
18
48
1
60
0
100
AcDbLine
10
-0.325
20
-16.832702
30
0
11
-0.325
21
-16.63099
31
0
39
0
210
0
220
0
230
1
0
LINE
5
ED
100
AcDbEntity
8
1
62
256
6
ByLayer
370
18
48
1
60
0
100
AcDbLine
10
17.499921
20
-6.211928
30
0
11
16.799518
21
-3.219267
31
0
39
0
210
0
220
0
230
1
0
LINE
5
EE
100
AcDbEntity
8
1
62
256
6
ByLayer
370
18
48
1
60
0
100
AcDbLine
10
7.175
20
-8.452365
30
0
11
7.175
21
-20
31
0
39
0
210
0
220
0
230
1
0
LINE
5
EF
100
AcDbEntity
8
1
62
256
6
ByLayer
370
18
48
1
60
0
100
AcDbLine
10
27.825518
20
-4.821432
30
0
11
28.275202
21
-5.558113
31
0
39
0
210
0
220
0
230
1
0
LINE
5
F0
100
AcDbEntity
8
1
62
256
6
ByLayer
370
18
48
1
60
0
100
AcDbLine
10
-0.325
20
5.496803
30
0
11
-0.325
21
-5.496803
31
0
39
0
210
0
220
0
230
1
0
LINE
5
F1
100
AcDbEntity
8
1
62
256
6
ByLayer
370
18
48
1
60
0
100
AcDbLine
10
-0.325
20
-11.899153
30
0
11
-0.325
21
-11.416648
31
0
39
0
210
0
220
0
230
1
0
LINE
5
F2
100
AcDbEntity
8
1
62
256
6
ByLayer
370
18
48
1
60
0
100
AcDbLine
10
-0.325
20
-9.741783
30
0
11
-0.325
21
-9.084456
31
0
39
0
210
0
220
0
230
1
0
LINE
5
F3
100
AcDbEntity
8
1
62
256
6
ByLayer
370
18
48
1
60
0
100
AcDbLine
10
-0.325
20
-6.61172
30
0
11
-0.325
21
-5.496803
31
0
39
0
210
0
220
0
230
1
0
LINE
5
F4
100
AcDbEntity
8
1
62
256
6
ByLayer
370
18
48
1
60
0
100
AcDbLine
10
34.379379
20
-14.776924
30
0
11
33.447346
21
2.28546
31
0
39
0
210
0
220
0
230
1
0
LINE
5
F5
100
AcDbEntity
8
1
62
256
6
ByLayer
370
18
48
1
60
0
100
AcDbLine
10
7.375
20
7.838367
30
0
11
7.375
21
-7.838367
31
0
39
0
210
0
220
0
230
1
0
LINE
5
F6
100
AcDbEntity
8
1
62
256
6
ByLayer
370
18
48
1
60
0
100
AcDbLine
10
-0.325
20
-17.536458
30
0
11
-0.325
21
-17.375337
31
0
39
0
210
0
220
0
230
1
0
LINE
5
F7
100
AcDbEntity
8
1
62
256
6
ByLayer
370
18
48
1
60
0
100
AcDbLine
10
-0.325
20
-19
30
0
11
-0.325
21
-18.999075
31
0
39
0
210
0
220
0
230
1
0
LINE
5
F8
100
AcDbEntity
8
1
62
256
6
ByLayer
370
18
48
1
60
0
100
AcDbLine
10
16.938345
20
-8.722907
30
0
11
15.765997
21
-3.71373
31
0
39
0
210
0
220
0
230
1
0
LINE
5
F9
100
AcDbEntity
8
1
62
256
6
ByLayer
370
18
48
1
60
0
100
AcDbLine
10
-0.325
20
-15.95783
30
0
11
-0.325
21
-15.709148
31
0
39
0
210
0
220
0
230
1
0
LINE
5
FA
100
AcDbEntity
8
1
62
256
6
ByLayer
370
18
48
1
60
0
100
AcDbLine
10
0.675
20
-20
30
0
11
0.675
21
20
31
0
39
0
210
0
220
0
230
1
0
LINE
5
FB
100
AcDbEntity
8
1
62
256
6
ByLayer
370
18
48
1
60
0
100
AcDbLine
10
-0.325
20
-18.504117
30
0
11
-0.325
21
-18.412695
31
0
39
0
210
0
220
0
230
1
0
LINE
5
FC
100
AcDbEntity
8
1
62
256
6
ByLayer
370
18
48
1
60
0
100
AcDbLine
10
7.858041
20
-20.267585
30
0
11
7.858041
21
-23.873716
31
0
39
0
210
0
220
0
230
1
0
LINE
5
FD
100
AcDbEntity
8
1
62
256
6
ByLayer
370
18
48
1
60
0
100
AcDbLine
10
-0.325
20
-18.089081
30
0
11
-0.325
21
-17.964266
31
0
39
0
210
0
220
0
230
1
0
LINE
5
FE
100
AcDbEntity
8
4
62
256
6
ByLayer
370
13
48
0.05
60
0
100
AcDbLine
10
0
20
0
30
0
11
36
21
0
31
0
39
0
210
0
220
0
230
1
0
LINE
5
100
100
AcDbEntity
8
SK4
62
256
6
ByLayer
370
13
48
0.05
60
0
100
AcDbLine
10
-5
20
0
30
0
11
41
21
0
31
0
39
0
210
0
220
0
230
1
0
LINE
5
102
100
AcDbEntity
8
80
62
256
6
ByLayer
370
13
48
1
60
0
100
AcDbLine
10
0
20
0
30
0
11
-3.6
21
0
31
0
39
0
210
0
220
0
230
1
0
LINE
5
103
100
AcDbEntity
8
81
62
256
6
ByLayer
370
13
48
1
60
0
100
AcDbLine
10
36
20
-30
30
0
11
39.6
21
-30
31
0
39
0
210
0
220
0
230
1
0
MTEXT
5
1C8
100
AcDbEntity
8
SK6
62
256
6
ByLayer
370
13
48
1
60
0
100
AcDbMText
10
-7.550374
20
-51.58643
30
0
210
0
220
0
230
1
1
\W1.0766;SL-PDUNL-40-15HP
40
3.175
41
0
44
0.903614
50
0
71
7
72
5
7
blockfont
0
DIMENSION
5
1D7
100
AcDbEntity
8
SK2
62
256
6
ByLayer
370
13
48
1
60
0
100
AcDbDimension
2
DimnDraft3D1
10
-15.811164
20
-20
30
0
11
-15.017414
21
1.064948
31
0
70
33
71
5
72
1
41
1
210
0
220
0
230
1
3
Standard
100
AcDbAlignedDimension
13
-0.9125
23
20
33
0
14
-0.9125
24
-20
34
0
1001
ACAD
1000
DSTYLE
1002
{
1070
   279
1070
     0
1070
    74
1070
     0
1070
   173
1070
     1
1070
   340
1005
1C9
1070
   271
1070
     3
1070
   272
1070
     3
1070
    77
1070
     1
1070
    73
1070
     0
1070
   171
1070
     4
1070
   274
1070
     4
1070
   177
1070
     7
1070
   176
1070
     7
1070
   178
1070
     7
1070
    78
1070
     8
1070
    48
1040
-0.005
1070
    41
1041
3.175
1070
   147
1041
1.5875
1070
    42
1041
1.5875
1070
    44
1041
3.175
1070
   140
1041
3.175
1070
   343
1005
0
1070
   344
1005
0
1002
}
0
DIMENSION
5
1E2
100
AcDbEntity
8
2
62
256
6
ByLayer
370
13
48
1
60
0
100
AcDbDimension
2
DimnDraft3D2
10
36.736385
20
36
30
0
11
36.736385
21
21.300677
31
0
70
32
71
5
72
1
41
1
210
0
220
0
230
1
3
Standard
100
AcDbAlignedDimension
13
1.5875
23
0
33
0
14
31.5875
24
36
34
0
50
90
100
AcDbRotatedDimension
1001
ACAD
1000
DSTYLE
1002
{
1070
    74
1070
     0
1070
   279
1070
     0
1070
   173
1070
     1
1070
   340
1005
1C9
1070
   271
1070
     3
1070
   272
1070
     3
1070
    77
1070
     1
1070
    73
1070
     0
1070
   171
1070
     4
1070
   274
1070
     4
1070
   177
1070
     7
1070
   176
1070
     7
1070
   178
1070
     7
1070
    78
1070
     8
1070
    48
1040
-0.005
1070
    41
1041
3.175
1070
   147
1041
1.5875
1070
    42
1041
1.5875
1070
    44
1041
3.175
1070
   140
1041
3.175
1070
   343
1005
0
1070
   344
1005
0
1002
}
0
DIMENSION
5
1EC
100
AcDbEntity
8
2
62
256
6
ByLayer
370
13
48
1
60
0
100
AcDbDimension
2
DimnDraft3D3
10
-30
20
-58.896663
30
0
11
-11.699323
21
-58.896663
31
0
70
32
71
5
72
1
41
1
210
0
220
0
230
1
3
Standard
100
AcDbAlignedDimension
13
0
23
-42.5875
33
0
14
-30
24
-37.5875
34
0
50
0
100
AcDbRotatedDimension
1001
ACAD
1000
DSTYLE
1002
{
1070
   279
1070
     0
1070
   173
1070
     1
1070
   340
1005
1C9
1070
   271
1070
     3
1070
   272
1070
     3
1070
    77
1070
     1
1070
    73
1070
     0
1070
   171
1070
     4
1070
   274
1070
     4
1070
   177
1070
     7
1070
   176
1070
     7
1070
   178
1070
     7
1070
    78
1070
     8
1070
    48
1040
-0.005
1070
    41
1041
3.175
1070
   147
1041
1.5875
1070
    42
1041
1.5875
1070
    44
1041
3.175
1070
   140
1041
3.175
1070
   343
1005
0
1070
   344
1005
0
1002
}
0
DIMENSION
5
1F7
100
AcDbEntity
8
SK2
62
256
6
ByLayer
370
13
48
1
60
0
100
AcDbDimension
2
DimnDraft3D4
10
36
20
-31
30
0
11
-36.814493
21
-45.372976
31
0
70
34
71
5
72
1
41
1
210
0
220
0
230
1
3
Standard
100
AcDb2LineAngularDimension
13
35.385772
23
-17.362686
33
0
14
35.998945
24
-29.062719
34
0
15
36
25
-30
35
0
16
-19.319215
26
-46.183752
36
0
40
0
0
ENDSEC
0
SECTION
2
OBJECTS
0
DICTIONARY
5
262
330
0
100
AcDbDictionary
280
0
281
1
3
ACAD_GROUP
350
263
3
ACAD_MLINESTYLE
350
264
0
DICTIONARY
5
263
330
0
100
AcDbDictionary
280
0
281
1
0
DICTIONARY
5
264
330
0
100
AcDbDictionary
280
0
281
1
3
Standard
350
18
0
MLINESTYLE
5
18
330
264
100
AcDbMlineStyle
2
Standard
70
0
3

62
256
51
90
52
90
71
2
49
-0.5
62
256
6
ByLayer
49
0.5
62
256
6
ByLayer
0
RASTERVARIABLES
5
250
330

100
AcDbRasterVariables
90
0
70
1
71
1
72
1
0
ENDSEC
0
EOF
