0
SECTION
2
HEADER
9
$ACADVER
1
AC1015
9
$DWGCODEPAGE
3
ANSI_1252
9
$HANDSEED
5
27e
9
$ANGBASE
50
0
9
$ANGDIR
70
0
9
$ATTMODE
70
1
9
$AUNITS
70
0
9
$AUPREC
70
0
9
$CECOLOR
62
256
9
$CELTSCALE
40
1
9
$CELTYPE
6
ByLayer
9
$CELWEIGHT
370
18
9
$CLAYER
8
0
9
$CMLJUST
70
0
9
$CMLSCALE
40
1
9
$CMLSTYLE
2
Standard
9
$DIMSTYLE
2
Standard
9
$TEXTSIZE
40
0.2
9
$TEXTSTYLE
7
Standard
9
$LUNITS
70
2
9
$LUPREC
70
4
9
$EXTNAMES
290
1
9
$INSUNITS
70
4
9
$LTSCALE
40
1
9
$LWDISPLAY
290
1
9
$PDMODE
70
0
9
$PDSIZE
40
0
9
$PLINEGEN
70
0
0
ENDSEC
0
SECTION
2
CLASSES
0
CLASS
1
RASTERVARIABLES
2
AcDbRasterVariables
3
ISM
90
0
280
0
281
0
0
ENDSEC
0
SECTION
2
TABLES
0
TABLE
2
VPORT
5
274
100
AcDbSymbolTable
0
VPORT
5
1
100
AcDbSymbolTableRecord
100
AcDbViewportTableRecord
2
*Active
70
0
10
0
20
0
11
1
21
1
12
-1
22
1
13
0
23
0
14
0.5
24
0.5
15
10
25
10
16
0
26
0
36
1
17
0
27
0
37
0
0
ENDTAB
0
TABLE
2
LTYPE
5
275
100
AcDbSymbolTable
0
LTYPE
5
14
100
AcDbSymbolTableRecord
100
AcDbLinetypeTableRecord
70
0
2
ByBlock
3

72
65
73
0
40
0
0
LTYPE
5
15
100
AcDbSymbolTableRecord
100
AcDbLinetypeTableRecord
70
0
2
ByLayer
3

72
65
73
0
40
0
0
LTYPE
5
16
100
AcDbSymbolTableRecord
100
AcDbLinetypeTableRecord
70
0
2
CONTINUOUS
3
Solid line
72
65
73
0
40
0
0
LTYPE
5
6A
100
AcDbSymbolTableRecord
100
AcDbLinetypeTableRecord
70
0
2
CENTER
3
____ _ ____ _ ____ _ ____
72
65
73
4
40
47.5
49
22
74
0
49
-8.5
74
0
49
8.5
74
0
49
-8.5
74
0
0
LTYPE
5
6B
100
AcDbSymbolTableRecord
100
AcDbLinetypeTableRecord
70
0
2
DASHED
3
__ __ __ __ __ __ __ __ __
72
65
73
2
40
25.72
49
12.86
74
0
49
-12.86
74
0
0
ENDTAB
0
TABLE
2
LAYER
5
276
100
AcDbSymbolTable
0
LAYER
5
10
100
AcDbSymbolTableRecord
100
AcDbLayerTableRecord
2
0
70
0
62
7
6
CONTINUOUS
290
1
370
-3
390
0
0
LAYER
5
6D
100
AcDbSymbolTableRecord
100
AcDbLayerTableRecord
2
80
70
0
62
-6
6
CONTINUOUS
290
1
370
-3
390
0
0
LAYER
5
6F
100
AcDbSymbolTableRecord
100
AcDbLayerTableRecord
2
81
70
0
62
-3
6
CONTINUOUS
290
1
370
-3
390
0
0
LAYER
5
71
100
AcDbSymbolTableRecord
100
AcDbLayerTableRecord
2
1
70
0
62
4
6
CONTINUOUS
290
1
370
-3
390
0
0
LAYER
5
100
100
AcDbSymbolTableRecord
100
AcDbLayerTableRecord
2
4
70
0
62
-2
6
CENTER
290
1
370
-3
390
0
0
LAYER
5
1E9
100
AcDbSymbolTableRecord
100
AcDbLayerTableRecord
2
2
70
0
62
7
6
CONTINUOUS
290
1
370
-3
390
0
0
LAYER
5
260
100
AcDbSymbolTableRecord
100
AcDbLayerTableRecord
2
SK1
70
0
62
4
6
CONTINUOUS
290
1
370
-3
390
0
0
LAYER
5
261
100
AcDbSymbolTableRecord
100
AcDbLayerTableRecord
2
SK4
70
0
62
2
6
CENTER
290
1
370
-3
390
0
0
LAYER
5
262
100
AcDbSymbolTableRecord
100
AcDbLayerTableRecord
2
SK6
70
0
62
5
6
CONTINUOUS
290
1
370
-3
390
0
0
LAYER
5
263
100
AcDbSymbolTableRecord
100
AcDbLayerTableRecord
2
SK2
70
0
62
7
6
CONTINUOUS
290
1
370
-3
390
0
0
ENDTAB
0
TABLE
2
STYLE
5
277
100
AcDbSymbolTable
0
STYLE
5
11
100
AcDbSymbolTableRecord
100
AcDbTextStyleTableRecord
2
Standard
3
txt
70
0
71
0
40
0
41
1
42
0
50
0
0
STYLE
5
1D8
100
AcDbSymbolTableRecord
100
AcDbTextStyleTableRecord
2
iso_b_vert
3
simplex.shx
70
0
71
0
40
0
41
1
42
0
50
0
0
STYLE
5
1D9
100
AcDbSymbolTableRecord
100
AcDbTextStyleTableRecord
2
DWGDirectTextStyle
3
simplex
70
0
71
0
40
0
41
1
42
0
50
0
0
ENDTAB
0
TABLE
2
DIMSTYLE
5
278
100
AcDbSymbolTable
100
AcDbDimStyleTable
0
DIMSTYLE
105
27
100
AcDbSymbolTableRecord
100
AcDbDimStyleTableRecord
2
Standard
70
0
3
<>
41
0.18
42
0.0625
44
0.18
140
0.18
147
0.09
73
0
74
0
77
1
271
2
275
0
278
52
280
0
340
11
0
ENDTAB
0
TABLE
2
VIEW
5
279
100
AcDbSymbolTable
0
ENDTAB
0
TABLE
2
UCS
5
27a
100
AcDbSymbolTable
0
ENDTAB
0
TABLE
2
APPID
5
27b
100
AcDbSymbolTable
0
APPID
5
12
100
AcDbSymbolTableRecord
100
AcDbRegAppTableRecord
2
ACAD
70
0
0
ENDTAB
0
TABLE
2
BLOCK_RECORD
5
27c
100
AcDbSymbolTable
0
BLOCK_RECORD
5
1F
100
AcDbSymbolTableRecord
100
AcDbBlockTableRecord
2
*Model_Space
340
0
70
0
0
BLOCK_RECORD
5
1B
100
AcDbSymbolTableRecord
100
AcDbBlockTableRecord
2
*Paper_Space
340
0
70
0
0
BLOCK_RECORD
5
23
100
AcDbSymbolTableRecord
100
AcDbBlockTableRecord
2
*Paper_Space0
340
0
70
0
0
BLOCK_RECORD
5
1DB
100
AcDbSymbolTableRecord
100
AcDbBlockTableRecord
2
DimnDraft3D1
340
0
70
0
0
BLOCK_RECORD
5
1E7
100
AcDbSymbolTableRecord
100
AcDbBlockTableRecord
2
DimnDraft3D2
340
0
70
0
0
BLOCK_RECORD
5
1F2
100
AcDbSymbolTableRecord
100
AcDbBlockTableRecord
2
DimnDraft3D3
340
0
70
0
0
BLOCK_RECORD
5
1FC
100
AcDbSymbolTableRecord
100
AcDbBlockTableRecord
2
DimnDraft3D4
340
0
70
0
0
ENDTAB
0
ENDSEC
0
SECTION
2
BLOCKS
0
BLOCK
5
20
100
AcDbEntity
8
0
100
AcDbBlockBegin
2
*Model_Space
70
0
10
0
20
0
30
0
3
*Model_Space
0
ENDBLK
5
21
100
AcDbEntity
8
0
100
AcDbBlockEnd
0
BLOCK
5
1C
100
AcDbEntity
8
0
100
AcDbBlockBegin
2
*Paper_Space
70
0
10
0
20
0
30
0
3
*Paper_Space
0
ENDBLK
5
1D
100
AcDbEntity
8
0
100
AcDbBlockEnd
0
BLOCK
5
24
100
AcDbEntity
8
0
100
AcDbBlockBegin
2
*Paper_Space0
70
0
10
0
20
0
30
0
3
*Paper_Space0
0
ENDBLK
5
25
100
AcDbEntity
8
0
100
AcDbBlockEnd
0
BLOCK
5
1E4
100
AcDbEntity
8
0
100
AcDbBlockBegin
2
DimnDraft3D1
70
0
10
0
20
0
30
0
3
DimnDraft3D1
0
MTEXT
5
1DC
100
AcDbEntity
8
SK2
62
256
6
ByLayer
370
13
48
1
60
0
100
AcDbMText
10
-15.262251
20
3.137401
30
0
210
0
220
0
230
1
1
\W0.7183;40
40
3.175
41
0
44
1.084337
50
90
71
7
72
5
7
iso_b_vert
0
MTEXT
5
1DE
100
AcDbEntity
8
SK2
62
256
6
ByLayer
370
13
48
1
60
0
100
AcDbMText
10
-15.262251
20
-3.981544
30
0
210
0
220
0
230
1
1
%%c
40
3.175
41
0
44
1.084337
50
90
71
7
72
5
7
iso_b_vert
0
LINE
5
1DF
100
AcDbEntity
8
SK2
62
256
6
ByLayer
370
13
48
1
60
0
100
AcDbLine
10
-0.9125
20
-20
30
0
11
-16.849751
21
-20
31
0
39
0
210
0
220
0
230
1
0
LINE
5
1E0
100
AcDbEntity
8
SK2
62
256
6
ByLayer
370
13
48
1
60
0
100
AcDbLine
10
-0.9125
20
20
30
0
11
-16.849751
21
20
31
0
39
0
210
0
220
0
230
1
0
LINE
5
1E1
100
AcDbEntity
8
SK2
62
256
6
ByLayer
370
13
48
1
60
0
100
AcDbLine
10
-13.674751
20
-20
30
0
11
-13.674751
21
20
31
0
39
0
210
0
220
0
230
1
0
SOLID
5
1E2
100
AcDbEntity
8
SK2
62
256
6
ByLayer
370
13
48
1
60
0
100
AcDbTrace
10
-13.674751
20
-20
30
0
11
-14.092748
21
-16.825002
31
0
12
-13.256755
22
-16.824998
32
0
13
-13.674751
23
-20
33
0
39
0
210
0
220
0
230
1
0
SOLID
5
1E3
100
AcDbEntity
8
SK2
62
256
6
ByLayer
370
13
48
1
60
0
100
AcDbTrace
10
-13.674751
20
20
30
0
11
-13.256755
21
16.825002
31
0
12
-14.092748
22
16.824998
32
0
13
-13.674751
23
20
33
0
39
0
210
0
220
0
230
1
0
ENDBLK
5
1E5
100
AcDbEntity
8
0
100
AcDbBlockEnd
0
BLOCK
5
1EF
100
AcDbEntity
8
0
100
AcDbBlockBegin
2
DimnDraft3D2
70
0
10
0
20
0
30
0
3
DimnDraft3D2
0
MTEXT
5
1E8
100
AcDbEntity
8
2
62
256
6
ByLayer
370
13
48
1
60
0
100
AcDbMText
10
46.646669
20
-14.561118
30
0
210
0
220
0
230
1
1
\W0.6563;27
40
3.175
41
0
44
1.084337
50
90
71
7
72
5
7
iso_b_vert
0
LINE
5
1EA
100
AcDbEntity
8
2
62
256
6
ByLayer
370
13
48
1
60
0
100
AcDbLine
10
40.5875
20
0
30
0
11
50.615419
21
0
31
0
39
0
210
0
220
0
230
1
0
LINE
5
1EB
100
AcDbEntity
8
2
62
256
6
ByLayer
370
13
48
1
60
0
100
AcDbLine
10
40.5875
20
-27
30
0
11
50.615419
21
-27
31
0
39
0
210
0
220
0
230
1
0
LINE
5
1EC
100
AcDbEntity
8
2
62
256
6
ByLayer
370
13
48
1
60
0
100
AcDbLine
10
47.440419
20
0
30
0
11
47.440419
21
-27
31
0
39
0
210
0
220
0
230
1
0
SOLID
5
1ED
100
AcDbEntity
8
2
62
256
6
ByLayer
370
13
48
1
60
0
100
AcDbTrace
10
47.440419
20
0
30
0
11
47.858416
21
-3.174998
31
0
12
47.022423
22
-3.175002
32
0
13
47.440419
23
0
33
0
39
0
210
0
220
0
230
1
0
SOLID
5
1EE
100
AcDbEntity
8
2
62
256
6
ByLayer
370
13
48
1
60
0
100
AcDbTrace
10
47.440419
20
-27
30
0
11
47.022423
21
-23.825002
31
0
12
47.858416
22
-23.824998
32
0
13
47.440419
23
-27
33
0
39
0
210
0
220
0
230
1
0
ENDBLK
5
1F0
100
AcDbEntity
8
0
100
AcDbBlockEnd
0
BLOCK
5
1F9
100
AcDbEntity
8
0
100
AcDbBlockBegin
2
DimnDraft3D3
70
0
10
0
20
0
30
0
3
DimnDraft3D3
0
MTEXT
5
1F3
100
AcDbEntity
8
2
62
256
6
ByLayer
370
13
48
1
60
0
100
AcDbMText
10
16.438882
20
-36.954577
30
0
210
0
220
0
230
1
1
\W0.6563;35
40
3.175
41
0
44
1.084337
50
0
71
7
72
5
7
iso_b_vert
0
LINE
5
1F4
100
AcDbEntity
8
2
62
256
6
ByLayer
370
13
48
1
60
0
100
AcDbLine
10
0
20
-1.5875
30
0
11
0
21
-40.923327
31
0
39
0
210
0
220
0
230
1
0
LINE
5
1F5
100
AcDbEntity
8
2
62
256
6
ByLayer
370
13
48
1
60
0
100
AcDbLine
10
35
20
-28.5875
30
0
11
35
21
-40.923327
31
0
39
0
210
0
220
0
230
1
0
LINE
5
1F6
100
AcDbEntity
8
2
62
256
6
ByLayer
370
13
48
1
60
0
100
AcDbLine
10
0
20
-37.748327
30
0
11
35
21
-37.748327
31
0
39
0
210
0
220
0
230
1
0
SOLID
5
1F7
100
AcDbEntity
8
2
62
256
6
ByLayer
370
13
48
1
60
0
100
AcDbTrace
10
0
20
-37.748327
30
0
11
3.174998
21
-37.33033
31
0
12
3.175002
22
-38.166324
32
0
13
0
23
-37.748327
33
0
39
0
210
0
220
0
230
1
0
SOLID
5
1F8
100
AcDbEntity
8
2
62
256
6
ByLayer
370
13
48
1
60
0
100
AcDbTrace
10
35
20
-37.748327
30
0
11
31.825002
21
-38.166324
31
0
12
31.824998
22
-37.33033
32
0
13
35
23
-37.748327
33
0
39
0
210
0
220
0
230
1
0
ENDBLK
5
1FA
100
AcDbEntity
8
0
100
AcDbBlockEnd
0
BLOCK
5
204
100
AcDbEntity
8
0
100
AcDbBlockBegin
2
DimnDraft3D4
70
0
10
0
20
0
30
0
3
DimnDraft3D4
0
MTEXT
5
1FD
100
AcDbEntity
8
SK2
62
256
6
ByLayer
370
13
48
1
60
0
100
AcDbMText
10
24.941132
20
11.889758
30
0
210
0
220
0
230
1
1
\W0.8385;95%%d
40
3.175
41
0
44
1.084337
50
24.8152305052659
71
7
72
5
7
iso_b_vert
0
LINE
5
1FE
100
AcDbEntity
8
SK2
62
256
6
ByLayer
370
13
48
1
60
0
100
AcDbLine
10
40.5875
20
0
30
0
11
49.157065
21
0
31
0
39
0
210
0
220
0
230
1
0
LINE
5
1FF
100
AcDbEntity
8
SK2
62
256
6
ByLayer
370
13
48
1
60
0
100
AcDbLine
10
33.890215
20
-13.382481
30
0
11
31.286763
21
16.375116
31
0
39
0
210
0
220
0
230
1
0
ARC
5
200
100
AcDbEntity
8
SK2
62
256
6
ByLayer
370
13
48
1
60
0
100
AcDbCircle
39
0
10
32.7194
20
0
30
0
40
13.2626657899277
210
0
220
0
230
1
100
AcDbArc
50
95
51
126.999863
0
ARC
5
201
100
AcDbEntity
8
SK2
62
256
6
ByLayer
370
13
48
1
60
0
100
AcDbCircle
39
0
10
32.7194
20
0
30
0
40
13.2626657899277
210
0
220
0
230
1
100
AcDbArc
50
0
51
95
0
SOLID
5
202
100
AcDbEntity
8
SK2
62
256
6
ByLayer
370
13
48
1
60
0
100
AcDbTrace
10
45.982065
20
0
30
0
11
45.375803
21
3.144484
31
0
12
46.210313
22
3.194254
32
0
13
45.982065
23
0
33
0
39
0
210
0
220
0
230
1
0
SOLID
5
203
100
AcDbEntity
8
SK2
62
256
6
ByLayer
370
13
48
1
60
0
100
AcDbTrace
10
31.563482
20
13.212197
30
0
11
34.725685
21
13.717974
31
0
12
34.748843
22
12.882302
32
0
13
31.563482
23
13.212197
33
0
39
0
210
0
220
0
230
1
0
ENDBLK
5
205
100
AcDbEntity
8
0
100
AcDbBlockEnd
0
ENDSEC
0
SECTION
2
ENTITIES
0
ARC
5
105
100
AcDbEntity
8
1
62
256
6
ByLayer
370
18
48
1
60
0
100
AcDbCircle
39
0
10
18.572832
20
12.777066
30
0
40
10.2
210
0
220
0
230
1
100
AcDbArc
50
202.068157
51
233.460583
0
ARC
5
106
100
AcDbEntity
8
1
62
256
6
ByLayer
370
18
48
1
60
0
100
AcDbCircle
39
0
10
12.779058
20
-2.957827
30
0
40
5.80000000000006
210
0
220
0
230
1
100
AcDbArc
50
355.892304
51
35.907287
0
ARC
5
107
100
AcDbEntity
8
1
62
256
6
ByLayer
370
18
48
1
60
0
100
AcDbCircle
39
0
10
18.572832
20
12.777066
30
0
40
10.2000000000871
210
0
220
0
230
1
100
AcDbArc
50
254.466289
51
270
0
ARC
5
108
100
AcDbEntity
8
1
62
256
6
ByLayer
370
18
48
1
60
0
100
AcDbCircle
39
0
10
18.572832
20
12.777066
30
0
40
10.1999999999732
210
0
220
0
230
1
100
AcDbArc
50
233.460583
51
247.866376
0
ARC
5
109
100
AcDbEntity
8
1
62
256
6
ByLayer
370
18
48
1
60
0
100
AcDbCircle
39
0
10
12.873154
20
-3.088302
30
0
40
4.99999999999953
210
0
220
0
230
1
100
AcDbArc
50
355.892304
51
35.907287
0
ARC
5
10A
100
AcDbEntity
8
1
62
256
6
ByLayer
370
18
48
1
60
0
100
AcDbCircle
39
0
10
26.072832
20
-3.422934
30
0
40
5.99999999999983
210
0
220
0
230
1
100
AcDbArc
50
5
51
90
0
ELLIPSE
5
10B
100
AcDbEntity
8
1
62
256
6
ByLayer
370
18
48
1
60
0
100
AcDbEllipse
10
19.364379
20
-14.630927
30
0
11
-2.0277069161054
21
-1.46232850699792
31
0
210
0
220
0
230
1
40
0.979574
41
0.334652625969733
42
1.6681986420032
0
ELLIPSE
5
10C
100
AcDbEntity
8
1
62
256
6
ByLayer
370
18
48
1
60
0
100
AcDbEllipse
10
19.571958
20
-17.702235
30
0
11
-0.0101815995071325
21
-0.149654051169192
31
0
210
0
220
0
230
1
40
0.129984
41
-1.72615545654831
42
-0.143723601403423
0
ELLIPSE
5
10D
100
AcDbEntity
8
1
62
256
6
ByLayer
370
18
48
1
60
0
100
AcDbEllipse
10
20.64866
20
-16.503675
30
0
11
-2.02770691610793
21
-1.46232850699444
31
0
210
0
220
0
230
1
40
0.979574
41
0.0567154084099051
42
0.867910788403408
0
ELLIPSE
5
10E
100
AcDbEntity
8
1
62
256
6
ByLayer
370
18
48
1
60
0
100
AcDbEllipse
10
15.870509
20
-20.803952
30
0
11
-0.481129279206906
21
-1.52594712120003
31
0
210
0
220
0
230
1
40
0.331272
41
0.576285697938821
42
1.51723692053308
0
ELLIPSE
5
10F
100
AcDbEntity
8
1
62
256
6
ByLayer
370
18
48
1
60
0
100
AcDbEllipse
10
18.071939
20
-11.667914
30
0
11
-0.797944936756522
21
0.0573051298285212
31
0
210
0
220
0
230
1
40
0.15555
41
-1.44143564680993
42
0
0
ELLIPSE
5
110
100
AcDbEntity
8
1
62
256
6
ByLayer
370
18
48
1
60
0
100
AcDbEllipse
10
19.784361
20
-15.305213
30
0
11
-2.09705829243735
21
-1.51234288198927
31
0
210
0
220
0
230
1
40
0.979574
41
0.32670062301841
42
0.867910788485557
0
ELLIPSE
5
111
100
AcDbEntity
8
1
62
256
6
ByLayer
370
18
48
1
60
0
100
AcDbEllipse
10
17.588081
20
-18.40539
30
0
11
-0.797944936756725
21
0.0573051298285547
31
0
210
0
220
0
230
1
40
0.15555
41
-1.4414356468097
42
0
0
ELLIPSE
5
112
100
AcDbEntity
8
1
62
256
6
ByLayer
370
18
48
1
60
0
100
AcDbEllipse
10
21.090542
20
-18.212523
30
0
11
-0.151790006538786
21
0.013064546458493
31
0
210
0
220
0
230
1
40
0.139907
41
-1.44332986814671
42
0.139101986993158
0
ELLIPSE
5
113
100
AcDbEntity
8
1
62
256
6
ByLayer
370
18
48
1
60
0
100
AcDbEllipse
10
20.305336
20
-15.935685
30
0
11
-2.02770684007792
21
-1.46232833475785
31
0
210
0
220
0
230
1
40
0.979574
41
3.73131309939565E-08
42
0.0564493652467873
0
ELLIPSE
5
114
100
AcDbEntity
8
1
62
256
6
ByLayer
370
18
48
1
60
0
100
AcDbEllipse
10
15.870509
20
-20.803952
30
0
11
-0.481129279206259
21
-1.52594712119629
31
0
210
0
220
0
230
1
40
0.331272
41
1.51723692053399
42
2.3485422957249
0
ELLIPSE
5
115
100
AcDbEntity
8
1
62
256
6
ByLayer
370
18
48
1
60
0
100
AcDbEllipse
10
20.709649
20
-15.814656
30
0
11
-2.02770691615199
21
-1.46232850692414
31
0
210
0
220
0
230
1
40
0.979574
41
-2.2736818651537
42
-1.82647929109293
0
ELLIPSE
5
116
100
AcDbEntity
8
1
62
256
6
ByLayer
370
18
48
1
60
0
100
AcDbEllipse
10
18.421542
20
-6.799871
30
0
11
-0.797944936756576
21
0.0573051298285354
31
0
210
0
220
0
230
1
40
0.15555
41
-1.44143564680986
42
0
0
ELLIPSE
5
117
100
AcDbEntity
8
1
62
256
6
ByLayer
370
18
48
1
60
0
100
AcDbEllipse
10
20.64866
20
-16.503675
30
0
11
-2.02770691665773
21
-1.46232850671109
31
0
210
0
220
0
230
1
40
0.979574
41
-0.215362232061213
42
0.0567154086227729
0
ELLIPSE
5
118
100
AcDbEntity
8
1
62
256
6
ByLayer
370
18
48
1
60
0
100
AcDbEllipse
10
19.766513
20
-15.280464
30
0
11
-1.97540411298755
21
-1.42460911093445
31
0
210
0
220
0
230
1
40
0.979574
41
0.164632633204975
42
0.86791078844744
0
ELLIPSE
5
119
100
AcDbEntity
8
1
62
256
6
ByLayer
370
18
48
1
60
0
100
AcDbEllipse
10
19.423188
20
-14.712474
30
0
11
-2.02770691610223
21
-1.46232850700283
31
0
210
0
220
0
230
1
40
0.979574
41
0.312999220549132
42
1.64288390199467
0
ELLIPSE
5
11A
100
AcDbEntity
8
1
62
256
6
ByLayer
370
18
48
1
60
0
100
AcDbEllipse
10
20.305336
20
-15.935685
30
0
11
-2.02770691610591
21
-1.46232850699699
31
0
210
0
220
0
230
1
40
0.979574
41
-1.99587919191459
42
0
0
ELLIPSE
5
11B
100
AcDbEntity
8
1
62
256
6
ByLayer
370
18
48
1
60
0
100
AcDbEllipse
10
15.825516
20
-20.789766
30
0
11
-0.49616456917876
21
-1.57363296872856
31
0
210
0
220
0
230
1
40
0.331272
41
1.50260504226963
42
2.19200968621667
0
ELLIPSE
5
11C
100
AcDbEntity
8
1
62
256
6
ByLayer
370
18
48
1
60
0
100
AcDbEllipse
10
17.570963
20
0.313255
30
0
11
-0.647973648264593
21
-0.469180297066161
31
0
210
0
220
0
230
1
40
0.201082
41
-1.57117936893274
42
-1.38031129666603E-15
0
ELLIPSE
5
11D
100
AcDbEntity
8
1
62
256
6
ByLayer
370
18
48
1
60
0
100
AcDbEllipse
10
32.683167
20
-14.270585
30
0
11
-0.643999716444953
21
-0.464435534036234
31
0
210
0
220
0
230
1
40
0.979574
41
3.1415926532959
42
-2.64437332494992
0
ELLIPSE
5
11E
100
AcDbEntity
8
1
62
256
6
ByLayer
370
18
48
1
60
0
100
AcDbEllipse
10
28.071124
20
-20.096893
30
0
11
-1.50050311793404
21
-1.08212309515216
31
0
210
0
220
0
230
1
40
0.979574
41
-2.18080819414314
42
-1.49418063485842
0
ELLIPSE
5
11F
100
AcDbEntity
8
1
62
256
6
ByLayer
370
18
48
1
60
0
100
AcDbEllipse
10
26.694974
20
-18.188684
30
0
11
-2.31158588735277
21
-1.66705449376382
31
0
210
0
220
0
230
1
40
0.979574
41
2.50990796130977
42
2.56407771594716
0
ELLIPSE
5
120
100
AcDbEntity
8
1
62
256
6
ByLayer
370
18
48
1
60
0
100
AcDbEllipse
10
23.89482
20
-8.538719
30
0
11
-1.40483656062278
21
-1.0131309085879
31
0
210
0
220
0
230
1
40
0.979574
41
2.78995462716222
42
-2.44603312882065
0
ELLIPSE
5
121
100
AcDbEntity
8
1
62
256
6
ByLayer
370
18
48
1
60
0
100
AcDbEllipse
10
33.243037
20
-15.046916
30
0
11
-0.643999716579472
21
-0.464435533800396
31
0
210
0
220
0
230
1
40
0.979574
41
2.61309517811027
42
3.14159265358979
0
ELLIPSE
5
122
100
AcDbEntity
8
1
62
256
6
ByLayer
370
18
48
1
60
0
100
AcDbEllipse
10
28.1464
20
-20.201274
30
0
11
-2.092593537422
21
-1.50912301922
31
0
210
0
220
0
230
1
40
0.979574
41
0
42
3.14159265358979
0
ELLIPSE
5
123
100
AcDbEntity
8
1
62
256
6
ByLayer
370
18
48
1
60
0
100
AcDbEllipse
10
26.834078
20
-18.38157
30
0
11
-2.2507546007347
21
-1.62318476793398
31
0
210
0
220
0
230
1
40
0.979574
41
0.517629099551817
42
0.598918473966406
0
ELLIPSE
5
124
100
AcDbEntity
8
1
62
256
6
ByLayer
370
18
48
1
60
0
100
AcDbEllipse
10
28.008167
20
-19.102556
30
0
11
-2.10881519257034
21
-1.52082164740665
31
0
210
0
220
0
230
1
40
0.979574
41
-0.254723947179375
42
0
0
ELLIPSE
5
125
100
AcDbEntity
8
1
62
256
6
ByLayer
370
18
48
1
60
0
100
AcDbEllipse
10
26.981408
20
-19.492901
30
0
11
-2.10881514714812
21
-1.52082192946916
31
0
210
0
220
0
230
1
40
0.979574
41
-3.06338795000021
42
-3.03430448984877
0
ELLIPSE
5
126
100
AcDbEntity
8
1
62
256
6
ByLayer
370
18
48
1
60
0
100
AcDbEllipse
10
27.586531
20
-19.424943
30
0
11
-2.09259353745467
21
-1.50912301916689
31
0
210
0
220
0
230
1
40
0.979574
41
0.190513201059255
42
0.720608217530714
0
ELLIPSE
5
127
100
AcDbEntity
8
1
62
256
6
ByLayer
370
18
48
1
60
0
100
AcDbEllipse
10
27.498935
20
-20.210518
30
0
11
-2.10881519272547
21
-1.52082164732094
31
0
210
0
220
0
230
1
40
0.979574
41
3.14159265358979
42
-2.4061047148009
0
ELLIPSE
5
128
100
AcDbEntity
8
1
62
256
6
ByLayer
370
18
48
1
60
0
100
AcDbEllipse
10
28.584503
20
-19.901721
30
0
11
-1.70327380952972
21
-1.22835594587653
31
0
210
0
220
0
230
1
40
0.979574
41
-1.24498847798599
42
0.711592302542978
0
ELLIPSE
5
129
100
AcDbEntity
8
1
62
256
6
ByLayer
370
18
48
1
60
0
100
AcDbEllipse
10
28.012314
20
-20.015346
30
0
11
-1.90604450113466
21
-1.37458879658536
31
0
210
0
220
0
230
1
40
0.979574
41
0.934005248920499
42
1.67419122921703
0
ELLIPSE
5
12A
100
AcDbEntity
8
1
62
256
6
ByLayer
370
18
48
1
60
0
100
AcDbEllipse
10
23.89482
20
-8.538719
30
0
11
-1.40483656062909
21
-1.01313090858085
31
0
210
0
220
0
230
1
40
0.979574
41
1.74275707597124
42
2.78995462716757
0
ELLIPSE
5
12B
100
AcDbEntity
8
1
62
256
6
ByLayer
370
18
48
1
60
0
100
AcDbEllipse
10
27.538379
20
-19.515871
30
0
11
-1.90604450162106
21
-1.37458879443637
31
0
210
0
220
0
230
1
40
0.979574
41
3.1409944702018
42
-2.98373439303174
0
ELLIPSE
5
12C
100
AcDbEntity
8
1
62
256
6
ByLayer
370
18
48
1
60
0
100
AcDbEllipse
10
28.525693
20
-19.820173
30
0
11
-2.10881519274471
21
-1.52082164728353
31
0
210
0
220
0
230
1
40
0.979574
41
-1.26888411425618
42
0
0
ELLIPSE
5
12D
100
AcDbEntity
8
1
62
256
6
ByLayer
370
18
48
1
60
0
100
AcDbEllipse
10
34.211511
20
-26.116631
30
0
11
-0.643999716556107
21
-0.464435533821274
31
0
210
0
220
0
230
1
40
0.979574
41
0.867765926076038
42
2.61309517806999
0
ELLIPSE
5
12E
100
AcDbEntity
8
1
62
256
6
ByLayer
370
18
48
1
60
0
100
AcDbEllipse
10
27.586531
20
-19.424943
30
0
11
-2.09259353740532
21
-1.50912301923979
31
0
210
0
220
0
230
1
40
0.979574
41
2.28580057566713
42
2.95107945254776
0
ELLIPSE
5
12F
100
AcDbEntity
8
1
62
256
6
ByLayer
370
18
48
1
60
0
100
AcDbEllipse
10
23.89482
20
-8.538719
30
0
11
-1.40483656062254
21
-1.01313090858885
31
0
210
0
220
0
230
1
40
0.979574
41
0.695559524768542
42
1.74275707596517
0
ELLIPSE
5
130
100
AcDbEntity
8
1
62
256
6
ByLayer
370
18
48
1
60
0
100
AcDbEllipse
10
25.688086
20
-16.004824
30
0
11
-2.02770691585295
21
-1.46232850739528
31
0
210
0
220
0
230
1
40
0.979574
41
-2.27368186537451
42
-1.92551584410465
0
ELLIPSE
5
131
100
AcDbEntity
8
1
62
256
6
ByLayer
370
18
48
1
60
0
100
AcDbEllipse
10
26.834078
20
-18.38157
30
0
11
-2.25075463613009
21
-1.623184690883
31
0
210
0
220
0
230
1
40
0.979574
41
2.53755801103827
42
2.6239634788938
0
ELLIPSE
5
132
100
AcDbEntity
8
1
62
256
6
ByLayer
370
18
48
1
60
0
100
AcDbEllipse
10
23.424341
20
-7.88634
30
0
11
-1.21662414965541
21
-0.877397104207407
31
0
210
0
220
0
230
1
40
0.979574
41
2.26635585155424
42
2.91226038390805
0
ELLIPSE
5
133
100
AcDbEntity
8
1
62
256
6
ByLayer
370
18
48
1
60
0
100
AcDbEllipse
10
28.524314
20
-16.197785
30
0
11
-2.02770691648144
21
-1.4623285063965
31
0
210
0
220
0
230
1
40
0.979574
41
-2.62184788617993
42
-2.27368186490286
0
ELLIPSE
5
134
100
AcDbEntity
8
1
62
256
6
ByLayer
370
18
48
1
60
0
100
AcDbEllipse
10
28.1464
20
-20.201274
30
0
11
-2.09259353742356
21
-1.50912301921733
31
0
210
0
220
0
230
1
40
0.979574
41
3.14159265358979
42
-2.09929380231446
0
ELLIPSE
5
135
100
AcDbEntity
8
1
62
256
6
ByLayer
370
18
48
1
60
0
100
AcDbEllipse
10
28.1464
20
-20.201274
30
0
11
-2.09259353742159
21
-1.50912301922054
31
0
210
0
220
0
230
1
40
0.979574
41
-2.09929380231596
42
0
0
ELLIPSE
5
136
100
AcDbEntity
8
1
62
256
6
ByLayer
370
18
48
1
60
0
100
AcDbEllipse
10
28.525693
20
-19.820173
30
0
11
-2.1088151927576
21
-1.52082164726472
31
0
210
0
220
0
230
1
40
0.979574
41
0
42
0.73548793881416
0
ELLIPSE
5
137
100
AcDbEntity
8
1
62
256
6
ByLayer
370
18
48
1
60
0
100
AcDbEllipse
10
27.557745
20
-20.292066
30
0
11
-1.7032738095299
21
-1.22835594587634
31
0
210
0
220
0
230
1
40
0.979574
41
1.89660417560393
42
-2.4300003510467
0
ELLIPSE
5
138
100
AcDbEntity
8
1
62
256
6
ByLayer
370
18
48
1
60
0
100
AcDbEllipse
10
23.424341
20
-7.88634
30
0
11
-1.21662414966043
21
-0.877397104201403
31
0
210
0
220
0
230
1
40
0.979574
41
1.21915830036283
42
2.26635585155993
0
ELLIPSE
5
139
100
AcDbEntity
8
1
62
256
6
ByLayer
370
18
48
1
60
0
100
AcDbEllipse
10
26.981408
20
-19.492901
30
0
11
-2.10881518709245
21
-1.52082160774438
31
0
210
0
220
0
230
1
40
0.979574
41
-3.1415926427569
42
-3.0633878405424
0
ELLIPSE
5
13A
100
AcDbEntity
8
1
62
256
6
ByLayer
370
18
48
1
60
0
100
AcDbEllipse
10
27.440648
20
-19.222675
30
0
11
-2.25088051264896
21
-1.62303010246696
31
0
210
0
220
0
230
1
40
0.979575
41
2.22782467600065
42
2.23906504821195
0
ELLIPSE
5
13B
100
AcDbEntity
8
1
62
256
6
ByLayer
370
18
48
1
60
0
100
AcDbEllipse
10
28.071124
20
-20.096893
30
0
11
-1.50050311792667
21
-1.08212309516529
31
0
210
0
220
0
230
1
40
0.979574
41
0.960784459438983
42
1.64741201872306
0
ELLIPSE
5
13C
100
AcDbEntity
8
1
62
256
6
ByLayer
370
18
48
1
60
0
100
AcDbEllipse
10
27.498935
20
-20.210518
30
0
11
-2.10881519274506
21
-1.52082164728302
31
0
210
0
220
0
230
1
40
0.979574
41
1.87270853933384
42
3.14159265358979
0
ELLIPSE
5
13D
100
AcDbEntity
8
1
62
256
6
ByLayer
370
18
48
1
60
0
100
AcDbEllipse
10
28.012314
20
-20.015346
30
0
11
-1.90604450116606
21
-1.37458879653367
31
0
210
0
220
0
230
1
40
0.979574
41
-2.20758740464437
42
-1.76525467983913
0
ELLIPSE
5
13E
100
AcDbEntity
8
1
62
256
6
ByLayer
370
18
48
1
60
0
100
AcDbEllipse
10
23.89482
20
-8.538719
30
0
11
-2.57316007653924
21
-1.8556948753781
31
0
210
0
220
0
230
1
40
0.979574
41
0
42
6.28318530717959
0
ELLIPSE
5
13F
100
AcDbEntity
8
1
62
256
6
ByLayer
370
18
48
1
60
0
100
AcDbEllipse
10
23.049764
20
-25.355632
30
0
11
-0.643999716558719
21
-0.464435533815982
31
0
210
0
220
0
230
1
40
0.979574
41
0
42
0.867765926083517
0
ELLIPSE
5
140
100
AcDbEntity
8
1
62
256
6
ByLayer
370
18
48
1
60
0
100
AcDbEllipse
10
49.383147
20
-5
30
0
11
-38.1051177663919
21
3.85105202132285E-14
31
0
210
0
220
0
230
1
40
0.57735
41
0.253934244257796
42
0.551189780026707
0
ELLIPSE
5
141
100
AcDbEntity
8
1
62
256
6
ByLayer
370
18
48
1
60
0
100
AcDbEllipse
10
23.306721
20
-7.723245
30
0
11
-1.21662414966394
21
-0.877397104197711
31
0
210
0
220
0
230
1
40
0.979574
41
0.18829029516068
42
2.86374215906736
0
ELLIPSE
5
142
100
AcDbEntity
8
1
62
256
6
ByLayer
370
18
48
1
60
0
100
AcDbEllipse
10
23.820135
20
-8.43516
30
0
11
-3.24433106577048
21
-2.33972561119387
31
0
210
0
220
0
230
1
40
0.979574
41
3.14159265358979
42
-1.39883557762507
0
ELLIPSE
5
143
100
AcDbEntity
8
1
62
256
6
ByLayer
370
18
48
1
60
0
100
AcDbEllipse
10
23.89482
20
-8.538719
30
0
11
-1.40483656062238
21
-1.01313090858915
31
0
210
0
220
0
230
1
40
0.979574
41
-0.351638026428239
42
0.695559524768358
0
ELLIPSE
5
144
100
AcDbEntity
8
1
62
256
6
ByLayer
370
18
48
1
60
0
100
AcDbEllipse
10
23.89482
20
-8.538719
30
0
11
-1.40483656062325
21
-1.01313090858773
31
0
210
0
220
0
230
1
40
0.979574
41
-2.44603312882051
42
-1.39883557762384
0
ELLIPSE
5
145
100
AcDbEntity
8
1
62
256
6
ByLayer
370
18
48
1
60
0
100
AcDbEllipse
10
23.755861
20
-8.346036
30
0
11
-3.24433106577081
21
-2.33972561119346
31
0
210
0
220
0
230
1
40
0.979574
41
-1.83749441451642
42
-4.53349323124195E-16
0
ELLIPSE
5
146
100
AcDbEntity
8
1
62
256
6
ByLayer
370
18
48
1
60
0
100
AcDbEllipse
10
23.820135
20
-8.43516
30
0
11
-3.24433106576989
21
-2.33972561119455
31
0
210
0
220
0
230
1
40
0.979574
41
-1.39883557762531
42
-1.36004796937262E-15
0
ELLIPSE
5
147
100
AcDbEntity
8
1
62
256
6
ByLayer
370
18
48
1
60
0
100
AcDbEllipse
10
23.89482
20
-8.538719
30
0
11
-1.40483656062888
21
-1.01313090858111
31
0
210
0
220
0
230
1
40
0.979574
41
-1.39883557761875
42
-0.351638026422415
0
ELLIPSE
5
148
100
AcDbEntity
8
1
62
256
6
ByLayer
370
18
48
1
60
0
100
AcDbEllipse
10
18.658255
20
-3.503765
30
0
11
-0.79794493675645
21
0.0573051298285139
31
0
210
0
220
0
230
1
40
0.15555
41
-1.44143564681002
42
0
0
ELLIPSE
5
149
100
AcDbEntity
8
1
62
256
6
ByLayer
370
18
48
1
60
0
100
AcDbEllipse
10
23.424341
20
-7.88634
30
0
11
-1.21662415444343
21
-0.877397089498141
31
0
210
0
220
0
230
1
40
0.979574
41
0.0631568757900783
42
0.171960759052398
0
ELLIPSE
5
14A
100
AcDbEntity
8
1
62
256
6
ByLayer
370
18
48
1
60
0
100
AcDbEllipse
10
23.755861
20
-8.346036
30
0
11
-3.24433106577089
21
-2.33972561119323
31
0
210
0
220
0
230
1
40
0.979574
41
3.14159265358979
42
-1.83749441451636
0
ELLIPSE
5
14B
100
AcDbEntity
8
1
62
256
6
ByLayer
370
18
48
1
60
0
100
AcDbEllipse
10
23.820135
20
-8.43516
30
0
11
-3.24433106577054
21
-2.3397256111938
31
0
210
0
220
0
230
1
40
0.979574
41
0
42
3.14159265358979
0
ELLIPSE
5
14C
100
AcDbEntity
8
1
62
256
6
ByLayer
370
18
48
1
60
0
100
AcDbEllipse
10
23.424341
20
-7.88634
30
0
11
-1.21662414965602
21
-0.877397104210237
31
0
210
0
220
0
230
1
40
0.979574
41
0.171960749160167
42
1.21915830035635
0
POINT
5
6C
100
AcDbEntity
8
80
62
256
6
ByLayer
370
13
48
1
60
0
100
AcDbPoint
10
0
20
0
30
0
39
0
210
0
220
0
230
1
50
360
0
POINT
5
6E
100
AcDbEntity
8
81
62
256
6
ByLayer
370
13
48
1
60
0
100
AcDbPoint
10
35
20
-27
30
0
39
0
210
0
220
0
230
1
50
360
0
SPLINE
5
14D
100
AcDbEntity
8
1
62
256
6
ByLayer
370
18
48
1
60
0
100
AcDbSpline
70
4
71
1
72
4
73
2
40
0
40
0
40
1
40
1
41
1
10
0.343278579257493
20
-13.7398159364994
30
0
41
1
10
-0.324999999999997
20
-13.177721493111
30
0
0
SPLINE
5
14E
100
AcDbEntity
8
1
62
256
6
ByLayer
370
18
48
1
60
0
100
AcDbSpline
70
4
71
1
72
4
73
2
40
0
40
0
40
1
40
1
41
1
10
0.343278579257494
20
-19.5180034570805
30
0
41
1
10
-0.324999999999997
20
-18.7906850260974
30
0
0
SPLINE
5
14F
100
AcDbEntity
8
1
62
256
6
ByLayer
370
18
48
1
60
0
100
AcDbSpline
70
4
71
3
72
11
73
7
40
0
40
0
40
0
40
0
40
0.455277467965051
40
0.748092018745101
40
0.975425944721864
40
1
40
1
40
1
40
1
41
1
10
0.343278579257494
20
-18.408216543415
30
0
41
1
10
0.369026073613007
20
-18.4409191423207
30
0
41
1
10
0.403746503369588
20
-18.4900822569192
30
0
41
1
10
0.436759025524848
20
-18.5483177102066
30
0
41
1
10
0.444919717714687
20
-18.5731380551661
30
0
41
1
10
0.445271557367969
20
-18.5814001836208
30
0
41
1
10
0.445278373861644
20
-18.582182295171
30
0
0
SPLINE
5
150
100
AcDbEntity
8
1
62
256
6
ByLayer
370
18
48
1
60
0
100
AcDbSpline
70
4
71
3
72
12
73
8
40
0
40
0
40
0
40
0
40
0.113059226448266
40
0.323831645108301
40
0.534188431358643
40
0.850864934530772
40
1
40
1
40
1
40
1
41
1
10
0.445278468411718
20
-19.6418037281452
30
0
41
1
10
0.445271165196069
20
-19.6428210297956
30
0
41
1
10
0.443697816345598
20
-19.6441064822078
30
0
41
1
10
0.433045219822713
20
-19.6379893403632
30
0
41
1
10
0.407150383624623
20
-19.6172219236935
30
0
41
1
10
0.375020908965661
20
-19.5884258899332
30
0
41
1
10
0.351214610347976
20
-19.5662010690747
30
0
41
1
10
0.343278579257493
20
-19.5586932485776
30
0
0
SPLINE
5
151
100
AcDbEntity
8
1
62
256
6
ByLayer
370
18
48
1
60
0
100
AcDbSpline
70
4
71
3
72
13
73
9
40
0
40
0
40
0
40
0
40
0.0024029464345149
40
0.220422091111969
40
0.439620029859832
40
0.635378278998902
40
0.897417111599243
40
1
40
1
40
1
40
1
41
1
10
0.445278578418586
20
-17.9666666294273
30
0
41
1
10
0.445278612290266
20
-17.9667425564784
30
0
41
1
10
0.445260830136243
20
-17.9736863103222
30
0
41
1
10
0.441798294547946
20
-17.984526171688
30
0
41
1
10
0.424758854576719
20
-17.9867261735207
30
0
41
1
10
0.396546020232322
20
-17.9748097612436
30
0
41
1
10
0.3678841585387
20
-17.9549767034586
30
0
41
1
10
0.348768969728398
20
-17.9395722557827
30
0
41
1
10
0.343278579257493
20
-17.93495223803
30
0
0
SPLINE
5
152
100
AcDbEntity
8
1
62
256
6
ByLayer
370
18
48
1
60
0
100
AcDbSpline
70
4
71
1
72
4
73
2
40
0
40
0
40
1
40
1
41
1
10
0.343278579257493
20
-19.6599204994536
30
0
41
1
10
-0.324999999999997
20
-18.9990748130008
30
0
0
SPLINE
5
153
100
AcDbEntity
8
1
62
256
6
ByLayer
370
18
48
1
60
0
100
AcDbSpline
70
4
71
1
72
4
73
2
40
0
40
0
40
1
40
1
41
1
10
0.343278579257494
20
-19.6464364834369
30
0
41
1
10
-0.324999999999997
20
-18.9546127301509
30
0
0
SPLINE
5
154
100
AcDbEntity
8
1
62
256
6
ByLayer
370
18
48
1
60
0
100
AcDbSpline
70
4
71
1
72
4
73
2
40
0
40
0
40
1
40
1
41
1
10
0.343278579257493
20
-19.0026970897866
30
0
41
1
10
-0.324999999999997
20
-18.4126951788705
30
0
0
SPLINE
5
155
100
AcDbEntity
8
1
62
256
6
ByLayer
370
18
48
1
60
0
100
AcDbSpline
70
4
71
1
72
4
73
2
40
0
40
0
40
1
40
1
41
1
10
18.3616770168827
20
-17.5077491944848
30
0
41
1
10
18.1549106526723
20
-17.2257262910695
30
0
0
SPLINE
5
156
100
AcDbEntity
8
1
62
256
6
ByLayer
370
18
48
1
60
0
100
AcDbSpline
70
4
71
3
72
14
73
10
40
0
40
0
40
0
40
0
40
0.0605632236412927
40
0.307519264854605
40
0.484474450975088
40
0.612939291301899
40
0.74211671375474
40
0.85886845540328
40
1
40
1
40
1
40
1
41
1
10
0.445276896732483
20
-11.9488597401227
30
0
41
1
10
0.445308180126562
20
-11.9530012942195
30
0
41
1
10
0.444949509029538
20
-11.9736364097296
30
0
41
1
10
0.441407325024671
20
-12.0044481419012
30
0
41
1
10
0.42858644833432
20
-12.0317704696501
30
0
41
1
10
0.411080162647438
20
-12.0436672363703
30
0
41
1
10
0.390593562774662
20
-12.0432369588891
30
0
41
1
10
0.367046751533776
20
-12.0322192974105
30
0
41
1
10
0.35173497246464
20
-12.0207974910253
30
0
41
1
10
0.343278579257493
20
-12.0130158376653
30
0
0
SPLINE
5
157
100
AcDbEntity
8
1
62
256
6
ByLayer
370
18
48
1
60
0
100
AcDbSpline
70
4
71
1
72
4
73
2
40
0
40
0
40
1
40
1
41
1
10
7.42770645701794
20
-23.7016822631189
30
0
41
1
10
7.55507235321392
20
-24.2126682759003
30
0
0
SPLINE
5
158
100
AcDbEntity
8
1
62
256
6
ByLayer
370
18
48
1
60
0
100
AcDbSpline
70
4
71
3
72
10
73
6
40
0
40
0
40
0
40
0
40
0.651018237634396
40
0.941688302691966
40
1
40
1
40
1
40
1
41
1
10
0.343278579257494
20
-9.11879287402914
30
0
41
1
10
0.382101841517208
20
-9.23907725816407
30
0
41
1
10
0.421163780593172
20
-9.40863650215756
30
0
41
1
10
0.44376706835877
20
-9.58683530372371
30
0
41
1
10
0.445166123407127
20
-9.64607128163214
30
0
41
1
10
0.44527007483905
20
-9.65592105805466
30
0
0
SPLINE
5
159
100
AcDbEntity
8
1
62
256
6
ByLayer
370
18
48
1
60
0
100
AcDbSpline
70
4
71
3
72
15
73
11
40
0
40
0
40
0
40
0
40
0.117414995638778
40
0.234830034642802
40
0.35505204670048
40
0.475274124461431
40
0.604568990232262
40
0.733863960978934
40
0.866931917790831
40
1
40
1
40
1
40
1
41
1
10
14.8218417211393
20
-24.7203574786407
30
0
41
1
10
15.0042968335602
20
-24.5083847754476
30
0
41
1
10
15.3522226290853
20
-24.0725080929899
30
0
41
1
10
15.8283218098862
20
-23.3756556222347
30
0
41
1
10
16.2529220664373
20
-22.640061672787
30
0
41
1
10
16.6320315163836
20
-21.8497776908414
30
0
41
1
10
16.9540292118682
20
-21.0126959177617
30
0
41
1
10
17.2141599933813
20
-20.1243702932019
30
0
41
1
10
17.3997752019412
20
-19.2094288707339
30
0
41
1
10
17.4714229209445
20
-18.5877585390361
30
0
41
1
10
17.4939854399122
20
-18.274914319851
30
0
0
SPLINE
5
15A
100
AcDbEntity
8
1
62
256
6
ByLayer
370
18
48
1
60
0
100
AcDbSpline
70
4
71
1
72
4
73
2
40
0
40
0
40
1
40
1
41
1
10
0.343278579257494
20
-16.9794705811172
30
0
41
1
10
-0.324999999999997
20
-15.9578301704837
30
0
0
SPLINE
5
15B
100
AcDbEntity
8
1
62
256
6
ByLayer
370
18
48
1
60
0
100
AcDbSpline
70
4
71
3
72
14
73
10
40
0
40
0
40
0
40
0
40
0.299554993682676
40
0.447283097937015
40
0.596044430847677
40
0.688952772893072
40
0.782416656876132
40
0.867545661811767
40
1
40
1
40
1
40
1
41
1
10
0.44527007483905
20
-9.65592105805466
30
0
41
1
10
0.446192164981633
20
-9.6817559410662
30
0
41
1
10
0.44349180119086
20
-9.71727095479038
30
0
41
1
10
0.433535456889537
20
-9.76042813944191
30
0
41
1
10
0.421216896446771
20
-9.78346809508261
30
0
41
1
10
0.404473571750943
20
-9.79444121536336
30
0
41
1
10
0.387118592193603
20
-9.79454649011402
30
0
41
1
10
0.365809949670609
20
-9.78467054375279
30
0
41
1
10
0.351744098655167
20
-9.77332644485802
30
0
41
1
10
0.343278579257493
20
-9.76435133857411
30
0
0
SPLINE
5
15C
100
AcDbEntity
8
1
62
256
6
ByLayer
370
18
48
1
60
0
100
AcDbSpline
70
4
71
2
72
6
73
3
40
0
40
0
40
0
40
1
40
1
40
1
41
1
10
0.343278579257494
20
-11.54046753934
30
0
41
1
10
0.437514128700354
20
-11.7594541353348
30
0
41
1
10
0.445276896732483
20
-11.9488597401227
30
0
0
SPLINE
5
15D
100
AcDbEntity
8
1
62
256
6
ByLayer
370
18
48
1
60
0
100
AcDbSpline
70
4
71
3
72
13
73
9
40
0
40
0
40
0
40
0
40
0.495007406069566
40
0.646058807279804
40
0.84666162628999
40
0.915204513999172
40
0.984433183737026
40
1
40
1
40
1
40
1
41
1
10
6.275
20
-7.83836717690617
30
0
41
1
10
6.26758105417693
20
-8.01331528528419
30
0
41
1
10
6.29898926806962
20
-8.23136401296494
30
0
41
1
10
6.39989631953047
20
-8.50268143974259
30
0
41
1
10
6.48113531503568
20
-8.62893847716368
30
0
41
1
10
6.58164955072361
20
-8.69947646212533
30
0
41
1
10
6.63765986983246
20
-8.71644162241378
30
0
41
1
10
6.66915457445951
20
-8.71777896612733
30
0
41
1
10
6.67499999999999
20
-8.71779788708134
30
0
0
SPLINE
5
15E
100
AcDbEntity
8
1
62
256
6
ByLayer
370
18
48
1
60
0
100
AcDbSpline
70
4
71
3
72
10
73
6
40
0
40
0
40
0
40
0
40
0.65680385875968
40
0.992209999913104
40
1
40
1
40
1
40
1
41
1
10
0.343278579257494
20
-13.3683356695468
30
0
41
1
10
0.383346644876845
20
-13.4481664582863
30
0
41
1
10
0.424160423914371
20
-13.5603947550811
30
0
41
1
10
0.44510344037874
20
-13.6702822609787
30
0
41
1
10
0.445277002774484
20
-13.7031393535352
30
0
41
1
10
0.445278504389577
20
-13.7038837939876
30
0
0
SPLINE
5
15F
100
AcDbEntity
8
1
62
256
6
ByLayer
370
18
48
1
60
0
100
AcDbSpline
70
4
71
3
72
10
73
6
40
0
40
0
40
0
40
0
40
0.373562299847983
40
0.900072767599849
40
1
40
1
40
1
40
1
41
1
10
0.343278579257494
20
-5.34998840487794
30
0
41
1
10
0.363838197270985
20
-5.4642419760453
30
0
41
1
10
0.405239346638612
20
-5.73819331918356
30
0
41
1
10
0.440494413061704
20
-6.04371842445939
30
0
41
1
10
0.44485812075245
20
-6.23002569633094
30
0
41
1
10
0.445254773774903
20
-6.25968037350801
30
0
0
SPLINE
5
160
100
AcDbEntity
8
1
62
256
6
ByLayer
370
18
48
1
60
0
100
AcDbSpline
70
4
71
1
72
4
73
2
40
0
40
0
40
1
40
1
41
1
10
0.343278579257494
20
-18.9048259409171
30
0
41
1
10
-0.324999999999997
20
-18.0890807878676
30
0
0
SPLINE
5
161
100
AcDbEntity
8
1
62
256
6
ByLayer
370
18
48
1
60
0
100
AcDbSpline
70
4
71
1
72
4
73
2
40
0
40
0
40
1
40
1
41
1
10
0.343278579257493
20
-6.47090137540592
30
0
41
1
10
-0.325
20
-5.49680304813625
30
0
0
SPLINE
5
162
100
AcDbEntity
8
1
62
256
6
ByLayer
370
18
48
1
60
0
100
AcDbSpline
70
4
71
3
72
11
73
7
40
0
40
0
40
0
40
0
40
0.358759991097666
40
0.635283454213878
40
0.861255451520039
40
1
40
1
40
1
40
1
41
1
10
0.343278579257494
20
-19.6464364834369
30
0
41
1
10
0.363063141795498
20
-19.6667641633906
30
0
41
1
10
0.3937157891845
20
-19.6986286683902
30
0
41
1
10
0.427776069172771
20
-19.7349699059508
30
0
41
1
10
0.442851656513414
20
-19.7520465092696
30
0
41
1
10
0.445184076096933
20
-19.7555139734217
30
0
41
1
10
0.445278578549443
20
-19.7560469117246
30
0
0
SPLINE
5
163
100
AcDbEntity
8
1
62
256
6
ByLayer
370
18
48
1
60
0
100
AcDbSpline
70
4
71
3
72
11
73
7
40
0
40
0
40
0
40
0
40
0.335803928316592
40
0.644688862436778
40
0.882105351003141
40
1
40
1
40
1
40
1
41
1
10
0.343278579257494
20
-19.2723234562802
30
0
41
1
10
0.361724512446028
20
-19.2932157893378
30
0
41
1
10
0.392979421002155
20
-19.3302981334022
30
0
41
1
10
0.427886283965298
20
-19.3761074374814
30
0
41
1
10
0.4431186826265
20
-19.4014992680017
30
0
41
1
10
0.445169825212168
20
-19.4092708404394
30
0
41
1
10
0.445278434846712
20
-19.4113263027234
30
0
0
SPLINE
5
164
100
AcDbEntity
8
1
62
256
6
ByLayer
370
18
48
1
60
0
100
AcDbSpline
70
4
71
1
72
4
73
2
40
0
40
0
40
1
40
1
41
1
10
0.343278579257493
20
-17.93495223803
30
0
41
1
10
-0.324999999999997
20
-17.3753372269432
30
0
0
SPLINE
5
165
100
AcDbEntity
8
1
62
256
6
ByLayer
370
18
48
1
60
0
100
AcDbSpline
70
4
71
2
72
6
73
3
40
0
40
0
40
0
40
1
40
1
40
1
41
1
10
16.4277993024043
20
-20.3835068436271
30
0
41
1
10
16.3911294803812
20
-20.7276579183402
30
0
41
1
10
16.3117970768859
20
-21.060974355743
30
0
0
SPLINE
5
166
100
AcDbEntity
8
1
62
256
6
ByLayer
370
18
48
1
60
0
100
AcDbSpline
70
4
71
2
72
6
73
3
40
0
40
0
40
0
40
1
40
1
40
1
41
1
10
0.343278579257494
20
-9.11879287402914
30
0
41
1
10
-0.0372097028531902
20
-7.88173052791113
30
0
41
1
10
-0.324999999999997
20
-6.61172018086065
30
0
0
SPLINE
5
167
100
AcDbEntity
8
1
62
256
6
ByLayer
370
18
48
1
60
0
100
AcDbSpline
70
4
71
1
72
4
73
2
40
0
40
0
40
1
40
1
41
1
10
0.343278579257494
20
-18.408216543415
30
0
41
1
10
-0.324999999999997
20
-17.536457559895
30
0
0
SPLINE
5
168
100
AcDbEntity
8
1
62
256
6
ByLayer
370
18
48
1
60
0
100
AcDbSpline
70
4
71
3
72
14
73
10
40
0
40
0
40
0
40
0
40
0.20231521616304
40
0.360286285761984
40
0.519040589318979
40
0.638174860332655
40
0.757297120217169
40
0.878657530244953
40
1
40
1
40
1
40
1
41
1
10
14.5967029220543
20
-23.9806294772124
30
0
41
1
10
14.8205830337193
20
-23.6999699388392
30
0
41
1
10
15.1978732630966
20
-23.1642725744913
30
0
41
1
10
15.6932658086937
20
-22.3010343387952
30
0
41
1
10
16.057366325473
20
-21.5071612561807
30
0
41
1
10
16.3388086391022
20
-20.7292545918633
30
0
41
1
10
16.5479842790147
20
-19.982817016659
30
0
41
1
10
16.7058146298478
20
-19.1901626888566
30
0
41
1
10
16.7687763325574
20
-18.6331431815925
30
0
41
1
10
16.7901362046298
20
-18.3480850056427
30
0
0
SPLINE
5
169
100
AcDbEntity
8
1
62
256
6
ByLayer
370
18
48
1
60
0
100
AcDbSpline
70
4
71
1
72
4
73
2
40
0
40
0
40
1
40
1
41
1
10
0.343278579257494
20
-17.7716749003053
30
0
41
1
10
-0.324999999999997
20
-16.8327016176845
30
0
0
SPLINE
5
16A
100
AcDbEntity
8
1
62
256
6
ByLayer
370
18
48
1
60
0
100
AcDbSpline
70
4
71
3
72
10
73
6
40
0
40
0
40
0
40
0
40
0.559758535487897
40
0.830946843984554
40
1
40
1
40
1
40
1
41
1
10
0.343278579257494
20
-16.008510663641
30
0
41
1
10
0.375835000962208
20
-16.060685868099
30
0
41
1
10
0.412443345063811
20
-16.1327878433732
30
0
41
1
10
0.441035997145796
20
-16.2154682416438
30
0
41
1
10
0.444826546848869
20
-16.2457297423429
30
0
41
1
10
0.445276670197082
20
-16.2567364954148
30
0
0
SPLINE
5
16B
100
AcDbEntity
8
1
62
256
6
ByLayer
370
18
48
1
60
0
100
AcDbSpline
70
4
71
3
72
13
73
9
40
0
40
0
40
0
40
0
40
0.159607261899436
40
0.349187475059776
40
0.540335686754466
40
0.708570849786559
40
0.906245943491981
40
1
40
1
40
1
40
1
41
1
10
0.44526800846513
20
-15.107879944568
30
0
41
1
10
0.445533112871727
20
-15.1163304117451
30
0
41
1
10
0.444034984519171
20
-15.1327570849863
30
0
41
1
10
0.435734230516101
20
-15.1531534626681
30
0
41
1
10
0.417359714532155
20
-15.1621557382594
30
0
41
1
10
0.390388826186602
20
-15.1565162597834
30
0
41
1
10
0.364703298225912
20
-15.1413052454988
30
0
41
1
10
0.348542417165279
20
-15.1289371124905
30
0
41
1
10
0.343278579257493
20
-15.1245672474212
30
0
0
SPLINE
5
16C
100
AcDbEntity
8
1
62
256
6
ByLayer
370
18
48
1
60
0
100
AcDbSpline
70
4
71
3
72
16
73
12
40
0
40
0
40
0
40
0
40
0.0897902745323765
40
0.179671250145823
40
0.313387573591604
40
0.446850017903309
40
0.537685963913186
40
0.629258460794357
40
0.720868083302372
40
0.860645453732073
40
1
40
1
40
1
40
1
41
1
10
17.9778432897862
20
-11.5374385899803
30
0
41
1
10
17.9866920646195
20
-11.3895696963021
30
0
41
1
10
17.9919790333458
20
-11.0944286343575
30
0
41
1
10
17.951651926349
20
-10.5808729404257
30
0
41
1
10
17.8618220710542
20
-10.0033160830675
30
0
41
1
10
17.7835748766685
20
-9.41945254230998
30
0
41
1
10
17.819273221561
20
-8.89818065540342
30
0
41
1
10
17.917957615527
20
-8.45590402401562
30
0
41
1
10
18.0669077684523
20
-7.94365887438983
30
0
41
1
10
18.2371205907673
20
-7.3537725782281
30
0
41
1
10
18.3041753090659
20
-6.8986067450296
30
0
41
1
10
18.327446190383
20
-6.66939509646923
30
0
0
SPLINE
5
16D
100
AcDbEntity
8
1
62
256
6
ByLayer
370
18
48
1
60
0
100
AcDbSpline
70
4
71
1
72
4
73
2
40
0
40
0
40
1
40
1
41
1
10
0.343278579257493
20
-15.1245672474212
30
0
41
1
10
-0.324999999999997
20
-14.576173837808
30
0
0
SPLINE
5
16E
100
AcDbEntity
8
1
62
256
6
ByLayer
370
18
48
1
60
0
100
AcDbSpline
70
4
71
1
72
4
73
2
40
0
40
0
40
1
40
1
41
1
10
0.343278579257494
20
-14.8237109429722
30
0
41
1
10
-0.324999999999997
20
-13.5564502636199
30
0
0
SPLINE
5
16F
100
AcDbEntity
8
1
62
256
6
ByLayer
370
18
48
1
60
0
100
AcDbSpline
70
4
71
3
72
10
73
6
40
0
40
0
40
0
40
0
40
0.484210272283969
40
0.775759891235521
40
1
40
1
40
1
40
1
41
1
10
0.343278579257494
20
-17.7716749003053
30
0
41
1
10
0.37093468321943
20
-17.8092687365537
30
0
41
1
10
0.406316377930563
20
-17.8644963146343
30
0
41
1
10
0.439142429592595
20
-17.9312355204878
30
0
41
1
10
0.444593960116146
20
-17.9567526878108
30
0
41
1
10
0.445278578418586
20
-17.9666666294273
30
0
0
SPLINE
5
170
100
AcDbEntity
8
1
62
256
6
ByLayer
370
18
48
1
60
0
100
AcDbSpline
70
4
71
3
72
10
73
6
40
0
40
0
40
0
40
0
40
0.518472063503951
40
0.804388165633803
40
1
40
1
40
1
40
1
41
1
10
0.343278579257494
20
-16.9794705811172
30
0
41
1
10
0.373154006176411
20
-17.0233146114617
30
0
41
1
10
0.409283392479336
20
-17.0861615294962
30
0
41
1
10
0.440133018209675
20
-17.1601050191044
30
0
41
1
10
0.444724835053302
20
-17.1881338076274
30
0
41
1
10
0.445278221262948
20
-17.1986612353246
30
0
0
SPLINE
5
171
100
AcDbEntity
8
1
62
256
6
ByLayer
370
18
48
1
60
0
100
AcDbSpline
70
4
71
3
72
12
73
8
40
0
40
0
40
0
40
0
40
0.0913045395198084
40
0.295810713110142
40
0.508386110235186
40
0.83732201544231
40
1
40
1
40
1
40
1
41
1
10
0.445278578549443
20
-19.7560469117246
30
0
41
1
10
0.445262417292108
20
-19.756309718114
30
0
41
1
10
0.444044050287304
20
-19.7559688236375
30
0
41
1
10
0.434766909727384
20
-19.7480947933916
30
0
41
1
10
0.409788268894083
20
-19.7247469505837
30
0
41
1
10
0.376945690915789
20
-19.6929519463802
30
0
41
1
10
0.351945112408202
20
-19.6684507021715
30
0
41
1
10
0.343278579257493
20
-19.6599204994536
30
0
0
SPLINE
5
172
100
AcDbEntity
8
1
62
256
6
ByLayer
370
18
48
1
60
0
100
AcDbSpline
70
4
71
3
72
12
73
8
40
0
40
0
40
0
40
0
40
0.187849722409093
40
0.406096223022265
40
0.606677343128154
40
0.88242520230969
40
1
40
1
40
1
40
1
41
1
10
0.445278373861644
20
-18.582182295171
30
0
41
1
10
0.445354275577671
20
-18.5873012849739
30
0
41
1
10
0.442418788951844
20
-18.5948579492662
30
0
41
1
10
0.427384545505933
20
-18.5950746114104
30
0
41
1
10
0.399754942025973
20
-18.5813626775011
30
0
41
1
10
0.370009658110753
20
-18.5596731756002
30
0
41
1
10
0.349555716544853
20
-18.5427287095651
30
0
41
1
10
0.343278579257493
20
-18.5373273217393
30
0
0
SPLINE
5
173
100
AcDbEntity
8
1
62
256
6
ByLayer
370
18
48
1
60
0
100
AcDbSpline
70
4
71
2
72
6
73
3
40
0
40
0
40
0
40
1
40
1
40
1
41
1
10
16.3117970768859
20
-21.060974355743
30
0
41
1
10
16.4155102457563
20
-20.6817176691739
30
0
41
1
10
16.4523692188405
20
-20.316420364454
30
0
0
SPLINE
5
174
100
AcDbEntity
8
1
62
256
6
ByLayer
370
18
48
1
60
0
100
AcDbSpline
70
4
71
1
72
4
73
2
40
0
40
0
40
1
40
1
41
1
10
0.343278579257494
20
-11.54046753934
30
0
41
1
10
-0.324999999999997
20
-9.74178339679137
30
0
0
SPLINE
5
175
100
AcDbEntity
8
1
62
256
6
ByLayer
370
18
48
1
60
0
100
AcDbSpline
70
4
71
1
72
4
73
2
40
0
40
0
40
1
40
1
41
1
10
0.343278579257494
20
-13.3683356695468
30
0
41
1
10
-0.324999999999997
20
-11.8991530686011
30
0
0
SPLINE
5
176
100
AcDbEntity
8
1
62
256
6
ByLayer
370
18
48
1
60
0
100
AcDbSpline
70
4
71
2
72
6
73
3
40
0
40
0
40
0
40
1
40
1
40
1
41
1
10
14.5967029220543
20
-23.9806294772124
30
0
41
1
10
11.1108170645336
20
-23.0335933851756
30
0
41
1
10
7.55507235321392
20
-21.927070715855
30
0
0
SPLINE
5
177
100
AcDbEntity
8
1
62
256
6
ByLayer
370
18
48
1
60
0
100
AcDbSpline
70
4
71
1
72
4
73
2
40
0
40
0
40
1
40
1
41
1
10
0.343278579257493
20
-18.5373273217393
30
0
41
1
10
-0.324999999999997
20
-17.9642657448057
30
0
0
SPLINE
5
178
100
AcDbEntity
8
1
62
256
6
ByLayer
370
18
48
1
60
0
100
AcDbSpline
70
4
71
1
72
4
73
2
40
0
40
0
40
1
40
1
41
1
10
0.343278579257494
20
-16.008510663641
30
0
41
1
10
-0.324999999999997
20
-14.8816949219503
30
0
0
SPLINE
5
179
100
AcDbEntity
8
1
62
256
6
ByLayer
370
18
48
1
60
0
100
AcDbSpline
70
4
71
1
72
4
73
2
40
0
40
0
40
1
40
1
41
1
10
0.343278579257493
20
-17.1811675775406
30
0
41
1
10
-0.324999999999997
20
-16.6309904620861
30
0
0
SPLINE
5
17A
100
AcDbEntity
8
1
62
256
6
ByLayer
370
18
48
1
60
0
100
AcDbSpline
70
4
71
3
72
15
73
11
40
0
40
0
40
0
40
0
40
0.112224794907132
40
0.2244496182542
40
0.338950175903844
40
0.453450758970427
40
0.588093103101606
40
0.722735478812041
40
0.861367736164062
40
1
40
1
40
1
40
1
41
1
10
7.55507235321392
20
-21.927070715855
30
0
41
1
10
7.53380556086746
20
-21.5984037227628
30
0
41
1
10
7.49059195764234
20
-20.9153917239976
30
0
41
1
10
7.42317743604459
20
-19.8040647323335
30
0
41
1
10
7.35342941991073
20
-18.6111465429502
30
0
41
1
10
7.27735650269948
20
-17.2666294135508
30
0
41
1
10
7.19538060122132
20
-15.7705758436178
30
0
41
1
10
7.10687704069633
20
-14.1045161636119
30
0
41
1
10
7.01655513187628
20
-12.3541154764084
30
0
41
1
10
6.95572752111397
20
-11.1421704974801
30
0
41
1
10
6.92525453837166
20
-10.5267074029393
30
0
0
SPLINE
5
17B
100
AcDbEntity
8
1
62
256
6
ByLayer
370
18
48
1
60
0
100
AcDbSpline
70
4
71
1
72
4
73
2
40
0
40
0
40
1
40
1
41
1
10
6.92525453837166
20
-10.5267074029393
30
0
41
1
10
6.775
20
-8.71779788708134
30
0
0
SPLINE
5
17C
100
AcDbEntity
8
1
62
256
6
ByLayer
370
18
48
1
60
0
100
AcDbSpline
70
4
71
3
72
13
73
9
40
0
40
0
40
0
40
0
40
0.0873567378976985
40
0.296858699439848
40
0.508074974984264
40
0.688110788012749
40
0.912198191410038
40
1
40
1
40
1
40
1
41
1
10
0.445276670197082
20
-16.2567364954148
30
0
41
1
10
0.445339899564486
20
-16.2606390439808
30
0
41
1
10
0.444580912207135
20
-16.2729312134249
30
0
41
1
10
0.438424514079114
20
-16.2898822237654
30
0
41
1
10
0.419738195308084
20
-16.2967894116176
30
0
41
1
10
0.391459944511334
20
-16.2886249735698
30
0
41
1
10
0.364940634045398
20
-16.2719559799678
30
0
41
1
10
0.348088072651029
20
-16.2588832613771
30
0
41
1
10
0.343278579257493
20
-16.2549231580666
30
0
0
SPLINE
5
17D
100
AcDbEntity
8
1
62
256
6
ByLayer
370
18
48
1
60
0
100
AcDbSpline
70
4
71
1
72
4
73
2
40
0
40
0
40
1
40
1
41
1
10
0.343278579257494
20
-19.2723234562802
30
0
41
1
10
-0.324999999999997
20
-18.5041169405622
30
0
0
SPLINE
5
17E
100
AcDbEntity
8
1
62
256
6
ByLayer
370
18
48
1
60
0
100
AcDbSpline
70
4
71
3
72
11
73
7
40
0
40
0
40
0
40
0
40
0.348035506514961
40
0.640076464216769
40
0.871815324061515
40
1
40
1
40
1
40
1
41
1
10
0.343278579257494
20
-19.5180034570805
30
0
41
1
10
0.362416222255319
20
-19.5385967369063
30
0
41
1
10
0.393343170400364
20
-19.5729181572726
30
0
41
1
10
0.427810772268246
20
-19.6138083693233
30
0
41
1
10
0.442967164178414
20
-19.6348645808948
30
0
41
1
10
0.445169801744641
20
-19.6404569289245
30
0
41
1
10
0.445278468411718
20
-19.6418037281452
30
0
0
SPLINE
5
17F
100
AcDbEntity
8
1
62
256
6
ByLayer
370
18
48
1
60
0
100
AcDbSpline
70
4
71
3
72
13
73
9
40
0
40
0
40
0
40
0
40
0.211239836146844
40
0.437215282717663
40
0.583955171835651
40
0.73107482008926
40
0.873919040341109
40
1
40
1
40
1
40
1
41
1
10
0.445278504389577
20
-13.7038837939876
30
0
41
1
10
0.445688851265107
20
-13.7167474564222
30
0
41
1
10
0.443068049652197
20
-13.739811111766
30
0
41
1
10
0.431765630142756
20
-13.7646456286708
30
0
41
1
10
0.411795084235746
20
-13.7735944024665
30
0
41
1
10
0.3894027009434
20
-13.7700321534603
30
0
41
1
10
0.365680656375293
20
-13.7573277574272
30
0
41
1
10
0.3504894692267
20
-13.7459997836923
30
0
41
1
10
0.343278579257493
20
-13.7398159364994
30
0
0
SPLINE
5
180
100
AcDbEntity
8
1
62
256
6
ByLayer
370
18
48
1
60
0
100
AcDbSpline
70
4
71
3
72
11
73
7
40
0
40
0
40
0
40
0
40
0.264564460488346
40
0.534863678764532
40
0.765299739901804
40
1
40
1
40
1
40
1
41
1
10
22.6766320280187
20
-7.35623538018335
30
0
41
1
10
22.6330669088878
20
-7.49203228667965
30
0
41
1
10
22.5471720460819
20
-7.77327536037776
30
0
41
1
10
22.4282529098674
20
-8.19889848401959
30
0
41
1
10
22.3237827717135
20
-8.61857332859606
30
0
41
1
10
22.2632372595538
20
-8.88245101106613
30
0
41
1
10
22.234114215719
20
-9.01586356298639
30
0
0
SPLINE
5
181
100
AcDbEntity
8
1
62
256
6
ByLayer
370
18
48
1
60
0
100
AcDbSpline
70
4
71
3
72
10
73
6
40
0
40
0
40
0
40
0
40
0.248751103651428
40
0.498049139019378
40
1
40
1
40
1
40
1
41
1
10
13.8245334321607
20
-24.8547548390307
30
0
41
1
10
13.8713832029738
20
-24.8078307400527
30
0
41
1
10
13.9741785510488
20
-24.7011335763007
30
0
41
1
10
14.2216476992415
20
-24.4354648066415
30
0
41
1
10
14.4373835276817
20
-24.1782702070096
30
0
41
1
10
14.5967029220543
20
-23.9806294772124
30
0
0
SPLINE
5
182
100
AcDbEntity
8
1
62
256
6
ByLayer
370
18
48
1
60
0
100
AcDbSpline
70
4
71
1
72
4
73
2
40
0
40
0
40
1
40
1
41
1
10
0.343278579257493
20
-19.5586932485776
30
0
41
1
10
-0.324999999999997
20
-18.9249133089164
30
0
0
SPLINE
5
183
100
AcDbEntity
8
1
62
256
6
ByLayer
370
18
48
1
60
0
100
AcDbSpline
70
4
71
3
72
10
73
6
40
0
40
0
40
0
40
0
40
0.519972815659761
40
0.811096427693644
40
1
40
1
40
1
40
1
41
1
10
0.343278579257494
20
-14.8237109429722
30
0
41
1
10
0.373158401212098
20
-14.8772801513825
30
0
41
1
10
0.409492882502977
20
-14.9569864428823
30
0
41
1
10
0.439827846720287
20
-15.0528272249789
30
0
41
1
10
0.444582505623646
20
-15.0927809032537
30
0
41
1
10
0.44526800846513
20
-15.107879944568
30
0
0
SPLINE
5
184
100
AcDbEntity
8
1
62
256
6
ByLayer
370
18
48
1
60
0
100
AcDbSpline
70
4
71
1
72
4
73
2
40
0
40
0
40
1
40
1
41
1
10
0.343278579257493
20
-19.340953677083
30
0
41
1
10
-0.324999999999997
20
-18.7307192534083
30
0
0
SPLINE
5
185
100
AcDbEntity
8
1
62
256
6
ByLayer
370
18
48
1
60
0
100
AcDbSpline
70
4
71
3
72
11
73
7
40
0
40
0
40
0
40
0
40
0.428889305017741
40
0.719916196301746
40
0.948052780218005
40
1
40
1
40
1
40
1
41
1
10
0.343278579257494
20
-18.9048259409171
30
0
41
1
10
0.367334862436484
20
-18.9335752321486
30
0
41
1
10
0.401092964365657
20
-18.9773880302465
30
0
41
1
10
0.434633759248651
20
-19.0289537733588
30
0
41
1
10
0.444479936763297
20
-19.0517797976305
30
0
41
1
10
0.445253882006707
20
-19.0591109236254
30
0
41
1
10
0.445278234941451
20
-19.0603637387078
30
0
0
SPLINE
5
186
100
AcDbEntity
8
1
62
256
6
ByLayer
370
18
48
1
60
0
100
AcDbSpline
70
4
71
3
72
12
73
8
40
0
40
0
40
0
40
0
40
0.15591004297024
40
0.372034981534099
40
0.576306221754997
40
0.864098914368899
40
1
40
1
40
1
40
1
41
1
10
0.445278234941451
20
-19.0603637387078
30
0
41
1
10
0.445314636505358
20
-19.0636520292092
30
0
41
1
10
0.443008492725831
20
-19.06886397002
30
0
41
1
10
0.429942636236237
20
-19.0671364648363
30
0
41
1
10
0.403152930296354
20
-19.0516401102035
30
0
41
1
10
0.372384899077998
20
-19.0278297393093
30
0
41
1
10
0.350526580274315
20
-19.0091082605976
30
0
41
1
10
0.343278579257493
20
-19.0026970897866
30
0
0
SPLINE
5
187
100
AcDbEntity
8
1
62
256
6
ByLayer
370
18
48
1
60
0
100
AcDbSpline
70
4
71
1
72
4
73
2
40
0
40
0
40
1
40
1
41
1
10
0.343278579257493
20
-9.76435133857411
30
0
41
1
10
-0.324999999999997
20
-9.08445616148815
30
0
0
SPLINE
5
188
100
AcDbEntity
8
1
62
256
6
ByLayer
370
18
48
1
60
0
100
AcDbSpline
70
4
71
3
72
13
73
9
40
0
40
0
40
0
40
0
40
0.041455428640769
40
0.257288121427525
40
0.474594288479632
40
0.663371611027779
40
0.908281117915543
40
1
40
1
40
1
40
1
41
1
10
0.445278221262948
20
-17.1986612353246
30
0
41
1
10
0.445290471540202
20
-17.2002303990524
30
0
41
1
10
0.444956682976833
20
-17.2095582320094
30
0
41
1
10
0.440223987855056
20
-17.2232262883632
30
0
41
1
10
0.422160539089467
20
-17.227688101511
30
0
41
1
10
0.393668585324168
20
-17.2175459167358
30
0
41
1
10
0.3661156925909
20
-17.1993747953135
30
0
41
1
10
0.348231995840993
20
-17.1852712862045
30
0
41
1
10
0.343278579257493
20
-17.1811675775406
30
0
0
SPLINE
5
189
100
AcDbEntity
8
1
62
256
6
ByLayer
370
18
48
1
60
0
100
AcDbSpline
70
4
71
1
72
4
73
2
40
0
40
0
40
1
40
1
41
1
10
7.55507235321392
20
-24.2126682759003
30
0
41
1
10
13.8245334321607
20
-24.8547548390307
30
0
0
SPLINE
5
18A
100
AcDbEntity
8
1
62
256
6
ByLayer
370
18
48
1
60
0
100
AcDbSpline
70
4
71
1
72
4
73
2
40
0
40
0
40
1
40
1
41
1
10
0.343278579257493
20
-16.2549231580666
30
0
41
1
10
-0.324999999999997
20
-15.709148409446
30
0
0
SPLINE
5
18B
100
AcDbEntity
8
1
62
256
6
ByLayer
370
18
48
1
60
0
100
AcDbSpline
70
4
71
3
72
12
73
8
40
0
40
0
40
0
40
0
40
0.0869922293586951
40
0.304723355848449
40
0.510492641011313
40
0.797151079008077
40
1
40
1
40
1
40
1
41
1
10
0.445278434846712
20
-19.4113263027234
30
0
41
1
10
0.445289858870739
20
-19.412627364029
30
0
41
1
10
0.444201243109253
20
-19.4159873014852
30
0
41
1
10
0.435311474222778
20
-19.4144768570077
30
0
41
1
10
0.411338334381418
20
-19.3990917995989
30
0
41
1
10
0.378978064464343
20
-19.3728484657292
30
0
41
1
10
0.354171820152456
20
-19.3509139748601
30
0
41
1
10
0.343278579257493
20
-19.340953677083
30
0
0
SPLINE
5
18C
100
AcDbEntity
8
1
62
256
6
ByLayer
370
18
48
1
60
0
100
AcDbSpline
70
4
71
3
72
12
73
8
40
0
40
0
40
0
40
0
40
0.199836792184769
40
0.398473031646507
40
0.679480134661076
40
0.964057351211822
40
1
40
1
40
1
40
1
41
1
10
13.9184809164187
20
-24.7584240240699
30
0
41
1
10
13.9329589137322
20
-24.746450709617
30
0
41
1
10
13.9844090570693
20
-24.7265517342333
30
0
41
1
10
14.1624419680496
20
-24.706517819261
30
0
41
1
10
14.4299066583291
20
-24.7012549280858
30
0
41
1
10
14.6743141185986
20
-24.7107056489769
30
0
41
1
10
14.8068977928685
20
-24.7193408840164
30
0
41
1
10
14.8218417211392
20
-24.7203574786407
30
0
0
SPLINE
5
18D
100
AcDbEntity
8
1
62
256
6
ByLayer
370
18
48
1
60
0
100
AcDbSpline
70
4
71
3
72
15
73
11
40
0
40
0
40
0
40
0
40
0.323714811211489
40
0.610562841427121
40
0.702362206137523
40
0.758778713692002
40
0.804108471027375
40
0.84957430633556
40
0.905778779679469
40
1
40
1
40
1
40
1
41
1
10
0.445254773774903
20
-6.25968037350801
30
0
41
1
10
0.446667218177822
20
-6.29907080580903
30
0
41
1
10
0.443037668976162
20
-6.36955049877398
30
0
41
1
10
0.433262501928652
20
-6.45005417221285
30
0
41
1
10
0.415375424285042
20
-6.49044068862493
30
0
41
1
10
0.403344579663197
20
-6.50326430263807
30
0
41
1
10
0.391539766456015
20
-6.50754502100808
30
0
41
1
10
0.37830154633052
20
-6.50516162456158
30
0
41
1
10
0.361198151048751
20
-6.49336664084901
30
0
41
1
10
0.349829838979163
20
-6.48081043754062
30
0
41
1
10
0.343278579257493
20
-6.47090137540592
30
0
0
SPLINE
5
18E
100
AcDbEntity
8
1
62
256
6
ByLayer
370
18
48
1
60
0
100
AcDbSpline
70
4
71
1
72
4
73
2
40
0
40
0
40
1
40
1
41
1
10
0.343278579257493
20
-12.0130158376653
30
0
41
1
10
-0.324999999999997
20
-11.416647658135
30
0
0
SPLINE
5
18F
100
AcDbEntity
8
1
62
256
6
ByLayer
370
18
48
1
60
0
100
AcDbSpline
70
4
71
3
72
11
73
7
40
0
40
0
40
0
40
0
40
0.172631841073374
40
0.43328864707133
40
0.798977060702103
40
1
40
1
40
1
40
1
41
1
10
0.445278576731545
20
19.4113671396395
30
0
41
1
10
0.445008376110251
20
19.4082162591869
30
0
41
1
10
0.441472922893678
20
19.3977468991209
30
0
41
1
10
0.419088150176785
20
19.3636250651027
30
0
41
1
10
0.382685056583161
20
19.3179230670674
30
0
41
1
10
0.354101261464268
20
19.2846106626598
30
0
41
1
10
0.343278579257494
20
19.2723234562802
30
0
0
SPLINE
5
190
100
AcDbEntity
8
1
62
256
6
ByLayer
370
18
48
1
60
0
100
AcDbSpline
70
4
71
3
72
11
73
7
40
0
40
0
40
0
40
0
40
0.245719032948458
40
0.493197384521285
40
0.745801639761643
40
1
40
1
40
1
40
1
41
1
10
9.12010851548569
20
8.94483090952538
30
0
41
1
10
9.02158352870397
20
9.18929794234856
30
0
41
1
10
8.84422592867388
20
9.67908876512782
30
0
41
1
10
8.63911413060133
20
10.4201226895491
30
0
41
1
10
8.49276162318687
20
11.1604734527622
30
0
41
1
10
8.43219943636779
20
11.6466407904542
30
0
41
1
10
8.41164589091373
20
11.8880769674879
30
0
0
SPLINE
5
191
100
AcDbEntity
8
1
62
256
6
ByLayer
370
18
48
1
60
0
100
AcDbSpline
70
4
71
3
72
11
73
7
40
0
40
0
40
0
40
0
40
0.377049768979676
40
0.626146412392342
40
0.877055085418195
40
1
40
1
40
1
40
1
41
1
10
0.343278579257493
20
19.5586932485776
30
0
41
1
10
0.364260206963816
20
19.5786182731757
30
0
41
1
10
0.394481893089521
20
19.6062236296444
30
0
41
1
10
0.429220654131098
20
19.6353726879472
30
0
41
1
10
0.443297367683252
20
19.6442291198121
30
0
41
1
10
0.445259480947448
20
19.642901832403
30
0
41
1
10
0.445278476027666
20
19.6418045876656
30
0
0
SPLINE
5
192
100
AcDbEntity
8
1
62
256
6
ByLayer
370
18
48
1
60
0
100
AcDbSpline
70
4
71
3
72
10
73
6
40
0
40
0
40
0
40
0
40
0.0973687239807975
40
0.869350211748938
40
1
40
1
40
1
40
1
41
1
10
0.445250819439459
20
9.65319653452226
30
0
41
1
10
0.444879249571747
20
9.63674055698612
30
0
41
1
10
0.439277210114553
20
9.48925615197944
30
0
41
1
10
0.397746041577008
20
9.30463469041956
30
0
41
1
10
0.350538851777652
20
9.1423662359924
30
0
41
1
10
0.343278579257494
20
9.11879287402914
30
0
0
SPLINE
5
193
100
AcDbEntity
8
1
62
256
6
ByLayer
370
18
48
1
60
0
100
AcDbSpline
70
4
71
1
72
4
73
2
40
0
40
0
40
1
40
1
41
1
10
-0.324999999999997
20
16.6309904620861
30
0
41
1
10
0.343278579257493
20
17.1811675775406
30
0
0
SPLINE
5
194
100
AcDbEntity
8
1
62
256
6
ByLayer
370
18
48
1
60
0
100
AcDbSpline
70
4
71
3
72
13
73
9
40
0
40
0
40
0
40
0
40
0.1243817103715
40
0.311548082366839
40
0.452310637295676
40
0.592791007252266
40
0.800773201980122
40
1
40
1
40
1
40
1
41
1
10
0.343278579257493
20
13.7398159364994
30
0
41
1
10
0.3504730783189
20
13.7460060781999
30
0
41
1
10
0.368162409076973
20
13.7591996526121
30
0
41
1
10
0.394393134318744
20
13.7722142789084
30
0
41
1
10
0.417062404234511
20
13.772420394954
30
0
41
1
10
0.434068511965461
20
13.761076935972
30
0
41
1
10
0.443571553924192
20
13.7365702700504
30
0
41
1
10
0.445689947594564
20
13.7145628294118
30
0
41
1
10
0.445272100753341
20
13.7023655376355
30
0
0
SPLINE
5
195
100
AcDbEntity
8
1
62
256
6
ByLayer
370
18
48
1
60
0
100
AcDbSpline
70
4
71
3
72
11
73
7
40
0
40
0
40
0
40
0
40
0.368355745173016
40
0.630619954408313
40
0.851044226944031
40
1
40
1
40
1
40
1
41
1
10
0.343278579257493
20
19.6599204994536
30
0
41
1
10
0.363674819027286
20
19.6800229202904
30
0
41
1
10
0.394095702266315
20
19.7096667845561
30
0
41
1
10
0.427775911233608
20
19.7417247196223
30
0
41
1
10
0.442750307096175
20
19.7550542914909
30
0
41
1
10
0.44520373832244
20
19.756427522086
30
0
41
1
10
0.445278539535512
20
19.7560426846343
30
0
0
SPLINE
5
196
100
AcDbEntity
8
1
62
256
6
ByLayer
370
18
48
1
60
0
100
AcDbSpline
70
4
71
1
72
4
73
2
40
0
40
0
40
1
40
1
41
1
10
-0.324999999999997
20
11.416647658135
30
0
41
1
10
0.343278579257493
20
12.0130158376653
30
0
0
SPLINE
5
197
100
AcDbEntity
8
1
62
256
6
ByLayer
370
18
48
1
60
0
100
AcDbSpline
70
4
71
3
72
13
73
9
40
0
40
0
40
0
40
0
40
0.176844241192388
40
0.353738808963493
40
0.641660406838174
40
0.814460338866316
40
0.945074177414216
40
1
40
1
40
1
40
1
41
1
10
15.8412178174954
20
2.94964039813474
30
0
41
1
10
15.7480513642404
20
2.97571464912526
30
0
41
1
10
15.5675451091568
20
3.02856391907477
30
0
41
1
10
15.25869979497
20
3.12837282339763
30
0
41
1
10
14.9864657678195
20
3.22710928600463
30
0
41
1
10
14.8013448319294
20
3.29970256875707
30
0
41
1
10
14.7375330110645
20
3.32559296402414
30
0
41
1
10
14.7301207118171
20
3.32858459895554
30
0
41
1
10
14.7297989464127
20
3.32872715000554
30
0
0
SPLINE
5
198
100
AcDbEntity
8
1
62
256
6
ByLayer
370
18
48
1
60
0
100
AcDbSpline
70
4
71
1
72
4
73
2
40
0
40
0
40
1
40
1
41
1
10
-0.325
20
9.74178339679137
30
0
41
1
10
0.343278579257494
20
11.54046753934
30
0
0
SPLINE
5
199
100
AcDbEntity
8
1
62
256
6
ByLayer
370
18
48
1
60
0
100
AcDbSpline
70
4
71
1
72
4
73
2
40
0
40
0
40
1
40
1
41
1
10
-0.324999999999997
20
18.9249133089164
30
0
41
1
10
0.343278579257493
20
19.5586932485776
30
0
0
SPLINE
5
19A
100
AcDbEntity
8
1
62
256
6
ByLayer
370
18
48
1
60
0
100
AcDbSpline
70
4
71
3
72
12
73
8
40
0
40
0
40
0
40
0
40
0.0879679718621961
40
0.28305572861237
40
0.567672363101619
40
0.965694066279033
40
1
40
1
40
1
40
1
41
1
10
0.445278476027666
20
19.6418045876656
30
0
41
1
10
0.445238962358772
20
19.6409223299726
30
0
41
1
10
0.444027087766864
20
19.6370365604352
30
0
41
1
10
0.433684521778395
20
19.6214298034136
30
0
41
1
10
0.402818572871545
20
19.5836177147108
30
0
41
1
10
0.367715215504651
20
19.5444411610657
30
0
41
1
10
0.345090099933317
20
19.5199585642933
30
0
41
1
10
0.343278579257494
20
19.5180034570805
30
0
0
SPLINE
5
19B
100
AcDbEntity
8
1
62
256
6
ByLayer
370
18
48
1
60
0
100
AcDbSpline
70
4
71
1
72
4
73
2
40
0
40
0
40
1
40
1
41
1
10
-0.324999999999997
20
13.177721493111
30
0
41
1
10
0.343278579257493
20
13.7398159364994
30
0
0
SPLINE
5
19C
100
AcDbEntity
8
1
62
256
6
ByLayer
370
18
48
1
60
0
100
AcDbSpline
70
4
71
1
72
4
73
2
40
0
40
0
40
1
40
1
41
1
10
-0.324999999999997
20
18.4126951788705
30
0
41
1
10
0.343278579257493
20
19.0026970897866
30
0
0
SPLINE
5
19D
100
AcDbEntity
8
1
62
256
6
ByLayer
370
18
48
1
60
0
100
AcDbSpline
70
4
71
3
72
11
73
7
40
0
40
0
40
0
40
0
40
0.0558574186572375
40
0.331669256417342
40
0.769926106519911
40
1
40
1
40
1
40
1
41
1
10
0.44527722588561
20
17.1984554799941
30
0
41
1
10
0.445226417107382
20
17.1955864416562
30
0
41
1
10
0.444154887660031
20
17.1779799549074
30
0
41
1
10
0.428319243695977
20
17.126045900045
30
0
41
1
10
0.389574627315646
20
17.0517358080504
30
0
41
1
10
0.355913629965709
20
16.9982689250172
30
0
41
1
10
0.343278579257494
20
16.9794705811172
30
0
0
SPLINE
5
19E
100
AcDbEntity
8
1
62
256
6
ByLayer
370
18
48
1
60
0
100
AcDbSpline
70
4
71
3
72
15
73
11
40
0
40
0
40
0
40
0
40
0.0856011818570811
40
0.136793106851755
40
0.188458482577207
40
0.234430364549001
40
0.293389902841392
40
0.397106801703203
40
0.715174581256781
40
1
40
1
40
1
40
1
41
1
10
0.343278579257493
20
6.47090137540592
30
0
41
1
10
0.34921257562231
20
6.479723449335
30
0
41
1
10
0.359500312310951
20
6.49139548765136
30
0
41
1
10
0.375569672796225
20
6.50376564919149
30
0
41
1
10
0.389116145198395
20
6.50777601075666
30
0
41
1
10
0.402040526512334
20
6.50425874471183
30
0
41
1
10
0.415407148990423
20
6.49096630455031
30
0
41
1
10
0.434793971546985
20
6.44576157210664
30
0
41
1
10
0.443247497466644
20
6.36400233288704
30
0
41
1
10
0.446302482797612
20
6.29406876068542
30
0
41
1
10
0.445254189009825
20
6.25956455740035
30
0
0
SPLINE
5
19F
100
AcDbEntity
8
1
62
256
6
ByLayer
370
18
48
1
60
0
100
AcDbSpline
70
4
71
3
72
12
73
8
40
0
40
0
40
0
40
0
40
0.203270758908033
40
0.419252926881748
40
0.636673320997376
40
0.824123027314064
40
1
40
1
40
1
40
1
41
1
10
0.343278579257493
20
17.1811675775406
30
0
41
1
10
0.354505630456609
20
17.1905634675509
30
0
41
1
10
0.376498959911773
20
17.2068924790931
30
0
41
1
10
0.408207329374478
20
17.2243244689357
30
0
41
1
10
0.431637050371852
20
17.2274087455663
30
0
41
1
10
0.443280547572831
20
17.2169363102184
30
0
41
1
10
0.445466876418014
20
17.2054051693497
30
0
41
1
10
0.44527722588561
20
17.1984554799941
30
0
0
SPLINE
5
1A0
100
AcDbEntity
8
1
62
256
6
ByLayer
370
18
48
1
60
0
100
AcDbSpline
70
4
71
3
72
11
73
7
40
0
40
0
40
0
40
0
40
0.129986378110619
40
0.389616123976879
40
0.761365350331216
40
1
40
1
40
1
40
1
41
1
10
0.445278467199846
20
19.0604083246195
30
0
41
1
10
0.445116242918301
20
19.0571365934628
30
0
41
1
10
0.442621235730328
20
19.045598795222
30
0
41
1
10
0.423556894287292
20
19.0100938973367
30
0
41
1
10
0.38671727461564
20
18.9585759137446
30
0
41
1
10
0.356229650754104
20
18.9203822968817
30
0
41
1
10
0.343278579257494
20
18.9048259409171
30
0
0
SPLINE
5
1A1
100
AcDbEntity
8
1
62
256
6
ByLayer
370
18
48
1
60
0
100
AcDbSpline
70
4
71
1
72
4
73
2
40
0
40
0
40
1
40
1
41
1
10
-0.325
20
16.8327016176845
30
0
41
1
10
0.343278579257494
20
17.7716749003053
30
0
0
SPLINE
5
1A2
100
AcDbEntity
8
1
62
256
6
ByLayer
370
18
48
1
60
0
100
AcDbSpline
70
4
71
1
72
4
73
2
40
0
40
0
40
1
40
1
41
1
10
-0.324999999999997
20
14.576173837808
30
0
41
1
10
0.343278579257493
20
15.1245672474212
30
0
0
SPLINE
5
1A3
100
AcDbEntity
8
1
62
256
6
ByLayer
370
18
48
1
60
0
100
AcDbSpline
70
4
71
1
72
4
73
2
40
0
40
0
40
1
40
1
41
1
10
-0.325
20
15.9578301704837
30
0
41
1
10
0.343278579257494
20
16.9794705811172
30
0
0
SPLINE
5
1A4
100
AcDbEntity
8
1
62
256
6
ByLayer
370
18
48
1
60
0
100
AcDbSpline
70
4
71
3
72
10
73
6
40
0
40
0
40
0
40
0
40
0.091522233317629
40
0.503585151909367
40
1
40
1
40
1
40
1
41
1
10
0.445272100753341
20
13.7023655376355
30
0
41
1
10
0.445064628163658
20
13.6934816835138
30
0
41
1
10
0.442357728494385
20
13.6438456537832
30
0
41
1
10
0.412840402106331
20
13.5304557976483
30
0
41
1
10
0.372092470306825
20
13.4271263072337
30
0
41
1
10
0.343278579257494
20
13.3683356695468
30
0
0
SPLINE
5
1A5
100
AcDbEntity
8
1
62
256
6
ByLayer
370
18
48
1
60
0
100
AcDbSpline
70
4
71
3
72
10
73
6
40
0
40
0
40
0
40
0
40
0.144664166532424
40
0.404927225093464
40
1
40
1
40
1
40
1
41
1
10
0.445254189009825
20
6.25956455740035
30
0
41
1
10
0.445175073921619
20
6.2167333037242
30
0
41
1
10
0.442535017866243
20
6.0962824896511
30
0
41
1
10
0.411839385009449
20
5.79256913480841
30
0
41
1
10
0.376339534954007
20
5.53240657584606
30
0
41
1
10
0.343278579257494
20
5.34998840487794
30
0
0
SPLINE
5
1A6
100
AcDbEntity
8
1
62
256
6
ByLayer
370
18
48
1
60
0
100
AcDbSpline
70
4
71
1
72
4
73
2
40
0
40
0
40
1
40
1
41
1
10
-0.325
20
11.8991530686011
30
0
41
1
10
0.343278579257494
20
13.3683356695468
30
0
0
SPLINE
5
1A7
100
AcDbEntity
8
1
62
256
6
ByLayer
370
18
48
1
60
0
100
AcDbSpline
70
4
71
1
72
4
73
2
40
0
40
0
40
1
40
1
41
1
10
-0.325
20
14.8816949219503
30
0
41
1
10
0.343278579257494
20
16.008510663641
30
0
0
SPLINE
5
1A8
100
AcDbEntity
8
1
62
256
6
ByLayer
370
18
48
1
60
0
100
AcDbSpline
70
4
71
3
72
11
73
7
40
0
40
0
40
0
40
0
40
0.11904325122376
40
0.389913838452393
40
0.789509952302214
40
1
40
1
40
1
40
1
41
1
10
0.445278348722843
20
18.5821760187423
30
0
41
1
10
0.445121977203641
20
18.578225165663
30
0
41
1
10
0.442778322425689
20
18.5637923962997
30
0
41
1
10
0.42315980767436
20
18.5215044891387
30
0
41
1
10
0.385493562221954
20
18.4640799323164
30
0
41
1
10
0.354706973960978
20
18.4228504719758
30
0
41
1
10
0.343278579257494
20
18.408216543415
30
0
0
SPLINE
5
1A9
100
AcDbEntity
8
1
62
256
6
ByLayer
370
18
48
1
60
0
100
AcDbSpline
70
4
71
3
72
13
73
9
40
0
40
0
40
0
40
0
40
0.0568256757895436
40
0.127058506424855
40
0.239445856015405
40
0.462176278515707
40
0.730715672973134
40
1
40
1
40
1
40
1
41
1
10
6.675
20
8.7177978870813
30
0
41
1
10
6.65300818796202
20
8.7171447348552
30
0
41
1
10
6.60646397197818
20
8.70999991347305
30
0
41
1
10
6.52810391942656
20
8.66685305263448
30
0
41
1
10
6.42996461500183
20
8.56075310013786
30
0
41
1
10
6.34210431598983
20
8.36971959477675
30
0
41
1
10
6.28605047251048
20
8.11502484266072
30
0
41
1
10
6.27333393878527
20
7.93164011992938
30
0
41
1
10
6.275
20
7.83836717690616
30
0
0
SPLINE
5
1AA
100
AcDbEntity
8
1
62
256
6
ByLayer
370
18
48
1
60
0
100
AcDbSpline
70
4
71
1
72
4
73
2
40
0
40
0
40
1
40
1
41
1
10
-0.324999999999997
20
18.5041169405622
30
0
41
1
10
0.343278579257494
20
19.2723234562802
30
0
0
SPLINE
5
1AB
100
AcDbEntity
8
1
62
256
6
ByLayer
370
18
48
1
60
0
100
AcDbSpline
70
4
71
3
72
12
73
8
40
0
40
0
40
0
40
0
40
0.271961273738878
40
0.521123041612699
40
0.732677904114191
40
0.944638079734902
40
1
40
1
40
1
40
1
41
1
10
0.343278579257493
20
19.0026970897866
30
0
41
1
10
0.358134580847642
20
19.0159093491319
30
0
41
1
10
0.384274922351651
20
19.0375752584702
30
0
41
1
10
0.417167558444372
20
19.0606857942675
30
0
41
1
10
0.43819288642075
20
19.0697013257015
30
0
41
1
10
0.444711556004379
20
19.0663953413087
30
0
41
1
10
0.445288662275373
20
19.0615488120661
30
0
41
1
10
0.445278467199846
20
19.0604083246195
30
0
0
SPLINE
5
1AC
100
AcDbEntity
8
1
62
256
6
ByLayer
370
18
48
1
60
0
100
AcDbSpline
70
4
71
3
72
10
73
6
40
0
40
0
40
0
40
0
40
0.2462845940696
40
0.724455311353438
40
1
40
1
40
1
40
1
41
1
10
0.445278119583141
20
15.1092803777227
30
0
41
1
10
0.444127074641217
20
15.0891805624018
30
0
41
1
10
0.435659770605645
20
15.0277798493013
30
0
41
1
10
0.39609493657076
20
14.9267678139018
30
0
41
1
10
0.358702007898456
20
14.8517197144237
30
0
41
1
10
0.343278579257494
20
14.8237109429722
30
0
0
SPLINE
5
1AD
100
AcDbEntity
8
1
62
256
6
ByLayer
370
18
48
1
60
0
100
AcDbSpline
70
4
71
3
72
14
73
10
40
0
40
0
40
0
40
0
40
0.0951138196424069
40
0.251234824807262
40
0.368749334756688
40
0.486114072396003
40
0.656465668081891
40
0.947867871262047
40
1
40
1
40
1
40
1
41
1
10
0.343278579257493
20
12.0130158376653
30
0
41
1
10
0.348910212676833
20
12.0181443163728
30
0
41
1
10
0.363738829289746
20
12.0299280810017
30
0
41
1
10
0.386556132654268
20
12.042401020252
30
0
41
1
10
0.408246643388881
20
12.0439969399759
30
0
41
1
10
0.425734644034437
20
12.0348859932231
30
0
41
1
10
0.441054078202894
20
12.0082505162581
30
0
41
1
10
0.444963169803969
20
11.9754397641241
30
0
41
1
10
0.445304168214727
20
11.9523608855339
30
0
41
1
10
0.445276696077773
20
11.9487961174388
30
0
0
SPLINE
5
1AE
100
AcDbEntity
8
1
62
256
6
ByLayer
370
18
48
1
60
0
100
AcDbSpline
70
4
71
3
72
12
73
8
40
0
40
0
40
0
40
0
40
0.249911022236932
40
0.489614640951798
40
0.731048898773197
40
0.936573073655094
40
1
40
1
40
1
40
1
41
1
10
0.343278579257493
20
18.5373273217393
30
0
41
1
10
0.356942052465581
20
18.5491687676409
30
0
41
1
10
0.381802671138993
20
18.568884063502
30
0
41
1
10
0.415680000592185
20
18.590622099859
30
0
41
1
10
0.437936738137037
20
18.5969346372919
30
0
41
1
10
0.444665341769795
20
18.5901966797517
30
0
41
1
10
0.44529638619672
20
18.5838485956857
30
0
41
1
10
0.445278348722843
20
18.5821760187423
30
0
0
SPLINE
5
1AF
100
AcDbEntity
8
1
62
256
6
ByLayer
370
18
48
1
60
0
100
AcDbSpline
70
4
71
3
72
14
73
10
40
0
40
0
40
0
40
0
40
0.0623103517457535
40
0.181656212469135
40
0.267605111131153
40
0.353625913013401
40
0.468506553348099
40
0.663555228031818
40
1
40
1
40
1
40
1
41
1
10
0.343278579257493
20
9.76435133857411
30
0
41
1
10
0.347214695938515
20
9.76839913166288
30
0
41
1
10
0.35884589129575
20
9.77903269874101
30
0
41
1
10
0.377322319569505
20
9.79145668898932
30
0
41
1
10
0.397002275760476
20
9.79549683499404
30
0
41
1
10
0.413544611736611
20
9.79012741167561
30
0
41
1
10
0.4298369724134
20
9.77106934944372
30
0
41
1
10
0.443054992244439
20
9.72507283744322
30
0
41
1
10
0.446902707930009
20
9.68317315780634
30
0
41
1
10
0.445250819439459
20
9.65319653452226
30
0
0
SPLINE
5
1B0
100
AcDbEntity
8
1
62
256
6
ByLayer
370
18
48
1
60
0
100
AcDbSpline
70
4
71
1
72
4
73
2
40
0
40
0
40
1
40
1
41
1
10
-0.325
20
13.5564502636199
30
0
41
1
10
0.343278579257494
20
14.8237109429722
30
0
0
SPLINE
5
1B1
100
AcDbEntity
8
1
62
256
6
ByLayer
370
18
48
1
60
0
100
AcDbSpline
70
4
71
1
72
4
73
2
40
0
40
0
40
1
40
1
41
1
10
-0.324999999999997
20
17.9642657448057
30
0
41
1
10
0.343278579257493
20
18.5373273217393
30
0
0
SPLINE
5
1B2
100
AcDbEntity
8
1
62
256
6
ByLayer
370
18
48
1
60
0
100
AcDbSpline
70
4
71
1
72
4
73
2
40
0
40
0
40
1
40
1
41
1
10
-0.324999999999997
20
5.49680304813625
30
0
41
1
10
0.343278579257493
20
6.47090137540592
30
0
0
SPLINE
5
1B3
100
AcDbEntity
8
1
62
256
6
ByLayer
370
18
48
1
60
0
100
AcDbSpline
70
4
71
2
72
6
73
3
40
0
40
0
40
0
40
1
40
1
40
1
41
1
10
-0.325
20
6.61172018086065
30
0
41
1
10
-0.037212006998593
20
7.88172906724867
30
0
41
1
10
0.343278579257494
20
9.11879287402914
30
0
0
SPLINE
5
1B4
100
AcDbEntity
8
1
62
256
6
ByLayer
370
18
48
1
60
0
100
AcDbSpline
70
4
71
2
72
6
73
3
40
0
40
0
40
0
40
1
40
1
40
1
41
1
10
14.7297989464127
20
3.32872715000554
30
0
41
1
10
15.7229723546371
20
1.49962608325797
30
0
41
1
10
16.9229892275247
20
-0.15592554457431
30
0
0
SPLINE
5
1B5
100
AcDbEntity
8
1
62
256
6
ByLayer
370
18
48
1
60
0
100
AcDbSpline
70
4
71
2
72
6
73
3
40
0
40
0
40
0
40
1
40
1
40
1
41
1
10
0.445276696077773
20
11.9487961174387
30
0
41
1
10
0.435256087330974
20
11.7572184002966
30
0
41
1
10
0.343278579257494
20
11.54046753934
30
0
0
SPLINE
5
1B6
100
AcDbEntity
8
1
62
256
6
ByLayer
370
18
48
1
60
0
100
AcDbSpline
70
4
71
1
72
4
73
2
40
0
40
0
40
1
40
1
41
1
10
-0.324999999999997
20
18.0890807878676
30
0
41
1
10
0.343278579257494
20
18.9048259409171
30
0
0
SPLINE
5
1B7
100
AcDbEntity
8
1
62
256
6
ByLayer
370
18
48
1
60
0
100
AcDbSpline
70
4
71
3
72
12
73
8
40
0
40
0
40
0
40
0
40
0.226789456521417
40
0.45521871367178
40
0.685221605129899
40
0.882469461365154
40
1
40
1
40
1
40
1
41
1
10
0.343278579257493
20
17.93495223803
30
0
41
1
10
0.355737109710271
20
17.9455282908493
30
0
41
1
10
0.379222619078174
20
17.9634728317159
30
0
41
1
10
0.412125534517437
20
17.982898249373
30
0
41
1
10
0.435053464964199
20
17.9874373627687
30
0
41
1
10
0.4440551925807
20
17.9789034438424
30
0
41
1
10
0.445355813670379
20
17.9702071332822
30
0
41
1
10
0.445277405909415
20
17.9663561103936
30
0
0
SPLINE
5
1B8
100
AcDbEntity
8
1
62
256
6
ByLayer
370
18
48
1
60
0
100
AcDbSpline
70
4
71
1
72
4
73
2
40
0
40
0
40
1
40
1
41
1
10
-0.324999999999997
20
18.7307192534083
30
0
41
1
10
0.343278579257493
20
19.340953677083
30
0
0
SPLINE
5
1B9
100
AcDbEntity
8
1
62
256
6
ByLayer
370
18
48
1
60
0
100
AcDbSpline
70
4
71
3
72
11
73
7
40
0
40
0
40
0
40
0
40
0.106198987855113
40
0.389067987887719
40
0.820910985054717
40
1
40
1
40
1
40
1
41
1
10
0.445277405909415
20
17.9663561103936
30
0
41
1
10
0.445123306617709
20
17.9618896801901
30
0
41
1
10
0.442940411932284
20
17.9442877136092
30
0
41
1
10
0.42278232210314
20
17.8940836374508
30
0
41
1
10
0.384184187616991
20
17.8298654793235
30
0
41
1
10
0.353005850161071
20
17.7850553634904
30
0
41
1
10
0.343278579257494
20
17.7716749003053
30
0
0
SPLINE
5
1BA
100
AcDbEntity
8
1
62
256
6
ByLayer
370
18
48
1
60
0
100
AcDbSpline
70
4
71
3
72
11
73
7
40
0
40
0
40
0
40
0
40
0.0046144971205866
40
0.267804678343636
40
0.708008732143668
40
1
40
1
40
1
40
1
41
1
10
0.445278549848736
20
16.2572737352011
30
0
41
1
10
0.445278113165045
20
16.256985905268
30
0
41
1
10
0.445197089814697
20
16.2402412678273
30
0
41
1
10
0.434050163267924
20
16.1869489268443
30
0
41
1
10
0.395811157439267
20
16.099886710878
30
0
41
1
10
0.359569176577511
20
16.035017127777
30
0
41
1
10
0.343278579257494
20
16.008510663641
30
0
0
SPLINE
5
1BB
100
AcDbEntity
8
1
62
256
6
ByLayer
370
18
48
1
60
0
100
AcDbSpline
70
4
71
3
72
12
73
8
40
0
40
0
40
0
40
0
40
0.179365425841669
40
0.381815697061217
40
0.58560028211012
40
0.76157593338641
40
1
40
1
40
1
40
1
41
1
10
0.343278579257493
20
16.2549231580666
30
0
41
1
10
0.353231057006207
20
16.2632052906847
30
0
41
1
10
0.373586207191171
20
16.2780585244672
30
0
41
1
10
0.40383868300108
20
16.2938265615468
30
0
41
1
10
0.427565016982747
20
16.2958160296083
30
0
41
1
10
0.442289253486508
20
16.2832966139005
30
0
41
1
10
0.445629561941436
20
16.268406549665
30
0
41
1
10
0.445278549848736
20
16.2572737352011
30
0
0
SPLINE
5
1BC
100
AcDbEntity
8
1
62
256
6
ByLayer
370
18
48
1
60
0
100
AcDbSpline
70
4
71
1
72
4
73
2
40
0
40
0
40
1
40
1
41
1
10
-0.324999999999997
20
18.7906850260974
30
0
41
1
10
0.343278579257494
20
19.5180034570805
30
0
0
SPLINE
5
1BD
100
AcDbEntity
8
1
62
256
6
ByLayer
370
18
48
1
60
0
100
AcDbSpline
70
4
71
2
72
6
73
3
40
0
40
0
40
0
40
1
40
1
40
1
41
1
10
17.4768671743149
20
0.443730568111944
30
0
41
1
10
16.598445079817
20
1.65696776932784
30
0
41
1
10
15.8412178174954
20
2.94964039813474
30
0
0
SPLINE
5
1BE
100
AcDbEntity
8
1
62
256
6
ByLayer
370
18
48
1
60
0
100
AcDbSpline
70
4
71
3
72
12
73
8
40
0
40
0
40
0
40
0
40
0.0717048724517923
40
0.270487942903796
40
0.534181099729659
40
0.895170451613141
40
1
40
1
40
1
40
1
41
1
10
0.445278539535512
20
19.7560426846343
30
0
41
1
10
0.445261270165035
20
19.7558022216784
30
0
41
1
10
0.444342779956789
20
19.7540443795163
30
0
41
1
10
0.435455451976639
20
19.7434589349704
30
0
41
1
10
0.407568226532906
20
19.7132191731861
30
0
41
1
10
0.372806344085376
20
19.6768709992719
30
0
41
1
10
0.348830765414726
20
19.6521448533472
30
0
41
1
10
0.343278579257494
20
19.6464364834369
30
0
0
SPLINE
5
1BF
100
AcDbEntity
8
1
62
256
6
ByLayer
370
18
48
1
60
0
100
AcDbSpline
70
4
71
1
72
4
73
2
40
0
40
0
40
1
40
1
41
1
10
-0.324999999999997
20
9.08445616148815
30
0
41
1
10
0.343278579257493
20
9.76435133857411
30
0
0
SPLINE
5
1C0
100
AcDbEntity
8
1
62
256
6
ByLayer
370
18
48
1
60
0
100
AcDbSpline
70
4
71
1
72
4
73
2
40
0
40
0
40
1
40
1
41
1
10
-0.324999999999997
20
15.709148409446
30
0
41
1
10
0.343278579257493
20
16.2549231580666
30
0
0
SPLINE
5
1C1
100
AcDbEntity
8
1
62
256
6
ByLayer
370
18
48
1
60
0
100
AcDbSpline
70
4
71
1
72
4
73
2
40
0
40
0
40
1
40
1
41
1
10
-0.324999999999997
20
18.9546127301509
30
0
41
1
10
0.343278579257494
20
19.6464364834369
30
0
0
SPLINE
5
1C2
100
AcDbEntity
8
1
62
256
6
ByLayer
370
18
48
1
60
0
100
AcDbSpline
70
4
71
1
72
4
73
2
40
0
40
0
40
1
40
1
41
1
10
-0.325
20
17.536457559895
30
0
41
1
10
0.343278579257494
20
18.408216543415
30
0
0
SPLINE
5
1C3
100
AcDbEntity
8
1
62
256
6
ByLayer
370
18
48
1
60
0
100
AcDbSpline
70
4
71
3
72
12
73
8
40
0
40
0
40
0
40
0
40
0.293885513933531
40
0.551583630341836
40
0.768298095454745
40
0.985598031296855
40
1
40
1
40
1
40
1
41
1
10
0.343278579257493
20
19.340953677083
30
0
41
1
10
0.359327636723356
20
19.3556655023032
30
0
41
1
10
0.386672782147709
20
19.3794794312371
30
0
41
1
10
0.42008106961037
20
19.4053624667612
30
0
41
1
10
0.440263916400311
20
19.4165970325709
30
0
41
1
10
0.445141600358908
20
19.4148321413421
30
0
41
1
10
0.445279018769177
20
19.4115786999383
30
0
41
1
10
0.445278576731545
20
19.4113671396395
30
0
0
SPLINE
5
1C4
100
AcDbEntity
8
1
62
256
6
ByLayer
370
18
48
1
60
0
100
AcDbSpline
70
4
71
3
72
13
73
9
40
0
40
0
40
0
40
0
40
0.153120007303595
40
0.371061266986775
40
0.558070078768755
40
0.718402876740644
40
0.966760479932098
40
1
40
1
40
1
40
1
41
1
10
0.343278579257493
20
15.1245672474212
30
0
41
1
10
0.351911344990751
20
15.1318115299515
30
0
41
1
10
0.372158726006169
20
15.1465643542535
30
0
41
1
10
0.402494540970261
20
15.1612418176068
30
0
41
1
10
0.426115765692788
20
15.1597293885332
30
0
41
1
10
0.44131468506663
20
15.1444854055131
30
0
41
1
10
0.445053568677738
20
15.1249309807666
30
0
41
1
10
0.445287961447452
20
15.11096384431
30
0
41
1
10
0.445278119583141
20
15.1092803777227
30
0
0
SPLINE
5
1C5
100
AcDbEntity
8
1
62
256
6
ByLayer
370
18
48
1
60
0
100
AcDbSpline
70
4
71
1
72
4
73
2
40
0
40
0
40
1
40
1
41
1
10
6.775
20
8.7177978870813
30
0
41
1
10
6.79263269807085
20
8.94483090952538
30
0
0
SPLINE
5
1C6
100
AcDbEntity
8
1
62
256
6
ByLayer
370
18
48
1
60
0
100
AcDbSpline
70
4
71
1
72
4
73
2
40
0
40
0
40
1
40
1
41
1
10
6.79263269807085
20
20
30
0
41
1
10
6.775
20
20
30
0
0
SPLINE
5
1C7
100
AcDbEntity
8
1
62
256
6
ByLayer
370
18
48
1
60
0
100
AcDbSpline
70
4
71
1
72
4
73
2
40
0
40
0
40
1
40
1
41
1
10
-0.324999999999997
20
18.9990748130008
30
0
41
1
10
0.343278579257493
20
19.6599204994536
30
0
0
SPLINE
5
1C8
100
AcDbEntity
8
1
62
256
6
ByLayer
370
18
48
1
60
0
100
AcDbSpline
70
4
71
1
72
4
73
2
40
0
40
0
40
1
40
1
41
1
10
-0.324999999999997
20
17.3753372269432
30
0
41
1
10
0.343278579257493
20
17.93495223803
30
0
0
SPLINE
5
1C9
100
AcDbEntity
8
1
62
256
6
ByLayer
370
18
48
1
60
0
100
AcDbSpline
70
4
71
1
72
4
73
2
40
0
40
0
40
1
40
1
41
1
10
28.0630770373669
20
-17.6968167797443
30
0
41
1
10
28.0618917220209
20
-18.2722164039203
30
0
0
SPLINE
5
1CA
100
AcDbEntity
8
1
62
256
6
ByLayer
370
18
48
1
60
0
100
AcDbSpline
70
4
71
1
72
4
73
2
40
0
40
0
40
1
40
1
41
1
10
29.21348346921
20
-17.8737084417842
30
0
41
1
10
29.4452286123758
20
-18.142398829501
30
0
0
SPLINE
5
1CB
100
AcDbEntity
8
1
62
256
6
ByLayer
370
18
48
1
60
0
100
AcDbSpline
70
4
71
1
72
4
73
2
40
0
40
0
40
1
40
1
41
1
10
29.5483590188222
20
-21.7306142059245
30
0
41
1
10
29.2428836925863
20
-21.4796089601395
30
0
0
SPLINE
5
1CC
100
AcDbEntity
8
1
62
256
6
ByLayer
370
18
48
1
60
0
100
AcDbSpline
70
4
71
3
72
11
73
7
40
0
40
0
40
0
40
0
40
0.264564460488347
40
0.534863678764531
40
0.765299739901805
40
1
40
1
40
1
40
1
41
1
10
25.1130071570812
20
-9.72120302021191
30
0
41
1
10
25.1458304538148
20
-9.5705111927301
30
0
41
1
10
25.2158022323948
20
-9.26718871084411
30
0
41
1
10
25.3267892966317
20
-8.83056674724883
30
0
41
1
10
25.4421091729755
20
-8.42593646281061
30
0
41
1
10
25.5169845086423
20
-8.18192892722823
30
0
41
1
10
25.5555249693809
20
-8.06157483740887
30
0
0
SPLINE
5
1CD
100
AcDbEntity
8
1
62
256
6
ByLayer
370
18
48
1
60
0
100
AcDbSpline
70
4
71
1
72
4
73
2
40
0
40
0
40
1
40
1
41
1
10
28.0803557571034
20
-21.9215698884318
30
0
41
1
10
27.9615508149147
20
-22.3338747430826
30
0
0
SPLINE
5
1CE
100
AcDbEntity
8
1
62
256
6
ByLayer
370
18
48
1
60
0
100
AcDbSpline
70
4
71
1
72
4
73
2
40
0
40
0
40
1
40
1
41
1
10
29.4452286123758
20
-18.142398829501
30
0
41
1
10
29.6559791776123
20
-18.5049839195669
30
0
0
SPLINE
5
1CF
100
AcDbEntity
8
1
62
256
6
ByLayer
370
18
48
1
60
0
100
AcDbSpline
70
4
71
1
72
4
73
2
40
0
40
0
40
1
40
1
41
1
10
26.8993637865379
20
-18.7141773322125
30
0
41
1
10
26.4762688334595
20
-18.3000773169023
30
0
0
SPLINE
5
1D0
100
AcDbEntity
8
1
62
256
6
ByLayer
370
18
48
1
60
0
100
AcDbSpline
70
4
71
2
72
6
73
3
40
0
40
0
40
0
40
1
40
1
40
1
41
1
10
29.7316761622058
20
-18.8821709344592
30
0
41
1
10
29.7091097753608
20
-18.6893153599788
30
0
41
1
10
29.6559791776123
20
-18.5049839195669
30
0
0
SPLINE
5
1D1
100
AcDbEntity
8
1
62
256
6
ByLayer
370
18
48
1
60
0
100
AcDbSpline
70
4
71
3
72
11
73
7
40
0
40
0
40
0
40
0
40
0.264564460488348
40
0.534863678764533
40
0.765299739901806
40
1
40
1
40
1
40
1
41
1
10
23.4523017802503
20
-10.1983473830007
30
0
41
1
10
23.5902682098635
20
-10.1497170582265
30
0
41
1
10
23.8747791538555
20
-10.0546458335734
30
0
41
1
10
24.302215484782
20
-9.92519835493492
30
0
41
1
10
24.7200604290747
20
-9.81422645974157
30
0
41
1
10
24.9813327731954
20
-9.75115284025994
30
0
41
1
10
25.1130071570812
20
-9.72120302021191
30
0
0
SPLINE
5
1D2
100
AcDbEntity
8
1
62
256
6
ByLayer
370
18
48
1
60
0
100
AcDbSpline
70
4
71
3
72
11
73
7
40
0
40
0
40
0
40
0
40
0.0803742239998755
40
0.507976134685807
40
0.921768227975211
40
1
40
1
40
1
40
1
41
1
10
25.6526305228408
20
-20.7407434580964
30
0
41
1
10
25.668927149209
20
-20.7591124715246
30
0
41
1
10
25.7736282152356
20
-20.8734908379187
30
0
41
1
10
25.9851220682232
20
-21.0629516475865
30
0
41
1
10
26.2245724703775
20
-21.2163143746956
30
0
41
1
10
26.3588116879988
20
-21.2862302554942
30
0
41
1
10
26.3803426446007
20
-21.2970513666801
30
0
0
SPLINE
5
1D3
100
AcDbEntity
8
1
62
256
6
ByLayer
370
18
48
1
60
0
100
AcDbSpline
70
4
71
3
72
11
73
7
40
0
40
0
40
0
40
0
40
0.365642136698637
40
0.615102327343337
40
0.871291253056326
40
1
40
1
40
1
40
1
41
1
10
25.5555249693809
20
-8.06157483740887
30
0
41
1
10
25.4017946587404
20
-7.90918224169605
30
0
41
1
10
25.1458225474736
20
-7.65736437804731
30
0
41
1
10
24.7840717518285
20
-7.30593832363743
30
0
41
1
10
24.5325178297173
20
-7.06475920669925
30
0
41
1
10
24.3857703477833
20
-6.92505820272509
30
0
41
1
10
24.3373374048496
20
-6.87909101739459
30
0
0
SPLINE
5
1D4
100
AcDbEntity
8
1
62
256
6
ByLayer
370
18
48
1
60
0
100
AcDbSpline
70
4
71
3
72
11
73
7
40
0
40
0
40
0
40
0
40
0.264564460488347
40
0.534863678764534
40
0.765299739901804
40
1
40
1
40
1
40
1
41
1
10
24.3373374048496
20
-6.87909101739459
30
0
41
1
10
24.1886291528391
20
-6.9128264211833
30
0
41
1
10
23.8881951246211
20
-6.98581823764849
30
0
41
1
10
23.4528267217172
20
-7.1042668763335
30
0
41
1
10
23.0458315156143
20
-7.23028333166511
30
0
41
1
10
22.7988889950007
20
-7.31322709803443
30
0
41
1
10
22.6766320280187
20
-7.35623538018335
30
0
0
SPLINE
5
1D5
100
AcDbEntity
8
1
62
256
6
ByLayer
370
18
48
1
60
0
100
AcDbSpline
70
4
71
3
72
13
73
9
40
0
40
0
40
0
40
0
40
0.207438039460518
40
0.416274474974625
40
0.629718048959343
40
0.737283553742755
40
0.844850323786193
40
1
40
1
40
1
40
1
41
1
10
0.343278579257494
20
-5.34998840487794
30
0
41
1
10
0.214505649867322
20
-4.61831987097276
30
0
41
1
10
0.0093632726892049
20
-3.14355578497433
30
0
41
1
10
-0.142590593077833
20
-0.886004580706281
30
0
41
1
10
-0.126728631207392
20
1.01860707860906
30
0
41
1
10
-0.0266272122474305
20
2.55327635307177
30
0
41
1
10
0.109554434618213
20
3.87392140567373
30
0
41
1
10
0.247350709853289
20
4.80340082885367
30
0
41
1
10
0.343278579257494
20
5.34998840487794
30
0
0
SPLINE
5
1D6
100
AcDbEntity
8
1
62
256
6
ByLayer
370
18
48
1
60
0
100
AcDbSpline
70
4
71
3
72
11
73
7
40
0
40
0
40
0
40
0
40
0.128709323381072
40
0.378483294965362
40
0.634356167321735
40
1
40
1
40
1
40
1
41
1
10
22.234114215719
20
-9.01586356298639
30
0
41
1
10
22.2825474415558
20
-9.0618313953789
30
0
41
1
10
22.4268548260414
20
-9.19920931322866
30
0
41
1
10
22.6781918823233
20
-9.440149364654
30
0
41
1
10
23.0399361344423
20
-9.79151483599453
30
0
41
1
10
23.2985520837514
20
-10.0459346638351
30
0
41
1
10
23.4523017802503
20
-10.1983473830007
30
0
0
LINE
5
70
100
AcDbEntity
8
1
62
256
6
ByLayer
370
18
48
1
60
0
100
AcDbLine
10
14.821842
20
-24.720357
30
0
11
22.220224
21
-25.223701
31
0
39
0
210
0
220
0
230
1
0
LINE
5
72
100
AcDbEntity
8
1
62
256
6
ByLayer
370
18
48
1
60
0
100
AcDbLine
10
0.343279
20
-18.904826
30
0
11
0.343279
21
-19.002697
31
0
39
0
210
0
220
0
230
1
0
LINE
5
73
100
AcDbEntity
8
1
62
256
6
ByLayer
370
18
48
1
60
0
100
AcDbLine
10
0.675
20
-20
30
0
11
6.775
21
-20
31
0
39
0
210
0
220
0
230
1
0
LINE
5
74
100
AcDbEntity
8
1
62
256
6
ByLayer
370
18
48
1
60
0
100
AcDbLine
10
17.493985
20
-18.274914
30
0
11
17.977843
21
-11.537439
31
0
39
0
210
0
220
0
230
1
0
LINE
5
75
100
AcDbEntity
8
1
62
256
6
ByLayer
370
18
48
1
60
0
100
AcDbLine
10
0.343279
20
-11.540468
30
0
11
0.343279
21
-12.013016
31
0
39
0
210
0
220
0
230
1
0
LINE
5
76
100
AcDbEntity
8
1
62
256
6
ByLayer
370
18
48
1
60
0
100
AcDbLine
10
-0.325
20
-9.741783
30
0
11
-0.325
21
-11.416648
31
0
39
0
210
0
220
0
230
1
0
LINE
5
77
100
AcDbEntity
8
1
62
256
6
ByLayer
370
18
48
1
60
0
100
AcDbLine
10
-0.325
20
-18.954613
30
0
11
-0.325
21
-18.999075
31
0
39
0
210
0
220
0
230
1
0
LINE
5
78
100
AcDbEntity
8
1
62
256
6
ByLayer
370
18
48
1
60
0
100
AcDbLine
10
6.775
20
-20
30
0
11
7.427813
21
-23.702286
31
0
39
0
210
0
220
0
230
1
0
LINE
5
79
100
AcDbEntity
8
1
62
256
6
ByLayer
370
18
48
1
60
0
100
AcDbLine
10
0.343279
20
-14.823711
30
0
11
0.343279
21
-15.124567
31
0
39
0
210
0
220
0
230
1
0
LINE
5
7A
100
AcDbEntity
8
1
62
256
6
ByLayer
370
18
48
1
60
0
100
AcDbLine
10
0.343279
20
-19.646436
30
0
11
0.343279
21
-19.65992
31
0
39
0
210
0
220
0
230
1
0
LINE
5
7B
100
AcDbEntity
8
1
62
256
6
ByLayer
370
18
48
1
60
0
100
AcDbLine
10
21.138477
20
-18.194249
30
0
11
21.073059
21
-18.189798
31
0
39
0
210
0
220
0
230
1
0
LINE
5
7C
100
AcDbEntity
8
1
62
256
6
ByLayer
370
18
48
1
60
0
100
AcDbLine
10
-0.325
20
-13.177721
30
0
11
-0.325
21
-11.899153
31
0
39
0
210
0
220
0
230
1
0
LINE
5
7D
100
AcDbEntity
8
1
62
256
6
ByLayer
370
18
48
1
60
0
100
AcDbLine
10
0.343279
20
-5.349988
30
0
11
0.343279
21
-6.470901
31
0
39
0
210
0
220
0
230
1
0
LINE
5
7E
100
AcDbEntity
8
1
62
256
6
ByLayer
370
18
48
1
60
0
100
AcDbLine
10
-0.325
20
-16.63099
30
0
11
-0.325
21
-15.95783
31
0
39
0
210
0
220
0
230
1
0
LINE
5
7F
100
AcDbEntity
8
1
62
256
6
ByLayer
370
18
48
1
60
0
100
AcDbLine
10
20.735882
20
-13.59256
30
0
11
21.162301
21
-18.466552
31
0
39
0
210
0
220
0
230
1
0
LINE
5
80
100
AcDbEntity
8
1
62
256
6
ByLayer
370
18
48
1
60
0
100
AcDbLine
10
0.343279
20
-19.518003
30
0
11
0.343279
21
-19.558693
31
0
39
0
210
0
220
0
230
1
0
LINE
5
81
100
AcDbEntity
8
1
62
256
6
ByLayer
370
18
48
1
60
0
100
AcDbLine
10
21.073059
20
-18.189798
30
0
11
21.090715
21
-18.381544
31
0
39
0
210
0
220
0
230
1
0
LINE
5
82
100
AcDbEntity
8
1
62
256
6
ByLayer
370
18
48
1
60
0
100
AcDbLine
10
-0.325
20
-6.61172
30
0
11
-0.325
21
-9.084456
31
0
39
0
210
0
220
0
230
1
0
LINE
5
83
100
AcDbEntity
8
1
62
256
6
ByLayer
370
18
48
1
60
0
100
AcDbLine
10
22.27078
20
-8.855765
30
0
11
22.372729
21
-8.954726
31
0
39
0
210
0
220
0
230
1
0
LINE
5
84
100
AcDbEntity
8
1
62
256
6
ByLayer
370
18
48
1
60
0
100
AcDbLine
10
21.651525
20
-19.047503
30
0
11
20.430844
21
-18.964455
31
0
39
0
210
0
220
0
230
1
0
LINE
5
85
100
AcDbEntity
8
1
62
256
6
ByLayer
370
18
48
1
60
0
100
AcDbLine
10
-0.325
20
-15.709148
30
0
11
-0.325
21
-14.881695
31
0
39
0
210
0
220
0
230
1
0
LINE
5
86
100
AcDbEntity
8
1
62
256
6
ByLayer
370
18
48
1
60
0
100
AcDbLine
10
0.343279
20
-18.408217
30
0
11
0.343279
21
-18.537327
31
0
39
0
210
0
220
0
230
1
0
LINE
5
87
100
AcDbEntity
8
1
62
256
6
ByLayer
370
18
48
1
60
0
100
AcDbLine
10
0.343279
20
-16.008511
30
0
11
0.343279
21
-16.254923
31
0
39
0
210
0
220
0
230
1
0
LINE
5
88
100
AcDbEntity
8
1
62
256
6
ByLayer
370
18
48
1
60
0
100
AcDbLine
10
-0.325
20
-18.504117
30
0
11
-0.325
21
-18.730719
31
0
39
0
210
0
220
0
230
1
0
LINE
5
89
100
AcDbEntity
8
1
62
256
6
ByLayer
370
18
48
1
60
0
100
AcDbLine
10
-0.325
20
-18.089081
30
0
11
-0.325
21
-18.412695
31
0
39
0
210
0
220
0
230
1
0
LINE
5
8A
100
AcDbEntity
8
1
62
256
6
ByLayer
370
18
48
1
60
0
100
AcDbLine
10
6.775
20
-8.717798
30
0
11
6.675
21
-8.717798
31
0
39
0
210
0
220
0
230
1
0
LINE
5
8B
100
AcDbEntity
8
1
62
256
6
ByLayer
370
18
48
1
60
0
100
AcDbLine
10
12.5
20
-10.526707
30
0
11
6.925255
21
-10.526707
31
0
39
0
210
0
220
0
230
1
0
LINE
5
8C
100
AcDbEntity
8
1
62
256
6
ByLayer
370
18
48
1
60
0
100
AcDbLine
10
-0.325
20
-17.375337
30
0
11
-0.325
21
-16.832702
31
0
39
0
210
0
220
0
230
1
0
LINE
5
8D
100
AcDbEntity
8
1
62
256
6
ByLayer
370
18
48
1
60
0
100
AcDbLine
10
21.651525
20
-19.047503
30
0
11
20.939965
21
-18.202529
31
0
39
0
210
0
220
0
230
1
0
LINE
5
8E
100
AcDbEntity
8
1
62
256
6
ByLayer
370
18
48
1
60
0
100
AcDbLine
10
21.963063
20
-25.206205
30
0
11
22.405764
21
-25.820067
31
0
39
0
210
0
220
0
230
1
0
LINE
5
8F
100
AcDbEntity
8
1
62
256
6
ByLayer
370
18
48
1
60
0
100
AcDbLine
10
0.343279
20
-9.118793
30
0
11
0.343279
21
-9.764351
31
0
39
0
210
0
220
0
230
1
0
LINE
5
90
100
AcDbEntity
8
1
62
256
6
ByLayer
370
18
48
1
60
0
100
AcDbLine
10
-0.325
20
-14.576174
30
0
11
-0.325
21
-13.55645
31
0
39
0
210
0
220
0
230
1
0
LINE
5
91
100
AcDbEntity
8
1
62
256
6
ByLayer
370
18
48
1
60
0
100
AcDbLine
10
0.343279
20
-17.771675
30
0
11
0.343279
21
-17.934952
31
0
39
0
210
0
220
0
230
1
0
LINE
5
92
100
AcDbEntity
8
1
62
256
6
ByLayer
370
18
48
1
60
0
100
AcDbLine
10
22.220224
20
-25.223701
30
0
11
21.651525
21
-19.047503
31
0
39
0
210
0
220
0
230
1
0
LINE
5
93
100
AcDbEntity
8
1
62
256
6
ByLayer
370
18
48
1
60
0
100
AcDbLine
10
-0.325
20
-19
30
0
11
0.675
21
-20
31
0
39
0
210
0
220
0
230
1
0
LINE
5
94
100
AcDbEntity
8
1
62
256
6
ByLayer
370
18
48
1
60
0
100
AcDbLine
10
21.11765
20
-17.956192
30
0
11
19.559095
21
-17.850157
31
0
39
0
210
0
220
0
230
1
0
LINE
5
95
100
AcDbEntity
8
1
62
256
6
ByLayer
370
18
48
1
60
0
100
AcDbLine
10
-0.325
20
-17.536458
30
0
11
-0.325
21
-17.964266
31
0
39
0
210
0
220
0
230
1
0
LINE
5
96
100
AcDbEntity
8
1
62
256
6
ByLayer
370
18
48
1
60
0
100
AcDbLine
10
0.343279
20
-13.368336
30
0
11
0.343279
21
-13.739816
31
0
39
0
210
0
220
0
230
1
0
LINE
5
97
100
AcDbEntity
8
1
62
256
6
ByLayer
370
18
48
1
60
0
100
AcDbLine
10
20.51153
20
-10.685761
30
0
11
20.575804
21
-10.774886
31
0
39
0
210
0
220
0
230
1
0
LINE
5
98
100
AcDbEntity
8
1
62
256
6
ByLayer
370
18
48
1
60
0
100
AcDbLine
10
19.554315
20
-17.677771
30
0
11
21.102507
21
-17.783101
31
0
39
0
210
0
220
0
230
1
0
LINE
5
99
100
AcDbEntity
8
1
62
256
6
ByLayer
370
18
48
1
60
0
100
AcDbLine
10
16.790136
20
-18.348085
30
0
11
16.921319
21
-16.521426
31
0
39
0
210
0
220
0
230
1
0
LINE
5
9A
100
AcDbEntity
8
1
62
256
6
ByLayer
370
18
48
1
60
0
100
AcDbLine
10
19.559095
20
-17.850157
30
0
11
20.430844
21
-18.964455
31
0
39
0
210
0
220
0
230
1
0
LINE
5
9B
100
AcDbEntity
8
1
62
256
6
ByLayer
370
18
48
1
60
0
100
AcDbLine
10
0.343279
20
-19.272323
30
0
11
0.343279
21
-19.340954
31
0
39
0
210
0
220
0
230
1
0
LINE
5
9C
100
AcDbEntity
8
1
62
256
6
ByLayer
370
18
48
1
60
0
100
AcDbLine
10
-0.325
20
-18.790685
30
0
11
-0.325
21
-18.924913
31
0
39
0
210
0
220
0
230
1
0
LINE
5
9D
100
AcDbEntity
8
1
62
256
6
ByLayer
370
18
48
1
60
0
100
AcDbLine
10
0.343279
20
-16.979471
30
0
11
0.343279
21
-17.181168
31
0
39
0
210
0
220
0
230
1
0
LINE
5
9E
100
AcDbEntity
8
1
62
256
6
ByLayer
370
18
48
1
60
0
100
AcDbLine
10
-0.325
20
14.576174
30
0
11
-0.325
21
13.55645
31
0
39
0
210
0
220
0
230
1
0
LINE
5
9F
100
AcDbEntity
8
1
62
256
6
ByLayer
370
18
48
1
60
0
100
AcDbLine
10
0.343279
20
19.340954
30
0
11
0.343279
21
19.272323
31
0
39
0
210
0
220
0
230
1
0
LINE
5
A0
100
AcDbEntity
8
SK1
62
256
6
ByLayer
370
18
48
1
60
0
100
AcDbLine
10
-3.225
20
3
30
0
11
-3.825
21
2.65359
31
0
39
0
210
0
220
0
230
1
0
LINE
5
A2
100
AcDbEntity
8
1
62
256
6
ByLayer
370
18
48
1
60
0
100
AcDbLine
10
-0.325
20
13.177721
30
0
11
-0.325
21
11.899153
31
0
39
0
210
0
220
0
230
1
0
LINE
5
A3
100
AcDbEntity
8
1
62
256
6
ByLayer
370
18
48
1
60
0
100
AcDbLine
10
-0.325
20
9.084456
30
0
11
-0.325
21
6.61172
31
0
39
0
210
0
220
0
230
1
0
LINE
5
A4
100
AcDbEntity
8
1
62
256
6
ByLayer
370
18
48
1
60
0
100
AcDbLine
10
-0.325
20
17.375337
30
0
11
-0.325
21
17.536458
31
0
39
0
210
0
220
0
230
1
0
LINE
5
A5
100
AcDbEntity
8
SK1
62
256
6
ByLayer
370
18
48
1
60
0
100
AcDbLine
10
-3.225
20
3
30
0
11
-3.225
21
0.856002
31
0
39
0
210
0
220
0
230
1
0
LINE
5
A6
100
AcDbEntity
8
SK1
62
256
6
ByLayer
370
18
48
1
60
0
100
AcDbLine
10
-0.325
20
3
30
0
11
-3.225
21
3
31
0
39
0
210
0
220
0
230
1
0
LINE
5
A7
100
AcDbEntity
8
1
62
256
6
ByLayer
370
18
48
1
60
0
100
AcDbLine
10
6.74959
20
20
30
0
11
0.675
21
20
31
0
39
0
210
0
220
0
230
1
0
LINE
5
A8
100
AcDbEntity
8
1
62
256
6
ByLayer
370
18
48
1
60
0
100
AcDbLine
10
0.343279
20
15.124567
30
0
11
0.343279
21
14.823711
31
0
39
0
210
0
220
0
230
1
0
LINE
5
A9
100
AcDbEntity
8
SK1
62
256
6
ByLayer
370
18
48
1
60
0
100
AcDbLine
10
-3.825
20
-2.65359
30
0
11
-3.225
21
-3
31
0
39
0
210
0
220
0
230
1
0
LINE
5
AA
100
AcDbEntity
8
SK1
62
256
6
ByLayer
370
18
48
1
60
0
100
AcDbLine
10
-3.225
20
0.856002
30
0
11
-3.225
21
-3
31
0
39
0
210
0
220
0
230
1
0
LINE
5
AB
100
AcDbEntity
8
1
62
256
6
ByLayer
370
18
48
1
60
0
100
AcDbLine
10
0.343279
20
6.470901
30
0
11
0.343279
21
5.349988
31
0
39
0
210
0
220
0
230
1
0
LINE
5
AC
100
AcDbEntity
8
1
62
256
6
ByLayer
370
18
48
1
60
0
100
AcDbLine
10
0.343279
20
9.764351
30
0
11
0.343279
21
9.118793
31
0
39
0
210
0
220
0
230
1
0
LINE
5
AD
100
AcDbEntity
8
1
62
256
6
ByLayer
370
18
48
1
60
0
100
AcDbLine
10
9.120109
20
8.944831
30
0
11
6.792633
21
8.944831
31
0
39
0
210
0
220
0
230
1
0
LINE
5
AE
100
AcDbEntity
8
1
62
256
6
ByLayer
370
18
48
1
60
0
100
AcDbLine
10
-0.325
20
9.084456
30
0
11
-0.325
21
9.741783
31
0
39
0
210
0
220
0
230
1
0
LINE
5
AF
100
AcDbEntity
8
SK1
62
256
6
ByLayer
370
18
48
1
60
0
100
AcDbLine
10
-3.825
20
-2.65359
30
0
11
-3.825
21
0.757159
31
0
39
0
210
0
220
0
230
1
0
LINE
5
B0
100
AcDbEntity
8
1
62
256
6
ByLayer
370
18
48
1
60
0
100
AcDbLine
10
-0.325
20
18.999075
30
0
11
-0.325
21
18.954613
31
0
39
0
210
0
220
0
230
1
0
LINE
5
B1
100
AcDbEntity
8
1
62
256
6
ByLayer
370
18
48
1
60
0
100
AcDbLine
10
0.343279
20
19.002697
30
0
11
0.343279
21
18.904826
31
0
39
0
210
0
220
0
230
1
0
LINE
5
B2
100
AcDbEntity
8
1
62
256
6
ByLayer
370
18
48
1
60
0
100
AcDbLine
10
6.675
20
8.717798
30
0
11
6.775
21
8.717798
31
0
39
0
210
0
220
0
230
1
0
LINE
5
B3
100
AcDbEntity
8
SK1
62
256
6
ByLayer
370
18
48
1
60
0
100
AcDbLine
10
-3.825
20
0.757159
30
0
11
-3.825
21
2.65359
31
0
39
0
210
0
220
0
230
1
0
LINE
5
B4
100
AcDbEntity
8
1
62
256
6
ByLayer
370
18
48
1
60
0
100
AcDbLine
10
-0.325
20
18.730719
30
0
11
-0.325
21
18.504117
31
0
39
0
210
0
220
0
230
1
0
LINE
5
B5
100
AcDbEntity
8
1
62
256
6
ByLayer
370
18
48
1
60
0
100
AcDbLine
10
-0.325
20
11.416648
30
0
11
-0.325
21
11.899153
31
0
39
0
210
0
220
0
230
1
0
LINE
5
B6
100
AcDbEntity
8
1
62
256
6
ByLayer
370
18
48
1
60
0
100
AcDbLine
10
-0.325
20
18.924913
30
0
11
-0.325
21
18.954613
31
0
39
0
210
0
220
0
230
1
0
LINE
5
B7
100
AcDbEntity
8
1
62
256
6
ByLayer
370
18
48
1
60
0
100
AcDbLine
10
-0.325
20
18.412695
30
0
11
-0.325
21
18.089081
31
0
39
0
210
0
220
0
230
1
0
LINE
5
B8
100
AcDbEntity
8
1
62
256
6
ByLayer
370
18
48
1
60
0
100
AcDbLine
10
-0.325
20
18.730719
30
0
11
-0.325
21
18.790685
31
0
39
0
210
0
220
0
230
1
0
LINE
5
B9
100
AcDbEntity
8
1
62
256
6
ByLayer
370
18
48
1
60
0
100
AcDbLine
10
0.343279
20
17.181168
30
0
11
0.343279
21
16.979471
31
0
39
0
210
0
220
0
230
1
0
LINE
5
BA
100
AcDbEntity
8
1
62
256
6
ByLayer
370
18
48
1
60
0
100
AcDbLine
10
-0.325
20
18.924913
30
0
11
-0.325
21
18.790685
31
0
39
0
210
0
220
0
230
1
0
LINE
5
BB
100
AcDbEntity
8
1
62
256
6
ByLayer
370
18
48
1
60
0
100
AcDbLine
10
0.343279
20
13.739816
30
0
11
0.343279
21
13.368336
31
0
39
0
210
0
220
0
230
1
0
LINE
5
BC
100
AcDbEntity
8
1
62
256
6
ByLayer
370
18
48
1
60
0
100
AcDbLine
10
6.792633
20
20
30
0
11
6.792633
21
8.944831
31
0
39
0
210
0
220
0
230
1
0
LINE
5
BD
100
AcDbEntity
8
1
62
256
6
ByLayer
370
18
48
1
60
0
100
AcDbLine
10
-0.325
20
16.63099
30
0
11
-0.325
21
15.95783
31
0
39
0
210
0
220
0
230
1
0
LINE
5
BE
100
AcDbEntity
8
1
62
256
6
ByLayer
370
18
48
1
60
0
100
AcDbLine
10
0.343279
20
19.558693
30
0
11
0.343279
21
19.518003
31
0
39
0
210
0
220
0
230
1
0
LINE
5
BF
100
AcDbEntity
8
1
62
256
6
ByLayer
370
18
48
1
60
0
100
AcDbLine
10
8.411646
20
11.888077
30
0
11
7.701945
21
20
31
0
39
0
210
0
220
0
230
1
0
LINE
5
C0
100
AcDbEntity
8
1
62
256
6
ByLayer
370
18
48
1
60
0
100
AcDbLine
10
-0.325
20
14.576174
30
0
11
-0.325
21
14.881695
31
0
39
0
210
0
220
0
230
1
0
LINE
5
C1
100
AcDbEntity
8
1
62
256
6
ByLayer
370
18
48
1
60
0
100
AcDbLine
10
-0.325
20
15.709148
30
0
11
-0.325
21
15.95783
31
0
39
0
210
0
220
0
230
1
0
LINE
5
C2
100
AcDbEntity
8
1
62
256
6
ByLayer
370
18
48
1
60
0
100
AcDbLine
10
-0.325
20
15.709148
30
0
11
-0.325
21
14.881695
31
0
39
0
210
0
220
0
230
1
0
LINE
5
C3
100
AcDbEntity
8
1
62
256
6
ByLayer
370
18
48
1
60
0
100
AcDbLine
10
0.343279
20
19.65992
30
0
11
0.343279
21
19.646436
31
0
39
0
210
0
220
0
230
1
0
LINE
5
C4
100
AcDbEntity
8
1
62
256
6
ByLayer
370
18
48
1
60
0
100
AcDbLine
10
-0.325
20
17.964266
30
0
11
-0.325
21
18.089081
31
0
39
0
210
0
220
0
230
1
0
LINE
5
C5
100
AcDbEntity
8
1
62
256
6
ByLayer
370
18
48
1
60
0
100
AcDbLine
10
-0.325
20
18.412695
30
0
11
-0.325
21
18.504117
31
0
39
0
210
0
220
0
230
1
0
LINE
5
C6
100
AcDbEntity
8
1
62
256
6
ByLayer
370
18
48
1
60
0
100
AcDbLine
10
-0.325
20
5.496803
30
0
11
-0.325
21
6.61172
31
0
39
0
210
0
220
0
230
1
0
LINE
5
C7
100
AcDbEntity
8
1
62
256
6
ByLayer
370
18
48
1
60
0
100
AcDbLine
10
0.675
20
20
30
0
11
-0.325
21
19
31
0
39
0
210
0
220
0
230
1
0
LINE
5
C8
100
AcDbEntity
8
1
62
256
6
ByLayer
370
18
48
1
60
0
100
AcDbLine
10
-0.325
20
18.999075
30
0
11
-0.325
21
19
31
0
39
0
210
0
220
0
230
1
0
LINE
5
C9
100
AcDbEntity
8
1
62
256
6
ByLayer
370
18
48
1
60
0
100
AcDbLine
10
6.775
20
20
30
0
11
6.775
21
8.717798
31
0
39
0
210
0
220
0
230
1
0
LINE
5
CA
100
AcDbEntity
8
1
62
256
6
ByLayer
370
18
48
1
60
0
100
AcDbLine
10
0.343279
20
16.254923
30
0
11
0.343279
21
16.008511
31
0
39
0
210
0
220
0
230
1
0
LINE
5
CB
100
AcDbEntity
8
1
62
256
6
ByLayer
370
18
48
1
60
0
100
AcDbLine
10
-0.325
20
17.375337
30
0
11
-0.325
21
16.832702
31
0
39
0
210
0
220
0
230
1
0
LINE
5
CC
100
AcDbEntity
8
1
62
256
6
ByLayer
370
18
48
1
60
0
100
AcDbLine
10
0.343279
20
18.537327
30
0
11
0.343279
21
18.408217
31
0
39
0
210
0
220
0
230
1
0
LINE
5
CD
100
AcDbEntity
8
1
62
256
6
ByLayer
370
18
48
1
60
0
100
AcDbLine
10
-0.325
20
11.416648
30
0
11
-0.325
21
9.741783
31
0
39
0
210
0
220
0
230
1
0
LINE
5
CE
100
AcDbEntity
8
1
62
256
6
ByLayer
370
18
48
1
60
0
100
AcDbLine
10
0.343279
20
12.013016
30
0
11
0.343279
21
11.540468
31
0
39
0
210
0
220
0
230
1
0
LINE
5
CF
100
AcDbEntity
8
1
62
256
6
ByLayer
370
18
48
1
60
0
100
AcDbLine
10
0.343279
20
17.934952
30
0
11
0.343279
21
17.771675
31
0
39
0
210
0
220
0
230
1
0
LINE
5
D0
100
AcDbEntity
8
1
62
256
6
ByLayer
370
18
48
1
60
0
100
AcDbLine
10
-0.325
20
13.177721
30
0
11
-0.325
21
13.55645
31
0
39
0
210
0
220
0
230
1
0
LINE
5
D1
100
AcDbEntity
8
1
62
256
6
ByLayer
370
18
48
1
60
0
100
AcDbLine
10
-0.325
20
17.964266
30
0
11
-0.325
21
17.536458
31
0
39
0
210
0
220
0
230
1
0
LINE
5
D2
100
AcDbEntity
8
SK1
62
256
6
ByLayer
370
18
48
1
60
0
100
AcDbLine
10
-3.225
20
-3
30
0
11
-0.325
21
-3
31
0
39
0
210
0
220
0
230
1
0
LINE
5
D3
100
AcDbEntity
8
1
62
256
6
ByLayer
370
18
48
1
60
0
100
AcDbLine
10
7.701945
20
20
30
0
11
6.792633
21
20
31
0
39
0
210
0
220
0
230
1
0
LINE
5
D4
100
AcDbEntity
8
1
62
256
6
ByLayer
370
18
48
1
60
0
100
AcDbLine
10
-0.325
20
16.63099
30
0
11
-0.325
21
16.832702
31
0
39
0
210
0
220
0
230
1
0
LINE
5
D5
100
AcDbEntity
8
1
62
256
6
ByLayer
370
18
48
1
60
0
100
AcDbLine
10
25.899352
20
-20.623378
30
0
11
26.416878
21
-21.340995
31
0
39
0
210
0
220
0
230
1
0
LINE
5
D6
100
AcDbEntity
8
1
62
256
6
ByLayer
370
18
48
1
60
0
100
AcDbLine
10
25.905902
20
-13.544043
30
0
11
28.742131
21
-13.737004
31
0
39
0
210
0
220
0
230
1
0
LINE
5
D7
100
AcDbEntity
8
1
62
256
6
ByLayer
370
18
48
1
60
0
100
AcDbLine
10
22.980472
20
-26.137168
30
0
11
34.142219
21
-26.898168
31
0
39
0
210
0
220
0
230
1
0
LINE
5
D8
100
AcDbEntity
8
1
62
256
6
ByLayer
370
18
48
1
60
0
100
AcDbLine
10
34.997049
20
-26.033656
30
0
11
34.028575
21
-14.963941
31
0
39
0
210
0
220
0
230
1
0
LINE
5
D9
100
AcDbEntity
8
1
62
256
6
ByLayer
370
18
48
1
60
0
100
AcDbLine
10
28.063077
20
-17.696817
30
0
11
28.037068
21
-17.660752
31
0
39
0
210
0
220
0
230
1
0
LINE
5
DA
100
AcDbEntity
8
1
62
256
6
ByLayer
370
18
48
1
60
0
100
AcDbLine
10
24.642529
20
-9.068824
30
0
11
25.113007
21
-9.721203
31
0
39
0
210
0
220
0
230
1
0
LINE
5
DB
100
AcDbEntity
8
1
62
256
6
ByLayer
370
18
48
1
60
0
100
AcDbLine
10
29.572811
20
-13.942055
30
0
11
33.089255
21
-14.181293
31
0
39
0
210
0
220
0
230
1
0
LINE
5
DC
100
AcDbEntity
8
1
62
256
6
ByLayer
370
18
48
1
60
0
100
AcDbLine
10
29.60775
20
-18.689697
30
0
11
29.090224
21
-17.97208
31
0
39
0
210
0
220
0
230
1
0
LINE
5
DD
100
AcDbEntity
8
1
62
256
6
ByLayer
370
18
48
1
60
0
100
AcDbLine
10
22.981823
20
-9.545968
30
0
11
23.452302
21
-10.198347
31
0
39
0
210
0
220
0
230
1
0
LINE
5
DE
100
AcDbEntity
8
1
62
256
6
ByLayer
370
18
48
1
60
0
100
AcDbLine
10
24.863788
20
-8.23901
30
0
11
25.04488
21
-7.559838
31
0
39
0
210
0
220
0
230
1
0
LINE
5
DF
100
AcDbEntity
8
1
62
256
6
ByLayer
370
18
48
1
60
0
100
AcDbLine
10
27.064467
20
-6.095434
30
0
11
27.000192
21
-6.00631
31
0
39
0
210
0
220
0
230
1
0
LINE
5
E0
100
AcDbEntity
8
1
62
256
6
ByLayer
370
18
48
1
60
0
100
AcDbLine
10
24.642529
20
-9.068824
30
0
11
24.863788
21
-8.23901
31
0
39
0
210
0
220
0
230
1
0
LINE
5
E1
100
AcDbEntity
8
1
62
256
6
ByLayer
370
18
48
1
60
0
100
AcDbLine
10
22.981823
20
-9.545968
30
0
11
23.812176
21
-9.307396
31
0
39
0
210
0
220
0
230
1
0
LINE
5
E2
100
AcDbEntity
8
1
62
256
6
ByLayer
370
18
48
1
60
0
100
AcDbLine
10
33.887036
20
-14.58248
30
0
11
33.327167
21
-13.806149
31
0
39
0
210
0
220
0
230
1
0
LINE
5
E3
100
AcDbEntity
8
1
62
256
6
ByLayer
370
18
48
1
60
0
100
AcDbLine
10
23.812176
20
-9.307396
30
0
11
24.642529
21
-9.068824
31
0
39
0
210
0
220
0
230
1
0
LINE
5
E4
100
AcDbEntity
8
1
62
256
6
ByLayer
370
18
48
1
60
0
100
AcDbLine
10
32.05
20
-2.9
30
0
11
32.050483
21
-2.9
31
0
39
0
210
0
220
0
230
1
0
LINE
5
E5
100
AcDbEntity
8
1
62
256
6
ByLayer
370
18
48
1
60
0
100
AcDbLine
10
20.927465
20
-13.353875
30
0
11
25.049084
21
-13.634286
31
0
39
0
210
0
220
0
230
1
0
LINE
5
E6
100
AcDbEntity
8
1
62
256
6
ByLayer
370
18
48
1
60
0
100
AcDbLine
10
-0.325
20
5.496803
30
0
11
-0.325
21
-5.496803
31
0
39
0
210
0
220
0
230
1
0
LINE
5
E7
100
AcDbEntity
8
1
62
256
6
ByLayer
370
18
48
1
60
0
100
AcDbLine
10
-0.325
20
-18.089081
30
0
11
-0.325
21
-17.964266
31
0
39
0
210
0
220
0
230
1
0
LINE
5
E8
100
AcDbEntity
8
1
62
256
6
ByLayer
370
18
48
1
60
0
100
AcDbLine
10
-0.325
20
-9.741783
30
0
11
-0.325
21
-9.084456
31
0
39
0
210
0
220
0
230
1
0
LINE
5
E9
100
AcDbEntity
8
1
62
256
6
ByLayer
370
18
48
1
60
0
100
AcDbLine
10
33.089255
20
-14.181293
30
0
11
32.050483
21
-2.9
31
0
39
0
210
0
220
0
230
1
0
LINE
5
EA
100
AcDbEntity
8
1
62
256
6
ByLayer
370
18
48
1
60
0
100
AcDbLine
10
-0.325
20
-19
30
0
11
-0.325
21
-18.999075
31
0
39
0
210
0
220
0
230
1
0
LINE
5
EB
100
AcDbEntity
8
1
62
256
6
ByLayer
370
18
48
1
60
0
100
AcDbLine
10
-0.325
20
-16.832702
30
0
11
-0.325
21
-16.63099
31
0
39
0
210
0
220
0
230
1
0
LINE
5
EC
100
AcDbEntity
8
1
62
256
6
ByLayer
370
18
48
1
60
0
100
AcDbLine
10
6.275
20
-7.838367
30
0
11
6.275
21
7.838367
31
0
39
0
210
0
220
0
230
1
0
LINE
5
ED
100
AcDbEntity
8
1
62
256
6
ByLayer
370
18
48
1
60
0
100
AcDbLine
10
-0.325
20
-11.899153
30
0
11
-0.325
21
-11.416648
31
0
39
0
210
0
220
0
230
1
0
LINE
5
EE
100
AcDbEntity
8
1
62
256
6
ByLayer
370
18
48
1
60
0
100
AcDbLine
10
-0.325
20
-17.536458
30
0
11
-0.325
21
-17.375337
31
0
39
0
210
0
220
0
230
1
0
LINE
5
EF
100
AcDbEntity
8
1
62
256
6
ByLayer
370
18
48
1
60
0
100
AcDbLine
10
7.555072
20
-21.927071
30
0
11
7.555072
21
-24.212668
31
0
39
0
210
0
220
0
230
1
0
LINE
5
F0
100
AcDbEntity
8
1
62
256
6
ByLayer
370
18
48
1
60
0
100
AcDbLine
10
-0.325
20
-13.55645
30
0
11
-0.325
21
-13.177721
31
0
39
0
210
0
220
0
230
1
0
LINE
5
F1
100
AcDbEntity
8
1
62
256
6
ByLayer
370
18
48
1
60
0
100
AcDbLine
10
6.775
20
-8.717798
30
0
11
6.775
21
-20
31
0
39
0
210
0
220
0
230
1
0
LINE
5
F2
100
AcDbEntity
8
1
62
256
6
ByLayer
370
18
48
1
60
0
100
AcDbLine
10
6.675
20
-8.717798
30
0
11
6.675
21
8.717798
31
0
39
0
210
0
220
0
230
1
0
LINE
5
F3
100
AcDbEntity
8
1
62
256
6
ByLayer
370
18
48
1
60
0
100
AcDbLine
10
0.675
20
-20
30
0
11
0.675
21
20
31
0
39
0
210
0
220
0
230
1
0
LINE
5
F4
100
AcDbEntity
8
1
62
256
6
ByLayer
370
18
48
1
60
0
100
AcDbLine
10
-0.325
20
-15.95783
30
0
11
-0.325
21
-15.709148
31
0
39
0
210
0
220
0
230
1
0
LINE
5
F5
100
AcDbEntity
8
1
62
256
6
ByLayer
370
18
48
1
60
0
100
AcDbLine
10
-0.325
20
-6.61172
30
0
11
-0.325
21
-5.496803
31
0
39
0
210
0
220
0
230
1
0
LINE
5
F6
100
AcDbEntity
8
1
62
256
6
ByLayer
370
18
48
1
60
0
100
AcDbLine
10
26.072832
20
2.577066
30
0
11
18.572832
21
2.577066
31
0
39
0
210
0
220
0
230
1
0
LINE
5
F7
100
AcDbEntity
8
1
62
256
6
ByLayer
370
18
48
1
60
0
100
AcDbLine
10
-0.325
20
-18.790685
30
0
11
-0.325
21
-18.730719
31
0
39
0
210
0
220
0
230
1
0
LINE
5
F8
100
AcDbEntity
8
1
62
256
6
ByLayer
370
18
48
1
60
0
100
AcDbLine
10
-0.325
20
-14.881695
30
0
11
-0.325
21
-14.576174
31
0
39
0
210
0
220
0
230
1
0
LINE
5
F9
100
AcDbEntity
8
1
62
256
6
ByLayer
370
18
48
1
60
0
100
AcDbLine
10
18.327446
20
-6.669395
30
0
11
18.564159
21
-3.373289
31
0
39
0
210
0
220
0
230
1
0
LINE
5
FA
100
AcDbEntity
8
1
62
256
6
ByLayer
370
18
48
1
60
0
100
AcDbLine
10
12.5
20
-10.526707
30
0
11
12.5
21
4.581901
31
0
39
0
210
0
220
0
230
1
0
LINE
5
FB
100
AcDbEntity
8
1
62
256
6
ByLayer
370
18
48
1
60
0
100
AcDbLine
10
17.86031
20
-3.446459
30
0
11
16.921319
21
-16.521426
31
0
39
0
210
0
220
0
230
1
0
LINE
5
FC
100
AcDbEntity
8
1
62
256
6
ByLayer
370
18
48
1
60
0
100
AcDbLine
10
-0.325
20
-18.954613
30
0
11
-0.325
21
-18.924913
31
0
39
0
210
0
220
0
230
1
0
LINE
5
FD
100
AcDbEntity
8
1
62
256
6
ByLayer
370
18
48
1
60
0
100
AcDbLine
10
-0.325
20
-18.504117
30
0
11
-0.325
21
-18.412695
31
0
39
0
210
0
220
0
230
1
0
LINE
5
FE
100
AcDbEntity
8
1
62
256
6
ByLayer
370
18
48
1
60
0
100
AcDbLine
10
22.372729
20
-8.954726
30
0
11
22.981823
21
-9.545968
31
0
39
0
210
0
220
0
230
1
0
LINE
5
FF
100
AcDbEntity
8
4
62
256
6
ByLayer
370
13
48
0.05
60
0
100
AcDbLine
10
0
20
0
30
0
11
35
21
0
31
0
39
0
210
0
220
0
230
1
0
LINE
5
101
100
AcDbEntity
8
SK4
62
256
6
ByLayer
370
13
48
0.05
60
0
100
AcDbLine
10
-5
20
0
30
0
11
39
21
0
31
0
39
0
210
0
220
0
230
1
0
LINE
5
103
100
AcDbEntity
8
80
62
256
6
ByLayer
370
13
48
1
60
0
100
AcDbLine
10
0
20
0
30
0
11
-4
21
0
31
0
39
0
210
0
220
0
230
1
0
LINE
5
104
100
AcDbEntity
8
81
62
256
6
ByLayer
370
13
48
1
60
0
100
AcDbLine
10
35
20
-27
30
0
11
39
21
-27
31
0
39
0
210
0
220
0
230
1
0
MTEXT
5
1D7
100
AcDbEntity
8
SK6
62
256
6
ByLayer
370
13
48
1
60
0
100
AcDbMText
10
-5.953596
20
-56.552706
30
0
210
0
220
0
230
1
1
\W0.7459;SL-PCLNL-40-12HP
40
3.175
41
0
44
1.084337
50
0
71
7
72
5
7
iso_b_vert
0
DIMENSION
5
1E6
100
AcDbEntity
8
SK2
62
256
6
ByLayer
370
13
48
1
60
0
100
AcDbDimension
2
DimnDraft3D1
10
-16.849751
20
20
30
0
11
-16.056001
21
2.343651
31
0
70
33
71
5
72
1
41
1
210
0
220
0
230
1
3
Standard
100
AcDbAlignedDimension
13
-0.9125
23
-20
33
0
14
-0.9125
24
20
34
0
1001
ACAD
1000
DSTYLE
1002
{
1070
   279
1070
     0
1070
    74
1070
     0
1070
   173
1070
     1
1070
   340
1005
1D8
1070
   271
1070
     3
1070
   272
1070
     3
1070
    77
1070
     1
1070
    73
1070
     0
1070
   171
1070
     4
1070
   274
1070
     4
1070
   177
1070
     7
1070
   176
1070
     7
1070
   178
1070
     7
1070
    78
1070
     8
1070
    48
1040
-0.005
1070
    41
1041
3.175
1070
   147
1041
1.5875
1070
    42
1041
1.5875
1070
    44
1041
3.175
1070
   140
1041
3.175
1070
   343
1005
0
1070
   344
1005
0
1002
}
0
DIMENSION
5
1F1
100
AcDbEntity
8
2
62
256
6
ByLayer
370
13
48
1
60
0
100
AcDbDimension
2
DimnDraft3D2
10
-27
20
-47.440419
30
0
11
-15.354868
21
-47.440419
31
0
70
32
71
5
72
1
41
1
210
0
220
0
230
1
3
Standard
100
AcDbAlignedDimension
13
0
23
-40.5875
33
0
14
-27
24
-40.5875
34
0
50
0
100
AcDbRotatedDimension
1001
ACAD
1000
DSTYLE
1002
{
1070
   279
1070
     0
1070
   173
1070
     1
1070
   340
1005
1D8
1070
   271
1070
     3
1070
   272
1070
     3
1070
    77
1070
     1
1070
    73
1070
     0
1070
   171
1070
     4
1070
   274
1070
     4
1070
   177
1070
     7
1070
   176
1070
     7
1070
   178
1070
     7
1070
    78
1070
     8
1070
    48
1040
-0.005
1070
    41
1041
3.175
1070
   147
1041
1.5875
1070
    42
1041
1.5875
1070
    44
1041
3.175
1070
   140
1041
3.175
1070
   343
1005
0
1070
   344
1005
0
1002
}
0
DIMENSION
5
1FB
100
AcDbEntity
8
2
62
256
6
ByLayer
370
13
48
1
60
0
100
AcDbDimension
2
DimnDraft3D3
10
37.748327
20
35
30
0
11
37.748327
21
15.645132
31
0
70
32
71
5
72
1
41
1
210
0
220
0
230
1
3
Standard
100
AcDbAlignedDimension
13
1.5875
23
0
33
0
14
28.5875
24
35
34
0
50
90
100
AcDbRotatedDimension
1001
ACAD
1000
DSTYLE
1002
{
1070
    74
1070
     0
1070
   279
1070
     0
1070
   173
1070
     1
1070
   340
1005
1D8
1070
   271
1070
     3
1070
   272
1070
     3
1070
    77
1070
     1
1070
    73
1070
     0
1070
   171
1070
     4
1070
   274
1070
     4
1070
   177
1070
     7
1070
   176
1070
     7
1070
   178
1070
     7
1070
    78
1070
     8
1070
    48
1040
-0.005
1070
    41
1041
3.175
1070
   147
1041
1.5875
1070
    42
1041
1.5875
1070
    44
1041
3.175
1070
   140
1041
3.175
1070
   343
1005
0
1070
   344
1005
0
1002
}
0
DIMENSION
5
206
100
AcDbEntity
8
SK2
62
256
6
ByLayer
370
13
48
1
60
0
100
AcDbDimension
2
DimnDraft3D4
10
34.028575
20
-14.963941
30
0
11
14.919909
21
-25.82062
31
0
70
34
71
5
72
1
41
1
210
0
220
0
230
1
3
Standard
100
AcDb2LineAngularDimension
13
-5
23
0
33
0
14
39
24
0
34
0
15
34.997049
25
-26.033656
35
0
16
9.778263
26
-41.679527
36
0
40
0
0
ENDSEC
0
SECTION
2
OBJECTS
0
DICTIONARY
5
271
330
0
100
AcDbDictionary
280
0
281
1
3
ACAD_GROUP
350
272
3
ACAD_MLINESTYLE
350
273
0
DICTIONARY
5
272
330
0
100
AcDbDictionary
280
0
281
1
0
DICTIONARY
5
273
330
0
100
AcDbDictionary
280
0
281
1
3
Standard
350
18
0
MLINESTYLE
5
18
330
273
100
AcDbMlineStyle
2
Standard
70
0
3

62
256
51
90
52
90
71
2
49
-0.5
62
256
6
ByLayer
49
0.5
62
256
6
ByLayer
0
RASTERVARIABLES
5
25f
330

100
AcDbRasterVariables
90
0
70
1
71
1
72
1
0
ENDSEC
0
EOF
