0
SECTION
2
HEADER
9
$ACADVER
1
AC1015
9
$DWGCODEPAGE
3
ANSI_1252
9
$HANDSEED
5
2f9
9
$ANGBASE
50
0
9
$ANGDIR
70
0
9
$ATTMODE
70
1
9
$AUNITS
70
0
9
$AUPREC
70
0
9
$CECOLOR
62
256
9
$CELTSCALE
40
1
9
$CELTYPE
6
ByLayer
9
$CELWEIGHT
370
18
9
$CLAYER
8
0
9
$CMLJUST
70
0
9
$CMLSCALE
40
1
9
$CMLSTYLE
2
Standard
9
$DIMSTYLE
2
Standard
9
$TEXTSIZE
40
0.2
9
$TEXTSTYLE
7
Standard
9
$LUNITS
70
2
9
$LUPREC
70
4
9
$EXTNAMES
290
1
9
$INSUNITS
70
4
9
$LTSCALE
40
1
9
$LWDISPLAY
290
1
9
$PDMODE
70
0
9
$PDSIZE
40
0
9
$PLINEGEN
70
0
0
ENDSEC
0
SECTION
2
CLASSES
0
CLASS
1
RASTERVARIABLES
2
AcDbRasterVariables
3
ISM
90
0
280
0
281
0
0
ENDSEC
0
SECTION
2
TABLES
0
TABLE
2
VPORT
5
2ef
100
AcDbSymbolTable
0
VPORT
5
1
100
AcDbSymbolTableRecord
100
AcDbViewportTableRecord
2
*Active
70
0
10
0
20
0
11
1
21
1
12
-1
22
1
13
0
23
0
14
0.5
24
0.5
15
10
25
10
16
0
26
0
36
1
17
0
27
0
37
0
0
ENDTAB
0
TABLE
2
LTYPE
5
2f0
100
AcDbSymbolTable
0
LTYPE
5
14
100
AcDbSymbolTableRecord
100
AcDbLinetypeTableRecord
70
0
2
ByBlock
3

72
65
73
0
40
0
0
LTYPE
5
15
100
AcDbSymbolTableRecord
100
AcDbLinetypeTableRecord
70
0
2
ByLayer
3

72
65
73
0
40
0
0
LTYPE
5
16
100
AcDbSymbolTableRecord
100
AcDbLinetypeTableRecord
70
0
2
CONTINUOUS
3
Solid line
72
65
73
0
40
0
0
LTYPE
5
6A
100
AcDbSymbolTableRecord
100
AcDbLinetypeTableRecord
70
0
2
CENTER
3
____ _ ____ _ ____ _ ____
72
65
73
4
40
47.5
49
22
74
0
49
-8.5
74
0
49
8.5
74
0
49
-8.5
74
0
0
LTYPE
5
6B
100
AcDbSymbolTableRecord
100
AcDbLinetypeTableRecord
70
0
2
DASHED
3
__ __ __ __ __ __ __ __ __
72
65
73
2
40
25.72
49
12.86
74
0
49
-12.86
74
0
0
ENDTAB
0
TABLE
2
LAYER
5
2f1
100
AcDbSymbolTable
0
LAYER
5
10
100
AcDbSymbolTableRecord
100
AcDbLayerTableRecord
2
0
70
0
62
7
6
CONTINUOUS
290
1
370
-3
390
0
0
LAYER
5
6D
100
AcDbSymbolTableRecord
100
AcDbLayerTableRecord
2
80
70
0
62
-6
6
CONTINUOUS
290
1
370
-3
390
0
0
LAYER
5
6F
100
AcDbSymbolTableRecord
100
AcDbLayerTableRecord
2
81
70
0
62
-3
6
CONTINUOUS
290
1
370
-3
390
0
0
LAYER
5
72
100
AcDbSymbolTableRecord
100
AcDbLayerTableRecord
2
4
70
0
62
-2
6
CENTER
290
1
370
-3
390
0
0
LAYER
5
80
100
AcDbSymbolTableRecord
100
AcDbLayerTableRecord
2
1
70
0
62
4
6
CONTINUOUS
290
1
370
-3
390
0
0
LAYER
5
24F
100
AcDbSymbolTableRecord
100
AcDbLayerTableRecord
2
2
70
0
62
7
6
CONTINUOUS
290
1
370
-3
390
0
0
LAYER
5
2db
100
AcDbSymbolTableRecord
100
AcDbLayerTableRecord
2
SK4
70
0
62
2
6
CENTER
290
1
370
-3
390
0
0
LAYER
5
2dc
100
AcDbSymbolTableRecord
100
AcDbLayerTableRecord
2
SK1
70
0
62
4
6
CONTINUOUS
290
1
370
-3
390
0
0
LAYER
5
2dd
100
AcDbSymbolTableRecord
100
AcDbLayerTableRecord
2
SK6
70
0
62
5
6
CONTINUOUS
290
1
370
-3
390
0
0
LAYER
5
2de
100
AcDbSymbolTableRecord
100
AcDbLayerTableRecord
2
SK2
70
0
62
7
6
CONTINUOUS
290
1
370
-3
390
0
0
ENDTAB
0
TABLE
2
STYLE
5
2f2
100
AcDbSymbolTable
0
STYLE
5
11
100
AcDbSymbolTableRecord
100
AcDbTextStyleTableRecord
2
Standard
3
txt
70
0
71
0
40
0
41
1
42
0
50
0
0
STYLE
5
24A
100
AcDbSymbolTableRecord
100
AcDbTextStyleTableRecord
2
iso_b_vert
3
simplex.shx
70
0
71
0
40
0
41
1
42
0
50
0
0
STYLE
5
24B
100
AcDbSymbolTableRecord
100
AcDbTextStyleTableRecord
2
DWGDirectTextStyle
3
simplex
70
0
71
0
40
0
41
1
42
0
50
0
0
ENDTAB
0
TABLE
2
DIMSTYLE
5
2f3
100
AcDbSymbolTable
100
AcDbDimStyleTable
0
DIMSTYLE
105
27
100
AcDbSymbolTableRecord
100
AcDbDimStyleTableRecord
2
Standard
70
0
3
<>
41
0.18
42
0.0625
44
0.18
140
0.18
147
0.09
73
0
74
0
77
1
271
2
275
0
278
52
280
0
340
11
0
ENDTAB
0
TABLE
2
VIEW
5
2f4
100
AcDbSymbolTable
0
ENDTAB
0
TABLE
2
UCS
5
2f5
100
AcDbSymbolTable
0
ENDTAB
0
TABLE
2
APPID
5
2f6
100
AcDbSymbolTable
0
APPID
5
12
100
AcDbSymbolTableRecord
100
AcDbRegAppTableRecord
2
ACAD
70
0
0
ENDTAB
0
TABLE
2
BLOCK_RECORD
5
2f7
100
AcDbSymbolTable
0
BLOCK_RECORD
5
1F
100
AcDbSymbolTableRecord
100
AcDbBlockTableRecord
2
*Model_Space
340
0
70
0
0
BLOCK_RECORD
5
1B
100
AcDbSymbolTableRecord
100
AcDbBlockTableRecord
2
*Paper_Space
340
0
70
0
0
BLOCK_RECORD
5
23
100
AcDbSymbolTableRecord
100
AcDbBlockTableRecord
2
*Paper_Space0
340
0
70
0
0
BLOCK_RECORD
5
24D
100
AcDbSymbolTableRecord
100
AcDbBlockTableRecord
2
DimnDraft3D1
340
0
70
0
0
BLOCK_RECORD
5
258
100
AcDbSymbolTableRecord
100
AcDbBlockTableRecord
2
DimnDraft3D2
340
0
70
0
0
BLOCK_RECORD
5
264
100
AcDbSymbolTableRecord
100
AcDbBlockTableRecord
2
DimnDraft3D33
340
0
70
0
0
BLOCK_RECORD
5
26E
100
AcDbSymbolTableRecord
100
AcDbBlockTableRecord
2
DimnDraft3D44
340
0
70
0
0
BLOCK_RECORD
5
278
100
AcDbSymbolTableRecord
100
AcDbBlockTableRecord
2
DimnDraft3D55
340
0
70
0
0
ENDTAB
0
ENDSEC
0
SECTION
2
BLOCKS
0
BLOCK
5
20
100
AcDbEntity
8
0
100
AcDbBlockBegin
2
*Model_Space
70
0
10
0
20
0
30
0
3
*Model_Space
0
ENDBLK
5
21
100
AcDbEntity
8
0
100
AcDbBlockEnd
0
BLOCK
5
1C
100
AcDbEntity
8
0
100
AcDbBlockBegin
2
*Paper_Space
70
0
10
0
20
0
30
0
3
*Paper_Space
0
ENDBLK
5
1D
100
AcDbEntity
8
0
100
AcDbBlockEnd
0
BLOCK
5
24
100
AcDbEntity
8
0
100
AcDbBlockBegin
2
*Paper_Space0
70
0
10
0
20
0
30
0
3
*Paper_Space0
0
ENDBLK
5
25
100
AcDbEntity
8
0
100
AcDbBlockEnd
0
BLOCK
5
255
100
AcDbEntity
8
0
100
AcDbBlockBegin
2
DimnDraft3D1
70
0
10
0
20
0
30
0
3
DimnDraft3D1
0
MTEXT
5
24E
100
AcDbEntity
8
2
62
256
6
ByLayer
370
13
48
1
60
0
100
AcDbMText
10
5.29398
20
32.127305
30
0
210
0
220
0
230
1
1
\W0.5321;12
40
3.175
41
0
44
1.084337
50
0
71
7
72
5
7
iso_b_vert
0
LINE
5
250
100
AcDbEntity
8
2
62
256
6
ByLayer
370
13
48
1
60
0
100
AcDbLine
10
0
20
1.5875
30
0
11
0
21
34.508555
31
0
39
0
210
0
220
0
230
1
0
LINE
5
251
100
AcDbEntity
8
2
62
256
6
ByLayer
370
13
48
1
60
0
100
AcDbLine
10
12
20
1.5875
30
0
11
12
21
34.508555
31
0
39
0
210
0
220
0
230
1
0
LINE
5
252
100
AcDbEntity
8
2
62
256
6
ByLayer
370
13
48
1
60
0
100
AcDbLine
10
0
20
31.333555
30
0
11
12
21
31.333555
31
0
39
0
210
0
220
0
230
1
0
SOLID
5
253
100
AcDbEntity
8
2
62
256
6
ByLayer
370
13
48
1
60
0
100
AcDbTrace
10
0
20
31.333555
30
0
11
3.174998
21
31.751552
31
0
12
3.175002
22
30.915558
32
0
13
0
23
31.333555
33
0
39
0
210
0
220
0
230
1
0
SOLID
5
254
100
AcDbEntity
8
2
62
256
6
ByLayer
370
13
48
1
60
0
100
AcDbTrace
10
12
20
31.333555
30
0
11
8.825002
21
30.915558
31
0
12
8.824998
22
31.751552
32
0
13
12
23
31.333555
33
0
39
0
210
0
220
0
230
1
0
ENDBLK
5
256
100
AcDbEntity
8
0
100
AcDbBlockEnd
0
BLOCK
5
261
100
AcDbEntity
8
0
100
AcDbBlockBegin
2
DimnDraft3D2
70
0
10
0
20
0
30
0
3
DimnDraft3D2
0
MTEXT
5
259
100
AcDbEntity
8
SK2
62
256
6
ByLayer
370
13
48
1
60
0
100
AcDbMText
10
-20.319485
20
3.095625
30
0
210
0
220
0
230
1
1
\W0.7361;40
40
3.175
41
0
44
1.084337
50
90
71
7
72
5
7
iso_b_vert
0
MTEXT
5
25B
100
AcDbEntity
8
SK2
62
256
6
ByLayer
370
13
48
1
60
0
100
AcDbMText
10
-20.319485
20
-4.02332
30
0
210
0
220
0
230
1
1
%%c
40
3.175
41
0
44
1.084337
50
90
71
7
72
5
7
iso_b_vert
0
LINE
5
25C
100
AcDbEntity
8
SK2
62
256
6
ByLayer
370
13
48
1
60
0
100
AcDbLine
10
-1.1625
20
20
30
0
11
-21.906985
21
20
31
0
39
0
210
0
220
0
230
1
0
LINE
5
25D
100
AcDbEntity
8
SK2
62
256
6
ByLayer
370
13
48
1
60
0
100
AcDbLine
10
-1.1625
20
-20
30
0
11
-21.906985
21
-20
31
0
39
0
210
0
220
0
230
1
0
LINE
5
25E
100
AcDbEntity
8
SK2
62
256
6
ByLayer
370
13
48
1
60
0
100
AcDbLine
10
-18.731985
20
20
30
0
11
-18.731985
21
-20
31
0
39
0
210
0
220
0
230
1
0
SOLID
5
25F
100
AcDbEntity
8
SK2
62
256
6
ByLayer
370
13
48
1
60
0
100
AcDbTrace
10
-18.731985
20
20
30
0
11
-18.313988
21
16.825002
31
0
12
-19.149982
22
16.824998
32
0
13
-18.731985
23
20
33
0
39
0
210
0
220
0
230
1
0
SOLID
5
260
100
AcDbEntity
8
SK2
62
256
6
ByLayer
370
13
48
1
60
0
100
AcDbTrace
10
-18.731985
20
-20
30
0
11
-19.149982
21
-16.825002
31
0
12
-18.313988
22
-16.824998
32
0
13
-18.731985
23
-20
33
0
39
0
210
0
220
0
230
1
0
ENDBLK
5
262
100
AcDbEntity
8
0
100
AcDbBlockEnd
0
BLOCK
5
265
100
AcDbEntity
8
0
100
AcDbBlockBegin
2
DimnDraft3D33
70
0
10
0
20
0
30
0
3
DimnDraft3D33
0
LINE
5
267
100
AcDbEntity
8
SK2
62
256
6
ByLayer
370
25
48
1
60
0
100
AcDbLine
10
0
20
-1.5875
30
0
11
0
21
-37.705694
31
0
39
0
210
0
220
0
230
1
0
LINE
5
268
100
AcDbEntity
8
SK2
62
256
6
ByLayer
370
25
48
1
60
0
100
AcDbLine
10
22.825
20
-6.5875
30
0
11
22.825
21
-37.705694
31
0
39
0
210
0
220
0
230
1
0
LINE
5
269
100
AcDbEntity
8
SK2
62
256
6
ByLayer
370
25
48
1
60
0
100
AcDbLine
10
0
20
-34.530694
30
0
11
22.825
21
-34.530694
31
0
39
0
210
0
220
0
230
1
0
SOLID
5
26A
100
AcDbEntity
8
SK2
62
256
6
ByLayer
370
25
48
1
60
0
100
AcDbTrace
10
0
20
-34.530694
30
0
11
3.174998
21
-34.112697
31
0
12
3.175002
22
-34.948691
32
0
13
0
23
-34.530694
33
0
39
0
210
0
220
0
230
1
0
SOLID
5
26B
100
AcDbEntity
8
SK2
62
256
6
ByLayer
370
25
48
1
60
0
100
AcDbTrace
10
22.825
20
-34.530694
30
0
11
19.650002
21
-34.948691
31
0
12
19.649998
22
-34.112697
32
0
13
22.825
23
-34.530694
33
0
39
0
210
0
220
0
230
1
0
MTEXT
5
26C
100
AcDbEntity
8
SK2
62
256
6
ByLayer
370
13
48
1
60
0
100
AcDbMText
10
9.022274
20
-33.736944
30
0
210
0
220
0
230
1
1
\W0.7150;22,8
40
3.175
41
0
44
1.084337
50
0
71
7
72
5
7
iso_b_vert
0
ENDBLK
5
266
100
AcDbEntity
8
0
100
AcDbBlockEnd
0
BLOCK
5
26F
100
AcDbEntity
8
0
100
AcDbBlockBegin
2
DimnDraft3D44
70
0
10
0
20
0
30
0
3
DimnDraft3D44
0
LINE
5
271
100
AcDbEntity
8
SK2
62
256
6
ByLayer
370
25
48
1
60
0
100
AcDbLine
10
19.0375
20
17
30
0
11
42.071236
21
17
31
0
39
0
210
0
220
0
230
1
0
LINE
5
272
100
AcDbEntity
8
SK2
62
256
6
ByLayer
370
25
48
1
60
0
100
AcDbLine
10
19.0375
20
-17
30
0
11
42.071236
21
-17
31
0
39
0
210
0
220
0
230
1
0
LINE
5
273
100
AcDbEntity
8
SK2
62
256
6
ByLayer
370
25
48
1
60
0
100
AcDbLine
10
38.896236
20
17
30
0
11
38.896236
21
-17
31
0
39
0
210
0
220
0
230
1
0
SOLID
5
274
100
AcDbEntity
8
SK2
62
256
6
ByLayer
370
25
48
1
60
0
100
AcDbTrace
10
38.896236
20
17
30
0
11
39.314233
21
13.825002
31
0
12
38.478239
22
13.824998
32
0
13
38.896236
23
17
33
0
39
0
210
0
220
0
230
1
0
SOLID
5
275
100
AcDbEntity
8
SK2
62
256
6
ByLayer
370
25
48
1
60
0
100
AcDbTrace
10
38.896236
20
-17
30
0
11
38.478239
21
-13.825002
31
0
12
39.314233
22
-13.824998
32
0
13
38.896236
23
-17
33
0
39
0
210
0
220
0
230
1
0
MTEXT
5
276
100
AcDbEntity
8
SK2
62
256
6
ByLayer
370
13
48
1
60
0
100
AcDbMText
10
38.102486
20
-1.27
30
0
210
0
220
0
230
1
1
\W0.7167;34
40
3.175
41
0
44
1.084337
50
90
71
7
72
5
7
iso_b_vert
0
ENDBLK
5
270
100
AcDbEntity
8
0
100
AcDbBlockEnd
0
BLOCK
5
279
100
AcDbEntity
8
0
100
AcDbBlockBegin
2
DimnDraft3D55
70
0
10
0
20
0
30
0
3
DimnDraft3D55
0
LINE
5
27B
100
AcDbEntity
8
SK2
62
256
6
ByLayer
370
25
48
1
60
0
100
AcDbLine
10
12
20
1.5875
30
0
11
12
21
27.214984
31
0
39
0
210
0
220
0
230
1
0
LINE
5
27C
100
AcDbEntity
8
SK2
62
256
6
ByLayer
370
25
48
1
60
0
100
AcDbLine
10
18.45
20
15.435717
30
0
11
18.45
21
27.214984
31
0
39
0
210
0
220
0
230
1
0
LINE
5
27D
100
AcDbEntity
8
SK2
62
256
6
ByLayer
370
25
48
1
60
0
100
AcDbLine
10
12
20
24.039984
30
0
11
25.577773
21
24.039984
31
0
39
0
210
0
220
0
230
1
0
SOLID
5
27E
100
AcDbEntity
8
SK2
62
256
6
ByLayer
370
25
48
1
60
0
100
AcDbTrace
10
12
20
24.039984
30
0
11
15.174998
21
24.457981
31
0
12
15.175002
22
23.621987
32
0
13
12
23
24.039984
33
0
39
0
210
0
220
0
230
1
0
SOLID
5
27F
100
AcDbEntity
8
SK2
62
256
6
ByLayer
370
25
48
1
60
0
100
AcDbTrace
10
18.45
20
24.039984
30
0
11
15.275002
21
23.621987
31
0
12
15.274998
22
24.457981
32
0
13
18.45
23
24.039984
33
0
39
0
210
0
220
0
230
1
0
MTEXT
5
280
100
AcDbEntity
8
SK2
62
256
6
ByLayer
370
13
48
1
60
0
100
AcDbMText
10
21.124418
20
24.833734
30
0
210
0
220
0
230
1
1
\W0.7178;6,4
40
3.175
41
0
44
1.084337
50
0
71
7
72
5
7
iso_b_vert
0
ENDBLK
5
27A
100
AcDbEntity
8
0
100
AcDbBlockEnd
0
ENDSEC
0
SECTION
2
ENTITIES
0
ELLIPSE
5
150
100
AcDbEntity
8
1
62
256
6
ByLayer
370
18
48
1
60
0
100
AcDbEllipse
10
4
20
5.81977
30
0
11
1.15358983847792
21
0
31
0
210
0
220
0
230
1
40
0.961262
41
-2.23080733724577
42
-1.83013765259623
0
ELLIPSE
5
151
100
AcDbEntity
8
1
62
256
6
ByLayer
370
18
48
1
60
0
100
AcDbEllipse
10
4
20
5.81977
30
0
11
1.15358983848622
21
0
31
0
210
0
220
0
230
1
40
0.961262
41
-1.83013765259577
42
-2.23080733724201
0
ELLIPSE
5
152
100
AcDbEntity
8
1
62
256
6
ByLayer
370
18
48
1
60
0
100
AcDbEllipse
10
4
20
5.268495
30
0
11
0.750000000000001
21
0
31
0
210
0
220
0
230
1
40
0.961262
41
0.350803403213055
42
2.74929784240567
0
ELLIPSE
5
153
100
AcDbEntity
8
1
62
256
6
ByLayer
370
18
48
1
60
0
100
AcDbEllipse
10
4
20
5.406314
30
0
11
0.750000000134521
21
0
31
0
210
0
220
0
230
1
40
0.961262
41
0.20533312786256
42
0.387186540716539
0
ELLIPSE
5
154
100
AcDbEntity
8
1
62
256
6
ByLayer
370
18
48
1
60
0
100
AcDbEllipse
10
4
20
5.406314
30
0
11
0.749999999982438
21
0
31
0
210
0
220
0
230
1
40
0.961262
41
2.48158164313579
42
2.85819482623805
0
ELLIPSE
5
155
100
AcDbEntity
8
1
62
256
6
ByLayer
370
18
48
1
60
0
100
AcDbEllipse
10
4
20
5.406314
30
0
11
0.750000000000017
21
0
31
0
210
0
220
0
230
1
40
0.961262
41
1.43438409194608
42
2.48158164314265
0
ELLIPSE
5
156
100
AcDbEntity
8
1
62
256
6
ByLayer
370
18
48
1
60
0
100
AcDbEllipse
10
4
20
5.406314
30
0
11
0.750000000000077
21
0
31
0
210
0
220
0
230
1
40
0.961262
41
0.387186540749542
42
1.43438409194603
0
ELLIPSE
5
157
100
AcDbEntity
8
1
62
256
6
ByLayer
370
18
48
1
60
0
100
AcDbEllipse
10
4
20
-5.820637
30
0
11
1.15358983848623
21
0
31
0
210
0
220
0
230
1
40
0.961262
41
-0.910785316347779
42
1.09256310688342
0
ELLIPSE
5
158
100
AcDbEntity
8
1
62
256
6
ByLayer
370
18
48
1
60
0
100
AcDbEllipse
10
4
20
-5.820637
30
0
11
1.15358983848355
21
0
31
0
210
0
220
0
230
1
40
0.961262
41
1.09256310688231
42
1.49323279152955
0
ELLIPSE
5
159
100
AcDbEntity
8
1
62
256
6
ByLayer
370
18
48
1
60
0
100
AcDbEllipse
10
4
20
-5.820637
30
0
11
1.15358983848734
21
0
31
0
210
0
220
0
230
1
40
0.961262
41
1.49323279152973
42
1.89390247617557
0
ELLIPSE
5
15A
100
AcDbEntity
8
1
62
256
6
ByLayer
370
18
48
1
60
0
100
AcDbEllipse
10
4
20
-5.820637
30
0
11
1.15358983848623
21
0
31
0
210
0
220
0
230
1
40
0.961262
41
1.8939024761759
42
-0.91078531634778
0
ELLIPSE
5
15B
100
AcDbEntity
8
1
62
256
6
ByLayer
370
18
48
1
60
0
100
AcDbEllipse
10
4
20
-5.269363
30
0
11
0.750000000000005
21
0
31
0
210
0
220
0
230
1
40
0.961262
41
-2.74929784240566
42
-0.910785316347784
0
ELLIPSE
5
15C
100
AcDbEntity
8
1
62
256
6
ByLayer
370
18
48
1
60
0
100
AcDbEllipse
10
4
20
-5.407181
30
0
11
0.74999999999979
21
0
31
0
210
0
220
0
230
1
40
0.961262
41
-2.85819482623889
42
-2.48158164314257
0
ELLIPSE
5
15D
100
AcDbEntity
8
1
62
256
6
ByLayer
370
18
48
1
60
0
100
AcDbEllipse
10
4
20
-5.269363
30
0
11
0.749999999999217
21
0
31
0
210
0
220
0
230
1
40
0.961262
41
-0.910785316348132
42
-0.350803403212899
0
ELLIPSE
5
15E
100
AcDbEntity
8
1
62
256
6
ByLayer
370
18
48
1
60
0
100
AcDbEllipse
10
4
20
-5.407181
30
0
11
-0.750000000265601
21
9.78040074527422E-10
31
0
210
0
220
0
230
1
40
0.961262
41
2.75440611416246
42
2.93625952700143
0
ELLIPSE
5
15F
100
AcDbEntity
8
1
62
256
6
ByLayer
370
18
48
1
60
0
100
AcDbEllipse
10
4
20
-5.407181
30
0
11
0.750000000000053
21
0
31
0
210
0
220
0
230
1
40
0.961262
41
-1.43438409194605
42
-0.387186540749536
0
ELLIPSE
5
160
100
AcDbEntity
8
1
62
256
6
ByLayer
370
18
48
1
60
0
100
AcDbEllipse
10
4
20
-5.407181
30
0
11
0.749999999999995
21
0
31
0
210
0
220
0
230
1
40
0.961262
41
-2.48158164314268
42
-1.43438409194607
0
ELLIPSE
5
161
100
AcDbEntity
8
1
62
256
6
ByLayer
370
18
48
1
60
0
100
AcDbEllipse
10
0.958571
20
-0.000272
30
0
11
34.6407444213647
21
0.000126840433292498
31
0
210
0
220
0
230
1
40
0.577347
41
-1.2568342800348
42
-1.25172252260225
0
ELLIPSE
5
162
100
AcDbEntity
8
1
62
256
6
ByLayer
370
18
48
1
60
0
100
AcDbEllipse
10
21.743649
20
0.001193
30
0
11
34.6421849556597
21
0.000516620244398472
31
0
210
0
220
0
230
1
40
0.577365
41
-1.86625945343847
42
-1.8611857145558
0
ELLIPSE
5
163
100
AcDbEntity
8
1
62
256
6
ByLayer
370
18
48
1
60
0
100
AcDbEllipse
10
3.557078
20
-0.001389
30
0
11
34.6397089619673
21
0.000492292290619944
31
0
210
0
220
0
230
1
40
0.577332
41
-1.33479423601384
42
-1.32979473286249
0
ELLIPSE
5
164
100
AcDbEntity
8
1
62
256
6
ByLayer
370
18
48
1
60
0
100
AcDbEllipse
10
19.145023
20
0.000193
30
0
11
34.641195007913
21
6.19877356181425E-05
31
0
210
0
220
0
230
1
40
0.577353
41
-1.78868484540926
42
-1.78371216636181
0
ELLIPSE
5
165
100
AcDbEntity
8
1
62
256
6
ByLayer
370
18
48
1
60
0
100
AcDbEllipse
10
6.155351
20
-0.002763
30
0
11
34.6385280679167
21
0.000668573741104892
31
0
210
0
220
0
230
1
40
0.577312
41
-1.41130979035325
42
-1.40638723228034
0
ELLIPSE
5
166
100
AcDbEntity
8
1
62
256
6
ByLayer
370
18
48
1
60
0
100
AcDbEllipse
10
16.546499
20
-0.001546
30
0
11
-34.6396382047065
21
0.000321253152042315
31
0
210
0
220
0
230
1
40
0.577329
41
1.42916727505197
42
1.43407269343004
0
ELLIPSE
5
167
100
AcDbEntity
8
1
62
256
6
ByLayer
370
18
48
1
60
0
100
AcDbEllipse
10
8.752365
20
0.001867
30
0
11
-34.6426509021331
21
0.000241468723890069
31
0
210
0
220
0
230
1
40
0.577377
41
1.65473645631448
42
1.65961219236409
0
ELLIPSE
5
168
100
AcDbEntity
8
1
62
256
6
ByLayer
370
18
48
1
60
0
100
AcDbEllipse
10
13.948934
20
0.001236
30
0
11
34.642093286944
21
0.000118109805551074
31
0
210
0
220
0
230
1
40
0.577368
41
-1.63701510262077
42
-1.63214756683448
0
ELLIPSE
5
169
100
AcDbEntity
8
1
62
256
6
ByLayer
370
18
48
1
60
0
100
AcDbEllipse
10
11.350723
20
-2.6E-05
30
0
11
34.6409933353553
21
1.0735923182087E-06
31
0
210
0
220
0
230
1
40
0.57735
41
-1.56196280066023
42
-1.55710470041987
0
ELLIPSE
5
16A
100
AcDbEntity
8
1
62
256
6
ByLayer
370
18
48
1
60
0
100
AcDbEllipse
10
11.350723
20
3.8E-05
30
0
11
-34.6409834737395
21
1.26270420005838E-06
31
0
210
0
220
0
230
1
40
0.57735
41
-1.58448794761131
42
-1.57962984598811
0
ELLIPSE
5
16B
100
AcDbEntity
8
1
62
256
6
ByLayer
370
18
48
1
60
0
100
AcDbEllipse
10
13.948999
20
-0.001812
30
0
11
-34.6425946424927
21
0.000173668730765974
31
0
210
0
220
0
230
1
40
0.577376
41
-1.50944319080746
42
-1.50457572517476
0
ELLIPSE
5
16C
100
AcDbEntity
8
1
62
256
6
ByLayer
370
18
48
1
60
0
100
AcDbEllipse
10
8.752377
20
-0.001786
30
0
11
34.6425801722317
21
0.000231039501400564
31
0
210
0
220
0
230
1
40
0.577376
41
1.48198080347592
42
1.48685654940717
0
ELLIPSE
5
16D
100
AcDbEntity
8
1
62
256
6
ByLayer
370
18
48
1
60
0
100
AcDbEllipse
10
16.54641
20
0.001913
30
0
11
34.6393109992106
21
0.000398128414579409
31
0
210
0
220
0
230
1
40
0.577323
41
1.70751736572975
42
1.71242282955803
0
ELLIPSE
5
16E
100
AcDbEntity
8
1
62
256
6
ByLayer
370
18
48
1
60
0
100
AcDbEllipse
10
6.155686
20
0.003946
30
0
11
-34.637463474175
21
0.000954635404448032
31
0
210
0
220
0
230
1
40
0.577296
41
-1.73519595482651
42
-1.73027324929572
0
ELLIPSE
5
16F
100
AcDbEntity
8
1
62
256
6
ByLayer
370
18
48
1
60
0
100
AcDbEllipse
10
19.145013
20
-0.000162
30
0
11
-34.6411670188255
21
5.31234591555607E-05
31
0
210
0
220
0
230
1
40
0.577352
41
-1.357880768158
42
-1.35290808523557
0
ELLIPSE
5
170
100
AcDbEntity
8
1
62
256
6
ByLayer
370
18
48
1
60
0
100
AcDbEllipse
10
3.556059
20
-0.001031
30
0
11
34.6419859997033
21
0.000364902769545991
31
0
210
0
220
0
230
1
40
0.577364
41
1.32976632234879
42
1.33476551423656
0
ELLIPSE
5
171
100
AcDbEntity
8
1
62
256
6
ByLayer
370
18
48
1
60
0
100
AcDbEllipse
10
21.742991
20
6.6E-05
30
0
11
34.640951293422
21
2.89370082473485E-05
31
0
210
0
220
0
230
1
40
0.577349
41
1.86116743969183
42
1.86624134534177
0
ELLIPSE
5
172
100
AcDbEntity
8
1
62
256
6
ByLayer
370
18
48
1
60
0
100
AcDbEllipse
10
0.9587
20
0.000499
30
0
11
-34.6405172713159
21
0.000232984726461091
31
0
210
0
220
0
230
1
40
0.577344
41
-1.88986660675769
42
-1.88475481876967
0
ELLIPSE
5
173
100
AcDbEntity
8
1
62
256
6
ByLayer
370
18
48
1
60
0
100
AcDbEllipse
10
18.825
20
0
30
0
11
2.34290669285228E-14
21
20.0000000701669
31
0
210
0
220
0
230
1
40
1
41
0.357571103153978
42
0.39968996801598
0
ELLIPSE
5
174
100
AcDbEntity
8
1
62
256
6
ByLayer
370
18
48
1
60
0
100
AcDbEllipse
10
18.825
20
0
30
0
11
7.38589351120703
21
18.5862472913892
31
0
210
0
220
0
230
1
40
1
41
3.12015261107691
42
-3.12091383144815
0
ELLIPSE
5
175
100
AcDbEntity
8
1
62
256
6
ByLayer
370
18
48
1
60
0
100
AcDbEllipse
10
10.940464
20
0
30
0
11
2.34290668268335E-14
21
19.9999999833608
31
0
210
0
220
0
230
1
40
0.013091
41
-2.74190268489735
42
-2.58678162042789
0
ELLIPSE
5
176
100
AcDbEntity
8
1
62
256
6
ByLayer
370
18
48
1
60
0
100
AcDbEllipse
10
10.940464
20
0
30
0
11
2.34290668463256E-14
21
20.0000000000001
31
0
210
0
220
0
230
1
40
0.013091
41
-2.58678162060966
42
-0.554811032980005
0
ELLIPSE
5
177
100
AcDbEntity
8
1
62
256
6
ByLayer
370
18
48
1
60
0
100
AcDbEllipse
10
10.940464
20
0
30
0
11
2.3429066828032E-14
21
19.9999999843839
31
0
210
0
220
0
230
1
40
0.013091
41
-0.554811033150651
42
-0.39968996868662
0
POINT
5
6C
100
AcDbEntity
8
80
62
256
6
ByLayer
370
18
48
1
60
0
100
AcDbPoint
10
0
20
0
30
0
39
0
210
0
220
0
230
1
50
360
0
POINT
5
6E
100
AcDbEntity
8
81
62
256
6
ByLayer
370
18
48
1
60
0
100
AcDbPoint
10
12
20
0
30
0
39
0
210
0
220
0
230
1
50
360
0
SPLINE
5
178
100
AcDbEntity
8
1
62
256
6
ByLayer
370
18
48
1
60
0
100
AcDbSpline
70
4
71
1
72
4
73
2
40
0
40
0
40
1
40
1
41
1
10
0.425000000000002
20
-6.71598820865263
30
0
41
1
10
0.343278579257491
20
-6.20636892409378
30
0
0
SPLINE
5
179
100
AcDbEntity
8
1
62
256
6
ByLayer
370
18
48
1
60
0
100
AcDbSpline
70
4
71
3
72
15
73
11
40
0
40
0
40
0
40
0
40
0.181928146550841
40
0.365070146834373
40
0.458704951659469
40
0.55233951610404
40
0.646719040689496
40
0.741099421940741
40
0.870332917442792
40
1
40
1
40
1
40
1
41
1
10
0.343278579257491
20
6.20636892409378
30
0
41
1
10
0.193070457372801
20
5.465064906512
30
0
41
1
10
-0.0542815452201008
20
3.96914317675796
30
0
41
1
10
-0.232606123478804
20
2.062110258917
30
0
41
1
10
-0.28844850758562
20
0.51696378127867
30
0
41
1
10
-0.285863094114388
20
-0.659113182348543
30
0
41
1
10
-0.237489823805613
20
-1.83696420573596
30
0
41
1
10
-0.132331917787608
20
-3.15911603382647
30
0
41
1
10
0.0505460222944063
20
-4.61980338197693
30
0
41
1
10
0.236665377845475
20
-5.67860914216305
30
0
41
1
10
0.343278579257491
20
-6.20636892409378
30
0
0
SPLINE
5
17A
100
AcDbEntity
8
1
62
256
6
ByLayer
370
18
48
1
60
0
100
AcDbSpline
70
4
71
2
72
6
73
3
40
0
40
0
40
0
40
1
40
1
40
1
41
1
10
0.343278579257491
20
6.20636892409378
30
0
41
1
10
0.395440203183636
20
6.46224367387411
30
0
41
1
10
0.425000000000002
20
6.71598820865264
30
0
0
SPLINE
5
17B
100
AcDbEntity
8
1
62
256
6
ByLayer
370
18
48
1
60
0
100
AcDbSpline
70
4
71
3
72
11
73
7
40
0
40
0
40
0
40
0
40
0.288753747875527
40
0.610714932649071
40
0.932689894299739
40
1
40
1
40
1
40
1
41
1
10
11.5547214207425
20
20
30
0
41
1
10
11.5548692881063
20
19.9999940975761
30
0
41
1
10
11.5612659203555
20
19.9999340407599
30
0
41
1
10
11.5918871006975
20
19.9996407364551
30
0
41
1
10
11.629207251373
20
19.9993666036993
30
0
41
1
10
11.6525710385601
20
19.9992411922722
30
0
41
1
10
11.6567214207425
20
19.9992196847777
30
0
0
SPLINE
5
17C
100
AcDbEntity
8
1
62
256
6
ByLayer
370
18
48
1
60
0
100
AcDbSpline
70
4
71
1
72
4
73
2
40
0
40
0
40
1
40
1
41
1
10
0.425000000000002
20
-19.9890630885519
30
0
41
1
10
0.443997763531107
20
-19.9867760026634
30
0
0
SPLINE
5
17D
100
AcDbEntity
8
1
62
256
6
ByLayer
370
18
48
1
60
0
100
AcDbSpline
70
4
71
1
72
4
73
2
40
0
40
0
40
1
40
1
41
1
10
0.425000000000002
20
-19.8828733927831
30
0
41
1
10
0.444036076410084
20
-19.8755668925835
30
0
0
SPLINE
5
17E
100
AcDbEntity
8
1
62
256
6
ByLayer
370
18
48
1
60
0
100
AcDbSpline
70
4
71
2
72
6
73
3
40
0
40
0
40
0
40
1
40
1
40
1
41
1
10
0.425000000000002
20
-19.6620107198825
30
0
41
1
10
0.445221603785759
20
-19.654076098501
30
0
41
1
10
0.445278515960286
20
-19.6453227342299
30
0
0
SPLINE
5
17F
100
AcDbEntity
8
1
62
256
6
ByLayer
370
18
48
1
60
0
100
AcDbSpline
70
4
71
2
72
6
73
3
40
0
40
0
40
0
40
1
40
1
40
1
41
1
10
0.425000000000002
20
-19.3225432266074
30
0
41
1
10
0.445226743646264
20
-19.3111371071674
30
0
41
1
10
0.445278502322423
20
-19.2986880468233
30
0
0
SPLINE
5
180
100
AcDbEntity
8
1
62
256
6
ByLayer
370
18
48
1
60
0
100
AcDbSpline
70
4
71
2
72
6
73
3
40
0
40
0
40
0
40
1
40
1
40
1
41
1
10
0.425000000000001
20
-18.8580669194762
30
0
41
1
10
0.445232039857041
20
-18.8429437793541
30
0
41
1
10
0.445278482259143
20
-18.8265818889946
30
0
0
SPLINE
5
181
100
AcDbEntity
8
1
62
256
6
ByLayer
370
18
48
1
60
0
100
AcDbSpline
70
4
71
2
72
6
73
3
40
0
40
0
40
0
40
1
40
1
40
1
41
1
10
0.425000000000001
20
-18.2590443105541
30
0
41
1
10
0.445236705989023
20
-18.2398469652638
30
0
41
1
10
0.445278456735796
20
-18.2192532520322
30
0
0
SPLINE
5
182
100
AcDbEntity
8
1
62
256
6
ByLayer
370
18
48
1
60
0
100
AcDbSpline
70
4
71
2
72
6
73
3
40
0
40
0
40
0
40
1
40
1
40
1
41
1
10
0.425000000000001
20
-17.5116735445277
30
0
41
1
10
0.445240276480292
20
-17.4878874259948
30
0
41
1
10
0.445278432482741
20
-17.4625963656835
30
0
0
SPLINE
5
183
100
AcDbEntity
8
1
62
256
6
ByLayer
370
18
48
1
60
0
100
AcDbSpline
70
4
71
2
72
6
73
3
40
0
40
0
40
0
40
1
40
1
40
1
41
1
10
0.425000000000002
20
-16.595924846945
30
0
41
1
10
0.445257372638826
20
-16.5666856840119
30
0
41
1
10
0.445278534431072
20
-16.5360377002779
30
0
0
SPLINE
5
184
100
AcDbEntity
8
1
62
256
6
ByLayer
370
18
48
1
60
0
100
AcDbSpline
70
4
71
2
72
6
73
3
40
0
40
0
40
0
40
1
40
1
40
1
41
1
10
0.425000000000003
20
-15.4819486086468
30
0
41
1
10
0.445244040060055
20
-15.4464133987111
30
0
41
1
10
0.44527839058797
20
-15.4092366726892
30
0
0
SPLINE
5
185
100
AcDbEntity
8
1
62
256
6
ByLayer
370
18
48
1
60
0
100
AcDbSpline
70
4
71
1
72
4
73
2
40
0
40
0
40
1
40
1
41
1
10
0.425000000000003
20
-14.1229155600434
30
0
41
1
10
0.445278569722567
20
-14.0333788660511
30
0
0
SPLINE
5
186
100
AcDbEntity
8
1
62
256
6
ByLayer
370
18
48
1
60
0
100
AcDbSpline
70
4
71
1
72
4
73
2
40
0
40
0
40
1
40
1
41
1
10
0.425000000000001
20
-12.4387601918941
30
0
41
1
10
0.445277856430772
20
-12.3255991073564
30
0
0
SPLINE
5
187
100
AcDbEntity
8
1
62
256
6
ByLayer
370
18
48
1
60
0
100
AcDbSpline
70
4
71
1
72
4
73
2
40
0
40
0
40
1
40
1
41
1
10
0.425000000000001
20
-10.2707724298995
30
0
41
1
10
0.445277125217571
20
-10.1198283904782
30
0
0
SPLINE
5
188
100
AcDbEntity
8
1
62
256
6
ByLayer
370
18
48
1
60
0
100
AcDbSpline
70
4
71
1
72
4
73
2
40
0
40
0
40
1
40
1
41
1
10
0.425000000000001
20
-7.19407933665722
30
0
41
1
10
0.445268423150406
20
-6.95421897716763
30
0
0
SPLINE
5
189
100
AcDbEntity
8
1
62
256
6
ByLayer
370
18
48
1
60
0
100
AcDbSpline
70
4
71
1
72
4
73
2
40
0
40
0
40
1
40
1
41
1
10
0.425000000000001
20
6.71598820865264
30
0
41
1
10
0.445278492733641
20
6.96021161653533
30
0
0
SPLINE
5
18A
100
AcDbEntity
8
1
62
256
6
ByLayer
370
18
48
1
60
0
100
AcDbSpline
70
4
71
1
72
4
73
2
40
0
40
0
40
1
40
1
41
1
10
0.425000000000001
20
9.96847575179353
30
0
41
1
10
0.445276846164977
20
10.1225742800089
30
0
0
SPLINE
5
18B
100
AcDbEntity
8
1
62
256
6
ByLayer
370
18
48
1
60
0
100
AcDbSpline
70
4
71
1
72
4
73
2
40
0
40
0
40
1
40
1
41
1
10
0.425000000000001
20
12.2121464128723
30
0
41
1
10
0.445277901354778
20
12.3269649940222
30
0
0
SPLINE
5
18C
100
AcDbEntity
8
1
62
256
6
ByLayer
370
18
48
1
60
0
100
AcDbSpline
70
4
71
1
72
4
73
2
40
0
40
0
40
1
40
1
41
1
10
0.425000000000002
20
13.9428308174762
30
0
41
1
10
0.445278545801657
20
14.0335608357407
30
0
0
SPLINE
5
18D
100
AcDbEntity
8
1
62
256
6
ByLayer
370
18
48
1
60
0
100
AcDbSpline
70
4
71
2
72
6
73
3
40
0
40
0
40
0
40
1
40
1
40
1
41
1
10
0.425000000000003
20
15.3352059784047
30
0
41
1
10
0.445220356968424
20
15.3713963677902
30
0
41
1
10
0.445278296299387
20
15.4087259574043
30
0
0
SPLINE
5
18E
100
AcDbEntity
8
1
62
256
6
ByLayer
370
18
48
1
60
0
100
AcDbSpline
70
4
71
2
72
6
73
3
40
0
40
0
40
0
40
1
40
1
40
1
41
1
10
0.425000000000001
20
16.4752709718363
30
0
41
1
10
0.445248195525491
20
16.5050831575344
30
0
41
1
10
0.445278514105112
20
16.5358347707298
30
0
0
SPLINE
5
18F
100
AcDbEntity
8
1
62
256
6
ByLayer
370
18
48
1
60
0
100
AcDbSpline
70
4
71
1
72
4
73
2
40
0
40
0
40
1
40
1
41
1
10
0.425000000000001
20
17.4126553055749
30
0
41
1
10
0.445278578498823
20
17.4624695590185
30
0
0
SPLINE
5
190
100
AcDbEntity
8
1
62
256
6
ByLayer
370
18
48
1
60
0
100
AcDbSpline
70
4
71
2
72
6
73
3
40
0
40
0
40
0
40
1
40
1
40
1
41
1
10
0.425000000000001
20
18.1787396699029
30
0
41
1
10
0.445222592187718
20
18.198406914192
30
0
41
1
10
0.445278422422852
20
18.2190374634536
30
0
0
SPLINE
5
191
100
AcDbEntity
8
1
62
256
6
ByLayer
370
18
48
1
60
0
100
AcDbSpline
70
4
71
2
72
6
73
3
40
0
40
0
40
0
40
1
40
1
40
1
41
1
10
0.425000000000002
20
18.7944828920999
30
0
41
1
10
0.445220390873723
20
18.8100451151035
30
0
41
1
10
0.445278457799275
20
18.8264307476017
30
0
0
SPLINE
5
192
100
AcDbEntity
8
1
62
256
6
ByLayer
370
18
48
1
60
0
100
AcDbSpline
70
4
71
2
72
6
73
3
40
0
40
0
40
0
40
1
40
1
40
1
41
1
10
0.425000000000001
20
19.2742989075289
30
0
41
1
10
0.445217737823572
20
19.2861225428018
30
0
41
1
10
0.445278486045673
20
19.2985867942894
30
0
0
SPLINE
5
193
100
AcDbEntity
8
1
62
256
6
ByLayer
370
18
48
1
60
0
100
AcDbSpline
70
4
71
2
72
6
73
3
40
0
40
0
40
0
40
1
40
1
40
1
41
1
10
0.425000000000002
20
19.6281585884184
30
0
41
1
10
0.445215233417362
20
19.6364960103156
30
0
41
1
10
0.445278505857667
20
19.6452590207954
30
0
0
SPLINE
5
194
100
AcDbEntity
8
1
62
256
6
ByLayer
370
18
48
1
60
0
100
AcDbSpline
70
4
71
2
72
6
73
3
40
0
40
0
40
0
40
1
40
1
40
1
41
1
10
0.425000000000001
20
19.8627948881178
30
0
41
1
10
0.445213546631297
20
19.8678118266848
30
0
41
1
10
0.445278518399078
20
19.8730166508659
30
0
0
SPLINE
5
195
100
AcDbEntity
8
1
62
256
6
ByLayer
370
18
48
1
60
0
100
AcDbSpline
70
4
71
2
72
6
73
3
40
0
40
0
40
0
40
1
40
1
40
1
41
1
10
0.425000000000002
20
19.9824080621624
30
0
41
1
10
0.445213192130089
20
19.9841993577228
30
0
41
1
10
0.445278525066578
20
19.9859269713685
30
0
0
SPLINE
5
196
100
AcDbEntity
8
1
62
256
6
ByLayer
370
18
48
1
60
0
100
AcDbSpline
70
4
71
3
72
12
73
8
40
0
40
0
40
0
40
0
40
0.214471971708071
40
0.428938183086404
40
0.643546134663051
40
0.858157420012759
40
1
40
1
40
1
40
1
41
1
10
4
20
4.63957405303039
30
0
41
1
10
3.85438233281732
20
4.64092951818048
30
0
41
1
10
3.58092150754593
20
4.68550437852415
30
0
41
1
10
3.20387575175023
20
4.88785000233301
30
0
41
1
10
2.92029853409789
20
5.19620982320992
30
0
41
1
10
2.77537760303368
20
5.53638686355936
30
0
41
1
10
2.75025120485221
20
5.75640659821585
30
0
41
1
10
2.75000030670109
20
5.84677241264375
30
0
0
SPLINE
5
197
100
AcDbEntity
8
1
62
256
6
ByLayer
370
18
48
1
60
0
100
AcDbSpline
70
4
71
3
72
12
73
8
40
0
40
0
40
0
40
0
40
0.214471971708072
40
0.428938183086404
40
0.643546134663051
40
0.858157420012759
40
1
40
1
40
1
40
1
41
1
10
4
20
-4.63957405303038
30
0
41
1
10
4.14561766718268
20
-4.64092951818048
30
0
41
1
10
4.41907849245407
20
-4.68550437852415
30
0
41
1
10
4.79612424824978
20
-4.88785000233301
30
0
41
1
10
5.07970146590211
20
-5.19620982320992
30
0
41
1
10
5.22462239696632
20
-5.53638686355936
30
0
41
1
10
5.24974879514779
20
-5.75640659821585
30
0
41
1
10
5.24999969329891
20
-5.84677241264375
30
0
0
SPLINE
5
198
100
AcDbEntity
8
1
62
256
6
ByLayer
370
18
48
1
60
0
100
AcDbSpline
70
4
71
3
72
11
73
7
40
0
40
0
40
0
40
0
40
0.319567205842015
40
0.638679627338688
40
0.969160771598235
40
1
40
1
40
1
40
1
41
1
10
11.6567214207425
20
-19.0223226187428
30
0
41
1
10
11.6360583330383
20
-19.0263337827123
30
0
41
1
10
11.6009460126047
20
-19.0357053028057
30
0
41
1
10
11.5648367584789
20
-19.055026466181
30
0
41
1
10
11.5551420114411
20
-19.070108922793
30
0
41
1
10
11.5547231436514
20
-19.0780555594101
30
0
41
1
10
11.5547214799745
20
-19.0787351389324
30
0
0
SPLINE
5
199
100
AcDbEntity
8
1
62
256
6
ByLayer
370
18
48
1
60
0
100
AcDbSpline
70
4
71
3
72
11
73
7
40
0
40
0
40
0
40
0
40
0.320852347641202
40
0.641448146816787
40
0.968297498335357
40
1
40
1
40
1
40
1
41
1
10
11.6567214207425
20
-19.4455333009576
30
0
41
1
10
11.6361348128456
20
-19.4484822542064
30
0
41
1
10
11.6011033717422
20
-19.4553991858321
30
0
41
1
10
11.5648985045955
20
-19.4696605427693
30
0
41
1
10
11.5551536282314
20
-19.4808007821936
30
0
41
1
10
11.5547231975599
20
-19.4866244871239
30
0
41
1
10
11.5547214765883
20
-19.4871404123944
30
0
0
SPLINE
5
19A
100
AcDbEntity
8
1
62
256
6
ByLayer
370
18
48
1
60
0
100
AcDbSpline
70
4
71
3
72
11
73
7
40
0
40
0
40
0
40
0
40
0.321737408183113
40
0.643358644911564
40
0.967752060564531
40
1
40
1
40
1
40
1
41
1
10
11.6567214207425
20
-19.7461077913033
30
0
41
1
10
11.6361888975873
20
-19.7480725099406
30
0
41
1
10
11.6012148925443
20
-19.752680399106
30
0
41
1
10
11.5649404364967
20
-19.7621578406809
30
0
41
1
10
11.5551609710473
20
-19.769529342633
30
0
41
1
10
11.5547232274549
20
-19.7733513864997
30
0
41
1
10
11.5547214739773
20
-19.7736975732904
30
0
0
SPLINE
5
19B
100
AcDbEntity
8
1
62
256
6
ByLayer
370
18
48
1
60
0
100
AcDbSpline
70
4
71
3
72
11
73
7
40
0
40
0
40
0
40
0
40
0.322230555810441
40
0.644429935574839
40
0.967353030003219
40
1
40
1
40
1
40
1
41
1
10
11.6567214207425
20
-19.9295955918048
30
0
41
1
10
11.6362227466753
20
-19.9306249066317
30
0
41
1
10
11.601285229301
20
-19.9330148666368
30
0
41
1
10
11.5649691250769
20
-19.9378799550056
30
0
41
1
10
11.5551663284532
20
-19.9415901338169
30
0
41
1
10
11.5547232450054
20
-19.9434856024101
30
0
41
1
10
11.5547214723482
20
-19.9436597611262
30
0
0
SPLINE
5
19C
100
AcDbEntity
8
1
62
256
6
ByLayer
370
18
48
1
60
0
100
AcDbSpline
70
4
71
3
72
11
73
7
40
0
40
0
40
0
40
0
40
0.322117263811732
40
0.644234562216371
40
0.966347980289403
40
1
40
1
40
1
40
1
41
1
10
11.6567214207425
20
-19.9992196847777
30
0
41
1
10
11.6362376160229
20
-19.9993382193844
30
0
41
1
10
11.6013170918625
20
-19.9995562177863
30
0
41
1
10
11.5649882545656
20
-19.9998946388557
30
0
41
1
10
11.5551611775757
20
-19.9999956083798
30
0
41
1
10
11.554721988975
20
-19.9999999738496
30
0
41
1
10
11.554720991939
20
-20.000000052495
30
0
0
SPLINE
5
19D
100
AcDbEntity
8
1
62
256
6
ByLayer
370
18
48
1
60
0
100
AcDbSpline
70
4
71
3
72
11
73
7
40
0
40
0
40
0
40
0
40
0.322052440756525
40
0.644082983816747
40
0.966662722683431
40
1
40
1
40
1
40
1
41
1
10
11.6567214207425
20
19.9561718660448
30
0
41
1
10
11.6362340347099
20
19.9553823740739
30
0
41
1
10
11.601311639393
20
19.9534336210873
30
0
41
1
10
11.5649994394138
20
19.9492537624306
30
0
41
1
10
11.5551754993995
20
19.9457467971184
30
0
41
1
10
11.5547232634075
20
19.9438592810554
30
0
41
1
10
11.5547214722321
20
19.9436815758917
30
0
0
SPLINE
5
19E
100
AcDbEntity
8
1
62
256
6
ByLayer
370
18
48
1
60
0
100
AcDbSpline
70
4
71
3
72
11
73
7
40
0
40
0
40
0
40
0
40
0.321373506941323
40
0.642649710186958
40
0.966334692298135
40
1
40
1
40
1
40
1
41
1
10
11.6567214207425
20
19.7997172478354
30
0
41
1
10
11.6362118738242
20
19.7980008740963
30
0
41
1
10
11.6012686703928
20
19.7938503144489
30
0
41
1
10
11.5650024102872
20
19.7850841259951
30
0
41
1
10
11.5551797921219
20
19.7779203956919
30
0
41
1
10
11.5547232652179
20
19.7741033055906
30
0
41
1
10
11.554721473805
20
19.7737422559328
30
0
0
SPLINE
5
19F
100
AcDbEntity
8
1
62
256
6
ByLayer
370
18
48
1
60
0
100
AcDbSpline
70
4
71
3
72
11
73
7
40
0
40
0
40
0
40
0
40
0.320286268322959
40
0.640345073042139
40
0.96607412671259
40
1
40
1
40
1
40
1
41
1
10
11.6567214207425
20
19.5271301178988
30
0
41
1
10
11.6361703284402
20
19.5244446404034
30
0
41
1
10
11.6011865565936
20
19.5180136557828
30
0
41
1
10
11.5649950273265
20
19.5045100117749
30
0
41
1
10
11.5551831314616
20
19.4935855764577
30
0
41
1
10
11.5547232574573
20
19.4877614675401
30
0
41
1
10
11.5547214765285
20
19.4872101075335
30
0
0
SPLINE
5
1A0
100
AcDbEntity
8
1
62
256
6
ByLayer
370
18
48
1
60
0
100
AcDbSpline
70
4
71
3
72
11
73
7
40
0
40
0
40
0
40
0
40
0.318771449702
40
0.637128368872567
40
0.965997792742486
40
1
40
1
40
1
40
1
41
1
10
11.6567214207425
20
19.1334476294385
30
0
41
1
10
11.6361078065199
20
19.1297232952267
30
0
41
1
10
11.601062009517
20
19.1208818809062
30
0
41
1
10
11.5649727233032
20
19.1023907896956
30
0
41
1
10
11.5551839527169
20
19.0875364037642
30
0
41
1
10
11.5547232324948
20
19.0795810126597
30
0
41
1
10
11.5547214804405
20
19.078833108319
30
0
0
SPLINE
5
1A1
100
AcDbEntity
8
1
62
256
6
ByLayer
370
18
48
1
60
0
100
AcDbSpline
70
4
71
3
72
13
73
9
40
0
40
0
40
0
40
0
40
0.0047111203799985
40
0.219244103553916
40
0.433557779721263
40
0.648097945703888
40
0.862863689203123
40
1
40
1
40
1
40
1
41
1
10
2.75000002465096
20
-5.84569744541338
30
0
41
1
10
2.7500006387947
20
-5.84276058151458
30
0
41
1
10
2.75055018667232
20
-5.70615587745267
30
0
41
1
10
2.80095796258254
20
-5.43317426446047
30
0
41
1
10
3.01084209413866
20
-5.07422145248203
30
0
41
1
10
3.33122933771689
20
-4.80062602466446
30
0
41
1
10
3.68213030618041
20
-4.66336078946922
30
0
41
1
10
3.9088191762187
20
-4.63986812659976
30
0
41
1
10
4
20
-4.63957405303038
30
0
0
SPLINE
5
1A2
100
AcDbEntity
8
1
62
256
6
ByLayer
370
18
48
1
60
0
100
AcDbSpline
70
4
71
3
72
17
73
13
40
0
40
0
40
0
40
0
40
0.0365975096748366
40
0.14373982802049
40
0.251059156214256
40
0.358575791041187
40
0.466004586583096
40
0.573131288142503
40
0.680133492302807
40
0.787354705511583
40
0.894846502965457
40
1
40
1
40
1
40
1
41
1
10
5.24999969329891
20
-5.84677241264375
30
0
41
1
10
5.24992899053503
20
-5.89275928765641
30
0
41
1
10
5.23923026099631
20
-6.07086304940954
30
0
41
1
10
5.14588490818853
20
-6.37671738271722
30
0
41
1
10
4.89751852863791
20
-6.70512448327719
30
0
41
1
10
4.54766129158544
20
-6.93708891236688
30
0
41
1
10
4.13596879988478
20
-7.04633858503863
30
0
41
1
10
3.70958709380271
20
-7.02164715602107
30
0
41
1
10
3.31625307623224
20
-6.86589917698585
30
0
41
1
10
2.99966400409646
20
-6.59672875729772
30
0
41
1
10
2.79572843055137
20
-6.24059598182138
30
0
41
1
10
2.75122389379954
20
-5.98194316496009
30
0
41
1
10
2.75000002465096
20
-5.84569744541339
30
0
0
SPLINE
5
1A3
100
AcDbEntity
8
1
62
256
6
ByLayer
370
18
48
1
60
0
100
AcDbSpline
70
4
71
3
72
13
73
9
40
0
40
0
40
0
40
0
40
0.0047111203799972
40
0.219244103553917
40
0.433557779721262
40
0.648097945703888
40
0.862863689203122
40
1
40
1
40
1
40
1
41
1
10
5.24999997534904
20
5.84569744541339
30
0
41
1
10
5.2499993612053
20
5.84276058151458
30
0
41
1
10
5.24944981332765
20
5.70615587745263
30
0
41
1
10
5.19904203741747
20
5.43317426446049
30
0
41
1
10
4.98915790586134
20
5.07422145248203
30
0
41
1
10
4.66877066228311
20
4.80062602466447
30
0
41
1
10
4.31786969381959
20
4.66336078946923
30
0
41
1
10
4.09118082378131
20
4.63986812659977
30
0
41
1
10
4
20
4.63957405303039
30
0
0
SPLINE
5
1A4
100
AcDbEntity
8
1
62
256
6
ByLayer
370
18
48
1
60
0
100
AcDbSpline
70
4
71
3
72
17
73
13
40
0
40
0
40
0
40
0
40
0.0365975096748364
40
0.143739828020491
40
0.251059156214255
40
0.358575791041187
40
0.466004586583096
40
0.573131288142503
40
0.680133492302807
40
0.787354705511583
40
0.894846502965456
40
1
40
1
40
1
40
1
41
1
10
2.75000030670109
20
5.84677241264375
30
0
41
1
10
2.75007100946498
20
5.89275928765641
30
0
41
1
10
2.76076973900369
20
6.07086304940955
30
0
41
1
10
2.85411509181147
20
6.37671738271722
30
0
41
1
10
3.10248147136209
20
6.70512448327719
30
0
41
1
10
3.45233870841455
20
6.93708891236688
30
0
41
1
10
3.86403120011522
20
7.04633858503863
30
0
41
1
10
4.29041290619729
20
7.02164715602107
30
0
41
1
10
4.68374692376776
20
6.86589917698585
30
0
41
1
10
5.00033599590354
20
6.59672875729773
30
0
41
1
10
5.20427156944863
20
6.24059598182139
30
0
41
1
10
5.24877610620047
20
5.98194316496009
30
0
41
1
10
5.24999997534904
20
5.84569744541339
30
0
0
SPLINE
5
1A5
100
AcDbEntity
8
1
62
256
6
ByLayer
370
18
48
1
60
0
100
AcDbSpline
70
4
71
2
72
6
73
3
40
0
40
0
40
0
40
1
40
1
40
1
41
1
10
0.445278492733641
20
6.96021161653533
30
0
41
1
10
0.445847318939151
20
7.07832366772022
30
0
41
1
10
0.425000000000001
20
7.19407933665722
30
0
0
SPLINE
5
1A6
100
AcDbEntity
8
1
62
256
6
ByLayer
370
18
48
1
60
0
100
AcDbSpline
70
4
71
2
72
6
73
3
40
0
40
0
40
0
40
1
40
1
40
1
41
1
10
0.445268423150406
20
-6.95421897716763
30
0
41
1
10
0.445038251687981
20
-6.8345509847093
30
0
41
1
10
0.425000000000039
20
-6.71598820865285
30
0
0
SPLINE
5
1A7
100
AcDbEntity
8
1
62
256
6
ByLayer
370
18
48
1
60
0
100
AcDbSpline
70
4
71
3
72
14
73
10
40
0
40
0
40
0
40
0
40
0.0392288503143509
40
0.216501309089314
40
0.395314387446182
40
0.521120761780537
40
0.646958291176493
40
0.823282980769675
40
1
40
1
40
1
40
1
41
1
10
0.425000000000002
20
7.19407933665722
30
0
41
1
10
0.42446247921782
20
7.19548992243589
30
0
41
1
10
0.421354859682266
20
7.20311608088058
30
0
41
1
10
0.414568526221415
20
7.21599173393302
30
0
41
1
10
0.402687425044847
20
7.22713084761241
30
0
41
1
10
0.38899596133739
20
7.22979414700376
30
0
41
1
10
0.374258528630882
20
7.225335268845
30
0
41
1
10
0.358509126822178
20
7.21302522761378
30
0
41
1
10
0.348180855124941
20
7.20167185250346
30
0
41
1
10
0.34327857925749
20
7.19508192447166
30
0
0
SPLINE
5
1A8
100
AcDbEntity
8
1
62
256
6
ByLayer
370
18
48
1
60
0
100
AcDbSpline
70
4
71
3
72
13
73
9
40
0
40
0
40
0
40
0
40
0.257992006886224
40
0.3975610620938
40
0.538229847090987
40
0.663326385060845
40
0.853537017559486
40
1
40
1
40
1
40
1
41
1
10
0.34327857925749
20
-7.19508192447166
30
0
41
1
10
0.350517201791132
20
-7.20514033583305
30
0
41
1
10
0.362434922064463
20
-7.21717079159992
30
0
41
1
10
0.380649481038563
20
-7.22818979314168
30
0
41
1
10
0.394473981793208
20
-7.22966741995744
30
0
41
1
10
0.407769230291615
20
-7.22354087080134
30
0
41
1
10
0.417677538656278
20
-7.21067291368009
30
0
41
1
10
0.423066624468135
20
-7.19950699771777
30
0
41
1
10
0.425000000000002
20
-7.19407933665722
30
0
0
SPLINE
5
1A9
100
AcDbEntity
8
1
62
256
6
ByLayer
370
18
48
1
60
0
100
AcDbSpline
70
4
71
2
72
6
73
3
40
0
40
0
40
0
40
1
40
1
40
1
41
1
10
-0.325
20
-7.29913308208585
30
0
41
1
10
-0.0303765202899381
20
-8.48766364451784
30
0
41
1
10
0.343278579257491
20
-9.64619213830375
30
0
0
SPLINE
5
1AA
100
AcDbEntity
8
1
62
256
6
ByLayer
370
18
48
1
60
0
100
AcDbSpline
70
4
71
1
72
4
73
2
40
0
40
0
40
1
40
1
41
1
10
-0.325
20
-6.30692823411136
30
0
41
1
10
0.34327857925749
20
-7.19508192447166
30
0
0
SPLINE
5
1AB
100
AcDbEntity
8
1
62
256
6
ByLayer
370
18
48
1
60
0
100
AcDbSpline
70
4
71
2
72
6
73
3
40
0
40
0
40
0
40
1
40
1
40
1
41
1
10
0.425000000000002
20
-9.96847575179353
30
0
41
1
10
0.396269827199549
20
-9.80900852656684
30
0
41
1
10
0.343278579257491
20
-9.64619213830375
30
0
0
SPLINE
5
1AC
100
AcDbEntity
8
1
62
256
6
ByLayer
370
18
48
1
60
0
100
AcDbSpline
70
4
71
1
72
4
73
2
40
0
40
0
40
1
40
1
41
1
10
0.34327857925749
20
7.19508192447166
30
0
41
1
10
-0.325
20
6.30692823409305
30
0
0
SPLINE
5
1AD
100
AcDbEntity
8
1
62
256
6
ByLayer
370
18
48
1
60
0
100
AcDbSpline
70
4
71
2
72
6
73
3
40
0
40
0
40
0
40
1
40
1
40
1
41
1
10
0.343278579257491
20
9.64619213830376
30
0
41
1
10
-0.0303749271570708
20
8.48766452542105
30
0
41
1
10
-0.325
20
7.29913308208585
30
0
0
SPLINE
5
1AE
100
AcDbEntity
8
1
62
256
6
ByLayer
370
18
48
1
60
0
100
AcDbSpline
70
4
71
1
72
4
73
2
40
0
40
0
40
1
40
1
41
1
10
0.343278579257491
20
9.64619213830376
30
0
41
1
10
0.425000000000002
20
9.96847575179353
30
0
0
SPLINE
5
1AF
100
AcDbEntity
8
1
62
256
6
ByLayer
370
18
48
1
60
0
100
AcDbSpline
70
4
71
2
72
6
73
3
40
0
40
0
40
0
40
1
40
1
40
1
41
1
10
0.445276846164977
20
10.1225742800089
30
0
41
1
10
0.445366029327733
20
10.1978333657968
30
0
41
1
10
0.425000000000001
20
10.2707724298995
30
0
0
SPLINE
5
1B0
100
AcDbEntity
8
1
62
256
6
ByLayer
370
18
48
1
60
0
100
AcDbSpline
70
4
71
2
72
6
73
3
40
0
40
0
40
0
40
1
40
1
40
1
41
1
10
0.445277125217571
20
-10.1198283904782
30
0
41
1
10
0.445154661230087
20
-10.043672376308
30
0
41
1
10
0.425000000000002
20
-9.96847575179353
30
0
0
SPLINE
5
1B1
100
AcDbEntity
8
1
62
256
6
ByLayer
370
18
48
1
60
0
100
AcDbSpline
70
4
71
3
72
12
73
8
40
0
40
0
40
0
40
0
40
0.143720398310144
40
0.346861570745276
40
0.550966764765962
40
0.741266338807802
40
1
40
1
40
1
40
1
41
1
10
0.425000000000002
20
10.2707724298995
30
0
41
1
10
0.422714440024709
20
10.2744057185127
30
0
41
1
10
0.416403684454006
20
10.2817689008243
30
0
41
1
10
0.403230924830848
20
10.2891399283451
30
0
41
1
10
0.385287212449444
20
10.2879605672474
30
0
41
1
10
0.364525376255304
20
10.2774923418532
30
0
41
1
10
0.350992407679104
20
10.2665246358814
30
0
41
1
10
0.34327857925749
20
10.2586157132794
30
0
0
SPLINE
5
1B2
100
AcDbEntity
8
1
62
256
6
ByLayer
370
18
48
1
60
0
100
AcDbSpline
70
4
71
3
72
12
73
8
40
0
40
0
40
0
40
0
40
0.161961411118021
40
0.422719376521687
40
0.615182045489365
40
0.807602652589952
40
1
40
1
40
1
40
1
41
1
10
0.34327857925749
20
-10.2586157132794
30
0
41
1
10
0.348043502529026
20
-10.2634195187791
30
0
41
1
10
0.360619336128927
20
-10.274444156904
30
0
41
1
10
0.380285504452238
20
-10.2866033889098
30
0
41
1
10
0.399997609896428
20
-10.2894982014285
30
0
41
1
10
0.414648484632926
20
-10.2834541254472
30
0
41
1
10
0.421935228095645
20
-10.2757296624075
30
0
41
1
10
0.425000000000002
20
-10.2707724298995
30
0
0
SPLINE
5
1B3
100
AcDbEntity
8
1
62
256
6
ByLayer
370
18
48
1
60
0
100
AcDbSpline
70
4
71
1
72
4
73
2
40
0
40
0
40
1
40
1
41
1
10
-0.325
20
-10.2208044570865
30
0
41
1
10
0.343278579257491
20
-11.9615647101953
30
0
0
SPLINE
5
1B4
100
AcDbEntity
8
1
62
256
6
ByLayer
370
18
48
1
60
0
100
AcDbSpline
70
4
71
1
72
4
73
2
40
0
40
0
40
1
40
1
41
1
10
-0.325
20
-9.59634533299005
30
0
41
1
10
0.34327857925749
20
-10.2586157132794
30
0
0
SPLINE
5
1B5
100
AcDbEntity
8
1
62
256
6
ByLayer
370
18
48
1
60
0
100
AcDbSpline
70
4
71
1
72
4
73
2
40
0
40
0
40
1
40
1
41
1
10
0.425000000000002
20
-12.2121464128723
30
0
41
1
10
0.343278579257491
20
-11.9615647101953
30
0
0
SPLINE
5
1B6
100
AcDbEntity
8
1
62
256
6
ByLayer
370
18
48
1
60
0
100
AcDbSpline
70
4
71
1
72
4
73
2
40
0
40
0
40
1
40
1
41
1
10
0.34327857925749
20
10.2586157132794
30
0
41
1
10
-0.325
20
9.59634533299005
30
0
0
SPLINE
5
1B7
100
AcDbEntity
8
1
62
256
6
ByLayer
370
18
48
1
60
0
100
AcDbSpline
70
4
71
1
72
4
73
2
40
0
40
0
40
1
40
1
41
1
10
0.343278579257491
20
11.9615647101953
30
0
41
1
10
-0.325
20
10.2208044570865
30
0
0
SPLINE
5
1B8
100
AcDbEntity
8
1
62
256
6
ByLayer
370
18
48
1
60
0
100
AcDbSpline
70
4
71
1
72
4
73
2
40
0
40
0
40
1
40
1
41
1
10
0.343278579257491
20
11.9615647101953
30
0
41
1
10
0.425000000000002
20
12.2121464128723
30
0
0
SPLINE
5
1B9
100
AcDbEntity
8
1
62
256
6
ByLayer
370
18
48
1
60
0
100
AcDbSpline
70
4
71
2
72
6
73
3
40
0
40
0
40
0
40
1
40
1
40
1
41
1
10
0.445277856430772
20
-12.3255991073564
30
0
41
1
10
0.445187139106672
20
-12.268338175657
30
0
41
1
10
0.425000000000014
20
-12.2121464128723
30
0
0
SPLINE
5
1BA
100
AcDbEntity
8
1
62
256
6
ByLayer
370
18
48
1
60
0
100
AcDbSpline
70
4
71
3
72
12
73
8
40
0
40
0
40
0
40
0
40
0.21050551688908
40
0.517556037668972
40
0.753507090344235
40
0.98904808381245
40
1
40
1
40
1
40
1
41
1
10
0.34327857925749
20
-12.4180992428643
30
0
41
1
10
0.349649543353221
20
-12.4238571420986
30
0
41
1
10
0.365204386299337
20
-12.4359422654959
30
0
41
1
10
0.388815428891592
20
-12.4481747966802
30
0
41
1
10
0.41031187869123
20
-12.4490254291921
30
0
41
1
10
0.420520359404477
20
-12.443149668993
30
0
41
1
10
0.424811094275599
20
-12.4389496613184
30
0
41
1
10
0.425000000000002
20
-12.4387601918941
30
0
0
SPLINE
5
1BB
100
AcDbEntity
8
1
62
256
6
ByLayer
370
18
48
1
60
0
100
AcDbSpline
70
4
71
2
72
6
73
3
40
0
40
0
40
0
40
1
40
1
40
1
41
1
10
0.445277901354778
20
12.3269649940222
30
0
41
1
10
0.445225475204819
20
12.3837521980218
30
0
41
1
10
0.425000000000001
20
12.4387601918941
30
0
0
SPLINE
5
1BC
100
AcDbEntity
8
1
62
256
6
ByLayer
370
18
48
1
60
0
100
AcDbSpline
70
4
71
3
72
12
73
8
40
0
40
0
40
0
40
0
40
0.0845505604048111
40
0.360588994601162
40
0.604640909632777
40
0.919861963614173
40
1
40
1
40
1
40
1
41
1
10
0.425000000000002
20
12.4387601918941
30
0
41
1
10
0.423541732086877
20
12.4402482360388
30
0
41
1
10
0.416905733811152
20
12.4458164284435
30
0
41
1
10
0.402295908775116
20
12.4502935017424
30
0
41
1
10
0.377479019188073
20
12.4435609837094
30
0
41
1
10
0.357510297694555
20
12.4301918928762
30
0
41
1
10
0.345673859612735
20
12.4202240410731
30
0
41
1
10
0.34327857925749
20
12.4180992428643
30
0
0
SPLINE
5
1BD
100
AcDbEntity
8
1
62
256
6
ByLayer
370
18
48
1
60
0
100
AcDbSpline
70
4
71
1
72
4
73
2
40
0
40
0
40
1
40
1
41
1
10
-0.325
20
-12.2944029440229
30
0
41
1
10
0.343278579257491
20
-13.7335005684387
30
0
0
SPLINE
5
1BE
100
AcDbEntity
8
1
62
256
6
ByLayer
370
18
48
1
60
0
100
AcDbSpline
70
4
71
1
72
4
73
2
40
0
40
0
40
1
40
1
41
1
10
-0.325
20
-11.8280321165442
30
0
41
1
10
0.34327857925749
20
-12.4180992428643
30
0
0
SPLINE
5
1BF
100
AcDbEntity
8
1
62
256
6
ByLayer
370
18
48
1
60
0
100
AcDbSpline
70
4
71
2
72
6
73
3
40
0
40
0
40
0
40
1
40
1
40
1
41
1
10
0.425000000000002
20
-13.9428308174762
30
0
41
1
10
0.394913701238689
20
-13.8394405341231
30
0
41
1
10
0.343278579257491
20
-13.7335005684387
30
0
0
SPLINE
5
1C0
100
AcDbEntity
8
1
62
256
6
ByLayer
370
18
48
1
60
0
100
AcDbSpline
70
4
71
1
72
4
73
2
40
0
40
0
40
1
40
1
41
1
10
0.34327857925749
20
12.4180992428643
30
0
41
1
10
-0.325
20
11.8280321165442
30
0
0
SPLINE
5
1C1
100
AcDbEntity
8
1
62
256
6
ByLayer
370
18
48
1
60
0
100
AcDbSpline
70
4
71
1
72
4
73
2
40
0
40
0
40
1
40
1
41
1
10
0.343278579257491
20
13.7335005684387
30
0
41
1
10
-0.325
20
12.294402944023
30
0
0
SPLINE
5
1C2
100
AcDbEntity
8
1
62
256
6
ByLayer
370
18
48
1
60
0
100
AcDbSpline
70
4
71
2
72
6
73
3
40
0
40
0
40
0
40
1
40
1
40
1
41
1
10
0.343278579257491
20
13.7335005684387
30
0
41
1
10
0.39645251993829
20
13.8413189257543
30
0
41
1
10
0.425000000000002
20
13.9428308174762
30
0
0
SPLINE
5
1C3
100
AcDbEntity
8
1
62
256
6
ByLayer
370
18
48
1
60
0
100
AcDbSpline
70
4
71
2
72
6
73
3
40
0
40
0
40
0
40
1
40
1
40
1
41
1
10
0.445278545801657
20
14.0335608357407
30
0
41
1
10
0.445261645079564
20
14.0789873965925
30
0
41
1
10
0.425000000000201
20
14.1229155600436
30
0
0
SPLINE
5
1C4
100
AcDbEntity
8
1
62
256
6
ByLayer
370
18
48
1
60
0
100
AcDbSpline
70
4
71
3
72
11
73
7
40
0
40
0
40
0
40
0
40
0.116671162982703
40
0.413357603958009
40
0.680570039778954
40
1
40
1
40
1
40
1
41
1
10
0.425000000000002
20
14.1229155600434
30
0
41
1
10
0.422884190680792
20
14.1243330050696
30
0
41
1
10
0.414818951983819
20
14.1282376297582
30
0
41
1
10
0.397423472651505
20
14.128317393965
30
0
41
1
10
0.370933794163541
20
14.1164657684787
30
0
41
1
10
0.353208161447035
20
14.103914378738
30
0
41
1
10
0.34327857925749
20
14.0953602741651
30
0
0
SPLINE
5
1C5
100
AcDbEntity
8
1
62
256
6
ByLayer
370
18
48
1
60
0
100
AcDbSpline
70
4
71
2
72
6
73
3
40
0
40
0
40
0
40
1
40
1
40
1
41
1
10
0.445278569722567
20
-14.0333788660511
30
0
41
1
10
0.445267242102744
20
-13.9876563774025
30
0
41
1
10
0.425000000000173
20
-13.942830817476
30
0
0
SPLINE
5
1C6
100
AcDbEntity
8
1
62
256
6
ByLayer
370
18
48
1
60
0
100
AcDbSpline
70
4
71
3
72
11
73
7
40
0
40
0
40
0
40
0
40
0.25542654531401
40
0.606338743172958
40
0.91976000052257
40
1
40
1
40
1
40
1
41
1
10
0.34327857925749
20
-14.0953602741651
30
0
41
1
10
0.351150334588872
20
-14.1021153498467
30
0
41
1
10
0.36942167183649
20
-14.1155535484578
30
0
41
1
10
0.397516644803533
20
-14.1290509518301
30
0
41
1
10
0.416065047658791
20
-14.1279046262529
30
0
41
1
10
0.423551833885325
20
-14.1238837730102
30
0
41
1
10
0.425000000000002
20
-14.1229155600434
30
0
0
SPLINE
5
1C7
100
AcDbEntity
8
1
62
256
6
ByLayer
370
18
48
1
60
0
100
AcDbSpline
70
4
71
1
72
4
73
2
40
0
40
0
40
1
40
1
41
1
10
-0.325
20
-13.9046698540454
30
0
41
1
10
0.343278579257491
20
-15.1538458950334
30
0
0
SPLINE
5
1C8
100
AcDbEntity
8
1
62
256
6
ByLayer
370
18
48
1
60
0
100
AcDbSpline
70
4
71
1
72
4
73
2
40
0
40
0
40
1
40
1
41
1
10
-0.325
20
-13.5356877826729
30
0
41
1
10
0.34327857925749
20
-14.0953602741651
30
0
0
SPLINE
5
1C9
100
AcDbEntity
8
1
62
256
6
ByLayer
370
18
48
1
60
0
100
AcDbSpline
70
4
71
2
72
6
73
3
40
0
40
0
40
0
40
1
40
1
40
1
41
1
10
0.425000000000002
20
-15.3352059784047
30
0
41
1
10
0.394703152384809
20
-15.24641556199
30
0
41
1
10
0.343278579257491
20
-15.1538458950334
30
0
0
SPLINE
5
1CA
100
AcDbEntity
8
1
62
256
6
ByLayer
370
18
48
1
60
0
100
AcDbSpline
70
4
71
1
72
4
73
2
40
0
40
0
40
1
40
1
41
1
10
0.34327857925749
20
14.0953602741651
30
0
41
1
10
-0.325
20
13.5356877826729
30
0
0
SPLINE
5
1CB
100
AcDbEntity
8
1
62
256
6
ByLayer
370
18
48
1
60
0
100
AcDbSpline
70
4
71
1
72
4
73
2
40
0
40
0
40
1
40
1
41
1
10
0.343278579257491
20
15.1538458950334
30
0
41
1
10
-0.325
20
13.9046698540454
30
0
0
SPLINE
5
1CC
100
AcDbEntity
8
1
62
256
6
ByLayer
370
18
48
1
60
0
100
AcDbSpline
70
4
71
2
72
6
73
3
40
0
40
0
40
0
40
1
40
1
40
1
41
1
10
0.343278579257491
20
15.1538458950334
30
0
41
1
10
0.396027903019881
20
15.2479912823927
30
0
41
1
10
0.425000000000002
20
15.3352059784047
30
0
0
SPLINE
5
1CD
100
AcDbEntity
8
1
62
256
6
ByLayer
370
18
48
1
60
0
100
AcDbSpline
70
4
71
2
72
6
73
3
40
0
40
0
40
0
40
1
40
1
40
1
41
1
10
0.445278296299387
20
15.4087259574043
30
0
41
1
10
0.445479665743356
20
15.4470303134408
30
0
41
1
10
0.425000000000241
20
15.4819486086468
30
0
0
SPLINE
5
1CE
100
AcDbEntity
8
1
62
256
6
ByLayer
370
18
48
1
60
0
100
AcDbSpline
70
4
71
2
72
6
73
3
40
0
40
0
40
0
40
1
40
1
40
1
41
1
10
0.425000000000002
20
15.4819486086468
30
0
41
1
10
0.412142342861669
20
15.4870772851626
30
0
41
1
10
0.392337609137084
20
15.4793215180167
30
0
0
SPLINE
5
1CF
100
AcDbEntity
8
1
62
256
6
ByLayer
370
18
48
1
60
0
100
AcDbSpline
70
4
71
3
72
10
73
6
40
0
40
0
40
0
40
0
40
0.0236855366469069
40
0.694188554792899
40
1
40
1
40
1
40
1
41
1
10
0.392337609137084
20
15.4793215180167
30
0
41
1
10
0.391974837253917
20
15.4791789940647
30
0
41
1
10
0.38132709517022
20
15.474932659763
30
0
41
1
10
0.364573963534629
20
15.4649256839149
30
0
41
1
10
0.348408567760974
20
15.4525248517619
30
0
41
1
10
0.34327857923227
20
15.4482741337397
30
0
0
SPLINE
5
1D0
100
AcDbEntity
8
1
62
256
6
ByLayer
370
18
48
1
60
0
100
AcDbSpline
70
4
71
2
72
6
73
3
40
0
40
0
40
0
40
1
40
1
40
1
41
1
10
0.44527839058797
20
-15.4092366726892
30
0
41
1
10
0.44539879143686
20
-15.3708060706195
30
0
41
1
10
0.425000000000373
20
-15.3352059784047
30
0
0
SPLINE
5
1D1
100
AcDbEntity
8
1
62
256
6
ByLayer
370
18
48
1
60
0
100
AcDbSpline
70
4
71
3
72
10
73
6
40
0
40
0
40
0
40
0
40
0.296460840105085
40
0.687815665911087
40
1
40
1
40
1
40
1
41
1
10
0.34327857925749
20
-15.4482741337469
30
0
41
1
10
0.352543332069385
20
-15.4560468043867
30
0
41
1
10
0.373204890013012
20
-15.471007717761
30
0
41
1
10
0.403301004672478
20
-15.4851540379642
30
0
41
1
10
0.41882399209078
20
-15.4841598902277
30
0
41
1
10
0.425000000000002
20
-15.4819486086468
30
0
0
SPLINE
5
1D2
100
AcDbEntity
8
1
62
256
6
ByLayer
370
18
48
1
60
0
100
AcDbSpline
70
4
71
1
72
4
73
2
40
0
40
0
40
1
40
1
41
1
10
-0.325
20
-15.1995836702852
30
0
41
1
10
0.343278579257491
20
-16.3146882580556
30
0
0
SPLINE
5
1D3
100
AcDbEntity
8
1
62
256
6
ByLayer
370
18
48
1
60
0
100
AcDbSpline
70
4
71
1
72
4
73
2
40
0
40
0
40
1
40
1
41
1
10
-0.325
20
-14.9005819936672
30
0
41
1
10
0.34327857925749
20
-15.4482741337469
30
0
0
SPLINE
5
1D4
100
AcDbEntity
8
1
62
256
6
ByLayer
370
18
48
1
60
0
100
AcDbSpline
70
4
71
2
72
6
73
3
40
0
40
0
40
0
40
1
40
1
40
1
41
1
10
0.425000000000002
20
-16.4752709718363
30
0
41
1
10
0.394564197304595
20
-16.3976107715671
30
0
41
1
10
0.343278579257491
20
-16.3146882580556
30
0
0
SPLINE
5
1D5
100
AcDbEntity
8
1
62
256
6
ByLayer
370
18
48
1
60
0
100
AcDbSpline
70
4
71
1
72
4
73
2
40
0
40
0
40
1
40
1
41
1
10
0.34327857925749
20
15.4482741337469
30
0
41
1
10
-0.325
20
14.9005819936672
30
0
0
SPLINE
5
1D6
100
AcDbEntity
8
1
62
256
6
ByLayer
370
18
48
1
60
0
100
AcDbSpline
70
4
71
1
72
4
73
2
40
0
40
0
40
1
40
1
41
1
10
0.343278579257491
20
16.3146882580556
30
0
41
1
10
-0.325
20
15.1995836702852
30
0
0
SPLINE
5
1D7
100
AcDbEntity
8
1
62
256
6
ByLayer
370
18
48
1
60
0
100
AcDbSpline
70
4
71
2
72
6
73
3
40
0
40
0
40
0
40
1
40
1
40
1
41
1
10
0.343278579257491
20
16.3146882580556
30
0
41
1
10
0.396060681985315
20
16.3993318311896
30
0
41
1
10
0.425000000000002
20
16.4752709718363
30
0
0
SPLINE
5
1D8
100
AcDbEntity
8
1
62
256
6
ByLayer
370
18
48
1
60
0
100
AcDbSpline
70
4
71
2
72
6
73
3
40
0
40
0
40
0
40
1
40
1
40
1
41
1
10
0.445278514105112
20
16.5358347707298
30
0
41
1
10
0.445327238587554
20
16.5674675100629
30
0
41
1
10
0.425000000000123
20
16.595924846945
30
0
0
SPLINE
5
1D9
100
AcDbEntity
8
1
62
256
6
ByLayer
370
18
48
1
60
0
100
AcDbSpline
70
4
71
3
72
11
73
7
40
0
40
0
40
0
40
0
40
0.169483888511421
40
0.505679659785021
40
0.927662537890497
40
1
40
1
40
1
40
1
41
1
10
0.425000000000002
20
16.595924846945
30
0
41
1
10
0.421739579091984
20
16.5965056480253
30
0
41
1
10
0.411214150958453
20
16.5967107911888
30
0
41
1
10
0.386196196456312
20
16.5878090763868
30
0
41
1
10
0.360652792849514
20
16.5704641998501
30
0
41
1
10
0.345506434292393
20
16.5583705854094
30
0
41
1
10
0.34327857925749
20
16.5565445115905
30
0
0
SPLINE
5
1DA
100
AcDbEntity
8
1
62
256
6
ByLayer
370
18
48
1
60
0
100
AcDbSpline
70
4
71
2
72
6
73
3
40
0
40
0
40
0
40
1
40
1
40
1
41
1
10
0.445278534431072
20
-16.5360377002779
30
0
41
1
10
0.445272772146898
20
-16.5043113128904
30
0
41
1
10
0.425000000000001
20
-16.4752709718363
30
0
0
SPLINE
5
1DB
100
AcDbEntity
8
1
62
256
6
ByLayer
370
18
48
1
60
0
100
AcDbSpline
70
4
71
3
72
10
73
6
40
0
40
0
40
0
40
0
40
0.33422276572447
40
0.690515983320206
40
1
40
1
40
1
40
1
41
1
10
0.34327857925749
20
-16.5565445115905
30
0
41
1
10
0.353826274435084
20
-16.5653310952441
30
0
41
1
10
0.374617050761146
20
-16.5804421564443
30
0
41
1
10
0.40397366443904
20
-16.5954795666775
30
0
41
1
10
0.418805351324275
20
-16.5968407456078
30
0
41
1
10
0.425000000000002
20
-16.595924846945
30
0
0
SPLINE
5
1DC
100
AcDbEntity
8
1
62
256
6
ByLayer
370
18
48
1
60
0
100
AcDbSpline
70
4
71
1
72
4
73
2
40
0
40
0
40
1
40
1
41
1
10
-0.325
20
-16.2546868241132
30
0
41
1
10
0.343278579257491
20
-17.2684411718213
30
0
0
SPLINE
5
1DD
100
AcDbEntity
8
1
62
256
6
ByLayer
370
18
48
1
60
0
100
AcDbSpline
70
4
71
1
72
4
73
2
40
0
40
0
40
1
40
1
41
1
10
-0.325
20
-16.0106165949347
30
0
41
1
10
0.34327857925749
20
-16.5565445115905
30
0
0
SPLINE
5
1DE
100
AcDbEntity
8
1
62
256
6
ByLayer
370
18
48
1
60
0
100
AcDbSpline
70
4
71
2
72
6
73
3
40
0
40
0
40
0
40
1
40
1
40
1
41
1
10
0.425000000000002
20
-17.4126553055749
30
0
41
1
10
0.394439370790668
20
-17.3439647601787
30
0
41
1
10
0.343278579257491
20
-17.2684411718213
30
0
0
SPLINE
5
1DF
100
AcDbEntity
8
1
62
256
6
ByLayer
370
18
48
1
60
0
100
AcDbSpline
70
4
71
1
72
4
73
2
40
0
40
0
40
1
40
1
41
1
10
0.34327857925749
20
16.5565445115905
30
0
41
1
10
-0.325
20
16.0106165949347
30
0
0
SPLINE
5
1E0
100
AcDbEntity
8
1
62
256
6
ByLayer
370
18
48
1
60
0
100
AcDbSpline
70
4
71
1
72
4
73
2
40
0
40
0
40
1
40
1
41
1
10
0.343278579257491
20
17.2684411718213
30
0
41
1
10
-0.325
20
16.2546868241132
30
0
0
SPLINE
5
1E1
100
AcDbEntity
8
1
62
256
6
ByLayer
370
18
48
1
60
0
100
AcDbSpline
70
4
71
2
72
6
73
3
40
0
40
0
40
0
40
1
40
1
40
1
41
1
10
0.343278579257491
20
17.2684411718213
30
0
41
1
10
0.39569783893296
20
17.3453765904813
30
0
41
1
10
0.425000000000002
20
17.4126553055749
30
0
0
SPLINE
5
1E2
100
AcDbEntity
8
1
62
256
6
ByLayer
370
18
48
1
60
0
100
AcDbSpline
70
4
71
2
72
6
73
3
40
0
40
0
40
0
40
1
40
1
40
1
41
1
10
0.445278432482741
20
-17.4625963656835
30
0
41
1
10
0.445265286918411
20
-17.4365584717872
30
0
41
1
10
0.425000000032735
20
-17.4126553055758
30
0
0
SPLINE
5
1E3
100
AcDbEntity
8
1
62
256
6
ByLayer
370
18
48
1
60
0
100
AcDbSpline
70
4
71
3
72
10
73
6
40
0
40
0
40
0
40
0
40
0.369978053214221
40
0.744188865937018
40
1
40
1
40
1
40
1
41
1
10
0.34327857925749
20
-17.4668016138377
30
0
41
1
10
0.355073362798592
20
-17.4766884486067
30
0
41
1
10
0.37745523049055
20
-17.4932705899001
30
0
41
1
10
0.406143002610785
20
-17.5088588367004
30
0
41
1
10
0.419904073325787
20
-17.5115417944272
30
0
41
1
10
0.425000000000002
20
-17.5116735445277
30
0
0
SPLINE
5
1E4
100
AcDbEntity
8
1
62
256
6
ByLayer
370
18
48
1
60
0
100
AcDbSpline
70
4
71
3
72
10
73
6
40
0
40
0
40
0
40
0
40
0.00384094552355
40
0.853206823586333
40
1
40
1
40
1
40
1
41
1
10
0.445278578498823
20
17.4624695590185
30
0
41
1
10
0.445278569587649
20
17.4625342680209
30
0
41
1
10
0.445254516583387
20
17.4769062825451
30
0
41
1
10
0.439398614010905
20
17.4939285093862
30
0
41
1
10
0.426975616607954
20
17.5094077861544
30
0
41
1
10
0.425000000000046
20
17.5116735445277
30
0
0
SPLINE
5
1E5
100
AcDbEntity
8
1
62
256
6
ByLayer
370
18
48
1
60
0
100
AcDbSpline
70
4
71
3
72
10
73
6
40
0
40
0
40
0
40
0
40
0.192526971228306
40
0.547620201895692
40
1
40
1
40
1
40
1
41
1
10
0.425000000000002
20
17.5116735445277
30
0
41
1
10
0.421228640826886
20
17.5116197549923
30
0
41
1
10
0.409633133621332
20
17.5098609858495
30
0
41
1
10
0.38198222962069
20
17.4964488297375
30
0
41
1
10
0.357895648643792
20
17.4791037093772
30
0
41
1
10
0.34327857925749
20
17.4668016138377
30
0
0
SPLINE
5
1E6
100
AcDbEntity
8
1
62
256
6
ByLayer
370
18
48
1
60
0
100
AcDbSpline
70
4
71
1
72
4
73
2
40
0
40
0
40
1
40
1
41
1
10
0.34327857925749
20
17.4668016138377
30
0
41
1
10
-0.325
20
16.9160380630336
30
0
0
SPLINE
5
1E7
100
AcDbEntity
8
1
62
256
6
ByLayer
370
18
48
1
60
0
100
AcDbSpline
70
4
71
1
72
4
73
2
40
0
40
0
40
1
40
1
41
1
10
0.343278579257491
20
18.0479657593805
30
0
41
1
10
-0.325
20
17.1143899613746
30
0
0
SPLINE
5
1E8
100
AcDbEntity
8
1
62
256
6
ByLayer
370
18
48
1
60
0
100
AcDbSpline
70
4
71
2
72
6
73
3
40
0
40
0
40
0
40
1
40
1
40
1
41
1
10
0.343278579257491
20
18.0479657593805
30
0
41
1
10
0.395353583941208
20
18.118724764328
30
0
41
1
10
0.425000000000002
20
18.1787396699029
30
0
0
SPLINE
5
1E9
100
AcDbEntity
8
1
62
256
6
ByLayer
370
18
48
1
60
0
100
AcDbSpline
70
4
71
1
72
4
73
2
40
0
40
0
40
1
40
1
41
1
10
-0.325
20
-17.1143899613746
30
0
41
1
10
0.343278579257491
20
-18.0479657593805
30
0
0
SPLINE
5
1EA
100
AcDbEntity
8
1
62
256
6
ByLayer
370
18
48
1
60
0
100
AcDbSpline
70
4
71
1
72
4
73
2
40
0
40
0
40
1
40
1
41
1
10
-0.325
20
-16.9160380630336
30
0
41
1
10
0.34327857925749
20
-17.4668016138377
30
0
0
SPLINE
5
1EB
100
AcDbEntity
8
1
62
256
6
ByLayer
370
18
48
1
60
0
100
AcDbSpline
70
4
71
2
72
6
73
3
40
0
40
0
40
0
40
1
40
1
40
1
41
1
10
0.425000000000002
20
-18.1787396699029
30
0
41
1
10
0.394539290990423
20
-18.1178291104184
30
0
41
1
10
0.343278579257491
20
-18.0479657593805
30
0
0
SPLINE
5
1EC
100
AcDbEntity
8
1
62
256
6
ByLayer
370
18
48
1
60
0
100
AcDbSpline
70
4
71
2
72
6
73
3
40
0
40
0
40
0
40
1
40
1
40
1
41
1
10
0.445278422422852
20
18.2190374634536
30
0
41
1
10
0.445260027555889
20
18.2401337677602
30
0
41
1
10
0.425000000000007
20
18.2590443105541
30
0
0
SPLINE
5
1ED
100
AcDbEntity
8
1
62
256
6
ByLayer
370
18
48
1
60
0
100
AcDbSpline
70
4
71
1
72
4
73
2
40
0
40
0
40
1
40
1
41
1
10
0.425000000000002
20
18.2590443105541
30
0
41
1
10
0.413244505562282
20
18.2555785662513
30
0
0
SPLINE
5
1EE
100
AcDbEntity
8
1
62
256
6
ByLayer
370
18
48
1
60
0
100
AcDbSpline
70
4
71
3
72
10
73
6
40
0
40
0
40
0
40
0
40
0.0382391417585573
40
0.495340648148747
40
1
40
1
40
1
40
1
41
1
10
0.413244505562282
20
18.2555785662514
30
0
41
1
10
0.412513023634146
20
18.2552878872778
30
0
41
1
10
0.402951604332545
20
18.2513642255169
30
0
41
1
10
0.380150164512251
20
18.2380280291891
30
0
41
1
10
0.356552036276447
20
18.220054518441
30
0
41
1
10
0.34327857925749
20
18.2087657755831
30
0
0
SPLINE
5
1EF
100
AcDbEntity
8
1
62
256
6
ByLayer
370
18
48
1
60
0
100
AcDbSpline
70
4
71
2
72
6
73
3
40
0
40
0
40
0
40
1
40
1
40
1
41
1
10
0.445278456735796
20
-18.2192532520322
30
0
41
1
10
0.44523306285422
20
-18.1981200126362
30
0
41
1
10
0.425000000000007
20
-18.1787396699029
30
0
0
SPLINE
5
1F0
100
AcDbEntity
8
1
62
256
6
ByLayer
370
18
48
1
60
0
100
AcDbSpline
70
4
71
3
72
10
73
6
40
0
40
0
40
0
40
0
40
0.404274375779789
40
0.794098643884294
40
1
40
1
40
1
40
1
41
1
10
0.34327857925749
20
-18.2087657755831
30
0
41
1
10
0.356282851681372
20
-18.2198248605346
30
0
41
1
10
0.38011695489425
20
-18.2380184996964
30
0
41
1
10
0.40815170927547
20
-18.2544413394282
30
0
41
1
10
0.420914821072697
20
-18.2582827052291
30
0
41
1
10
0.425000000000002
20
-18.2590443105541
30
0
0
SPLINE
5
1F1
100
AcDbEntity
8
1
62
256
6
ByLayer
370
18
48
1
60
0
100
AcDbSpline
70
4
71
1
72
4
73
2
40
0
40
0
40
1
40
1
41
1
10
0.34327857925749
20
18.2087657755831
30
0
41
1
10
-0.325
20
17.6483666028899
30
0
0
SPLINE
5
1F2
100
AcDbEntity
8
1
62
256
6
ByLayer
370
18
48
1
60
0
100
AcDbSpline
70
4
71
1
72
4
73
2
40
0
40
0
40
1
40
1
41
1
10
0.343278579257491
20
18.6750923852838
30
0
41
1
10
-0.325
20
17.8070166998855
30
0
0
SPLINE
5
1F3
100
AcDbEntity
8
1
62
256
6
ByLayer
370
18
48
1
60
0
100
AcDbSpline
70
4
71
2
72
6
73
3
40
0
40
0
40
0
40
1
40
1
40
1
41
1
10
0.343278579257491
20
18.6750923852838
30
0
41
1
10
0.395021509455655
20
18.740764455451
30
0
41
1
10
0.425000000000002
20
18.7944828920999
30
0
0
SPLINE
5
1F4
100
AcDbEntity
8
1
62
256
6
ByLayer
370
18
48
1
60
0
100
AcDbSpline
70
4
71
1
72
4
73
2
40
0
40
0
40
1
40
1
41
1
10
-0.325
20
-17.8070166998855
30
0
41
1
10
0.343278579257491
20
-18.6750923852838
30
0
0
SPLINE
5
1F5
100
AcDbEntity
8
1
62
256
6
ByLayer
370
18
48
1
60
0
100
AcDbSpline
70
4
71
1
72
4
73
2
40
0
40
0
40
1
40
1
41
1
10
-0.325
20
-17.6483666028899
30
0
41
1
10
0.34327857925749
20
-18.2087657755831
30
0
0
SPLINE
5
1F6
100
AcDbEntity
8
1
62
256
6
ByLayer
370
18
48
1
60
0
100
AcDbSpline
70
4
71
2
72
6
73
3
40
0
40
0
40
0
40
1
40
1
40
1
41
1
10
0.425000000000002
20
-18.7944828920999
30
0
41
1
10
0.394216618601161
20
-18.739897932532
30
0
41
1
10
0.343278579257491
20
-18.6750923852838
30
0
0
SPLINE
5
1F7
100
AcDbEntity
8
1
62
256
6
ByLayer
370
18
48
1
60
0
100
AcDbSpline
70
4
71
1
72
4
73
2
40
0
40
0
40
1
40
1
41
1
10
11.825
20
18.7349939951952
30
0
41
1
10
12.2853765877365
20
18.4127729774429
30
0
0
SPLINE
5
1F8
100
AcDbEntity
8
1
62
256
6
ByLayer
370
18
48
1
60
0
100
AcDbSpline
70
4
71
1
72
4
73
2
40
0
40
0
40
1
40
1
41
1
10
12.2853765877365
20
-18.4127729774429
30
0
41
1
10
11.825
20
-18.7349939951952
30
0
0
SPLINE
5
1F9
100
AcDbEntity
8
1
62
256
6
ByLayer
370
18
48
1
60
0
100
AcDbSpline
70
4
71
1
72
4
73
2
40
0
40
0
40
1
40
1
41
1
10
12.2853765877365
20
18.4127729774429
30
0
41
1
10
11.825
20
18.9905008243128
30
0
0
SPLINE
5
1FA
100
AcDbEntity
8
1
62
256
6
ByLayer
370
18
48
1
60
0
100
AcDbSpline
70
4
71
1
72
4
73
2
40
0
40
0
40
1
40
1
41
1
10
11.825
20
-18.9905008243128
30
0
41
1
10
12.2853765877365
20
-18.4127729774429
30
0
0
SPLINE
5
1FB
100
AcDbEntity
8
1
62
256
6
ByLayer
370
18
48
1
60
0
100
AcDbSpline
70
4
71
2
72
6
73
3
40
0
40
0
40
0
40
1
40
1
40
1
41
1
10
0.445278457799275
20
18.8264307476017
30
0
41
1
10
0.445230564800152
20
18.8431462304223
30
0
41
1
10
0.42500000000002
20
18.8580669194762
30
0
0
SPLINE
5
1FC
100
AcDbEntity
8
1
62
256
6
ByLayer
370
18
48
1
60
0
100
AcDbSpline
70
4
71
2
72
6
73
3
40
0
40
0
40
0
40
1
40
1
40
1
41
1
10
0.445278482259143
20
-18.8265818889946
30
0
41
1
10
0.44521103755228
20
-18.8098400790961
30
0
41
1
10
0.425000000000019
20
-18.7944828920999
30
0
0
SPLINE
5
1FD
100
AcDbEntity
8
1
62
256
6
ByLayer
370
18
48
1
60
0
100
AcDbSpline
70
4
71
1
72
4
73
2
40
0
40
0
40
1
40
1
41
1
10
0.425000000000002
20
18.8580669194762
30
0
41
1
10
0.417714546486104
20
18.8551872821196
30
0
0
SPLINE
5
1FE
100
AcDbEntity
8
1
62
256
6
ByLayer
370
18
48
1
60
0
100
AcDbSpline
70
4
71
3
72
10
73
6
40
0
40
0
40
0
40
0
40
0.133869979159864
40
0.577535443571413
40
1
40
1
40
1
40
1
41
1
10
0.417714546486104
20
18.8551872821196
30
0
41
1
10
0.415077581200105
20
18.8539782825908
30
0
41
1
10
0.403291549857516
20
18.8480846496785
30
0
41
1
10
0.378387148625987
20
18.8313278465284
30
0
41
1
10
0.355268958982021
20
18.8127545563511
30
0
41
1
10
0.34327857925749
20
18.8023706889033
30
0
0
SPLINE
5
1FF
100
AcDbEntity
8
1
62
256
6
ByLayer
370
18
48
1
60
0
100
AcDbSpline
70
4
71
3
72
10
73
6
40
0
40
0
40
0
40
0
40
0.437536772074585
40
0.841020602583493
40
1
40
1
40
1
40
1
41
1
10
0.34327857925749
20
-18.8023706889033
30
0
41
1
10
0.357470117136119
20
-18.814691180097
30
0
41
1
10
0.382644983144413
20
-18.8346514807404
30
0
41
1
10
0.410035653932534
20
-18.8521372516762
30
0
41
1
10
0.421857304135736
20
-18.8570016617814
30
0
41
1
10
0.425000000000002
20
-18.8580669194762
30
0
0
SPLINE
5
200
100
AcDbEntity
8
1
62
256
6
ByLayer
370
18
48
1
60
0
100
AcDbSpline
70
4
71
1
72
4
73
2
40
0
40
0
40
1
40
1
41
1
10
-0.325
20
-18.2284761773989
30
0
41
1
10
0.34327857925749
20
-18.8023706889033
30
0
0
SPLINE
5
201
100
AcDbEntity
8
1
62
256
6
ByLayer
370
18
48
1
60
0
100
AcDbSpline
70
4
71
1
72
4
73
2
40
0
40
0
40
1
40
1
41
1
10
0.34327857925749
20
18.8023706889033
30
0
41
1
10
-0.325
20
18.2284761773989
30
0
0
SPLINE
5
202
100
AcDbEntity
8
1
62
256
6
ByLayer
370
18
48
1
60
0
100
AcDbSpline
70
4
71
1
72
4
73
2
40
0
40
0
40
1
40
1
41
1
10
-0.325
20
-18.3514943192646
30
0
41
1
10
0.343278579257491
20
-19.1647875841607
30
0
0
SPLINE
5
203
100
AcDbEntity
8
1
62
256
6
ByLayer
370
18
48
1
60
0
100
AcDbSpline
70
4
71
2
72
6
73
3
40
0
40
0
40
0
40
1
40
1
40
1
41
1
10
0.425000000000002
20
-19.2742989075289
30
0
41
1
10
0.393897820383539
20
-19.2253382928112
30
0
41
1
10
0.343278579257491
20
-19.1647875841607
30
0
0
SPLINE
5
204
100
AcDbEntity
8
1
62
256
6
ByLayer
370
18
48
1
60
0
100
AcDbSpline
70
4
71
1
72
4
73
2
40
0
40
0
40
1
40
1
41
1
10
0.343278579257491
20
19.1647875841607
30
0
41
1
10
-0.325
20
18.3514943192646
30
0
0
SPLINE
5
205
100
AcDbEntity
8
1
62
256
6
ByLayer
370
18
48
1
60
0
100
AcDbSpline
70
4
71
2
72
6
73
3
40
0
40
0
40
0
40
1
40
1
40
1
41
1
10
0.343278579257491
20
19.1647875841607
30
0
41
1
10
0.394697987905757
20
19.226183463932
30
0
41
1
10
0.425000000000002
20
19.2742989075289
30
0
0
SPLINE
5
206
100
AcDbEntity
8
1
62
256
6
ByLayer
370
18
48
1
60
0
100
AcDbSpline
70
4
71
3
72
10
73
6
40
0
40
0
40
0
40
0
40
0.310234226684654
40
0.65105602234065
40
1
40
1
40
1
40
1
41
1
10
11.5547214799745
20
-19.0787351389324
30
0
41
1
10
11.5548242232791
20
-19.0857967943863
30
0
41
1
10
11.5618713226251
20
-19.0997246321246
30
0
41
1
10
11.596632449076
20
-19.1196132678548
30
0
41
1
10
11.6340259510772
20
-19.1293183918085
30
0
41
1
10
11.6567214207425
20
-19.1334476294385
30
0
0
SPLINE
5
207
100
AcDbEntity
8
1
62
256
6
ByLayer
370
18
48
1
60
0
100
AcDbSpline
70
4
71
3
72
10
73
6
40
0
40
0
40
0
40
0
40
0.305203843290651
40
0.646275861932375
40
1
40
1
40
1
40
1
41
1
10
11.5547214804405
20
19.078833108319
30
0
41
1
10
11.5548272419714
20
19.0718670203154
30
0
41
1
10
11.5617226281139
20
19.0578754874207
30
0
41
1
10
11.5961359957917
20
19.0371792545835
30
0
41
1
10
11.6337060357403
20
19.0268300207077
30
0
41
1
10
11.6567214207427
20
19.0223226187428
30
0
0
SPLINE
5
208
100
AcDbEntity
8
1
62
256
6
ByLayer
370
18
48
1
60
0
100
AcDbSpline
70
4
71
1
72
4
73
2
40
0
40
0
40
1
40
1
41
1
10
12.325
20
18.7265478332233
30
0
41
1
10
11.825
20
19.162748193512
30
0
0
SPLINE
5
209
100
AcDbEntity
8
1
62
256
6
ByLayer
370
18
48
1
60
0
100
AcDbSpline
70
4
71
1
72
4
73
2
40
0
40
0
40
1
40
1
41
1
10
11.825
20
-19.162748193512
30
0
41
1
10
12.325
20
-18.7265478332233
30
0
0
SPLINE
5
20A
100
AcDbEntity
8
1
62
256
6
ByLayer
370
18
48
1
60
0
100
AcDbSpline
70
4
71
1
72
4
73
2
40
0
40
0
40
1
40
1
41
1
10
11.825
20
-19.4219102086906
30
0
41
1
10
12.325
20
-18.8313858690751
30
0
0
SPLINE
5
20B
100
AcDbEntity
8
1
62
256
6
ByLayer
370
18
48
1
60
0
100
AcDbSpline
70
4
71
1
72
4
73
2
40
0
40
0
40
1
40
1
41
1
10
12.325
20
18.8313858690751
30
0
41
1
10
11.825
20
19.4219102086906
30
0
0
SPLINE
5
20C
100
AcDbEntity
8
1
62
256
6
ByLayer
370
18
48
1
60
0
100
AcDbSpline
70
4
71
2
72
6
73
3
40
0
40
0
40
0
40
1
40
1
40
1
41
1
10
0.445278502322423
20
-19.2986880468233
30
0
41
1
10
0.445196424389405
20
-19.2859802377668
30
0
41
1
10
0.425000000000041
20
-19.2742989075289
30
0
0
SPLINE
5
20D
100
AcDbEntity
8
1
62
256
6
ByLayer
370
18
48
1
60
0
100
AcDbSpline
70
4
71
3
72
10
73
6
40
0
40
0
40
0
40
0
40
0.470128679124649
40
0.885609665381902
40
1
40
1
40
1
40
1
41
1
10
0.34327857925749
20
-19.2613378552948
30
0
41
1
10
0.358648483951538
20
-19.2750280502911
30
0
41
1
10
0.385074139763156
20
-19.2969299218285
30
0
41
1
10
0.411822439687258
20
-19.3156771575917
30
0
41
1
10
0.422746598869452
20
-19.321445581764
30
0
41
1
10
0.425000000000002
20
-19.3225432266074
30
0
0
SPLINE
5
20E
100
AcDbEntity
8
1
62
256
6
ByLayer
370
18
48
1
60
0
100
AcDbSpline
70
4
71
2
72
6
73
3
40
0
40
0
40
0
40
1
40
1
40
1
41
1
10
0.445278486045673
20
19.2985867942894
30
0
41
1
10
0.445210223317921
20
19.3112754730586
30
0
41
1
10
0.425000000000043
20
19.3225432266073
30
0
0
SPLINE
5
20F
100
AcDbEntity
8
1
62
256
6
ByLayer
370
18
48
1
60
0
100
AcDbSpline
70
4
71
3
72
10
73
6
40
0
40
0
40
0
40
0
40
0.255337035650069
40
0.665768501381404
40
1
40
1
40
1
40
1
41
1
10
0.425000000000002
20
19.3225432266074
30
0
41
1
10
0.419834768919011
20
19.3199693141357
30
0
41
1
10
0.405175561534895
20
19.311504087976
30
0
41
1
10
0.376661686877363
20
19.2900157289813
30
0
41
1
10
0.354014400800042
20
19.2708652855945
30
0
41
1
10
0.34327857925749
20
19.2613378552948
30
0
0
SPLINE
5
210
100
AcDbEntity
8
1
62
256
6
ByLayer
370
18
48
1
60
0
100
AcDbSpline
70
4
71
1
72
4
73
2
40
0
40
0
40
1
40
1
41
1
10
-0.325
20
-18.7607260986882
30
0
41
1
10
0.343278579257491
20
-19.527393340974
30
0
0
SPLINE
5
211
100
AcDbEntity
8
1
62
256
6
ByLayer
370
18
48
1
60
0
100
AcDbSpline
70
4
71
1
72
4
73
2
40
0
40
0
40
1
40
1
41
1
10
-0.325
20
-18.670560884719
30
0
41
1
10
0.34327857925749
20
-19.2613378552948
30
0
0
SPLINE
5
212
100
AcDbEntity
8
1
62
256
6
ByLayer
370
18
48
1
60
0
100
AcDbSpline
70
4
71
2
72
6
73
3
40
0
40
0
40
0
40
1
40
1
40
1
41
1
10
0.425000000000002
20
-19.6281585884184
30
0
41
1
10
0.394112289963671
20
-19.5848582025387
30
0
41
1
10
0.343278579257491
20
-19.527393340974
30
0
0
SPLINE
5
213
100
AcDbEntity
8
1
62
256
6
ByLayer
370
18
48
1
60
0
100
AcDbSpline
70
4
71
1
72
4
73
2
40
0
40
0
40
1
40
1
41
1
10
0.34327857925749
20
19.2613378552948
30
0
41
1
10
-0.325
20
18.670560884719
30
0
0
SPLINE
5
214
100
AcDbEntity
8
1
62
256
6
ByLayer
370
18
48
1
60
0
100
AcDbSpline
70
4
71
1
72
4
73
2
40
0
40
0
40
1
40
1
41
1
10
0.343278579257491
20
19.5273933409741
30
0
41
1
10
-0.325
20
18.7607260986882
30
0
0
SPLINE
5
215
100
AcDbEntity
8
1
62
256
6
ByLayer
370
18
48
1
60
0
100
AcDbSpline
70
4
71
2
72
6
73
3
40
0
40
0
40
0
40
1
40
1
40
1
41
1
10
0.343278579257491
20
19.5273933409741
30
0
41
1
10
0.393908188345649
20
19.584645910607
30
0
41
1
10
0.425000000000002
20
19.6281585884184
30
0
0
SPLINE
5
216
100
AcDbEntity
8
1
62
256
6
ByLayer
370
18
48
1
60
0
100
AcDbSpline
70
4
71
3
72
11
73
7
40
0
40
0
40
0
40
0
40
0.300873761167298
40
0.632973565921723
40
0.959815128528167
40
1
40
1
40
1
40
1
41
1
10
11.5547214765883
20
-19.4871404123944
30
0
41
1
10
11.5548396879124
20
-19.4921980975577
30
0
41
1
10
11.5616374702693
20
-19.5022209789074
30
0
41
1
10
11.5939565248797
20
-19.5161536177517
30
0
41
1
10
11.631722545098
20
-19.523791296272
30
0
41
1
10
11.6542180303584
20
-19.5268100322908
30
0
41
1
10
11.6567214207425
20
-19.5271301178988
30
0
0
SPLINE
5
217
100
AcDbEntity
8
1
62
256
6
ByLayer
370
18
48
1
60
0
100
AcDbSpline
70
4
71
3
72
11
73
7
40
0
40
0
40
0
40
0
40
0.297353723975063
40
0.629589584929336
40
0.957571778984897
40
1
40
1
40
1
40
1
41
1
10
11.5547214765285
20
19.4872101075335
30
0
41
1
10
11.5548410846713
20
19.4821960172379
30
0
41
1
10
11.5615329139441
20
19.4720796221931
30
0
41
1
10
11.5935489544078
20
19.4575022213495
30
0
41
1
10
11.6313865220418
20
19.4492125553897
30
0
41
1
10
11.6540771174816
20
19.445900881684
30
0
41
1
10
11.6567214207425
20
19.4455333009576
30
0
0
SPLINE
5
218
100
AcDbEntity
8
1
62
256
6
ByLayer
370
18
48
1
60
0
100
AcDbSpline
70
4
71
1
72
4
73
2
40
0
40
0
40
1
40
1
41
1
10
12.325
20
19.0983269882469
30
0
41
1
10
11.825
20
19.5483872411954
30
0
0
SPLINE
5
219
100
AcDbEntity
8
1
62
256
6
ByLayer
370
18
48
1
60
0
100
AcDbSpline
70
4
71
1
72
4
73
2
40
0
40
0
40
1
40
1
41
1
10
11.825
20
-19.5483872411954
30
0
41
1
10
12.325
20
-19.0983269882469
30
0
0
SPLINE
5
21A
100
AcDbEntity
8
1
62
256
6
ByLayer
370
18
48
1
60
0
100
AcDbSpline
70
4
71
1
72
4
73
2
40
0
40
0
40
1
40
1
41
1
10
12.325
20
19.1718176955134
30
0
41
1
10
11.825
20
19.730232404882
30
0
0
SPLINE
5
21B
100
AcDbEntity
8
1
62
256
6
ByLayer
370
18
48
1
60
0
100
AcDbSpline
70
4
71
1
72
4
73
2
40
0
40
0
40
1
40
1
41
1
10
11.825
20
-19.730232404882
30
0
41
1
10
12.325
20
-19.1718176955134
30
0
0
SPLINE
5
21C
100
AcDbEntity
8
1
62
256
6
ByLayer
370
18
48
1
60
0
100
AcDbSpline
70
4
71
2
72
6
73
3
40
0
40
0
40
0
40
1
40
1
40
1
41
1
10
0.445278515960286
20
-19.6453227342299
30
0
41
1
10
0.445187287679768
20
-19.6364028775309
30
0
41
1
10
0.425000000000071
20
-19.6281585884185
30
0
0
SPLINE
5
21D
100
AcDbEntity
8
1
62
256
6
ByLayer
370
18
48
1
60
0
100
AcDbSpline
70
4
71
3
72
10
73
6
40
0
40
0
40
0
40
0
40
0.502338675380574
40
0.921894457806302
40
1
40
1
40
1
40
1
41
1
10
0.34327857925749
20
-19.595130222295
30
0
41
1
10
0.359825320566922
20
-19.6103155707884
30
0
41
1
10
0.387243956527986
20
-19.6341984929896
30
0
41
1
10
0.413370033055775
20
-19.6544344643341
30
0
41
1
10
0.423465374494925
20
-19.6610378526121
30
0
41
1
10
0.425000000000002
20
-19.6620107198825
30
0
0
SPLINE
5
21E
100
AcDbEntity
8
1
62
256
6
ByLayer
370
18
48
1
60
0
100
AcDbSpline
70
4
71
2
72
6
73
3
40
0
40
0
40
0
40
1
40
1
40
1
41
1
10
0.445278505857667
20
19.6452590207954
30
0
41
1
10
0.445196469066315
20
19.6541645821807
30
0
41
1
10
0.425000000000072
20
19.6620107198825
30
0
0
SPLINE
5
21F
100
AcDbEntity
8
1
62
256
6
ByLayer
370
18
48
1
60
0
100
AcDbSpline
70
4
71
3
72
10
73
6
40
0
40
0
40
0
40
0
40
0.275606148963102
40
0.704945964806201
40
1
40
1
40
1
40
1
41
1
10
0.425000000000002
20
19.6620107198825
30
0
41
1
10
0.419392792509604
20
19.6583936935732
30
0
41
1
10
0.403736348869323
20
19.6473869371483
30
0
41
1
10
0.374960374801835
20
19.6235342299476
30
0
41
1
10
0.352762640655954
20
19.6038017300369
30
0
41
1
10
0.34327857925749
20
19.595130222295
30
0
0
SPLINE
5
220
100
AcDbEntity
8
1
62
256
6
ByLayer
370
18
48
1
60
0
100
AcDbSpline
70
4
71
1
72
4
73
2
40
0
40
0
40
1
40
1
41
1
10
-0.325
20
-19.0434330872876
30
0
41
1
10
0.343278579257491
20
-19.7699038500503
30
0
0
SPLINE
5
221
100
AcDbEntity
8
1
62
256
6
ByLayer
370
18
48
1
60
0
100
AcDbSpline
70
4
71
1
72
4
73
2
40
0
40
0
40
1
40
1
41
1
10
-0.325
20
-18.9842656889857
30
0
41
1
10
0.34327857925749
20
-19.595130222295
30
0
0
SPLINE
5
222
100
AcDbEntity
8
1
62
256
6
ByLayer
370
18
48
1
60
0
100
AcDbSpline
70
4
71
2
72
6
73
3
40
0
40
0
40
0
40
1
40
1
40
1
41
1
10
0.425000000000002
20
-19.8627948881178
30
0
41
1
10
0.394082214841796
20
-19.8245117570617
30
0
41
1
10
0.343278579257491
20
-19.7699038500503
30
0
0
SPLINE
5
223
100
AcDbEntity
8
1
62
256
6
ByLayer
370
18
48
1
60
0
100
AcDbSpline
70
4
71
1
72
4
73
2
40
0
40
0
40
1
40
1
41
1
10
0.34327857925749
20
19.595130222295
30
0
41
1
10
-0.325
20
18.9842656889857
30
0
0
SPLINE
5
224
100
AcDbEntity
8
1
62
256
6
ByLayer
370
18
48
1
60
0
100
AcDbSpline
70
4
71
1
72
4
73
2
40
0
40
0
40
1
40
1
41
1
10
0.343278579257491
20
19.7699038500503
30
0
41
1
10
-0.325
20
19.0434330872876
30
0
0
SPLINE
5
225
100
AcDbEntity
8
1
62
256
6
ByLayer
370
18
48
1
60
0
100
AcDbSpline
70
4
71
2
72
6
73
3
40
0
40
0
40
0
40
1
40
1
40
1
41
1
10
0.343278579257491
20
19.7699038500503
30
0
41
1
10
0.393841865219106
20
19.8242639745856
30
0
41
1
10
0.425000000000002
20
19.8627948881178
30
0
0
SPLINE
5
226
100
AcDbEntity
8
1
62
256
6
ByLayer
370
18
48
1
60
0
100
AcDbSpline
70
4
71
1
72
4
73
2
40
0
40
0
40
1
40
1
41
1
10
11.825
20
-19.8133280681343
30
0
41
1
10
12.325
20
-19.3470564621598
30
0
0
SPLINE
5
227
100
AcDbEntity
8
1
62
256
6
ByLayer
370
18
48
1
60
0
100
AcDbSpline
70
4
71
3
72
11
73
7
40
0
40
0
40
0
40
0
40
0.294603041903367
40
0.620847687163286
40
0.944769107647332
40
1
40
1
40
1
40
1
41
1
10
11.5547214739773
20
-19.7736975732904
30
0
41
1
10
11.5548489379835
20
-19.7769626163158
30
0
41
1
10
11.5614227269714
20
-19.78343301371
30
0
41
1
10
11.5928169189015
20
-19.7923898646268
30
0
41
1
10
11.6303254243645
20
-19.7974136064142
30
0
41
1
10
11.653299497693
20
-19.7994355700344
30
0
41
1
10
11.6567214207425
20
-19.7997172478354
30
0
0
SPLINE
5
228
100
AcDbEntity
8
1
62
256
6
ByLayer
370
18
48
1
60
0
100
AcDbSpline
70
4
71
3
72
11
73
7
40
0
40
0
40
0
40
0
40
0.292371001419974
40
0.618691847775401
40
0.943312790568885
40
1
40
1
40
1
40
1
41
1
10
11.554721473805
20
19.7737422559328
30
0
41
1
10
11.5548495316273
20
19.7704887169382
30
0
41
1
10
11.5613568753914
20
19.7639095540323
30
0
41
1
10
11.592560540519
20
19.754341488924
30
0
41
1
10
11.6301116854603
20
19.7487254496269
30
0
41
1
10
11.6532082311301
20
19.7464345763249
30
0
41
1
10
11.6567214207425
20
19.7461077913033
30
0
0
SPLINE
5
229
100
AcDbEntity
8
1
62
256
6
ByLayer
370
18
48
1
60
0
100
AcDbSpline
70
4
71
1
72
4
73
2
40
0
40
0
40
1
40
1
41
1
10
12.325
20
19.3470564621598
30
0
41
1
10
11.825
20
19.8133280681343
30
0
0
SPLINE
5
22A
100
AcDbEntity
8
1
62
256
6
ByLayer
370
18
48
1
60
0
100
AcDbSpline
70
4
71
1
72
4
73
2
40
0
40
0
40
1
40
1
41
1
10
12.325
20
19.3906187046726
30
0
41
1
10
11.825
20
19.9211833319929
30
0
0
SPLINE
5
22B
100
AcDbEntity
8
1
62
256
6
ByLayer
370
18
48
1
60
0
100
AcDbSpline
70
4
71
1
72
4
73
2
40
0
40
0
40
1
40
1
41
1
10
11.825
20
-19.9211833319929
30
0
41
1
10
12.325
20
-19.3906187046726
30
0
0
SPLINE
5
22C
100
AcDbEntity
8
1
62
256
6
ByLayer
370
18
48
1
60
0
100
AcDbSpline
70
4
71
2
72
6
73
3
40
0
40
0
40
0
40
1
40
1
40
1
41
1
10
0.445278523859067
20
-19.8730515169398
30
0
41
1
10
0.445182358251711
20
-19.8677585634237
30
0
41
1
10
0.425000000000099
20
-19.8627948881178
30
0
0
SPLINE
5
22D
100
AcDbEntity
8
1
62
256
6
ByLayer
370
18
48
1
60
0
100
AcDbSpline
70
4
71
2
72
6
73
3
40
0
40
0
40
0
40
1
40
1
40
1
41
1
10
0.34327857925749
20
-19.8100762462334
30
0
41
1
10
0.393795719469572
20
-19.8580739580236
30
0
41
1
10
0.425000000000002
20
-19.8828733927831
30
0
0
SPLINE
5
22E
100
AcDbEntity
8
1
62
256
6
ByLayer
370
18
48
1
60
0
100
AcDbSpline
70
4
71
1
72
4
73
2
40
0
40
0
40
1
40
1
41
1
10
0.439946173830881
20
19.8782260948507
30
0
41
1
10
0.4250000000001
20
19.8828733927831
30
0
0
SPLINE
5
22F
100
AcDbEntity
8
1
62
256
6
ByLayer
370
18
48
1
60
0
100
AcDbSpline
70
4
71
3
72
10
73
6
40
0
40
0
40
0
40
0
40
0.296361441225927
40
0.850320507400598
40
1
40
1
40
1
40
1
41
1
10
0.425000000000002
20
19.8828733927831
30
0
41
1
10
0.418926874961139
20
19.8780693874093
30
0
41
1
10
0.399951652424154
20
19.8624106809725
30
0
41
1
10
0.370045458785273
20
19.835235395955
30
0
41
1
10
0.348065919440331
20
19.8146047242537
30
0
41
1
10
0.34327857925749
20
19.8100762462334
30
0
0
SPLINE
5
230
100
AcDbEntity
8
1
62
256
6
ByLayer
370
18
48
1
60
0
100
AcDbSpline
70
4
71
1
72
4
73
2
40
0
40
0
40
1
40
1
41
1
10
0.34327857925749
20
19.8100762462334
30
0
41
1
10
-0.325
20
19.1758922543385
30
0
0
SPLINE
5
231
100
AcDbEntity
8
1
62
256
6
ByLayer
370
18
48
1
60
0
100
AcDbSpline
70
4
71
1
72
4
73
2
40
0
40
0
40
1
40
1
41
1
10
0.343278579257491
20
19.8967109288784
30
0
41
1
10
-0.325
20
19.205203559192
30
0
0
SPLINE
5
232
100
AcDbEntity
8
1
62
256
6
ByLayer
370
18
48
1
60
0
100
AcDbSpline
70
4
71
2
72
6
73
3
40
0
40
0
40
0
40
1
40
1
40
1
41
1
10
0.343278579257491
20
19.8967109288784
30
0
41
1
10
0.393799302790542
20
19.9486017386804
30
0
41
1
10
0.425000000000002
20
19.9824080621624
30
0
0
SPLINE
5
233
100
AcDbEntity
8
1
62
256
6
ByLayer
370
18
48
1
60
0
100
AcDbSpline
70
4
71
1
72
4
73
2
40
0
40
0
40
1
40
1
41
1
10
-0.325
20
-19.205203559192
30
0
41
1
10
0.343278579257491
20
-19.8967109288784
30
0
0
SPLINE
5
234
100
AcDbEntity
8
1
62
256
6
ByLayer
370
18
48
1
60
0
100
AcDbSpline
70
4
71
1
72
4
73
2
40
0
40
0
40
1
40
1
41
1
10
-0.325
20
-19.1758922543385
30
0
41
1
10
0.34327857925749
20
-19.8100762462334
30
0
0
SPLINE
5
235
100
AcDbEntity
8
1
62
256
6
ByLayer
370
18
48
1
60
0
100
AcDbSpline
70
4
71
3
72
10
73
6
40
0
40
0
40
0
40
0
40
0.339482532686418
40
0.975196523911215
40
1
40
1
40
1
40
1
41
1
10
0.425000000000002
20
-19.9824080621624
30
0
41
1
10
0.418005394202542
20
-19.9748249179583
30
0
41
1
10
0.395983113224041
20
-19.9512500627716
30
0
41
1
10
0.365224960531972
20
-19.9192799372454
30
0
41
1
10
0.344075888307218
20
-19.8975305203787
30
0
41
1
10
0.343278579257491
20
-19.8967109288784
30
0
0
SPLINE
5
236
100
AcDbEntity
8
1
62
256
6
ByLayer
370
18
48
1
60
0
100
AcDbSpline
70
4
71
3
72
11
73
7
40
0
40
0
40
0
40
0
40
0.290816770017825
40
0.613665687175587
40
0.935886038833585
40
1
40
1
40
1
40
1
41
1
10
11.5547214723482
20
-19.9436597611262
30
0
41
1
10
11.5548539015813
20
-19.9452586358062
30
0
41
1
10
11.5612953972239
20
-19.9484086249861
30
0
41
1
10
11.59214555256
20
-19.9526741462895
30
0
41
1
10
11.6295074798585
20
-19.955057008144
30
0
41
1
10
11.6527615891684
20
-19.9560204707211
30
0
41
1
10
11.6567214207425
20
-19.9561718660447
30
0
0
SPLINE
5
237
100
AcDbEntity
8
1
62
256
6
ByLayer
370
18
48
1
60
0
100
AcDbSpline
70
4
71
3
72
11
73
7
40
0
40
0
40
0
40
0
40
0.289733085854181
40
0.612616259847354
40
0.93516951402712
40
1
40
1
40
1
40
1
41
1
10
11.5547214722321
20
19.9436815758918
30
0
41
1
10
11.5548541096297
20
19.9420767045663
30
0
41
1
10
11.5612635485743
20
19.9388094975432
30
0
41
1
10
11.5920216463006
20
19.9339510944188
30
0
41
1
10
11.629403522625
20
19.9310092532529
30
0
41
1
10
11.6527167401497
20
19.9297905374735
30
0
41
1
10
11.6567214207425
20
19.9295955918048
30
0
0
SPLINE
5
238
100
AcDbEntity
8
1
62
256
6
ByLayer
370
18
48
1
60
0
100
AcDbSpline
70
4
71
1
72
4
73
2
40
0
40
0
40
1
40
1
41
1
10
12.325
20
19.4774509048284
30
0
41
1
10
11.8487654935147
20
19.9394057098936
30
0
0
SPLINE
5
239
100
AcDbEntity
8
1
62
256
6
ByLayer
370
18
48
1
60
0
100
AcDbSpline
70
4
71
1
72
4
73
2
40
0
40
0
40
1
40
1
41
1
10
11.8487654935147
20
19.9394057098936
30
0
41
1
10
11.825
20
19.9623769761845
30
0
0
SPLINE
5
23A
100
AcDbEntity
8
1
62
256
6
ByLayer
370
18
48
1
60
0
100
AcDbSpline
70
4
71
1
72
4
73
2
40
0
40
0
40
1
40
1
41
1
10
11.825
20
-19.9623769761845
30
0
41
1
10
11.8487654935146
20
-19.9394057098936
30
0
0
SPLINE
5
23B
100
AcDbEntity
8
1
62
256
6
ByLayer
370
18
48
1
60
0
100
AcDbSpline
70
4
71
1
72
4
73
2
40
0
40
0
40
1
40
1
41
1
10
11.8487654935146
20
-19.9394057098936
30
0
41
1
10
12.325
20
-19.4774509048284
30
0
0
SPLINE
5
23C
100
AcDbEntity
8
1
62
256
6
ByLayer
370
18
48
1
60
0
100
AcDbSpline
70
4
71
1
72
4
73
2
40
0
40
0
40
1
40
1
41
1
10
11.825
20
-19.998125410725
30
0
41
1
10
12.325
20
-19.4918853308242
30
0
0
SPLINE
5
23D
100
AcDbEntity
8
1
62
256
6
ByLayer
370
18
48
1
60
0
100
AcDbSpline
70
4
71
1
72
4
73
2
40
0
40
0
40
1
40
1
41
1
10
12.325
20
19.4918853308242
30
0
41
1
10
11.825
20
19.998125410725
30
0
0
SPLINE
5
23E
100
AcDbEntity
8
1
62
256
6
ByLayer
370
18
48
1
60
0
100
AcDbSpline
70
4
71
2
72
6
73
3
40
0
40
0
40
0
40
1
40
1
40
1
41
1
10
0.445278526788199
20
-19.9859380435494
30
0
41
1
10
0.445180896197587
20
-19.9841804846626
30
0
41
1
10
0.425000000000117
20
-19.9824080621624
30
0
0
SPLINE
5
23F
100
AcDbEntity
8
1
62
256
6
ByLayer
370
18
48
1
60
0
100
AcDbSpline
70
4
71
2
72
6
73
3
40
0
40
0
40
0
40
1
40
1
40
1
41
1
10
0.34327857925749
20
-19.9100254478608
30
0
41
1
10
0.393782765006002
20
-19.9598093960821
30
0
41
1
10
0.425000000000002
20
-19.9890630885519
30
0
0
SPLINE
5
240
100
AcDbEntity
8
1
62
256
6
ByLayer
370
18
48
1
60
0
100
AcDbSpline
70
4
71
1
72
4
73
2
40
0
40
0
40
1
40
1
41
1
10
0.440110455899962
20
19.9875926421716
30
0
41
1
10
0.425000000000118
20
19.9890630885519
30
0
0
SPLINE
5
241
100
AcDbEntity
8
1
62
256
6
ByLayer
370
18
48
1
60
0
100
AcDbSpline
70
4
71
3
72
10
73
6
40
0
40
0
40
0
40
0
40
0.317467555823558
40
0.911600670145793
40
1
40
1
40
1
40
1
41
1
10
0.425000000000002
20
19.9890630885519
30
0
41
1
10
0.418473222307417
20
19.9829535209318
30
0
41
1
10
0.398004428445077
20
19.9635655873923
30
0
41
1
10
0.367685053482362
20
19.9340125665289
30
0
41
1
10
0.346111922638999
20
19.9128133706105
30
0
41
1
10
0.34327857925749
20
19.9100254478608
30
0
0
SPLINE
5
242
100
AcDbEntity
8
1
62
256
6
ByLayer
370
18
48
1
60
0
100
AcDbSpline
70
4
71
1
72
4
73
2
40
0
40
0
40
1
40
1
41
1
10
-0.325
20
-19.2490868289901
30
0
41
1
10
0.34327857925749
20
-19.9100254478608
30
0
0
SPLINE
5
243
100
AcDbEntity
8
1
62
256
6
ByLayer
370
18
48
1
60
0
100
AcDbSpline
70
4
71
1
72
4
73
2
40
0
40
0
40
1
40
1
41
1
10
0.34327857925749
20
19.9100254478608
30
0
41
1
10
-0.325
20
19.2490868289901
30
0
0
SPLINE
5
244
100
AcDbEntity
8
SK1
62
256
6
ByLayer
370
18
48
1
60
0
100
AcDbSpline
70
4
71
1
72
4
73
2
40
0
40
0
40
1
40
1
41
1
10
17.45
20
-17
30
0
41
1
10
18.45
20
-17
30
0
0
SPLINE
5
245
100
AcDbEntity
8
SK1
62
256
6
ByLayer
370
18
48
1
60
0
100
AcDbSpline
70
4
71
1
72
4
73
2
40
0
40
0
40
1
40
1
41
1
10
17.45
20
17
30
0
41
1
10
18.45
20
17
30
0
0
SPLINE
5
246
100
AcDbEntity
8
SK1
62
256
6
ByLayer
370
18
48
1
60
0
100
AcDbSpline
70
4
71
3
72
14
73
10
40
0
40
0
40
0
40
0
40
0.140731780873671
40
0.285019258775479
40
0.394132167285148
40
0.503263638162388
40
0.727515379298186
40
0.863772372198405
40
1
40
1
40
1
40
1
41
1
10
18.45
20
13.8482171752035
30
0
41
1
10
18.3914607282073
20
14.0546586556682
30
0
41
1
10
18.2928446919196
20
14.4550093549979
30
0
41
1
10
18.219537615718
20
14.959544626878
30
0
41
1
10
18.1861266079696
20
15.3819699027013
30
0
41
1
10
18.1794122285715
20
15.853340271488
30
0
41
1
10
18.2219434005939
20
16.2809618133081
30
0
41
1
10
18.3226086471434
20
16.6404697616268
30
0
41
1
10
18.4034145851337
20
16.7947600202118
30
0
41
1
10
18.45
20
16.861540303958
30
0
0
SPLINE
5
247
100
AcDbEntity
8
SK1
62
256
6
ByLayer
370
18
48
1
60
0
100
AcDbSpline
70
4
71
3
72
12
73
8
40
0
40
0
40
0
40
0
40
0.187451284848774
40
0.380093010221018
40
0.567726756282676
40
0.761032705824851
40
1
40
1
40
1
40
1
41
1
10
18.45
20
-1.86260652131699
30
0
41
1
10
18.3885232519821
20
-1.64316658447533
30
0
41
1
10
18.2868995293468
20
-1.18828666128496
30
0
41
1
10
18.202813462058
20
-0.46952132878786
30
0
41
1
10
18.1924618474469
20
0.268535275422109
30
0
41
1
10
18.2626591627602
20
1.0601269219689
30
0
41
1
10
18.3712746398895
20
1.58138848856622
30
0
41
1
10
18.45
20
1.862606521317
30
0
0
SPLINE
5
248
100
AcDbEntity
8
SK1
62
256
6
ByLayer
370
18
48
1
60
0
100
AcDbSpline
70
4
71
3
72
15
73
11
40
0
40
0
40
0
40
0
40
0.108854601037835
40
0.217722698255243
40
0.441387427726364
40
0.552418307510534
40
0.663435497048474
40
0.778284953255046
40
0.893065599020327
40
1
40
1
40
1
40
1
41
1
10
18.45
20
-16.861540303958
30
0
41
1
10
18.4126945474866
20
-16.8083680705509
30
0
41
1
10
18.3460988045977
20
-16.6885180967742
30
0
41
1
10
18.2446265564443
20
-16.3892224889094
30
0
41
1
10
18.18944148496
20
-16.0093167504417
30
0
41
1
10
18.1805918504714
20
-15.5570369742255
30
0
41
1
10
18.1988618555674
20
-15.1803614164224
30
0
41
1
10
18.2452327608955
20
-14.7649374474582
30
0
41
1
10
18.3240226178433
20
-14.3194853928956
30
0
41
1
10
18.4048922535994
20
-14.0049307776046
30
0
41
1
10
18.45
20
-13.8482171752035
30
0
0
INSERT
5
26D
100
AcDbEntity
8
SK2
62
256
6
ByLayer
370
25
48
1
60
0
100
AcDbBlockReference
2
DimnDraft3D33
10
0
20
0
30
0
41
1
42
1
43
1
50
0
210
0
220
0
230
1
0
INSERT
5
277
100
AcDbEntity
8
SK2
62
256
6
ByLayer
370
25
48
1
60
0
100
AcDbBlockReference
2
DimnDraft3D44
10
0
20
0
30
0
41
1
42
1
43
1
50
0
210
0
220
0
230
1
0
INSERT
5
281
100
AcDbEntity
8
SK2
62
256
6
ByLayer
370
25
48
1
60
0
100
AcDbBlockReference
2
DimnDraft3D55
10
0
20
0
30
0
41
1
42
1
43
1
50
0
210
0
220
0
230
1
0
LINE
5
70
100
AcDbEntity
8
81
62
256
6
ByLayer
370
18
48
1
60
0
100
AcDbLine
10
12
20
0
30
0
11
13.2
21
0
31
0
39
0
210
0
220
0
230
1
0
LINE
5
71
100
AcDbEntity
8
4
62
256
6
ByLayer
370
18
48
0.05
60
0
100
AcDbLine
10
0
20
0
30
0
11
12
21
0
31
0
39
0
210
0
220
0
230
1
0
LINE
5
73
100
AcDbEntity
8
SK4
62
256
6
ByLayer
370
18
48
0.05
60
0
100
AcDbLine
10
-5
20
0
30
0
11
17
21
0
31
0
39
0
210
0
220
0
230
1
0
LINE
5
75
100
AcDbEntity
8
80
62
256
6
ByLayer
370
18
48
1
60
0
100
AcDbLine
10
0
20
0
30
0
11
-1.2
21
0
31
0
39
0
210
0
220
0
230
1
0
LINE
5
76
100
AcDbEntity
8
SK1
62
256
6
ByLayer
370
18
48
1
60
0
100
AcDbLine
10
-0.325
20
12.899495
30
0
11
-6.825
21
12.899495
31
0
39
0
210
0
220
0
230
1
0
LINE
5
78
100
AcDbEntity
8
SK1
62
256
6
ByLayer
370
18
48
1
60
0
100
AcDbLine
10
-6.825
20
6.899495
30
0
11
-0.325
21
6.899495
31
0
39
0
210
0
220
0
230
1
0
LINE
5
79
100
AcDbEntity
8
SK1
62
256
6
ByLayer
370
18
48
1
60
0
100
AcDbLine
10
-6.825
20
12.899495
30
0
11
-7.325
21
12.399495
31
0
39
0
210
0
220
0
230
1
0
LINE
5
7A
100
AcDbEntity
8
SK1
62
256
6
ByLayer
370
18
48
1
60
0
100
AcDbLine
10
-7.325
20
7.399495
30
0
11
-6.825
21
6.899495
31
0
39
0
210
0
220
0
230
1
0
LINE
5
7B
100
AcDbEntity
8
SK1
62
256
6
ByLayer
370
18
48
1
60
0
100
AcDbLine
10
-0.325
20
3
30
0
11
-3.225
21
3
31
0
39
0
210
0
220
0
230
1
0
LINE
5
7C
100
AcDbEntity
8
SK1
62
256
6
ByLayer
370
18
48
1
60
0
100
AcDbLine
10
-3.225
20
-3
30
0
11
-0.325
21
-3
31
0
39
0
210
0
220
0
230
1
0
LINE
5
7D
100
AcDbEntity
8
SK1
62
256
6
ByLayer
370
18
48
1
60
0
100
AcDbLine
10
-3.225
20
3
30
0
11
-3.825
21
2.65359
31
0
39
0
210
0
220
0
230
1
0
LINE
5
7E
100
AcDbEntity
8
SK1
62
256
6
ByLayer
370
18
48
1
60
0
100
AcDbLine
10
-3.825
20
-2.65359
30
0
11
-3.225
21
-3
31
0
39
0
210
0
220
0
230
1
0
LINE
5
7F
100
AcDbEntity
8
1
62
256
6
ByLayer
370
18
48
1
60
0
100
AcDbLine
10
4.530982
20
6.477415
30
0
11
4.85798
21
5.706562
31
0
39
0
210
0
220
0
230
1
0
LINE
5
81
100
AcDbEntity
8
1
62
256
6
ByLayer
370
18
48
1
60
0
100
AcDbLine
10
3.673002
20
6.590623
30
0
11
4.530982
21
6.477415
31
0
39
0
210
0
220
0
230
1
0
LINE
5
82
100
AcDbEntity
8
1
62
256
6
ByLayer
370
18
48
1
60
0
100
AcDbLine
10
3.14202
20
5.932978
30
0
11
3.673002
21
6.590623
31
0
39
0
210
0
220
0
230
1
0
LINE
5
83
100
AcDbEntity
8
1
62
256
6
ByLayer
370
18
48
1
60
0
100
AcDbLine
10
3.469018
20
5.162125
30
0
11
3.14202
21
5.932978
31
0
39
0
210
0
220
0
230
1
0
LINE
5
84
100
AcDbEntity
8
1
62
256
6
ByLayer
370
18
48
1
60
0
100
AcDbLine
10
4.326998
20
5.048917
30
0
11
3.469018
21
5.162125
31
0
39
0
210
0
220
0
230
1
0
LINE
5
85
100
AcDbEntity
8
1
62
256
6
ByLayer
370
18
48
1
60
0
100
AcDbLine
10
4.85798
20
5.706562
30
0
11
4.326998
21
5.048917
31
0
39
0
210
0
220
0
230
1
0
LINE
5
86
100
AcDbEntity
8
1
62
256
6
ByLayer
370
18
48
1
60
0
100
AcDbLine
10
4.694481
20
5.678532
30
0
11
4.743001
21
5.564155
31
0
39
0
210
0
220
0
230
1
0
LINE
5
87
100
AcDbEntity
8
1
62
256
6
ByLayer
370
18
48
1
60
0
100
AcDbLine
10
4.530982
20
6.063959
30
0
11
4.694481
21
5.678532
31
0
39
0
210
0
220
0
230
1
0
LINE
5
88
100
AcDbEntity
8
1
62
256
6
ByLayer
370
18
48
1
60
0
100
AcDbLine
10
4.530982
20
6.063959
30
0
11
4.530982
21
6.477415
31
0
39
0
210
0
220
0
230
1
0
LINE
5
89
100
AcDbEntity
8
1
62
256
6
ByLayer
370
18
48
1
60
0
100
AcDbLine
10
3.673002
20
6.177167
30
0
11
3.673002
21
6.590623
31
0
39
0
210
0
220
0
230
1
0
LINE
5
8A
100
AcDbEntity
8
1
62
256
6
ByLayer
370
18
48
1
60
0
100
AcDbLine
10
3.407511
20
5.848345
30
0
11
3.673002
21
6.177167
31
0
39
0
210
0
220
0
230
1
0
LINE
5
8B
100
AcDbEntity
8
1
62
256
6
ByLayer
370
18
48
1
60
0
100
AcDbLine
10
3.256999
20
5.66193
30
0
11
3.407511
21
5.848345
31
0
39
0
210
0
220
0
230
1
0
LINE
5
8C
100
AcDbEntity
8
1
62
256
6
ByLayer
370
18
48
1
60
0
100
AcDbLine
10
4.101992
20
6.120563
30
0
11
4.530982
21
6.063959
31
0
39
0
210
0
220
0
230
1
0
LINE
5
8D
100
AcDbEntity
8
1
62
256
6
ByLayer
370
18
48
1
60
0
100
AcDbLine
10
3.673002
20
6.177167
30
0
11
4.101992
21
6.120563
31
0
39
0
210
0
220
0
230
1
0
LINE
5
8E
100
AcDbEntity
8
SK1
62
256
6
ByLayer
370
18
48
1
60
0
100
AcDbLine
10
20.15
20
5
30
0
11
18.45
21
5
31
0
39
0
210
0
220
0
230
1
0
LINE
5
8F
100
AcDbEntity
8
SK1
62
256
6
ByLayer
370
18
48
1
60
0
100
AcDbLine
10
18.45
20
-5
30
0
11
20.15
21
-5
31
0
39
0
210
0
220
0
230
1
0
LINE
5
90
100
AcDbEntity
8
1
62
256
6
ByLayer
370
18
48
1
60
0
100
AcDbLine
10
3.469018
20
-5.162993
30
0
11
4.326998
21
-5.049784
31
0
39
0
210
0
220
0
230
1
0
LINE
5
91
100
AcDbEntity
8
1
62
256
6
ByLayer
370
18
48
1
60
0
100
AcDbLine
10
3.14202
20
-5.933846
30
0
11
3.469018
21
-5.162993
31
0
39
0
210
0
220
0
230
1
0
LINE
5
92
100
AcDbEntity
8
1
62
256
6
ByLayer
370
18
48
1
60
0
100
AcDbLine
10
3.673002
20
-6.59149
30
0
11
3.14202
21
-5.933846
31
0
39
0
210
0
220
0
230
1
0
LINE
5
93
100
AcDbEntity
8
1
62
256
6
ByLayer
370
18
48
1
60
0
100
AcDbLine
10
4.530982
20
-6.478282
30
0
11
3.673002
21
-6.59149
31
0
39
0
210
0
220
0
230
1
0
LINE
5
94
100
AcDbEntity
8
1
62
256
6
ByLayer
370
18
48
1
60
0
100
AcDbLine
10
4.85798
20
-5.707429
30
0
11
4.530982
21
-6.478282
31
0
39
0
210
0
220
0
230
1
0
LINE
5
95
100
AcDbEntity
8
1
62
256
6
ByLayer
370
18
48
1
60
0
100
AcDbLine
10
4.326998
20
-5.049784
30
0
11
4.85798
21
-5.707429
31
0
39
0
210
0
220
0
230
1
0
LINE
5
96
100
AcDbEntity
8
1
62
256
6
ByLayer
370
18
48
1
60
0
100
AcDbLine
10
4.530982
20
-6.064826
30
0
11
4.530982
21
-6.478282
31
0
39
0
210
0
220
0
230
1
0
LINE
5
97
100
AcDbEntity
8
1
62
256
6
ByLayer
370
18
48
1
60
0
100
AcDbLine
10
4.694481
20
-5.6794
30
0
11
4.530982
21
-6.064826
31
0
39
0
210
0
220
0
230
1
0
LINE
5
98
100
AcDbEntity
8
1
62
256
6
ByLayer
370
18
48
1
60
0
100
AcDbLine
10
4.743001
20
-5.565022
30
0
11
4.694481
21
-5.6794
31
0
39
0
210
0
220
0
230
1
0
LINE
5
99
100
AcDbEntity
8
1
62
256
6
ByLayer
370
18
48
1
60
0
100
AcDbLine
10
3.407511
20
-5.849212
30
0
11
3.256999
21
-5.662797
31
0
39
0
210
0
220
0
230
1
0
LINE
5
9A
100
AcDbEntity
8
1
62
256
6
ByLayer
370
18
48
1
60
0
100
AcDbLine
10
3.673002
20
-6.178034
30
0
11
3.407511
21
-5.849212
31
0
39
0
210
0
220
0
230
1
0
LINE
5
9B
100
AcDbEntity
8
1
62
256
6
ByLayer
370
18
48
1
60
0
100
AcDbLine
10
3.673002
20
-6.178034
30
0
11
3.673002
21
-6.59149
31
0
39
0
210
0
220
0
230
1
0
LINE
5
9C
100
AcDbEntity
8
1
62
256
6
ByLayer
370
18
48
1
60
0
100
AcDbLine
10
4.101992
20
-6.12143
30
0
11
3.673002
21
-6.178034
31
0
39
0
210
0
220
0
230
1
0
LINE
5
9D
100
AcDbEntity
8
1
62
256
6
ByLayer
370
18
48
1
60
0
100
AcDbLine
10
4.530982
20
-6.064826
30
0
11
4.101992
21
-6.12143
31
0
39
0
210
0
220
0
230
1
0
LINE
5
9E
100
AcDbEntity
8
SK1
62
256
6
ByLayer
370
18
48
1
60
0
100
AcDbLine
10
-6.825
20
-6.899495
30
0
11
-7.325
21
-7.399495
31
0
39
0
210
0
220
0
230
1
0
LINE
5
9F
100
AcDbEntity
8
SK1
62
256
6
ByLayer
370
18
48
1
60
0
100
AcDbLine
10
-7.325
20
-12.399495
30
0
11
-6.825
21
-12.899495
31
0
39
0
210
0
220
0
230
1
0
LINE
5
A0
100
AcDbEntity
8
SK1
62
256
6
ByLayer
370
18
48
1
60
0
100
AcDbLine
10
-0.325
20
-6.899495
30
0
11
-6.825
21
-6.899495
31
0
39
0
210
0
220
0
230
1
0
LINE
5
A1
100
AcDbEntity
8
SK1
62
256
6
ByLayer
370
18
48
1
60
0
100
AcDbLine
10
-6.825
20
-12.899495
30
0
11
-0.325
21
-12.899495
31
0
39
0
210
0
220
0
230
1
0
LINE
5
A2
100
AcDbEntity
8
1
62
256
6
ByLayer
370
18
48
1
60
0
100
AcDbLine
10
11.555809
20
20
30
0
11
0.425
21
20
31
0
39
0
210
0
220
0
230
1
0
LINE
5
A3
100
AcDbEntity
8
1
62
256
6
ByLayer
370
18
48
1
60
0
100
AcDbLine
10
0.425
20
-20
30
0
11
11.555809
21
-20
31
0
39
0
210
0
220
0
230
1
0
LINE
5
A4
100
AcDbEntity
8
1
62
256
6
ByLayer
370
18
48
1
60
0
100
AcDbLine
10
0.343279
20
-7.195082
30
0
11
0.343279
21
-6.206369
31
0
39
0
210
0
220
0
230
1
0
LINE
5
A5
100
AcDbEntity
8
1
62
256
6
ByLayer
370
18
48
1
60
0
100
AcDbLine
10
0.343279
20
6.206369
30
0
11
0.343279
21
7.195082
31
0
39
0
210
0
220
0
230
1
0
LINE
5
A6
100
AcDbEntity
8
1
62
256
6
ByLayer
370
18
48
1
60
0
100
AcDbLine
10
-0.325
20
-6.306928
30
0
11
-0.325
21
6.306928
31
0
39
0
210
0
220
0
230
1
0
LINE
5
A7
100
AcDbEntity
8
1
62
256
6
ByLayer
370
18
48
1
60
0
100
AcDbLine
10
0.343279
20
-10.258616
30
0
11
0.343279
21
-9.646192
31
0
39
0
210
0
220
0
230
1
0
LINE
5
A8
100
AcDbEntity
8
1
62
256
6
ByLayer
370
18
48
1
60
0
100
AcDbLine
10
0.343279
20
9.646192
30
0
11
0.343279
21
10.258616
31
0
39
0
210
0
220
0
230
1
0
LINE
5
A9
100
AcDbEntity
8
1
62
256
6
ByLayer
370
18
48
1
60
0
100
AcDbLine
10
-0.325
20
-9.596345
30
0
11
-0.325
21
-7.299133
31
0
39
0
210
0
220
0
230
1
0
LINE
5
AA
100
AcDbEntity
8
1
62
256
6
ByLayer
370
18
48
1
60
0
100
AcDbLine
10
-0.325
20
7.299133
30
0
11
-0.325
21
9.596345
31
0
39
0
210
0
220
0
230
1
0
LINE
5
AB
100
AcDbEntity
8
1
62
256
6
ByLayer
370
18
48
1
60
0
100
AcDbLine
10
0.343279
20
-12.418099
30
0
11
0.343279
21
-11.961565
31
0
39
0
210
0
220
0
230
1
0
LINE
5
AC
100
AcDbEntity
8
1
62
256
6
ByLayer
370
18
48
1
60
0
100
AcDbLine
10
0.343279
20
11.961565
30
0
11
0.343279
21
12.418099
31
0
39
0
210
0
220
0
230
1
0
LINE
5
AD
100
AcDbEntity
8
1
62
256
6
ByLayer
370
18
48
1
60
0
100
AcDbLine
10
-0.325
20
10.220804
30
0
11
-0.325
21
11.828032
31
0
39
0
210
0
220
0
230
1
0
LINE
5
AE
100
AcDbEntity
8
1
62
256
6
ByLayer
370
18
48
1
60
0
100
AcDbLine
10
-0.325
20
-11.828032
30
0
11
-0.325
21
-10.220804
31
0
39
0
210
0
220
0
230
1
0
LINE
5
AF
100
AcDbEntity
8
1
62
256
6
ByLayer
370
18
48
1
60
0
100
AcDbLine
10
0.343279
20
13.733501
30
0
11
0.343279
21
14.09536
31
0
39
0
210
0
220
0
230
1
0
LINE
5
B0
100
AcDbEntity
8
1
62
256
6
ByLayer
370
18
48
1
60
0
100
AcDbLine
10
0.343279
20
-14.09536
30
0
11
0.343279
21
-13.733501
31
0
39
0
210
0
220
0
230
1
0
LINE
5
B1
100
AcDbEntity
8
1
62
256
6
ByLayer
370
18
48
1
60
0
100
AcDbLine
10
-0.325
20
-13.535688
30
0
11
-0.325
21
-12.294403
31
0
39
0
210
0
220
0
230
1
0
LINE
5
B2
100
AcDbEntity
8
1
62
256
6
ByLayer
370
18
48
1
60
0
100
AcDbLine
10
-0.325
20
12.294403
30
0
11
-0.325
21
13.535688
31
0
39
0
210
0
220
0
230
1
0
LINE
5
B3
100
AcDbEntity
8
1
62
256
6
ByLayer
370
18
48
1
60
0
100
AcDbLine
10
0.343279
20
15.153846
30
0
11
0.343279
21
15.448274
31
0
39
0
210
0
220
0
230
1
0
LINE
5
B4
100
AcDbEntity
8
1
62
256
6
ByLayer
370
18
48
1
60
0
100
AcDbLine
10
0.343279
20
-15.448274
30
0
11
0.343279
21
-15.153846
31
0
39
0
210
0
220
0
230
1
0
LINE
5
B5
100
AcDbEntity
8
1
62
256
6
ByLayer
370
18
48
1
60
0
100
AcDbLine
10
-0.325
20
13.90467
30
0
11
-0.325
21
14.900582
31
0
39
0
210
0
220
0
230
1
0
LINE
5
B6
100
AcDbEntity
8
1
62
256
6
ByLayer
370
18
48
1
60
0
100
AcDbLine
10
-0.325
20
-14.900582
30
0
11
-0.325
21
-13.90467
31
0
39
0
210
0
220
0
230
1
0
LINE
5
B7
100
AcDbEntity
8
1
62
256
6
ByLayer
370
18
48
1
60
0
100
AcDbLine
10
0.343279
20
16.314688
30
0
11
0.343279
21
16.556545
31
0
39
0
210
0
220
0
230
1
0
LINE
5
B8
100
AcDbEntity
8
1
62
256
6
ByLayer
370
18
48
1
60
0
100
AcDbLine
10
0.343279
20
-16.556545
30
0
11
0.343279
21
-16.314688
31
0
39
0
210
0
220
0
230
1
0
LINE
5
B9
100
AcDbEntity
8
1
62
256
6
ByLayer
370
18
48
1
60
0
100
AcDbLine
10
-0.325
20
-16.010617
30
0
11
-0.325
21
-15.199584
31
0
39
0
210
0
220
0
230
1
0
LINE
5
BA
100
AcDbEntity
8
1
62
256
6
ByLayer
370
18
48
1
60
0
100
AcDbLine
10
-0.325
20
15.199584
30
0
11
-0.325
21
16.010617
31
0
39
0
210
0
220
0
230
1
0
LINE
5
BB
100
AcDbEntity
8
1
62
256
6
ByLayer
370
18
48
1
60
0
100
AcDbLine
10
0.343279
20
-17.466802
30
0
11
0.343279
21
-17.268441
31
0
39
0
210
0
220
0
230
1
0
LINE
5
BC
100
AcDbEntity
8
1
62
256
6
ByLayer
370
18
48
1
60
0
100
AcDbLine
10
0.343279
20
17.268441
30
0
11
0.343279
21
17.466802
31
0
39
0
210
0
220
0
230
1
0
LINE
5
BD
100
AcDbEntity
8
1
62
256
6
ByLayer
370
18
48
1
60
0
100
AcDbLine
10
-0.325
20
-16.916038
30
0
11
-0.325
21
-16.254687
31
0
39
0
210
0
220
0
230
1
0
LINE
5
BE
100
AcDbEntity
8
1
62
256
6
ByLayer
370
18
48
1
60
0
100
AcDbLine
10
-0.325
20
16.254687
30
0
11
-0.325
21
16.916038
31
0
39
0
210
0
220
0
230
1
0
LINE
5
BF
100
AcDbEntity
8
1
62
256
6
ByLayer
370
18
48
1
60
0
100
AcDbLine
10
0.343279
20
18.047966
30
0
11
0.343279
21
18.208766
31
0
39
0
210
0
220
0
230
1
0
LINE
5
C0
100
AcDbEntity
8
1
62
256
6
ByLayer
370
18
48
1
60
0
100
AcDbLine
10
0.343279
20
-18.208766
30
0
11
0.343279
21
-18.047966
31
0
39
0
210
0
220
0
230
1
0
LINE
5
C1
100
AcDbEntity
8
1
62
256
6
ByLayer
370
18
48
1
60
0
100
AcDbLine
10
-0.325
20
17.11439
30
0
11
-0.325
21
17.648367
31
0
39
0
210
0
220
0
230
1
0
LINE
5
C2
100
AcDbEntity
8
1
62
256
6
ByLayer
370
18
48
1
60
0
100
AcDbLine
10
-0.325
20
-17.648367
30
0
11
-0.325
21
-17.11439
31
0
39
0
210
0
220
0
230
1
0
LINE
5
C3
100
AcDbEntity
8
1
62
256
6
ByLayer
370
18
48
1
60
0
100
AcDbLine
10
12.285377
20
18.412773
30
0
11
12.285377
21
17
31
0
39
0
210
0
220
0
230
1
0
LINE
5
C4
100
AcDbEntity
8
1
62
256
6
ByLayer
370
18
48
1
60
0
100
AcDbLine
10
12.285377
20
-17
30
0
11
12.285377
21
-18.412773
31
0
39
0
210
0
220
0
230
1
0
LINE
5
C5
100
AcDbEntity
8
1
62
256
6
ByLayer
370
18
48
1
60
0
100
AcDbLine
10
0.343279
20
-18.802371
30
0
11
0.343279
21
-18.675092
31
0
39
0
210
0
220
0
230
1
0
LINE
5
C6
100
AcDbEntity
8
1
62
256
6
ByLayer
370
18
48
1
60
0
100
AcDbLine
10
0.343279
20
18.675092
30
0
11
0.343279
21
18.802371
31
0
39
0
210
0
220
0
230
1
0
LINE
5
C7
100
AcDbEntity
8
1
62
256
6
ByLayer
370
18
48
1
60
0
100
AcDbLine
10
-0.325
20
-18.228476
30
0
11
-0.325
21
-17.807017
31
0
39
0
210
0
220
0
230
1
0
LINE
5
C8
100
AcDbEntity
8
1
62
256
6
ByLayer
370
18
48
1
60
0
100
AcDbLine
10
-0.325
20
17.807017
30
0
11
-0.325
21
18.228476
31
0
39
0
210
0
220
0
230
1
0
LINE
5
C9
100
AcDbEntity
8
1
62
256
6
ByLayer
370
18
48
1
60
0
100
AcDbLine
10
11.656721
20
-19.022323
30
0
11
11.656721
21
-19.133448
31
0
39
0
210
0
220
0
230
1
0
LINE
5
CA
100
AcDbEntity
8
1
62
256
6
ByLayer
370
18
48
1
60
0
100
AcDbLine
10
11.656721
20
19.133448
30
0
11
11.656721
21
19.022323
31
0
39
0
210
0
220
0
230
1
0
LINE
5
CB
100
AcDbEntity
8
1
62
256
6
ByLayer
370
18
48
1
60
0
100
AcDbLine
10
12.325
20
18.726548
30
0
11
12.325
21
17
31
0
39
0
210
0
220
0
230
1
0
LINE
5
CC
100
AcDbEntity
8
1
62
256
6
ByLayer
370
18
48
1
60
0
100
AcDbLine
10
12.325
20
-17
30
0
11
12.325
21
-18.726548
31
0
39
0
210
0
220
0
230
1
0
LINE
5
CD
100
AcDbEntity
8
1
62
256
6
ByLayer
370
18
48
1
60
0
100
AcDbLine
10
0.343279
20
-19.261338
30
0
11
0.343279
21
-19.164788
31
0
39
0
210
0
220
0
230
1
0
LINE
5
CE
100
AcDbEntity
8
1
62
256
6
ByLayer
370
18
48
1
60
0
100
AcDbLine
10
0.343279
20
19.164788
30
0
11
0.343279
21
19.261338
31
0
39
0
210
0
220
0
230
1
0
LINE
5
CF
100
AcDbEntity
8
1
62
256
6
ByLayer
370
18
48
1
60
0
100
AcDbLine
10
-0.325
20
-18.670561
30
0
11
-0.325
21
-18.351494
31
0
39
0
210
0
220
0
230
1
0
LINE
5
D0
100
AcDbEntity
8
1
62
256
6
ByLayer
370
18
48
1
60
0
100
AcDbLine
10
-0.325
20
18.351494
30
0
11
-0.325
21
18.670561
31
0
39
0
210
0
220
0
230
1
0
LINE
5
D1
100
AcDbEntity
8
1
62
256
6
ByLayer
370
18
48
1
60
0
100
AcDbLine
10
11.656721
20
19.52713
30
0
11
11.656721
21
19.445533
31
0
39
0
210
0
220
0
230
1
0
LINE
5
D2
100
AcDbEntity
8
1
62
256
6
ByLayer
370
18
48
1
60
0
100
AcDbLine
10
11.656721
20
-19.445533
30
0
11
11.656721
21
-19.52713
31
0
39
0
210
0
220
0
230
1
0
LINE
5
D3
100
AcDbEntity
8
1
62
256
6
ByLayer
370
18
48
1
60
0
100
AcDbLine
10
12.325
20
19.098327
30
0
11
12.325
21
18.831386
31
0
39
0
210
0
220
0
230
1
0
LINE
5
D4
100
AcDbEntity
8
1
62
256
6
ByLayer
370
18
48
1
60
0
100
AcDbLine
10
12.325
20
-18.831386
30
0
11
12.325
21
-19.098327
31
0
39
0
210
0
220
0
230
1
0
LINE
5
D5
100
AcDbEntity
8
1
62
256
6
ByLayer
370
18
48
1
60
0
100
AcDbLine
10
0.343279
20
-19.59513
30
0
11
0.343279
21
-19.527393
31
0
39
0
210
0
220
0
230
1
0
LINE
5
D6
100
AcDbEntity
8
1
62
256
6
ByLayer
370
18
48
1
60
0
100
AcDbLine
10
0.343279
20
19.527393
30
0
11
0.343279
21
19.59513
31
0
39
0
210
0
220
0
230
1
0
LINE
5
D7
100
AcDbEntity
8
1
62
256
6
ByLayer
370
18
48
1
60
0
100
AcDbLine
10
-0.325
20
-18.984266
30
0
11
-0.325
21
-18.760726
31
0
39
0
210
0
220
0
230
1
0
LINE
5
D8
100
AcDbEntity
8
1
62
256
6
ByLayer
370
18
48
1
60
0
100
AcDbLine
10
-0.325
20
18.760726
30
0
11
-0.325
21
18.984266
31
0
39
0
210
0
220
0
230
1
0
LINE
5
D9
100
AcDbEntity
8
1
62
256
6
ByLayer
370
18
48
1
60
0
100
AcDbLine
10
11.656721
20
-19.746108
30
0
11
11.656721
21
-19.799717
31
0
39
0
210
0
220
0
230
1
0
LINE
5
DA
100
AcDbEntity
8
1
62
256
6
ByLayer
370
18
48
1
60
0
100
AcDbLine
10
12.325
20
-19.171818
30
0
11
12.325
21
-19.347056
31
0
39
0
210
0
220
0
230
1
0
LINE
5
DB
100
AcDbEntity
8
1
62
256
6
ByLayer
370
18
48
1
60
0
100
AcDbLine
10
11.656721
20
19.799717
30
0
11
11.656721
21
19.746108
31
0
39
0
210
0
220
0
230
1
0
LINE
5
DC
100
AcDbEntity
8
1
62
256
6
ByLayer
370
18
48
1
60
0
100
AcDbLine
10
12.325
20
19.347056
30
0
11
12.325
21
19.171818
31
0
39
0
210
0
220
0
230
1
0
LINE
5
DD
100
AcDbEntity
8
1
62
256
6
ByLayer
370
18
48
1
60
0
100
AcDbLine
10
0.343279
20
-19.810076
30
0
11
0.343279
21
-19.769904
31
0
39
0
210
0
220
0
230
1
0
LINE
5
DE
100
AcDbEntity
8
1
62
256
6
ByLayer
370
18
48
1
60
0
100
AcDbLine
10
0.343279
20
19.769904
30
0
11
0.343279
21
19.810076
31
0
39
0
210
0
220
0
230
1
0
LINE
5
DF
100
AcDbEntity
8
1
62
256
6
ByLayer
370
18
48
1
60
0
100
AcDbLine
10
-0.325
20
-19.175892
30
0
11
-0.325
21
-19.043433
31
0
39
0
210
0
220
0
230
1
0
LINE
5
E0
100
AcDbEntity
8
1
62
256
6
ByLayer
370
18
48
1
60
0
100
AcDbLine
10
-0.325
20
19.043433
30
0
11
-0.325
21
19.175892
31
0
39
0
210
0
220
0
230
1
0
LINE
5
E1
100
AcDbEntity
8
1
62
256
6
ByLayer
370
18
48
1
60
0
100
AcDbLine
10
11.656721
20
-19.929596
30
0
11
11.656721
21
-19.956172
31
0
39
0
210
0
220
0
230
1
0
LINE
5
E2
100
AcDbEntity
8
1
62
256
6
ByLayer
370
18
48
1
60
0
100
AcDbLine
10
11.656721
20
19.956172
30
0
11
11.656721
21
19.929596
31
0
39
0
210
0
220
0
230
1
0
LINE
5
E3
100
AcDbEntity
8
1
62
256
6
ByLayer
370
18
48
1
60
0
100
AcDbLine
10
12.325
20
19.477451
30
0
11
12.325
21
19.390619
31
0
39
0
210
0
220
0
230
1
0
LINE
5
E4
100
AcDbEntity
8
1
62
256
6
ByLayer
370
18
48
1
60
0
100
AcDbLine
10
12.325
20
-19.390619
30
0
11
12.325
21
-19.477451
31
0
39
0
210
0
220
0
230
1
0
LINE
5
E5
100
AcDbEntity
8
1
62
256
6
ByLayer
370
18
48
1
60
0
100
AcDbLine
10
0.343279
20
-19.910025
30
0
11
0.343279
21
-19.896711
31
0
39
0
210
0
220
0
230
1
0
LINE
5
E6
100
AcDbEntity
8
1
62
256
6
ByLayer
370
18
48
1
60
0
100
AcDbLine
10
0.343279
20
19.896711
30
0
11
0.343279
21
19.910025
31
0
39
0
210
0
220
0
230
1
0
LINE
5
E7
100
AcDbEntity
8
1
62
256
6
ByLayer
370
18
48
1
60
0
100
AcDbLine
10
-0.325
20
-19.25
30
0
11
0.414667
21
-19.989667
31
0
39
0
210
0
220
0
230
1
0
LINE
5
E8
100
AcDbEntity
8
1
62
256
6
ByLayer
370
18
48
1
60
0
100
AcDbLine
10
0.414667
20
-19.989667
30
0
11
0.425
21
-20
31
0
39
0
210
0
220
0
230
1
0
LINE
5
E9
100
AcDbEntity
8
1
62
256
6
ByLayer
370
18
48
1
60
0
100
AcDbLine
10
0.425
20
20
30
0
11
0.41454
21
19.98954
31
0
39
0
210
0
220
0
230
1
0
LINE
5
EA
100
AcDbEntity
8
1
62
256
6
ByLayer
370
18
48
1
60
0
100
AcDbLine
10
0.41454
20
19.98954
30
0
11
-0.325
21
19.25
31
0
39
0
210
0
220
0
230
1
0
LINE
5
EB
100
AcDbEntity
8
1
62
256
6
ByLayer
370
18
48
1
60
0
100
AcDbLine
10
-0.325
20
19.205204
30
0
11
-0.325
21
19.249087
31
0
39
0
210
0
220
0
230
1
0
LINE
5
EC
100
AcDbEntity
8
1
62
256
6
ByLayer
370
18
48
1
60
0
100
AcDbLine
10
-0.325
20
-19.249087
30
0
11
-0.325
21
-19.205204
31
0
39
0
210
0
220
0
230
1
0
LINE
5
ED
100
AcDbEntity
8
SK1
62
256
6
ByLayer
370
18
48
1
60
0
100
AcDbLine
10
17.45
20
17
30
0
11
11.078383
21
17
31
0
39
0
210
0
220
0
230
1
0
LINE
5
EE
100
AcDbEntity
8
1
62
256
6
ByLayer
370
18
48
1
60
0
100
AcDbLine
10
11.078383
20
17
30
0
11
10.95
21
17
31
0
39
0
210
0
220
0
230
1
0
LINE
5
EF
100
AcDbEntity
8
SK1
62
256
6
ByLayer
370
18
48
1
60
0
100
AcDbLine
10
17.45
20
-17
30
0
11
11.078383
21
-17
31
0
39
0
210
0
220
0
230
1
0
LINE
5
F0
100
AcDbEntity
8
1
62
256
6
ByLayer
370
18
48
1
60
0
100
AcDbLine
10
11.078383
20
-17
30
0
11
10.95
21
-17
31
0
39
0
210
0
220
0
230
1
0
LINE
5
F1
100
AcDbEntity
8
SK1
62
256
6
ByLayer
370
18
48
1
60
0
100
AcDbLine
10
22.825
20
5
30
0
11
20.15
21
5
31
0
39
0
210
0
220
0
230
1
0
LINE
5
F2
100
AcDbEntity
8
SK1
62
256
6
ByLayer
370
18
48
1
60
0
100
AcDbLine
10
20.15
20
-5
30
0
11
22.825
21
-5
31
0
39
0
210
0
220
0
230
1
0
LINE
5
F3
100
AcDbEntity
8
SK1
62
256
6
ByLayer
370
18
48
1
60
0
100
AcDbLine
10
-6.825
20
12.899495
30
0
11
-6.825
21
6.899495
31
0
39
0
210
0
220
0
230
1
0
LINE
5
F4
100
AcDbEntity
8
SK1
62
256
6
ByLayer
370
18
48
1
60
0
100
AcDbLine
10
-7.325
20
7.399495
30
0
11
-7.325
21
12.399495
31
0
39
0
210
0
220
0
230
1
0
LINE
5
F5
100
AcDbEntity
8
SK1
62
256
6
ByLayer
370
18
48
1
60
0
100
AcDbLine
10
-3.225
20
3
30
0
11
-3.225
21
0
31
0
39
0
210
0
220
0
230
1
0
LINE
5
F6
100
AcDbEntity
8
SK1
62
256
6
ByLayer
370
18
48
1
60
0
100
AcDbLine
10
-3.225
20
0
30
0
11
-3.225
21
-3
31
0
39
0
210
0
220
0
230
1
0
LINE
5
F7
100
AcDbEntity
8
SK1
62
256
6
ByLayer
370
18
48
1
60
0
100
AcDbLine
10
-3.825
20
-2.65359
30
0
11
-3.825
21
0
31
0
39
0
210
0
220
0
230
1
0
LINE
5
F8
100
AcDbEntity
8
SK1
62
256
6
ByLayer
370
18
48
1
60
0
100
AcDbLine
10
-3.825
20
0
30
0
11
-3.825
21
2.65359
31
0
39
0
210
0
220
0
230
1
0
LINE
5
F9
100
AcDbEntity
8
SK1
62
256
6
ByLayer
370
18
48
1
60
0
100
AcDbLine
10
20.15
20
5
30
0
11
20.15
21
0
31
0
39
0
210
0
220
0
230
1
0
LINE
5
FA
100
AcDbEntity
8
SK1
62
256
6
ByLayer
370
18
48
1
60
0
100
AcDbLine
10
20.15
20
0
30
0
11
20.15
21
-5
31
0
39
0
210
0
220
0
230
1
0
LINE
5
FB
100
AcDbEntity
8
SK1
62
256
6
ByLayer
370
18
48
1
60
0
100
AcDbLine
10
-6.825
20
-6.899495
30
0
11
-6.825
21
-9.899495
31
0
39
0
210
0
220
0
230
1
0
LINE
5
FC
100
AcDbEntity
8
SK1
62
256
6
ByLayer
370
18
48
1
60
0
100
AcDbLine
10
-7.325
20
-12.399495
30
0
11
-7.325
21
-9.899495
31
0
39
0
210
0
220
0
230
1
0
LINE
5
FD
100
AcDbEntity
8
SK1
62
256
6
ByLayer
370
18
48
1
60
0
100
AcDbLine
10
-6.825
20
-9.899495
30
0
11
-6.825
21
-12.899495
31
0
39
0
210
0
220
0
230
1
0
LINE
5
FE
100
AcDbEntity
8
SK1
62
256
6
ByLayer
370
18
48
1
60
0
100
AcDbLine
10
-7.325
20
-9.899495
30
0
11
-7.325
21
-7.399495
31
0
39
0
210
0
220
0
230
1
0
LINE
5
FF
100
AcDbEntity
8
1
62
256
6
ByLayer
370
18
48
1
60
0
100
AcDbLine
10
0.425
20
6.715988
30
0
11
0.425
21
-6.715988
31
0
39
0
210
0
220
0
230
1
0
LINE
5
100
100
AcDbEntity
8
1
62
256
6
ByLayer
370
18
48
1
60
0
100
AcDbLine
10
0.425
20
20
30
0
11
0.425
21
19.989063
31
0
39
0
210
0
220
0
230
1
0
LINE
5
101
100
AcDbEntity
8
1
62
256
6
ByLayer
370
18
48
1
60
0
100
AcDbLine
10
0.425
20
-19.989063
30
0
11
0.425
21
-20
31
0
39
0
210
0
220
0
230
1
0
LINE
5
102
100
AcDbEntity
8
1
62
256
6
ByLayer
370
18
48
1
60
0
100
AcDbLine
10
0.425
20
-19.882873
30
0
11
0.425
21
-19.982408
31
0
39
0
210
0
220
0
230
1
0
LINE
5
103
100
AcDbEntity
8
1
62
256
6
ByLayer
370
18
48
1
60
0
100
AcDbLine
10
0.425
20
-19.662011
30
0
11
0.425
21
-19.862795
31
0
39
0
210
0
220
0
230
1
0
LINE
5
104
100
AcDbEntity
8
1
62
256
6
ByLayer
370
18
48
1
60
0
100
AcDbLine
10
0.425
20
-19.322543
30
0
11
0.425
21
-19.628159
31
0
39
0
210
0
220
0
230
1
0
LINE
5
105
100
AcDbEntity
8
1
62
256
6
ByLayer
370
18
48
1
60
0
100
AcDbLine
10
0.425
20
-18.858067
30
0
11
0.425
21
-19.274299
31
0
39
0
210
0
220
0
230
1
0
LINE
5
106
100
AcDbEntity
8
1
62
256
6
ByLayer
370
18
48
1
60
0
100
AcDbLine
10
0.425
20
-18.259044
30
0
11
0.425
21
-18.794483
31
0
39
0
210
0
220
0
230
1
0
LINE
5
107
100
AcDbEntity
8
1
62
256
6
ByLayer
370
18
48
1
60
0
100
AcDbLine
10
0.425
20
-17.511674
30
0
11
0.425
21
-18.17874
31
0
39
0
210
0
220
0
230
1
0
LINE
5
108
100
AcDbEntity
8
1
62
256
6
ByLayer
370
18
48
1
60
0
100
AcDbLine
10
0.425
20
-16.595925
30
0
11
0.425
21
-17.412655
31
0
39
0
210
0
220
0
230
1
0
LINE
5
109
100
AcDbEntity
8
1
62
256
6
ByLayer
370
18
48
1
60
0
100
AcDbLine
10
0.425
20
-15.481949
30
0
11
0.425
21
-16.475271
31
0
39
0
210
0
220
0
230
1
0
LINE
5
10A
100
AcDbEntity
8
1
62
256
6
ByLayer
370
18
48
1
60
0
100
AcDbLine
10
0.425
20
-14.122916
30
0
11
0.425
21
-15.335206
31
0
39
0
210
0
220
0
230
1
0
LINE
5
10B
100
AcDbEntity
8
1
62
256
6
ByLayer
370
18
48
1
60
0
100
AcDbLine
10
0.425
20
-12.43876
30
0
11
0.425
21
-13.942831
31
0
39
0
210
0
220
0
230
1
0
LINE
5
10C
100
AcDbEntity
8
1
62
256
6
ByLayer
370
18
48
1
60
0
100
AcDbLine
10
0.425
20
-10.270772
30
0
11
0.425
21
-12.212146
31
0
39
0
210
0
220
0
230
1
0
LINE
5
10D
100
AcDbEntity
8
1
62
256
6
ByLayer
370
18
48
1
60
0
100
AcDbLine
10
0.425
20
-7.194079
30
0
11
0.425
21
-9.968476
31
0
39
0
210
0
220
0
230
1
0
LINE
5
10E
100
AcDbEntity
8
1
62
256
6
ByLayer
370
18
48
1
60
0
100
AcDbLine
10
0.425
20
9.968476
30
0
11
0.425
21
7.194079
31
0
39
0
210
0
220
0
230
1
0
LINE
5
10F
100
AcDbEntity
8
1
62
256
6
ByLayer
370
18
48
1
60
0
100
AcDbLine
10
0.425
20
12.212146
30
0
11
0.425
21
10.270772
31
0
39
0
210
0
220
0
230
1
0
LINE
5
110
100
AcDbEntity
8
1
62
256
6
ByLayer
370
18
48
1
60
0
100
AcDbLine
10
0.425
20
13.942831
30
0
11
0.425
21
12.43876
31
0
39
0
210
0
220
0
230
1
0
LINE
5
111
100
AcDbEntity
8
1
62
256
6
ByLayer
370
18
48
1
60
0
100
AcDbLine
10
0.425
20
15.335206
30
0
11
0.425
21
14.122916
31
0
39
0
210
0
220
0
230
1
0
LINE
5
112
100
AcDbEntity
8
1
62
256
6
ByLayer
370
18
48
1
60
0
100
AcDbLine
10
0.425
20
16.475271
30
0
11
0.425
21
15.481949
31
0
39
0
210
0
220
0
230
1
0
LINE
5
113
100
AcDbEntity
8
1
62
256
6
ByLayer
370
18
48
1
60
0
100
AcDbLine
10
0.425
20
17.412655
30
0
11
0.425
21
16.595925
31
0
39
0
210
0
220
0
230
1
0
LINE
5
114
100
AcDbEntity
8
1
62
256
6
ByLayer
370
18
48
1
60
0
100
AcDbLine
10
0.425
20
18.17874
30
0
11
0.425
21
17.511674
31
0
39
0
210
0
220
0
230
1
0
LINE
5
115
100
AcDbEntity
8
1
62
256
6
ByLayer
370
18
48
1
60
0
100
AcDbLine
10
0.425
20
18.794483
30
0
11
0.425
21
18.259044
31
0
39
0
210
0
220
0
230
1
0
LINE
5
116
100
AcDbEntity
8
1
62
256
6
ByLayer
370
18
48
1
60
0
100
AcDbLine
10
0.425
20
19.274299
30
0
11
0.425
21
18.858067
31
0
39
0
210
0
220
0
230
1
0
LINE
5
117
100
AcDbEntity
8
1
62
256
6
ByLayer
370
18
48
1
60
0
100
AcDbLine
10
0.425
20
19.628159
30
0
11
0.425
21
19.322543
31
0
39
0
210
0
220
0
230
1
0
LINE
5
118
100
AcDbEntity
8
1
62
256
6
ByLayer
370
18
48
1
60
0
100
AcDbLine
10
0.425
20
19.862795
30
0
11
0.425
21
19.662011
31
0
39
0
210
0
220
0
230
1
0
LINE
5
119
100
AcDbEntity
8
1
62
256
6
ByLayer
370
18
48
1
60
0
100
AcDbLine
10
0.425
20
19.982408
30
0
11
0.425
21
19.882873
31
0
39
0
210
0
220
0
230
1
0
LINE
5
11A
100
AcDbEntity
8
1
62
256
6
ByLayer
370
18
48
1
60
0
100
AcDbLine
10
11.825
20
-19.162748
30
0
11
11.825
21
-19.42191
31
0
39
0
210
0
220
0
230
1
0
LINE
5
11B
100
AcDbEntity
8
1
62
256
6
ByLayer
370
18
48
1
60
0
100
AcDbLine
10
11.825
20
-19.548387
30
0
11
11.825
21
-19.730232
31
0
39
0
210
0
220
0
230
1
0
LINE
5
11C
100
AcDbEntity
8
1
62
256
6
ByLayer
370
18
48
1
60
0
100
AcDbLine
10
11.825
20
-19.813328
30
0
11
11.825
21
-19.921183
31
0
39
0
210
0
220
0
230
1
0
LINE
5
11D
100
AcDbEntity
8
1
62
256
6
ByLayer
370
18
48
1
60
0
100
AcDbLine
10
11.825
20
-19.962377
30
0
11
11.825
21
-19.998125
31
0
39
0
210
0
220
0
230
1
0
LINE
5
11E
100
AcDbEntity
8
1
62
256
6
ByLayer
370
18
48
1
60
0
100
AcDbLine
10
11.825
20
19.998125
30
0
11
11.825
21
19.962377
31
0
39
0
210
0
220
0
230
1
0
LINE
5
11F
100
AcDbEntity
8
1
62
256
6
ByLayer
370
18
48
1
60
0
100
AcDbLine
10
11.825
20
19.921183
30
0
11
11.825
21
19.813328
31
0
39
0
210
0
220
0
230
1
0
LINE
5
120
100
AcDbEntity
8
1
62
256
6
ByLayer
370
18
48
1
60
0
100
AcDbLine
10
11.825
20
19.730232
30
0
11
11.825
21
19.548387
31
0
39
0
210
0
220
0
230
1
0
LINE
5
121
100
AcDbEntity
8
1
62
256
6
ByLayer
370
18
48
1
60
0
100
AcDbLine
10
11.825
20
19.42191
30
0
11
11.825
21
19.162748
31
0
39
0
210
0
220
0
230
1
0
LINE
5
122
100
AcDbEntity
8
1
62
256
6
ByLayer
370
18
48
1
60
0
100
AcDbLine
10
11.825
20
18.990501
30
0
11
11.825
21
18.734994
31
0
39
0
210
0
220
0
230
1
0
LINE
5
123
100
AcDbEntity
8
1
62
256
6
ByLayer
370
18
48
1
60
0
100
AcDbLine
10
11.825
20
-18.734994
30
0
11
11.825
21
-18.990501
31
0
39
0
210
0
220
0
230
1
0
LINE
5
124
100
AcDbEntity
8
1
62
256
6
ByLayer
370
18
48
1
60
0
100
AcDbLine
10
-0.325
20
-6.306928
30
0
11
-0.325
21
-7.299133
31
0
39
0
210
0
220
0
230
1
0
LINE
5
125
100
AcDbEntity
8
1
62
256
6
ByLayer
370
18
48
1
60
0
100
AcDbLine
10
-0.325
20
7.299133
30
0
11
-0.325
21
6.306928
31
0
39
0
210
0
220
0
230
1
0
LINE
5
126
100
AcDbEntity
8
1
62
256
6
ByLayer
370
18
48
1
60
0
100
AcDbLine
10
-0.325
20
-9.596345
30
0
11
-0.325
21
-10.220804
31
0
39
0
210
0
220
0
230
1
0
LINE
5
127
100
AcDbEntity
8
1
62
256
6
ByLayer
370
18
48
1
60
0
100
AcDbLine
10
-0.325
20
10.220804
30
0
11
-0.325
21
9.596345
31
0
39
0
210
0
220
0
230
1
0
LINE
5
128
100
AcDbEntity
8
1
62
256
6
ByLayer
370
18
48
1
60
0
100
AcDbLine
10
-0.325
20
-11.828032
30
0
11
-0.325
21
-12.294403
31
0
39
0
210
0
220
0
230
1
0
LINE
5
129
100
AcDbEntity
8
1
62
256
6
ByLayer
370
18
48
1
60
0
100
AcDbLine
10
-0.325
20
12.294403
30
0
11
-0.325
21
11.828032
31
0
39
0
210
0
220
0
230
1
0
LINE
5
12A
100
AcDbEntity
8
1
62
256
6
ByLayer
370
18
48
1
60
0
100
AcDbLine
10
-0.325
20
-13.535688
30
0
11
-0.325
21
-13.90467
31
0
39
0
210
0
220
0
230
1
0
LINE
5
12B
100
AcDbEntity
8
1
62
256
6
ByLayer
370
18
48
1
60
0
100
AcDbLine
10
-0.325
20
13.90467
30
0
11
-0.325
21
13.535688
31
0
39
0
210
0
220
0
230
1
0
LINE
5
12C
100
AcDbEntity
8
1
62
256
6
ByLayer
370
18
48
1
60
0
100
AcDbLine
10
-0.325
20
-14.900582
30
0
11
-0.325
21
-15.199584
31
0
39
0
210
0
220
0
230
1
0
LINE
5
12D
100
AcDbEntity
8
1
62
256
6
ByLayer
370
18
48
1
60
0
100
AcDbLine
10
-0.325
20
15.199584
30
0
11
-0.325
21
14.900582
31
0
39
0
210
0
220
0
230
1
0
LINE
5
12E
100
AcDbEntity
8
1
62
256
6
ByLayer
370
18
48
1
60
0
100
AcDbLine
10
-0.325
20
-16.010617
30
0
11
-0.325
21
-16.254687
31
0
39
0
210
0
220
0
230
1
0
LINE
5
12F
100
AcDbEntity
8
1
62
256
6
ByLayer
370
18
48
1
60
0
100
AcDbLine
10
-0.325
20
16.254687
30
0
11
-0.325
21
16.010617
31
0
39
0
210
0
220
0
230
1
0
LINE
5
130
100
AcDbEntity
8
1
62
256
6
ByLayer
370
18
48
1
60
0
100
AcDbLine
10
-0.325
20
17.11439
30
0
11
-0.325
21
16.916038
31
0
39
0
210
0
220
0
230
1
0
LINE
5
131
100
AcDbEntity
8
1
62
256
6
ByLayer
370
18
48
1
60
0
100
AcDbLine
10
-0.325
20
-16.916038
30
0
11
-0.325
21
-17.11439
31
0
39
0
210
0
220
0
230
1
0
LINE
5
132
100
AcDbEntity
8
1
62
256
6
ByLayer
370
18
48
1
60
0
100
AcDbLine
10
-0.325
20
17.807017
30
0
11
-0.325
21
17.648367
31
0
39
0
210
0
220
0
230
1
0
LINE
5
133
100
AcDbEntity
8
1
62
256
6
ByLayer
370
18
48
1
60
0
100
AcDbLine
10
-0.325
20
-17.648367
30
0
11
-0.325
21
-17.807017
31
0
39
0
210
0
220
0
230
1
0
LINE
5
134
100
AcDbEntity
8
1
62
256
6
ByLayer
370
18
48
1
60
0
100
AcDbLine
10
-0.325
20
-18.228476
30
0
11
-0.325
21
-18.351494
31
0
39
0
210
0
220
0
230
1
0
LINE
5
135
100
AcDbEntity
8
1
62
256
6
ByLayer
370
18
48
1
60
0
100
AcDbLine
10
-0.325
20
18.351494
30
0
11
-0.325
21
18.228476
31
0
39
0
210
0
220
0
230
1
0
LINE
5
136
100
AcDbEntity
8
1
62
256
6
ByLayer
370
18
48
1
60
0
100
AcDbLine
10
12.325
20
-18.726548
30
0
11
12.325
21
-18.831386
31
0
39
0
210
0
220
0
230
1
0
LINE
5
137
100
AcDbEntity
8
1
62
256
6
ByLayer
370
18
48
1
60
0
100
AcDbLine
10
12.325
20
18.831386
30
0
11
12.325
21
18.726548
31
0
39
0
210
0
220
0
230
1
0
LINE
5
138
100
AcDbEntity
8
1
62
256
6
ByLayer
370
18
48
1
60
0
100
AcDbLine
10
-0.325
20
-18.670561
30
0
11
-0.325
21
-18.760726
31
0
39
0
210
0
220
0
230
1
0
LINE
5
139
100
AcDbEntity
8
1
62
256
6
ByLayer
370
18
48
1
60
0
100
AcDbLine
10
-0.325
20
18.760726
30
0
11
-0.325
21
18.670561
31
0
39
0
210
0
220
0
230
1
0
LINE
5
13A
100
AcDbEntity
8
1
62
256
6
ByLayer
370
18
48
1
60
0
100
AcDbLine
10
12.325
20
19.171818
30
0
11
12.325
21
19.098327
31
0
39
0
210
0
220
0
230
1
0
LINE
5
13B
100
AcDbEntity
8
1
62
256
6
ByLayer
370
18
48
1
60
0
100
AcDbLine
10
12.325
20
-19.098327
30
0
11
12.325
21
-19.171818
31
0
39
0
210
0
220
0
230
1
0
LINE
5
13C
100
AcDbEntity
8
1
62
256
6
ByLayer
370
18
48
1
60
0
100
AcDbLine
10
-0.325
20
-18.984266
30
0
11
-0.325
21
-19.043433
31
0
39
0
210
0
220
0
230
1
0
LINE
5
13D
100
AcDbEntity
8
1
62
256
6
ByLayer
370
18
48
1
60
0
100
AcDbLine
10
-0.325
20
19.043433
30
0
11
-0.325
21
18.984266
31
0
39
0
210
0
220
0
230
1
0
LINE
5
13E
100
AcDbEntity
8
1
62
256
6
ByLayer
370
18
48
1
60
0
100
AcDbLine
10
12.325
20
19.390619
30
0
11
12.325
21
19.347056
31
0
39
0
210
0
220
0
230
1
0
LINE
5
13F
100
AcDbEntity
8
1
62
256
6
ByLayer
370
18
48
1
60
0
100
AcDbLine
10
12.325
20
-19.347056
30
0
11
12.325
21
-19.390619
31
0
39
0
210
0
220
0
230
1
0
LINE
5
140
100
AcDbEntity
8
1
62
256
6
ByLayer
370
18
48
1
60
0
100
AcDbLine
10
-0.325
20
19.205204
30
0
11
-0.325
21
19.175892
31
0
39
0
210
0
220
0
230
1
0
LINE
5
141
100
AcDbEntity
8
1
62
256
6
ByLayer
370
18
48
1
60
0
100
AcDbLine
10
-0.325
20
-19.175892
30
0
11
-0.325
21
-19.205204
31
0
39
0
210
0
220
0
230
1
0
LINE
5
142
100
AcDbEntity
8
1
62
256
6
ByLayer
370
18
48
1
60
0
100
AcDbLine
10
12.325
20
-19.477451
30
0
11
12.325
21
-19.491885
31
0
39
0
210
0
220
0
230
1
0
LINE
5
143
100
AcDbEntity
8
1
62
256
6
ByLayer
370
18
48
1
60
0
100
AcDbLine
10
12.325
20
19.491885
30
0
11
12.325
21
19.477451
31
0
39
0
210
0
220
0
230
1
0
LINE
5
144
100
AcDbEntity
8
1
62
256
6
ByLayer
370
18
48
1
60
0
100
AcDbLine
10
-0.325
20
-19.249087
30
0
11
-0.325
21
-19.25
31
0
39
0
210
0
220
0
230
1
0
LINE
5
145
100
AcDbEntity
8
1
62
256
6
ByLayer
370
18
48
1
60
0
100
AcDbLine
10
-0.325
20
19.25
30
0
11
-0.325
21
19.249087
31
0
39
0
210
0
220
0
230
1
0
LINE
5
146
100
AcDbEntity
8
SK1
62
256
6
ByLayer
370
18
48
1
60
0
100
AcDbLine
10
17.45
20
-17
30
0
11
17.45
21
17
31
0
39
0
210
0
220
0
230
1
0
LINE
5
147
100
AcDbEntity
8
1
62
256
6
ByLayer
370
18
48
1
60
0
100
AcDbLine
10
10.95
20
-17
30
0
11
10.95
21
17
31
0
39
0
210
0
220
0
230
1
0
LINE
5
148
100
AcDbEntity
8
SK1
62
256
6
ByLayer
370
18
48
1
60
0
100
AcDbLine
10
18.45
20
16.86154
30
0
11
18.45
21
17
31
0
39
0
210
0
220
0
230
1
0
LINE
5
149
100
AcDbEntity
8
SK1
62
256
6
ByLayer
370
18
48
1
60
0
100
AcDbLine
10
18.45
20
1.862607
30
0
11
18.45
21
13.848217
31
0
39
0
210
0
220
0
230
1
0
LINE
5
14A
100
AcDbEntity
8
SK1
62
256
6
ByLayer
370
18
48
1
60
0
100
AcDbLine
10
18.45
20
-13.848217
30
0
11
18.45
21
-1.862607
31
0
39
0
210
0
220
0
230
1
0
LINE
5
14B
100
AcDbEntity
8
SK1
62
256
6
ByLayer
370
18
48
1
60
0
100
AcDbLine
10
18.45
20
-17
30
0
11
18.45
21
-16.86154
31
0
39
0
210
0
220
0
230
1
0
LINE
5
14C
100
AcDbEntity
8
SK1
62
256
6
ByLayer
370
18
48
1
60
0
100
AcDbLine
10
22.825
20
5
30
0
11
22.825
21
0
31
0
39
0
210
0
220
0
230
1
0
LINE
5
14D
100
AcDbEntity
8
SK1
62
256
6
ByLayer
370
18
48
1
60
0
100
AcDbLine
10
22.825
20
0
30
0
11
22.825
21
-5
31
0
39
0
210
0
220
0
230
1
0
LINE
5
14E
100
AcDbEntity
8
SK1
62
256
6
ByLayer
370
18
48
1
60
0
100
AcDbLine
10
18.45
20
13.85527
30
0
11
18.45
21
16.86154
31
0
39
0
210
0
220
0
230
1
0
LINE
5
14F
100
AcDbEntity
8
SK1
62
256
6
ByLayer
370
18
48
1
60
0
100
AcDbLine
10
18.45
20
-16.86154
30
0
11
18.45
21
-13.848217
31
0
39
0
210
0
220
0
230
1
0
MTEXT
5
249
100
AcDbEntity
8
SK6
62
256
6
ByLayer
370
13
48
1
60
0
100
AcDbMText
10
18.49465
20
39.487047
30
0
210
0
220
0
230
1
1
\W0.7228;SL-40 12-32-QC
40
3.5
41
0
44
1.084337
50
0
71
7
72
5
7
iso_b_vert
0
DIMENSION
5
257
100
AcDbEntity
8
2
62
256
6
ByLayer
370
13
48
1
60
0
100
AcDbDimension
2
DimnDraft3D1
10
12
20
31.333555
30
0
11
4.50023
21
31.333555
31
0
70
32
71
5
72
1
41
1
210
0
220
0
230
1
3
Standard
100
AcDbAlignedDimension
13
0
23
1.5875
33
0
14
12
24
1.5875
34
0
50
0
100
AcDbRotatedDimension
1001
ACAD
1000
DSTYLE
1002
{
1070
   279
1070
     0
1070
   173
1070
     1
1070
   340
1005
24A
1070
   271
1070
     1
1070
   272
1070
     2
1070
    77
1070
     1
1070
    73
1070
     0
1070
   171
1070
     3
1070
   274
1070
     4
1070
   177
1070
     7
1070
   176
1070
     7
1070
   178
1070
     7
1070
    78
1070
     8
1070
    48
1040
-0.005
1070
    41
1041
3.175
1070
   147
1041
1.5875
1070
    42
1041
1.5875
1070
    44
1041
3.175
1070
   140
1041
3.175
1070
   343
1005
0
1070
   344
1005
0
1002
}
0
DIMENSION
5
263
100
AcDbEntity
8
SK2
62
256
6
ByLayer
370
13
48
1
60
0
100
AcDbDimension
2
DimnDraft3D2
10
-21.906985
20
-20
30
0
11
-21.113235
21
2.301875
31
0
70
33
71
5
72
1
41
1
210
0
220
0
230
1
3
Standard
100
AcDbAlignedDimension
13
-1.1625
23
20
33
0
14
-1.1625
24
-20
34
0
1001
ACAD
1000
DSTYLE
1002
{
1070
   279
1070
     0
1070
    74
1070
     0
1070
   173
1070
     1
1070
   340
1005
24A
1070
   271
1070
     1
1070
   272
1070
     2
1070
    77
1070
     1
1070
    73
1070
     0
1070
   171
1070
     3
1070
   274
1070
     4
1070
   177
1070
     7
1070
   176
1070
     7
1070
   178
1070
     7
1070
    78
1070
     8
1070
    48
1040
-0.005
1070
    41
1041
3.175
1070
   147
1041
1.5875
1070
    42
1041
1.5875
1070
    44
1041
3.175
1070
   140
1041
3.175
1070
   343
1005
0
1070
   344
1005
0
1002
}
0
ENDSEC
0
SECTION
2
OBJECTS
0
DICTIONARY
5
2ec
330
0
100
AcDbDictionary
280
0
281
1
3
ACAD_GROUP
350
2ed
3
ACAD_MLINESTYLE
350
2ee
0
DICTIONARY
5
2ed
330
0
100
AcDbDictionary
280
0
281
1
0
DICTIONARY
5
2ee
330
0
100
AcDbDictionary
280
0
281
1
3
Standard
350
18
0
MLINESTYLE
5
18
330
2ee
100
AcDbMlineStyle
2
Standard
70
0
3

62
256
51
90
52
90
71
2
49
-0.5
62
256
6
ByLayer
49
0.5
62
256
6
ByLayer
0
RASTERVARIABLES
5
2da
330

100
AcDbRasterVariables
90
0
70
1
71
1
72
1
0
ENDSEC
0
EOF
