0
SECTION
2
HEADER
9
$ACADVER
1
AC1015
9
$DWGCODEPAGE
3
ANSI_1252
9
$HANDSEED
5
462
9
$ANGBASE
50
0
9
$ANGDIR
70
0
9
$ATTMODE
70
1
9
$AUNITS
70
0
9
$AUPREC
70
0
9
$CECOLOR
62
256
9
$CELTSCALE
40
1
9
$CELTYPE
6
ByLayer
9
$CELWEIGHT
370
-1
9
$CLAYER
8
0
9
$CMLJUST
70
0
9
$CMLSCALE
40
1
9
$CMLSTYLE
2
Standard
9
$DIMSTYLE
2
Standard
9
$TEXTSIZE
40
0.2
9
$TEXTSTYLE
7
Standard
9
$LUNITS
70
2
9
$LUPREC
70
4
9
$EXTNAMES
290
1
9
$INSUNITS
70
4
9
$LTSCALE
40
1
9
$LWDISPLAY
290
0
9
$PDMODE
70
0
9
$PDSIZE
40
0
9
$PLINEGEN
70
0
0
ENDSEC
0
SECTION
2
CLASSES
0
CLASS
1
RASTERVARIABLES
2
AcDbRasterVariables
3
ISM
90
0
280
0
281
0
0
ENDSEC
0
SECTION
2
TABLES
0
TABLE
2
VPORT
5
458
100
AcDbSymbolTable
0
VPORT
5
1
100
AcDbSymbolTableRecord
100
AcDbViewportTableRecord
2
*Active
70
0
10
0
20
0
11
1
21
1
12
-1
22
1
13
0
23
0
14
0.5
24
0.5
15
10
25
10
16
0
26
0
36
1
17
0
27
0
37
0
0
ENDTAB
0
TABLE
2
LTYPE
5
459
100
AcDbSymbolTable
0
LTYPE
5
14
100
AcDbSymbolTableRecord
100
AcDbLinetypeTableRecord
70
0
2
ByBlock
3

72
65
73
0
40
0
0
LTYPE
5
15
100
AcDbSymbolTableRecord
100
AcDbLinetypeTableRecord
70
0
2
ByLayer
3

72
65
73
0
40
0
0
LTYPE
5
16
100
AcDbSymbolTableRecord
100
AcDbLinetypeTableRecord
70
0
2
CONTINUOUS
3
Solid line
72
65
73
0
40
0
0
LTYPE
5
3B
100
AcDbSymbolTableRecord
100
AcDbLinetypeTableRecord
70
0
2
DASHED
3
__ __ __ __ __ __ __ __ __
72
65
73
2
40
25.72
49
12.86
74
0
49
-12.86
74
0
0
LTYPE
5
3C
100
AcDbSymbolTableRecord
100
AcDbLinetypeTableRecord
70
0
2
HIDDEN
3
_ _ _ _ _ _ _ _ _ _ _ _ _ _ _
72
65
73
2
40
0.5
49
0.25
74
0
49
-0.25
74
0
0
LTYPE
5
3D
100
AcDbSymbolTableRecord
100
AcDbLinetypeTableRecord
70
0
2
PHANTOM
3
____ _ _ ____ _ _ _____ _ _ ____
72
65
73
6
40
50.5
49
18
74
0
49
-6.5
74
0
49
6.5
74
0
49
-6.5
74
0
49
6.5
74
0
49
-6.5
74
0
0
LTYPE
5
3E
100
AcDbSymbolTableRecord
100
AcDbLinetypeTableRecord
70
0
2
CENTER
3
____ _ ____ _ ____ _ ____
72
65
73
4
40
47.5
49
22
74
0
49
-8.5
74
0
49
8.5
74
0
49
-8.5
74
0
0
LTYPE
5
3F
100
AcDbSymbolTableRecord
100
AcDbLinetypeTableRecord
70
0
2
DOT
3
.........................
72
65
73
2
40
10
49
0
74
0
49
-10
74
0
0
LTYPE
5
40
100
AcDbSymbolTableRecord
100
AcDbLinetypeTableRecord
70
0
2
DASHDOT
3
_._._._._._._._._._._._._._._._.
72
65
73
4
40
70
49
31
74
0
49
-13
74
0
49
13
74
0
49
-13
74
0
0
ENDTAB
0
TABLE
2
LAYER
5
45a
100
AcDbSymbolTable
0
LAYER
5
10
100
AcDbSymbolTableRecord
100
AcDbLayerTableRecord
2
0
70
0
62
7
6
CONTINUOUS
290
1
370
-3
390
0
0
LAYER
5
42
100
AcDbSymbolTableRecord
100
AcDbLayerTableRecord
2
80
70
0
62
-6
6
CONTINUOUS
290
1
370
-3
390
0
0
LAYER
5
44
100
AcDbSymbolTableRecord
100
AcDbLayerTableRecord
2
81
70
0
62
-3
6
CONTINUOUS
290
1
370
-3
390
0
0
LAYER
5
46
100
AcDbSymbolTableRecord
100
AcDbLayerTableRecord
2
2
70
0
62
7
6
CONTINUOUS
290
1
370
-3
390
0
0
LAYER
5
4A
100
AcDbSymbolTableRecord
100
AcDbLayerTableRecord
2
1
70
0
62
4
6
CONTINUOUS
290
1
370
-3
390
0
0
LAYER
5
5C
100
AcDbSymbolTableRecord
100
AcDbLayerTableRecord
2
4
70
0
62
-2
6
CENTER
290
1
370
-3
390
0
0
LAYER
5
444
100
AcDbSymbolTableRecord
100
AcDbLayerTableRecord
2
SK1
70
0
62
4
6
CONTINUOUS
290
1
370
-3
390
0
0
LAYER
5
445
100
AcDbSymbolTableRecord
100
AcDbLayerTableRecord
2
SK4
70
0
62
2
6
CENTER
290
1
370
-3
390
0
0
LAYER
5
446
100
AcDbSymbolTableRecord
100
AcDbLayerTableRecord
2
SK6
70
0
62
5
6
CONTINUOUS
290
1
370
-3
390
0
0
LAYER
5
447
100
AcDbSymbolTableRecord
100
AcDbLayerTableRecord
2
SK2
70
0
62
7
6
CONTINUOUS
290
1
370
-3
390
0
0
ENDTAB
0
TABLE
2
STYLE
5
45b
100
AcDbSymbolTable
0
STYLE
5
11
100
AcDbSymbolTableRecord
100
AcDbTextStyleTableRecord
2
Standard
3
txt
70
0
71
0
40
0
41
1
42
0
50
0
0
STYLE
5
3CE
100
AcDbSymbolTableRecord
100
AcDbTextStyleTableRecord
2
DEFAULT
3
simplex.shx
70
0
71
0
40
0
41
1
42
0
50
0
0
STYLE
5
3F1
100
AcDbSymbolTableRecord
100
AcDbTextStyleTableRecord
2
DWGDirectTextStyle
3
SIMPLEX
70
0
71
0
40
0
41
1
42
0
50
0
0
ENDTAB
0
TABLE
2
DIMSTYLE
5
45c
100
AcDbSymbolTable
100
AcDbDimStyleTable
0
DIMSTYLE
105
27
100
AcDbSymbolTableRecord
100
AcDbDimStyleTableRecord
2
Standard
70
0
3
<>
41
0.18
42
0.0625
44
0.18
140
0.18
147
0.09
73
0
74
0
77
1
271
2
275
0
278
52
280
0
340
11
0
ENDTAB
0
TABLE
2
VIEW
5
45d
100
AcDbSymbolTable
0
ENDTAB
0
TABLE
2
UCS
5
45e
100
AcDbSymbolTable
0
ENDTAB
0
TABLE
2
APPID
5
45f
100
AcDbSymbolTable
0
APPID
5
12
100
AcDbSymbolTableRecord
100
AcDbRegAppTableRecord
2
ACAD
70
0
0
ENDTAB
0
TABLE
2
BLOCK_RECORD
5
460
100
AcDbSymbolTable
0
BLOCK_RECORD
5
1F
100
AcDbSymbolTableRecord
100
AcDbBlockTableRecord
2
*Model_Space
340
0
70
0
0
BLOCK_RECORD
5
1B
100
AcDbSymbolTableRecord
100
AcDbBlockTableRecord
2
*Paper_Space
340
0
70
0
0
BLOCK_RECORD
5
23
100
AcDbSymbolTableRecord
100
AcDbBlockTableRecord
2
*Paper_Space0
340
0
70
0
0
BLOCK_RECORD
5
3F3
100
AcDbSymbolTableRecord
100
AcDbBlockTableRecord
2
DimnDraft3D1
340
0
70
0
0
BLOCK_RECORD
5
401
100
AcDbSymbolTableRecord
100
AcDbBlockTableRecord
2
_CLOSED
340
0
70
0
0
BLOCK_RECORD
5
408
100
AcDbSymbolTableRecord
100
AcDbBlockTableRecord
2
DimnDraft3D2
340
0
70
0
0
BLOCK_RECORD
5
417
100
AcDbSymbolTableRecord
100
AcDbBlockTableRecord
2
DimnDraft3D3
340
0
70
0
0
ENDTAB
0
ENDSEC
0
SECTION
2
BLOCKS
0
BLOCK
5
20
100
AcDbEntity
8
0
100
AcDbBlockBegin
2
*Model_Space
70
0
10
0
20
0
30
0
3
*Model_Space
0
ENDBLK
5
21
100
AcDbEntity
8
0
100
AcDbBlockEnd
0
BLOCK
5
1C
100
AcDbEntity
8
0
100
AcDbBlockBegin
2
*Paper_Space
70
0
10
0
20
0
30
0
3
*Paper_Space
0
ENDBLK
5
1D
100
AcDbEntity
8
0
100
AcDbBlockEnd
0
BLOCK
5
24
100
AcDbEntity
8
0
100
AcDbBlockBegin
2
*Paper_Space0
70
0
10
0
20
0
30
0
3
*Paper_Space0
0
ENDBLK
5
25
100
AcDbEntity
8
0
100
AcDbBlockEnd
0
BLOCK
5
3FE
100
AcDbEntity
8
0
100
AcDbBlockBegin
2
DimnDraft3D1
70
0
10
0
20
0
30
0
3
DimnDraft3D1
0
MTEXT
5
3F4
100
AcDbEntity
8
2
62
256
6
ByLayer
370
-1
48
1
60
0
100
AcDbMText
10
49.125
20
11.933553
30
0
210
0
220
0
230
1
1
\W01.000;\fsimplex.shx,bigfont.shx;27 
40
4.5
41
0
44
1.084337
50
90
71
7
72
5
7
DEFAULT
0
LINE
5
3F5
100
AcDbEntity
8
2
62
256
6
ByLayer
370
-1
48
1
60
0
100
AcDbLine
10
42.5
20
0
30
0
11
53.25
21
0
31
0
39
0
210
0
220
0
230
1
0
LINE
5
3F6
100
AcDbEntity
8
2
62
256
6
ByLayer
370
-1
48
1
60
0
100
AcDbLine
10
37.5
20
26.875
30
0
11
53.25
21
26.875
31
0
39
0
210
0
220
0
230
1
0
LINE
5
3F7
100
AcDbEntity
8
2
62
256
6
ByLayer
370
-1
48
1
60
0
100
AcDbLine
10
50.25
20
0
30
0
11
50.25
21
26.875
31
0
39
0
210
0
220
0
230
1
0
LINE
5
3F8
100
AcDbEntity
8
2
62
256
6
ByLayer
370
-1
48
1
60
0
100
AcDbLine
10
50.25
20
0
30
0
11
49.855043
21
2.999999
31
0
39
0
210
0
220
0
230
1
0
LINE
5
3F9
100
AcDbEntity
8
2
62
256
6
ByLayer
370
-1
48
1
60
0
100
AcDbLine
10
50.25
20
0
30
0
11
50.644957
21
3.000001
31
0
39
0
210
0
220
0
230
1
0
LINE
5
3FA
100
AcDbEntity
8
2
62
256
6
ByLayer
370
-1
48
1
60
0
100
AcDbLine
10
49.855043
20
2.999999
30
0
11
50.644957
21
3.000001
31
0
39
0
210
0
220
0
230
1
0
LINE
5
3FB
100
AcDbEntity
8
2
62
256
6
ByLayer
370
-1
48
1
60
0
100
AcDbLine
10
50.25
20
26.875
30
0
11
50.644957
21
23.875001
31
0
39
0
210
0
220
0
230
1
0
LINE
5
3FC
100
AcDbEntity
8
2
62
256
6
ByLayer
370
-1
48
1
60
0
100
AcDbLine
10
50.25
20
26.875
30
0
11
49.855043
21
23.874999
31
0
39
0
210
0
220
0
230
1
0
LINE
5
3FD
100
AcDbEntity
8
2
62
256
6
ByLayer
370
-1
48
1
60
0
100
AcDbLine
10
50.644957
20
23.875001
30
0
11
49.855043
21
23.874999
31
0
39
0
210
0
220
0
230
1
0
ENDBLK
5
3FF
100
AcDbEntity
8
0
100
AcDbBlockEnd
0
BLOCK
5
402
100
AcDbEntity
8
0
100
AcDbBlockBegin
2
_CLOSED
70
0
10
0
20
0
30
0
3
_CLOSED
0
LINE
5
404
100
AcDbEntity
8
0
62
256
6
ByLayer
370
-2
48
1
60
0
100
AcDbLine
10
-1
20
0.166667
30
0
11
0
21
0
31
0
39
0
210
0
220
0
230
1
0
LINE
5
405
100
AcDbEntity
8
0
62
256
6
ByLayer
370
-2
48
1
60
0
100
AcDbLine
10
0
20
0
30
0
11
-1
21
-0.166667
31
0
39
0
210
0
220
0
230
1
0
LINE
5
406
100
AcDbEntity
8
0
62
256
6
ByLayer
370
-2
48
1
60
0
100
AcDbLine
10
-1
20
0.166667
30
0
11
-1
21
-0.166667
31
0
39
0
210
0
220
0
230
1
0
LINE
5
407
100
AcDbEntity
8
0
62
256
6
ByLayer
370
-2
48
1
60
0
100
AcDbLine
10
0
20
0
30
0
11
-1
21
0
31
0
39
0
210
0
220
0
230
1
0
ENDBLK
5
403
100
AcDbEntity
8
0
100
AcDbBlockEnd
0
BLOCK
5
414
100
AcDbEntity
8
0
100
AcDbBlockBegin
2
DimnDraft3D2
70
0
10
0
20
0
30
0
3
DimnDraft3D2
0
MTEXT
5
409
100
AcDbEntity
8
SK2
62
256
6
ByLayer
370
-1
48
1
60
0
100
AcDbMText
10
-10.875
20
-3.896053
30
0
210
0
220
0
230
1
1
\W01.000;\fsimplex.shx,bigfont.shx;%%c40 
40
4.5
41
0
44
1.084337
50
90
71
7
72
5
7
DEFAULT
0
LINE
5
40B
100
AcDbEntity
8
SK2
62
256
6
ByLayer
370
-1
48
1
60
0
100
AcDbLine
10
-1.5
20
20
30
0
11
-12.75
21
20
31
0
39
0
210
0
220
0
230
1
0
LINE
5
40C
100
AcDbEntity
8
SK2
62
256
6
ByLayer
370
-1
48
1
60
0
100
AcDbLine
10
-1.5
20
-20
30
0
11
-12.75
21
-20
31
0
39
0
210
0
220
0
230
1
0
LINE
5
40D
100
AcDbEntity
8
SK2
62
256
6
ByLayer
370
-1
48
1
60
0
100
AcDbLine
10
-9.75
20
20
30
0
11
-9.75
21
-20
31
0
39
0
210
0
220
0
230
1
0
LINE
5
40E
100
AcDbEntity
8
SK2
62
256
6
ByLayer
370
-1
48
1
60
0
100
AcDbLine
10
-9.75
20
20
30
0
11
-9.355043
21
17.000001
31
0
39
0
210
0
220
0
230
1
0
LINE
5
40F
100
AcDbEntity
8
SK2
62
256
6
ByLayer
370
-1
48
1
60
0
100
AcDbLine
10
-9.75
20
20
30
0
11
-10.144957
21
16.999999
31
0
39
0
210
0
220
0
230
1
0
LINE
5
410
100
AcDbEntity
8
SK2
62
256
6
ByLayer
370
-1
48
1
60
0
100
AcDbLine
10
-9.355043
20
17.000001
30
0
11
-10.144957
21
16.999999
31
0
39
0
210
0
220
0
230
1
0
LINE
5
411
100
AcDbEntity
8
SK2
62
256
6
ByLayer
370
-1
48
1
60
0
100
AcDbLine
10
-9.75
20
-20
30
0
11
-10.144957
21
-17.000001
31
0
39
0
210
0
220
0
230
1
0
LINE
5
412
100
AcDbEntity
8
SK2
62
256
6
ByLayer
370
-1
48
1
60
0
100
AcDbLine
10
-9.75
20
-20
30
0
11
-9.355043
21
-16.999999
31
0
39
0
210
0
220
0
230
1
0
LINE
5
413
100
AcDbEntity
8
SK2
62
256
6
ByLayer
370
-1
48
1
60
0
100
AcDbLine
10
-10.144957
20
-17.000001
30
0
11
-9.355043
21
-16.999999
31
0
39
0
210
0
220
0
230
1
0
ENDBLK
5
415
100
AcDbEntity
8
0
100
AcDbBlockEnd
0
BLOCK
5
422
100
AcDbEntity
8
0
100
AcDbBlockBegin
2
DimnDraft3D3
70
0
10
0
20
0
30
0
3
DimnDraft3D3
0
MTEXT
5
418
100
AcDbEntity
8
2
62
256
6
ByLayer
370
-1
48
1
60
0
100
AcDbMText
10
16.496053
20
47.75
30
0
210
0
220
0
230
1
1
\W01.000;\fsimplex.shx,bigfont.shx;36 
40
4.5
41
0
44
1.084337
50
0
71
7
72
5
7
DEFAULT
0
LINE
5
419
100
AcDbEntity
8
2
62
256
6
ByLayer
370
-1
48
1
60
0
100
AcDbLine
10
36
20
28.375
30
0
11
36
21
49.625
31
0
39
0
210
0
220
0
230
1
0
LINE
5
41A
100
AcDbEntity
8
2
62
256
6
ByLayer
370
-1
48
1
60
0
100
AcDbLine
10
0
20
1.5
30
0
11
0
21
49.625
31
0
39
0
210
0
220
0
230
1
0
LINE
5
41B
100
AcDbEntity
8
2
62
256
6
ByLayer
370
-1
48
1
60
0
100
AcDbLine
10
36
20
46.625
30
0
11
0
21
46.625
31
0
39
0
210
0
220
0
230
1
0
LINE
5
41C
100
AcDbEntity
8
2
62
256
6
ByLayer
370
-1
48
1
60
0
100
AcDbLine
10
36
20
46.625
30
0
11
33.000001
21
46.230043
31
0
39
0
210
0
220
0
230
1
0
LINE
5
41D
100
AcDbEntity
8
2
62
256
6
ByLayer
370
-1
48
1
60
0
100
AcDbLine
10
36
20
46.625
30
0
11
32.999999
21
47.019957
31
0
39
0
210
0
220
0
230
1
0
LINE
5
41E
100
AcDbEntity
8
2
62
256
6
ByLayer
370
-1
48
1
60
0
100
AcDbLine
10
33.000001
20
46.230043
30
0
11
32.999999
21
47.019957
31
0
39
0
210
0
220
0
230
1
0
LINE
5
41F
100
AcDbEntity
8
2
62
256
6
ByLayer
370
-1
48
1
60
0
100
AcDbLine
10
0
20
46.625
30
0
11
2.999999
21
47.019957
31
0
39
0
210
0
220
0
230
1
0
LINE
5
420
100
AcDbEntity
8
2
62
256
6
ByLayer
370
-1
48
1
60
0
100
AcDbLine
10
0
20
46.625
30
0
11
3.000001
21
46.230043
31
0
39
0
210
0
220
0
230
1
0
LINE
5
421
100
AcDbEntity
8
2
62
256
6
ByLayer
370
-1
48
1
60
0
100
AcDbLine
10
2.999999
20
47.019957
30
0
11
3.000001
21
46.230043
31
0
39
0
210
0
220
0
230
1
0
ENDBLK
5
423
100
AcDbEntity
8
0
100
AcDbBlockEnd
0
ENDSEC
0
SECTION
2
ENTITIES
0
ARC
5
1F7
100
AcDbEntity
8
1
62
256
6
ByLayer
370
-1
48
1
60
0
100
AcDbCircle
39
0
10
-10.111157
20
20.8
30
0
40
0.8
210
0
220
0
230
-1
100
AcDbArc
50
195
51
270
0
ARC
5
1F8
100
AcDbEntity
8
1
62
256
6
ByLayer
370
-1
48
1
60
0
100
AcDbCircle
39
0
10
20.515221
20
-14.348623
30
0
40
9.99999999999812
210
0
220
0
230
1
100
AcDbArc
50
90
51
126.278309
0
ARC
5
1F9
100
AcDbEntity
8
1
62
256
6
ByLayer
370
-1
48
1
60
0
100
AcDbCircle
39
0
10
31.515221
20
-0.348623
30
0
40
4.00000000000127
210
0
220
0
230
1
100
AcDbArc
50
270
51
327.831845
0
ELLIPSE
5
1FA
100
AcDbEntity
8
1
62
256
6
ByLayer
370
-1
48
1
60
0
100
AcDbEllipse
10
16.680414
20
11.931561
30
0
11
-2.73662387161753
21
0.270905491441321
31
0
210
0
220
0
230
1
40
0.984662
41
-1.37479168256081
42
-0.0330615617839086
0
ELLIPSE
5
1FB
100
AcDbEntity
8
1
62
256
6
ByLayer
370
-1
48
1
60
0
100
AcDbEllipse
10
24.091698
20
7.671684
30
0
11
-2.78121111591613
21
1.14291645728966
31
0
210
0
220
0
230
1
40
0.404754
41
1.25971775645264
42
1.52158865912329
0
ELLIPSE
5
1FC
100
AcDbEntity
8
1
62
256
6
ByLayer
370
-1
48
1
60
0
100
AcDbEllipse
10
10.028845
20
0
30
0
11
-0.00435779527956208
21
20.0000000007075
31
0
210
0
220
0
230
1
40
0.000231
41
2.12560730950714
42
2.65269113935733
0
ELLIPSE
5
1FD
100
AcDbEntity
8
1
62
256
6
ByLayer
370
-1
48
1
60
0
100
AcDbEllipse
10
16.594477
20
11.063448
30
0
11
-2.9756229094615
21
0.294564625775646
31
0
210
0
220
0
230
1
40
0.984662
41
-1.12626218680728
42
-0.42065572143345
0
ELLIPSE
5
1FE
100
AcDbEntity
8
1
62
256
6
ByLayer
370
-1
48
1
60
0
100
AcDbEllipse
10
10.028717
20
-9.899495
30
0
11
-0.00114392126088299
21
5.24999999999975
31
0
210
0
220
0
230
1
40
0.000231
41
-0.533774477258932
42
-2.95687812778194
0
ELLIPSE
5
1FF
100
AcDbEntity
8
1
62
256
6
ByLayer
370
-1
48
1
60
0
100
AcDbEllipse
10
11.223418
20
21.440693
30
0
11
-1.20000000848835
21
3.39299937618478E-10
31
0
210
0
220
0
230
1
40
0.173648
41
1.43962158820014
42
1.5536081376099
0
ELLIPSE
5
200
100
AcDbEntity
8
1
62
256
6
ByLayer
370
-1
48
1
60
0
100
AcDbEllipse
10
10.028845
20
0
30
0
11
-0.00435779528065308
21
20.0000000032077
31
0
210
0
220
0
230
1
40
0.000231
41
0.139841562778709
42
1.0159852434436
0
ELLIPSE
5
201
100
AcDbEntity
8
1
62
256
6
ByLayer
370
-1
48
1
60
0
100
AcDbEllipse
10
12.361388
20
6.064719
30
0
11
-9.0030921166352
21
-7.92383943750274
31
0
210
0
220
0
230
1
40
0.12418
41
1.33401354929954
42
1.8170205269587
0
ELLIPSE
5
202
100
AcDbEntity
8
1
62
256
6
ByLayer
370
-1
48
1
60
0
100
AcDbEllipse
10
12.361388
20
6.064719
30
0
11
-9.00309211674383
21
-7.92383943760549
31
0
210
0
220
0
230
1
40
0.12418
41
-1.86647937918549
42
-1.55166005481532
0
ELLIPSE
5
203
100
AcDbEntity
8
1
62
256
6
ByLayer
370
-1
48
1
60
0
100
AcDbEllipse
10
31.865055
20
3.22806
30
0
11
-2.78121111551678
21
1.14291645726341
31
0
210
0
220
0
230
1
40
0.404754
41
0.9978429155547
42
1.2597177565311
0
ELLIPSE
5
204
100
AcDbEntity
8
1
62
256
6
ByLayer
370
-1
48
1
60
0
100
AcDbEllipse
10
14.379418
20
11.471792
30
0
11
2.48783988328867
21
-0.24627771949211
31
0
210
0
220
0
230
1
40
0.984662
41
2.18719909076102
42
2.58321169002173
0
ELLIPSE
5
205
100
AcDbEntity
8
1
62
256
6
ByLayer
370
-1
48
1
60
0
100
AcDbEllipse
10
14.514855
20
12.839937
30
0
11
-2.11117739964659
21
0.208990923781212
31
0
210
0
220
0
230
1
40
0.984662
41
-0.954393562828771
42
0.616402763966134
0
ELLIPSE
5
206
100
AcDbEntity
8
1
62
256
6
ByLayer
370
-1
48
1
60
0
100
AcDbEllipse
10
10.024403
20
9.899495
30
0
11
-0.00114392126088306
21
5.25000000000006
31
0
210
0
220
0
230
1
40
0.000231
41
0
42
6.28318530717959
0
ELLIPSE
5
207
100
AcDbEntity
8
1
62
256
6
ByLayer
370
-1
48
1
60
0
100
AcDbEllipse
10
17.336421
20
7.969079
30
0
11
-2.11117739964659
21
0.208990923781213
31
0
210
0
220
0
230
1
40
0.984662
41
0.63078611594625
42
2.18719909076102
0
ELLIPSE
5
208
100
AcDbEntity
8
1
62
256
6
ByLayer
370
-1
48
1
60
0
100
AcDbEllipse
10
14.793218
20
8.270614
30
0
11
-0.737640424743572
21
1.35480934554153
31
0
210
0
220
0
230
1
40
0.145302
41
0.45111902764626
42
2.97646252855633
0
ELLIPSE
5
209
100
AcDbEntity
8
1
62
256
6
ByLayer
370
-1
48
1
60
0
100
AcDbEllipse
10
-167.162474
20
-9.899495
30
0
11
-305.412190680942
21
0.911914312294642
31
0
210
0
220
0
230
1
40
0.016929
41
-2.2081758630976
42
-2.19443136556866
0
ELLIPSE
5
20A
100
AcDbEntity
8
1
62
256
6
ByLayer
370
-1
48
1
60
0
100
AcDbEllipse
10
21.747154
20
18.271899
30
0
11
0.995135953315467
21
-0.0985110877968441
31
0
210
0
220
0
230
1
40
0.984662
41
3.14159235353382
42
-3.04442534209198
0
ELLIPSE
5
20B
100
AcDbEntity
8
1
62
256
6
ByLayer
370
-1
48
1
60
0
100
AcDbEllipse
10
21.838678
20
19.19646
30
0
11
-0.996361289648951
21
0.0852617014960666
31
0
210
0
220
0
230
1
40
0.984696
41
-1.31542525627985
42
0.0840649113666258
0
ELLIPSE
5
20C
100
AcDbEntity
8
1
62
256
6
ByLayer
370
-1
48
1
60
0
100
AcDbEllipse
10
23.683639
20
20.190503
30
0
11
0.15
21
0
31
0
210
0
220
0
230
1
40
0.173648
41
-2.58922173143488
42
-0.582093091641521
0
ELLIPSE
5
20D
100
AcDbEntity
8
1
62
256
6
ByLayer
370
-1
48
1
60
0
100
AcDbEllipse
10
22.795463
20
20.180451
30
0
11
0.599999999999999
21
0
31
0
210
0
220
0
230
1
40
0.173648
41
0.726903847354289
42
1.55593524205162
0
ELLIPSE
5
20E
100
AcDbEntity
8
1
62
256
6
ByLayer
370
-1
48
1
60
0
100
AcDbEllipse
10
24.427158
20
19.894653
30
0
11
3
21
0
31
0
210
0
220
0
230
1
40
0.173648
41
2.38496663674893
42
2.55949956194836
0
ELLIPSE
5
20F
100
AcDbEntity
8
1
62
256
6
ByLayer
370
-1
48
1
60
0
100
AcDbEllipse
10
32.337547
20
1.616895
30
0
11
-0.996361289649169
21
0.0852617014864048
31
0
210
0
220
0
230
1
40
0.984696
41
2.59677851336156
42
2.88248393289421
0
ELLIPSE
5
210
100
AcDbEntity
8
1
62
256
6
ByLayer
370
-1
48
1
60
0
100
AcDbEllipse
10
21.002098
20
19.903492
30
0
11
3
21
0
31
0
210
0
220
0
230
1
40
0.173648
41
0.552370922154886
42
0.726903847354314
0
ELLIPSE
5
211
100
AcDbEntity
8
1
62
256
6
ByLayer
370
-1
48
1
60
0
100
AcDbEllipse
10
21.79592
20
20.195375
30
0
11
0.15
21
0
31
0
210
0
220
0
230
1
40
0.173648
41
-1.28923561536003
42
-0.582093091641521
0
ELLIPSE
5
212
100
AcDbEntity
8
1
62
256
6
ByLayer
370
-1
48
1
60
0
100
AcDbEllipse
10
22.681983
20
20.180744
30
0
11
0.599999999999999
21
0
31
0
210
0
220
0
230
1
40
0.173648
41
1.55593524205163
42
2.38496663674892
0
ELLIPSE
5
213
100
AcDbEntity
8
1
62
256
6
ByLayer
370
-1
48
1
60
0
100
AcDbEllipse
10
27.022376
20
14.74235
30
0
11
-0.459734299335529
21
-0.25718748883324
31
0
210
0
220
0
230
1
40
0.501141
41
0.16676007395915
42
1.58053389320394
0
ELLIPSE
5
214
100
AcDbEntity
8
1
62
256
6
ByLayer
370
-1
48
1
60
0
100
AcDbEllipse
10
28.030918
20
13.164858
30
0
11
-4.38112776020812
21
0.407086659980113
31
0
210
0
220
0
230
1
40
0.98468
41
0
42
3.1414945793828
0
ELLIPSE
5
215
100
AcDbEntity
8
1
62
256
6
ByLayer
370
-1
48
1
60
0
100
AcDbEllipse
10
28.054311
20
13.416615
30
0
11
-2.3897060510226
21
0.22204726908006
31
0
210
0
220
0
230
1
40
0.98468
41
0
42
6.28318530717959
0
ELLIPSE
5
216
100
AcDbEntity
8
1
62
256
6
ByLayer
370
-1
48
1
60
0
100
AcDbEllipse
10
28.045534
20
13.322163
30
0
11
-4.38112776020812
21
0.407086659980113
31
0
210
0
220
0
230
1
40
0.98468
41
0
42
6.28318530717959
0
ELLIPSE
5
217
100
AcDbEntity
8
1
62
256
6
ByLayer
370
-1
48
1
60
0
100
AcDbEllipse
10
30.012912
20
13.033394
30
0
11
-0.000517732186046054
21
0.521406933089349
31
0
210
0
220
0
230
1
40
0.511529
41
1.38919494874815
42
1.56885518377617
0
ELLIPSE
5
218
100
AcDbEntity
8
1
62
256
6
ByLayer
370
-1
48
1
60
0
100
AcDbEllipse
10
28.019221
20
13.03898
30
0
11
-1.71979178805261
21
0.159800017981284
31
0
210
0
220
0
230
1
40
0.98468
41
-3.0503519986519
42
-2.00315444745531
0
ELLIPSE
5
219
100
AcDbEntity
8
1
62
256
6
ByLayer
370
-1
48
1
60
0
100
AcDbEllipse
10
26.025531
20
13.044566
30
0
11
-0.000517732186271611
21
0.521406933089725
31
0
210
0
220
0
230
1
40
0.511529
41
-2.98651128905899
42
-1.75239648753563
0
ELLIPSE
5
21A
100
AcDbEntity
8
1
62
256
6
ByLayer
370
-1
48
1
60
0
100
AcDbEllipse
10
26.292721
20
14.025596
30
0
11
-0.266545197002319
21
-0.449730189353097
31
0
210
0
220
0
230
1
40
0.508837
41
3.06823590932866
42
-1.27255789402828
0
ELLIPSE
5
21B
100
AcDbEntity
8
1
62
256
6
ByLayer
370
-1
48
1
60
0
100
AcDbEllipse
10
28.019221
20
13.03898
30
0
11
-1.71979178805261
21
0.159800017981284
31
0
210
0
220
0
230
1
40
0.98468
41
-0.955956896258707
42
-0.0617484504550288
0
ELLIPSE
5
21C
100
AcDbEntity
8
1
62
256
6
ByLayer
370
-1
48
1
60
0
100
AcDbEllipse
10
28.019221
20
13.03898
30
0
11
-1.71979178805261
21
0.159800017981284
31
0
210
0
220
0
230
1
40
0.98468
41
2.58510915336925
42
-3.0503519986519
0
ELLIPSE
5
21D
100
AcDbEntity
8
1
62
256
6
ByLayer
370
-1
48
1
60
0
100
AcDbEllipse
10
28.019221
20
13.03898
30
0
11
-1.71979178805261
21
0.159800017981284
31
0
210
0
220
0
230
1
40
0.98468
41
0.115620429022723
42
0.749747430370808
0
ELLIPSE
5
21E
100
AcDbEntity
8
1
62
256
6
ByLayer
370
-1
48
1
60
0
100
AcDbEllipse
10
29.745721
20
12.052363
30
0
11
-0.26654519700232
21
-0.449730189353098
31
0
210
0
220
0
230
1
40
0.508837
41
2.76009544246511
42
-3.05210235615083
0
ELLIPSE
5
21F
100
AcDbEntity
8
1
62
256
6
ByLayer
370
-1
48
1
60
0
100
AcDbEllipse
10
26.292721
20
12.062038
30
0
11
-0.266966093249845
21
0.450975689239696
31
0
210
0
220
0
230
1
40
0.506343
41
-0.0913315366693633
42
0.0951622015940493
0
ELLIPSE
5
220
100
AcDbEntity
8
1
62
256
6
ByLayer
370
-1
48
1
60
0
100
AcDbEllipse
10
28.019221
20
15.002539
30
0
11
-0.529380194123901
21
0.00196779506760373
31
0
210
0
220
0
230
1
40
0.49623
41
-3.05951242235517
42
-0.308772418782467
0
ELLIPSE
5
221
100
AcDbEntity
8
1
62
256
6
ByLayer
370
-1
48
1
60
0
100
AcDbEllipse
10
28.019221
20
13.03898
30
0
11
-1.71979178805261
21
0.159800017981284
31
0
210
0
220
0
230
1
40
0.98468
41
1.37152118782114
42
1.98246285300053
0
ELLIPSE
5
222
100
AcDbEntity
8
1
62
256
6
ByLayer
370
-1
48
1
60
0
100
AcDbEllipse
10
28.054311
20
13.416615
30
0
11
2.25090395789238
21
-0.209150023534328
31
0
210
0
220
0
230
1
40
0.98468
41
2.70923453292938
42
-2.52675322305361
0
ELLIPSE
5
223
100
AcDbEntity
8
1
62
256
6
ByLayer
370
-1
48
1
60
0
100
AcDbEllipse
10
28.054311
20
13.416615
30
0
11
2.25090395789238
21
-0.209150023534328
31
0
210
0
220
0
230
1
40
0.98468
41
1.66203698173279
42
2.70923453292938
0
ELLIPSE
5
224
100
AcDbEntity
8
1
62
256
6
ByLayer
370
-1
48
1
60
0
100
AcDbEllipse
10
28.054311
20
13.416615
30
0
11
2.25090395789238
21
-0.209150023534328
31
0
210
0
220
0
230
1
40
0.98468
41
-0.432358120660406
42
0.614839430536184
0
ELLIPSE
5
225
100
AcDbEntity
8
1
62
256
6
ByLayer
370
-1
48
1
60
0
100
AcDbEllipse
10
28.054311
20
13.416615
30
0
11
2.25090395789238
21
-0.209150023534328
31
0
210
0
220
0
230
1
40
0.98468
41
-1.479555671857
42
-0.432358120660406
0
ELLIPSE
5
226
100
AcDbEntity
8
1
62
256
6
ByLayer
370
-1
48
1
60
0
100
AcDbEllipse
10
28.054311
20
13.416615
30
0
11
2.25090395789238
21
-0.209150023534328
31
0
210
0
220
0
230
1
40
0.98468
41
0.614839430536185
42
1.66203698173279
0
ELLIPSE
5
227
100
AcDbEntity
8
1
62
256
6
ByLayer
370
-1
48
1
60
0
100
AcDbEllipse
10
28.054311
20
13.416615
30
0
11
2.25090395789238
21
-0.209150023534328
31
0
210
0
220
0
230
1
40
0.98468
41
-2.52675322305361
42
-1.479555671857
0
ELLIPSE
5
228
100
AcDbEntity
8
1
62
256
6
ByLayer
370
-1
48
1
60
0
100
AcDbEllipse
10
29.745721
20
14.015922
30
0
11
-0.266966093249841
21
0.450975689239699
31
0
210
0
220
0
230
1
40
0.506343
41
-2.03537448664973
42
0.0715155050307857
0
ELLIPSE
5
229
100
AcDbEntity
8
1
62
256
6
ByLayer
370
-1
48
1
60
0
100
AcDbEllipse
10
30.012912
20
13.033394
30
0
11
-0.000517732186628081
21
0.521406933089139
31
0
210
0
220
0
230
1
40
0.511529
41
1.56885518377382
42
2.98262900301942
0
ELLIPSE
5
22A
100
AcDbEntity
8
1
62
256
6
ByLayer
370
-1
48
1
60
0
100
AcDbEllipse
10
29.016067
20
14.736764
30
0
11
-0.459483676978883
21
0.260208249922654
31
0
210
0
220
0
230
1
40
0.498746
41
0.149222755521318
42
1.56299657476558
0
ELLIPSE
5
22B
100
AcDbEntity
8
1
62
256
6
ByLayer
370
-1
48
1
60
0
100
AcDbEllipse
10
27.022376
20
14.74235
30
0
11
-0.459734299335621
21
-0.257187488833418
31
0
210
0
220
0
230
1
40
0.501141
41
1.58053389320356
42
2.80950200670468
0
ELLIPSE
5
22C
100
AcDbEntity
8
1
62
256
6
ByLayer
370
-1
48
1
60
0
100
AcDbEllipse
10
29.016067
20
14.736764
30
0
11
-0.459483676978617
21
0.260208249922362
31
0
210
0
220
0
230
1
40
0.498746
41
1.56299657476505
42
2.97677039401006
0
ELLIPSE
5
22D
100
AcDbEntity
8
1
62
256
6
ByLayer
370
-1
48
1
60
0
100
AcDbEllipse
10
28.019221
20
13.03898
30
0
11
1.71979178805261
21
-0.159800017981285
31
0
210
0
220
0
230
1
40
0.98468
41
1.13843820613449
42
2.18563575733108
0
ELLIPSE
5
22E
100
AcDbEntity
8
1
62
256
6
ByLayer
370
-1
48
1
60
0
100
AcDbEllipse
10
27.910385
20
7.031203
30
0
11
-0.0844113381821171
21
-0.0816341671688737
31
0
210
0
220
0
230
1
40
0.38074
41
-0.588327394364583
42
0.90878319157299
0
ELLIPSE
5
22F
100
AcDbEntity
8
1
62
256
6
ByLayer
370
-1
48
1
60
0
100
AcDbEllipse
10
34.513609
20
13.293303
30
0
11
-0.0864373984731591
21
-0.0795513056219497
31
0
210
0
220
0
230
1
40
0.380452
41
2.24639958454012
42
-2.53967513758884
0
ELLIPSE
5
230
100
AcDbEntity
8
1
62
256
6
ByLayer
370
-1
48
1
60
0
100
AcDbEllipse
10
27.879706
20
6.920079
30
0
11
-0.0947057898483703
21
0.18181257758801
31
0
210
0
220
0
230
1
40
0.095551
41
-2.38366409275573
42
-1.42373300415884
0
ELLIPSE
5
231
100
AcDbEntity
8
1
62
256
6
ByLayer
370
-1
48
1
60
0
100
AcDbEllipse
10
28.03669
20
13.226975
30
0
11
-6.4453529647957
21
0.598890823194564
31
0
210
0
220
0
230
1
40
0.98468
41
2.1507291722912
42
2.70923453292939
0
ELLIPSE
5
232
100
AcDbEntity
8
1
62
256
6
ByLayer
370
-1
48
1
60
0
100
AcDbEllipse
10
34.514518
20
2.813519
30
0
11
-0.00280950827784221
21
4.99999921066626
31
0
210
0
220
0
230
1
40
0.053314
41
1.93678321298831
42
2.07775704266233
0
ELLIPSE
5
233
100
AcDbEntity
8
1
62
256
6
ByLayer
370
-1
48
1
60
0
100
AcDbEllipse
10
36.311958
20
2.814532
30
0
11
-0.0014047541389211
21
2.49999960533312
31
0
210
0
220
0
230
1
40
0.053314
41
2.75457881859011
42
-2.78268996845967
0
ELLIPSE
5
234
100
AcDbEntity
8
1
62
256
6
ByLayer
370
-1
48
1
60
0
100
AcDbEllipse
10
35.980097
20
12.037967
30
0
11
-0.00106256577301649
21
-1.48293995233262
31
0
210
0
220
0
230
1
40
0.008128
41
-1.48286578411516
42
-1.30833284611964
0
ELLIPSE
5
235
100
AcDbEntity
8
1
62
256
6
ByLayer
370
-1
48
1
60
0
100
AcDbEllipse
10
22.070482
20
18.21511
30
0
11
-0.239763311095308
21
-0.0708064591164864
31
0
210
0
220
0
230
1
40
0.525617
41
-2.23583821770755
42
-0.738727631770236
0
ELLIPSE
5
236
100
AcDbEntity
8
1
62
256
6
ByLayer
370
-1
48
1
60
0
100
AcDbEllipse
10
26.372376
20
22.213716
30
0
11
-0.00253622518440027
21
-0.812320748534368
31
0
210
0
220
0
230
1
40
0.984689
41
0.523919258499586
42
0.542632596813296
0
ELLIPSE
5
237
100
AcDbEntity
8
1
62
256
6
ByLayer
370
-1
48
1
60
0
100
AcDbEllipse
10
33.794831
20
16.417221
30
0
11
-0.107803154299211
21
-0.17436593682007
31
0
210
0
220
0
230
1
40
0.078546
41
-2.68753298539645
42
-1.72760189679927
0
ELLIPSE
5
238
100
AcDbEntity
8
1
62
256
6
ByLayer
370
-1
48
1
60
0
100
AcDbEllipse
10
35.522347
20
15.735227
30
0
11
-0.81985768198227
21
0.324983097392045
31
0
210
0
220
0
230
1
40
0.28861
41
-2.03615680725342
42
-1.42580383149317
0
ELLIPSE
5
239
100
AcDbEntity
8
1
62
256
6
ByLayer
370
-1
48
1
60
0
100
AcDbEllipse
10
35.802777
20
14.626641
30
0
11
-0.573246486579317
21
-0.59310599509575
31
0
210
0
220
0
230
1
40
0.471304
41
1.34707197599733
42
1.39193664750521
0
ELLIPSE
5
23A
100
AcDbEntity
8
1
62
256
6
ByLayer
370
-1
48
1
60
0
100
AcDbEllipse
10
32.645169
20
16.116019
30
0
11
-0.174207153903724
21
-0.108059555471805
31
0
210
0
220
0
230
1
40
0.139818
41
-1.67622265565875
42
-0.367225716663206
0
ELLIPSE
5
23B
100
AcDbEntity
8
1
62
256
6
ByLayer
370
-1
48
1
60
0
100
AcDbEllipse
10
33.717973
20
16.438584
30
0
11
-0.114302314448877
21
0.0309982571046744
31
0
210
0
220
0
230
1
40
0.37432
41
2.54417849318821
42
-2.24189622804999
0
ELLIPSE
5
23C
100
AcDbEntity
8
1
62
256
6
ByLayer
370
-1
48
1
60
0
100
AcDbEllipse
10
24.894012
20
18.955421
30
0
11
-0.113503119729204
21
0.0337506209016662
31
0
210
0
220
0
230
1
40
0.374422
41
-0.904632190876674
42
0.592478394174515
0
ELLIPSE
5
23D
100
AcDbEntity
8
1
62
256
6
ByLayer
370
-1
48
1
60
0
100
AcDbEllipse
10
32.697833
20
16.085079
30
0
11
-0.0483631120923273
21
0.199213476925496
31
0
210
0
220
0
230
1
40
0.057425
41
-2.10325254253126
42
-1.40512084173358
0
ELLIPSE
5
23E
100
AcDbEntity
8
1
62
256
6
ByLayer
370
-1
48
1
60
0
100
AcDbEllipse
10
33.802643
20
16.353294
30
0
11
0.0483631120923273
21
-0.199213476925496
31
0
210
0
220
0
230
1
40
0.057425
41
1.03834011105853
42
1.73647181185611
0
ELLIPSE
5
23F
100
AcDbEntity
8
1
62
256
6
ByLayer
370
-1
48
1
60
0
100
AcDbEllipse
10
27.794627
20
14.32028
30
0
11
-0.638502715733279
21
5.980820134878
31
0
210
0
220
0
230
1
40
0.861076
41
-1.48716385222457
42
-1.38138140641645
0
ELLIPSE
5
240
100
AcDbEntity
8
1
62
256
6
ByLayer
370
-1
48
1
60
0
100
AcDbEllipse
10
35.623135
20
14.703079
30
0
11
-0.669440006948241
21
-0.364005627671213
31
0
210
0
220
0
230
1
40
0.308649
41
1.5666947221937
42
1.95116791445885
0
ELLIPSE
5
241
100
AcDbEntity
8
1
62
256
6
ByLayer
370
-1
48
1
60
0
100
AcDbEllipse
10
24.728201
20
7.818975
30
0
11
-0.176929263824007
21
-0.103542433826403
31
0
210
0
220
0
230
1
40
0.14244
41
-1.67259160985399
42
-0.712660521257074
0
ELLIPSE
5
242
100
AcDbEntity
8
1
62
256
6
ByLayer
370
-1
48
1
60
0
100
AcDbEllipse
10
23.705817
20
6.754338
30
0
11
-1.29756951928273
21
0.746490217700336
31
0
210
0
220
0
230
1
40
0.079484
41
1.60717627739189
42
2.56710736592173
0
ELLIPSE
5
243
100
AcDbEntity
8
1
62
256
6
ByLayer
370
-1
48
1
60
0
100
AcDbEllipse
10
31.065479
20
18.104665
30
0
11
-0.107803154299211
21
-0.17436593682007
31
0
210
0
220
0
230
1
40
0.078546
41
-2.68753298539596
42
-1.72760189679925
0
ELLIPSE
5
244
100
AcDbEntity
8
1
62
256
6
ByLayer
370
-1
48
1
60
0
100
AcDbEllipse
10
28.035299
20
13.212011
30
0
11
4.6458489058802
21
-0.431684081675169
31
0
210
0
220
0
230
1
40
0.98468
41
0
42
6.28318530717959
0
ELLIPSE
5
245
100
AcDbEntity
8
1
62
256
6
ByLayer
370
-1
48
1
60
0
100
AcDbEllipse
10
22.176961
20
18.5131
30
0
11
-0.137179359728994
21
0.80223154122345
31
0
210
0
220
0
230
1
40
0.443953
41
1.22095554242117
42
1.83130851817137
0
ELLIPSE
5
246
100
AcDbEntity
8
1
62
256
6
ByLayer
370
-1
48
1
60
0
100
AcDbEllipse
10
27.017338
20
4.861953
30
0
11
-0.763554574681209
21
0.444887682705806
31
0
210
0
220
0
230
1
40
0.134475
41
0.673258853688204
42
1.63318994228358
0
ELLIPSE
5
247
100
AcDbEntity
8
1
62
256
6
ByLayer
370
-1
48
1
60
0
100
AcDbEllipse
10
25.325756
20
6.065395
30
0
11
-0.209859489749919
21
0.884179868520574
31
0
210
0
220
0
230
1
40
0.402319
41
1.52203242889217
42
1.56689709985828
0
ELLIPSE
5
248
100
AcDbEntity
8
1
62
256
6
ByLayer
370
-1
48
1
60
0
100
AcDbEllipse
10
28.039013
20
13.251975
30
0
11
4.73886461380466
21
-0.440326937108095
31
0
210
0
220
0
230
1
40
0.98468
41
0
42
6.28318530717959
0
ELLIPSE
5
249
100
AcDbEntity
8
1
62
256
6
ByLayer
370
-1
48
1
60
0
100
AcDbEllipse
10
32.810173
20
15.19539
30
0
11
0.234522246673559
21
-0.0865985901454883
31
0
210
0
220
0
230
1
40
0.416182
41
-2.14534556346433
42
-1.24053304576536
0
ELLIPSE
5
24A
100
AcDbEntity
8
1
62
256
6
ByLayer
370
-1
48
1
60
0
100
AcDbEllipse
10
33.714666
20
16.40299
30
0
11
-0.1213062087898
21
-0.220413143945723
31
0
210
0
220
0
230
1
40
0.740775
41
1.28457200569361
42
2.78168259163354
0
ELLIPSE
5
24B
100
AcDbEntity
8
1
62
256
6
ByLayer
370
-1
48
1
60
0
100
AcDbEllipse
10
35.385879
20
15.820694
30
0
11
0.0822567472033753
21
0.236080129488951
31
0
210
0
220
0
230
1
40
0.345781
41
-1.98188408891701
42
-0.484773502979746
0
ELLIPSE
5
24C
100
AcDbEntity
8
1
62
256
6
ByLayer
370
-1
48
1
60
0
100
AcDbEllipse
10
28.052198
20
13.393883
30
0
11
-5.66886443276854
21
0.526740879089583
31
0
210
0
220
0
230
1
40
0.98468
41
2.1507291722912
42
2.70923453292939
0
ELLIPSE
5
24D
100
AcDbEntity
8
1
62
256
6
ByLayer
370
-1
48
1
60
0
100
AcDbEllipse
10
27.047307
20
13.611568
30
0
11
-3.6606200793769
21
4.40066789565249
31
0
210
0
220
0
230
1
40
0.856915
41
2.0191426157407
42
2.12492506162118
0
ELLIPSE
5
24E
100
AcDbEntity
8
1
62
256
6
ByLayer
370
-1
48
1
60
0
100
AcDbEllipse
10
24.792772
20
7.808875
30
0
11
-0.196815757791568
21
0.0573459456712572
31
0
210
0
220
0
230
1
40
0.171301
41
-2.23584151395493
42
-1.5377098131572
0
ELLIPSE
5
24F
100
AcDbEntity
8
1
62
256
6
ByLayer
370
-1
48
1
60
0
100
AcDbEllipse
10
24.748974
20
7.932925
30
0
11
-0.0274240127221741
21
0.113592333346958
31
0
210
0
220
0
230
1
40
0.384479
41
2.23538671067379
42
-2.55068801008719
0
ELLIPSE
5
250
100
AcDbEntity
8
1
62
256
6
ByLayer
370
-1
48
1
60
0
100
AcDbEllipse
10
33.459601
20
13.073685
30
0
11
-0.0483631120923273
21
0.199213476925496
31
0
210
0
220
0
230
1
40
0.057425
41
-1.40512084173352
42
-0.706989140935715
0
ELLIPSE
5
251
100
AcDbEntity
8
1
62
256
6
ByLayer
370
-1
48
1
60
0
100
AcDbEllipse
10
27.81961
20
6.945537
30
0
11
-0.196815757791568
21
0.0573459456712572
31
0
210
0
220
0
230
1
40
0.171301
41
-1.53770981315721
42
-0.839578112359496
0
ELLIPSE
5
252
100
AcDbEntity
8
1
62
256
6
ByLayer
370
-1
48
1
60
0
100
AcDbEllipse
10
28.29729
20
12.33317
30
0
11
-5.22213840252084
21
-0.207436407961412
31
0
210
0
220
0
230
1
40
0.85986
41
-2.98758649555196
42
-2.88180404944851
0
ELLIPSE
5
253
100
AcDbEntity
8
1
62
256
6
ByLayer
370
-1
48
1
60
0
100
AcDbEllipse
10
28.050788
20
13.378705
30
0
11
5.83607034209093
21
-0.542277357110886
31
0
210
0
220
0
230
1
40
0.98468
41
-0.990863481298592
42
-0.432358120660407
0
ELLIPSE
5
254
100
AcDbEntity
8
1
62
256
6
ByLayer
370
-1
48
1
60
0
100
AcDbEllipse
10
28.133459
20
8.022693
30
0
11
0.196815757791568
21
-0.0573459456712574
31
0
210
0
220
0
230
1
40
0.171301
41
1.60388284043258
42
2.30201454123034
0
ELLIPSE
5
255
100
AcDbEntity
8
1
62
256
6
ByLayer
370
-1
48
1
60
0
100
AcDbEllipse
10
28.03153
20
13.171446
30
0
11
7.057081901341
21
-0.655731596443228
31
0
210
0
220
0
230
1
40
0.98468
41
1.1035316210946
42
1.66203698173279
0
ELLIPSE
5
256
100
AcDbEntity
8
1
62
256
6
ByLayer
370
-1
48
1
60
0
100
AcDbEllipse
10
35.971726
20
15.539494
30
0
11
-0.000596508798015736
21
-0.293543014185524
31
0
210
0
220
0
230
1
40
0.013589
41
1.71923884509677
42
2.10361710384504
0
ELLIPSE
5
257
100
AcDbEntity
8
1
62
256
6
ByLayer
370
-1
48
1
60
0
100
AcDbEllipse
10
24.830498
20
18.974097
30
0
11
0.000574372408695577
21
0.204999195355338
31
0
210
0
220
0
230
1
40
0.015888
41
-1.39624114267512
42
-0.43631005407785
0
ELLIPSE
5
258
100
AcDbEntity
8
1
62
256
6
ByLayer
370
-1
48
1
60
0
100
AcDbEllipse
10
28.041743
20
13.281364
30
0
11
-5.03680715777008
21
0.468011232505839
31
0
210
0
220
0
230
1
40
0.98468
41
-2.60859478443595
42
-0.909021919916251
0
ELLIPSE
5
259
100
AcDbEntity
8
1
62
256
6
ByLayer
370
-1
48
1
60
0
100
AcDbEllipse
10
28.039292
20
13.254983
30
0
11
-4.83964167762674
21
0.449690964034345
31
0
210
0
220
0
230
1
40
0.98468
41
-2.71589179933173
42
-0.801724905020463
0
ELLIPSE
5
25A
100
AcDbEntity
8
1
62
256
6
ByLayer
370
-1
48
1
60
0
100
AcDbEllipse
10
24.789491
20
18.924095
30
0
11
0.14657675769612
21
0.143318715118762
31
0
210
0
220
0
230
1
40
0.113875
41
1.43748220105982
42
2.13561390185754
0
ELLIPSE
5
25B
100
AcDbEntity
8
1
62
256
6
ByLayer
370
-1
48
1
60
0
100
AcDbEllipse
10
25.077215
20
8.939027
30
0
11
-0.112193248110561
21
-0.171574109580677
31
0
210
0
220
0
230
1
40
0.082506
41
-3.03455502533694
42
-1.72555808634151
0
ELLIPSE
5
25C
100
AcDbEntity
8
1
62
256
6
ByLayer
370
-1
48
1
60
0
100
AcDbEllipse
10
28.03153
20
13.171446
30
0
11
7.057081901341
21
-0.655731596443228
31
0
210
0
220
0
230
1
40
0.98468
41
-0.990863481298594
42
-0.432358120660407
0
ELLIPSE
5
25D
100
AcDbEntity
8
1
62
256
6
ByLayer
370
-1
48
1
60
0
100
AcDbEllipse
10
28.050788
20
13.378705
30
0
11
5.83607034209093
21
-0.542277357110886
31
0
210
0
220
0
230
1
40
0.98468
41
-3.08525858369179
42
-2.5267532230536
0
ELLIPSE
5
25E
100
AcDbEntity
8
1
62
256
6
ByLayer
370
-1
48
1
60
0
100
AcDbEllipse
10
28.049747
20
13.367502
30
0
11
-5.1691708154804
21
0.480310229994441
31
0
210
0
220
0
230
1
40
0.98468
41
-0.406751133125509
42
1.07792463355971
0
ELLIPSE
5
25F
100
AcDbEntity
8
1
62
256
6
ByLayer
370
-1
48
1
60
0
100
AcDbEllipse
10
28.052198
20
13.393883
30
0
11
5.36633629562374
21
-0.498630498465935
31
0
210
0
220
0
230
1
40
0.98468
41
2.73484152046428
42
-2.06366802003009
0
ELLIPSE
5
260
100
AcDbEntity
8
1
62
256
6
ByLayer
370
-1
48
1
60
0
100
AcDbEllipse
10
28.041743
20
13.281364
30
0
11
-5.03680715777008
21
0.468011232505839
31
0
210
0
220
0
230
1
40
0.98468
41
1.58019542035044
42
-3.00341702230944
0
ELLIPSE
5
261
100
AcDbEntity
8
1
62
256
6
ByLayer
370
-1
48
1
60
0
100
AcDbEllipse
10
28.039292
20
13.254983
30
0
11
-4.83964167762674
21
0.449690964034345
31
0
210
0
220
0
230
1
40
0.98468
41
-0.621496696938536
42
1.29267019737273
0
ELLIPSE
5
262
100
AcDbEntity
8
1
62
256
6
ByLayer
370
-1
48
1
60
0
100
AcDbEllipse
10
28.052198
20
13.393883
30
0
11
-5.66886443276854
21
0.526740879089583
31
0
210
0
220
0
230
1
40
0.98468
41
0.0563340698980064
42
0.614839430536192
0
ELLIPSE
5
263
100
AcDbEntity
8
1
62
256
6
ByLayer
370
-1
48
1
60
0
100
AcDbEllipse
10
28.039292
20
13.254983
30
0
11
-4.83964167762674
21
0.449690964034345
31
0
210
0
220
0
230
1
40
0.98468
41
1.47289840545466
42
-2.89612000741366
0
ELLIPSE
5
264
100
AcDbEntity
8
1
62
256
6
ByLayer
370
-1
48
1
60
0
100
AcDbEllipse
10
28.03669
20
13.226975
30
0
11
-6.4453529647957
21
0.598890823194564
31
0
210
0
220
0
230
1
40
0.98468
41
0.0563340698980068
42
0.614839430536192
0
ELLIPSE
5
265
100
AcDbEntity
8
1
62
256
6
ByLayer
370
-1
48
1
60
0
100
AcDbEllipse
10
28.03153
20
13.171446
30
0
11
7.057081901341
21
-0.655731596443228
31
0
210
0
220
0
230
1
40
0.98468
41
-3.08525858369179
42
-2.5267532230536
0
ELLIPSE
5
266
100
AcDbEntity
8
1
62
256
6
ByLayer
370
-1
48
1
60
0
100
AcDbEllipse
10
31.370568
20
7.129541
30
0
11
0.346484597006233
21
-0.665167966785404
31
0
210
0
220
0
230
1
40
0.095551
41
-2.38366409275579
42
-1.42373300415885
0
ELLIPSE
5
267
100
AcDbEntity
8
1
62
256
6
ByLayer
370
-1
48
1
60
0
100
AcDbEllipse
10
34.18077
20
9.794567
30
0
11
0.64675865995227
21
-0.379741011449572
31
0
210
0
220
0
230
1
40
0.158328
41
-2.45666157398744
42
-1.49673048539057
0
ELLIPSE
5
268
100
AcDbEntity
8
1
62
256
6
ByLayer
370
-1
48
1
60
0
100
AcDbEllipse
10
30.721378
20
8.4003
30
0
11
-0.0947057898483703
21
0.18181257758801
31
0
210
0
220
0
230
1
40
0.095551
41
-2.38366409275555
42
-1.42373300415881
0
ELLIPSE
5
269
100
AcDbEntity
8
1
62
256
6
ByLayer
370
-1
48
1
60
0
100
AcDbEllipse
10
32.978778
20
10.541082
30
0
11
-0.176780700386954
21
0.103795876462883
31
0
210
0
220
0
230
1
40
0.158328
41
-2.45666157398743
42
-1.49673048539059
0
ELLIPSE
5
26A
100
AcDbEntity
8
1
62
256
6
ByLayer
370
-1
48
1
60
0
100
AcDbEllipse
10
25.866938
20
8.610844
30
0
11
0.0554222756087938
21
-0.243779349753713
31
0
210
0
220
0
230
1
40
0.615161
41
1.38794283515548
42
2.29275535285444
0
ELLIPSE
5
26B
100
AcDbEntity
8
1
62
256
6
ByLayer
370
-1
48
1
60
0
100
AcDbEllipse
10
25.60929
20
8.639286
30
0
11
-0.0949044573765752
21
-0.23128584904844
31
0
210
0
220
0
230
1
40
0.611661
41
1.77138468477142
42
3.0164072344493
0
ELLIPSE
5
26C
100
AcDbEntity
8
1
62
256
6
ByLayer
370
-1
48
1
60
0
100
AcDbEllipse
10
27.607481
20
8.069347
30
0
11
-0.039867465508529
21
-0.246800699338406
31
0
210
0
220
0
230
1
40
0.661581
41
-3.02607724446229
42
-1.78105469478441
0
ELLIPSE
5
26D
100
AcDbEntity
8
1
62
256
6
ByLayer
370
-1
48
1
60
0
100
AcDbEllipse
10
28.049747
20
13.367502
30
0
11
-5.1691708154804
21
0.480310229994441
31
0
210
0
220
0
230
1
40
0.98468
41
1.68764396926768
42
-3.11086557122669
0
ELLIPSE
5
26E
100
AcDbEntity
8
1
62
256
6
ByLayer
370
-1
48
1
60
0
100
AcDbEllipse
10
27.387339
20
8.177183
30
0
11
-0.180345342875689
21
-0.173134506390408
31
0
210
0
220
0
230
1
40
0.658895
41
-2.25111590259008
42
-1.34630338489114
0
ELLIPSE
5
26F
100
AcDbEntity
8
1
62
256
6
ByLayer
370
-1
48
1
60
0
100
AcDbEllipse
10
27.907078
20
6.99561
30
0
11
-0.197021332083761
21
0.154782560229184
31
0
210
0
220
0
230
1
40
0.669167
41
0.799726636897144
42
2.29683722283478
0
ELLIPSE
5
270
100
AcDbEntity
8
1
62
256
6
ByLayer
370
-1
48
1
60
0
100
AcDbEllipse
10
21.90649
20
9.828958
30
0
11
-0.647302184721976
21
-0.378813782291717
31
0
210
0
220
0
230
1
40
0.14244
41
1.46900104373586
42
2.42893213233274
0
ELLIPSE
5
271
100
AcDbEntity
8
1
62
256
6
ByLayer
370
-1
48
1
60
0
100
AcDbEllipse
10
26.655644
20
5.665948
30
0
11
0.18205079762392
21
-0.171340325330888
31
0
210
0
220
0
230
1
40
0.250523
41
-2.28209355293573
42
-0.784982966998398
0
ELLIPSE
5
272
100
AcDbEntity
8
1
62
256
6
ByLayer
370
-1
48
1
60
0
100
AcDbEllipse
10
22.359816
20
13.569904
30
0
11
0.204871248438775
21
-0.00726440383910393
31
0
210
0
220
0
230
1
40
0.174097
41
1.56082592788161
42
2.52075701647851
0
ELLIPSE
5
273
100
AcDbEntity
8
1
62
256
6
ByLayer
370
-1
48
1
60
0
100
AcDbEllipse
10
26.185163
20
5.299122
30
0
11
0.115494865668744
21
-0.221722655595135
31
0
210
0
220
0
230
1
40
0.095551
41
1.33348138786541
42
1.71785964943093
0
ELLIPSE
5
274
100
AcDbEntity
8
1
62
256
6
ByLayer
370
-1
48
1
60
0
100
AcDbEllipse
10
23.119004
20
10.568708
30
0
11
0.176929263824007
21
0.103542433826403
31
0
210
0
220
0
230
1
40
0.14244
41
1.46900104373586
42
2.42893213233272
0
ELLIPSE
5
275
100
AcDbEntity
8
1
62
256
6
ByLayer
370
-1
48
1
60
0
100
AcDbEllipse
10
25.135242
20
6.099609
30
0
11
-0.244328834993786
21
-0.0529473360102224
31
0
210
0
220
0
230
1
40
0.22102
41
0.725611859655542
42
2.22272244559286
0
ELLIPSE
5
276
100
AcDbEntity
8
1
62
256
6
ByLayer
370
-1
48
1
60
0
100
AcDbEllipse
10
24.745666
20
7.897332
30
0
11
-0.246453063187181
21
-0.0427126374712441
31
0
210
0
220
0
230
1
40
0.647261
41
0.752676948587316
42
2.24978753458128
0
ELLIPSE
5
277
100
AcDbEntity
8
1
62
256
6
ByLayer
370
-1
48
1
60
0
100
AcDbEllipse
10
34.510302
20
13.25771
30
0
11
-0.118960593051121
21
0.22135498086491
31
0
210
0
220
0
230
1
40
0.863464
41
-2.1640798831997
42
-0.666969297463224
0
ELLIPSE
5
278
100
AcDbEntity
8
1
62
256
6
ByLayer
370
-1
48
1
60
0
100
AcDbEllipse
10
25.178649
20
17.670918
30
0
11
-0.191465160485792
21
0.160751647954694
31
0
210
0
220
0
230
1
40
0.529093
41
1.42203459663248
42
2.66705714631037
0
ELLIPSE
5
279
100
AcDbEntity
8
1
62
256
6
ByLayer
370
-1
48
1
60
0
100
AcDbEllipse
10
22.983815
20
7.166929
30
0
11
-1.29756951794486
21
0.746490216945836
31
0
210
0
220
0
230
1
40
0.079484
41
1.43264335209734
42
1.60717627747526
0
ELLIPSE
5
27A
100
AcDbEntity
8
1
62
256
6
ByLayer
370
-1
48
1
60
0
100
AcDbEllipse
10
35.980097
20
12.859104
30
0
11
-0.00106256616342112
21
-1.48294006423221
31
0
210
0
220
0
230
1
40
0.008128
41
-2.44279685307853
42
-1.48286576455887
0
ELLIPSE
5
27B
100
AcDbEntity
8
1
62
256
6
ByLayer
370
-1
48
1
60
0
100
AcDbEllipse
10
22.472136
20
16.737569
30
0
11
0.204871248438775
21
-0.00726440383910393
31
0
210
0
220
0
230
1
40
0.174097
41
1.56082592788159
42
2.52075701647846
0
ELLIPSE
5
27C
100
AcDbEntity
8
1
62
256
6
ByLayer
370
-1
48
1
60
0
100
AcDbEllipse
10
23.914492
20
16.32918
30
0
11
-0.00528264590417405
21
0.249944181072997
31
0
210
0
220
0
230
1
40
0.58801
41
-1.87967017194207
42
-0.974857654243079
0
ELLIPSE
5
27D
100
AcDbEntity
8
1
62
256
6
ByLayer
370
-1
48
1
60
0
100
AcDbEllipse
10
22.524929
20
16.676269
30
0
11
-0.228792900112409
21
-0.101830437277773
31
0
210
0
220
0
230
1
40
0.894601
41
-2.35370001014612
42
-0.856589424208085
0
ELLIPSE
5
27E
100
AcDbEntity
8
1
62
256
6
ByLayer
370
-1
48
1
60
0
100
AcDbEllipse
10
23.683345
20
16.252863
30
0
11
-0.144752286995344
21
0.203830261270543
31
0
210
0
220
0
230
1
40
0.731362
41
-2.62357144422068
42
-1.3785488945428
0
ELLIPSE
5
27F
100
AcDbEntity
8
1
62
256
6
ByLayer
370
-1
48
1
60
0
100
AcDbEllipse
10
25.052252
20
17.408163
30
0
11
-0.246290661141281
21
0.0429058298438646
31
0
210
0
220
0
230
1
40
0.410807
41
1.16922180136166
42
2.07403431906065
0
ELLIPSE
5
280
100
AcDbEntity
8
1
62
256
6
ByLayer
370
-1
48
1
60
0
100
AcDbEllipse
10
22.752572
20
19.339027
30
0
11
-0.266900945736792
21
-0.155887716860449
31
0
210
0
220
0
230
1
40
0.138292
41
1.47212375729562
42
1.78578226591427
0
ELLIPSE
5
281
100
AcDbEntity
8
1
62
256
6
ByLayer
370
-1
48
1
60
0
100
AcDbEllipse
10
22.528237
20
16.711863
30
0
11
-0.030270207251264
21
0.112896345184805
31
0
210
0
220
0
230
1
40
0.384294
41
-0.59956352707695
42
0.897547058860475
0
ELLIPSE
5
282
100
AcDbEntity
8
1
62
256
6
ByLayer
370
-1
48
1
60
0
100
AcDbEllipse
10
21.998559
20
18.765403
30
0
11
-0.249842985900946
21
0.00885902907207729
31
0
210
0
220
0
230
1
40
0.174097
41
-1.5807667257082
42
-1.19638846414268
0
ELLIPSE
5
283
100
AcDbEntity
8
1
62
256
6
ByLayer
370
-1
48
1
60
0
100
AcDbEllipse
10
26.133448
20
5.272183
30
0
11
-0.254518191495529
21
0.148295894199464
31
0
210
0
220
0
230
1
40
0.134475
41
-1.89278097290922
42
-1.50840271124688
0
ELLIPSE
5
284
100
AcDbEntity
8
1
62
256
6
ByLayer
370
-1
48
1
60
0
100
AcDbEllipse
10
23.208242
20
19.294093
30
0
11
0.0542857437198526
21
0.24403495247358
31
0
210
0
220
0
230
1
40
0.406076
41
0.480681985312435
42
1.97779257124966
0
ELLIPSE
5
285
100
AcDbEntity
8
1
62
256
6
ByLayer
370
-1
48
1
60
0
100
AcDbEllipse
10
26.440028
20
5.747574
30
0
11
-0.635362157615601
21
-0.640950655820955
31
0
210
0
220
0
230
1
40
0.431284
41
1.02048371602342
42
1.63083669177844
0
ELLIPSE
5
286
100
AcDbEntity
8
1
62
256
6
ByLayer
370
-1
48
1
60
0
100
AcDbEllipse
10
28.052198
20
13.393883
30
0
11
-5.66886443276854
21
0.526740879089583
31
0
210
0
220
0
230
1
40
0.98468
41
-2.03806103249519
42
-1.47955567185701
0
ELLIPSE
5
287
100
AcDbEntity
8
1
62
256
6
ByLayer
370
-1
48
1
60
0
100
AcDbEllipse
10
28.03669
20
13.226975
30
0
11
-6.4453529647957
21
0.598890823194564
31
0
210
0
220
0
230
1
40
0.98468
41
-2.03806103249519
42
-1.47955567185701
0
ELLIPSE
5
288
100
AcDbEntity
8
1
62
256
6
ByLayer
370
-1
48
1
60
0
100
AcDbEllipse
10
28.186866
20
8.052069
30
0
11
-0.00459595494180028
21
0.204948474495842
31
0
210
0
220
0
230
1
40
0.020329
41
-1.39669791569082
42
-0.0877009766945272
0
ELLIPSE
5
289
100
AcDbEntity
8
1
62
256
6
ByLayer
370
-1
48
1
60
0
100
AcDbEllipse
10
35.980599
20
14.789861
30
0
11
-0.000816286282958807
21
-0.308910005602406
31
0
210
0
220
0
230
1
40
0.015443
41
-1.40132846465116
42
-1.0876699578723
0
ELLIPSE
5
28A
100
AcDbEntity
8
1
62
256
6
ByLayer
370
-1
48
1
60
0
100
AcDbEllipse
10
28.039292
20
13.254983
30
0
11
4.74007059216747
21
-0.440438994489343
31
0
210
0
220
0
230
1
40
0.98468
41
0
42
6.28318530717959
0
ELLIPSE
5
28B
100
AcDbEntity
8
1
62
256
6
ByLayer
370
-1
48
1
60
0
100
AcDbEllipse
10
24.444976
20
20.291555
30
0
11
-1.29783756375381
21
-0.740579148736321
31
0
210
0
220
0
230
1
40
0.071767
41
0.56062056691524
42
1.52055165544265
0
ELLIPSE
5
28C
100
AcDbEntity
8
1
62
256
6
ByLayer
370
-1
48
1
60
0
100
AcDbEllipse
10
35.980097
20
20.669804
30
0
11
0.00210136247083748
21
0.749997056178068
31
0
210
0
220
0
230
1
40
0.015888
41
1.57081858571504
42
1.74535151091462
0
ELLIPSE
5
28D
100
AcDbEntity
8
1
62
256
6
ByLayer
370
-1
48
1
60
0
100
AcDbEllipse
10
22.524421
20
16.776039
30
0
11
0.14657675769612
21
0.143318715118762
31
0
210
0
220
0
230
1
40
0.113875
41
0.739350500262024
42
1.43748220105982
0
ELLIPSE
5
28E
100
AcDbEntity
8
1
62
256
6
ByLayer
370
-1
48
1
60
0
100
AcDbEllipse
10
27.298639
20
12.618013
30
0
11
-4.93554796186067
21
1.97094775498533
31
0
210
0
220
0
230
1
40
0.858395
41
-0.506114102585409
42
-0.400331656628222
0
ELLIPSE
5
28F
100
AcDbEntity
8
1
62
256
6
ByLayer
370
-1
48
1
60
0
100
AcDbEllipse
10
22.379284
20
18.480592
30
0
11
-0.354788686973124
21
0.659493925622193
31
0
210
0
220
0
230
1
40
0.301251
41
0.896580444404676
42
1.5947121452079
0
ELLIPSE
5
290
100
AcDbEntity
8
1
62
256
6
ByLayer
370
-1
48
1
60
0
100
AcDbEllipse
10
17.577255
20
16.405447
30
0
11
-0.647302184721977
21
-0.378813782291718
31
0
210
0
220
0
230
1
40
0.14244
41
1.29446811853642
42
1.46900104373586
0
ELLIPSE
5
291
100
AcDbEntity
8
1
62
256
6
ByLayer
370
-1
48
1
60
0
100
AcDbEllipse
10
23.008489
20
19.077292
30
0
11
-0.691716048827246
21
0.340191827962804
31
0
210
0
220
0
230
1
40
0.213498
41
-1.59197389542221
42
-1.20750070313331
0
ELLIPSE
5
292
100
AcDbEntity
8
1
62
256
6
ByLayer
370
-1
48
1
60
0
100
AcDbEllipse
10
20.963198
20
7.32501
30
0
11
-0.732333643062997
21
0.330478801012451
31
0
210
0
220
0
230
1
40
0.958663
41
-1.68466701467959
42
-1.66595390143334
0
ELLIPSE
5
293
100
AcDbEntity
8
1
62
256
6
ByLayer
370
-1
48
1
60
0
100
AcDbEllipse
10
28.052198
20
13.393883
30
0
11
5.36633629562374
21
-0.498630498465935
31
0
210
0
220
0
230
1
40
0.98468
41
-1.45394868432211
42
0.0307270823631085
0
ELLIPSE
5
294
100
AcDbEntity
8
1
62
256
6
ByLayer
370
-1
48
1
60
0
100
AcDbEllipse
10
29.044609
20
13.041882
30
0
11
-4.88342449444609
21
-2.67642076050256
31
0
210
0
220
0
230
1
40
0.856476
41
0.83303927102813
42
0.938821716731905
0
ELLIPSE
5
295
100
AcDbEntity
8
1
62
256
6
ByLayer
370
-1
48
1
60
0
100
AcDbEllipse
10
23.010803
20
19.303866
30
0
11
-0.853068117462674
21
0.140893543044368
31
0
210
0
220
0
230
1
40
0.290164
41
-1.75898517833869
42
-1.71412048305171
0
ELLIPSE
5
296
100
AcDbEntity
8
1
62
256
6
ByLayer
370
-1
48
1
60
0
100
AcDbEllipse
10
23.314639
20
15.906782
30
0
11
0.179406521837542
21
-0.0991882045515278
31
0
210
0
220
0
230
1
40
0.160147
41
0.331745418743652
42
1.64074235773941
0
ELLIPSE
5
297
100
AcDbEntity
8
1
62
256
6
ByLayer
370
-1
48
1
60
0
100
AcDbEllipse
10
23.315381
20
15.967097
30
0
11
-0.14657675769612
21
-0.143318715118762
31
0
210
0
220
0
230
1
40
0.113875
41
-2.40224215332756
42
-1.70411045252991
0
ELLIPSE
5
298
100
AcDbEntity
8
1
62
256
6
ByLayer
370
-1
48
1
60
0
100
AcDbEllipse
10
35.922055
20
15.570204
30
0
11
0.131467261340497
21
0.212641386365941
31
0
210
0
220
0
230
1
40
0.078546
41
1.02961249522544
42
1.41399075679057
0
ELLIPSE
5
299
100
AcDbEntity
8
1
62
256
6
ByLayer
370
-1
48
1
60
0
100
AcDbEllipse
10
24.890705
20
18.919828
30
0
11
-0.00482213404499018
21
-0.251842604885993
31
0
210
0
220
0
230
1
40
0.787717
41
-2.81904538128783
42
-1.32193479555093
0
ELLIPSE
5
29A
100
AcDbEntity
8
1
62
256
6
ByLayer
370
-1
48
1
60
0
100
AcDbEllipse
10
21.133454
20
18.417726
30
0
11
-0.764012980229151
21
-0.442903857884521
31
0
210
0
220
0
230
1
40
0.121145
41
1.48488393572496
42
2.44481502431743
0
ELLIPSE
5
29B
100
AcDbEntity
8
1
62
256
6
ByLayer
370
-1
48
1
60
0
100
AcDbEllipse
10
22.000603
20
18.823051
30
0
11
-0.254670993497125
21
-0.147634619341915
31
0
210
0
220
0
230
1
40
0.121145
41
-1.65670871774894
42
-1.27233045631426
0
ELLIPSE
5
29C
100
AcDbEntity
8
1
62
256
6
ByLayer
370
-1
48
1
60
0
100
AcDbEllipse
10
25.500771
20
6.14084
30
0
11
-0.00279885695336423
21
-0.808517612686075
31
0
210
0
220
0
230
1
40
0.257569
41
-1.50550319801465
42
-1.12103000576479
0
ELLIPSE
5
29D
100
AcDbEntity
8
1
62
256
6
ByLayer
370
-1
48
1
60
0
100
AcDbEllipse
10
35.76852
20
14.308051
30
0
11
0.160210470116243
21
-0.191918225463692
31
0
210
0
220
0
230
1
40
0.494825
41
0.802088621809002
42
2.29919920774636
0
ELLIPSE
5
29E
100
AcDbEntity
8
1
62
256
6
ByLayer
370
-1
48
1
60
0
100
AcDbEllipse
10
31.798934
20
19.210355
30
0
11
0.394401784021491
21
0.637924159097824
31
0
210
0
220
0
230
1
40
0.078546
41
-2.68753298539615
42
-1.72760189679927
0
ELLIPSE
5
29F
100
AcDbEntity
8
1
62
256
6
ByLayer
370
-1
48
1
60
0
100
AcDbEllipse
10
28.04363
20
20.281472
30
0
11
0.00210136247083748
21
0.749997056178067
31
0
210
0
220
0
230
1
40
0.015888
41
1.74535151091443
42
2.70528259951107
0
ELLIPSE
5
2A0
100
AcDbEntity
8
1
62
256
6
ByLayer
370
-1
48
1
60
0
100
AcDbEllipse
10
28.048891
20
18.96508
30
0
11
-0.000574372408695557
21
-0.204999195355338
31
0
210
0
220
0
230
1
40
0.015888
41
1.74535151091454
42
2.70528259951195
0
ELLIPSE
5
2A1
100
AcDbEntity
8
1
62
256
6
ByLayer
370
-1
48
1
60
0
100
AcDbEllipse
10
33.192814
20
13.682746
30
0
11
0.139525989214053
21
0.207442759174284
31
0
210
0
220
0
230
1
40
0.637119
41
0.999756621440817
42
1.90456913913972
0
ELLIPSE
5
2A2
100
AcDbEntity
8
1
62
256
6
ByLayer
370
-1
48
1
60
0
100
AcDbEllipse
10
33.334159
20
13.500183
30
0
11
0.235730374033047
21
0.0832537732372521
31
0
210
0
220
0
230
1
40
0.757588
41
1.45652212962102
42
2.7015446792989
0
ELLIPSE
5
2A3
100
AcDbEntity
8
1
62
256
6
ByLayer
370
-1
48
1
60
0
100
AcDbEllipse
10
32.831272
20
15.488178
30
0
11
0.246031647745091
21
0.0443669731651307
31
0
210
0
220
0
230
1
40
0.505399
41
-2.73603306918558
42
-1.4910105195077
0
ELLIPSE
5
2A4
100
AcDbEntity
8
1
62
256
6
ByLayer
370
-1
48
1
60
0
100
AcDbEllipse
10
34.564411
20
13.3419
30
0
11
0.0483631120923273
21
-0.199213476925496
31
0
210
0
220
0
230
1
40
0.057425
41
1.73647181185627
42
2.43460351265351
0
ELLIPSE
5
2A5
100
AcDbEntity
8
1
62
256
6
ByLayer
370
-1
48
1
60
0
100
AcDbEllipse
10
25.64168
20
18.113608
30
0
11
-0.0900507153482908
21
0.184162614732907
31
0
210
0
220
0
230
1
40
0.091785
41
-2.73034708751115
42
-1.42135014851523
0
ELLIPSE
5
2A6
100
AcDbEntity
8
1
62
256
6
ByLayer
370
-1
48
1
60
0
100
AcDbEllipse
10
35.411526
20
15.539603
30
0
11
-0.78108730054631
21
0.0762260184912078
31
0
210
0
220
0
230
1
40
0.205791
41
-2.26972975915014
42
-1.57159805834264
0
ELLIPSE
5
2A7
100
AcDbEntity
8
1
62
256
6
ByLayer
370
-1
48
1
60
0
100
AcDbEllipse
10
20.961388
20
13.565101
30
0
11
-0.749528957702837
21
0.0265770872162318
31
0
210
0
220
0
230
1
40
0.174097
41
1.56082592788161
42
2.52075701647849
0
ELLIPSE
5
2A8
100
AcDbEntity
8
1
62
256
6
ByLayer
370
-1
48
1
60
0
100
AcDbEllipse
10
25.580451
20
18.115153
30
0
11
-0.14657675769612
21
-0.143318715118762
31
0
210
0
220
0
230
1
40
0.113875
41
-1.70411045252999
42
-1.00597875173202
0
ELLIPSE
5
2A9
100
AcDbEntity
8
1
62
256
6
ByLayer
370
-1
48
1
60
0
100
AcDbEllipse
10
28.793277
20
14.035437
30
0
11
-2.90522470868935
21
-5.18785360687549
31
0
210
0
220
0
230
1
40
0.859678
41
-1.89428276569285
42
-1.78850031987693
0
ELLIPSE
5
2AA
100
AcDbEntity
8
1
62
256
6
ByLayer
370
-1
48
1
60
0
100
AcDbEllipse
10
26.341585
20
5.901016
30
0
11
-0.420050585010457
21
-0.689311496509155
31
0
210
0
220
0
230
1
40
0.274345
41
0.810611800607267
42
1.50874350139444
0
ELLIPSE
5
2AB
100
AcDbEntity
8
1
62
256
6
ByLayer
370
-1
48
1
60
0
100
AcDbEllipse
10
28.050788
20
13.378705
30
0
11
5.83607034209093
21
-0.542277357110886
31
0
210
0
220
0
230
1
40
0.98468
41
1.1035316210946
42
1.66203698173279
0
ELLIPSE
5
2AC
100
AcDbEntity
8
1
62
256
6
ByLayer
370
-1
48
1
60
0
100
AcDbEllipse
10
28.049747
20
13.367502
30
0
11
-5.1691708154804
21
0.480310229994441
31
0
210
0
220
0
230
1
40
0.98468
41
-2.5011462355187
42
-1.01647046883349
0
ELLIPSE
5
2AD
100
AcDbEntity
8
1
62
256
6
ByLayer
370
-1
48
1
60
0
100
AcDbEllipse
10
28.041743
20
13.281364
30
0
11
-5.03680715777008
21
0.468011232505839
31
0
210
0
220
0
230
1
40
0.98468
41
-0.514199682042751
42
1.18537318247695
0
ELLIPSE
5
2AE
100
AcDbEntity
8
1
62
256
6
ByLayer
370
-1
48
1
60
0
100
AcDbEllipse
10
28.052198
20
13.393883
30
0
11
5.36633629562374
21
-0.498630498465935
31
0
210
0
220
0
230
1
40
0.98468
41
0.640446418071091
42
2.1251221847563
0
ELLIPSE
5
2AF
100
AcDbEntity
8
1
62
256
6
ByLayer
370
-1
48
1
60
0
100
AcDbEllipse
10
25.166978
20
20.700101
30
0
11
-1.29783756587052
21
-0.740579149927222
31
0
210
0
220
0
230
1
40
0.071767
41
1.52055165566137
42
1.69508458057808
0
ELLIPSE
5
2B0
100
AcDbEntity
8
1
62
256
6
ByLayer
370
-1
48
1
60
0
100
AcDbEllipse
10
30.573537
20
2.829746
30
0
11
0.646758659952271
21
-0.379741011449573
31
0
210
0
220
0
230
1
40
0.158328
41
-1.49673048539056
42
-1.32219756019113
0
ELLIPSE
5
2B1
100
AcDbEntity
8
1
62
256
6
ByLayer
370
-1
48
1
60
0
100
AcDbEllipse
10
36.772325
20
10.118744
30
0
11
-0.767632930711656
21
-0.241315517584842
31
0
210
0
220
0
230
1
40
0.960547
41
-0.291835492231343
42
-0.273122355893113
0
ELLIPSE
5
2B2
100
AcDbEntity
8
1
62
256
6
ByLayer
370
-1
48
1
60
0
100
AcDbEllipse
10
35.980097
20
16.625317
30
0
11
-0.00178952632455732
21
-0.880629035492974
31
0
210
0
220
0
230
1
40
0.013589
41
-1.42235381219961
42
-0.46242272363333
0
ELLIPSE
5
2B3
100
AcDbEntity
8
1
62
256
6
ByLayer
370
-1
48
1
60
0
100
AcDbEllipse
10
34.587974
20
13.281797
30
0
11
0.176780700386954
21
-0.103795876462883
31
0
210
0
220
0
230
1
40
0.158328
41
0.684931079602257
42
1.64486216819924
0
ELLIPSE
5
2B4
100
AcDbEntity
8
1
62
256
6
ByLayer
370
-1
48
1
60
0
100
AcDbEllipse
10
33.427779
20
13.022235
30
0
11
0.204613104644689
21
-0.0125887810236502
31
0
210
0
220
0
230
1
40
0.174291
41
1.56535588426592
42
2.87435282326171
0
ELLIPSE
5
2B5
100
AcDbEntity
8
1
62
256
6
ByLayer
370
-1
48
1
60
0
100
AcDbEllipse
10
25.399225
20
5.792323
30
0
11
-0.266690243041057
21
0.15633465796331
31
0
210
0
220
0
230
1
40
0.153674
41
1.3289036118189
42
1.64256212035233
0
ELLIPSE
5
2B6
100
AcDbEntity
8
1
62
256
6
ByLayer
370
-1
48
1
60
0
100
AcDbEllipse
10
25.106621
20
8.886031
30
0
11
0.196815757791568
21
-0.0573459456712574
31
0
210
0
220
0
230
1
40
0.171301
41
0.90575113963488
42
1.6038828404326
0
POINT
5
41
100
AcDbEntity
8
80
62
256
6
ByLayer
370
-1
48
1
60
0
100
AcDbPoint
10
0
20
0
30
0
39
0
210
0
220
0
230
1
50
360
0
POINT
5
43
100
AcDbEntity
8
81
62
256
6
ByLayer
370
-1
48
1
60
0
100
AcDbPoint
10
36
20
26.875
30
0
39
0
210
0
220
0
230
1
50
360
0
POINT
5
45
100
AcDbEntity
8
2
62
256
6
ByLayer
370
-1
48
1
60
0
100
AcDbPoint
10
36
20
26.875
30
0
39
0
210
0
220
0
230
1
50
360
0
SPLINE
5
2B7
100
AcDbEntity
8
1
62
256
6
ByLayer
370
-1
48
1
60
0
100
AcDbSpline
70
4
71
3
72
14
73
10
40
0
40
0
40
0
40
0
40
0.0339153520812502
40
0.23583605234242
40
0.433457014814547
40
0.626342144059226
40
0.813934558119025
40
0.995517356756606
40
1
40
1
40
1
40
1
41
1
10
34.9037233129344
20
-1.81988770953005
30
0
41
1
10
34.9240395798035
20
-1.79830562971343
30
0
41
1
10
35.0644664636172
20
-1.64743090153958
30
0
41
1
10
35.3146223776497
20
-1.36351922073752
30
0
41
1
10
35.6245566532078
20
-0.948917384176227
30
0
41
1
10
35.8991234275282
20
-0.524969638093154
30
0
41
1
10
36.1332474245423
20
-0.0938220059471178
30
0
41
1
10
36.2777668173031
20
0.199323763147874
30
0
41
1
10
36.3366410376914
20
0.350649755489186
30
0
41
1
10
36.3380547753888
20
0.354297505527072
30
0
0
SPLINE
5
2B8
100
AcDbEntity
8
1
62
256
6
ByLayer
370
-1
48
1
60
0
100
AcDbSpline
70
4
71
3
72
12
73
8
40
0
40
0
40
0
40
0
40
0.152400686523901
40
0.394326235714976
40
0.641376047768788
40
0.891888014731851
40
1
40
1
40
1
40
1
41
1
10
36.2175869150005
20
5.54256984191784
30
0
41
1
10
36.1684444763754
20
5.64642169143144
30
0
41
1
10
36.0311413844088
20
5.91058758321267
30
0
41
1
10
35.7886474857109
20
6.32900957286387
30
0
41
1
10
35.4704159157524
20
6.78765986291572
30
0
41
1
10
35.1808291936371
20
7.1409270774128
30
0
41
1
10
34.999442061825
20
7.34180892168266
30
0
41
1
10
34.9436060086511
20
7.40124555450016
30
0
0
SPLINE
5
2B9
100
AcDbEntity
8
1
62
256
6
ByLayer
370
-1
48
1
60
0
100
AcDbSpline
70
4
71
3
72
8
73
4
40
0
40
0
40
0
40
0
40
1
40
1
40
1
40
1
41
1
10
0.394519052838177
20
5.63341609185615
30
0
41
1
10
0.219335928576925
20
4.68093075615455
30
0
41
1
10
0.0872579573579912
20
3.72639634083311
30
0
41
1
10
0
20
2.7697313269525
30
0
0
SPLINE
5
2BA
100
AcDbEntity
8
1
62
256
6
ByLayer
370
-1
48
1
60
0
100
AcDbSpline
70
4
71
3
72
8
73
4
40
0
40
0
40
0
40
0
40
1
40
1
40
1
40
1
41
1
10
0.394519052838319
20
19.6986154928503
30
0
41
1
10
0.262787655213145
20
19.5632833936142
30
0
41
1
10
0.131276854193146
20
19.4276643880555
30
0
41
1
10
0
20
19.2917446495518
30
0
0
SPLINE
5
2BB
100
AcDbEntity
8
1
62
256
6
ByLayer
370
-1
48
1
60
0
100
AcDbSpline
70
4
71
3
72
8
73
4
40
0
40
0
40
0
40
0
40
1
40
1
40
1
40
1
41
1
10
0
20
19.1454018402203
30
0
41
1
10
0.131209869747579
20
19.2882257956237
30
0
41
1
10
0.262722134736862
20
19.4306801575146
30
0
41
1
10
0.394519052838319
20
19.572781595349
30
0
0
SPLINE
5
2BC
100
AcDbEntity
8
1
62
256
6
ByLayer
370
-1
48
1
60
0
100
AcDbSpline
70
4
71
3
72
8
73
4
40
0
40
0
40
0
40
0
40
1
40
1
40
1
40
1
41
1
10
0.394519052838319
20
18.5807377979135
30
0
41
1
10
0.262973667389161
20
18.4681221179633
30
0
41
1
10
0.131466595340072
20
18.355446739373
30
0
41
1
10
0
20
18.2427084508718
30
0
0
SPLINE
5
2BD
100
AcDbEntity
8
1
62
256
6
ByLayer
370
-1
48
1
60
0
100
AcDbSpline
70
4
71
3
72
8
73
4
40
0
40
0
40
0
40
0
40
1
40
1
40
1
40
1
41
1
10
0.394519052838319
20
-18.9660336777981
30
0
41
1
10
0.262536668669412
20
-18.8071267308867
30
0
41
1
10
0.131019951491623
20
-18.6477021421703
30
0
41
1
10
0
20
-18.4877367901945
30
0
0
SPLINE
5
2BE
100
AcDbEntity
8
1
62
256
6
ByLayer
370
-1
48
1
60
0
100
AcDbSpline
70
4
71
3
72
8
73
4
40
0
40
0
40
0
40
0
40
1
40
1
40
1
40
1
41
1
10
0.394519052838319
20
17.2228674449602
30
0
41
1
10
0.263005974523594
20
17.1146287218544
30
0
41
1
10
0.131499494301977
20
17.0063793087006
30
0
41
1
10
0
20
16.8981185823602
30
0
0
SPLINE
5
2BF
100
AcDbEntity
8
1
62
256
6
ByLayer
370
-1
48
1
60
0
100
AcDbSpline
70
4
71
3
72
8
73
4
40
0
40
0
40
0
40
0
40
1
40
1
40
1
40
1
41
1
10
0.394519052838319
20
-13.4744348947103
30
0
41
1
10
0.260243397498556
20
-13.1950971379547
30
0
41
1
10
0.128658059895059
20
-12.914009186291
30
0
41
1
10
0
20
-12.6311682604383
30
0
0
SPLINE
5
2C0
100
AcDbEntity
8
1
62
256
6
ByLayer
370
-1
48
1
60
0
100
AcDbSpline
70
4
71
3
72
8
73
4
40
0
40
0
40
0
40
0
40
1
40
1
40
1
40
1
41
1
10
0
20
15.4368523871774
30
0
41
1
10
0.130093023525688
20
15.6562708260424
30
0
41
1
10
0.261634896238689
20
15.87455214455
30
0
41
1
10
0.394519052838319
20
16.0917289824197
30
0
0
SPLINE
5
2C1
100
AcDbEntity
8
1
62
256
6
ByLayer
370
-1
48
1
60
0
100
AcDbSpline
70
4
71
3
72
18
73
14
40
0
40
0
40
0
40
0
40
0.424992420801018
40
0.424992420801018
40
0.593754962831927
40
0.593754962831927
40
0.763986775462966
40
0.763986775462966
40
0.861690444877605
40
0.861690444877605
40
0.960953447679618
40
0.960953447679618
40
1
40
1
40
1
40
1
41
1
10
5.49999999999974
20
9.86103442849685
30
0
41
1
10
5.49999999999974
20
9.97809228112732
30
0
41
1
10
5.51580300274355
20
10.0961137699805
30
0
41
1
10
5.56929089316779
20
10.251494642647
30
0
41
1
10
5.58839695862608
20
10.2951050002849
30
0
41
1
10
5.63670123583751
20
10.3778273961336
30
0
41
1
10
5.66633335648501
20
10.417650775704
30
0
41
1
10
5.72425744632352
20
10.4711018585615
30
0
41
1
10
5.74816657977047
20
10.4889037068077
30
0
41
1
10
5.80125236203685
20
10.5173071164489
30
0
41
1
10
5.83136280563531
20
10.5280603564696
30
0
41
1
10
5.87476053636371
20
10.5346811183149
30
0
41
1
10
5.88740404777587
20
10.5356537528529
30
0
41
1
10
5.89999999999984
20
10.5356537528529
30
0
0
SPLINE
5
2C2
100
AcDbEntity
8
1
62
256
6
ByLayer
370
-1
48
1
60
0
100
AcDbSpline
70
4
71
3
72
22
73
18
40
0
40
0
40
0
40
0
40
0.351301322823231
40
0.351301322823231
40
0.506290471394933
40
0.506290471394933
40
0.663569563285859
40
0.663569563285859
40
0.739975199861312
40
0.739975199861312
40
0.817498860684146
40
0.817498860684146
40
0.884677341401526
40
0.884677341401526
40
0.963787750922993
40
0.963787750922993
40
1
40
1
40
1
40
1
41
1
10
0.394519052838319
20
-14.9165032325849
30
0
41
1
10
0.421036976549772
20
-14.9647964634411
30
0
41
1
10
0.443796445492609
20
-15.0140037525999
30
0
41
1
10
0.466679802974255
20
-15.0807387099843
30
0
41
1
10
0.472404510967948
20
-15.1009185887
30
0
41
1
10
0.479461036308123
20
-15.1386884811075
30
0
41
1
10
0.480861308008002
20
-15.1567939747942
30
0
41
1
10
0.47658660043308
20
-15.1778069837906
30
0
41
1
10
0.474085570149583
20
-15.1838321663816
30
0
41
1
10
0.466333078762574
20
-15.1925121026632
30
0
41
1
10
0.460879153437105
20
-15.1951770838996
30
0
41
1
10
0.448406109843859
20
-15.1957912136961
30
0
41
1
10
0.441538852840239
20
-15.1943275465581
30
0
41
1
10
0.42576002470264
20
-15.1879859643433
30
0
41
1
10
0.416484212419618
20
-15.1825101074222
30
0
41
1
10
0.403041879497863
20
-15.1728856548443
30
0
41
1
10
0.398769950515288
20
-15.169584945857
30
0
41
1
10
0.394519052838319
20
-15.1660973535886
30
0
0
SPLINE
5
2C3
100
AcDbEntity
8
1
62
256
6
ByLayer
370
-1
48
1
60
0
100
AcDbSpline
70
4
71
3
72
8
73
4
40
0
40
0
40
0
40
0
40
1
40
1
40
1
40
1
41
1
10
10.1111574100528
20
-17.8750975246866
30
0
41
1
10
10.0553467913302
20
-17.8075430495368
30
0
41
1
10
10.0279075812427
20
-17.7324093886269
30
0
41
1
10
10.0305241749098
20
-17.6569865123702
30
0
0
SPLINE
5
2C4
100
AcDbEntity
8
1
62
256
6
ByLayer
370
-1
48
1
60
0
100
AcDbSpline
70
4
71
3
72
8
73
4
40
0
40
0
40
0
40
0
40
1
40
1
40
1
40
1
41
1
10
0.394519052838319
20
-13.7823140979466
30
0
41
1
10
0.262981795084329
20
-13.6718261138648
30
0
41
1
10
0.131474683017728
20
-13.5612902597836
30
0
41
1
10
0
20
-13.4507030159581
30
0
0
SPLINE
5
2C5
100
AcDbEntity
8
1
62
256
6
ByLayer
370
-1
48
1
60
0
100
AcDbSpline
70
4
71
3
72
8
73
4
40
0
40
0
40
0
40
0
40
1
40
1
40
1
40
1
41
1
10
10.883898071084
20
20.5405277570221
30
0
41
1
10
10.9442863515042
20
20.7706703750774
30
0
41
1
10
11.0051853628576
20
21.0019697115459
30
0
41
1
10
11.0664595716099
20
21.2341050841221
30
0
0
SPLINE
5
2C6
100
AcDbEntity
8
1
62
256
6
ByLayer
370
-1
48
1
60
0
100
AcDbSpline
70
4
71
3
72
22
73
18
40
0
40
0
40
0
40
0
40
0.210679055338583
40
0.210679055338583
40
0.363680104554599
40
0.363680104554599
40
0.483752370949913
40
0.483752370949913
40
0.584755677908312
40
0.584755677908312
40
0.686031728860165
40
0.686031728860165
40
0.783963016705266
40
0.783963016705266
40
0.925663641799724
40
0.925663641799724
40
1
40
1
40
1
40
1
41
1
10
0.394519052838319
20
-19.3300829388625
30
0
41
1
10
0.41212255554322
20
-19.3500897407437
30
0
41
1
10
0.428689458905126
20
-19.3697530532802
30
0
41
1
10
0.452747829989875
20
-19.4003036933854
30
0
41
1
10
0.461670979408723
20
-19.4123729195888
30
0
41
1
10
0.473329490273528
20
-19.4302053177714
30
0
41
1
10
0.477060936996025
20
-19.4369094135752
30
0
41
1
10
0.479978213610366
20
-19.4454329106482
30
0
41
1
10
0.479791197946895
20
-19.4479190748962
30
0
41
1
10
0.476020455554163
20
-19.4492899825392
30
0
41
1
10
0.47237148480508
20
-19.4481745515556
30
0
41
1
10
0.462507422169551
20
-19.4428112994535
30
0
41
1
10
0.456287111711788
20
-19.4386294607178
30
0
41
1
10
0.439226967436724
20
-19.4259033781917
30
0
41
1
10
0.427315544760319
20
-19.4160814831809
30
0
41
1
10
0.408261527110284
20
-19.3995028932816
30
0
41
1
10
0.401442717627674
20
-19.393420626065
30
0
41
1
10
0.394519052838319
20
-19.3871212716832
30
0
0
SPLINE
5
2C7
100
AcDbEntity
8
1
62
256
6
ByLayer
370
-1
48
1
60
0
100
AcDbSpline
70
4
71
3
72
8
73
4
40
0
40
0
40
0
40
0
40
1
40
1
40
1
40
1
41
1
10
0.394519052838319
20
11.6669928763094
30
0
41
1
10
0.258588067896966
20
11.3303132235976
30
0
41
1
10
0.126948364210165
20
10.9912722816142
30
0
41
1
10
0
20
10.6499489023893
30
0
0
SPLINE
5
2C8
100
AcDbEntity
8
1
62
256
6
ByLayer
370
-1
48
1
60
0
100
AcDbSpline
70
4
71
3
72
22
73
18
40
0
40
0
40
0
40
0
40
0.050362724612077
40
0.050362724612077
40
0.101958745990659
40
0.101958745990659
40
0.149530474122574
40
0.149530474122574
40
0.191258249392857
40
0.191258249392857
40
0.262670051298846
40
0.262670051298846
40
0.394492315498876
40
0.394492315498876
40
0.682048144163198
40
0.682048144163198
40
1
40
1
40
1
40
1
41
1
10
0.394519052838319
20
12.0579374210678
30
0
41
1
10
0.401427601053285
20
12.0640741157459
30
0
41
1
10
0.408587323029366
20
12.0695901747023
30
0
41
1
10
0.422949084269305
20
12.0782128396388
30
0
41
1
10
0.430334711529781
20
12.0813208938064
30
0
41
1
10
0.443277358798383
20
12.0834788474439
30
0
41
1
10
0.449089877611812
20
12.0828231034782
30
0
41
1
10
0.458223885746179
20
12.0787096230535
30
0
41
1
10
0.46188520740867
20
12.0755949201753
30
0
41
1
10
0.469999357388019
20
12.0651611408931
30
0
41
1
10
0.47339040326159
20
12.0563281186121
30
0
41
1
10
0.479702919706199
20
12.0289547573174
30
0
41
1
10
0.480165060578685
20
12.0080137289938
30
0
41
1
10
0.476311579427602
20
11.9398802480501
30
0
41
1
10
0.46582765248047
20
11.8888440824657
30
0
41
1
10
0.437121316899862
20
11.7815626979047
30
0
41
1
10
0.417521665847232
20
11.7239667278757
30
0
41
1
10
0.394519052838319
20
11.6669928763094
30
0
0
SPLINE
5
2C9
100
AcDbEntity
8
1
62
256
6
ByLayer
370
-1
48
1
60
0
100
AcDbSpline
70
4
71
3
72
8
73
4
40
0
40
0
40
0
40
0
40
1
40
1
40
1
40
1
41
1
10
0
20
-18.2427084508718
30
0
41
1
10
0.131466595340072
20
-18.355446739373
30
0
41
1
10
0.262973667389161
20
-18.4681221179633
30
0
41
1
10
0.394519052838348
20
-18.5807377979135
30
0
0
SPLINE
5
2CA
100
AcDbEntity
8
1
62
256
6
ByLayer
370
-1
48
1
60
0
100
AcDbSpline
70
4
71
3
72
8
73
4
40
0
40
0
40
0
40
0
40
1
40
1
40
1
40
1
41
1
10
0
20
-17.9630568563235
30
0
41
1
10
0.130882435689898
20
-18.1338318440795
30
0
41
1
10
0.262402589278366
20
-18.3039576866996
30
0
41
1
10
0.394519052838319
20
-18.4734609781557
30
0
0
SPLINE
5
2CB
100
AcDbEntity
8
1
62
256
6
ByLayer
370
-1
48
1
60
0
100
AcDbSpline
70
4
71
3
72
8
73
4
40
0
40
0
40
0
40
0
40
1
40
1
40
1
40
1
41
1
10
0.394519052838319
20
-16.0917289824197
30
0
41
1
10
0.261634896238689
20
-15.87455214455
30
0
41
1
10
0.130093023525688
20
-15.6562708260424
30
0
41
1
10
0
20
-15.4368523871774
30
0
0
SPLINE
5
2CC
100
AcDbEntity
8
1
62
256
6
ByLayer
370
-1
48
1
60
0
100
AcDbSpline
70
4
71
3
72
8
73
4
40
0
40
0
40
0
40
0
40
1
40
1
40
1
40
1
41
1
10
0
20
-19.3208801979494
30
0
41
1
10
0.131331144961194
20
-19.4507644040705
30
0
41
1
10
0.262840810877805
20
-19.5804082781262
30
0
41
1
10
0.394519052838319
20
-19.709823065951
30
0
0
SPLINE
5
2CD
100
AcDbEntity
8
1
62
256
6
ByLayer
370
-1
48
1
60
0
100
AcDbSpline
70
4
71
3
72
22
73
18
40
0
40
0
40
0
40
0
40
0.53574482092229
40
0.53574482092229
40
0.671525719845895
40
0.671525719845895
40
0.766764426725178
40
0.766764426725178
40
0.822586602375154
40
0.822586602375154
40
0.867754001564155
40
0.867754001564155
40
0.913239534006522
40
0.913239534006522
40
0.954758253342654
40
0.954758253342654
40
1
40
1
40
1
40
1
41
1
10
0.394519052838319
20
-11.6669928763094
30
0
41
1
10
0.432906177974388
20
-11.7620717427282
30
0
41
1
10
0.463648435070809
20
-11.8607052207651
30
0
41
1
10
0.478513433997648
20
-11.9735896599641
30
0
41
1
10
0.480198002212404
20
-11.9963547519699
30
0
41
1
10
0.478624083718103
20
-12.0320012500984
30
0
41
1
10
0.476679536000717
20
-12.0460484738573
30
0
41
1
10
0.469846607008662
20
-12.064548930504
30
0
41
1
10
0.466427345558429
20
-12.0706486747575
30
0
41
1
10
0.458218064288644
20
-12.0787344319002
30
0
41
1
10
0.453711141939948
20
-12.0813193677053
30
0
41
1
10
0.443363993756549
20
-12.0834355779887
30
0
41
1
10
0.437371304633132
20
-12.0829466385884
30
0
41
1
10
0.425491111788489
20
-12.0792684574248
30
0
41
1
10
0.41951589987309
20
-12.0763093170355
30
0
41
1
10
0.407198551956697
20
-12.0685130160287
30
0
41
1
10
0.40076114853639
20
-12.0634821222494
30
0
41
1
10
0.394519052838319
20
-12.0579374210678
30
0
0
SPLINE
5
2CE
100
AcDbEntity
8
1
62
256
6
ByLayer
370
-1
48
1
60
0
100
AcDbSpline
70
4
71
3
72
20
73
16
40
0
40
0
40
0
40
0
40
0.215744483256851
40
0.215744483256851
40
0.338701570710834
40
0.338701570710834
40
0.46321575312052
40
0.46321575312052
40
0.569270963802197
40
0.569270963802197
40
0.670103706586263
40
0.670103706586263
40
0.816047342310315
40
0.816047342310315
40
1
40
1
40
1
40
1
41
1
10
0.394519052838319
20
19.709823065951
30
0
41
1
10
0.413447916421859
20
19.7284265560033
30
0
41
1
10
0.431681270373929
20
19.746189098272
30
0
41
1
10
0.454996713047819
20
19.7684752727375
30
0
41
1
10
0.462534364086139
20
19.7755666139487
30
0
41
1
10
0.473859966348044
20
19.7858740690561
30
0
41
1
10
0.477721636108981
20
19.7891444962885
30
0
41
1
10
0.480111060981045
20
19.7903895009946
30
0
41
1
10
0.479369952617446
20
19.7890875887818
30
0
41
1
10
0.474661217045394
20
19.7833182228387
30
0
41
1
10
0.470823418304946
20
19.778966626203
30
0
41
1
10
0.458879178753108
20
19.7658537966699
30
0
41
1
10
0.449480077963273
20
19.7558186596939
30
0
41
1
10
0.425776441786155
20
19.7308789605063
30
0
41
1
10
0.410488140427759
20
19.7150210740961
30
0
41
1
10
0.394519052838319
20
19.6986154928503
30
0
0
SPLINE
5
2CF
100
AcDbEntity
8
1
62
256
6
ByLayer
370
-1
48
1
60
0
100
AcDbSpline
70
4
71
3
72
8
73
4
40
0
40
0
40
0
40
0
40
1
40
1
40
1
40
1
41
1
10
0.394519052838319
20
6.54042817881556
30
0
41
1
10
0.260749519017878
20
6.35678893830105
30
0
41
1
10
0.129090328526161
20
6.1710616705907
30
0
41
1
10
0
20
5.98301024765146
30
0
0
SPLINE
5
2D0
100
AcDbEntity
8
1
62
256
6
ByLayer
370
-1
48
1
60
0
100
AcDbSpline
70
4
71
3
72
22
73
18
40
0
40
0
40
0
40
0
40
0.144598599285387
40
0.144598599285387
40
0.256699365951616
40
0.256699365951616
40
0.370082641733434
40
0.370082641733434
40
0.466657588575158
40
0.466657588575158
40
0.564068157643561
40
0.564068157643561
40
0.716572393061035
40
0.716572393061035
40
0.936945012758068
40
0.936945012758068
40
1
40
1
40
1
40
1
41
1
10
0.394519052838319
20
-19.0473658062967
30
0
41
1
10
0.408214504287599
20
-19.0594259049824
30
0
41
1
10
0.42170507190005
20
-19.0706140862987
30
0
41
1
10
0.443178844916304
20
-19.0866611502955
30
0
41
1
10
0.451905079037545
20
-19.0924990294535
30
0
41
1
10
0.466194431389738
20
-19.1001562394458
30
0
41
1
10
0.471896102067348
20
-19.1019924020467
30
0
41
1
10
0.478262752803943
20
-19.1009159444591
30
0
41
1
10
0.479637513823462
20
-19.0986636573495
30
0
41
1
10
0.479382488733819
20
-19.0913155598733
30
0
41
1
10
0.477750111527598
20
-19.0861380753486
30
0
41
1
10
0.470716771417273
20
-19.0705543545702
30
0
41
1
10
0.463652883951681
20
-19.0586284622446
30
0
41
1
10
0.442780499065123
20
-19.0272505359944
30
0
41
1
10
0.427030536295632
20
-19.0062328275241
30
0
41
1
10
0.404874748049821
20
-18.9786062440512
30
0
41
1
10
0.399756043146454
20
-18.9723390203338
30
0
41
1
10
0.394519052838319
20
-18.9660336777981
30
0
0
SPLINE
5
2D1
100
AcDbEntity
8
1
62
256
6
ByLayer
370
-1
48
1
60
0
100
AcDbSpline
70
4
71
3
72
22
73
18
40
0
40
0
40
0
40
0
40
0.0640164757347773
40
0.0640164757347773
40
0.129490059942414
40
0.129490059942414
40
0.189219450406554
40
0.189219450406554
40
0.242602336709541
40
0.242602336709541
40
0.331388955569462
40
0.331388955569462
40
0.486817486684524
40
0.486817486684524
40
0.790430254740947
40
0.790430254740947
40
1
40
1
40
1
40
1
41
1
10
0.394519052838319
20
-13.7823140979466
30
0
41
1
10
0.402512983417381
20
-13.7890287983262
30
0
41
1
10
0.410720580431388
20
-13.7950266334042
30
0
41
1
10
0.426872456875572
20
-13.8042814764771
30
0
41
1
10
0.435015052575977
20
-13.8075436869248
30
0
41
1
10
0.448826464690626
20
-13.8096421921079
30
0
41
1
10
0.454816784341915
20
-13.8088424711783
30
0
41
1
10
0.464008772165443
20
-13.8042518493918
30
0
41
1
10
0.467564322567796
20
-13.8007707114001
30
0
41
1
10
0.474882090678648
20
-13.7893208736958
30
0
41
1
10
0.477432596726487
20
-13.7797880355793
30
0
41
1
10
0.480735368288748
20
-13.7511744282264
30
0
41
1
10
0.478972478514919
20
-13.7297698329426
30
0
41
1
10
0.468276638131243
20
-13.6649789440841
30
0
41
1
10
0.453991481908133
20
-13.6183062162702
30
0
41
1
10
0.424199036825257
20
-13.5395635526583
30
0
41
1
10
0.41012229498827
20
-13.50689479706
30
0
41
1
10
0.394519052838319
20
-13.4744348947103
30
0
0
SPLINE
5
2D2
100
AcDbEntity
8
1
62
256
6
ByLayer
370
-1
48
1
60
0
100
AcDbSpline
70
4
71
3
72
8
73
4
40
0
40
0
40
0
40
0
40
1
40
1
40
1
40
1
41
1
10
0.394519052838319
20
12.0579374210678
30
0
41
1
10
0.262899137267397
20
11.9410226641193
30
0
41
1
10
0.131389411454364
20
11.8239422884521
30
0
41
1
10
0
20
11.7066823491331
30
0
0
SPLINE
5
2D3
100
AcDbEntity
8
1
62
256
6
ByLayer
370
-1
48
1
60
0
100
AcDbSpline
70
4
71
3
72
8
73
4
40
0
40
0
40
0
40
0
40
1
40
1
40
1
40
1
41
1
10
0
20
13.4507030159581
30
0
41
1
10
0.131474683017728
20
13.5612902597836
30
0
41
1
10
0.262981795084329
20
13.6718261138648
30
0
41
1
10
0.394519052838319
20
13.7823140979466
30
0
0
SPLINE
5
2D4
100
AcDbEntity
8
1
62
256
6
ByLayer
370
-1
48
1
60
0
100
AcDbSpline
70
4
71
3
72
8
73
4
40
0
40
0
40
0
40
0
40
1
40
1
40
1
40
1
41
1
10
0
20
-5.98301024765145
30
0
41
1
10
0.129090328529031
20
-6.17106167059488
30
0
41
1
10
0.260749519023733
20
-6.35678893830931
30
0
41
1
10
0.394519052847272
20
-6.54042817882781
30
0
0
SPLINE
5
2D5
100
AcDbEntity
8
1
62
256
6
ByLayer
370
-1
48
1
60
0
100
AcDbSpline
70
4
71
3
72
14
73
10
40
0
40
0
40
0
40
0
40
0.413284200124477
40
0.413284200124477
40
0.688537597963596
40
0.688537597963596
40
0.911484974820712
40
0.911484974820712
40
1
40
1
40
1
40
1
41
1
10
0.394519052838319
20
19.572781595349
30
0
41
1
10
0.412606628640191
20
19.5922833452033
30
0
41
1
10
0.429745252264695
20
19.6112969007662
30
0
41
1
10
0.453525134465821
20
19.638934682572
30
0
41
1
10
0.461939836758859
20
19.6491264635687
30
0
41
1
10
0.473193007674013
20
19.6638916471194
30
0
41
1
10
0.476866223489594
20
19.6692815379348
30
0
41
1
10
0.479160905265559
20
19.6740098461235
30
0
41
1
10
0.479492155366671
20
19.6750432160672
30
0
41
1
10
0.47949848193511
20
19.6757520388733
30
0
0
SPLINE
5
2D6
100
AcDbEntity
8
1
62
256
6
ByLayer
370
-1
48
1
60
0
100
AcDbSpline
70
4
71
3
72
16
73
12
40
0
40
0
40
0
40
0
40
0.0026771711131223
40
0.0026771711131223
40
0.245218485152195
40
0.245218485152195
40
0.493963212407515
40
0.493963212407515
40
0.878938912812994
40
0.878938912812994
40
1
40
1
40
1
40
1
41
1
10
0.477257214804467
20
19.6766728292311
30
0
41
1
10
0.477233016064474
20
19.676665078558
30
0
41
1
10
0.477208619643648
20
19.6766571196051
30
0
41
1
10
0.474943820704027
20
19.675905001888
30
0
41
1
10
0.471034762474943
20
19.6734430847121
30
0
41
1
10
0.460675177538832
20
19.6657200768778
30
0
41
1
10
0.45406687652445
20
19.6603258471678
30
0
41
1
10
0.435387209108143
20
19.6443266747826
30
0
41
1
10
0.422018173714974
20
19.632255516492
30
0
41
1
10
0.403622625873624
20
19.6151620505896
30
0
41
1
10
0.399099122832325
20
19.6109236223989
30
0
41
1
10
0.394519052838319
20
19.6066008845751
30
0
0
SPLINE
5
2D7
100
AcDbEntity
8
1
62
256
6
ByLayer
370
-1
48
1
60
0
100
AcDbSpline
70
4
71
3
72
8
73
4
40
0
40
0
40
0
40
0
40
1
40
1
40
1
40
1
41
1
10
0
20
-19.0275172217373
30
0
41
1
10
0.131412099455616
20
-19.1475229800285
30
0
41
1
10
0.26292017266897
20
-19.2673887300816
30
0
41
1
10
0.394519052838319
20
-19.3871212716832
30
0
0
SPLINE
5
2D8
100
AcDbEntity
8
1
62
256
6
ByLayer
370
-1
48
1
60
0
100
AcDbSpline
70
4
71
3
72
8
73
4
40
0
40
0
40
0
40
0
40
1
40
1
40
1
40
1
41
1
10
11.0664595716099
20
21.2341050841221
30
0
41
1
10
11.0386772267857
20
21.1570990405137
30
0
41
1
10
11.0148080492125
20
21.0801104297071
30
0
41
1
10
10.9947837768556
20
21.0031389476012
30
0
0
SPLINE
5
2D9
100
AcDbEntity
8
1
62
256
6
ByLayer
370
-1
48
1
60
0
100
AcDbSpline
70
4
71
3
72
22
73
18
40
0
40
0
40
0
40
0
40
0.158340513132241
40
0.158340513132241
40
0.276939831173065
40
0.276939831173065
40
0.397022832656943
40
0.397022832656943
40
0.498084648972833
40
0.498084648972833
40
0.597193131002474
40
0.597193131002474
40
0.746836677106019
40
0.746836677106019
40
0.959222739310269
40
0.959222739310269
40
1
40
1
40
1
40
1
41
1
10
0.394519052838319
20
19.3871212716832
30
0
41
1
10
0.409128747760207
20
19.4004136029156
30
0
41
1
10
0.423420951297288
20
19.4128705550573
30
0
41
1
10
0.445514914376929
20
19.430739006232
30
0
41
1
10
0.454232597147779
20
19.4372718152089
30
0
41
1
10
0.468256980664961
20
19.4463054976485
30
0
41
1
10
0.473690718677204
20
19.4488389037063
30
0
41
1
10
0.479169338661904
20
19.4487793396687
30
0
41
1
10
0.480004254824706
20
19.4469373910693
30
0
41
1
10
0.478484416950579
20
19.4402837265525
30
0
41
1
10
0.476199320582282
20
19.4354789912127
30
0
41
1
10
0.467674866747245
20
19.4210482502573
30
0
41
1
10
0.459928001762677
20
19.410016598829
30
0
41
1
10
0.437909803413703
20
19.3810477578902
30
0
41
1
10
0.421904311629987
20
19.3616383358771
30
0
41
1
10
0.40136195510749
20
19.3378919974575
30
0
41
1
10
0.397964534263025
20
19.3339988109139
30
0
41
1
10
0.394519052838319
20
19.3300829388625
30
0
0
SPLINE
5
2DA
100
AcDbEntity
8
1
62
256
6
ByLayer
370
-1
48
1
60
0
100
AcDbSpline
70
4
71
3
72
8
73
4
40
0
40
0
40
0
40
0
40
1
40
1
40
1
40
1
41
1
10
0
20
-14.183490812332
30
0
41
1
10
0.12955220400724
20
-14.429216262006
30
0
41
1
10
0.261110073250762
20
-14.6735448954387
30
0
41
1
10
0.394519052838319
20
-14.9165032325849
30
0
0
SPLINE
5
2DB
100
AcDbEntity
8
1
62
256
6
ByLayer
370
-1
48
1
60
0
100
AcDbSpline
70
4
71
3
72
8
73
4
40
0
40
0
40
0
40
0
40
1
40
1
40
1
40
1
41
1
10
0.394519052838319
20
-9.28315947401119
30
0
41
1
10
0.25434140223021
20
-8.83372695911297
30
0
41
1
10
0.122557944122832
20
-8.38066645202932
30
0
41
1
10
0
20
-7.92441869309681
30
0
0
SPLINE
5
2DC
100
AcDbEntity
8
1
62
256
6
ByLayer
370
-1
48
1
60
0
100
AcDbSpline
70
4
71
3
72
8
73
4
40
0
40
0
40
0
40
0
40
1
40
1
40
1
40
1
41
1
10
10.0238859865994
20
19.8047617119602
30
0
41
1
10
10.0211508086748
20
19.8280064738277
30
0
41
1
10
10.0509109485561
20
19.8495437098185
30
0
41
1
10
10.1111574100528
20
19.8674217184287
30
0
0
SPLINE
5
2DD
100
AcDbEntity
8
1
62
256
6
ByLayer
370
-1
48
1
60
0
100
AcDbSpline
70
4
71
3
72
8
73
4
40
0
40
0
40
0
40
0
40
1
40
1
40
1
40
1
41
1
10
0
20
-14.8423856446161
30
0
41
1
10
0.131501640983174
20
-14.9502972007992
30
0
41
1
10
0.263008092457539
20
-15.0582009412332
30
0
41
1
10
0.394519052838319
20
-15.1660973535886
30
0
0
SPLINE
5
2DE
100
AcDbEntity
8
1
62
256
6
ByLayer
370
-1
48
1
60
0
100
AcDbSpline
70
4
71
3
72
8
73
4
40
0
40
0
40
0
40
0
40
1
40
1
40
1
40
1
41
1
10
0.394519052838319
20
-19.6066008845751
30
0
41
1
10
0.262884337371048
20
-19.4823620925447
30
0
41
1
10
0.131375561072161
20
-19.3579451495771
30
0
41
1
10
0
20
-19.2333411456125
30
0
0
SPLINE
5
2DF
100
AcDbEntity
8
1
62
256
6
ByLayer
370
-1
48
1
60
0
100
AcDbSpline
70
4
71
3
72
24
73
20
40
0
40
0
40
0
40
0
40
0.481377986196365
40
0.481377986196365
40
0.639909060809528
40
0.639909060809528
40
0.800676356226434
40
0.800676356226434
40
0.852432573468672
40
0.852432573468672
40
0.886614790918357
40
0.886614790918357
40
0.915369091210942
40
0.915369091210942
40
0.944125270311942
40
0.944125270311942
40
0.983016998003775
40
0.983016998003775
40
1
40
1
40
1
40
1
41
1
10
0.394519052838319
20
9.28315947401117
30
0
41
1
10
0.427946970388319
20
9.39033485458813
30
0
41
1
10
0.454524794231901
20
9.49923364059751
30
0
41
1
10
0.474366783293391
20
9.63921023331385
30
0
41
1
10
0.477974295001502
20
9.67383082780086
30
0
41
1
10
0.480317398173582
20
9.74101878576312
30
0
41
1
10
0.479469166024245
20
9.77478381062221
30
0
41
1
10
0.469051392891146
20
9.81157087492787
30
0
41
1
10
0.465623379348301
20
9.82003083074574
30
0
41
1
10
0.457702567697226
20
9.83113294006212
30
0
41
1
10
0.453879715144041
20
9.83482095068899
30
0
41
1
10
0.445632083812768
20
9.83906552395044
30
0
41
1
10
0.441304302654856
20
9.84003608412381
30
0
41
1
10
0.432139750800388
20
9.83963373816039
30
0
41
1
10
0.427200669077962
20
9.83826113958844
30
0
41
1
10
0.415721979670593
20
9.83293756758252
30
0
41
1
10
0.409050650370176
20
9.82822690994971
30
0
41
1
10
0.399949236549787
20
9.82034185962462
30
0
41
1
10
0.397207580434241
20
9.8177630252856
30
0
41
1
10
0.394519052838319
20
9.81506636790175
30
0
0
SPLINE
5
2E0
100
AcDbEntity
8
1
62
256
6
ByLayer
370
-1
48
1
60
0
100
AcDbSpline
70
4
71
3
72
8
73
4
40
0
40
0
40
0
40
0
40
1
40
1
40
1
40
1
41
1
10
0
20
15.9740856271496
30
0
41
1
10
0.131506148378492
20
16.0814850449874
30
0
41
1
10
0.263012503329605
20
16.1888841255729
30
0
41
1
10
0.394519052838319
20
16.2962828885179
30
0
0
SPLINE
5
2E1
100
AcDbEntity
8
1
62
256
6
ByLayer
370
-1
48
1
60
0
100
AcDbSpline
70
4
71
3
72
8
73
4
40
0
40
0
40
0
40
0
40
1
40
1
40
1
40
1
41
1
10
0
20
18.6995029779807
30
0
41
1
10
0.131442149365427
20
18.8155542730744
30
0
41
1
10
0.262949664135363
20
18.9315069156534
30
0
41
1
10
0.394519052838319
20
19.0473658062967
30
0
0
SPLINE
5
2E2
100
AcDbEntity
8
1
62
256
6
ByLayer
370
-1
48
1
60
0
100
AcDbSpline
70
4
71
3
72
8
73
4
40
0
40
0
40
0
40
0
40
1
40
1
40
1
40
1
41
1
10
0.394519052838319
20
19.3300829388625
30
0
41
1
10
0.262640357753725
20
19.1801996475
30
0
41
1
10
0.13112617985135
20
19.0298873761474
30
0
41
1
10
0
20
18.8791263469343
30
0
0
SPLINE
5
2E3
100
AcDbEntity
8
1
62
256
6
ByLayer
370
-1
48
1
60
0
100
AcDbSpline
70
4
71
3
72
8
73
4
40
0
40
0
40
0
40
0
40
1
40
1
40
1
40
1
41
1
10
0
20
-16.4596905081325
30
0
41
1
10
0.130450045331941
20
-16.6591749695091
30
0
41
1
10
0.26198177360439
20
-16.8577217216663
30
0
41
1
10
0.394519052838319
20
-17.0553632209806
30
0
0
SPLINE
5
2E4
100
AcDbEntity
8
1
62
256
6
ByLayer
370
-1
48
1
60
0
100
AcDbSpline
70
4
71
3
72
8
73
4
40
0
40
0
40
0
40
0
40
1
40
1
40
1
40
1
41
1
10
0
20
-16.8981185823602
30
0
41
1
10
0.131499494301977
20
-17.0063793087006
30
0
41
1
10
0.263005974523594
20
-17.1146287218544
30
0
41
1
10
0.394519052838319
20
-17.2228674449602
30
0
0
SPLINE
5
2E5
100
AcDbEntity
8
1
62
256
6
ByLayer
370
-1
48
1
60
0
100
AcDbSpline
70
4
71
3
72
22
73
18
40
0
40
0
40
0
40
0
40
0.214731283158032
40
0.214731283158032
40
0.346694427231024
40
0.346694427231024
40
0.456841553863308
40
0.456841553863308
40
0.567743359814641
40
0.567743359814641
40
0.668002637161351
40
0.668002637161351
40
0.799479380592847
40
0.799479380592847
40
0.979115263712282
40
0.979115263712282
40
1
40
1
40
1
40
1
41
1
10
0.394519052838319
20
-19.6986154928503
30
0
41
1
10
0.413046293940766
20
-19.7176491513148
30
0
41
1
10
0.430737488838531
20
-19.7360292699243
30
0
41
1
10
0.4542731016858
20
-19.7609342268498
30
0
41
1
10
0.462229281514254
20
-19.7694857689091
30
0
41
1
10
0.473093892054891
20
-19.7815159914878
30
0
41
1
10
0.476700066166899
20
-19.7856928445035
30
0
41
1
10
0.480079176504887
20
-19.7902070905439
30
0
41
1
10
0.479844579745475
20
-19.7905525650357
30
0
41
1
10
0.47570315871647
20
-19.7874298753918
30
0
41
1
10
0.472118765301559
20
-19.7843051225123
30
0
41
1
10
0.461172605916147
20
-19.7743033105186
30
0
41
1
10
0.452850467138347
20
-19.7664461517624
30
0
41
1
10
0.430749688780509
20
-19.7452578798196
30
0
41
1
10
0.415737486663943
20
-19.7306456634328
30
0
41
1
10
0.398238552505063
20
-19.7134771055984
30
0
41
1
10
0.396384290205816
20
-19.7116562412322
30
0
41
1
10
0.394519052839144
20
-19.7098230659524
30
0
0
SPLINE
5
2E6
100
AcDbEntity
8
1
62
256
6
ByLayer
370
-1
48
1
60
0
100
AcDbSpline
70
4
71
3
72
22
73
18
40
0
40
0
40
0
40
0
40
0.130974566624924
40
0.130974566624924
40
0.235962005115146
40
0.235962005115146
40
0.342043800223119
40
0.342043800223119
40
0.433499584198726
40
0.433499584198726
40
0.550051092896469
40
0.550051092896469
40
0.713937831560577
40
0.713937831560577
40
0.956613812143024
40
0.956613812143024
40
1
40
1
40
1
40
1
41
1
10
0.394519052838319
20
18.5807377979135
30
0
41
1
10
0.407306951952563
20
18.5916854867964
30
0
41
1
10
0.419987695493092
20
18.6017420247622
30
0
41
1
10
0.440755429824492
20
18.6161634772445
30
0
41
1
10
0.449439597834214
20
18.6213686776538
30
0
41
1
10
0.463903333892972
20
18.6277887377414
30
0
41
1
10
0.469830766817182
20
18.6290081515976
30
0
41
1
10
0.477011742273561
20
18.6270360141608
30
0
41
1
10
0.478898460828162
20
18.624421208698
30
0
41
1
10
0.480003530986977
20
18.6155255334878
30
0
41
1
10
0.478415708351122
20
18.6083452986138
30
0
41
1
10
0.470927088921258
20
18.588338657926
30
0
41
1
10
0.463493164027568
20
18.5741061591378
30
0
41
1
10
0.441112715450629
20
18.5368015839103
30
0
41
1
10
0.423888232878994
20
18.5120334732542
30
0
41
1
10
0.401552729564713
20
18.482547847082
30
0
41
1
10
0.398065399485745
20
18.4780108836949
30
0
41
1
10
0.394519052838319
20
18.4734609781557
30
0
0
SPLINE
5
2E7
100
AcDbEntity
8
1
62
256
6
ByLayer
370
-1
48
1
60
0
100
AcDbSpline
70
4
71
3
72
8
73
4
40
0
40
0
40
0
40
0
40
1
40
1
40
1
40
1
41
1
10
0
20
-2.7697313269525
30
0
41
1
10
0.0874358963161512
20
-3.72834719988381
30
0
41
1
10
0.220393475081408
20
-4.6866807251749
30
0
41
1
10
0.394519052838291
20
-5.63341609185697
30
0
0
SPLINE
5
2E8
100
AcDbEntity
8
1
62
256
6
ByLayer
370
-1
48
1
60
0
100
AcDbSpline
70
4
71
3
72
24
73
20
40
0
40
0
40
0
40
0
40
0.43917115628847
40
0.43917115628847
40
0.796834177251203
40
0.796834177251203
40
0.886314705816321
40
0.886314705816321
40
0.915732144741112
40
0.915732144741112
40
0.932646512971609
40
0.932646512971609
40
0.945725223613188
40
0.945725223613188
40
0.958772267798244
40
0.958772267798244
40
0.974771166986145
40
0.974771166986145
40
1
40
1
40
1
40
1
41
1
10
0.394519052838859
20
-5.63341609185696
30
0
41
1
10
0.422494396505073
20
-5.78552038110108
30
0
41
1
10
0.445669086549742
20
-5.93819212682831
30
0
41
1
10
0.474692141763597
20
-6.21255310511954
30
0
41
1
10
0.485664759910094
20
-6.33747674188595
30
0
41
1
10
0.474681766614623
20
-6.48285088107816
30
0
41
1
10
0.471233390621137
20
-6.51221066369003
30
0
41
1
10
0.459757107235475
20
-6.54539340875959
30
0
41
1
10
0.456219172991979
20
-6.55324744873246
30
0
41
1
10
0.448780379272677
20
-6.56295064938773
30
0
41
1
10
0.445590502192033
20
-6.56596634289443
30
0
41
1
10
0.439149571778785
20
-6.56930122141593
30
0
41
1
10
0.436005663187473
20
-6.57007979145712
30
0
41
1
10
0.429520094617232
20
-6.56993483394837
30
0
41
1
10
0.426105690234181
20
-6.56901599233203
30
0
41
1
10
0.418740276415946
20
-6.5655342072529
30
0
41
1
10
0.414738320051981
20
-6.56263646326018
30
0
41
1
10
0.405067199335747
20
-6.55395264447074
30
0
41
1
10
0.399583930816561
20
-6.5473812593752
30
0
41
1
10
0.394519052846306
20
-6.54042817882649
30
0
0
SPLINE
5
2E9
100
AcDbEntity
8
1
62
256
6
ByLayer
370
-1
48
1
60
0
100
AcDbSpline
70
4
71
3
72
8
73
4
40
0
40
0
40
0
40
0
40
1
40
1
40
1
40
1
41
1
10
0.394519052838319
20
-17.8417232227022
30
0
41
1
10
0.262224882939222
20
-17.6595606391472
30
0
41
1
10
0.130699965526105
20
-17.4766490191934
30
0
41
1
10
0
20
-17.2929584404609
30
0
0
SPLINE
5
2EA
100
AcDbEntity
8
1
62
256
6
ByLayer
370
-1
48
1
60
0
100
AcDbSpline
70
4
71
3
72
8
73
4
40
0
40
0
40
0
40
0
40
1
40
1
40
1
40
1
41
1
10
0.394519052838319
20
19.3871212716832
30
0
41
1
10
0.26292017266897
20
19.2673887300816
30
0
41
1
10
0.131412099455616
20
19.1475229800286
30
0
41
1
10
0
20
19.0275172217373
30
0
0
SPLINE
5
2EB
100
AcDbEntity
8
1
62
256
6
ByLayer
370
-1
48
1
60
0
100
AcDbSpline
70
4
71
3
72
22
73
18
40
0
40
0
40
0
40
0
40
0.437896690009531
40
0.437896690009531
40
0.639990234380837
40
0.639990234380837
40
0.71774841132762
40
0.71774841132762
40
0.796672609064531
40
0.796672609064531
40
0.851154317625829
40
0.851154317625829
40
0.905737447010996
40
0.905737447010996
40
0.973199244945158
40
0.973199244945158
40
1
40
1
40
1
40
1
41
1
10
0.394519052838319
20
13.4744348947103
30
0
41
1
10
0.42678416475772
20
13.5415569948574
30
0
41
1
10
0.453440103505045
20
13.6105944461558
30
0
41
1
10
0.475591486669941
20
13.7040318631824
30
0
41
1
10
0.480268468420093
20
13.7333062353311
30
0
41
1
10
0.479098104313295
20
13.7681879751399
30
0
41
1
10
0.47789108947697
20
13.7773926265592
30
0
41
1
10
0.47285536890189
20
13.7932666954997
30
0
41
1
10
0.468887305982122
20
13.8000695456668
30
0
41
1
10
0.459192308018174
20
13.8071998127549
30
0
41
1
10
0.454268900350911
20
13.8089016011102
30
0
41
1
10
0.443084545046645
20
13.8092232918541
30
0
41
1
10
0.436687456484322
20
13.8078387655905
30
0
41
1
10
0.42191541107681
20
13.8019085867757
30
0
41
1
10
0.413220603813215
20
13.7966620704221
30
0
41
1
10
0.401309145742204
20
13.7878585523284
30
0
41
1
10
0.39790095191546
20
13.7851548080069
30
0
41
1
10
0.394519052838319
20
13.7823140979466
30
0
0
SPLINE
5
2EC
100
AcDbEntity
8
1
62
256
6
ByLayer
370
-1
48
1
60
0
100
AcDbSpline
70
4
71
3
72
8
73
4
40
0
40
0
40
0
40
0
40
1
40
1
40
1
40
1
41
1
10
0
20
9.41654987898986
30
0
41
1
10
0.131088642845327
20
9.54993805463116
30
0
41
1
10
0.262611087046167
20
9.68275952809725
30
0
41
1
10
0.394519052838319
20
9.81506636790175
30
0
0
SPLINE
5
2ED
100
AcDbEntity
8
1
62
256
6
ByLayer
370
-1
48
1
60
0
100
AcDbSpline
70
4
71
3
72
8
73
4
40
0
40
0
40
0
40
0
40
1
40
1
40
1
40
1
41
1
10
0
20
18.4877367901945
30
0
41
1
10
0.131019951491623
20
18.6477021421703
30
0
41
1
10
0.262536668669412
20
18.8071267308867
30
0
41
1
10
0.394519052838319
20
18.9660336777981
30
0
0
SPLINE
5
2EE
100
AcDbEntity
8
1
62
256
6
ByLayer
370
-1
48
1
60
0
100
AcDbSpline
70
4
71
3
72
8
73
4
40
0
40
0
40
0
40
0
40
1
40
1
40
1
40
1
41
1
10
10.1635960496448
20
-17.9311074886776
30
0
41
1
10
10.1441075372819
20
-17.9123305339143
30
0
41
1
10
10.1265587863016
20
-17.8937397098636
30
0
41
1
10
10.1111574100528
20
-17.8750975246866
30
0
0
SPLINE
5
2EF
100
AcDbEntity
8
1
62
256
6
ByLayer
370
-1
48
1
60
0
100
AcDbSpline
70
4
71
3
72
8
73
4
40
0
40
0
40
0
40
0
40
1
40
1
40
1
40
1
41
1
10
0
20
-19.2917446495518
30
0
41
1
10
0.131276854193146
20
-19.4276643880555
30
0
41
1
10
0.262787655213145
20
-19.5632833936142
30
0
41
1
10
0.394519052838319
20
-19.6986154928503
30
0
0
SPLINE
5
2F0
100
AcDbEntity
8
1
62
256
6
ByLayer
370
-1
48
1
60
0
100
AcDbSpline
70
4
71
3
72
8
73
4
40
0
40
0
40
0
40
0
40
1
40
1
40
1
40
1
41
1
10
0.394519052838348
20
15.1660973535886
30
0
41
1
10
0.263008092457568
20
15.0582009412332
30
0
41
1
10
0.131501640983174
20
14.9502972007992
30
0
41
1
10
0
20
14.8423856446161
30
0
0
SPLINE
5
2F1
100
AcDbEntity
8
1
62
256
6
ByLayer
370
-1
48
1
60
0
100
AcDbSpline
70
4
71
3
72
12
73
8
40
0
40
0
40
0
40
0
40
0.429273377725837
40
0.429273377725837
40
0.739537698768804
40
0.739537698768804
40
1
40
1
40
1
40
1
41
1
10
0.394519052838319
20
-19.6066008845751
30
0
41
1
10
0.410059323498217
20
-19.6212680219466
30
0
41
1
10
0.425151937109206
20
-19.6351541764503
30
0
41
1
10
0.447786494362617
20
-19.6550641246958
30
0
41
1
10
0.456448278435317
20
-19.6623555189091
30
0
41
1
10
0.468979377135554
20
-19.6720234867616
30
0
41
1
10
0.473499015976074
20
-19.6750720013535
30
0
41
1
10
0.476245366047152
20
-19.6762820615546
30
0
0
SPLINE
5
2F2
100
AcDbEntity
8
1
62
256
6
ByLayer
370
-1
48
1
60
0
100
AcDbSpline
70
4
71
3
72
16
73
12
40
0
40
0
40
0
40
0
40
0.0450186128587409
40
0.0450186128587409
40
0.237511060203257
40
0.237511060203257
40
0.505934459488134
40
0.505934459488134
40
0.879218500721087
40
0.879218500721087
40
1
40
1
40
1
40
1
41
1
10
0.479511578251106
20
-19.6758105461467
30
0
41
1
10
0.479516758375013
20
-19.6754584645699
30
0
41
1
10
0.479435885629044
20
-19.6750208095175
30
0
41
1
10
0.478550353193469
20
-19.6722584840326
30
0
41
1
10
0.476255647446578
20
-19.6684434019461
30
0
41
1
10
0.467932133461801
20
-19.6567153707543
30
0
41
1
10
0.460702109137827
20
-19.6476345231386
30
0
41
1
10
0.440398223370153
20
-19.6234481564787
30
0
41
1
10
0.425828992687883
20
-19.6069754329105
30
0
41
1
10
0.405117946903942
20
-19.5842557332814
30
0
41
1
10
0.399870897837559
20
-19.5785518734436
30
0
41
1
10
0.394519052838319
20
-19.572781595349
30
0
0
SPLINE
5
2F3
100
AcDbEntity
8
1
62
256
6
ByLayer
370
-1
48
1
60
0
100
AcDbSpline
70
4
71
3
72
8
73
4
40
0
40
0
40
0
40
0
40
1
40
1
40
1
40
1
41
1
10
0
20
12.6311682604383
30
0
41
1
10
0.128658059895059
20
12.914009186291
30
0
41
1
10
0.260243397498556
20
13.1950971379547
30
0
41
1
10
0.394519052838319
20
13.4744348947103
30
0
0
SPLINE
5
2F4
100
AcDbEntity
8
1
62
256
6
ByLayer
370
-1
48
1
60
0
100
AcDbSpline
70
4
71
3
72
8
73
4
40
0
40
0
40
0
40
0
40
1
40
1
40
1
40
1
41
1
10
0.394519052838319
20
-19.0473658062967
30
0
41
1
10
0.262949664135363
20
-18.9315069156534
30
0
41
1
10
0.131442149365427
20
-18.8155542730744
30
0
41
1
10
0
20
-18.6995029779807
30
0
0
SPLINE
5
2F5
100
AcDbEntity
8
1
62
256
6
ByLayer
370
-1
48
1
60
0
100
AcDbSpline
70
4
71
3
72
8
73
4
40
0
40
0
40
0
40
0
40
1
40
1
40
1
40
1
41
1
10
0.394519052838319
20
-9.81506636790175
30
0
41
1
10
0.262611087046167
20
-9.68275952809725
30
0
41
1
10
0.131088642845327
20
-9.54993805463116
30
0
41
1
10
0
20
-9.41654987898986
30
0
0
SPLINE
5
2F6
100
AcDbEntity
8
1
62
256
6
ByLayer
370
-1
48
1
60
0
100
AcDbSpline
70
4
71
3
72
22
73
18
40
0
40
0
40
0
40
0
40
0.299363580156425
40
0.299363580156425
40
0.453915767108517
40
0.453915767108517
40
0.576207771096449
40
0.576207771096449
40
0.669692963969136
40
0.669692963969136
40
0.763865114712142
40
0.763865114712142
40
0.84915036902841
40
0.84915036902841
40
0.96714617985239
40
0.96714617985239
40
1
40
1
40
1
40
1
41
1
10
0.394519052838319
20
17.8417232227021
30
0
41
1
10
0.418256336885037
20
17.8744082986343
30
0
41
1
10
0.439649953514021
20
17.9073632870322
30
0
41
1
10
0.463624123588119
20
17.9524285851217
30
0
41
1
10
0.470428420787954
20
17.9672289583493
30
0
41
1
10
0.47810293901847
20
17.9902449697362
30
0
41
1
10
0.479951931740175
20
17.9993794851626
30
0
41
1
10
0.479032525939175
20
18.0114631806348
30
0
41
1
10
0.477199697014498
20
18.0154401970101
30
0
41
1
10
0.470318232805027
20
18.0196187986299
30
0
41
1
10
0.465125505795214
20
18.0198181329196
30
0
41
1
10
0.452829072031193
20
18.0165150970173
30
0
41
1
10
0.445823135259189
20
18.0133442836213
30
0
41
1
10
0.427913980857426
20
18.0030824465562
30
0
41
1
10
0.416281382878793
20
17.9948429972922
30
0
41
1
10
0.40120939848785
20
17.9828891959178
30
0
41
1
10
0.397870522458106
20
17.9801645198626
30
0
41
1
10
0.394519052838319
20
17.977360486755
30
0
0
SPLINE
5
2F7
100
AcDbEntity
8
1
62
256
6
ByLayer
370
-1
48
1
60
0
100
AcDbSpline
70
4
71
3
72
8
73
4
40
0
40
0
40
0
40
0
40
1
40
1
40
1
40
1
41
1
10
0
20
17.6471360742617
30
0
41
1
10
0.131485811585407
20
17.7572435888389
30
0
41
1
10
0.262992539514613
20
17.8673178070594
30
0
41
1
10
0.394519052838319
20
17.977360486755
30
0
0
SPLINE
5
2F8
100
AcDbEntity
8
1
62
256
6
ByLayer
370
-1
48
1
60
0
100
AcDbSpline
70
4
71
3
72
22
73
18
40
0
40
0
40
0
40
0
40
0.117619170449701
40
0.117619170449701
40
0.215008273314094
40
0.215008273314094
40
0.313321090704389
40
0.313321090704389
40
0.399080953499576
40
0.399080953499576
40
0.513763962610516
40
0.513763962610516
40
0.680089136995476
40
0.680089136995476
40
0.933901061714767
40
0.933901061714767
40
1
40
1
40
1
40
1
41
1
10
0.394519052838319
20
-17.977360486755
30
0
41
1
10
0.406396631300254
20
-17.9872979550967
30
0
41
1
10
0.418251957628655
20
-17.99634220228
30
0
41
1
10
0.438217719472959
20
-18.009315896833
30
0
41
1
10
0.446803464686582
20
-18.013950988077
30
0
41
1
10
0.46134124947514
20
-18.019276971381
30
0
41
1
10
0.467448118092932
20
-18.0199631128949
30
0
41
1
10
0.475360658845204
20
-18.0172279112385
30
0
41
1
10
0.477727927871314
20
-18.0143077574716
30
0
41
1
10
0.480228388777931
20
-18.0046696804274
30
0
41
1
10
0.479435434549686
20
-17.9969031193638
30
0
41
1
10
0.473717250498794
20
-17.9751819964867
30
0
41
1
10
0.467091805717843
20
-17.9596808386955
30
0
41
1
10
0.446061082873342
20
-17.9185982124191
30
0
41
1
10
0.429035680646962
20
-17.8911560248138
30
0
41
1
10
0.40500598819446
20
-17.8563407243791
30
0
41
1
10
0.399832898020492
20
-17.8490401268993
30
0
41
1
10
0.394519052838319
20
-17.8417232227022
30
0
0
SPLINE
5
2F9
100
AcDbEntity
8
1
62
256
6
ByLayer
370
-1
48
1
60
0
100
AcDbSpline
70
4
71
3
72
8
73
4
40
0
40
0
40
0
40
0
40
1
40
1
40
1
40
1
41
1
10
0
20
-11.7066823491331
30
0
41
1
10
0.131389411454364
20
-11.8239422884521
30
0
41
1
10
0.262899137267397
20
-11.9410226641193
30
0
41
1
10
0.394519052838348
20
-12.0579374210678
30
0
0
SPLINE
5
2FA
100
AcDbEntity
8
1
62
256
6
ByLayer
370
-1
48
1
60
0
100
AcDbSpline
70
4
71
3
72
24
73
20
40
0
40
0
40
0
40
0
40
0.0252288330299177
40
0.0252288330299177
40
0.0412277322175423
40
0.0412277322175423
40
0.0542747764023727
40
0.0542747764023727
40
0.0673534870437264
40
0.0673534870437264
40
0.0842678552739321
40
0.0842678552739321
40
0.113685294198215
40
0.113685294198215
40
0.20316582276179
40
0.20316582276179
40
0.560828843718351
40
0.560828843718351
40
1
40
1
40
1
40
1
41
1
10
0.394519052838319
20
6.54042817881556
30
0
41
1
10
0.399583930810849
20
6.54738125936842
30
0
41
1
10
0.405067199332677
20
6.55395264446797
30
0
41
1
10
0.414738320051981
20
6.56263646326018
30
0
41
1
10
0.418740276415946
20
6.5655342072529
30
0
41
1
10
0.426105690234181
20
6.56901599233203
30
0
41
1
10
0.429520094617232
20
6.56993483394837
30
0
41
1
10
0.436005663187473
20
6.57007979145712
30
0
41
1
10
0.439149571778785
20
6.56930122141593
30
0
41
1
10
0.445590502192033
20
6.56596634289443
30
0
41
1
10
0.448780379272677
20
6.56295064938773
30
0
41
1
10
0.456219172991979
20
6.55324744873246
30
0
41
1
10
0.459757107235475
20
6.54539340875959
30
0
41
1
10
0.471233390621137
20
6.51221066369003
30
0
41
1
10
0.474681766614623
20
6.48285088107816
30
0
41
1
10
0.485664759910094
20
6.33747674188595
30
0
41
1
10
0.474692141763597
20
6.21255310511954
30
0
41
1
10
0.445669086549714
20
5.93819212682806
30
0
41
1
10
0.422494396505016
20
5.78552038110055
30
0
41
1
10
0.394519052838717
20
5.63341609185618
30
0
0
SPLINE
5
2FB
100
AcDbEntity
8
1
62
256
6
ByLayer
370
-1
48
1
60
0
100
AcDbSpline
70
4
71
3
72
8
73
4
40
0
40
0
40
0
40
0
40
1
40
1
40
1
40
1
41
1
10
0
20
-10.6499489023893
30
0
41
1
10
0.126948364210165
20
-10.9912722816142
30
0
41
1
10
0.258588067896966
20
-11.3303132235976
30
0
41
1
10
0.394519052838319
20
-11.6669928763094
30
0
0
SPLINE
5
2FC
100
AcDbEntity
8
1
62
256
6
ByLayer
370
-1
48
1
60
0
100
AcDbSpline
70
4
71
3
72
12
73
8
40
0
40
0
40
0
40
0
40
0.207311413163126
40
0.207311413163126
40
0.608974301331645
40
0.608974301331645
40
1
40
1
40
1
40
1
41
1
10
10.4399265466975
20
-14.7726354545173
30
0
41
1
10
10.3851191731083
20
-14.7936244200047
30
0
41
1
10
10.3350414092181
20
-14.815603519105
30
0
41
1
10
10.2042782645086
20
-14.8800187934708
30
0
41
1
10
10.1369020463281
20
-14.9231835144427
30
0
41
1
10
10.0496832936921
20
-14.9991278547674
30
0
41
1
10
10.0276782274558
20
-15.0330597098197
30
0
41
1
10
10.030064024123
20
-15.0601856815931
30
0
0
SPLINE
5
2FD
100
AcDbEntity
8
1
62
256
6
ByLayer
370
-1
48
1
60
0
100
AcDbSpline
70
4
71
3
72
22
73
18
40
0
40
0
40
0
40
0
40
0.360398650986887
40
0.360398650986887
40
0.507040735908437
40
0.507040735908437
40
0.656230896070085
40
0.656230896070085
40
0.735823930778752
40
0.735823930778752
40
0.816184345254592
40
0.816184345254592
40
0.888209392933061
40
0.888209392933061
40
0.986665172848572
40
0.986665172848572
40
1
40
1
40
1
40
1
41
1
10
0.394519052838319
20
16.0917289824197
30
0
41
1
10
0.422135753480461
20
16.1368638417689
30
0
41
1
10
0.446097874168828
20
16.1829720290048
30
0
41
1
10
0.468569613737714
20
16.2422053548892
30
0
41
1
10
0.473810837718929
20
16.2590078955548
30
0
41
1
10
0.479858892984282
20
16.2896129713519
30
0
41
1
10
0.480667866262479
20
16.3038405651389
30
0
41
1
10
0.475758966214045
20
16.3194862441535
30
0
41
1
10
0.472803933944476
20
16.3238530196782
30
0
41
1
10
0.464176767662508
20
16.3290094465438
30
0
41
1
10
0.45832982234225
20
16.3297915085337
30
0
41
1
10
0.445334248679558
20
16.3275336210466
30
0
41
1
10
0.438243093600732
20
16.3248759927297
30
0
41
1
10
0.420736811112505
20
16.3158480289951
30
0
41
1
10
0.409793715813919
20
16.3083897229872
30
0
41
1
10
0.397487609997228
20
16.2986868578721
30
0
41
1
10
0.396003365879579
20
16.2974950972351
30
0
41
1
10
0.394519052838348
20
16.2962828885272
30
0
0
SPLINE
5
2FE
100
AcDbEntity
8
1
62
256
6
ByLayer
370
-1
48
1
60
0
100
AcDbSpline
70
4
71
3
72
8
73
4
40
0
40
0
40
0
40
0
40
1
40
1
40
1
40
1
41
1
10
0.394519052838319
20
14.9165032325849
30
0
41
1
10
0.261110073250762
20
14.6735448954387
30
0
41
1
10
0.12955220400724
20
14.429216262006
30
0
41
1
10
0
20
14.183490812332
30
0
0
SPLINE
5
2FF
100
AcDbEntity
8
1
62
256
6
ByLayer
370
-1
48
1
60
0
100
AcDbSpline
70
4
71
3
72
22
73
18
40
0
40
0
40
0
40
0
40
0.0775839193109272
40
0.0775839193109272
40
0.156885420043649
40
0.156885420043649
40
0.227587553499006
40
0.227587553499006
40
0.290983349914784
40
0.290983349914784
40
0.39293235423506
40
0.39293235423506
40
0.562762131967825
40
0.562762131967825
40
0.865700677527772
40
0.865700677527772
40
1
40
1
40
1
40
1
41
1
10
0.394519052838319
20
15.1660973535886
30
0
41
1
10
0.403544704540252
20
15.173502329075
30
0
41
1
10
0.412739090997519
20
15.1801161439529
30
0
41
1
10
0.430544112898332
20
15.1902973078633
30
0
41
1
10
0.439373404865648
20
15.1938786394794
30
0
41
1
10
0.453778577892564
20
15.1961404256716
30
0
41
1
10
0.459777612816026
20
15.195314006757
30
0
41
1
10
0.46864352399524
20
15.1904857301071
30
0
41
1
10
0.471894332956623
20
15.1867995374597
30
0
41
1
10
0.477949159839426
20
15.1748682431631
30
0
41
1
10
0.479468067215947
20
15.1650828930848
30
0
41
1
10
0.479600311387429
20
15.1365163306556
30
0
41
1
10
0.47578149961538
20
15.1155669751218
30
0
41
1
10
0.459761922944551
20
15.0556485761855
30
0
41
1
10
0.443064184835606
20
15.0139047011116
30
0
41
1
10
0.414359188756492
20
14.9538313448656
30
0
41
1
10
0.404752946498292
20
14.9351407320534
30
0
41
1
10
0.394519052838319
20
14.9165032325849
30
0
0
SPLINE
5
300
100
AcDbEntity
8
1
62
256
6
ByLayer
370
-1
48
1
60
0
100
AcDbSpline
70
4
71
3
72
8
73
4
40
0
40
0
40
0
40
0
40
1
40
1
40
1
40
1
41
1
10
0
20
-18.8791263469343
30
0
41
1
10
0.13112617985135
20
-19.0298873761474
30
0
41
1
10
0.262640357753725
20
-19.1801996475
30
0
41
1
10
0.394519052838319
20
-19.3300829388625
30
0
0
SPLINE
5
301
100
AcDbEntity
8
1
62
256
6
ByLayer
370
-1
48
1
60
0
100
AcDbSpline
70
4
71
3
72
8
73
4
40
0
40
0
40
0
40
0
40
1
40
1
40
1
40
1
41
1
10
0.394519052838319
20
19.709823065951
30
0
41
1
10
0.262840810877805
20
19.5804082781262
30
0
41
1
10
0.131331144961194
20
19.4507644040705
30
0
41
1
10
0
20
19.3208801979494
30
0
0
SPLINE
5
302
100
AcDbEntity
8
1
62
256
6
ByLayer
370
-1
48
1
60
0
100
AcDbSpline
70
4
71
3
72
8
73
4
40
0
40
0
40
0
40
0
40
1
40
1
40
1
40
1
41
1
10
0
20
7.92441869309681
30
0
41
1
10
0.122557944122832
20
8.38066645202932
30
0
41
1
10
0.25434140223021
20
8.83372695911297
30
0
41
1
10
0.394519052838319
20
9.28315947401119
30
0
0
SPLINE
5
303
100
AcDbEntity
8
1
62
256
6
ByLayer
370
-1
48
1
60
0
100
AcDbSpline
70
4
71
3
72
16
73
12
40
0
40
0
40
0
40
0
40
0.0783639217757114
40
0.0783639217757114
40
0.173754824441703
40
0.173754824441703
40
0.317833015497138
40
0.317833015497138
40
0.574019100217114
40
0.574019100217114
40
1
40
1
40
1
40
1
41
1
10
5.89999999999986
20
-10.5356537528528
30
0
41
1
10
5.87493632133484
20
-10.5356537528528
30
0
41
1
10
5.84956142408058
20
-10.5316755669259
30
0
41
1
10
5.79726251369411
20
-10.5157582028334
30
0
41
1
10
5.77033942310828
20
-10.5021725760057
30
0
41
1
10
5.71046791575293
20
-10.4617487386469
30
0
41
1
10
5.68002044558796
20
-10.4311599986309
30
0
41
1
10
5.60927173977703
20
-10.340793929177
30
0
41
1
10
5.5774254510568
20
-10.2749073567421
30
0
41
1
10
5.51587310670934
20
-10.0966753973275
30
0
41
1
10
5.49999999999974
20
-9.97836690825913
30
0
41
1
10
5.49999999999974
20
-9.86103442849684
30
0
0
SPLINE
5
304
100
AcDbEntity
8
1
62
256
6
ByLayer
370
-1
48
1
60
0
100
AcDbSpline
70
4
71
3
72
8
73
4
40
0
40
0
40
0
40
0
40
1
40
1
40
1
40
1
41
1
10
0.394519052838319
20
-19.572781595349
30
0
41
1
10
0.262722134736862
20
-19.4306801575147
30
0
41
1
10
0.131209869747579
20
-19.2882257956237
30
0
41
1
10
0
20
-19.1454018402203
30
0
0
SPLINE
5
305
100
AcDbEntity
8
1
62
256
6
ByLayer
370
-1
48
1
60
0
100
AcDbSpline
70
4
71
3
72
8
73
4
40
0
40
0
40
0
40
0
40
1
40
1
40
1
40
1
41
1
10
10.1635960496448
20
-17.9311074886777
30
0
41
1
10
10.1447526261037
20
-18.1464888053157
30
0
41
1
10
10.1272434922546
20
-18.3466191209869
30
0
41
1
10
10.1111574100528
20
-18.5304838818998
30
0
0
SPLINE
5
306
100
AcDbEntity
8
1
62
256
6
ByLayer
370
-1
48
1
60
0
100
AcDbSpline
70
4
71
3
72
14
73
10
40
0
40
0
40
0
40
0
40
0.286370604456931
40
0.286370604456931
40
0.534534450473821
40
0.534534450473821
40
0.784735418062689
40
0.784735418062689
40
1
40
1
40
1
40
1
41
1
10
10.1111574100528
20
19.8674217184287
30
0
41
1
10
10.1598699570563
20
19.8818770625787
30
0
41
1
10
10.2296701783472
20
19.898709450598
30
0
41
1
10
10.3822368677652
20
19.9571152085495
30
0
41
1
10
10.4637286699717
20
19.9963957277362
30
0
41
1
10
10.6221114449261
20
20.1094559220049
30
0
41
1
10
10.700847799842
20
20.1856204317373
30
0
41
1
10
10.8163368458907
20
20.3543175049801
30
0
41
1
10
10.8588900925299
20
20.4452211575182
30
0
41
1
10
10.883898071084
20
20.5405277570221
30
0
0
SPLINE
5
307
100
AcDbEntity
8
1
62
256
6
ByLayer
370
-1
48
1
60
0
100
AcDbSpline
70
4
71
3
72
8
73
4
40
0
40
0
40
0
40
0
40
1
40
1
40
1
40
1
41
1
10
0
20
19.2333411456125
30
0
41
1
10
0.131375561072161
20
19.3579451495771
30
0
41
1
10
0.262884337371048
20
19.4823620925448
30
0
41
1
10
0.394519052838319
20
19.6066008845751
30
0
0
SPLINE
5
308
100
AcDbEntity
8
1
62
256
6
ByLayer
370
-1
48
1
60
0
100
AcDbSpline
70
4
71
3
72
32
73
28
40
0
40
0
40
0
40
0
40
0.0937618895139197
40
0.0937618895139197
40
0.128419420482008
40
0.128419420482008
40
0.163656947719393
40
0.163656947719393
40
0.189301975034122
40
0.189301975034122
40
0.214842857928776
40
0.214842857928776
40
0.253615416060206
40
0.253615416060206
40
0.321082398039998
40
0.321082398039998
40
0.44373640699873
40
0.44373640699873
40
0.572122147522743
40
0.572122147522743
40
0.705206900422521
40
0.705206900422521
40
0.835349368765101
40
0.835349368765101
40
0.960822185389343
40
0.960822185389343
40
1
40
1
40
1
40
1
41
1
10
11.206003055527
20
3.11916358576234
30
0
41
1
10
11.0507721813374
20
2.99058387424867
30
0
41
1
10
10.8877374873122
20
2.86800026391194
30
0
41
1
10
10.6655311032739
20
2.75235692539006
30
0
41
1
10
10.6041524183271
20
2.7261625112109
30
0
41
1
10
10.4840555628711
20
2.69432356448188
30
0
41
1
10
10.4237121217452
20
2.68900069486128
30
0
41
1
10
10.3302964540301
20
2.70856308213067
30
0
41
1
10
10.2933673484445
20
2.72606200362182
30
0
41
1
10
10.2300361093244
20
2.77729154357158
30
0
41
1
10
10.2027914408076
20
2.81139996277157
30
0
41
1
10
10.146236844018
20
2.90932869646267
30
0
41
1
10
10.1217237115604
20
2.98060655799196
30
0
41
1
10
10.071586699428
20
3.18514391453873
30
0
41
1
10
10.0562906672719
20
3.32928194792984
30
0
41
1
10
10.0289297731053
20
3.73561202517672
30
0
41
1
10
10.0284946329461
20
4.00961452545417
30
0
41
1
10
10.0270967901868
20
4.55166636892938
30
0
41
1
10
10.026212875641
20
4.82699891249351
30
0
41
1
10
10.0453427634271
20
5.33883994632315
30
0
41
1
10
10.0692285293629
20
5.57921187204927
30
0
41
1
10
10.2039198187413
20
5.99484440064215
30
0
41
1
10
10.3177182429355
20
6.17860420912493
30
0
41
1
10
10.6239800815937
20
6.52152659569306
30
0
41
1
10
10.8155882651118
20
6.68897118258521
30
0
41
1
10
11.077117695682
20
6.9181098143651
30
0
41
1
10
11.1411653991586
20
6.97416980520855
30
0
41
1
10
11.2053099000319
20
7.03089603827716
30
0
0
SPLINE
5
309
100
AcDbEntity
8
1
62
256
6
ByLayer
370
-1
48
1
60
0
100
AcDbSpline
70
4
71
3
72
22
73
18
40
0
40
0
40
0
40
0
40
0.275727316123159
40
0.275727316123159
40
0.428602543447363
40
0.428602543447363
40
0.549120162462184
40
0.549120162462184
40
0.645444488302809
40
0.645444488302809
40
0.742264601009257
40
0.742264601009257
40
0.832567834543573
40
0.832567834543573
40
0.960604338778268
40
0.960604338778268
40
1
40
1
40
1
40
1
41
1
10
0.394519052838319
20
-18.4734609781557
30
0
41
1
10
0.416739790093544
20
-18.5019698255911
30
0
41
1
10
0.437067535062965
20
-18.5304983597117
30
0
41
1
10
0.461249050468751
20
-18.5701595535583
30
0
41
1
10
0.468555599248219
20
-18.5836738484427
30
0
41
1
10
0.477177908014284
20
-18.6042553094808
30
0
41
1
10
0.479479315771357
20
-18.6122481662567
30
0
41
1
10
0.479549925426085
20
-18.622691477533
30
0
41
1
10
0.478099791999938
20
-18.6260021527981
30
0
41
1
10
0.471943773943224
20
-18.6289143447912
30
0
41
1
10
0.467122155651594
20
-18.6285153753229
30
0
41
1
10
0.455354313901381
20
-18.6243038580098
30
0
41
1
10
0.448453389358548
20
-18.6206974779665
30
0
41
1
10
0.430377060414429
20
-18.6093680373215
30
0
41
1
10
0.418351009332866
20
-18.600421221637
30
0
41
1
10
0.402266909816149
20
-18.5872977315688
30
0
41
1
10
0.398404796793301
20
-18.5840643737269
30
0
41
1
10
0.394519052838348
20
-18.5807377979135
30
0
0
SPLINE
5
30A
100
AcDbEntity
8
1
62
256
6
ByLayer
370
-1
48
1
60
0
100
AcDbSpline
70
4
71
3
72
22
73
18
40
0
40
0
40
0
40
0
40
0.254870626188923
40
0.254870626188923
40
0.404442713215351
40
0.404442713215351
40
0.523165816630691
40
0.523165816630691
40
0.621531216469595
40
0.621531216469595
40
0.720212233183625
40
0.720212233183625
40
0.814930019931253
40
0.814930019931253
40
0.952302569433041
40
0.952302569433041
40
1
40
1
40
1
40
1
41
1
10
0.394519052838319
20
18.9660336777981
30
0
41
1
10
0.415397257062637
20
18.9911710604205
30
0
41
1
10
0.434745901513281
20
19.0161221644437
30
0
41
1
10
0.458931875838118
20
19.0511968235287
30
0
41
1
10
0.466623046410064
20
19.0634552832728
30
0
41
1
10
0.476107730084294
20
19.0818099803902
30
0
41
1
10
0.478845551808718
20
19.0888031444728
30
0
41
1
10
0.479875340860843
20
19.0977256603011
30
0
41
1
10
0.478826576558816
20
19.1003788452061
30
0
41
1
10
0.473451118959929
20
19.1020609137239
30
0
41
1
10
0.469035178978999
20
19.1010894788818
30
0
41
1
10
0.457891153363391
20
19.0959678596139
30
0
41
1
10
0.451153362829416
20
19.0919116516006
30
0
41
1
10
0.433072742475133
20
19.0794582369488
30
0
41
1
10
0.420751809470772
20
19.0697722314114
30
0
41
1
10
0.403613580947621
20
19.0552982452463
30
0
41
1
10
0.399086632525979
20
19.0513879783289
30
0
41
1
10
0.394519052838319
20
19.0473658062967
30
0
0
SPLINE
5
30B
100
AcDbEntity
8
1
62
256
6
ByLayer
370
-1
48
1
60
0
100
AcDbSpline
70
4
71
3
72
22
73
18
40
0
40
0
40
0
40
0
40
0.104318682418402
40
0.104318682418402
40
0.193445107366587
40
0.193445107366587
40
0.283343744032801
40
0.283343744032801
40
0.362608705495849
40
0.362608705495849
40
0.473804161880507
40
0.473804161880507
40
0.64092102443543
40
0.64092102443543
40
0.90626991213341
40
0.90626991213341
40
1
40
1
40
1
40
1
41
1
10
0.394519052838348
20
17.2228674449602
30
0
41
1
10
0.405473669439715
20
17.2318833826011
30
0
41
1
10
0.416479652978836
20
17.2400214788822
30
0
41
1
10
0.435532918358888
20
17.2517132993882
30
0
41
1
10
0.443955203471091
20
17.255843436398
30
0
41
1
10
0.458451883226019
20
17.2602275995547
30
0
41
1
10
0.464685556395807
20
17.2604700559101
30
0
41
1
10
0.473231946911795
20
17.2571221831027
30
0
41
1
10
0.476041251445224
20
17.2539671742059
30
0
41
1
10
0.479932802642821
20
17.2437036163446
30
0
41
1
10
0.479989904762306
20
17.2354068026071
30
0
41
1
10
0.47629028403
20
17.2119916884379
30
0
41
1
10
0.470653225175312
20
17.1951666646053
30
0
41
1
10
0.4514251703458
20
17.1497628240649
30
0
41
1
10
0.434780268885334
20
17.1191022359134
30
0
41
1
10
0.409044256126407
20
17.07744777963
30
0
41
1
10
0.40192674158854
20
17.0664096731148
30
0
41
1
10
0.394519052838319
20
17.0553632209806
30
0
0
SPLINE
5
30C
100
AcDbEntity
8
1
62
256
6
ByLayer
370
-1
48
1
60
0
100
AcDbSpline
70
4
71
3
72
10
73
6
40
0
40
0
40
0
40
0
40
0.5
40
0.5
40
1
40
1
40
1
40
1
41
1
10
10.5532742267156
20
-13.477065543514
30
0
41
1
10
10.6515111669485
20
-12.3542121785885
30
0
41
1
10
11.0414217943321
20
-10.804727055307
30
0
41
1
10
12.5229839013599
20
-8.14892810552541
30
0
41
1
10
13.5366883985073
20
-7.06619538050415
30
0
41
1
10
14.5981408934719
20
-6.28709950729176
30
0
0
SPLINE
5
30D
100
AcDbEntity
8
1
62
256
6
ByLayer
370
-1
48
1
60
0
100
AcDbSpline
70
4
71
3
72
8
73
4
40
0
40
0
40
0
40
0
40
1
40
1
40
1
40
1
41
1
10
15.5101418017126
20
6.91182034895201
30
0
41
1
10
15.5035388897828
20
6.9121304019441
30
0
41
1
10
15.4962894994633
20
6.91371448981656
30
0
41
1
10
15.488465255728
20
6.91661619131142
30
0
0
SPLINE
5
30E
100
AcDbEntity
8
1
62
256
6
ByLayer
370
-1
48
1
60
0
100
AcDbSpline
70
4
71
3
72
16
73
12
40
0
40
0
40
0
40
0
40
0.235183606845621
40
0.235183606845621
40
0.469728428966878
40
0.469728428966878
40
0.714089699315241
40
0.714089699315241
40
0.893960138162008
40
0.893960138162008
40
1
40
1
40
1
40
1
41
1
10
10.028348669773
20
-5.37980757664931
30
0
41
1
10
10.0258404264313
20
-5.45941245736569
30
0
41
1
10
10.0507635876177
20
-5.54660582616626
30
0
41
1
10
10.1472383736969
20
-5.71995428718026
30
0
41
1
10
10.219861609627
20
-5.80851823933088
30
0
41
1
10
10.407810493528
20
-5.97446629850582
30
0
41
1
10
10.5280543484181
20
-6.05393412700001
30
0
41
1
10
10.7657751202111
20
-6.15947885842614
30
0
41
1
10
10.878563264411
20
-6.19497822415481
30
0
41
1
10
11.0646395679085
20
-6.22718383390193
30
0
41
1
10
11.1362649968326
20
-6.23399852436214
30
0
41
1
10
11.2076606193513
20
-6.23508123937172
30
0
0
SPLINE
5
30F
100
AcDbEntity
8
1
62
256
6
ByLayer
370
-1
48
1
60
0
100
AcDbSpline
70
4
71
3
72
22
73
18
40
0
40
0
40
0
40
0
40
0.0436369563004696
40
0.0436369563004696
40
0.0744949566618586
40
0.0744949566618586
40
0.105621047709127
40
0.105621047709127
40
0.133748808265416
40
0.133748808265416
40
0.181272372610359
40
0.181272372610359
40
0.272322247199487
40
0.272322247199487
40
0.55030981288234
40
0.55030981288234
40
1
40
1
40
1
40
1
41
1
10
0.394519052838319
20
-9.81506636790175
30
0
41
1
10
0.401363938093539
20
-9.8219319512765
30
0
41
1
10
0.408643289748198
20
-9.82812252942173
30
0
41
1
10
0.421239852648512
20
-9.83578748781622
30
0
41
1
10
0.426614581838692
20
-9.83813660676901
30
0
41
1
10
0.436849717151375
20
-9.8402611888488
30
0
41
1
10
0.441829037005164
20
-9.84001190380447
30
0
41
1
10
0.450124298357537
20
-9.83714146354649
30
0
41
1
10
0.453657064794498
20
-9.834747807097
30
0
41
1
10
0.461779987613767
20
-9.82656502340286
30
0
41
1
10
0.465628585627229
20
-9.81950934144652
30
0
41
1
10
0.474208070443382
20
-9.79697170415233
30
0
41
1
10
0.476930730974999
20
-9.77929436989612
30
0
41
1
10
0.48260427760809
20
-9.70621349940819
30
0
41
1
10
0.475888232455674
20
-9.64461019196196
30
0
41
1
10
0.450862000692581
20
-9.4849327517065
30
0
41
1
10
0.425772182653674
20
-9.38336212878836
30
0
41
1
10
0.394519052838319
20
-9.28315947401117
30
0
0
SPLINE
5
310
100
AcDbEntity
8
1
62
256
6
ByLayer
370
-1
48
1
60
0
100
AcDbSpline
70
4
71
3
72
22
73
18
40
0
40
0
40
0
40
0
40
0.326924660114704
40
0.326924660114704
40
0.480227445467508
40
0.480227445467508
40
0.604912955361423
40
0.604912955361423
40
0.694478485193103
40
0.694478485193103
40
0.784923219142227
40
0.784923219142227
40
0.864523302426418
40
0.864523302426418
40
0.971549591847171
40
0.971549591847171
40
1
40
1
40
1
40
1
41
1
10
0.394519052838319
20
-17.0553632209806
30
0
41
1
10
0.420017283443855
20
-17.093386549631
30
0
41
1
10
0.442601423713171
20
-17.1319888896103
30
0
41
1
10
0.466064895883648
20
-17.1834891983547
30
0
41
1
10
0.47220367693447
20
-17.199485166516
30
0
41
1
10
0.478868193551676
20
-17.2251688004805
30
0
41
1
10
0.480260594561116
20
-17.2356978586683
30
0
41
1
10
0.478301899123409
20
-17.2496039013895
30
0
41
1
10
0.476114604610331
20
-17.2542443704308
30
0
41
1
10
0.468595526499001
20
-17.2597260488108
30
0
41
1
10
0.463090479114726
20
-17.2605622358449
30
0
41
1
10
0.450397277590952
20
-17.2581972296419
30
0
41
1
10
0.443352792041708
20
-17.2554608325842
30
0
41
1
10
0.425804744107211
20
-17.2462471180413
30
0
41
1
10
0.414688144357683
20
-17.2387157644607
30
0
41
1
10
0.4005494573926
20
-17.2277616222795
30
0
41
1
10
0.397536912384624
20
-17.2253512227562
30
0
41
1
10
0.394519052838319
20
-17.2228674449602
30
0
0
SPLINE
5
311
100
AcDbEntity
8
1
62
256
6
ByLayer
370
-1
48
1
60
0
100
AcDbSpline
70
4
71
3
72
8
73
4
40
0
40
0
40
0
40
0
40
1
40
1
40
1
40
1
41
1
10
0
20
17.2929584404609
30
0
41
1
10
0.130699965526105
20
17.4766490191934
30
0
41
1
10
0.262224882939222
20
17.6595606391472
30
0
41
1
10
0.394519052838319
20
17.8417232227022
30
0
0
SPLINE
5
312
100
AcDbEntity
8
1
62
256
6
ByLayer
370
-1
48
1
60
0
100
AcDbSpline
70
4
71
3
72
8
73
4
40
0
40
0
40
0
40
0
40
1
40
1
40
1
40
1
41
1
10
0.394519052838319
20
-17.977360486755
30
0
41
1
10
0.262992539514613
20
-17.8673178070594
30
0
41
1
10
0.131485811585407
20
-17.7572435888389
30
0
41
1
10
0
20
-17.6471360742617
30
0
0
SPLINE
5
313
100
AcDbEntity
8
1
62
256
6
ByLayer
370
-1
48
1
60
0
100
AcDbSpline
70
4
71
3
72
8
73
4
40
0
40
0
40
0
40
0
40
1
40
1
40
1
40
1
41
1
10
0.394519052838319
20
-16.2962828885178
30
0
41
1
10
0.263012503329605
20
-16.1888841255729
30
0
41
1
10
0.131506148378492
20
-16.0814850449873
30
0
41
1
10
0
20
-15.9740856271496
30
0
0
SPLINE
5
314
100
AcDbEntity
8
1
62
256
6
ByLayer
370
-1
48
1
60
0
100
AcDbSpline
70
4
71
3
72
8
73
4
40
0
40
0
40
0
40
0
40
1
40
1
40
1
40
1
41
1
10
0.394519052838319
20
18.4734609781557
30
0
41
1
10
0.262402589278366
20
18.3039576866996
30
0
41
1
10
0.130882435689898
20
18.1338318440795
30
0
41
1
10
0
20
17.9630568563235
30
0
0
SPLINE
5
315
100
AcDbEntity
8
1
62
256
6
ByLayer
370
-1
48
1
60
0
100
AcDbSpline
70
4
71
3
72
22
73
18
40
0
40
0
40
0
40
0
40
0.0910047741915422
40
0.0910047741915422
40
0.184023049178438
40
0.184023049178438
40
0.264712432995396
40
0.264712432995396
40
0.33664602610819
40
0.33664602610819
40
0.448212359185216
40
0.448212359185216
40
0.625937467640396
40
0.625937467640396
40
0.920973346702054
40
0.920973346702054
40
1
40
1
40
1
40
1
41
1
10
0.394519052838319
20
-16.2962828885178
30
0
41
1
10
0.404527168273603
20
-16.3044563157819
30
0
41
1
10
0.414650079342181
20
-16.3117854929754
30
0
41
1
10
0.433970125828608
20
-16.3231245543355
30
0
41
1
10
0.443408611477253
20
-16.3271623060183
30
0
41
1
10
0.458167637876272
20
-16.3297944771553
30
0
41
1
10
0.464046530848833
20
-16.3290462676041
30
0
41
1
10
0.472305217838794
20
-16.3241869837803
30
0
41
1
10
0.47511518918796
20
-16.3204258707156
30
0
41
1
10
0.479642171430101
20
-16.3084062007746
30
0
41
1
10
0.480059805326363
20
-16.2986752254001
30
0
41
1
10
0.477148390315193
20
-16.2709132845923
30
0
41
1
10
0.471539711438481
20
-16.2508928141742
30
0
41
1
10
0.451489991581639
20
-16.1960224903627
30
0
41
1
10
0.433291297997727
20
-16.1588091241487
30
0
41
1
10
0.406592336284149
20
-16.1118163809665
30
0
41
1
10
0.400663120027105
20
-16.101770428427
30
0
41
1
10
0.394519052838319
20
-16.0917289824197
30
0
0
SPLINE
5
316
100
AcDbEntity
8
1
62
256
6
ByLayer
370
-1
48
1
60
0
100
AcDbSpline
70
4
71
3
72
8
73
4
40
0
40
0
40
0
40
0
40
1
40
1
40
1
40
1
41
1
10
0.394519052838319
20
17.0553632209806
30
0
41
1
10
0.26198177360439
20
16.8577217216663
30
0
41
1
10
0.130450045331941
20
16.6591749695091
30
0
41
1
10
0
20
16.4596905081325
30
0
0
SPLINE
5
317
100
AcDbEntity
8
SK1
62
256
6
ByLayer
370
-1
48
1
60
0
100
AcDbSpline
70
4
71
3
72
8
73
4
40
0
40
0
40
0
40
0
40
1
40
1
40
1
40
1
41
1
10
0
20
-18.4877367901945
30
0
41
1
10
-0.083376546037556
20
-18.3859403967323
30
0
41
1
10
-0.16655242241734
20
-18.2839243209088
30
0
41
1
10
-0.249519052838338
20
-18.181682346768
30
0
0
SPLINE
5
318
100
AcDbEntity
8
SK1
62
256
6
ByLayer
370
-1
48
1
60
0
100
AcDbSpline
70
4
71
3
72
8
73
4
40
0
40
0
40
0
40
0
40
1
40
1
40
1
40
1
41
1
10
0
20
19.3208801979494
30
0
41
1
10
-0.0832455498896536
20
19.2385518046065
30
0
41
1
10
-0.166419466436651
20
19.1561267310563
30
0
41
1
10
-0.249519052838338
20
19.0736019583787
30
0
0
SPLINE
5
319
100
AcDbEntity
8
SK1
62
256
6
ByLayer
370
-1
48
1
60
0
100
AcDbSpline
70
4
71
3
72
8
73
4
40
0
40
0
40
0
40
0
40
1
40
1
40
1
40
1
41
1
10
0
20
-9.41654987898986
30
0
41
1
10
-0.0833526587894937
20
-9.33173506323269
30
0
41
1
10
-0.166530386803458
20
-9.24669039428301
30
0
41
1
10
-0.249519052838338
20
-9.16140099075224
30
0
0
SPLINE
5
31A
100
AcDbEntity
8
SK1
62
256
6
ByLayer
370
-1
48
1
60
0
100
AcDbSpline
70
4
71
3
72
8
73
4
40
0
40
0
40
0
40
0
40
1
40
1
40
1
40
1
41
1
10
0
20
10.6499489023893
30
0
41
1
10
-0.0853229403857085
20
10.4205429189484
30
0
41
1
10
-0.168538126347244
20
10.1900748976197
30
0
41
1
10
-0.249519052838338
20
9.95857998009566
30
0
0
SPLINE
5
31B
100
AcDbEntity
8
SK1
62
256
6
ByLayer
370
-1
48
1
60
0
100
AcDbSpline
70
4
71
3
72
8
73
4
40
0
40
0
40
0
40
0
40
1
40
1
40
1
40
1
41
1
10
0
20
-15.9740856271496
30
0
41
1
10
-0.0831731013446984
20
-15.9061592010903
30
0
41
1
10
-0.166346120039435
20
-15.8382326400955
30
0
41
1
10
-0.249519052838338
20
-15.7703059388672
30
0
0
SPLINE
5
31C
100
AcDbEntity
8
SK1
62
256
6
ByLayer
370
-1
48
1
60
0
100
AcDbSpline
70
4
71
3
72
8
73
4
40
0
40
0
40
0
40
0
40
1
40
1
40
1
40
1
41
1
10
0
20
-15.4368523871774
30
0
41
1
10
-0.0837817374583381
20
-15.2955438255014
30
0
41
1
10
-0.166964923531196
20
-15.1537593946222
30
0
41
1
10
-0.249519052838338
20
-15.0114907404589
30
0
0
SPLINE
5
31D
100
AcDbEntity
8
SK1
62
256
6
ByLayer
370
-1
48
1
60
0
100
AcDbSpline
70
4
71
3
72
8
73
4
40
0
40
0
40
0
40
0
40
1
40
1
40
1
40
1
41
1
10
0
20
19.2917446495518
30
0
41
1
10
-0.0832682037895154
20
19.2055314891717
30
0
41
1
10
-0.166442432040981
20
19.1191971441407
30
0
41
1
10
-0.249519052838338
20
19.0327379005148
30
0
0
SPLINE
5
31E
100
AcDbEntity
8
SK1
62
256
6
ByLayer
370
-1
48
1
60
0
100
AcDbSpline
70
4
71
3
72
8
73
4
40
0
40
0
40
0
40
0
40
1
40
1
40
1
40
1
41
1
10
0
20
-19.1454018402203
30
0
41
1
10
-0.0832962738564049
20
-19.0547325687286
30
0
41
1
10
-0.166470906512473
20
-18.9639140498515
30
0
41
1
10
-0.249519052838338
20
-18.8729418033523
30
0
0
SPLINE
5
31F
100
AcDbEntity
8
SK1
62
256
6
ByLayer
370
-1
48
1
60
0
100
AcDbSpline
70
4
71
3
72
8
73
4
40
0
40
0
40
0
40
0
40
1
40
1
40
1
40
1
41
1
10
0
20
-17.2929584404609
30
0
41
1
10
-0.0835139622307679
20
-17.1755848207153
30
0
41
1
10
-0.166692173533136
20
-17.0578915172672
30
0
41
1
10
-0.249519052838338
20
-16.9398705309347
30
0
0
SPLINE
5
320
100
AcDbEntity
8
SK1
62
256
6
ByLayer
370
-1
48
1
60
0
100
AcDbSpline
70
4
71
3
72
8
73
4
40
0
40
0
40
0
40
0
40
1
40
1
40
1
40
1
41
1
10
0
20
16.8981185823602
30
0
41
1
10
-0.0831758476997777
20
16.8296416826295
30
0
41
1
10
-0.166348900140491
20
16.76116025562
30
0
41
1
10
-0.249519052838338
20
16.6926741335383
30
0
0
SPLINE
5
321
100
AcDbEntity
8
SK1
62
256
6
ByLayer
370
-1
48
1
60
0
100
AcDbSpline
70
4
71
3
72
8
73
4
40
0
40
0
40
0
40
0
40
1
40
1
40
1
40
1
41
1
10
0
20
17.9630568563235
30
0
41
1
10
-0.0834352757658792
20
17.8541907726337
30
0
41
1
10
-0.166612124255238
20
17.7450598241335
30
0
41
1
10
-0.249519052838338
20
17.6356568712878
30
0
0
SPLINE
5
322
100
AcDbEntity
8
SK1
62
256
6
ByLayer
370
-1
48
1
60
0
100
AcDbSpline
70
4
71
3
72
8
73
4
40
0
40
0
40
0
40
0
40
1
40
1
40
1
40
1
41
1
10
0
20
14.183490812332
30
0
41
1
10
-0.0840281136433134
20
14.0241122346499
30
0
41
1
10
-0.167216153527676
20
13.8641387078905
30
0
41
1
10
-0.249519052838338
20
13.7035643018125
30
0
0
SPLINE
5
323
100
AcDbEntity
8
SK1
62
256
6
ByLayer
370
-1
48
1
60
0
100
AcDbSpline
70
4
71
3
72
8
73
4
40
0
40
0
40
0
40
0
40
1
40
1
40
1
40
1
41
1
10
0
20
16.4596905081325
30
0
41
1
10
-0.083623106564545
20
16.3318138919978
30
0
41
1
10
-0.166803293990711
20
16.2035493499351
30
0
41
1
10
-0.249519052838338
20
16.0748883021891
30
0
0
SPLINE
5
324
100
AcDbEntity
8
SK1
62
256
6
ByLayer
370
-1
48
1
60
0
100
AcDbSpline
70
4
71
3
72
8
73
4
40
0
40
0
40
0
40
0
40
1
40
1
40
1
40
1
41
1
10
0
20
18.2427084508718
30
0
41
1
10
-0.0831894147874266
20
18.1713699316054
30
0
41
1
10
-0.166362626497147
20
18.1000062119281
30
0
41
1
10
-0.249519052838338
20
18.0286164298472
30
0
0
SPLINE
5
325
100
AcDbEntity
8
SK1
62
256
6
ByLayer
370
-1
48
1
60
0
100
AcDbSpline
70
4
71
3
72
8
73
4
40
0
40
0
40
0
40
0
40
1
40
1
40
1
40
1
41
1
10
0
20
11.7066823491331
30
0
41
1
10
-0.0832221958467869
20
11.6324097762753
30
0
41
1
10
-0.166396158696614
20
11.5580650812788
30
0
41
1
10
-0.249519052838338
20
11.483644388276
30
0
0
SPLINE
5
326
100
AcDbEntity
8
SK1
62
256
6
ByLayer
370
-1
48
1
60
0
100
AcDbSpline
70
4
71
3
72
8
73
4
40
0
40
0
40
0
40
0
40
1
40
1
40
1
40
1
41
1
10
0
20
-17.6471360742617
30
0
41
1
10
-0.0831814897333629
20
-17.5774790749024
30
0
41
1
10
-0.166354608804397
20
-17.507808745594
30
0
41
1
10
-0.249519052838338
20
-17.4381246139465
30
0
0
SPLINE
5
327
100
AcDbEntity
8
SK1
62
256
6
ByLayer
370
-1
48
1
60
0
100
AcDbSpline
70
4
71
3
72
8
73
4
40
0
40
0
40
0
40
0
40
1
40
1
40
1
40
1
41
1
10
0
20
-12.6311682604383
30
0
41
1
10
-0.0844518749535723
20
-12.4455098841085
30
0
41
1
10
-0.167648592736953
20
-12.2590823591226
30
0
41
1
10
-0.249519052838338
20
-12.0718886217914
30
0
0
SPLINE
5
328
100
AcDbEntity
8
SK1
62
256
6
ByLayer
370
-1
48
1
60
0
100
AcDbSpline
70
4
71
3
72
8
73
4
40
0
40
0
40
0
40
0
40
1
40
1
40
1
40
1
41
1
10
0
20
18.8791263469343
30
0
41
1
10
-0.0833315242048229
20
18.7833167506412
30
0
41
1
10
-0.166506688858249
20
18.6873254601423
30
0
41
1
10
-0.249519052838338
20
18.5911471576056
30
0
0
SPLINE
5
329
100
AcDbEntity
8
1
62
256
6
ByLayer
370
-1
48
1
60
0
100
AcDbSpline
70
4
71
3
72
14
73
10
40
0
40
0
40
0
40
0
40
0.261394798492229
40
0.261394798492229
40
0.522786403491588
40
0.522786403491588
40
0.783802380934422
40
0.783802380934422
40
1
40
1
40
1
40
1
41
1
10
21.6682271748949
20
20.1672928554019
30
0
41
1
10
21.6770862497959
20
20.1663482381509
30
0
41
1
10
21.6885450224505
20
20.1659472387246
30
0
41
1
10
21.7147717815143
20
20.1658729635018
30
0
41
1
10
21.7299068315902
20
20.1661895051994
30
0
41
1
10
21.7617252241981
20
20.1671380395779
30
0
41
1
10
21.7788531805217
20
20.1677774215359
30
0
41
1
10
21.8098395985747
20
20.1690461016003
30
0
41
1
10
21.8240675499848
20
20.1696735511331
30
0
41
1
10
21.8375978925867
20
20.1703531374977
30
0
0
SPLINE
5
32A
100
AcDbEntity
8
SK1
62
256
6
ByLayer
370
-1
48
1
60
0
100
AcDbSpline
70
4
71
3
72
8
73
4
40
0
40
0
40
0
40
0
40
1
40
1
40
1
40
1
41
1
10
-0.249519052838338
20
16.9398705309347
30
0
41
1
10
-0.166692173533136
20
17.0578915172672
30
0
41
1
10
-0.0835139622307679
20
17.1755848207154
30
0
41
1
10
0
20
17.2929584404609
30
0
0
SPLINE
5
32B
100
AcDbEntity
8
SK1
62
256
6
ByLayer
370
-1
48
1
60
0
100
AcDbSpline
70
4
71
3
72
20
73
16
40
0
40
0
40
0
40
0
40
0.385406985191178
40
0.385406985191178
40
0.579616154909684
40
0.579616154909684
40
0.671848246021603
40
0.671848246021603
40
0.76524764880691
40
0.76524764880691
40
0.84851143696937
40
0.84851143696937
40
0.971663017794213
40
0.971663017794213
40
1
40
1
40
1
40
1
41
1
10
-0.324519052838326
20
9.24151469522658
30
0
41
1
10
-0.324519052838326
20
9.21814827719885
30
0
41
1
10
-0.32305425626214
20
9.19503803794194
30
0
41
1
10
-0.315092437748234
20
9.16504459765713
30
0
41
1
10
-0.311326104686998
20
9.15557781466973
30
0
41
1
10
-0.302956414001983
20
9.14549610651345
30
0
41
1
10
-0.299741503737749
20
9.14282351615424
30
0
41
1
10
-0.292368279739037
20
9.13955644084855
30
0
41
1
10
-0.288086393789286
20
9.13898493962385
30
0
41
1
10
-0.27963901652609
20
9.14021746380293
30
0
41
1
10
-0.275421117819008
20
9.14176754777201
30
0
41
1
10
-0.265204329535152
20
9.14728600941044
30
0
41
1
10
-0.259144614642707
20
9.15208597074678
30
0
41
1
10
-0.252125062080978
20
9.1587697932906
30
0
41
1
10
-0.250814811624679
20
9.16006930897824
30
0
41
1
10
-0.249519052838963
20
9.16140099075159
30
0
0
SPLINE
5
32C
100
AcDbEntity
8
SK1
62
256
6
ByLayer
370
-1
48
1
60
0
100
AcDbSpline
70
4
71
3
72
8
73
4
40
0
40
0
40
0
40
0
40
1
40
1
40
1
40
1
41
1
10
-0.249519052838338
20
-14.637613503657
30
0
41
1
10
-0.166348014707381
20
-14.7058740999149
30
0
41
1
10
-0.0831749697857163
20
-14.774131436091
30
0
41
1
10
0
20
-14.8423856446161
30
0
0
SPLINE
5
32D
100
AcDbEntity
8
SK1
62
256
6
ByLayer
370
-1
48
1
60
0
100
AcDbSpline
70
4
71
3
72
20
73
16
40
0
40
0
40
0
40
0
40
0.129391398627121
40
0.129391398627121
40
0.220458200384517
40
0.220458200384517
40
0.312379509132678
40
0.312379509132678
40
0.394769845010268
40
0.394769845010268
40
0.533954665856946
40
0.533954665856946
40
0.802759335600818
40
0.802759335600818
40
1
40
1
40
1
40
1
41
1
10
-0.249519052838309
20
-9.16140099075223
30
0
41
1
10
-0.255362040070764
20
-9.15539601537785
30
0
41
1
10
-0.26158530331864
20
-9.14995408544223
30
0
41
1
10
-0.272397150019259
20
-9.14315542354133
30
0
41
1
10
-0.277015653486984
20
-9.14104445330936
30
0
41
1
10
-0.285864724264968
20
-9.13904191818953
30
0
41
1
10
-0.290199085765948
20
-9.1391735377341
30
0
41
1
10
-0.297427390436127
20
-9.14151478857605
30
0
41
1
10
-0.300513117526208
20
-9.14350839566707
30
0
41
1
10
-0.307648911384433
20
-9.15037575216957
30
0
41
1
10
-0.311079358948092
20
-9.15633702430398
30
0
41
1
10
-0.318874261048876
20
-9.17550517435612
30
0
41
1
10
-0.321502736864034
20
-9.19062343783872
30
0
41
1
10
-0.324080154367181
20
-9.21760140429068
30
0
41
1
10
-0.324519052838326
20
-9.22946789997459
30
0
41
1
10
-0.324519052838326
20
-9.24151469522658
30
0
0
SPLINE
5
32E
100
AcDbEntity
8
SK1
62
256
6
ByLayer
370
-1
48
1
60
0
100
AcDbSpline
70
4
71
3
72
14
73
10
40
0
40
0
40
0
40
0
40
0.215671456023021
40
0.215671456023021
40
0.432055502470583
40
0.432055502470583
40
0.651295319439995
40
0.651295319439995
40
1
40
1
40
1
40
1
41
1
10
-0.324519052838326
20
-18.7452280296618
30
0
41
1
10
-0.324519052838326
20
-18.7432262310315
30
0
41
1
10
-0.322986587936356
20
-18.7426935981352
30
0
41
1
10
-0.317027347027277
20
-18.7447580700333
30
0
41
1
10
-0.312525063511828
20
-18.7473811701276
30
0
41
1
10
-0.301460306286572
20
-18.7550744803925
30
0
41
1
10
-0.294765490337795
20
-18.7602413969045
30
0
41
1
10
-0.27606276845782
20
-18.7755611962421
30
0
41
1
10
-0.262946308913087
20
-18.7870872215574
30
0
41
1
10
-0.249519052838338
20
-18.7993790062494
30
0
0
SPLINE
5
32F
100
AcDbEntity
8
SK1
62
256
6
ByLayer
370
-1
48
1
60
0
100
AcDbSpline
70
4
71
3
72
8
73
4
40
0
40
0
40
0
40
0
40
1
40
1
40
1
40
1
41
1
10
-0.249519052838338
20
18.4790105443333
30
0
41
1
10
-0.166372838435052
20
18.5525484468556
30
0
41
1
10
-0.0831995072585414
20
18.6260454864902
30
0
41
1
10
0
20
18.6995029779807
30
0
0
SPLINE
5
330
100
AcDbEntity
8
SK1
62
256
6
ByLayer
370
-1
48
1
60
0
100
AcDbSpline
70
4
71
3
72
14
73
10
40
0
40
0
40
0
40
0
40
0.224988908767943
40
0.224988908767943
40
0.449307446414288
40
0.449307446414288
40
0.764271595107042
40
0.764271595107042
40
1
40
1
40
1
40
1
41
1
10
-0.324519052838326
20
-18.99973135775
30
0
41
1
10
-0.324519052838326
20
-18.9996610306687
30
0
41
1
10
-0.322688493619154
20
-19.0014055692112
30
0
41
1
10
-0.316015221172592
20
-19.0078965099529
30
0
41
1
10
-0.311122586485027
20
-19.012690801461
30
0
41
1
10
-0.297114830857851
20
-19.0264704212903
30
0
41
1
10
-0.286897940776583
20
-19.0365572483739
30
0
41
1
10
-0.267570126463596
20
-19.0556894266828
30
0
41
1
10
-0.25867869207795
20
-19.0645056778941
30
0
41
1
10
-0.249519052838338
20
-19.0736019583787
30
0
0
SPLINE
5
331
100
AcDbEntity
8
SK1
62
256
6
ByLayer
370
-1
48
1
60
0
100
AcDbSpline
70
4
71
3
72
12
73
8
40
0
40
0
40
0
40
0
40
0.58692894146783
40
0.58692894146783
40
0.899803830264789
40
0.899803830264789
40
1
40
1
40
1
40
1
41
1
10
-0.249519052838338
20
16.0748883021891
30
0
41
1
10
-0.273031817321254
20
16.0383151393973
30
0
41
1
10
-0.293531671147491
20
16.0010313969561
30
0
41
1
10
-0.315053692739923
20
15.9486930185265
30
0
41
1
10
-0.320835978604379
20
15.930933385035
30
0
41
1
10
-0.324078278764006
20
15.9106792734836
30
0
41
1
10
-0.324519052838326
20
15.9059636217426
30
0
41
1
10
-0.324519052838326
20
15.9016211093691
30
0
0
SPLINE
5
332
100
AcDbEntity
8
SK1
62
256
6
ByLayer
370
-1
48
1
60
0
100
AcDbSpline
70
4
71
3
72
8
73
4
40
0
40
0
40
0
40
0
40
1
40
1
40
1
40
1
41
1
10
-0.249519052838338
20
15.7703059388672
30
0
41
1
10
-0.166346120039435
20
15.8382326400955
30
0
41
1
10
-0.0831731013446984
20
15.9061592010903
30
0
41
1
10
0
20
15.9740856271496
30
0
0
SPLINE
5
333
100
AcDbEntity
8
SK1
62
256
6
ByLayer
370
-1
48
1
60
0
100
AcDbSpline
70
4
71
3
72
10
73
6
40
0
40
0
40
0
40
0
40
0.384847239802077
40
0.384847239802077
40
1
40
1
40
1
40
1
41
1
10
-0.324519052838326
20
11.7907116231339
30
0
41
1
10
-0.324519052838326
20
11.823098572442
30
0
41
1
10
-0.318462256776428
20
11.8592176392477
30
0
41
1
10
-0.296162605285048
20
11.9530775692916
30
0
41
1
10
-0.275235094192823
20
12.0130898574439
30
0
41
1
10
-0.249519052838338
20
12.0718886217914
30
0
0
SPLINE
5
334
100
AcDbEntity
8
SK1
62
256
6
ByLayer
370
-1
48
1
60
0
100
AcDbSpline
70
4
71
3
72
10
73
6
40
0
40
0
40
0
40
0
40
0.51612089783664
40
0.51612089783664
40
1
40
1
40
1
40
1
41
1
10
-0.324519052838326
20
6.37393899896699
30
0
41
1
10
-0.324519052838326
20
6.46848413226296
30
0
41
1
10
-0.314804489987182
20
6.56605508744215
30
0
41
1
10
-0.288139098852241
20
6.75418772188657
30
0
41
1
10
-0.271010764248047
20
6.84569363094244
30
0
41
1
10
-0.249519052838338
20
6.93657952761937
30
0
0
SPLINE
5
335
100
AcDbEntity
8
SK1
62
256
6
ByLayer
370
-1
48
1
60
0
100
AcDbSpline
70
4
71
3
72
8
73
4
40
0
40
0
40
0
40
0
40
1
40
1
40
1
40
1
41
1
10
-0.249519052838338
20
18.181682346768
30
0
41
1
10
-0.16655242241734
20
18.2839243209088
30
0
41
1
10
-0.083376546037556
20
18.3859403967323
30
0
41
1
10
0
20
18.4877367901945
30
0
0
SPLINE
5
336
100
AcDbEntity
8
SK1
62
256
6
ByLayer
370
-1
48
1
60
0
100
AcDbSpline
70
4
71
3
72
12
73
8
40
0
40
0
40
0
40
0
40
0.244382081688521
40
0.244382081688521
40
0.545489326418063
40
0.545489326418063
40
1
40
1
40
1
40
1
41
1
10
-0.324519052838326
20
-18.4837528208056
30
0
41
1
10
-0.324519052838326
20
-18.4873744367385
30
0
41
1
10
-0.322128618712242
20
-18.4933432827467
30
0
41
1
10
-0.313183882397595
20
-18.5095109152339
30
0
41
1
10
-0.305704760138468
20
-18.5206052291406
30
0
41
1
10
-0.28374770105026
20
-18.5503630366426
30
0
41
1
10
-0.267231283716455
20
-18.5706257290097
30
0
41
1
10
-0.249519052838338
20
-18.5911471576056
30
0
0
SPLINE
5
337
100
AcDbEntity
8
SK1
62
256
6
ByLayer
370
-1
48
1
60
0
100
AcDbSpline
70
4
71
3
72
8
73
4
40
0
40
0
40
0
40
0
40
1
40
1
40
1
40
1
41
1
10
-0.249519052838366
20
6.93657952761939
30
0
41
1
10
-0.171274600487806
20
7.2674660296901
30
0
41
1
10
-0.0880009987361632
20
7.59681644140632
30
0
41
1
10
0
20
7.92441869309681
30
0
0
SPLINE
5
338
100
AcDbEntity
8
SK1
62
256
6
ByLayer
370
-1
48
1
60
0
100
AcDbSpline
70
4
71
3
72
16
73
12
40
0
40
0
40
0
40
0
40
0.294252714393228
40
0.294252714393228
40
0.529898215766517
40
0.529898215766517
40
0.767965977116175
40
0.767965977116175
40
0.973600455338375
40
0.973600455338375
40
1
40
1
40
1
40
1
41
1
10
-0.249519052838338
20
18.0286164298472
30
0
41
1
10
-0.260923587708845
20
18.018825638023
30
0
41
1
10
-0.272223717922031
20
18.0098251146612
30
0
41
1
10
-0.290679810990809
20
17.9968972347042
30
0
41
1
10
-0.298377115552597
20
17.9922197116286
30
0
41
1
10
-0.311145567526211
20
17.9863871625771
30
0
41
1
10
-0.316346496481771
20
17.9852237644193
30
0
41
1
10
-0.322566393250241
20
17.986801178794
30
0
41
1
10
-0.324146381287477
20
17.9890373581814
30
0
41
1
10
-0.324499025888883
20
17.9928736424809
30
0
41
1
10
-0.324519052840685
20
17.9933346587517
30
0
41
1
10
-0.324519052840685
20
17.993814384429
30
0
0
SPLINE
5
339
100
AcDbEntity
8
SK1
62
256
6
ByLayer
370
-1
48
1
60
0
100
AcDbSpline
70
4
71
3
72
14
73
10
40
0
40
0
40
0
40
0
40
0.316895144360519
40
0.316895144360519
40
0.562168438036201
40
0.562168438036201
40
0.810227665569687
40
0.810227665569687
40
1
40
1
40
1
40
1
41
1
10
-0.249519052838338
20
-18.4790105443333
30
0
41
1
10
-0.261758456916198
20
-18.4681855162732
30
0
41
1
10
-0.273801280056034
20
-18.4581311775524
30
0
41
1
10
-0.292898155610345
20
-18.4436785214857
30
0
41
1
10
-0.300630418859043
20
-18.4384045914485
30
0
41
1
10
-0.313225525760458
20
-18.4314029039591
30
0
41
1
10
-0.318209284397199
20
-18.4296548339051
30
0
41
1
10
-0.323400842601245
20
-18.4303455145907
30
0
41
1
10
-0.324519052838326
20
-18.4318962207165
30
0
41
1
10
-0.324519052838326
20
-18.4344911780253
30
0
0
SPLINE
5
33A
100
AcDbEntity
8
SK1
62
256
6
ByLayer
370
-1
48
1
60
0
100
AcDbSpline
70
4
71
3
72
8
73
4
40
0
40
0
40
0
40
0
40
1
40
1
40
1
40
1
41
1
10
-0.249519052838338
20
17.4381246139465
30
0
41
1
10
-0.166354608804397
20
17.507808745594
30
0
41
1
10
-0.0831814897333629
20
17.5774790749024
30
0
41
1
10
0
20
17.6471360742617
30
0
0
SPLINE
5
33B
100
AcDbEntity
8
SK1
62
256
6
ByLayer
370
-1
48
1
60
0
100
AcDbSpline
70
4
71
3
72
22
73
18
40
0
40
0
40
0
40
0
40
0.0856174634481561
40
0.0856174634481561
40
0.134825029442243
40
0.134825029442243
40
0.174527146179651
40
0.174527146179651
40
0.214477434778859
40
0.214477434778859
40
0.261551162214559
40
0.261551162214559
40
0.340810854424602
40
0.340810854424602
40
0.577132586944293
40
0.577132586944293
40
1
40
1
40
1
40
1
41
1
10
-0.249519052838338
20
5.61145683315186
30
0
41
1
10
-0.253798716498892
20
5.60493653117052
30
0
41
1
10
-0.258449695359957
20
5.5987002268925
30
0
41
1
10
-0.266520083320302
20
5.59059483615645
30
0
41
1
10
-0.269677491386176
20
5.58796821863443
30
0
41
1
10
-0.2755695212837
20
5.58457740664718
30
0
41
1
10
-0.278323684911072
20
5.583542252656
30
0
41
1
10
-0.283666175074785
20
5.58287503764208
30
0
41
1
10
-0.286316303058072
20
5.58325414631425
30
0
41
1
10
-0.291520597236769
20
5.58542279538239
30
0
41
1
10
-0.29406097905732
20
5.58744936764259
30
0
41
1
10
-0.299958132475013
20
5.5940339804104
30
0
41
1
10
-0.302866290294219
20
5.59942932034254
30
0
41
1
10
-0.312410070826701
20
5.62209996439327
30
0
41
1
10
-0.315974274426225
20
5.64238315515723
30
0
41
1
10
-0.323309536962483
20
5.69892560251589
30
0
41
1
10
-0.324519052838326
20
5.73700047251158
30
0
41
1
10
-0.324519052838326
20
5.77516103418449
30
0
0
SPLINE
5
33C
100
AcDbEntity
8
SK1
62
256
6
ByLayer
370
-1
48
1
60
0
100
AcDbSpline
70
4
71
3
72
8
73
4
40
0
40
0
40
0
40
0
40
1
40
1
40
1
40
1
41
1
10
-0.249519052838338
20
-18.7993790062494
30
0
41
1
10
-0.166385417532922
20
-18.875482473715
30
0
41
1
10
-0.0832119351491656
20
-18.9515279375099
30
0
41
1
10
0
20
-19.0275172217373
30
0
0
SPLINE
5
33D
100
AcDbEntity
8
SK1
62
256
6
ByLayer
370
-1
48
1
60
0
100
AcDbSpline
70
4
71
3
72
10
73
6
40
0
40
0
40
0
40
0
40
0.599902116640991
40
0.599902116640991
40
1
40
1
40
1
40
1
41
1
10
-0.249519052838338
20
-15.0114907404589
30
0
41
1
10
-0.273885994261604
20
-14.9694982684715
30
0
41
1
10
-0.294696453476916
20
-14.9265709293308
30
0
41
1
10
-0.317917590072824
20
-14.8600836524593
30
0
41
1
10
-0.324519052838326
20
-14.8337903920928
30
0
41
1
10
-0.324519052838326
20
-14.8126521189576
30
0
0
SPLINE
5
33E
100
AcDbEntity
8
SK1
62
256
6
ByLayer
370
-1
48
1
60
0
100
AcDbSpline
70
4
71
3
72
12
73
8
40
0
40
0
40
0
40
0
40
0.484360704776294
40
0.484360704776294
40
0.758944015301489
40
0.758944015301489
40
1
40
1
40
1
40
1
41
1
10
-0.249519052838338
20
-18.181682346768
30
0
41
1
10
-0.268486304763485
20
-18.1583085003069
30
0
41
1
10
-0.285941951223037
20
-18.1350199861427
30
0
41
1
10
-0.307182540152667
20
-18.1024469830297
30
0
41
1
10
-0.313746593133686
20
-18.0912263791264
30
0
41
1
10
-0.322144505375832
20
-18.0733092758655
30
0
41
1
10
-0.324519052838326
20
-18.0660466306376
30
0
41
1
10
-0.324519052838326
20
-18.0610693822919
30
0
0
SPLINE
5
33F
100
AcDbEntity
8
SK1
62
256
6
ByLayer
370
-1
48
1
60
0
100
AcDbSpline
70
4
71
3
72
8
73
4
40
0
40
0
40
0
40
0
40
1
40
1
40
1
40
1
41
1
10
-0.249519052838338
20
18.9963015174965
30
0
41
1
10
-0.166400755928578
20
19.0753914664499
30
0
41
1
10
-0.0832270823895556
20
19.1544038788987
30
0
41
1
10
0
20
19.2333411456125
30
0
0
SPLINE
5
340
100
AcDbEntity
8
SK1
62
256
6
ByLayer
370
-1
48
1
60
0
100
AcDbSpline
70
4
71
3
72
14
73
10
40
0
40
0
40
0
40
0
40
0.393621224318929
40
0.393621224318929
40
0.694221223982595
40
0.694221223982595
40
0.925984743280957
40
0.925984743280957
40
1
40
1
40
1
40
1
41
1
10
-0.249519052838338
20
18.5911471576056
30
0
41
1
10
-0.264885296613954
20
18.5733437946866
30
0
41
1
10
-0.279300162301951
20
18.5557955374966
30
0
41
1
10
-0.300741320455614
20
18.527587554582
30
0
41
1
10
-0.308883950365839
20
18.5160367177047
30
0
41
1
10
-0.319313667439644
20
18.4988657561025
30
0
41
1
10
-0.322582421844231
20
18.4923544618305
30
0
41
1
10
-0.324300283222385
20
18.4861869777089
30
0
41
1
10
-0.324519052838326
20
18.484863400127
30
0
41
1
10
-0.324519052838326
20
18.4837528208056
30
0
0
SPLINE
5
341
100
AcDbEntity
8
SK1
62
256
6
ByLayer
370
-1
48
1
60
0
100
AcDbSpline
70
4
71
3
72
8
73
4
40
0
40
0
40
0
40
0
40
1
40
1
40
1
40
1
41
1
10
-0.249519052838963
20
9.16140099075159
30
0
41
1
10
-0.166530386803885
20
9.24669039428258
30
0
41
1
10
-0.0833526587897211
20
9.33173506323246
30
0
41
1
10
0
20
9.41654987898986
30
0
0
SPLINE
5
342
100
AcDbEntity
8
SK1
62
256
6
ByLayer
370
-1
48
1
60
0
100
AcDbSpline
70
4
71
3
72
8
73
4
40
0
40
0
40
0
40
0
40
1
40
1
40
1
40
1
41
1
10
-0.249519052838338
20
-16.0748883021891
30
0
41
1
10
-0.166803293990711
20
-16.2035493499351
30
0
41
1
10
-0.083623106564545
20
-16.3318138919978
30
0
41
1
10
0
20
-16.4596905081325
30
0
0
SPLINE
5
343
100
AcDbEntity
8
SK1
62
256
6
ByLayer
370
-1
48
1
60
0
100
AcDbSpline
70
4
71
3
72
16
73
12
40
0
40
0
40
0
40
0
40
0.212430474389447
40
0.212430474389447
40
0.426295978708325
40
0.426295978708325
40
0.636556268297902
40
0.636556268297902
40
0.95354695766652
40
0.95354695766652
40
1
40
1
40
1
40
1
41
1
10
-0.324519052838326
20
18.4344911780253
30
0
41
1
10
-0.324519052838326
20
18.4315992676575
30
0
41
1
10
-0.323117923704416
20
18.4300114617852
30
0
41
1
10
-0.317479667023633
20
18.4299661489408
30
0
41
1
10
-0.313150660150427
20
18.4315306558945
30
0
41
1
10
-0.302517607566244
20
18.4372835390707
30
0
41
1
10
-0.296144295624288
20
18.4414712478929
30
0
41
1
10
-0.278863540551981
20
18.4540802831147
30
0
41
1
10
-0.267028157326337
20
18.4637422062463
30
0
41
1
10
-0.253135491921768
20
18.4758249333406
30
0
41
1
10
-0.251331288975706
20
18.4774077287948
30
0
41
1
10
-0.249519052838338
20
18.4790105443333
30
0
0
SPLINE
5
344
100
AcDbEntity
8
SK1
62
256
6
ByLayer
370
-1
48
1
60
0
100
AcDbSpline
70
4
71
3
72
16
73
12
40
0
40
0
40
0
40
0
40
0.19660452944643
40
0.19660452944643
40
0.397753669143357
40
0.397753669143357
40
0.577066618867397
40
0.577066618867397
40
0.738670781269067
40
0.738670781269067
40
1
40
1
40
1
40
1
41
1
10
-0.249519052838338
20
14.637613503657
30
0
41
1
10
-0.257471316975881
20
14.6310868772756
30
0
41
1
10
-0.265574472151627
20
14.6252592563981
30
0
41
1
10
-0.281277117941556
20
14.6162897929247
30
0
41
1
10
-0.289068554053785
20
14.6131393983352
30
0
41
1
10
-0.301780059707625
20
14.6111498419911
30
0
41
1
10
-0.307073212276066
20
14.6118745909008
30
0
41
1
10
-0.314921610889172
20
14.6161054180538
30
0
41
1
10
-0.317805451302036
20
14.619347791567
30
0
41
1
10
-0.323187338690502
20
14.6298744249309
30
0
41
1
10
-0.324519052838326
20
14.6385341235637
30
0
41
1
10
-0.324519052838326
20
14.6480346987596
30
0
0
SPLINE
5
345
100
AcDbEntity
8
SK1
62
256
6
ByLayer
370
-1
48
1
60
0
100
AcDbSpline
70
4
71
3
72
14
73
10
40
0
40
0
40
0
40
0
40
0.431988199166862
40
0.431988199166862
40
0.68608693001285
40
0.68608693001285
40
0.943546696531175
40
0.943546696531175
40
1
40
1
40
1
40
1
41
1
10
-0.249519052838338
20
19.0736019583787
30
0
41
1
10
-0.26612816946502
20
19.0571077297869
30
0
41
1
10
-0.282079861488512
20
19.0413128931183
30
0
41
1
10
-0.302768475341224
20
19.0209026362755
30
0
41
1
10
-0.309572242547404
20
19.0142107147592
30
0
41
1
10
-0.31973314348258
20
19.0042656693031
30
0
41
1
10
-0.323154010967585
20
19.0009515866635
30
0
41
1
10
-0.324404072908948
20
18.9998094040996
30
0
41
1
10
-0.324519052838326
20
18.9997133562905
30
0
41
1
10
-0.324519052838326
20
18.9997313577499
30
0
0
SPLINE
5
346
100
AcDbEntity
8
SK1
62
256
6
ByLayer
370
-1
48
1
60
0
100
AcDbSpline
70
4
71
3
72
8
73
4
40
0
40
0
40
0
40
0
40
1
40
1
40
1
40
1
41
1
10
-0.314810772771352
20
-11.8697941435887
30
0
41
1
10
-0.320506898570272
20
-11.9101864062024
30
0
41
1
10
-0.324519052838355
20
-11.9501519158157
30
0
41
1
10
-0.324519052838326
20
-11.9878176024207
30
0
0
SPLINE
5
347
100
AcDbEntity
8
SK1
62
256
6
ByLayer
370
-1
48
1
60
0
100
AcDbSpline
70
4
71
3
72
18
73
14
40
0
40
0
40
0
40
0
40
0.229345296545338
40
0.229345296545338
40
0.421145408004467
40
0.421145408004467
40
0.584059575953199
40
0.584059575953199
40
0.74679571442304
40
0.74679571442304
40
0.962805581120729
40
0.962805581120729
40
1
40
1
40
1
40
1
41
1
10
-0.324519052838326
20
-14.6480346987596
30
0
41
1
10
-0.324519052838326
20
-14.6396791951524
30
0
41
1
10
-0.323493278895029
20
-14.6319977561569
30
0
41
1
10
-0.318910317288356
20
-14.6207214398974
30
0
41
1
10
-0.315719347805157
20
-14.616588504455
30
0
41
1
10
-0.307615092479097
20
-14.6121232407988
30
0
41
1
10
-0.302930125421909
20
-14.6112940868226
30
0
41
1
10
-0.292305298224989
20
-14.6124028699919
30
0
41
1
10
-0.286247885804016
20
-14.6143421188411
30
0
41
1
10
-0.271674487083516
20
-14.6212968164628
30
0
41
1
10
-0.262787049856684
20
-14.627165967273
30
0
41
1
10
-0.252552342463161
20
-14.6351535508655
30
0
41
1
10
-0.251034543647421
20
-14.6363697016247
30
0
41
1
10
-0.249519052838338
20
-14.637613503657
30
0
0
SPLINE
5
348
100
AcDbEntity
8
SK1
62
256
6
ByLayer
370
-1
48
1
60
0
100
AcDbSpline
70
4
71
3
72
12
73
8
40
0
40
0
40
0
40
0
40
0.277415679706919
40
0.277415679706919
40
0.673634013454208
40
0.673634013454208
40
1
40
1
40
1
40
1
41
1
10
-0.324519052838326
20
16.787151188174
30
0
41
1
10
-0.324519052838326
20
16.7966543472907
30
0
41
1
10
-0.321301686784096
20
16.8090410966392
30
0
41
1
10
-0.309146518767818
20
16.8412807102613
30
0
41
1
10
-0.298175211391168
20
16.8627355192172
30
0
41
1
10
-0.274710570806576
20
16.9025986668713
30
0
41
1
10
-0.262594071091541
20
16.9212397849316
30
0
41
1
10
-0.249519052838338
20
16.9398705309347
30
0
0
SPLINE
5
349
100
AcDbEntity
8
SK1
62
256
6
ByLayer
370
-1
48
1
60
0
100
AcDbSpline
70
4
71
3
72
12
73
8
40
0
40
0
40
0
40
0
40
0.299428144559046
40
0.299428144559046
40
0.798476334754698
40
0.798476334754698
40
1
40
1
40
1
40
1
41
1
10
-0.324519052838326
20
14.8126521189576
30
0
41
1
10
-0.324519052838326
20
14.8285037391865
30
0
41
1
10
-0.320734298944188
20
14.8473379769856
30
0
41
1
10
-0.305612291705671
20
14.8989605565873
30
0
41
1
10
-0.290623213035133
20
14.9339908415919
30
0
41
1
10
-0.265573612198182
20
14.9829869700513
30
0
41
1
10
-0.257778028133714
20
14.9972577358847
30
0
41
1
10
-0.249519052838338
20
15.0114907404588
30
0
0
SPLINE
5
34A
100
AcDbEntity
8
SK1
62
256
6
ByLayer
370
-1
48
1
60
0
100
AcDbSpline
70
4
71
3
72
8
73
4
40
0
40
0
40
0
40
0
40
1
40
1
40
1
40
1
41
1
10
-0.249519052838338
20
-5.61145683315186
30
0
41
1
10
-0.167536471258103
20
-5.73636178632354
30
0
41
1
10
-0.0843116200382781
20
-5.86018989155254
30
0
41
1
10
0
20
-5.98301024765145
30
0
0
SPLINE
5
34B
100
AcDbEntity
8
SK1
62
256
6
ByLayer
370
-1
48
1
60
0
100
AcDbSpline
70
4
71
3
72
8
73
4
40
0
40
0
40
0
40
0
40
1
40
1
40
1
40
1
41
1
10
-0.249519052838338
20
-16.6926741335383
30
0
41
1
10
-0.166348900140491
20
-16.76116025562
30
0
41
1
10
-0.0831758476997777
20
-16.8296416826295
30
0
41
1
10
0
20
-16.8981185823602
30
0
0
SPLINE
5
34C
100
AcDbEntity
8
SK1
62
256
6
ByLayer
370
-1
48
1
60
0
100
AcDbSpline
70
4
71
3
72
8
73
4
40
0
40
0
40
0
40
0
40
1
40
1
40
1
40
1
41
1
10
-0.249519052838338
20
-18.5911471576056
30
0
41
1
10
-0.166506688858249
20
-18.6873254601423
30
0
41
1
10
-0.0833315242048229
20
-18.7833167506412
30
0
41
1
10
0
20
-18.8791263469343
30
0
0
SPLINE
5
34D
100
AcDbEntity
8
SK1
62
256
6
ByLayer
370
-1
48
1
60
0
100
AcDbSpline
70
4
71
3
72
8
73
4
40
0
40
0
40
0
40
0
40
1
40
1
40
1
40
1
41
1
10
-0.249519052838338
20
-13.7035643018125
30
0
41
1
10
-0.167216153527676
20
-13.8641387078905
30
0
41
1
10
-0.0840281136433134
20
-14.0241122346499
30
0
41
1
10
0
20
-14.183490812332
30
0
0
SPLINE
5
34E
100
AcDbEntity
8
SK1
62
256
6
ByLayer
370
-1
48
1
60
0
100
AcDbSpline
70
4
71
3
72
8
73
4
40
0
40
0
40
0
40
0
40
1
40
1
40
1
40
1
41
1
10
-0.249519052838338
20
-11.483644388276
30
0
41
1
10
-0.166396158696614
20
-11.5580650812788
30
0
41
1
10
-0.0832221958467869
20
-11.6324097762753
30
0
41
1
10
0
20
-11.7066823491331
30
0
0
SPLINE
5
34F
100
AcDbEntity
8
SK1
62
256
6
ByLayer
370
-1
48
1
60
0
100
AcDbSpline
70
4
71
3
72
24
73
20
40
0
40
0
40
0
40
0
40
0.403503335254803
40
0.403503335254803
40
0.606711906865478
40
0.606711906865478
40
0.676515638214978
40
0.676515638214978
40
0.747118092000871
40
0.747118092000871
40
0.788567893742621
40
0.788567893742621
40
0.830538706496999
40
0.830538706496999
40
0.867732737396276
40
0.867732737396276
40
0.927484719514768
40
0.927484719514768
40
1
40
1
40
1
40
1
41
1
10
-0.324519052838326
20
-5.77516103418449
30
0
41
1
10
-0.324519052838326
20
-5.73867453764593
30
0
41
1
10
-0.323379330325082
20
-5.70230504651734
30
0
41
1
10
-0.317094816541413
20
-5.64986850688985
30
0
41
1
10
-0.314245184388796
20
-5.63248269647693
30
0
41
1
10
-0.307731450287548
20
-5.61123082253586
30
0
41
1
10
-0.305799099762027
20
-5.60595567847203
30
0
41
1
10
-0.30110247853267
20
-5.59626380188212
30
0
41
1
10
-0.298288183110458
20
-5.59175561188735
30
0
41
1
10
-0.292778362914078
20
-5.58643594655018
30
0
41
1
10
-0.290462694549774
20
-5.58485485836478
30
0
41
1
10
-0.285410952440032
20
-5.58305045672095
30
0
41
1
10
-0.282597900576007
20
-5.58284693597045
30
0
41
1
10
-0.277288613949196
20
-5.58389902383404
30
0
41
1
10
-0.274736107865152
20
-5.58498818736919
30
0
41
1
10
-0.268384586562519
20
-5.58884979085359
30
0
41
1
10
-0.264646061622813
20
-5.59225991710197
30
0
41
1
10
-0.257005229928069
20
-5.60067036363166
30
0
41
1
10
-0.253133915202227
20
-5.60594939235672
30
0
41
1
10
-0.249519052838338
20
-5.61145683315186
30
0
0
SPLINE
5
350
100
AcDbEntity
8
SK1
62
256
6
ByLayer
370
-1
48
1
60
0
100
AcDbSpline
70
4
71
3
72
12
73
8
40
0
40
0
40
0
40
0
40
0.253641376617096
40
0.253641376617096
40
0.58074340677927
40
0.58074340677927
40
1
40
1
40
1
40
1
41
1
10
-0.324519052838326
20
18.0610693822919
30
0
41
1
10
-0.324519052838326
20
18.0662979442687
30
0
41
1
10
-0.321895408668212
20
18.07405155422
30
0
41
1
10
-0.31208082273875
20
18.0944701761884
30
0
41
1
10
-0.303683047257039
20
18.1082450563928
30
0
41
1
10
-0.281272710505931
20
18.1412100687847
30
0
41
1
10
-0.265995960588612
20
18.1613774173334
30
0
41
1
10
-0.249519052838338
20
18.181682346768
30
0
0
SPLINE
5
351
100
AcDbEntity
8
SK1
62
256
6
ByLayer
370
-1
48
1
60
0
100
AcDbSpline
70
4
71
3
72
14
73
10
40
0
40
0
40
0
40
0
40
0.230774734198141
40
0.230774734198141
40
0.460243147902721
40
0.460243147902721
40
0.801894458421471
40
0.801894458421471
40
1
40
1
40
1
40
1
41
1
10
-0.324519052838326
20
-18.9484273901026
30
0
41
1
10
-0.324519052838326
20
-18.9494492221481
30
0
41
1
10
-0.322519729188173
20
-18.952462750139
30
0
41
1
10
-0.315447865823927
20
-18.9613658746406
30
0
41
1
10
-0.310333289381418
20
-18.9673248530255
30
0
41
1
10
-0.295297642800307
20
-18.9842056521681
30
0
41
1
10
-0.284031796598953
20
-18.996386063672
30
0
41
1
10
-0.264753764627272
20
-19.0168196261959
30
0
41
1
10
-0.257247743342703
20
-19.0246945216579
30
0
41
1
10
-0.249519052838338
20
-19.0327379005148
30
0
0
SPLINE
5
352
100
AcDbEntity
8
SK1
62
256
6
ByLayer
370
-1
48
1
60
0
100
AcDbSpline
70
4
71
3
72
12
73
8
40
0
40
0
40
0
40
0
40
0.514374796179559
40
0.514374796179559
40
0.799677103656323
40
0.799677103656323
40
1
40
1
40
1
40
1
41
1
10
-0.249519052838338
20
17.6356568712878
30
0
41
1
10
-0.269783320475057
20
17.6089163954965
30
0
41
1
10
-0.288154837836117
20
17.5820507193339
30
0
41
1
10
-0.309617190623357
20
17.5444018641693
30
0
41
1
10
-0.31600194403967
20
17.5314968240923
30
0
41
1
10
-0.322840504691811
20
17.5126171162788
30
0
41
1
10
-0.324519052838326
20
17.5056005989192
30
0
41
1
10
-0.324519052838326
20
17.5001524600012
30
0
0
SPLINE
5
353
100
AcDbEntity
8
SK1
62
256
6
ByLayer
370
-1
48
1
60
0
100
AcDbSpline
70
4
71
3
72
10
73
6
40
0
40
0
40
0
40
0
40
0.341349123091376
40
0.341349123091376
40
1
40
1
40
1
40
1
41
1
10
-0.324519052838326
20
-13.4709974273838
30
0
41
1
10
-0.324519052838326
20
-13.4935735308694
30
0
41
1
10
-0.319632073347577
20
-13.5196269639021
30
0
41
1
10
-0.298930169003057
20
-13.5965699452029
30
0
41
1
10
-0.276571866160452
20
-13.6507837865654
30
0
41
1
10
-0.249519052838338
20
-13.7035643018125
30
0
0
SPLINE
5
354
100
AcDbEntity
8
1
62
256
6
ByLayer
370
-1
48
1
60
0
100
AcDbSpline
70
4
71
3
72
8
73
4
40
0
40
0
40
0
40
0
40
1
40
1
40
1
40
1
41
1
10
26.1000974164239
20
13.9130641204782
30
0
41
1
10
26.0936459792668
20
13.9157828896257
30
0
41
1
10
26.0871945576268
20
13.9185016588221
30
0
41
1
10
26.0807431510418
20
13.9212204280658
30
0
0
SPLINE
5
355
100
AcDbEntity
8
1
62
256
6
ByLayer
370
-1
48
1
60
0
100
AcDbSpline
70
4
71
3
72
30
73
26
40
0
40
0
40
0
40
0
40
0.0537368602324266
40
0.0537368602324266
40
0.139406272239036
40
0.139406272239036
40
0.27593427733247
40
0.27593427733247
40
0.468014763792611
40
0.468014763792611
40
0.500606637877012
40
0.500606637877012
40
0.593681336384255
40
0.593681336384255
40
0.686797774805048
40
0.686797774805048
40
0.770736723977669
40
0.770736723977669
40
0.83846354425759
40
0.83846354425759
40
0.891449300284226
40
0.891449300284226
40
0.976735471569267
40
0.976735471569267
40
1
40
1
40
1
40
1
41
1
10
26.1000974164241
20
12.8830806311774
30
0
41
1
10
26.118650998023
20
12.8868601089841
30
0
41
1
10
26.1361954658102
20
12.8944049597877
30
0
41
1
10
26.177148511384
20
12.9200324608867
30
0
41
1
10
26.1987816093568
20
12.9419763557405
30
0
41
1
10
26.2460587156684
20
13.005682484107
30
0
41
1
10
26.2677733122425
20
13.0527338136144
30
0
41
1
10
26.306347974681
20
13.1719898305954
30
0
41
1
10
26.3184649853666
20
13.2492375423029
30
0
41
1
10
26.3221009032444
20
13.3409171309012
30
0
41
1
10
26.3223671506637
20
13.3544310613613
30
0
41
1
10
26.3223671506637
20
13.4065899187498
30
0
41
1
10
26.3202087907292
20
13.4456733880432
30
0
41
1
10
26.3114750711948
20
13.5234157586748
30
0
41
1
10
26.3048742219503
20
13.5623234537998
30
0
41
1
10
26.2877449385732
20
13.6348278832982
30
0
41
1
10
26.2776177403702
20
13.6687979381817
30
0
41
1
10
26.2552169351783
20
13.7279433744691
30
0
41
1
10
26.2436710858684
20
13.7537160389334
30
0
41
1
10
26.2199565164626
20
13.7972024340536
30
0
41
1
10
26.208403952048
20
13.8155614911038
30
0
41
1
10
26.1752270077362
20
13.8596614366371
30
0
41
1
10
26.1510360342547
20
13.8840667038924
30
0
41
1
10
26.1160650736756
20
13.9055499217648
30
0
41
1
10
26.1081796845862
20
13.9096580853905
30
0
41
1
10
26.1000974164241
20
13.9130641204781
30
0
0
SPLINE
5
356
100
AcDbEntity
8
1
62
256
6
ByLayer
370
-1
48
1
60
0
100
AcDbSpline
70
4
71
3
72
30
73
26
40
0
40
0
40
0
40
0
40
0.0539484400008079
40
0.0539484400008079
40
0.139955160779309
40
0.139955160779309
40
0.207086326010781
40
0.207086326010781
40
0.274064165966082
40
0.274064165966082
40
0.340975732318921
40
0.340975732318921
40
0.40785698044172
40
0.40785698044172
40
0.499328375428936
40
0.499328375428936
40
0.689053809529386
40
0.689053809529386
40
0.831988770971477
40
0.831988770971477
40
0.920260558406034
40
0.920260558406034
40
0.986025688779413
40
0.986025688779413
40
1
40
1
40
1
40
1
41
1
10
26.6232712578301
20
14.8041114458602
30
0
41
1
10
26.6375556957053
20
14.789021559439
30
0
41
1
10
26.654645613479
20
14.7766646283948
30
0
41
1
10
26.7017556832153
20
14.7516902047061
30
0
41
1
10
26.7342090911662
20
14.742556961166
30
0
41
1
10
26.7928665130955
20
14.7340796326067
30
0
41
1
10
26.8193483029286
20
14.7329846725468
30
0
41
1
10
26.8723606302154
20
14.7348672684095
30
0
41
1
10
26.8990669246498
20
14.7378487905606
30
0
41
1
10
26.9521850194601
20
14.7471319964142
30
0
41
1
10
26.9787172138121
20
14.7534553670006
30
0
41
1
10
27.0312218956489
20
14.7689606894763
30
0
41
1
10
27.0572895115003
20
14.7781714462919
30
0
41
1
10
27.1180098544539
20
14.8029823880448
30
0
41
1
10
27.1524939664419
20
14.8197624238337
30
0
41
1
10
27.2543904526694
20
14.8774206729474
30
0
41
1
10
27.3195594162278
20
14.9258078592699
30
0
41
1
10
27.4178291093931
20
15.0235002557417
30
0
41
1
10
27.4559204676289
20
15.0706355521973
30
0
41
1
10
27.5024403793334
20
15.1532735677385
30
0
41
1
10
27.516923955219
20
15.1869969498306
30
0
41
1
10
27.5312930488854
20
15.2473171780427
30
0
41
1
10
27.533989586645
20
15.2741141277694
30
0
41
1
10
27.5307921732777
20
15.3055434453713
30
0
41
1
10
27.5299790307676
20
15.3110862867772
30
0
41
1
10
27.528905658228
20
15.3165657590292
30
0
0
SPLINE
5
357
100
AcDbEntity
8
1
62
256
6
ByLayer
370
-1
48
1
60
0
100
AcDbSpline
70
4
71
3
72
26
73
22
40
0
40
0
40
0
40
0
40
0.0123170539204681
40
0.0123170539204681
40
0.212241524746257
40
0.212241524746257
40
0.311856307872499
40
0.311856307872499
40
0.411507489730959
40
0.411507489730959
40
0.546437586150789
40
0.546437586150789
40
0.649054902621136
40
0.649054902621136
40
0.726435192329424
40
0.726435192329424
40
0.852772464212276
40
0.852772464212276
40
0.940635510663813
40
0.940635510663813
40
1
40
1
40
1
40
1
41
1
10
26.0968284173094
20
14.5352280225202
30
0
41
1
10
26.0982359644202
20
14.5376252965986
30
0
41
1
10
26.0996532648974
20
14.5400163862545
30
0
41
1
10
26.1241931488554
20
14.5810275317922
30
0
41
1
10
26.1498913447533
20
14.618122035795
30
0
41
1
10
26.1920287281285
20
14.6703584734125
30
0
41
1
10
26.2066900830499
20
14.6872212482944
30
0
41
1
10
26.2372670993657
20
14.7196045213399
30
0
41
1
10
26.2532105904731
20
14.7351551742621
30
0
41
1
10
26.292237083161
20
14.7697235386286
30
0
41
1
10
26.3159606975084
20
14.7881419808752
30
0
41
1
10
26.3598807059456
20
14.8164703343221
30
0
41
1
10
26.3796706571769
20
14.8274242097023
30
0
41
1
10
26.4155186230547
20
14.8431754346948
30
0
41
1
10
26.4313872212971
20
14.848855485169
30
0
41
1
10
26.4734807471852
20
14.8596661657074
30
0
41
1
10
26.5007973653272
20
14.8623424664151
30
0
41
1
10
26.5447999377308
20
14.8562390160468
30
0
41
1
10
26.5625885481362
20
14.8505418505127
30
0
41
1
10
26.5892625438101
20
14.8358216341798
30
0
41
1
10
26.5993499513417
20
14.828387076269
30
0
41
1
10
26.6083703723851
20
14.8198525598117
30
0
0
SPLINE
5
358
100
AcDbEntity
8
1
62
256
6
ByLayer
370
-1
48
1
60
0
100
AcDbSpline
70
4
71
3
72
8
73
4
40
0
40
0
40
0
40
0
40
1
40
1
40
1
40
1
41
1
10
26.6083703723851
20
14.8198525598117
30
0
41
1
10
26.6133373223577
20
14.8146055275141
30
0
41
1
10
26.6183042840528
20
14.8093584895878
30
0
41
1
10
26.6232712578301
20
14.8041114458601
30
0
0
SPLINE
5
359
100
AcDbEntity
8
1
62
256
6
ByLayer
370
-1
48
1
60
0
100
AcDbSpline
70
4
71
3
72
22
73
18
40
0
40
0
40
0
40
0
40
0.101022396405545
40
0.101022396405545
40
0.187324075300346
40
0.187324075300346
40
0.312879850225375
40
0.312879850225375
40
0.412941652822443
40
0.412941652822443
40
0.5127020802835
40
0.5127020802835
40
0.612325179563257
40
0.612325179563257
40
0.812488249995637
40
0.812488249995637
40
1
40
1
40
1
40
1
41
1
10
26.0807431510418
20
13.9212204280658
30
0
41
1
10
26.0624213814874
20
13.930170289183
30
0
41
1
10
26.0452483194776
20
13.9434680821344
30
0
41
1
10
26.0191610298806
20
13.973786523576
30
0
41
1
10
26.0090698909558
20
13.9902896099391
30
0
41
1
10
25.9899189542531
20
14.0331779852228
30
0
41
1
10
25.9829491934998
20
14.0612812858407
30
0
41
1
10
25.9763988755993
20
14.1120123274837
30
0
41
1
10
25.975536383809
20
14.1349981243484
30
0
41
1
10
25.9768776352703
20
14.1806177637173
30
0
41
1
10
25.9790780184401
20
14.2033988250913
30
0
41
1
10
25.9858269915087
20
14.2484265067165
30
0
41
1
10
25.9903871327776
20
14.270755541549
30
0
41
1
10
26.0069526819288
20
14.3369291597978
30
0
41
1
10
26.0218673871595
20
14.3801152207799
30
0
41
1
10
26.0562239365074
20
14.4608420235454
30
0
41
1
10
26.0754328206473
20
14.498787956768
30
0
41
1
10
26.0968284173094
20
14.5352280225202
30
0
0
SPLINE
5
35A
100
AcDbEntity
8
1
62
256
6
ByLayer
370
-1
48
1
60
0
100
AcDbSpline
70
4
71
3
72
22
73
18
40
0
40
0
40
0
40
0
40
0.101009388612926
40
0.101009388612926
40
0.187299955176384
40
0.187299955176384
40
0.3128395633551
40
0.3128395633551
40
0.412888481847121
40
0.412888481847121
40
0.512636064008631
40
0.512636064008631
40
0.688353357391855
40
0.688353357391855
40
0.863628414295488
40
0.863628414295488
40
1
40
1
40
1
40
1
41
1
10
27.5246429567751
20
11.4539408768402
30
0
41
1
10
27.5216614386899
20
11.4366779158417
30
0
41
1
10
27.5230778878581
20
11.4182106786886
30
0
41
1
10
27.5338919550419
20
11.3854735240035
30
0
41
1
10
27.5421623806924
20
11.3706010865073
30
0
41
1
10
27.567736737398
20
11.3370646285648
30
0
41
1
10
27.5877116290901
20
11.3191259602528
30
0
41
1
10
27.6272010147355
20
11.2911861560018
30
0
41
1
10
27.6462916006005
20
11.2800769136625
30
0
41
1
10
27.6858970677859
20
11.2603121568117
30
0
41
1
10
27.7065356472529
20
11.2515867490373
30
0
41
1
10
27.7646535353109
20
11.2303069539615
30
0
41
1
10
27.8032871722577
20
11.2197473415896
30
0
41
1
10
27.8813965208638
20
11.2036011446397
30
0
41
1
10
27.9211275743272
20
11.1979644228954
30
0
41
1
10
27.9919906923085
20
11.1918184406739
30
0
41
1
10
28.0231719719142
20
11.1904461302441
30
0
41
1
10
28.0543106553637
20
11.1903588850206
30
0
0
SPLINE
5
35B
100
AcDbEntity
8
1
62
256
6
ByLayer
370
-1
48
1
60
0
100
AcDbSpline
70
4
71
3
72
8
73
4
40
0
40
0
40
0
40
0
40
1
40
1
40
1
40
1
41
1
10
28.5798973994616
20
11.450984235791
30
0
41
1
10
28.5783493829213
20
11.4568697236242
30
0
41
1
10
28.5768013634773
20
11.4627552308214
30
0
41
1
10
28.5752533410404
20
11.4686407579769
30
0
0
SPLINE
5
35C
100
AcDbEntity
8
1
62
256
6
ByLayer
370
-1
48
1
60
0
100
AcDbSpline
70
4
71
3
72
22
73
18
40
0
40
0
40
0
40
0
40
0.101009388612926
40
0.101009388612926
40
0.187299955176393
40
0.187299955176393
40
0.312839563355102
40
0.312839563355102
40
0.412888481847122
40
0.412888481847122
40
0.512636064008636
40
0.512636064008636
40
0.688353357391855
40
0.688353357391855
40
0.863628414295489
40
0.863628414295489
40
1
40
1
40
1
40
1
41
1
10
26.0807431510418
20
12.8791380676716
30
0
41
1
10
26.0624213814874
20
12.8742409258219
30
0
41
1
10
26.0452483194776
20
12.8649947606312
30
0
41
1
10
26.0191610298806
20
12.8413932580946
30
0
41
1
10
26.0090698909557
20
12.8277560205592
30
0
41
1
10
25.9899189542531
20
12.7910110302037
30
0
41
1
10
25.9829491934998
20
12.7659089224074
30
0
41
1
10
25.9763988755993
20
12.7195988070204
30
0
41
1
10
25.975536383809
20
12.6982671316713
30
0
41
1
10
25.9768776352703
20
12.6554748602611
30
0
41
1
10
25.9790780184412
20
12.6338768112095
30
0
41
1
10
25.9883888441115
20
12.5745399885566
30
0
41
1
10
25.9979711095887
20
12.5367127871629
30
0
41
1
10
26.0222083499133
20
12.4626209647233
30
0
41
1
10
26.0369461894054
20
12.4261145390446
30
0
41
1
10
26.0668595438085
20
12.3628130805953
30
0
41
1
10
26.0812590755846
20
12.3355758986509
30
0
41
1
10
26.0968284173094
20
12.3089716160608
30
0
0
SPLINE
5
35D
100
AcDbEntity
8
1
62
256
6
ByLayer
370
-1
48
1
60
0
100
AcDbSpline
70
4
71
3
72
8
73
4
40
0
40
0
40
0
40
0
40
1
40
1
40
1
40
1
41
1
10
27.528905658228
20
11.4715724438202
30
0
41
1
10
27.5274847539052
20
11.4656952350857
30
0
41
1
10
27.5260638534595
20
11.4598180462903
30
0
41
1
10
27.5246429567751
20
11.4539408768402
30
0
0
SPLINE
5
35E
100
AcDbEntity
8
1
62
256
6
ByLayer
370
-1
48
1
60
0
100
AcDbSpline
70
4
71
3
72
8
73
4
40
0
40
0
40
0
40
0
40
1
40
1
40
1
40
1
41
1
10
30.0237972051949
20
12.8680903098949
30
0
41
1
10
30.017218678754
20
12.869440996162
30
0
41
1
10
30.0106401381158
20
12.8707916916123
30
0
41
1
10
30.0040615828445
20
12.8721423965279
30
0
0
SPLINE
5
35F
100
AcDbEntity
8
1
62
256
6
ByLayer
370
-1
48
1
60
0
100
AcDbSpline
70
4
71
3
72
8
73
4
40
0
40
0
40
0
40
0
40
1
40
1
40
1
40
1
41
1
10
30.0040615828445
20
13.9021258858288
30
0
41
1
10
30.0106401381158
20
13.9048081471836
30
0
41
1
10
30.017218678754
20
13.9074904086717
30
0
41
1
10
30.0237972051949
20
13.9101726702891
30
0
0
SPLINE
5
360
100
AcDbEntity
8
1
62
256
6
ByLayer
370
-1
48
1
60
0
100
AcDbSpline
70
4
71
3
72
34
73
30
40
0
40
0
40
0
40
0
40
0.0541556532627307
40
0.0541556532627307
40
0.0964284096968612
40
0.0964284096968612
40
0.152184214512516
40
0.152184214512516
40
0.207791165331671
40
0.207791165331671
40
0.291086018445325
40
0.291086018445325
40
0.374246069117857
40
0.374246069117857
40
0.499956481346462
40
0.499956481346462
40
0.593152353116415
40
0.593152353116415
40
0.686390019140805
40
0.686390019140805
40
0.770438247811338
40
0.770438247811338
40
0.838253241138544
40
0.838253241138544
40
0.891307978929712
40
0.891307978929712
40
0.976705183651427
40
0.976705183651427
40
1
40
1
40
1
40
1
41
1
10
28.5752533410405
20
11.4686407579769
30
0
41
1
10
28.5708014088739
20
11.4855668483463
30
0
41
1
10
28.5701638763006
20
11.5035018915532
30
0
41
1
10
28.5741049408807
20
11.5350850086314
30
0
41
1
10
28.577577931477
20
11.5490203114529
30
0
41
1
10
28.5886069098667
20
11.5807901784835
30
0
41
1
10
28.5971540161917
20
11.5986205266381
30
0
41
1
10
28.6173270592482
20
11.633255558598
30
0
41
1
10
28.6290160282996
20
11.650180112576
30
0
41
1
10
28.6610588472226
20
11.6911997093625
30
0
41
1
10
28.6829693981387
20
11.7148742703595
30
0
41
1
10
28.7302909072306
20
11.7600148714892
30
0
41
1
10
28.7558631566665
20
11.7816318773408
30
0
41
1
10
28.8232641567475
20
11.8330753206465
30
0
41
1
10
28.8671538705491
20
11.8618060475807
30
0
41
1
10
28.9467746034916
20
11.906859534944
30
0
41
1
10
28.9819501504027
20
11.9246083618663
30
0
41
1
10
29.0536079139473
20
11.9564106290879
30
0
41
1
10
29.0903183811869
20
11.9705678620749
30
0
41
1
10
29.1606250455798
20
11.9931065946058
30
0
41
1
10
29.1943910030336
20
12.0019936925318
30
0
41
1
10
29.2551210479018
20
12.0136336008448
30
0
41
1
10
29.2823104229089
20
12.0172708332636
30
0
41
1
10
29.3299524771044
20
12.0199801392984
30
0
41
1
10
29.3507085669776
20
12.0198762589556
30
0
41
1
10
29.4028608314726
20
12.0152144137327
30
0
41
1
10
29.4341880419213
20
12.0078935451687
30
0
41
1
10
29.4676043337998
20
11.9902965355158
30
0
41
1
10
29.4745059360035
20
11.9859546011572
30
0
41
1
10
29.4808877414381
20
11.9810950711461
30
0
0
SPLINE
5
361
100
AcDbEntity
8
1
62
256
6
ByLayer
370
-1
48
1
60
0
100
AcDbSpline
70
4
71
3
72
34
73
30
40
0
40
0
40
0
40
0
40
0.0541556532627323
40
0.0541556532627323
40
0.0964284096968604
40
0.0964284096968604
40
0.152184214512514
40
0.152184214512514
40
0.207791165331665
40
0.207791165331665
40
0.291086018445315
40
0.291086018445315
40
0.374246069117841
40
0.374246069117841
40
0.499956481346465
40
0.499956481346465
40
0.593152353116423
40
0.593152353116423
40
0.686390019140812
40
0.686390019140812
40
0.770438247811339
40
0.770438247811339
40
0.838253241138548
40
0.838253241138548
40
0.891307978929714
40
0.891307978929714
40
0.97670518365142
40
0.97670518365142
40
1
40
1
40
1
40
1
41
1
10
30.0040615828445
20
12.872142396528
30
0
41
1
10
29.9851424243599
20
12.876026866493
30
0
41
1
10
29.9672319914533
20
12.8836710558169
30
0
41
1
10
29.9383551127103
20
12.9015163902335
30
0
41
1
10
29.9265261485714
20
12.9108917376878
30
0
41
1
10
29.901208286067
20
12.9349656669346
30
0
41
1
10
29.8882493638796
20
12.9505225163568
30
0
41
1
10
29.8650000919341
20
12.9838531694123
30
0
41
1
10
29.8546255891473
20
13.0017363997051
30
0
41
1
10
29.8315175968705
20
13.0483317899362
30
0
41
1
10
29.8200557759586
20
13.0782180838304
30
0
41
1
10
29.8013292690844
20
13.1400988063098
30
0
41
1
10
29.7940032483188
20
13.1723026741749
30
0
41
1
10
29.7803420231539
20
13.2547565515895
30
0
41
1
10
29.776317577678
20
13.3063594031624
30
0
41
1
10
29.776317577678
20
13.3969125450271
30
0
41
1
10
29.778542041491
20
13.435983734404
30
0
41
1
10
29.7875379419984
20
13.5136764296963
30
0
41
1
10
29.7943356689431
20
13.5525465843203
30
0
41
1
10
29.8119587952475
20
13.6249536435572
30
0
41
1
10
29.8223726288891
20
13.6588661460102
30
0
41
1
10
29.8453810757804
20
13.7178843534007
30
0
41
1
10
29.8572323136228
20
13.7435914632599
30
0
41
1
10
29.8815477701054
20
13.7869432865268
30
0
41
1
10
29.893385148246
20
13.8052368089897
30
0
41
1
10
29.9273480680071
20
13.8491486401972
30
0
41
1
10
29.9520832813351
20
13.8734168247107
30
0
41
1
10
29.9877755200494
20
13.8947020564793
30
0
41
1
10
29.9958200629276
20
13.8987655871815
30
0
41
1
10
30.0040615828443
20
13.9021258858288
30
0
0
SPLINE
5
362
100
AcDbEntity
8
1
62
256
6
ByLayer
370
-1
48
1
60
0
100
AcDbSpline
70
4
71
3
72
8
73
4
40
0
40
0
40
0
40
0
40
1
40
1
40
1
40
1
41
1
10
26.6083703723851
20
11.9775492948765
30
0
41
1
10
26.6133373223578
20
11.9814000549543
30
0
41
1
10
26.6183042840528
20
11.9852508298281
30
0
41
1
10
26.6232712578301
20
11.9891016199521
30
0
0
SPLINE
5
363
100
AcDbEntity
8
1
62
256
6
ByLayer
370
-1
48
1
60
0
100
AcDbSpline
70
4
71
3
72
8
73
4
40
0
40
0
40
0
40
0
40
1
40
1
40
1
40
1
41
1
10
26.1000974164239
20
12.8830806311773
30
0
41
1
10
26.0936459792668
20
12.8817664340544
30
0
41
1
10
26.0871945576268
20
12.8804522463123
30
0
41
1
10
26.0807431510418
20
12.8791380676716
30
0
0
SPLINE
5
364
100
AcDbEntity
8
1
62
256
6
ByLayer
370
-1
48
1
60
0
100
AcDbSpline
70
4
71
3
72
8
73
4
40
0
40
0
40
0
40
0
40
1
40
1
40
1
40
1
41
1
10
28.5752533410404
20
15.3136340731859
30
0
41
1
10
28.5768013634773
20
15.3208793461524
30
0
41
1
10
28.5783493829213
20
15.3281246086938
30
0
41
1
10
28.5798973994616
20
15.3353698611205
30
0
0
SPLINE
5
365
100
AcDbEntity
8
1
62
256
6
ByLayer
370
-1
48
1
60
0
100
AcDbSpline
70
4
71
3
72
22
73
18
40
0
40
0
40
0
40
0
40
0.101009388612932
40
0.101009388612932
40
0.187299955176398
40
0.187299955176398
40
0.312839563355113
40
0.312839563355113
40
0.412888481847137
40
0.412888481847137
40
0.512636064008657
40
0.512636064008657
40
0.688353357391881
40
0.688353357391881
40
0.863628414295517
40
0.863628414295517
40
1
40
1
40
1
40
1
41
1
10
30.0237972051949
20
13.9101726702891
30
0
41
1
10
30.042485910932
20
13.9190188344342
30
0
41
1
10
30.0600264056854
20
13.9322193659833
30
0
41
1
10
30.0867240793083
20
13.9623899130567
30
0
41
1
10
30.0970761856363
20
13.9788357209705
30
0
41
1
10
30.1167878373047
20
14.0216152099806
30
0
41
1
10
30.1240327629348
20
14.0496786834976
30
0
41
1
10
30.1309903488417
20
14.1003718783226
30
0
41
1
10
30.1320060497139
20
14.1233524128152
30
0
41
1
10
30.1309281420997
20
14.1689788302509
30
0
41
1
10
30.1288387991372
20
14.1917719106981
30
0
41
1
10
30.1197913427277
20
14.2539431528811
30
0
41
1
10
30.110330650482
20
14.2930787436484
30
0
41
1
10
30.0862747719247
20
14.3691224086591
30
0
41
1
10
30.0715970223884
20
14.4062755314648
30
0
41
1
10
30.0417480936215
20
14.4702703482839
30
0
41
1
10
30.0273622351428
20
14.4976546843091
30
0
41
1
10
30.0117928934181
20
14.5242589668992
30
0
0
SPLINE
5
366
100
AcDbEntity
8
1
62
256
6
ByLayer
370
-1
48
1
60
0
100
AcDbSpline
70
4
71
3
72
8
73
4
40
0
40
0
40
0
40
0
40
1
40
1
40
1
40
1
41
1
10
29.4961699838516
20
14.8117614430842
30
0
41
1
10
29.491075914023
20
14.8065426000298
30
0
41
1
10
29.4859818333297
20
14.80132375141
30
0
41
1
10
29.4808877414383
20
14.7961048970541
30
0
0
SPLINE
5
367
100
AcDbEntity
8
1
62
256
6
ByLayer
370
-1
48
1
60
0
100
AcDbSpline
70
4
71
3
72
34
73
30
40
0
40
0
40
0
40
0
40
0.0541556532627316
40
0.0541556532627316
40
0.0964284096968631
40
0.0964284096968631
40
0.152184214512515
40
0.152184214512515
40
0.207791165331667
40
0.207791165331667
40
0.29108601844532
40
0.29108601844532
40
0.374246069117846
40
0.374246069117846
40
0.499956481346469
40
0.499956481346469
40
0.593152353116419
40
0.593152353116419
40
0.686390019140807
40
0.686390019140807
40
0.770438247811333
40
0.770438247811333
40
0.838253241138545
40
0.838253241138545
40
0.891307978929714
40
0.891307978929714
40
0.976705183651425
40
0.976705183651425
40
1
40
1
40
1
40
1
41
1
10
29.4808877414383
20
14.7961048970541
30
0
41
1
10
29.4662377266774
20
14.7810960799816
30
0
41
1
10
29.4487818437844
20
14.768835940316
30
0
41
1
10
29.415656073591
20
14.7517852786553
30
0
41
1
10
29.4002232650238
20
14.7458170547001
30
0
41
1
10
29.36358833821
20
14.7350206929917
30
0
41
1
10
29.3419284043054
20
14.7310908413181
30
0
41
1
10
29.2982218508381
20
14.7267274453706
30
0
41
1
10
29.276027030849
20
14.7262725331641
30
0
41
1
10
29.2205768682626
20
14.7286266620373
30
0
41
1
10
29.1870492811344
20
14.7331679445662
30
0
41
1
10
29.1207423800807
20
14.7471219057308
30
0
41
1
10
29.0877395526799
20
14.7565835074657
30
0
41
1
10
29.0064803479496
20
14.7854740187854
30
0
41
1
10
28.9585060712998
20
14.8076991512375
30
0
41
1
10
28.8788853383573
20
14.853198805739
30
0
41
1
10
28.8459673071984
20
14.8748768781265
30
0
41
1
10
28.7834365346477
20
14.9221781216963
30
0
41
1
10
28.7536222332023
20
14.9479504570136
30
0
41
1
10
28.7011856165777
20
15.0004761895883
30
0
41
1
10
28.6779768104851
20
15.0270440009354
30
0
41
1
10
28.640559033358
20
15.0776920656172
30
0
41
1
10
28.6253735904595
20
15.1014052616782
30
0
41
1
10
28.6023474362851
20
15.1452811973839
30
0
41
1
10
28.5935711314154
20
15.1652112042319
30
0
41
1
10
28.5757747744061
20
15.2180142735632
30
0
41
1
10
28.5694548972088
20
15.2525319221148
30
0
41
1
10
28.5720914831121
20
15.2952954153325
30
0
41
1
10
28.573314000681
20
15.3045572988798
30
0
41
1
10
28.5752533410404
20
15.3136340731857
30
0
0
SPLINE
5
368
100
AcDbEntity
8
1
62
256
6
ByLayer
370
-1
48
1
60
0
100
AcDbSpline
70
4
71
3
72
24
73
20
40
0
40
0
40
0
40
0
40
0.0387861824693394
40
0.0387861824693394
40
0.214013350592188
40
0.214013350592188
40
0.389422662782087
40
0.389422662782087
40
0.512145428551156
40
0.512145428551156
40
0.607589910664879
40
0.607589910664879
40
0.697945972633946
40
0.697945972633946
40
0.834212591226199
40
0.834212591226199
40
0.923459798190899
40
0.923459798190899
40
1
40
1
40
1
40
1
41
1
10
30.0117928934181
20
14.5242589668992
30
0
41
1
10
30.0073620054813
20
14.5318302950182
30
0
41
1
10
30.0028331060038
20
14.5393413565616
30
0
41
1
10
29.977338806552
20
14.5803912417865
30
0
41
1
10
29.9544766090419
20
14.6127752621688
30
0
41
1
10
29.9049617055831
20
14.6741151270442
30
0
41
1
10
29.8781900170518
20
14.7032269067424
30
0
41
1
10
29.8292776978905
20
14.7485141400894
30
0
41
1
10
29.8080700149473
20
14.7660236752554
30
0
41
1
10
29.768520238126
20
14.7940932553537
30
0
41
1
10
29.7505184512164
20
14.8053789926807
30
0
41
1
10
29.7142825186025
20
14.8245061921406
30
0
41
1
10
29.6960092622252
20
14.832552312148
30
0
41
1
10
29.6493961782612
20
14.8479468367863
30
0
41
1
10
29.6197345169902
20
14.8531213827597
30
0
41
1
10
29.5722493159552
20
14.8501526364865
30
0
41
1
10
29.5534549800397
20
14.84584329648
30
0
41
1
10
29.5217217936342
20
14.8317298468067
30
0
41
1
10
29.5080380607341
20
14.8226590855191
30
0
41
1
10
29.4961699838516
20
14.8117614430842
30
0
0
SPLINE
5
369
100
AcDbEntity
8
1
62
256
6
ByLayer
370
-1
48
1
60
0
100
AcDbSpline
70
4
71
3
72
24
73
20
40
0
40
0
40
0
40
0
40
0.0387861824693097
40
0.0387861824693097
40
0.214013350592148
40
0.214013350592148
40
0.389422662782044
40
0.389422662782044
40
0.512145428551121
40
0.512145428551121
40
0.607589910664853
40
0.607589910664853
40
0.697945972633933
40
0.697945972633933
40
0.834212591226193
40
0.834212591226193
40
0.923459798190893
40
0.923459798190893
40
1
40
1
40
1
40
1
41
1
10
26.0968284173094
20
12.3089716160608
30
0
41
1
10
26.1012593052461
20
12.3014002879419
30
0
41
1
10
26.1057870877703
20
12.2938772055798
30
0
41
1
10
26.1312690425298
20
12.2526944649227
30
0
41
1
10
26.1540986112846
20
12.2199592889757
30
0
41
1
10
26.2034962771341
20
12.1573576953454
30
0
41
1
10
26.2301832505088
20
12.1273341984115
30
0
41
1
10
26.2788903634149
20
12.0798385045346
30
0
41
1
10
26.2999954741165
20
12.0612250715021
30
0
41
1
10
26.3393191605536
20
12.0307222727408
30
0
41
1
10
26.3572067163703
20
12.0182071632404
30
0
41
1
10
26.3931814223213
20
11.9962686032098
30
0
41
1
10
26.4113090262643
20
11.9866549498335
30
0
41
1
10
26.4575000561505
20
11.9667182158382
30
0
41
1
10
26.4868478723401
20
11.9581660219733
30
0
41
1
10
26.5337024616158
20
11.9543480298038
30
0
41
1
10
26.5522112320762
20
11.9555840715048
30
0
41
1
10
26.5833791743552
20
11.9636142790144
30
0
41
1
10
26.5967828227828
20
11.969670729154
30
0
41
1
10
26.6083703723851
20
11.9775492948765
30
0
0
SPLINE
5
36A
100
AcDbEntity
8
1
62
256
6
ByLayer
370
-1
48
1
60
0
100
AcDbSpline
70
4
71
3
72
8
73
4
40
0
40
0
40
0
40
0
40
1
40
1
40
1
40
1
41
1
10
27.5246429567751
20
15.3383265021697
30
0
41
1
10
27.5260638534594
20
15.3310729313599
30
0
41
1
10
27.5274847539052
20
15.3238193504166
30
0
41
1
10
27.528905658228
20
15.3165657590292
30
0
0
SPLINE
5
36B
100
AcDbEntity
8
1
62
256
6
ByLayer
370
-1
48
1
60
0
100
AcDbSpline
70
4
71
3
72
34
73
30
40
0
40
0
40
0
40
0
40
0.0541556532627259
40
0.0541556532627259
40
0.0964284096968576
40
0.0964284096968576
40
0.152184214512514
40
0.152184214512514
40
0.207791165331666
40
0.207791165331666
40
0.291086018445319
40
0.291086018445319
40
0.374246069117849
40
0.374246069117849
40
0.499956481346463
40
0.499956481346463
40
0.593152353116422
40
0.593152353116422
40
0.68639001914081
40
0.68639001914081
40
0.770438247811338
40
0.770438247811338
40
0.838253241138547
40
0.838253241138547
40
0.891307978929714
40
0.891307978929714
40
0.976705183651425
40
0.976705183651425
40
1
40
1
40
1
40
1
41
1
10
26.6232712578301
20
11.9891016199521
30
0
41
1
10
26.6375556957054
20
12.0001760436884
30
0
41
1
10
26.6546456134791
20
12.0084976117887
30
0
41
1
10
26.6871557299318
20
12.0189225154512
30
0
41
1
10
26.7023268308351
20
12.0220742022303
30
0
41
1
10
26.7383855858095
20
12.0266697160894
30
0
41
1
10
26.7597377089296
20
12.0272868618806
30
0
41
1
10
26.8028757854663
20
12.0255322237421
30
0
41
1
10
26.8248079091537
20
12.0231599589059
30
0
41
1
10
26.8796593689669
20
12.01436250089
30
0
41
1
10
26.9128765254945
20
12.0064803176245
30
0
41
1
10
26.978665656373
20
11.9869540360895
30
0
41
1
10
27.0114593693752
20
11.9752419137974
30
0
41
1
10
27.0923246151366
20
11.9421115568995
30
0
41
1
10
27.1401786570419
20
11.9185924400742
30
0
41
1
10
27.2197993899844
20
11.8730927855727
30
0
41
1
10
27.2527835250218
20
11.8521261330511
30
0
41
1
10
27.3155764785454
20
11.8076465204795
30
0
41
1
10
27.34558765769
20
11.7839930125229
30
0
41
1
10
27.3985181172421
20
11.7367820916855
30
0
41
1
10
27.4220135587742
20
11.7132990939786
30
0
41
1
10
27.4600389776008
20
11.6691905605055
30
0
41
1
10
27.4755298090317
20
11.6487640016857
30
0
41
1
10
27.499156850283
20
11.6113549029272
30
0
41
1
10
27.5082179688787
20
11.5944901041636
30
0
41
1
10
27.5268003013372
20
11.5501458206343
30
0
41
1
10
27.5336644183811
20
11.5214853630308
30
0
41
1
10
27.5317491106129
20
11.4864843734056
30
0
41
1
10
27.5306857468328
20
11.478935326831
30
0
41
1
10
27.528905658228
20
11.4715724438204
30
0
0
SPLINE
5
36C
100
AcDbEntity
8
1
62
256
6
ByLayer
370
-1
48
1
60
0
100
AcDbSpline
70
4
71
3
72
24
73
20
40
0
40
0
40
0
40
0
40
0.0387861824693089
40
0.0387861824693089
40
0.214013350592168
40
0.214013350592168
40
0.389422662782076
40
0.389422662782076
40
0.512145428551148
40
0.512145428551148
40
0.607589910664874
40
0.607589910664874
40
0.69794597263395
40
0.69794597263395
40
0.834212591226201
40
0.834212591226201
40
0.923459798190904
40
0.923459798190904
40
1
40
1
40
1
40
1
41
1
10
28.0543106553637
20
15.6428716979394
30
0
41
1
10
28.0454488794902
20
15.6428965271079
30
0
41
1
10
28.0365857645524
20
15.6428049579775
30
0
41
1
10
27.9877459471922
20
15.6416569525078
30
0
41
1
10
27.9477342698419
20
15.6383541578536
30
0
41
1
10
27.8685802951799
20
15.6266757865806
30
0
41
1
10
27.8292411607571
20
15.6182768319259
30
0
41
1
10
27.7640632864878
20
15.5988485956776
30
0
41
1
10
27.7376049866548
20
15.5893257647128
30
0
41
1
10
27.6921202395759
20
15.5691854009995
30
0
41
1
10
27.6726713014725
20
15.5592436826472
30
0
41
1
10
27.6365230148321
20
15.5373576783647
30
0
41
1
10
27.6196309499992
20
15.5254858877991
30
0
41
1
10
27.5808003370754
20
15.492510792609
30
0
41
1
10
27.5599289712991
20
15.4691034197676
30
0
41
1
10
27.5357715653972
20
15.4256881269042
30
0
41
1
10
27.5287869014814
20
15.4068487795634
30
0
41
1
10
27.522591613279
20
15.3714170629274
30
0
41
1
10
27.5223635490769
20
15.3545568865026
30
0
41
1
10
27.5246429567751
20
15.3383265021697
30
0
0
SPLINE
5
36D
100
AcDbEntity
8
1
62
256
6
ByLayer
370
-1
48
1
60
0
100
AcDbSpline
70
4
71
3
72
22
73
18
40
0
40
0
40
0
40
0
40
0.101009388612926
40
0.101009388612926
40
0.187299955176391
40
0.187299955176391
40
0.312839563355095
40
0.312839563355095
40
0.412888481847123
40
0.412888481847123
40
0.512636064008637
40
0.512636064008637
40
0.688353357391857
40
0.688353357391857
40
0.863628414295488
40
0.863628414295488
40
1
40
1
40
1
40
1
41
1
10
28.5798973994616
20
15.3353698611205
30
0
41
1
10
28.5832458537296
20
15.3565818444145
30
0
41
1
10
28.5821968373049
20
15.3790034479258
30
0
41
1
10
28.5719931541469
20
15.4183096471478
30
0
41
1
10
28.5639836958996
20
15.4359906550225
30
0
41
1
10
28.5389700541598
20
15.4755616116196
30
0
41
1
10
28.5192703273445
20
15.4964616456522
30
0
41
1
10
28.4801882097055
20
15.5287845293412
30
0
41
1
10
28.4612508329223
20
15.541542630824
30
0
41
1
10
28.421908709584
20
15.5641415337003
30
0
41
1
10
28.4013811703254
20
15.5740619728703
30
0
41
1
10
28.3435266515282
20
15.5981761874762
30
0
41
1
10
28.3050145878131
20
15.6100441892217
30
0
41
1
10
28.2270866009742
20
15.6281422287427
30
0
41
1
10
28.1874156374666
20
15.6344256476139
30
0
41
1
10
28.1166169451214
20
15.6412649882053
30
0
41
1
10
28.0854493388132
20
15.6427844527159
30
0
41
1
10
28.0543106553637
20
15.6428716979394
30
0
0
SPLINE
5
36E
100
AcDbEntity
8
1
62
256
6
ByLayer
370
-1
48
1
60
0
100
AcDbSpline
70
4
71
3
72
24
73
20
40
0
40
0
40
0
40
0
40
0.03878618246927
40
0.03878618246927
40
0.214013350592112
40
0.214013350592112
40
0.38942266278201
40
0.38942266278201
40
0.512145428551097
40
0.512145428551097
40
0.607589910664836
40
0.607589910664836
40
0.697945972633918
40
0.697945972633918
40
0.834212591226182
40
0.834212591226182
40
0.923459798190884
40
0.923459798190884
40
1
40
1
40
1
40
1
41
1
10
30.011792893418
20
12.2980025604399
30
0
41
1
10
30.0162237813548
20
12.3055490593904
30
0
41
1
10
30.0205574383385
20
12.3131456796548
30
0
41
1
10
30.0438967839007
20
12.3552771426333
30
0
41
1
10
30.0610299493632
20
12.3907883798874
30
0
41
1
10
30.0906104017618
20
12.4631757516583
30
0
41
1
10
30.103135490075
20
12.5002306273934
30
0
41
1
10
30.1192984420554
20
12.5638418667238
30
0
41
1
10
30.1244977728244
20
12.5903222839212
30
0
41
1
10
30.1303196978899
20
12.6373156184015
30
0
41
1
10
30.1317097335373
20
12.657928387994
30
0
41
1
10
30.1314914742323
20
12.6975359114511
30
0
41
1
10
30.1300374564707
20
12.7166700553396
30
0
41
1
10
30.1220439583917
20
12.7627685704896
30
0
41
1
10
30.1130967403563
20
12.7896616653586
30
0
41
1
10
30.0894536393435
20
12.8267148427274
30
0
41
1
10
30.0775011846163
20
12.8397082009091
30
0
41
1
10
30.0516806643499
20
12.8579848467899
30
0
41
1
10
30.0380849534157
20
12.864267106353
30
0
41
1
10
30.0237972051949
20
12.8680903098949
30
0
0
SPLINE
5
36F
100
AcDbEntity
8
1
62
256
6
ByLayer
370
-1
48
1
60
0
100
AcDbSpline
70
4
71
3
72
22
73
18
40
0
40
0
40
0
40
0
40
0.101009388612929
40
0.101009388612929
40
0.187299955176393
40
0.187299955176393
40
0.312839563355092
40
0.312839563355092
40
0.412888481847112
40
0.412888481847112
40
0.512636064008626
40
0.512636064008626
40
0.688353357391839
40
0.688353357391839
40
0.863628414295458
40
0.863628414295458
40
1
40
1
40
1
40
1
41
1
10
29.4961699838516
20
11.9694581781489
30
0
41
1
10
29.5116937034122
20
11.9590668701478
30
0
41
1
10
29.5304669309621
20
11.9518229813646
30
0
41
1
10
29.5676734797557
20
11.9459718514846
30
0
41
1
10
29.5861655280327
20
11.946140936713
30
0
41
1
10
29.6311711789238
20
11.9523667184532
30
0
41
1
10
29.6582534138076
20
11.9610108407979
30
0
41
1
10
29.7044967513567
20
11.9815726916529
30
0
41
1
10
29.724526433553
20
11.9926195542345
30
0
41
1
10
29.7629223212007
20
12.0170641418067
30
0
41
1
10
29.7814160376009
20
12.0305342987816
30
0
41
1
10
29.830354784619
20
12.0700085361237
30
0
41
1
10
29.8594669427043
20
12.0979303198323
30
0
41
1
10
29.9134297318695
20
12.1568518666075
30
0
41
1
10
29.9384529908187
20
12.1880449191055
30
0
41
1
10
29.979434967215
20
12.2455470745182
30
0
41
1
10
29.9962235516933
20
12.2714855230732
30
0
41
1
10
30.011792893418
20
12.2980025604399
30
0
0
SPLINE
5
370
100
AcDbEntity
8
1
62
256
6
ByLayer
370
-1
48
1
60
0
100
AcDbSpline
70
4
71
3
72
8
73
4
40
0
40
0
40
0
40
0
40
1
40
1
40
1
40
1
41
1
10
29.4808877414383
20
11.981095071146
30
0
41
1
10
29.4859818333298
20
11.9772160916502
30
0
41
1
10
29.491075914023
20
11.9733371274699
30
0
41
1
10
29.4961699838516
20
11.9694581781489
30
0
0
SPLINE
5
371
100
AcDbEntity
8
1
62
256
6
ByLayer
370
-1
48
1
60
0
100
AcDbSpline
70
4
71
3
72
24
73
20
40
0
40
0
40
0
40
0
40
0.0387861824693105
40
0.0387861824693105
40
0.214013350592167
40
0.214013350592167
40
0.389422662782072
40
0.389422662782072
40
0.512145428551146
40
0.512145428551146
40
0.607589910664876
40
0.607589910664876
40
0.697945972633947
40
0.697945972633947
40
0.834212591226207
40
0.834212591226207
40
0.923459798190911
40
0.923459798190911
40
1
40
1
40
1
40
1
41
1
10
28.0543106553637
20
11.1903588850206
30
0
41
1
10
28.0631724312372
20
11.1903340558522
30
0
41
1
10
28.0720344292218
20
11.1904136041639
30
0
41
1
10
28.1208619018896
20
11.1914287542014
30
0
41
1
10
28.1608409504846
20
11.1943803932908
30
0
41
1
10
28.2398776875373
20
11.204797035809
30
0
41
1
10
28.2791321068035
20
11.212284273228
30
0
41
1
10
28.3441047748177
20
11.2295040489465
30
0
41
1
10
28.370460502409
20
11.2379229820446
30
0
41
1
10
28.4157191591037
20
11.255630127095
30
0
41
1
10
28.4350538661143
20
11.2643424732739
30
0
41
1
10
28.4709409260917
20
11.2834171169858
30
0
41
1
10
28.4876873384903
20
11.2937213741824
30
0
41
1
10
28.5260958973364
20
11.3221542600155
30
0
41
1
10
28.5466534180312
20
11.3421839849655
30
0
41
1
10
28.5701802121738
20
11.3788125393861
30
0
41
1
10
28.5768793106345
20
11.3945785884215
30
0
41
1
10
28.5825093547103
20
11.4239270628937
30
0
41
1
10
28.5824573344401
20
11.4377729281705
30
0
41
1
10
28.5798973994616
20
11.450984235791
30
0
0
SPLINE
5
372
100
AcDbEntity
8
1
62
256
6
ByLayer
370
-1
48
1
60
0
100
AcDbSpline
70
4
71
3
72
14
73
10
40
0
40
0
40
0
40
0
40
0.151895429222963
40
0.151895429222963
40
0.342602352580917
40
0.342602352580917
40
0.577012052618729
40
0.577012052618729
40
1
40
1
40
1
40
1
41
1
10
28.1367665239771
20
8.05828627969947
30
0
41
1
10
28.1376780291082
20
8.0614146363951
30
0
41
1
10
28.1391634802279
20
8.06441676163921
30
0
41
1
10
28.1434008543614
20
8.0704408992703
30
0
41
1
10
28.146428968507
20
8.07337482257068
30
0
41
1
10
28.1538359309336
20
8.07879599621532
30
0
41
1
10
28.1584598800554
20
8.08112315004604
30
0
41
1
10
28.1717761137967
20
8.08601949015768
30
0
41
1
10
28.1810457876999
20
8.08745731575607
30
0
41
1
10
28.1901730191527
20
8.08766199327125
30
0
0
SPLINE
5
373
100
AcDbEntity
8
1
62
256
6
ByLayer
370
-1
48
1
60
0
100
AcDbSpline
70
4
71
3
72
14
73
10
40
0
40
0
40
0
40
0
40
0.151895429222966
40
0.151895429222966
40
0.342602352580977
40
0.342602352580977
40
0.577012052618774
40
0.577012052618774
40
1
40
1
40
1
40
1
41
1
10
32.7011404634339
20
16.1206723402006
30
0
41
1
10
32.6979317926405
20
16.1198933702853
30
0
41
1
10
32.694545726528
20
16.1196667732651
30
0
41
1
10
32.687119752136
20
16.1202839680057
30
0
41
1
10
32.6830185220368
20
16.1214071745884
30
0
41
1
10
32.674530113634
20
16.1250279817328
30
0
41
1
10
32.6701605492766
20
16.1278143038382
30
0
41
1
10
32.6591644181384
20
16.1367367631218
30
0
41
1
10
32.6532425066853
20
16.1439282986931
30
0
41
1
10
32.6484764384678
20
16.151611868886
30
0
0
SPLINE
5
374
100
AcDbEntity
8
1
62
256
6
ByLayer
370
-1
48
1
60
0
100
AcDbSpline
70
4
71
3
72
10
73
6
40
0
40
0
40
0
40
0
40
0.664373607448588
40
0.664373607448588
40
1
40
1
40
1
40
1
41
1
10
32.6140447266143
20
15.3983525628674
30
0
41
1
10
32.5903416097592
20
15.5383998200523
30
0
41
1
10
32.562221673255
20
15.6775800102716
30
0
41
1
10
32.513327283533
20
15.8853200865769
30
0
41
1
10
32.495795969174
20
15.9547750026788
30
0
41
1
10
32.4771525220628
20
16.0239086493845
30
0
0
SPLINE
5
375
100
AcDbEntity
8
1
62
256
6
ByLayer
370
-1
48
1
60
0
100
AcDbSpline
70
4
71
3
72
10
73
6
40
0
40
0
40
0
40
0
40
0.308294658890188
40
0.308294658890188
40
1
40
1
40
1
40
1
41
1
10
32.8732327916905
20
15.3677660208444
30
0
41
1
10
32.8785660794213
20
15.3381909230929
30
0
41
1
10
32.8819013617498
20
15.3081048897622
30
0
41
1
10
32.8853077928492
20
15.2106710930483
30
0
41
1
10
32.8764555833442
20
15.1408450362598
30
0
41
1
10
32.852133551839
20
15.074977249467
30
0
0
SPLINE
5
376
100
AcDbEntity
8
1
62
256
6
ByLayer
370
-1
48
1
60
0
100
AcDbSpline
70
4
71
3
72
12
73
8
40
0
40
0
40
0
40
0
40
0.475702259787917
40
0.475702259787917
40
0.987510459776039
40
0.987510459776039
40
1
40
1
40
1
40
1
41
1
10
32.8521335518389
20
15.0749772494669
30
0
41
1
10
32.8210727946163
20
15.0332306770292
30
0
41
1
10
32.7862732136147
20
14.9904380264846
30
0
41
1
10
32.7124914490343
20
14.903840312554
30
0
41
1
10
32.6726672264274
20
14.859425490079
30
0
41
1
10
32.6317959704666
20
14.8154697025182
30
0
41
1
10
32.6308240333861
20
14.8144258196051
30
0
41
1
10
32.6298523796879
20
14.8133822807764
30
0
0
SPLINE
5
377
100
AcDbEntity
8
1
62
256
6
ByLayer
370
-1
48
1
60
0
100
AcDbSpline
70
4
71
3
72
12
73
8
40
0
40
0
40
0
40
0
40
0.013654019212022
40
0.013654019212022
40
0.527563903938542
40
0.527563903938542
40
1
40
1
40
1
40
1
41
1
10
32.6298523796879
20
14.8133822807764
30
0
41
1
10
32.6299850891677
20
14.814941501383
30
0
41
1
10
32.6301181810072
20
14.8165012258833
30
0
41
1
10
32.6352441234288
20
14.8768752660464
30
0
41
1
10
32.6398589084642
20
14.9366957257495
30
0
41
1
10
32.6473992143324
20
15.0513335683239
30
0
41
1
10
32.6504984221507
20
15.1067733720621
30
0
41
1
10
32.6524662627406
20
15.1605197873623
30
0
0
SPLINE
5
378
100
AcDbEntity
8
1
62
256
6
ByLayer
370
-1
48
1
60
0
100
AcDbSpline
70
4
71
3
72
10
73
6
40
0
40
0
40
0
40
0
40
0.678343265954013
40
0.678343265954013
40
1
40
1
40
1
40
1
41
1
10
32.6524662627406
20
15.1605197873623
30
0
41
1
10
32.6544660853392
20
15.2151397075282
30
0
41
1
10
32.6468820993436
20
15.2700706775059
30
0
41
1
10
32.628926736925
20
15.3485265552626
30
0
41
1
10
32.6219657687701
20
15.3736055815887
30
0
41
1
10
32.6140447266143
20
15.3983525628674
30
0
0
SPLINE
5
379
100
AcDbEntity
8
1
62
256
6
ByLayer
370
-1
48
1
60
0
100
AcDbSpline
70
4
71
3
72
12
73
8
40
0
40
0
40
0
40
0
40
0.0124895402239615
40
0.0124895402239615
40
0.524297740212092
40
0.524297740212092
40
1
40
1
40
1
40
1
41
1
10
32.8414610405448
20
13.9768585180279
30
0
41
1
10
32.8428176622196
20
13.9763802152695
30
0
41
1
10
32.844174442551
20
13.9759027496562
30
0
41
1
10
32.9012462552636
20
13.9558150777592
30
0
41
1
10
32.9571862633952
20
13.9365215553477
30
0
41
1
10
33.0618504023751
20
13.9010361752755
30
0
41
1
10
33.1116737260258
20
13.8844375056324
30
0
41
1
10
33.1570327080234
20
13.8696608491013
30
0
0
SPLINE
5
37A
100
AcDbEntity
8
1
62
256
6
ByLayer
370
-1
48
1
60
0
100
AcDbSpline
70
4
71
3
72
10
73
6
40
0
40
0
40
0
40
0
40
0.699253394043954
40
0.699253394043954
40
1
40
1
40
1
40
1
41
1
10
33.0940188678471
20
13.5009360156424
30
0
41
1
10
33.0853968771101
20
13.5492305407683
30
0
41
1
10
33.0722046795978
20
13.5969938303857
30
0
41
1
10
33.043751249005
20
13.6615873286198
30
0
41
1
10
33.0338652160544
20
13.6806483065752
30
0
41
1
10
33.0222321635493
20
13.6987745004351
30
0
0
SPLINE
5
37B
100
AcDbEntity
8
1
62
256
6
ByLayer
370
-1
48
1
60
0
100
AcDbSpline
70
4
71
3
72
12
73
8
40
0
40
0
40
0
40
0
40
0.472436096061456
40
0.472436096061456
40
0.986345980787969
40
0.986345980787969
40
1
40
1
40
1
40
1
41
1
10
33.0222321635493
20
13.6987745004351
30
0
41
1
10
32.9965429828446
20
13.7388024354376
30
0
41
1
10
32.9684806365397
20
13.7820460147529
30
0
41
1
10
32.9087047820467
20
13.8739038680914
30
0
41
1
10
32.8764735537153
20
13.9232557407789
30
0
41
1
10
32.8431824885539
20
13.9742230528892
30
0
41
1
10
32.8423215987215
20
13.975540433291
30
0
41
1
10
32.8414610405448
20
13.9768585180279
30
0
0
SPLINE
5
37C
100
AcDbEntity
8
1
62
256
6
ByLayer
370
-1
48
1
60
0
100
AcDbSpline
70
4
71
3
72
16
73
12
40
0
40
0
40
0
40
0
40
0.182829634754699
40
0.182829634754699
40
0.39590797591364
40
0.39590797591364
40
0.630210556166924
40
0.630210556166924
40
0.706884620389863
40
0.706884620389863
40
1
40
1
40
1
40
1
41
1
10
23.4126906356142
20
16.084243350602
30
0
41
1
10
23.4256845732555
20
16.0717619258266
30
0
41
1
10
23.4375985914803
20
16.0578821430792
30
0
41
1
10
23.4601136903297
20
16.025944847648
30
0
41
1
10
23.4703587082475
20
16.0073120661169
30
0
41
1
10
23.4869707669012
20
15.9670728173887
30
0
41
1
10
23.4930115795762
20
15.9449700446243
30
0
41
1
10
23.4971320496062
20
15.9158498668056
30
0
41
1
10
23.4978436164425
20
15.9086164607598
30
0
41
1
10
23.4997438064804
20
15.8742701697418
30
0
41
1
10
23.4967001984436
20
15.8471804550742
30
0
41
1
10
23.4894365046347
20
15.8223597579014
30
0
0
SPLINE
5
37D
100
AcDbEntity
8
1
62
256
6
ByLayer
370
-1
48
1
60
0
100
AcDbSpline
70
4
71
3
72
10
73
6
40
0
40
0
40
0
40
0
40
0.699253394043964
40
0.699253394043964
40
1
40
1
40
1
40
1
41
1
10
25.721115709149
20
8.86151397375478
30
0
41
1
10
25.7706448506971
20
8.83867079947233
30
0
41
1
10
25.8220465707893
20
8.81985218167134
30
0
41
1
10
25.8970368209544
20
8.80303607692224
30
0
41
1
10
25.9199344794079
20
8.79928564357107
30
0
41
1
10
25.9428610138267
20
8.79753441529756
30
0
0
SPLINE
5
37E
100
AcDbEntity
8
1
62
256
6
ByLayer
370
-1
48
1
60
0
100
AcDbSpline
70
4
71
3
72
12
73
8
40
0
40
0
40
0
40
0
40
0.472436096061455
40
0.472436096061455
40
0.98634598078797
40
0.98634598078797
40
1
40
1
40
1
40
1
41
1
10
25.9428610138267
20
8.79753441529756
30
0
41
1
10
25.9934895041012
20
8.79366719132058
30
0
41
1
10
26.0472277114833
20
8.79212856776952
30
0
41
1
10
26.160173600071
20
8.79175257286242
30
0
41
1
10
26.220180258925
20
8.79321519717602
30
0
41
1
10
26.2815882173008
20
8.79593789993828
30
0
41
1
10
26.2831752672805
20
8.79600945430282
30
0
41
1
10
26.2847623797408
20
8.79608120920695
30
0
0
SPLINE
5
37F
100
AcDbEntity
8
1
62
256
6
ByLayer
370
-1
48
1
60
0
100
AcDbSpline
70
4
71
3
72
10
73
6
40
0
40
0
40
0
40
0
40
0.664375350521617
40
0.664375350521617
40
1
40
1
40
1
40
1
41
1
10
25.1872540972297
20
9.11060819127495
30
0
41
1
10
25.3035253982581
20
9.04907079177846
30
0
41
1
10
25.4212166317954
20
8.99172161970935
30
0
41
1
10
25.6001120330781
20
8.91185457966954
30
0
41
1
10
25.660475473926
20
8.88613277015213
30
0
41
1
10
25.721115709149
20
8.86151397375478
30
0
0
SPLINE
5
380
100
AcDbEntity
8
1
62
256
6
ByLayer
370
-1
48
1
60
0
100
AcDbSpline
70
4
71
3
72
10
73
6
40
0
40
0
40
0
40
0
40
0.664375350521612
40
0.664375350521612
40
1
40
1
40
1
40
1
41
1
10
33.2310080397758
20
13.0437940751875
30
0
41
1
10
33.2072927327358
20
13.1465824435319
30
0
41
1
10
33.179139272496
20
13.2484395921637
30
0
41
1
10
33.1302078382053
20
13.4000309274301
30
0
41
1
10
33.1126664177858
20
13.45063786865
30
0
41
1
10
33.0940188678471
20
13.5009360156424
30
0
0
SPLINE
5
381
100
AcDbEntity
8
1
62
256
6
ByLayer
370
-1
48
1
60
0
100
AcDbSpline
70
4
71
3
72
16
73
12
40
0
40
0
40
0
40
0
40
0.0032836924217572
40
0.0032836924217572
40
0.409197106336963
40
0.409197106336963
40
0.675155616234972
40
0.675155616234972
40
0.836825832650404
40
0.836825832650404
40
1
40
1
40
1
40
1
41
1
10
33.4310859460207
20
13.0578280541322
30
0
41
1
10
33.4310902848421
20
13.0578985756317
30
0
41
1
10
33.4310947014604
20
13.0579690923126
30
0
41
1
10
33.4316486425843
20
13.0666594538131
30
0
41
1
10
33.4333601552384
20
13.0753528308307
30
0
41
1
10
33.4387711396912
20
13.0886262350056
30
0
41
1
10
33.4416513606047
20
13.0937073107244
30
0
41
1
10
33.447648628811
20
13.1006808065332
30
0
41
1
10
33.4502819098169
20
13.1030825726416
30
0
41
1
10
33.4561507272751
20
13.1069505059398
30
0
41
1
10
33.4594688095203
20
13.1084433588348
30
0
41
1
10
33.4629084683065
20
13.1092784057704
30
0
0
SPLINE
5
382
100
AcDbEntity
8
1
62
256
6
ByLayer
370
-1
48
1
60
0
100
AcDbSpline
70
4
71
3
72
10
73
6
40
0
40
0
40
0
40
0
40
0.664373607448588
40
0.664373607448588
40
1
40
1
40
1
40
1
41
1
10
27.6282632861152
20
8.31754272742009
30
0
41
1
10
27.7490725563111
20
8.2975756631669
30
0
41
1
10
27.8713064507972
20
8.28183423333928
30
0
41
1
10
28.0570474535994
20
8.26456263974018
30
0
41
1
10
28.1197109203564
20
8.25985280935822
30
0
41
1
10
28.1826523915968
20
8.25623773608045
30
0
0
SPLINE
5
383
100
AcDbEntity
8
1
62
256
6
ByLayer
370
-1
48
1
60
0
100
AcDbSpline
70
4
71
3
72
10
73
6
40
0
40
0
40
0
40
0
40
0.314957896649187
40
0.314957896649187
40
1
40
1
40
1
40
1
41
1
10
26.0244789184338
20
8.60004095349045
30
0
41
1
10
25.9971642361871
20
8.59383106799696
30
0
41
1
10
25.9693738558362
20
8.59111082441343
30
0
41
1
10
25.8823708708709
20
8.5916735132472
30
0
41
1
10
25.8229033979783
20
8.60547520813181
30
0
41
1
10
25.7668316680868
20
8.6284833477193
30
0
0
SPLINE
5
384
100
AcDbEntity
8
1
62
256
6
ByLayer
370
-1
48
1
60
0
100
AcDbSpline
70
4
71
3
72
10
73
6
40
0
40
0
40
0
40
0
40
0.699253394043966
40
0.699253394043966
40
1
40
1
40
1
40
1
41
1
10
25.3100953585876
20
17.4816409716287
30
0
41
1
10
25.2681428916601
20
17.4449397717824
30
0
41
1
10
25.2288632576788
20
17.4044784003833
30
0
41
1
10
25.1808054214666
20
17.3403315974332
30
0
41
1
10
25.1673345912486
20
17.3200790227337
30
0
41
1
10
25.1555888352602
20
17.2988366156447
30
0
0
SPLINE
5
385
100
AcDbEntity
8
1
62
256
6
ByLayer
370
-1
48
1
60
0
100
AcDbSpline
70
4
71
3
72
10
73
6
40
0
40
0
40
0
40
0
40
0.314957896649187
40
0.314957896649187
40
1
40
1
40
1
40
1
41
1
10
24.9397614324681
20
17.3318046576976
30
0
41
1
10
24.9453208678988
20
17.3637172680066
30
0
41
1
10
24.9540349084884
20
17.3946036715683
30
0
41
1
10
24.9890320758656
20
17.4873072552317
30
0
41
1
10
25.0243562872764
20
17.5447715353792
30
0
41
1
10
25.0661578349513
20
17.5945597654593
30
0
0
SPLINE
5
386
100
AcDbEntity
8
1
62
256
6
ByLayer
370
-1
48
1
60
0
100
AcDbSpline
70
4
71
3
72
16
73
12
40
0
40
0
40
0
40
0
40
0.0032836924217717
40
0.0032836924217717
40
0.409197106336969
40
0.409197106336969
40
0.675155616234935
40
0.675155616234935
40
0.836825832650357
40
0.836825832650357
40
1
40
1
40
1
40
1
41
1
10
25.0805225238019
20
8.97462033674258
30
0
41
1
10
25.080582372575
20
8.97458120130268
30
0
41
1
10
25.0806421784045
20
8.97454200192422
30
0
41
1
10
25.0880077535689
20
8.96970290763154
30
0
41
1
10
25.0948000461773
20
8.96387490532639
30
0
41
1
10
25.1037788008912
20
8.95259000694735
30
0
41
1
10
25.1068134275279
20
8.94758016212741
30
0
41
1
10
25.1099611592824
20
8.93896064607158
30
0
41
1
10
25.110762808832
20
8.93550769310474
30
0
41
1
10
25.1112438190994
20
8.92855817580697
30
0
41
1
10
25.110905574239
20
8.9249777924388
30
0
41
1
10
25.1099284510517
20
8.92162422945674
30
0
0
SPLINE
5
387
100
AcDbEntity
8
1
62
256
6
ByLayer
370
-1
48
1
60
0
100
AcDbSpline
70
4
71
3
72
16
73
12
40
0
40
0
40
0
40
0
40
0.182829634754699
40
0.182829634754699
40
0.395907975913636
40
0.395907975913636
40
0.630210556166926
40
0.630210556166926
40
0.706884620389868
40
0.706884620389868
40
1
40
1
40
1
40
1
41
1
10
28.0093423997578
20
8.0860832322205
30
0
41
1
10
28.0136926538879
20
8.10324416580983
30
0
41
1
10
28.0195938169818
20
8.11987170131539
30
0
41
1
10
28.0352246450325
20
8.15338308257888
30
0
41
1
10
28.0455548689129
20
8.17013226869513
30
0
41
1
10
28.0701705462883
20
8.20095597626496
30
0
41
1
10
28.084981768957
20
8.21489540613223
30
0
41
1
10
28.1061002561253
20
8.22953587402442
30
0
41
1
10
28.1114764989254
20
8.23286984287063
30
0
41
1
10
28.1376227261019
20
8.24726583311246
30
0
41
1
10
28.1601441308716
20
8.25421247991289
30
0
41
1
10
28.1826523915968
20
8.25623773608045
30
0
0
SPLINE
5
388
100
AcDbEntity
8
1
62
256
6
ByLayer
370
-1
48
1
60
0
100
AcDbSpline
70
4
71
3
72
16
73
12
40
0
40
0
40
0
40
0
40
0.0640693006018374
40
0.0640693006018374
40
0.357081330069611
40
0.357081330069611
40
0.623169868282955
40
0.623169868282955
40
0.804233485279169
40
0.804233485279169
40
1
40
1
40
1
40
1
41
1
10
25.1872540972297
20
9.11060819127495
30
0
41
1
10
25.1909992044395
20
9.10766825539184
30
0
41
1
10
25.1946117189278
20
9.10453483480163
30
0
41
1
10
25.213708858067
20
9.08626457010033
30
0
41
1
10
25.2265250836049
20
9.06725889027685
30
0
41
1
10
25.2434728939841
20
9.02611022041653
30
0
41
1
10
25.2484881846285
20
9.00392716456767
30
0
41
1
10
25.2510618132033
20
8.96484267590338
30
0
41
1
10
25.250505703557
20
8.94826479483029
30
0
41
1
10
25.246017023371
20
8.91355358204542
30
0
41
1
10
25.2417821014887
20
8.89516279044489
30
0
41
1
10
25.235805070915
20
8.87717280271173
30
0
0
SPLINE
5
389
100
AcDbEntity
8
1
62
256
6
ByLayer
370
-1
48
1
60
0
100
AcDbSpline
70
4
71
3
72
16
73
12
40
0
40
0
40
0
40
0
40
0.0032836924217114
40
0.0032836924217114
40
0.409197106336964
40
0.409197106336964
40
0.675155616234967
40
0.675155616234967
40
0.836825832650384
40
0.836825832650384
40
1
40
1
40
1
40
1
41
1
10
25.644986785908
20
18.1492008551853
30
0
41
1
10
25.6449225983135
20
18.1491694691257
30
0
41
1
10
25.6448583758656
20
18.1491381518232
30
0
41
1
10
25.6369388595774
20
18.1452868846154
30
0
41
1
10
25.6284350543149
20
18.142421509903
30
0
41
1
10
25.6140453151481
20
18.1404330041071
30
0
41
1
10
25.608130467598
20
18.1403617732083
30
0
41
1
10
25.5989854676372
20
18.1420077934553
30
0
41
1
10
25.5955505370817
20
18.1430589803137
30
0
41
1
10
25.5892007093561
20
18.1461405643133
30
0
41
1
10
25.5862208719713
20
18.1482280947864
30
0
41
1
10
25.5837583363724
20
18.1507466108329
30
0
0
SPLINE
5
38A
100
AcDbEntity
8
1
62
256
6
ByLayer
370
-1
48
1
60
0
100
AcDbSpline
70
4
71
3
72
10
73
6
40
0
40
0
40
0
40
0
40
0.593726189297211
40
0.593726189297211
40
1
40
1
40
1
40
1
41
1
10
26.3433832235812
20
5.17882082496367
30
0
41
1
10
26.3267300229573
20
5.19269462382174
30
0
41
1
10
26.3057556257248
20
5.20838034176816
30
0
41
1
10
26.2671562418666
20
5.23526960342733
30
0
41
1
10
26.2502744676864
20
5.24653187660238
30
0
41
1
10
26.2329071190465
20
5.25772262050008
30
0
0
SPLINE
5
38B
100
AcDbEntity
8
1
62
256
6
ByLayer
370
-1
48
1
60
0
100
AcDbSpline
70
4
71
3
72
12
73
8
40
0
40
0
40
0
40
0
40
0.0124895402239571
40
0.0124895402239571
40
0.52429774021209
40
0.52429774021209
40
1
40
1
40
1
40
1
41
1
10
26.2847623797408
20
8.79608120920695
30
0
41
1
10
26.2836668533832
20
8.79516435901591
30
0
41
1
10
26.2825715775793
20
8.79424782177655
30
0
41
1
10
26.2364795239254
20
8.75573284593798
30
0
41
1
10
26.1909741351315
20
8.71922620597172
30
0
41
1
10
26.1047489800999
20
8.65408299757539
30
0
41
1
10
26.0632262162606
20
8.62449613460637
30
0
41
1
10
26.0244789184338
20
8.60004095349045
30
0
0
SPLINE
5
38C
100
AcDbEntity
8
1
62
256
6
ByLayer
370
-1
48
1
60
0
100
AcDbSpline
70
4
71
3
72
10
73
6
40
0
40
0
40
0
40
0
40
0.593726189297189
40
0.593726189297189
40
1
40
1
40
1
40
1
41
1
10
35.9740732978933
20
15.8008499442472
30
0
41
1
10
35.9744577516029
20
15.7856104653203
30
0
41
1
10
35.9747841964355
20
15.7648981369187
30
0
41
1
10
35.9752104911845
20
15.7251018443461
30
0
41
1
10
35.9753529967099
20
15.7072736937776
30
0
41
1
10
35.9754647076947
20
15.6885969037817
30
0
0
SPLINE
5
38D
100
AcDbEntity
8
1
62
256
6
ByLayer
370
-1
48
1
60
0
100
AcDbSpline
70
4
71
3
72
10
73
6
40
0
40
0
40
0
40
0
40
0.664373607448585
40
0.664373607448585
40
1
40
1
40
1
40
1
41
1
10
23.8829219228542
20
16.1281956707385
30
0
41
1
10
23.7911350957573
20
16.0653628655592
30
0
41
1
10
23.7023444253547
20
15.9992141254056
30
0
41
1
10
23.5734995818368
20
15.8948618882244
30
0
41
1
10
23.5310523275834
20
15.8590120794825
30
0
41
1
10
23.4894365046347
20
15.8223597579014
30
0
0
SPLINE
5
38E
100
AcDbEntity
8
1
62
256
6
ByLayer
370
-1
48
1
60
0
100
AcDbSpline
70
4
71
3
72
10
73
6
40
0
40
0
40
0
40
0
40
0.308294658890186
40
0.308294658890186
40
1
40
1
40
1
40
1
41
1
10
23.8020156553366
20
16.3957234854263
30
0
41
1
10
23.8213811179
20
16.4094760802437
30
0
41
1
10
23.8421964369206
20
16.4217739922798
30
0
41
1
10
23.9135528934372
20
16.455613618338
30
0
41
1
10
23.9707167723946
20
16.4707211732552
30
0
41
1
10
24.033162641195
20
16.4720409855895
30
0
0
SPLINE
5
38F
100
AcDbEntity
8
1
62
256
6
ByLayer
370
-1
48
1
60
0
100
AcDbSpline
70
4
71
3
72
12
73
8
40
0
40
0
40
0
40
0
40
0.625116859010362
40
0.625116859010362
40
0.853176044554916
40
0.853176044554916
40
1
40
1
40
1
40
1
41
1
10
22.8305729705845
20
19.3362223275437
30
0
41
1
10
22.9006396970178
20
19.3800344809872
30
0
41
1
10
22.9749910798417
20
19.4250651474988
30
0
41
1
10
23.0747282047118
20
19.4802981144268
30
0
41
1
10
23.1018217311266
20
19.4947301202037
30
0
41
1
10
23.143346968516
20
19.5153357244376
30
0
41
1
10
23.1590893724505
20
19.5227259182816
30
0
41
1
10
23.1731129528086
20
19.5287332008659
30
0
0
SPLINE
5
390
100
AcDbEntity
8
1
62
256
6
ByLayer
370
-1
48
1
60
0
100
AcDbSpline
70
4
71
3
72
12
73
8
40
0
40
0
40
0
40
0
40
0.475702259787916
40
0.475702259787916
40
0.987510459776032
40
0.987510459776032
40
1
40
1
40
1
40
1
41
1
10
24.0331626411951
20
16.4720409855894
30
0
41
1
10
24.0810889318256
20
16.4602101018184
30
0
41
1
10
24.1332559979813
20
16.4477182909307
30
0
41
1
10
24.2424108675363
20
16.422216574898
30
0
41
1
10
24.300497758695
20
16.4089864713079
30
0
41
1
10
24.3596359741853
20
16.3959278284461
30
0
41
1
10
24.3610416331937
20
16.3956173699424
30
0
41
1
10
24.3624474069895
20
16.3953077610964
30
0
0
SPLINE
5
391
100
AcDbEntity
8
1
62
256
6
ByLayer
370
-1
48
1
60
0
100
AcDbSpline
70
4
71
3
72
12
73
8
40
0
40
0
40
0
40
0
40
0.013654019212024
40
0.013654019212024
40
0.527563903938544
40
0.527563903938544
40
1
40
1
40
1
40
1
41
1
10
24.3624474069895
20
16.3953077610964
30
0
41
1
10
24.3610097481704
20
16.3946451914223
30
0
41
1
10
24.359571993549
20
16.393983448006
30
0
41
1
10
24.3039530744612
20
16.3683757229186
30
0
41
1
10
24.2498299557681
20
16.3436544988211
30
0
41
1
10
24.1485987819203
20
16.2977203038994
30
0
41
1
10
24.1007086644485
20
16.2761404683247
30
0
41
1
10
24.056112789074
20
16.25615977561
30
0
0
SPLINE
5
392
100
AcDbEntity
8
1
62
256
6
ByLayer
370
-1
48
1
60
0
100
AcDbSpline
70
4
71
3
72
10
73
6
40
0
40
0
40
0
40
0
40
0.678343265954008
40
0.678343265954008
40
1
40
1
40
1
40
1
41
1
10
24.056112789074
20
16.25615977561
30
0
41
1
10
24.0107921264945
20
16.2358543499395
30
0
41
1
10
23.9701336900148
20
16.2073866372182
30
0
41
1
10
23.9157083526313
20
16.1607434064131
30
0
41
1
10
23.8989357353471
20
16.1448072276168
30
0
41
1
10
23.8829219228542
20
16.1281956707385
30
0
0
SPLINE
5
393
100
AcDbEntity
8
1
62
256
6
ByLayer
370
-1
48
1
60
0
100
AcDbSpline
70
4
71
3
72
12
73
8
40
0
40
0
40
0
40
0
40
0.012489540223959
40
0.012489540223959
40
0.52429774021209
40
0.52429774021209
40
1
40
1
40
1
40
1
41
1
10
24.9916526778619
20
16.9920081310974
30
0
41
1
10
24.9913915825447
20
16.9934032840468
30
0
41
1
10
24.991130231151
20
16.9947989349491
30
0
41
1
10
24.9801633696021
20
17.0535403876204
30
0
41
1
10
24.9699957703824
20
17.1122142606031
30
0
41
1
10
24.9526677318772
20
17.2247990107424
30
0
41
1
10
24.9451728356829
20
17.2796552161745
30
0
41
1
10
24.9397614324681
20
17.3318046576976
30
0
0
SPLINE
5
394
100
AcDbEntity
8
1
62
256
6
ByLayer
370
-1
48
1
60
0
100
AcDbSpline
70
4
71
3
72
14
73
10
40
0
40
0
40
0
40
0
40
0.151895429222982
40
0.151895429222982
40
0.342602352580957
40
0.342602352580957
40
0.577012052618743
40
0.577012052618743
40
1
40
1
40
1
40
1
41
1
10
23.3186882683196
20
16.00269062616
30
0
41
1
10
23.3209854339819
20
16.0003412393797
30
0
41
1
10
23.3228860489747
20
15.9975657111558
30
0
41
1
10
23.3260746492331
20
15.9909243787841
30
0
41
1
10
23.3271477651867
20
15.986867248901
30
0
41
1
10
23.328229211163
20
15.9778252681119
30
0
41
1
10
23.3279748263986
20
15.9727117921759
30
0
41
1
10
23.3256547237954
20
15.9588929927806
30
0
41
1
10
23.3223069613454
20
15.9502636316109
30
0
41
1
10
23.31794579811
20
15.9423753839028
30
0
0
SPLINE
5
395
100
AcDbEntity
8
1
62
256
6
ByLayer
370
-1
48
1
60
0
100
AcDbSpline
70
4
71
3
72
16
73
12
40
0
40
0
40
0
40
0
40
0.0640693006018414
40
0.0640693006018414
40
0.357081330069626
40
0.357081330069626
40
0.623169868282982
40
0.623169868282982
40
0.804233485279197
40
0.804233485279197
40
1
40
1
40
1
40
1
41
1
10
33.2310080397758
20
13.0437940751875
30
0
41
1
10
33.23236852803
20
13.0493662447449
30
0
41
1
10
33.2339576059089
20
13.0549102230834
30
0
41
1
10
33.2439443466965
20
13.0851867951
30
0
41
1
10
33.2569179926894
20
13.1093363370349
30
0
41
1
10
33.2889636912447
20
13.150363259615
30
0
41
1
10
33.3077492623145
20
13.168184632853
30
0
41
1
10
33.3431443337057
20
13.1930586121107
30
0
41
1
10
33.358761634195
20
13.2018922683128
30
0
41
1
10
33.3926828006446
20
13.2169277156897
30
0
41
1
10
33.4113371369533
20
13.2229609655127
30
0
41
1
10
33.430260463559
20
13.2269553198438
30
0
0
SPLINE
5
396
100
AcDbEntity
8
1
62
256
6
ByLayer
370
-1
48
1
60
0
100
AcDbSpline
70
4
71
3
72
10
73
6
40
0
40
0
40
0
40
0
40
0.593726189297188
40
0.593726189297188
40
1
40
1
40
1
40
1
41
1
10
21.7953624506902
20
18.7308515399503
30
0
41
1
10
21.8127845587333
20
18.7446298656672
30
0
41
1
10
21.8344118456309
20
18.7601962210381
30
0
41
1
10
21.8738638189873
20
18.7868667962485
30
0
41
1
10
21.8910306042183
20
18.7980336712292
30
0
41
1
10
21.9086213748278
20
18.8091264685026
30
0
0
SPLINE
5
397
100
AcDbEntity
8
1
62
256
6
ByLayer
370
-1
48
1
60
0
100
AcDbSpline
70
4
71
3
72
10
73
6
40
0
40
0
40
0
40
0
40
0.314957896649188
40
0.314957896649188
40
1
40
1
40
1
40
1
41
1
10
33.1570327080234
20
13.8696608491013
30
0
41
1
10
33.1797560692994
20
13.8543771174689
30
0
41
1
10
33.1998571737574
20
13.8372396290291
30
0
41
1
10
33.2551716180456
20
13.7795812938804
30
0
41
1
10
33.2817247488098
20
13.7342506939156
30
0
41
1
10
33.2983777263318
20
13.6870983251111
30
0
0
SPLINE
5
398
100
AcDbEntity
8
1
62
256
6
ByLayer
370
-1
48
1
60
0
100
AcDbSpline
70
4
71
3
72
12
73
8
40
0
40
0
40
0
40
0
40
0.625116859010352
40
0.625116859010352
40
0.853176044554909
40
0.853176044554909
40
1
40
1
40
1
40
1
41
1
10
25.3120163869043
20
5.78998180608443
30
0
41
1
10
25.2427665867219
20
5.8341843004208
30
0
41
1
10
25.1689955806122
20
5.87962998033365
30
0
41
1
10
25.0690224083343
20
5.93542250108924
30
0
41
1
10
25.0417525632985
20
5.95000682366204
30
0
41
1
10
24.9996601590911
20
5.97084671011413
30
0
41
1
10
24.9836200658996
20
5.97832595303655
30
0
41
1
10
24.9692183135767
20
5.98441287850328
30
0
0
SPLINE
5
399
100
AcDbEntity
8
1
62
256
6
ByLayer
370
-1
48
1
60
0
100
AcDbSpline
70
4
71
3
72
16
73
12
40
0
40
0
40
0
40
0
40
0.064069300601842
40
0.064069300601842
40
0.357081330069609
40
0.357081330069609
40
0.623169868282948
40
0.623169868282948
40
0.804233485279151
40
0.804233485279151
40
1
40
1
40
1
40
1
41
1
10
25.7309792812888
20
17.9481038769039
30
0
41
1
10
25.726053507976
20
17.9474069162211
30
0
41
1
10
25.7210295055822
20
17.9469076084321
30
0
41
1
10
25.6929080739409
20
17.9452593140805
30
0
41
1
10
25.667857495792
20
17.9480718383531
30
0
41
1
10
25.6200624572185
20
17.9610917036125
30
0
41
1
10
25.5967542379671
20
17.9707552783798
30
0
41
1
10
25.5594209173158
20
17.991803835376
30
0
41
1
10
25.5445680459315
20
18.0017900255423
30
0
41
1
10
25.5154488785247
20
18.0248377755325
30
0
41
1
10
25.5011268502638
20
18.0382434018463
30
0
41
1
10
25.488208464725
20
18.0525394121671
30
0
0
SPLINE
5
39A
100
AcDbEntity
8
1
62
256
6
ByLayer
370
-1
48
1
60
0
100
AcDbSpline
70
4
71
3
72
16
73
12
40
0
40
0
40
0
40
0
40
0.182829634754684
40
0.182829634754684
40
0.395907975913631
40
0.395907975913631
40
0.630210556166933
40
0.630210556166933
40
0.706884620389855
40
0.706884620389855
40
1
40
1
40
1
40
1
41
1
10
32.7322409638271
20
15.9863409519005
30
0
41
1
10
32.7148706940167
20
15.9813807873159
30
0
41
1
10
32.6969689037949
20
15.9777009365373
30
0
41
1
10
32.6585117171743
20
15.9727770268574
30
0
41
1
10
32.637688797378
20
15.9719950744654
30
0
41
1
10
32.5957993659511
20
15.9742893503969
30
0
41
1
10
32.5745129210222
20
15.9777775121104
30
0
41
1
10
32.5486130661997
20
15.9851445425702
30
0
41
1
10
32.5423538951732
20
15.9871997627571
30
0
41
1
10
32.5134597077445
20
15.998026233193
30
0
41
1
10
32.4932084464638
20
16.0098451594576
30
0
41
1
10
32.4771525220628
20
16.0239086493845
30
0
0
SPLINE
5
39B
100
AcDbEntity
8
1
62
256
6
ByLayer
370
-1
48
1
60
0
100
AcDbSpline
70
4
71
3
72
10
73
6
40
0
40
0
40
0
40
0
40
0.66437535052163
40
0.66437535052163
40
1
40
1
40
1
40
1
41
1
10
25.7309792812888
20
17.9481038769039
30
0
41
1
10
25.6331152960624
20
17.8497275093395
30
0
41
1
10
25.5382580126182
20
17.7479701658345
30
0
41
1
10
25.4002866729551
20
17.590069323585
30
0
41
1
10
25.354775965612
20
17.5362481395919
30
0
41
1
10
25.3100953585876
20
17.4816409716287
30
0
0
SPLINE
5
39C
100
AcDbEntity
8
1
62
256
6
ByLayer
370
-1
48
1
60
0
100
AcDbSpline
70
4
71
3
72
12
73
8
40
0
40
0
40
0
40
0
40
0.475702259787908
40
0.475702259787908
40
0.987510459776033
40
0.987510459776033
40
1
40
1
40
1
40
1
41
1
10
27.2359768658914
20
8.25448822523292
30
0
41
1
10
27.2179110515273
20
8.29514807756564
30
0
41
1
10
27.1997379027562
20
8.34176186617793
30
0
41
1
10
27.1632538523385
20
8.44190513447057
30
0
41
1
10
27.1447241636687
20
8.49667634993065
30
0
41
1
10
27.1264443066294
20
8.55355197541761
30
0
41
1
10
27.1260104315677
20
8.55490466878476
30
0
41
1
10
27.1255763114702
20
8.55625781645935
30
0
0
SPLINE
5
39D
100
AcDbEntity
8
1
62
256
6
ByLayer
370
-1
48
1
60
0
100
AcDbSpline
70
4
71
3
72
12
73
8
40
0
40
0
40
0
40
0
40
0.0136540192120223
40
0.0136540192120223
40
0.52756390393854
40
0.52756390393854
40
1
40
1
40
1
40
1
41
1
10
27.1255763114702
20
8.55625781645935
30
0
41
1
10
27.1268812608094
20
8.55536116552695
30
0
41
1
10
27.1281860711599
20
8.55446477259876
30
0
41
1
10
27.1786904867511
20
8.5198215649516
30
0
41
1
10
27.2284160580155
20
8.48706027308766
30
0
41
1
10
27.3230248925539
20
8.42823591937719
30
0
41
1
10
27.3684761726635
20
8.40148295721887
30
0
41
1
10
27.4121029608216
20
8.37846596840507
30
0
0
SPLINE
5
39E
100
AcDbEntity
8
1
62
256
6
ByLayer
370
-1
48
1
60
0
100
AcDbSpline
70
4
71
3
72
10
73
6
40
0
40
0
40
0
40
0
40
0.678343265954017
40
0.678343265954017
40
1
40
1
40
1
40
1
41
1
10
27.4121029608216
20
8.37846596840507
30
0
41
1
10
27.4564387862526
20
8.35507489972736
30
0
41
1
10
27.5057290820317
20
8.33988901230835
30
0
41
1
10
27.5796245708
20
8.32437875166147
30
0
41
1
10
27.60384542169
20
8.32047992807924
30
0
41
1
10
27.6282632861152
20
8.31754272742009
30
0
0
SPLINE
5
39F
100
AcDbEntity
8
1
62
256
6
ByLayer
370
-1
48
1
60
0
100
AcDbSpline
70
4
71
3
72
12
73
8
40
0
40
0
40
0
40
0
40
0.472436096061463
40
0.472436096061463
40
0.986345980787979
40
0.986345980787979
40
1
40
1
40
1
40
1
41
1
10
25.1555888352602
20
17.2988366156447
30
0
41
1
10
25.1296507723168
20
17.2519271708475
30
0
41
1
10
25.1033145407835
20
17.2031152090781
30
0
41
1
10
25.04922654013
20
17.1017540567044
30
0
41
1
10
25.0212338720008
20
17.0486016159616
30
0
41
1
10
24.9931055398614
20
16.9947884936606
30
0
41
1
10
24.9923792321455
20
16.9933979707384
30
0
41
1
10
24.9916526778619
20
16.9920081310974
30
0
0
SPLINE
5
3A0
100
AcDbEntity
8
1
62
256
6
ByLayer
370
-1
48
1
60
0
100
AcDbSpline
70
4
71
3
72
10
73
6
40
0
40
0
40
0
40
0
40
0.308294658890187
40
0.308294658890187
40
1
40
1
40
1
40
1
41
1
10
27.4561187823429
20
8.14665193201903
30
0
41
1
10
27.430336813667
20
8.15081667608045
30
0
41
1
10
27.4051020858378
20
8.15693726541095
30
0
41
1
10
27.3268912436619
20
8.18342403137032
30
0
41
1
10
27.2762047992519
20
8.21258484856729
30
0
41
1
10
27.2359768658914
20
8.25448822523286
30
0
0
SPLINE
5
3A1
100
AcDbEntity
8
1
62
256
6
ByLayer
370
-1
48
1
60
0
100
AcDbSpline
70
4
71
3
72
12
73
8
40
0
40
0
40
0
40
0
40
0.625116859010358
40
0.625116859010358
40
0.853176044554913
40
0.853176044554913
40
1
40
1
40
1
40
1
41
1
10
35.975995139502
20
14.6463676194238
30
0
41
1
10
35.9764036026274
20
14.5715407961088
30
0
41
1
10
35.9766937909845
20
14.4904336017005
30
0
41
1
10
35.9765757672807
20
14.3755975475488
30
0
41
1
10
35.9764876079702
20
14.3437348679878
30
0
41
1
10
35.9762040245611
20
14.2931334756149
30
0
41
1
10
35.9760551799326
20
14.2734583741243
30
0
41
1
10
35.9758660939502
20
14.2552592508699
30
0
0
SPLINE
5
3A2
100
AcDbEntity
8
SK1
62
256
6
ByLayer
370
-1
48
1
60
0
100
AcDbSpline
70
4
71
3
72
8
73
4
40
0
40
0
40
0
40
0
40
1
40
1
40
1
40
1
41
1
10
-0.324519052838326
20
11.9878176024207
30
0
41
1
10
-0.324519052838298
20
11.9575223782507
30
0
41
1
10
-0.322084347298443
20
11.9258547401202
30
0
41
1
10
-0.31814602856042
20
11.8935332692602
30
0
0
SPLINE
5
3A3
100
AcDbEntity
8
SK1
62
256
6
ByLayer
370
-1
48
1
60
0
100
AcDbSpline
70
4
71
3
72
8
73
4
40
0
40
0
40
0
40
0
40
1
40
1
40
1
40
1
41
1
10
0
20
5.98301024765146
30
0
41
1
10
-0.0843116200382497
20
5.86018989155255
30
0
41
1
10
-0.167536471258103
20
5.73636178632356
30
0
41
1
10
-0.249519052838338
20
5.61145683315186
30
0
0
SPLINE
5
3A4
100
AcDbEntity
8
1
62
256
6
ByLayer
370
-1
48
1
60
0
100
AcDbSpline
70
4
71
3
72
8
73
4
40
0
40
0
40
0
40
0
40
1
40
1
40
1
40
1
41
1
10
0
20
2.7697313269525
30
0
41
1
10
-0.167692085966053
20
0.931215315281534
30
0
41
1
10
-0.169152595808299
20
-0.915202808103956
30
0
41
1
10
0
20
-2.7697313269525
30
0
0
SPLINE
5
3A5
100
AcDbEntity
8
SK1
62
256
6
ByLayer
370
-1
48
1
60
0
100
AcDbSpline
70
4
71
3
72
10
73
6
40
0
40
0
40
0
40
0
40
0.552682639196674
40
0.552682639196674
40
1
40
1
40
1
40
1
41
1
10
-0.324519052838326
20
-9.59551923927148
30
0
41
1
10
-0.324519052838326
20
-9.65818243950838
30
0
41
1
10
-0.31298851795168
20
-9.72645273607178
30
0
41
1
10
-0.284745961794215
20
-9.84854031294877
30
0
41
1
10
-0.268671396765569
20
-9.90383041782292
30
0
41
1
10
-0.249519052838338
20
-9.95857998009566
30
0
0
SPLINE
5
3A6
100
AcDbEntity
8
SK1
62
256
6
ByLayer
370
-1
48
1
60
0
100
AcDbSpline
70
4
71
3
72
8
73
4
40
0
40
0
40
0
40
0
40
1
40
1
40
1
40
1
41
1
10
0
20
-19.2333411456125
30
0
41
1
10
-0.0832270823895556
20
-19.1544038788987
30
0
41
1
10
-0.166400755928578
20
-19.0753914664499
30
0
41
1
10
-0.249519052838338
20
-18.9963015174965
30
0
0
SPLINE
5
3A7
100
AcDbEntity
8
SK1
62
256
6
ByLayer
370
-1
48
1
60
0
100
AcDbSpline
70
4
71
3
72
8
73
4
40
0
40
0
40
0
40
0
40
1
40
1
40
1
40
1
41
1
10
-0.249519052838338
20
13.2407291626788
30
0
41
1
10
-0.166359434825864
20
13.3107416731093
30
0
41
1
10
-0.0831862082839905
20
13.380732636207
30
0
41
1
10
0
20
13.4507030159581
30
0
0
SPLINE
5
3A8
100
AcDbEntity
8
SK1
62
256
6
ByLayer
370
-1
48
1
60
0
100
AcDbSpline
70
4
71
3
72
16
73
12
40
0
40
0
40
0
40
0
40
0.222771344639826
40
0.222771344639826
40
0.450654338437164
40
0.450654338437164
40
0.648277798447987
40
0.648277798447987
40
0.82532120630811
40
0.82532120630811
40
1
40
1
40
1
40
1
41
1
10
-0.249519052838338
20
-15.7703059388672
30
0
41
1
10
-0.258372853288392
20
-15.7630751074216
30
0
41
1
10
-0.2673284002706
20
-15.756592918016
30
0
41
1
10
-0.284420209767831
20
-15.7465638730825
30
0
41
1
10
-0.292768565489297
20
-15.742995516769
30
0
41
1
10
-0.305806106248781
20
-15.7406563916084
30
0
41
1
10
-0.310991226949767
20
-15.7413031254805
30
0
41
1
10
-0.318281132649531
20
-15.7455489093593
30
0
41
1
10
-0.320756045158447
20
-15.748853780123
30
0
41
1
10
-0.323842932562314
20
-15.7571225376409
30
0
41
1
10
-0.324519052838326
20
-15.7621180518632
30
0
41
1
10
-0.324519052838326
20
-15.7676259921204
30
0
0
SPLINE
5
3A9
100
AcDbEntity
8
SK1
62
256
6
ByLayer
370
-1
48
1
60
0
100
AcDbSpline
70
4
71
3
72
8
73
4
40
0
40
0
40
0
40
0
40
1
40
1
40
1
40
1
41
1
10
-0.249519052838338
20
-17.6356568712878
30
0
41
1
10
-0.166612124255238
20
-17.7450598241335
30
0
41
1
10
-0.0834352757658792
20
-17.8541907726337
30
0
41
1
10
0
20
-17.9630568563235
30
0
0
SPLINE
5
3AA
100
AcDbEntity
8
SK1
62
256
6
ByLayer
370
-1
48
1
60
0
100
AcDbSpline
70
4
71
3
72
8
73
4
40
0
40
0
40
0
40
0
40
1
40
1
40
1
40
1
41
1
10
-0.249519052838338
20
18.8729418033523
30
0
41
1
10
-0.166470906512473
20
18.9639140498514
30
0
41
1
10
-0.0832962738564049
20
19.0547325687286
30
0
41
1
10
0
20
19.1454018402203
30
0
0
SPLINE
5
3AB
100
AcDbEntity
8
SK1
62
256
6
ByLayer
370
-1
48
1
60
0
100
AcDbSpline
70
4
71
3
72
14
73
10
40
0
40
0
40
0
40
0
40
0.339601837560697
40
0.339601837560697
40
0.593375305699849
40
0.593375305699849
40
0.809229904298043
40
0.809229904298043
40
1
40
1
40
1
40
1
41
1
10
-0.249519052838338
20
18.7993790062494
30
0
41
1
10
-0.26260151986736
20
18.7874028536337
30
0
41
1
10
-0.275380287377004
20
18.7761610329438
30
0
41
1
10
-0.29503729128038
20
18.7599909580239
30
0
41
1
10
-0.302756917796728
20
18.7540587951265
30
0
41
1
10
-0.314132639676984
20
18.7463972372463
30
0
41
1
10
-0.318322371631524
20
18.7441162535515
30
0
41
1
10
-0.323323307682159
20
18.7428229180693
30
0
41
1
10
-0.324519052838326
20
18.7434511633463
30
0
41
1
10
-0.324519052838326
20
18.7452280296618
30
0
0
SPLINE
5
3AC
100
AcDbEntity
8
SK1
62
256
6
ByLayer
370
-1
48
1
60
0
100
AcDbSpline
70
4
71
3
72
18
73
14
40
0
40
0
40
0
40
0
40
0.169247904249822
40
0.169247904249822
40
0.342555548337606
40
0.342555548337606
40
0.500577267541833
40
0.500577267541833
40
0.642414387875974
40
0.642414387875974
40
0.879948043499346
40
0.879948043499346
40
1
40
1
40
1
40
1
41
1
10
-0.249519052838338
20
-13.2407291626788
30
0
41
1
10
-0.256523342066231
20
-13.2348322155265
30
0
41
1
10
-0.263718898509694
20
-13.229564385463
30
0
41
1
10
-0.27790100621624
20
-13.2214327771424
30
0
41
1
10
-0.285061655336875
20
-13.2185685046563
30
0
41
1
10
-0.297217913654578
20
-13.2167282477592
30
0
41
1
10
-0.302495198082056
20
-13.2174295348524
30
0
41
1
10
-0.310628666182652
20
-13.2214452940038
30
0
41
1
10
-0.313787913507269
20
-13.2244988947863
30
0
41
1
10
-0.320334718871123
20
-13.234578634272
30
0
41
1
10
-0.322631157732815
20
-13.2429990984549
30
0
41
1
10
-0.324272134418209
20
-13.2568957746325
30
0
41
1
10
-0.324519052838326
20
-13.2618399062863
30
0
41
1
10
-0.324519052838326
20
-13.2669443220638
30
0
0
SPLINE
5
3AD
100
AcDbEntity
8
SK1
62
256
6
ByLayer
370
-1
48
1
60
0
100
AcDbSpline
70
4
71
3
72
10
73
6
40
0
40
0
40
0
40
0
40
0.513375337451243
40
0.513375337451243
40
1
40
1
40
1
40
1
41
1
10
-0.249519052838338
20
-6.93657952761937
30
0
41
1
10
-0.272315306293393
20
-6.84017687747019
30
0
41
1
10
-0.29023253751842
20
-6.74306482713487
30
0
41
1
10
-0.315788365312358
20
-6.55499292611641
30
0
41
1
10
-0.324519052838326
20
-6.46310244771587
30
0
41
1
10
-0.324519052838326
20
-6.37393899896699
30
0
0
SPLINE
5
3AE
100
AcDbEntity
8
SK1
62
256
6
ByLayer
370
-1
48
1
60
0
100
AcDbSpline
70
4
71
3
72
12
73
8
40
0
40
0
40
0
40
0
40
0.547982201163934
40
0.547982201163934
40
0.845853588693653
40
0.845853588693653
40
1
40
1
40
1
40
1
41
1
10
-0.249519052838338
20
-16.9398705309347
30
0
41
1
10
-0.271270568203306
20
-16.908876543003
30
0
41
1
10
-0.290644176716427
20
-16.877498070952
30
0
41
1
10
-0.312225003099854
20
-16.833464238582
30
0
41
1
10
-0.31836395283284
20
-16.818445143655
30
0
41
1
10
-0.323501261087358
20
-16.7987427364084
30
0
41
1
10
-0.324519052838326
20
-16.7924907253144
30
0
41
1
10
-0.324519052838326
20
-16.787151188174
30
0
0
SPLINE
5
3AF
100
AcDbEntity
8
SK1
62
256
6
ByLayer
370
-1
48
1
60
0
100
AcDbSpline
70
4
71
3
72
10
73
6
40
0
40
0
40
0
40
0
40
0.768045832176213
40
0.768045832176213
40
1
40
1
40
1
40
1
41
1
10
-0.249519052838338
20
9.95857998009566
30
0
41
1
10
-0.282220574569095
20
9.86509826280752
30
0
41
1
10
-0.30695605067865
20
9.76924729934063
30
0
41
1
10
-0.322219142887974
20
9.64976843816068
30
0
41
1
10
-0.324519052838326
20
9.622064957834
30
0
41
1
10
-0.324519052838326
20
9.59551923927148
30
0
0
SPLINE
5
3B0
100
AcDbEntity
8
SK1
62
256
6
ByLayer
370
-1
48
1
60
0
100
AcDbSpline
70
4
71
3
72
12
73
8
40
0
40
0
40
0
40
0
40
0.264463236759315
40
0.264463236759315
40
0.622665857900503
40
0.622665857900503
40
1
40
1
40
1
40
1
41
1
10
-0.324519052838326
20
-17.5001524600012
30
0
41
1
10
-0.324519052838326
20
-17.5072972255263
30
0
41
1
10
-0.321624964649345
20
-17.5171453539007
30
0
41
1
10
-0.310764903028144
20
-17.5427734757379
30
0
41
1
10
-0.301233631961224
20
-17.5598977037521
30
0
41
1
10
-0.278327850859085
20
-17.5962059994125
30
0
41
1
10
-0.26448519955693
20
-17.6159077300313
30
0
41
1
10
-0.249519052838338
20
-17.6356568712878
30
0
0
SPLINE
5
3B1
100
AcDbEntity
8
SK1
62
256
6
ByLayer
370
-1
48
1
60
0
100
AcDbSpline
70
4
71
3
72
8
73
4
40
0
40
0
40
0
40
0
40
1
40
1
40
1
40
1
41
1
10
0
20
19.0275172217373
30
0
41
1
10
-0.0832119351491656
20
18.9515279375099
30
0
41
1
10
-0.166385417532922
20
18.875482473715
30
0
41
1
10
-0.249519052838338
20
18.7993790062494
30
0
0
SPLINE
5
3B2
100
AcDbEntity
8
SK1
62
256
6
ByLayer
370
-1
48
1
60
0
100
AcDbSpline
70
4
71
3
72
8
73
4
40
0
40
0
40
0
40
0
40
1
40
1
40
1
40
1
41
1
10
-0.249519052838338
20
15.0114907404588
30
0
41
1
10
-0.166964923531196
20
15.1537593946222
30
0
41
1
10
-0.0837817374583381
20
15.2955438255014
30
0
41
1
10
0
20
15.4368523871774
30
0
0
SPLINE
5
3B3
100
AcDbEntity
8
SK1
62
256
6
ByLayer
370
-1
48
1
60
0
100
AcDbSpline
70
4
71
3
72
16
73
12
40
0
40
0
40
0
40
0
40
0.211149623058203
40
0.211149623058203
40
0.42594831560744
40
0.42594831560744
40
0.621562080863177
40
0.621562080863177
40
0.814615131718166
40
0.814615131718166
40
1
40
1
40
1
40
1
41
1
10
-0.324519052838326
20
-16.6784633080723
30
0
41
1
10
-0.324519052838326
20
-16.6728280398634
30
0
41
1
10
-0.323426708403986
20
-16.6680648537593
30
0
41
1
10
-0.318521005972968
20
-16.6614849911426
30
0
41
1
10
-0.31455880361878
20
-16.6596729133821
30
0
41
1
10
-0.304563128691598
20
-16.6598066765478
30
0
41
1
10
-0.298625746186531
20
-16.6614306467995
30
0
41
1
10
-0.285664426601556
20
-16.6672033698362
30
0
41
1
10
-0.278524478665617
20
-16.6713577152732
30
0
41
1
10
-0.264156666422281
20
-16.6810793119385
30
0
41
1
10
-0.25683859486665
20
-16.6866468865912
30
0
41
1
10
-0.249519052838338
20
-16.6926741335383
30
0
0
SPLINE
5
3B4
100
AcDbEntity
8
SK1
62
256
6
ByLayer
370
-1
48
1
60
0
100
AcDbSpline
70
4
71
3
72
8
73
4
40
0
40
0
40
0
40
0
40
1
40
1
40
1
40
1
41
1
10
-0.249519052838338
20
-19.0736019583787
30
0
41
1
10
-0.166419466436651
20
-19.1561267310563
30
0
41
1
10
-0.0832455498896536
20
-19.2385518046065
30
0
41
1
10
0
20
-19.3208801979494
30
0
0
SPLINE
5
3B5
100
AcDbEntity
8
SK1
62
256
6
ByLayer
370
-1
48
1
60
0
100
AcDbSpline
70
4
71
3
72
8
73
4
40
0
40
0
40
0
40
0
40
1
40
1
40
1
40
1
41
1
10
0
20
14.8423856446161
30
0
41
1
10
-0.0831749697857163
20
14.774131436091
30
0
41
1
10
-0.166348014707381
20
14.7058740999149
30
0
41
1
10
-0.249519052838338
20
14.637613503657
30
0
0
SPLINE
5
3B6
100
AcDbEntity
8
SK1
62
256
6
ByLayer
370
-1
48
1
60
0
100
AcDbSpline
70
4
71
3
72
14
73
10
40
0
40
0
40
0
40
0
40
0.407876602330535
40
0.407876602330535
40
0.691435932390086
40
0.691435932390086
40
0.915731781658023
40
0.915731781658023
40
1
40
1
40
1
40
1
41
1
10
-0.249519052838338
20
-18.8729418033523
30
0
41
1
10
-0.265341404734016
20
-18.8556097500731
30
0
41
1
10
-0.280286621582661
20
-18.838661302219
30
0
41
1
10
-0.301439688224548
20
-18.8132351704067
30
0
41
1
10
-0.309086006481437
20
-18.8035417311858
30
0
41
1
10
-0.319109111519055
20
-18.7894239104497
30
0
41
1
10
-0.322320713382538
20
-18.7842104298646
30
0
41
1
10
-0.324244100885295
20
-18.779425111899
30
0
41
1
10
-0.324519052838326
20
-18.7783468613494
30
0
41
1
10
-0.324519052838326
20
-18.7775400265667
30
0
0
SPLINE
5
3B7
100
AcDbEntity
8
SK1
62
256
6
ByLayer
370
-1
48
1
60
0
100
AcDbSpline
70
4
71
3
72
8
73
4
40
0
40
0
40
0
40
0
40
1
40
1
40
1
40
1
41
1
10
-0.249519052838338
20
12.0718886217914
30
0
41
1
10
-0.167648592736953
20
12.2590823591226
30
0
41
1
10
-0.0844518749535723
20
12.4455098841085
30
0
41
1
10
0
20
12.6311682604383
30
0
0
SPLINE
5
3B8
100
AcDbEntity
8
SK1
62
256
6
ByLayer
370
-1
48
1
60
0
100
AcDbSpline
70
4
71
3
72
16
73
12
40
0
40
0
40
0
40
0
40
0.271287166541257
40
0.271287166541257
40
0.495849247911302
40
0.495849247911302
40
0.722496354028585
40
0.722496354028585
40
0.920757420964226
40
0.920757420964226
40
1
40
1
40
1
40
1
41
1
10
-0.249519052838338
20
-17.4381246139465
30
0
41
1
10
-0.260087617632081
20
-17.4292691316671
30
0
41
1
10
-0.270631215497218
20
-17.4212069762917
30
0
41
1
10
-0.28835648275745
20
-17.4096304521675
30
0
41
1
10
-0.295965814726003
20
-17.4054879654697
30
0
41
1
10
-0.308812233682033
20
-17.4006852458105
30
0
41
1
10
-0.314185683458874
20
-17.4000256496255
30
0
41
1
10
-0.321100950955923
20
-17.4023296699407
30
0
41
1
10
-0.32313629646319
20
-17.4048592634196
30
0
41
1
10
-0.324351578837138
20
-17.4099176102427
30
0
41
1
10
-0.324519052838326
20
-17.4115519336131
30
0
41
1
10
-0.324519052838326
20
-17.4133353269855
30
0
0
SPLINE
5
3B9
100
AcDbEntity
8
SK1
62
256
6
ByLayer
370
-1
48
1
60
0
100
AcDbSpline
70
4
71
3
72
16
73
12
40
0
40
0
40
0
40
0
40
0.209479155782296
40
0.209479155782296
40
0.421847879524335
40
0.421847879524335
40
0.620161699554187
40
0.620161699554187
40
0.880473932719267
40
0.880473932719267
40
1
40
1
40
1
40
1
41
1
10
-0.324519052838326
20
17.4133353269855
30
0
41
1
10
-0.324519052838326
20
17.4086730762758
30
0
41
1
10
-0.323341381830914
20
17.4050131309646
30
0
41
1
10
-0.31824939650744
20
17.4007174301237
30
0
41
1
10
-0.314206727296238
20
17.4000963464948
30
0
41
1
10
-0.304142388946502
20
17.4021153047519
30
0
41
1
10
-0.298160226702635
20
17.4045527194701
30
0
41
1
10
-0.283076283088803
20
17.4127143000575
30
0
41
1
10
-0.273370059462707
20
17.4193113747992
30
0
41
1
10
-0.258886607687714
20
17.4304261009954
30
0
41
1
10
-0.254215317784571
20
17.4341895771821
30
0
41
1
10
-0.249519052838338
20
17.4381246139465
30
0
0
SPLINE
5
3BA
100
AcDbEntity
8
SK1
62
256
6
ByLayer
370
-1
48
1
60
0
100
AcDbSpline
70
4
71
3
72
18
73
14
40
0
40
0
40
0
40
0
40
0.25766559186793
40
0.25766559186793
40
0.442636803225034
40
0.442636803225034
40
0.590466321133836
40
0.590466321133836
40
0.738820296478184
40
0.738820296478184
40
0.88163858359393
40
0.88163858359393
40
1
40
1
40
1
40
1
41
1
10
-0.324519052838326
20
13.2669443220638
30
0
41
1
10
-0.324519052838326
20
13.2560769005284
30
0
41
1
10
-0.323411955597265
20
13.2458223023132
30
0
41
1
10
-0.318453698673636
20
13.2312497625183
30
0
41
1
10
-0.315391962062449
20
13.2259872468159
30
0
41
1
10
-0.307740395707668
20
13.2195459723056
30
0
41
1
10
-0.303482884406861
20
13.2177332297189
30
0
41
1
10
-0.293680306675697
20
13.2169063642198
30
0
41
1
10
-0.28800734034823
20
13.2179014108895
30
0
41
1
10
-0.276412927178654
20
13.2222281571865
30
0
41
1
10
-0.27038952240639
20
13.2254905906541
30
0
41
1
10
-0.259443145393305
20
13.2327617174657
30
0
41
1
10
-0.254442441863119
20
13.2365841361179
30
0
41
1
10
-0.249519052838338
20
13.2407291626788
30
0
0
SPLINE
5
3BB
100
AcDbEntity
8
SK1
62
256
6
ByLayer
370
-1
48
1
60
0
100
AcDbSpline
70
4
71
3
72
14
73
10
40
0
40
0
40
0
40
0
40
0.362203630042166
40
0.362203630042166
40
0.623194640203971
40
0.623194640203971
40
0.842318788675735
40
0.842318788675735
40
1
40
1
40
1
40
1
41
1
10
-0.249519052838338
20
-18.9963015174965
30
0
41
1
10
-0.263462353376582
20
-18.983033982323
30
0
41
1
10
-0.276976984035883
20
-18.9704469491028
30
0
41
1
10
-0.297119030409903
20
-18.9523406520921
30
0
41
1
10
-0.304781405826446
20
-18.9456860752016
30
0
41
1
10
-0.315773498902729
20
-18.9367473854937
30
0
41
1
10
-0.319691897097101
20
-18.9338657283653
30
0
41
1
10
-0.323662536225584
20
-18.9317185216818
30
0
41
1
10
-0.324519052838326
20
-18.9316511709397
30
0
41
1
10
-0.324519052838326
20
-18.9324241124939
30
0
0
SPLINE
5
3BC
100
AcDbEntity
8
SK1
62
256
6
ByLayer
370
-1
48
1
60
0
100
AcDbSpline
70
4
71
3
72
8
73
4
40
0
40
0
40
0
40
0
40
1
40
1
40
1
40
1
41
1
10
-0.249519052838338
20
-9.95857998009566
30
0
41
1
10
-0.168538126347244
20
-10.1900748976197
30
0
41
1
10
-0.0853229403857085
20
-10.4205429189484
30
0
41
1
10
0
20
-10.6499489023893
30
0
0
SPLINE
5
3BD
100
AcDbEntity
8
SK1
62
256
6
ByLayer
370
-1
48
1
60
0
100
AcDbSpline
70
4
71
3
72
10
73
6
40
0
40
0
40
0
40
0
40
0.769673970735105
40
0.769673970735105
40
1
40
1
40
1
40
1
41
1
10
-0.249519052838338
20
-12.0718886217914
30
0
41
1
10
-0.281564031317714
20
-11.9986189800081
30
0
41
1
10
-0.306800677815431
20
-11.9228168658542
30
0
41
1
10
-0.322210829766476
20
-11.8312878095864
30
0
41
1
10
-0.324519052838326
20
-11.8102779902036
30
0
41
1
10
-0.324519052838326
20
-11.7907116231339
30
0
0
SPLINE
5
3BE
100
AcDbEntity
8
SK1
62
256
6
ByLayer
370
-1
48
1
60
0
100
AcDbSpline
70
4
71
3
72
10
73
6
40
0
40
0
40
0
40
0
40
0.662657911971726
40
0.662657911971726
40
1
40
1
40
1
40
1
41
1
10
-0.249519052838338
20
13.7035643018125
30
0
41
1
10
-0.276732417370795
20
13.6504705483264
30
0
41
1
10
-0.299206461546106
20
13.5959134000062
30
0
41
1
10
-0.319738815083696
20
13.5190351780072
30
0
41
1
10
-0.324519052838326
20
13.4933149479983
30
0
41
1
10
-0.324519052838326
20
13.4709974273838
30
0
0
SPLINE
5
3BF
100
AcDbEntity
8
SK1
62
256
6
ByLayer
370
-1
48
1
60
0
100
AcDbSpline
70
4
71
3
72
8
73
4
40
0
40
0
40
0
40
0
40
1
40
1
40
1
40
1
41
1
10
0
20
-13.4507030159581
30
0
41
1
10
-0.0831862082840189
20
-13.380732636207
30
0
41
1
10
-0.166359434825864
20
-13.3107416731093
30
0
41
1
10
-0.249519052838338
20
-13.2407291626788
30
0
0
SPLINE
5
3C0
100
AcDbEntity
8
SK1
62
256
6
ByLayer
370
-1
48
1
60
0
100
AcDbSpline
70
4
71
3
72
16
73
12
40
0
40
0
40
0
40
0
40
0.210224895571941
40
0.210224895571941
40
0.422611356221281
40
0.422611356221281
40
0.625869325623
40
0.625869325623
40
0.913852544759781
40
0.913852544759781
40
1
40
1
40
1
40
1
41
1
10
-0.324519052838326
20
-17.9938143844313
30
0
41
1
10
-0.324519052838326
20
-17.9900475966146
30
0
41
1
10
-0.323236918855798
20
-17.9874282966573
30
0
41
1
10
-0.317891789879042
20
-17.9852817286343
30
0
41
1
10
-0.313719154277408
20
-17.9857737563884
30
0
41
1
10
-0.303426245198977
20
-17.9896516272587
30
0
41
1
10
-0.297292975915326
20
-17.9929378899092
30
0
41
1
10
-0.281207039541584
20
-18.003180592669
30
0
41
1
10
-0.270488816608804
20
-18.0112186764518
30
0
41
1
10
-0.256237488845812
20
-18.0229090274813
30
0
41
1
10
-0.252888711364932
20
-18.0257235784045
30
0
41
1
10
-0.249519052838338
20
-18.0286164298471
30
0
0
SPLINE
5
3C1
100
AcDbEntity
8
SK1
62
256
6
ByLayer
370
-1
48
1
60
0
100
AcDbSpline
70
4
71
3
72
14
73
10
40
0
40
0
40
0
40
0
40
0.420767572538387
40
0.420767572538387
40
0.689032461479675
40
0.689032461479675
40
0.910590925525609
40
0.910590925525609
40
1
40
1
40
1
40
1
41
1
10
-0.249519052838338
20
19.0327379005148
30
0
41
1
10
-0.26575349800612
20
19.0158424389948
30
0
41
1
10
-0.281208146423893
20
18.999478290443
30
0
41
1
10
-0.302114376358674
20
18.9766269871991
30
0
41
1
10
-0.309318125509236
20
18.9685312786031
30
0
41
1
10
-0.319033328950354
20
18.9569877045766
30
0
41
1
10
-0.322214231576424
20
18.9528843741229
30
0
41
1
10
-0.324219940534505
20
18.9495287305081
30
0
41
1
10
-0.324519052838326
20
18.9488295545045
30
0
41
1
10
-0.324519052838326
20
18.9484273901026
30
0
0
SPLINE
5
3C2
100
AcDbEntity
8
SK1
62
256
6
ByLayer
370
-1
48
1
60
0
100
AcDbSpline
70
4
71
3
72
16
73
12
40
0
40
0
40
0
40
0
40
0.247558680792328
40
0.247558680792328
40
0.459132017404154
40
0.459132017404154
40
0.6724863834057
40
0.6724863834057
40
0.861284656994213
40
0.861284656994213
40
1
40
1
40
1
40
1
41
1
10
-0.249519052838338
20
16.6926741335383
30
0
41
1
10
-0.259240911168234
20
16.6846687090579
30
0
41
1
10
-0.269006136766222
20
16.6774429614849
30
0
41
1
10
-0.285896697970458
20
16.6670573149427
30
0
41
1
10
-0.293356741332559
20
16.6633865594013
30
0
41
1
10
-0.30617165679584
20
16.6594665199252
30
0
41
1
10
-0.311667032141656
20
16.6592244557159
30
0
41
1
10
-0.319182939636676
20
16.6621116375743
30
0
41
1
10
-0.321636225919747
20
16.6648679976982
30
0
41
1
10
-0.324047988810065
20
16.6713930700812
30
0
41
1
10
-0.324519052838326
20
16.6747331071713
30
0
41
1
10
-0.324519052838326
20
16.6784633080723
30
0
0
SPLINE
5
3C3
100
AcDbEntity
8
SK1
62
256
6
ByLayer
370
-1
48
1
60
0
100
AcDbSpline
70
4
71
3
72
18
73
14
40
0
40
0
40
0
40
0
40
0.140124930238981
40
0.140124930238981
40
0.283917050894812
40
0.283917050894812
40
0.416086444514683
40
0.416086444514683
40
0.53217769638527
40
0.53217769638527
40
0.732824601273379
40
0.732824601273379
40
1
40
1
40
1
40
1
41
1
10
-0.249519052838338
20
11.483644388276
30
0
41
1
10
-0.255526209508417
20
11.4782661255606
30
0
41
1
10
-0.261757909792522
20
11.4734263222854
30
0
41
1
10
-0.274293036239527
20
11.465845043188
30
0
41
1
10
-0.280758574931212
20
11.4631062870923
30
0
41
1
10
-0.292096801883048
20
11.4612021725887
30
0
41
1
10
-0.297193487605028
20
11.4617681095187
30
0
41
1
10
-0.305233753672383
20
11.4653392215912
30
0
41
1
10
-0.308470473353708
20
11.4680478274888
30
0
41
1
10
-0.315720510016405
20
11.4771715978621
30
0
41
1
10
-0.318786933413037
20
11.4849346022656
30
0
41
1
10
-0.323531211386523
20
11.5046951200955
30
0
41
1
10
-0.324519052838326
20
11.5175083314951
30
0
41
1
10
-0.324519052838326
20
11.5307719929506
30
0
0
SPLINE
5
3C4
100
AcDbEntity
8
SK1
62
256
6
ByLayer
370
-1
48
1
60
0
100
AcDbSpline
70
4
71
3
72
8
73
4
40
0
40
0
40
0
40
0
40
1
40
1
40
1
40
1
41
1
10
0
20
-18.6995029779807
30
0
41
1
10
-0.0831995072585414
20
-18.6260454864902
30
0
41
1
10
-0.166372838435052
20
-18.5525484468556
30
0
41
1
10
-0.249519052838338
20
-18.4790105443333
30
0
0
SPLINE
5
3C5
100
AcDbEntity
8
SK1
62
256
6
ByLayer
370
-1
48
1
60
0
100
AcDbSpline
70
4
71
3
72
14
73
10
40
0
40
0
40
0
40
0
40
0.237410249611162
40
0.237410249611162
40
0.472928506373312
40
0.472928506373312
40
0.843868254150533
40
0.843868254150533
40
1
40
1
40
1
40
1
41
1
10
-0.324519052838326
20
18.7775400265667
30
0
41
1
10
-0.324519052838326
20
18.7797786852478
30
0
41
1
10
-0.32233454525948
20
18.7841867362847
30
0
41
1
10
-0.314826585930604
20
18.7957146895275
30
0
41
1
10
-0.309465003063025
20
18.8029340035142
30
0
41
1
10
-0.293265720328463
20
18.8233657535545
30
0
41
1
10
-0.280807865435577
20
18.8379745799745
30
0
41
1
10
-0.261601752026053
20
18.8596200369761
30
0
41
1
10
-0.255639597729328
20
18.8662372621534
30
0
41
1
10
-0.249519052838338
20
18.8729418033523
30
0
0
SPLINE
5
3C6
100
AcDbEntity
8
SK1
62
256
6
ByLayer
370
-1
48
1
60
0
100
AcDbSpline
70
4
71
3
72
8
73
4
40
0
40
0
40
0
40
0
40
1
40
1
40
1
40
1
41
1
10
-0.249519052838338
20
-19.0327379005148
30
0
41
1
10
-0.166442432040981
20
-19.1191971441407
30
0
41
1
10
-0.0832682037895154
20
-19.2055314891718
30
0
41
1
10
0
20
-19.2917446495518
30
0
0
SPLINE
5
3C7
100
AcDbEntity
8
SK1
62
256
6
ByLayer
370
-1
48
1
60
0
100
AcDbSpline
70
4
71
3
72
12
73
8
40
0
40
0
40
0
40
0
40
0.327025023567502
40
0.327025023567502
40
0.787085296139235
40
0.787085296139235
40
1
40
1
40
1
40
1
41
1
10
-0.324519052838326
20
-15.9016211093692
30
0
41
1
10
-0.324519052838326
20
-15.9155577312448
30
0
41
1
10
-0.320056187790954
20
-15.9332695578562
30
0
41
1
10
-0.304106585504684
20
-15.9776569215538
30
0
41
1
10
-0.290155590930652
20
-16.0061652935337
30
0
41
1
10
-0.266325543110156
20
-16.0480025991564
30
0
41
1
10
-0.258156326111163
20
-16.061453369784
30
0
41
1
10
-0.249519052838338
20
-16.0748883021891
30
0
0
SPLINE
5
3C8
100
AcDbEntity
8
SK1
62
256
6
ByLayer
370
-1
48
1
60
0
100
AcDbSpline
70
4
71
3
72
8
73
4
40
0
40
0
40
0
40
0
40
1
40
1
40
1
40
1
41
1
10
-0.249519052838338
20
-18.0286164298471
30
0
41
1
10
-0.166362626497147
20
-18.1000062119281
30
0
41
1
10
-0.0831894147874266
20
-18.1713699316054
30
0
41
1
10
0
20
-18.2427084508718
30
0
0
SPLINE
5
3C9
100
AcDbEntity
8
SK1
62
256
6
ByLayer
370
-1
48
1
60
0
100
AcDbSpline
70
4
71
3
72
16
73
12
40
0
40
0
40
0
40
0
40
0.216525341083707
40
0.216525341083707
40
0.437598882768676
40
0.437598882768676
40
0.632197208818113
40
0.632197208818113
40
0.809603864970845
40
0.809603864970845
40
1
40
1
40
1
40
1
41
1
10
-0.324519052838326
20
15.7676259921204
30
0
41
1
10
-0.324519052838326
20
15.7608343707043
30
0
41
1
10
-0.323483716408788
20
15.7548038014129
30
0
41
1
10
-0.318639718248534
20
15.7456414697231
30
0
41
1
10
-0.314655274291312
20
15.7424942643018
30
0
41
1
10
-0.304458771015504
20
15.7406986315941
30
0
41
1
10
-0.298427824021189
20
15.7415508978682
30
0
41
1
10
-0.285708667223162
20
15.7460934281866
30
0
41
1
10
-0.278994071361069
20
15.7495500558628
30
0
41
1
10
-0.264772620289221
20
15.7584578599996
30
0
41
1
10
-0.257117310111909
20
15.7641004999785
30
0
41
1
10
-0.249519052838338
20
15.7703059388672
30
0
0
SPLINE
5
3CA
100
AcDbEntity
8
SK1
62
256
6
ByLayer
370
-1
48
1
60
0
100
AcDbSpline
70
4
71
3
72
14
73
10
40
0
40
0
40
0
40
0
40
0.219964312915531
40
0.219964312915531
40
0.439935265063836
40
0.439935265063836
40
0.730440072114299
40
0.730440072114299
40
1
40
1
40
1
40
1
41
1
10
-0.324519052838326
20
18.932424112494
30
0
41
1
10
-0.324519052838326
20
18.9313546580718
30
0
41
1
10
-0.322843598611456
20
18.9319253303128
30
0
41
1
10
-0.31653964590447
20
18.9361536330603
30
0
41
1
10
-0.311849867729734
20
18.9398451886151
30
0
41
1
10
-0.298757700405332
20
18.9508691130917
30
0
41
1
10
-0.289472419167168
20
18.959126379535
30
0
41
1
10
-0.27011474460852
20
18.9768556719407
30
0
41
1
10
-0.25995972345072
20
18.9863668564595
30
0
41
1
10
-0.249519052838338
20
18.9963015174965
30
0
0
SPLINE
5
3CB
100
AcDbEntity
8
SK1
62
256
6
ByLayer
370
-1
48
1
60
0
100
AcDbSpline
70
4
71
3
72
8
73
4
40
0
40
0
40
0
40
0
40
1
40
1
40
1
40
1
41
1
10
0
20
-7.92441869309681
30
0
41
1
10
-0.0880009987361632
20
-7.59681644140632
30
0
41
1
10
-0.171274600487806
20
-7.2674660296901
30
0
41
1
10
-0.249519052838366
20
-6.93657952761939
30
0
0
SPLINE
5
3CC
100
AcDbEntity
8
SK1
62
256
6
ByLayer
370
-1
48
1
60
0
100
AcDbSpline
70
4
71
3
72
18
73
14
40
0
40
0
40
0
40
0
40
0.32083029364833
40
0.32083029364833
40
0.476811069138415
40
0.476811069138415
40
0.609697449132548
40
0.609697449132548
40
0.744015930930369
40
0.744015930930369
40
0.859671294155377
40
0.859671294155377
40
1
40
1
40
1
40
1
41
1
10
-0.324519052838326
20
-11.5307719929506
30
0
41
1
10
-0.324519052838326
20
-11.5149110219309
30
0
41
1
10
-0.323132417764185
20
-11.4995838321521
30
0
41
1
10
-0.316964200684765
20
-11.4806760840516
30
0
41
1
10
-0.314220739890175
20
-11.4750394838329
30
0
41
1
10
-0.307408577791023
20
-11.4669600705495
30
0
41
1
10
-0.30350734729106
20
-11.464123894537
30
0
41
1
10
-0.294336844123023
20
-11.4613051848512
30
0
41
1
10
-0.288908281993827
20
-11.4613547971215
30
0
41
1
10
-0.278332460249459
20
-11.4641633284412
30
0
41
1
10
-0.273138707681426
20
-11.4665477933462
30
0
41
1
10
-0.261790314299759
20
-11.4734011769204
30
0
41
1
10
-0.255541685027822
20
-11.4782522701855
30
0
41
1
10
-0.249519052838338
20
-11.483644388276
30
0
0
LINE
5
47
100
AcDbEntity
8
SK1
62
256
6
ByLayer
370
-1
48
1
60
0
100
AcDbLine
10
0
20
19.324519
30
0
11
-0.324519
21
19
31
0
39
0
210
0
220
0
230
1
0
LINE
5
49
100
AcDbEntity
8
1
62
256
6
ByLayer
370
-1
48
1
60
0
100
AcDbLine
10
23.513168
20
11.816576
30
0
11
23.51404
21
11.813935
31
0
39
0
210
0
220
0
230
1
0
LINE
5
4B
100
AcDbEntity
8
1
62
256
6
ByLayer
370
-1
48
1
60
0
100
AcDbLine
10
32.221566
20
11.004847
30
0
11
32.222909
21
11.007282
31
0
39
0
210
0
220
0
230
1
0
LINE
5
4C
100
AcDbEntity
8
SK1
62
256
6
ByLayer
370
-1
48
1
60
0
100
AcDbLine
10
-0.324519
20
-19
30
0
11
0
21
-19.324519
31
0
39
0
210
0
220
0
230
1
0
LINE
5
4D
100
AcDbEntity
8
1
62
256
6
ByLayer
370
-1
48
1
60
0
100
AcDbLine
10
33.277451
20
0.960444
30
0
11
33.308626
21
1.275363
31
0
39
0
210
0
220
0
230
1
0
LINE
5
4E
100
AcDbEntity
8
1
62
256
6
ByLayer
370
-1
48
1
60
0
100
AcDbLine
10
20.843503
20
19.294569
30
0
11
20.752018
21
18.37041
31
0
39
0
210
0
220
0
230
1
0
LINE
5
4F
100
AcDbEntity
8
1
62
256
6
ByLayer
370
-1
48
1
60
0
100
AcDbLine
10
0.675481
20
-20
30
0
11
9.982591
21
-20
31
0
39
0
210
0
220
0
230
1
0
LINE
5
50
100
AcDbEntity
8
1
62
256
6
ByLayer
370
-1
48
1
60
0
100
AcDbLine
10
10.111157
20
20
30
0
11
0.675481
21
20
31
0
39
0
210
0
220
0
230
1
0
LINE
5
51
100
AcDbEntity
8
1
62
256
6
ByLayer
370
-1
48
1
60
0
100
AcDbLine
10
0.675481
20
20
30
0
11
0
21
19.324519
31
0
39
0
210
0
220
0
230
1
0
LINE
5
52
100
AcDbEntity
8
1
62
256
6
ByLayer
370
-1
48
1
60
0
100
AcDbLine
10
0
20
-19.324519
30
0
11
0.675481
21
-20
31
0
39
0
210
0
220
0
230
1
0
LINE
5
53
100
AcDbEntity
8
1
62
256
6
ByLayer
370
-1
48
1
60
0
100
AcDbLine
10
10.995202
20
21.008335
30
0
11
10.883898
21
20.592945
31
0
39
0
210
0
220
0
230
1
0
LINE
5
54
100
AcDbEntity
8
1
62
256
6
ByLayer
370
-1
48
1
60
0
100
AcDbLine
10
27.499123
20
11.137451
30
0
11
27.531796
21
11.489081
31
0
39
0
210
0
220
0
230
1
0
LINE
5
55
100
AcDbEntity
8
1
62
256
6
ByLayer
370
-1
48
1
60
0
100
AcDbLine
10
23.664407
20
13.72925
30
0
11
23.64979
21
13.571945
31
0
39
0
210
0
220
0
230
1
0
LINE
5
56
100
AcDbEntity
8
1
62
256
6
ByLayer
370
-1
48
1
60
0
100
AcDbLine
10
32.412046
20
12.757772
30
0
11
32.426662
21
12.915076
31
0
39
0
210
0
220
0
230
1
0
LINE
5
57
100
AcDbEntity
8
1
62
256
6
ByLayer
370
-1
48
1
60
0
100
AcDbLine
10
26.287954
20
12.950667
30
0
11
26.318211
21
13.276292
31
0
39
0
210
0
220
0
230
1
0
LINE
5
58
100
AcDbEntity
8
1
62
256
6
ByLayer
370
-1
48
1
60
0
100
AcDbLine
10
29.780689
20
13.452314
30
0
11
29.750489
21
13.127293
31
0
39
0
210
0
220
0
230
1
0
LINE
5
59
100
AcDbEntity
8
1
62
256
6
ByLayer
370
-1
48
1
60
0
100
AcDbLine
10
27.499012
20
14.910379
30
0
11
27.531394
21
15.258876
31
0
39
0
210
0
220
0
230
1
0
LINE
5
5A
100
AcDbEntity
8
1
62
256
6
ByLayer
370
-1
48
1
60
0
100
AcDbLine
10
28.571992
20
15.292139
30
0
11
28.539319
21
14.940509
31
0
39
0
210
0
220
0
230
1
0
LINE
5
5B
100
AcDbEntity
8
4
62
256
6
ByLayer
370
-1
48
0.05
60
0
100
AcDbLine
10
0
20
0
30
0
11
36
21
0
31
0
39
0
210
0
220
0
230
1
0
LINE
5
5D
100
AcDbEntity
8
SK4
62
256
6
ByLayer
370
-1
48
0.05
60
0
100
AcDbLine
10
-5
20
0
30
0
11
41
21
0
31
0
39
0
210
0
220
0
230
1
0
LINE
5
5F
100
AcDbEntity
8
80
62
256
6
ByLayer
370
-1
48
1
60
0
100
AcDbLine
10
0
20
0
30
0
11
-5
21
0
31
0
39
0
210
0
220
0
230
1
0
LINE
5
60
100
AcDbEntity
8
81
62
256
6
ByLayer
370
-1
48
1
60
0
100
AcDbLine
10
36
20
26.875
30
0
11
41
21
26.875
31
0
39
0
210
0
220
0
230
1
0
LINE
5
61
100
AcDbEntity
8
1
62
256
6
ByLayer
370
-1
48
1
60
0
100
AcDbLine
10
10.030524
20
-17.656987
30
0
11
10.030064
21
-15.060186
31
0
39
0
210
0
220
0
230
1
0
LINE
5
62
100
AcDbEntity
8
1
62
256
6
ByLayer
370
-1
48
1
60
0
100
AcDbLine
10
20.515221
20
-4.348623
30
0
11
31.515221
21
-4.348623
31
0
39
0
210
0
220
0
230
1
0
LINE
5
63
100
AcDbEntity
8
1
62
256
6
ByLayer
370
-1
48
1
60
0
100
AcDbLine
10
0.394519
20
19.606601
30
0
11
0.394519
21
19.572716
31
0
39
0
210
0
220
0
230
1
0
LINE
5
64
100
AcDbEntity
8
1
62
256
6
ByLayer
370
-1
48
1
60
0
100
AcDbLine
10
9.982591
20
-20
30
0
11
10.111157
21
-18.530484
31
0
39
0
210
0
220
0
230
1
0
LINE
5
65
100
AcDbEntity
8
1
62
256
6
ByLayer
370
-1
48
1
60
0
100
AcDbLine
10
20.672272
20
21.204079
30
0
11
20.672272
21
18.694295
31
0
39
0
210
0
220
0
230
1
0
LINE
5
66
100
AcDbEntity
8
1
62
256
6
ByLayer
370
-1
48
1
60
0
100
AcDbLine
10
0
20
-19.291745
30
0
11
0
21
-19.233341
31
0
39
0
210
0
220
0
230
1
0
LINE
5
67
100
AcDbEntity
8
1
62
256
6
ByLayer
370
-1
48
1
60
0
100
AcDbLine
10
0
20
11.706682
30
0
11
0
21
10.649788
31
0
39
0
210
0
220
0
230
1
0
LINE
5
68
100
AcDbEntity
8
1
62
256
6
ByLayer
370
-1
48
1
60
0
100
AcDbLine
10
0
20
-10.649788
30
0
11
0
21
-11.706682
31
0
39
0
210
0
220
0
230
1
0
LINE
5
69
100
AcDbEntity
8
1
62
256
6
ByLayer
370
-1
48
1
60
0
100
AcDbLine
10
13.13906
20
13.613016
30
0
11
16.78582
21
15.655064
31
0
39
0
210
0
220
0
230
1
0
LINE
5
6A
100
AcDbEntity
8
1
62
256
6
ByLayer
370
-1
48
1
60
0
100
AcDbLine
10
17.08635
20
9.015361
30
0
11
17.930229
21
9.012842
31
0
39
0
210
0
220
0
230
1
0
LINE
5
6B
100
AcDbEntity
8
1
62
256
6
ByLayer
370
-1
48
1
60
0
100
AcDbLine
10
0
20
-9.41655
30
0
11
0
21
-7.924321
31
0
39
0
210
0
220
0
230
1
0
LINE
5
6C
100
AcDbEntity
8
1
62
256
6
ByLayer
370
-1
48
1
60
0
100
AcDbLine
10
0
20
7.924321
30
0
11
0
21
9.41655
31
0
39
0
210
0
220
0
230
1
0
LINE
5
6D
100
AcDbEntity
8
1
62
256
6
ByLayer
370
-1
48
1
60
0
100
AcDbLine
10
10.111157
20
-18.530484
30
0
11
10.111157
21
-17.875098
31
0
39
0
210
0
220
0
230
1
0
LINE
5
6E
100
AcDbEntity
8
1
62
256
6
ByLayer
370
-1
48
1
60
0
100
AcDbLine
10
0
20
-14.183485
30
0
11
0
21
-14.842386
31
0
39
0
210
0
220
0
230
1
0
LINE
5
6F
100
AcDbEntity
8
1
62
256
6
ByLayer
370
-1
48
1
60
0
100
AcDbLine
10
10.111157
20
20
30
0
11
10.111157
21
19.867422
31
0
39
0
210
0
220
0
230
1
0
LINE
5
70
100
AcDbEntity
8
1
62
256
6
ByLayer
370
-1
48
1
60
0
100
AcDbLine
10
0
20
19.027517
30
0
11
0
21
18.879056
31
0
39
0
210
0
220
0
230
1
0
LINE
5
71
100
AcDbEntity
8
1
62
256
6
ByLayer
370
-1
48
1
60
0
100
AcDbLine
10
0
20
-15.436852
30
0
11
0
21
-14.842386
31
0
39
0
210
0
220
0
230
1
0
LINE
5
72
100
AcDbEntity
8
1
62
256
6
ByLayer
370
-1
48
1
60
0
100
AcDbLine
10
0
20
13.450703
30
0
11
0
21
14.183491
31
0
39
0
210
0
220
0
230
1
0
LINE
5
73
100
AcDbEntity
8
1
62
256
6
ByLayer
370
-1
48
1
60
0
100
AcDbLine
10
0.394519
20
-17.055333
30
0
11
0.394519
21
-17.222867
31
0
39
0
210
0
220
0
230
1
0
LINE
5
74
100
AcDbEntity
8
1
62
256
6
ByLayer
370
-1
48
1
60
0
100
AcDbLine
10
0.394519
20
6.540428
30
0
11
0.394519
21
5.633353
31
0
39
0
210
0
220
0
230
1
0
LINE
5
75
100
AcDbEntity
8
1
62
256
6
ByLayer
370
-1
48
1
60
0
100
AcDbLine
10
0.394519
20
-5.633353
30
0
11
0.394519
21
-6.540428
31
0
39
0
210
0
220
0
230
1
0
LINE
5
76
100
AcDbEntity
8
1
62
256
6
ByLayer
370
-1
48
1
60
0
100
AcDbLine
10
0.394519
20
19.709823
30
0
11
0.394519
21
19.698551
31
0
39
0
210
0
220
0
230
1
0
LINE
5
77
100
AcDbEntity
8
1
62
256
6
ByLayer
370
-1
48
1
60
0
100
AcDbLine
10
0
20
5.98301
30
0
11
0
21
2.769573
31
0
39
0
210
0
220
0
230
1
0
LINE
5
78
100
AcDbEntity
8
1
62
256
6
ByLayer
370
-1
48
1
60
0
100
AcDbLine
10
0
20
-2.769573
30
0
11
0
21
-5.98301
31
0
39
0
210
0
220
0
230
1
0
LINE
5
79
100
AcDbEntity
8
1
62
256
6
ByLayer
370
-1
48
1
60
0
100
AcDbLine
10
0.394519
20
-18.965951
30
0
11
0.394519
21
-19.047366
31
0
39
0
210
0
220
0
230
1
0
LINE
5
7A
100
AcDbEntity
8
1
62
256
6
ByLayer
370
-1
48
1
60
0
100
AcDbLine
10
0
20
-17.963025
30
0
11
0
21
-18.242708
31
0
39
0
210
0
220
0
230
1
0
LINE
5
7B
100
AcDbEntity
8
1
62
256
6
ByLayer
370
-1
48
1
60
0
100
AcDbLine
10
0
20
-13.450703
30
0
11
0
21
-12.631051
31
0
39
0
210
0
220
0
230
1
0
LINE
5
7C
100
AcDbEntity
8
1
62
256
6
ByLayer
370
-1
48
1
60
0
100
AcDbLine
10
0
20
12.631051
30
0
11
0
21
13.450703
31
0
39
0
210
0
220
0
230
1
0
LINE
5
7D
100
AcDbEntity
8
1
62
256
6
ByLayer
370
-1
48
1
60
0
100
AcDbLine
10
0
20
18.242708
30
0
11
0
21
17.963025
31
0
39
0
210
0
220
0
230
1
0
LINE
5
7E
100
AcDbEntity
8
1
62
256
6
ByLayer
370
-1
48
1
60
0
100
AcDbLine
10
13.462289
20
14.656977
30
0
11
13.13906
21
13.613016
31
0
39
0
210
0
220
0
230
1
0
LINE
5
7F
100
AcDbEntity
8
1
62
256
6
ByLayer
370
-1
48
1
60
0
100
AcDbLine
10
11.202793
20
21.232346
30
0
11
20.672272
21
21.204079
31
0
39
0
210
0
220
0
230
1
0
LINE
5
80
100
AcDbEntity
8
1
62
256
6
ByLayer
370
-1
48
1
60
0
100
AcDbLine
10
0
20
11.706682
30
0
11
0
21
12.631168
31
0
39
0
210
0
220
0
230
1
0
LINE
5
81
100
AcDbEntity
8
1
62
256
6
ByLayer
370
-1
48
1
60
0
100
AcDbLine
10
0
20
-19.291583
30
0
11
0
21
-19.32088
31
0
39
0
210
0
220
0
230
1
0
LINE
5
82
100
AcDbEntity
8
1
62
256
6
ByLayer
370
-1
48
1
60
0
100
AcDbLine
10
0
20
-10.649949
30
0
11
0
21
-9.41655
31
0
39
0
210
0
220
0
230
1
0
LINE
5
83
100
AcDbEntity
8
1
62
256
6
ByLayer
370
-1
48
1
60
0
100
AcDbLine
10
0.394519
20
15.166097
30
0
11
0.394519
21
14.916479
31
0
39
0
210
0
220
0
230
1
0
LINE
5
84
100
AcDbEntity
8
1
62
256
6
ByLayer
370
-1
48
1
60
0
100
AcDbLine
10
34.901178
20
-0.182954
30
0
11
34.875247
21
0.047053
31
0
39
0
210
0
220
0
230
1
0
LINE
5
85
100
AcDbEntity
8
1
62
256
6
ByLayer
370
-1
48
1
60
0
100
AcDbLine
10
10.883898
20
20.592945
30
0
11
10.883898
21
20.540528
31
0
39
0
210
0
220
0
230
1
0
LINE
5
86
100
AcDbEntity
8
1
62
256
6
ByLayer
370
-1
48
1
60
0
100
AcDbLine
10
0.394519
20
19.387121
30
0
11
0.394519
21
19.330076
31
0
39
0
210
0
220
0
230
1
0
LINE
5
87
100
AcDbEntity
8
1
62
256
6
ByLayer
370
-1
48
1
60
0
100
AcDbLine
10
12.673246
20
11.808706
30
0
11
14.043547
21
9.44316
31
0
39
0
210
0
220
0
230
1
0
LINE
5
88
100
AcDbEntity
8
1
62
256
6
ByLayer
370
-1
48
1
60
0
100
AcDbLine
10
0.394519
20
-19.572716
30
0
11
0.394519
21
-19.606601
31
0
39
0
210
0
220
0
230
1
0
LINE
5
89
100
AcDbEntity
8
1
62
256
6
ByLayer
370
-1
48
1
60
0
100
AcDbLine
10
0
20
-16.459648
30
0
11
0
21
-16.898119
31
0
39
0
210
0
220
0
230
1
0
LINE
5
8A
100
AcDbEntity
8
1
62
256
6
ByLayer
370
-1
48
1
60
0
100
AcDbLine
10
0
20
19.027517
30
0
11
0
21
19.145402
31
0
39
0
210
0
220
0
230
1
0
LINE
5
8B
100
AcDbEntity
8
1
62
256
6
ByLayer
370
-1
48
1
60
0
100
AcDbLine
10
0
20
-19.324519
30
0
11
0
21
-19.32088
31
0
39
0
210
0
220
0
230
1
0
LINE
5
8C
100
AcDbEntity
8
1
62
256
6
ByLayer
370
-1
48
1
60
0
100
AcDbLine
10
0.394519
20
9.815066
30
0
11
0.394519
21
9.282906
31
0
39
0
210
0
220
0
230
1
0
LINE
5
8D
100
AcDbEntity
8
1
62
256
6
ByLayer
370
-1
48
1
60
0
100
AcDbLine
10
0.394519
20
-9.282906
30
0
11
0.394519
21
-9.815066
31
0
39
0
210
0
220
0
230
1
0
LINE
5
8E
100
AcDbEntity
8
1
62
256
6
ByLayer
370
-1
48
1
60
0
100
AcDbLine
10
0
20
-18.879056
30
0
11
0
21
-19.027517
31
0
39
0
210
0
220
0
230
1
0
LINE
5
8F
100
AcDbEntity
8
1
62
256
6
ByLayer
370
-1
48
1
60
0
100
AcDbLine
10
0
20
15.974086
30
0
11
0
21
16.459691
31
0
39
0
210
0
220
0
230
1
0
LINE
5
90
100
AcDbEntity
8
1
62
256
6
ByLayer
370
-1
48
1
60
0
100
AcDbLine
10
0.394519
20
-18.473429
30
0
11
0.394519
21
-18.580738
31
0
39
0
210
0
220
0
230
1
0
LINE
5
91
100
AcDbEntity
8
1
62
256
6
ByLayer
370
-1
48
1
60
0
100
AcDbLine
10
20.62983
20
18.599217
30
0
11
20.62983
21
18.009337
31
0
39
0
210
0
220
0
230
1
0
LINE
5
92
100
AcDbEntity
8
1
62
256
6
ByLayer
370
-1
48
1
60
0
100
AcDbLine
10
10.027217
20
-10.535654
30
0
11
10.022626
21
10.535654
31
0
39
0
210
0
220
0
230
1
0
LINE
5
93
100
AcDbEntity
8
1
62
256
6
ByLayer
370
-1
48
1
60
0
100
AcDbLine
10
10.439927
20
-14.772635
30
0
11
10.553274
21
-13.477066
31
0
39
0
210
0
220
0
230
1
0
LINE
5
94
100
AcDbEntity
8
1
62
256
6
ByLayer
370
-1
48
1
60
0
100
AcDbLine
10
0
20
14.842386
30
0
11
0
21
15.436852
31
0
39
0
210
0
220
0
230
1
0
LINE
5
95
100
AcDbEntity
8
1
62
256
6
ByLayer
370
-1
48
1
60
0
100
AcDbLine
10
17.930229
20
9.012842
30
0
11
20.685466
21
7.437816
31
0
39
0
210
0
220
0
230
1
0
LINE
5
96
100
AcDbEntity
8
1
62
256
6
ByLayer
370
-1
48
1
60
0
100
AcDbLine
10
0.394519
20
17.222867
30
0
11
0.394519
21
17.055333
31
0
39
0
210
0
220
0
230
1
0
LINE
5
97
100
AcDbEntity
8
1
62
256
6
ByLayer
370
-1
48
1
60
0
100
AcDbLine
10
34.901178
20
-0.182954
30
0
11
34.901178
21
-2.478247
31
0
39
0
210
0
220
0
230
1
0
LINE
5
98
100
AcDbEntity
8
1
62
256
6
ByLayer
370
-1
48
1
60
0
100
AcDbLine
10
30.573369
20
2.506213
30
0
11
34.875247
21
0.047053
31
0
39
0
210
0
220
0
230
1
0
LINE
5
99
100
AcDbEntity
8
1
62
256
6
ByLayer
370
-1
48
1
60
0
100
AcDbLine
10
0
20
-19.145402
30
0
11
0
21
-19.027517
31
0
39
0
210
0
220
0
230
1
0
LINE
5
9A
100
AcDbEntity
8
1
62
256
6
ByLayer
370
-1
48
1
60
0
100
AcDbLine
10
18.388987
20
6.152039
30
0
11
21.13213
21
7.688095
31
0
39
0
210
0
220
0
230
1
0
LINE
5
9B
100
AcDbEntity
8
1
62
256
6
ByLayer
370
-1
48
1
60
0
100
AcDbLine
10
0.394519
20
13.782314
30
0
11
0.394519
21
13.474366
31
0
39
0
210
0
220
0
230
1
0
LINE
5
9C
100
AcDbEntity
8
1
62
256
6
ByLayer
370
-1
48
1
60
0
100
AcDbLine
10
0.394519
20
-13.474366
30
0
11
0.394519
21
-13.782314
31
0
39
0
210
0
220
0
230
1
0
LINE
5
9D
100
AcDbEntity
8
1
62
256
6
ByLayer
370
-1
48
1
60
0
100
AcDbLine
10
0
20
16.898119
30
0
11
0
21
17.292958
31
0
39
0
210
0
220
0
230
1
0
LINE
5
9E
100
AcDbEntity
8
1
62
256
6
ByLayer
370
-1
48
1
60
0
100
AcDbLine
10
5.5
20
-9.861034
30
0
11
5.5
21
9.861034
31
0
39
0
210
0
220
0
230
1
0
LINE
5
9F
100
AcDbEntity
8
1
62
256
6
ByLayer
370
-1
48
1
60
0
100
AcDbLine
10
0.394519
20
-14.916479
30
0
11
0.394519
21
-15.166097
31
0
39
0
210
0
220
0
230
1
0
LINE
5
A0
100
AcDbEntity
8
1
62
256
6
ByLayer
370
-1
48
1
60
0
100
AcDbLine
10
0
20
-17.963057
30
0
11
0
21
-17.647136
31
0
39
0
210
0
220
0
230
1
0
LINE
5
A1
100
AcDbEntity
8
1
62
256
6
ByLayer
370
-1
48
1
60
0
100
AcDbLine
10
0
20
-18.699503
30
0
11
0
21
-18.487583
31
0
39
0
210
0
220
0
230
1
0
LINE
5
A2
100
AcDbEntity
8
1
62
256
6
ByLayer
370
-1
48
1
60
0
100
AcDbLine
10
0
20
18.699503
30
0
11
0
21
18.879126
31
0
39
0
210
0
220
0
230
1
0
LINE
5
A3
100
AcDbEntity
8
1
62
256
6
ByLayer
370
-1
48
1
60
0
100
AcDbLine
10
0
20
18.487583
30
0
11
0
21
18.699503
31
0
39
0
210
0
220
0
230
1
0
LINE
5
A4
100
AcDbEntity
8
1
62
256
6
ByLayer
370
-1
48
1
60
0
100
AcDbLine
10
0
20
-14.183491
30
0
11
0
21
-13.450703
31
0
39
0
210
0
220
0
230
1
0
LINE
5
A5
100
AcDbEntity
8
1
62
256
6
ByLayer
370
-1
48
1
60
0
100
AcDbLine
10
11.20531
20
7.030896
30
0
11
11.202793
21
21.232346
31
0
39
0
210
0
220
0
230
1
0
LINE
5
A6
100
AcDbEntity
8
1
62
256
6
ByLayer
370
-1
48
1
60
0
100
AcDbLine
10
0
20
17.647136
30
0
11
0
21
17.963057
31
0
39
0
210
0
220
0
230
1
0
LINE
5
A7
100
AcDbEntity
8
1
62
256
6
ByLayer
370
-1
48
1
60
0
100
AcDbLine
10
0
20
-19.233341
30
0
11
0
21
-19.145388
31
0
39
0
210
0
220
0
230
1
0
LINE
5
A8
100
AcDbEntity
8
1
62
256
6
ByLayer
370
-1
48
1
60
0
100
AcDbLine
10
0.394519
20
12.057937
30
0
11
0.394519
21
11.666808
31
0
39
0
210
0
220
0
230
1
0
LINE
5
A9
100
AcDbEntity
8
1
62
256
6
ByLayer
370
-1
48
1
60
0
100
AcDbLine
10
0.394519
20
-11.666808
30
0
11
0.394519
21
-12.057937
31
0
39
0
210
0
220
0
230
1
0
LINE
5
AA
100
AcDbEntity
8
1
62
256
6
ByLayer
370
-1
48
1
60
0
100
AcDbLine
10
0
20
15.43684
30
0
11
0
21
15.974086
31
0
39
0
210
0
220
0
230
1
0
LINE
5
AB
100
AcDbEntity
8
1
62
256
6
ByLayer
370
-1
48
1
60
0
100
AcDbLine
10
20.811074
20
18.966746
30
0
11
20.672479
21
18.96716
31
0
39
0
210
0
220
0
230
1
0
LINE
5
AC
100
AcDbEntity
8
1
62
256
6
ByLayer
370
-1
48
1
60
0
100
AcDbLine
10
20.672272
20
18.694295
30
0
11
13.462289
21
14.656977
31
0
39
0
210
0
220
0
230
1
0
LINE
5
AD
100
AcDbEntity
8
1
62
256
6
ByLayer
370
-1
48
1
60
0
100
AcDbLine
10
21.613578
20
7.62806
30
0
11
22.800012
21
6.949837
31
0
39
0
210
0
220
0
230
1
0
LINE
5
AE
100
AcDbEntity
8
1
62
256
6
ByLayer
370
-1
48
1
60
0
100
AcDbLine
10
20.277336
20
17.80993
30
0
11
20.672272
21
18.694295
31
0
39
0
210
0
220
0
230
1
0
LINE
5
AF
100
AcDbEntity
8
1
62
256
6
ByLayer
370
-1
48
1
60
0
100
AcDbLine
10
0
20
5.98301
30
0
11
0
21
7.924419
31
0
39
0
210
0
220
0
230
1
0
LINE
5
B0
100
AcDbEntity
8
1
62
256
6
ByLayer
370
-1
48
1
60
0
100
AcDbLine
10
0
20
-17.292958
30
0
11
0
21
-16.898119
31
0
39
0
210
0
220
0
230
1
0
LINE
5
B1
100
AcDbEntity
8
1
62
256
6
ByLayer
370
-1
48
1
60
0
100
AcDbLine
10
0.394519
20
-16.091699
30
0
11
0.394519
21
-16.296283
31
0
39
0
210
0
220
0
230
1
0
LINE
5
B2
100
AcDbEntity
8
1
62
256
6
ByLayer
370
-1
48
1
60
0
100
AcDbLine
10
34.901178
20
-0.182954
30
0
11
21.13213
21
7.688095
31
0
39
0
210
0
220
0
230
1
0
LINE
5
B3
100
AcDbEntity
8
1
62
256
6
ByLayer
370
-1
48
1
60
0
100
AcDbLine
10
0
20
-15.974086
30
0
11
0
21
-15.43684
31
0
39
0
210
0
220
0
230
1
0
LINE
5
B4
100
AcDbEntity
8
1
62
256
6
ByLayer
370
-1
48
1
60
0
100
AcDbLine
10
0.394519
20
17.97736
30
0
11
0.394519
21
17.841722
31
0
39
0
210
0
220
0
230
1
0
LINE
5
B5
100
AcDbEntity
8
1
62
256
6
ByLayer
370
-1
48
1
60
0
100
AcDbLine
10
0
20
9.41655
30
0
11
0
21
10.649949
31
0
39
0
210
0
220
0
230
1
0
LINE
5
B6
100
AcDbEntity
8
1
62
256
6
ByLayer
370
-1
48
1
60
0
100
AcDbLine
10
0.675481
20
-20
30
0
11
0.675481
21
20
31
0
39
0
210
0
220
0
230
1
0
LINE
5
B7
100
AcDbEntity
8
1
62
256
6
ByLayer
370
-1
48
1
60
0
100
AcDbLine
10
0
20
-12.631168
30
0
11
0
21
-11.706682
31
0
39
0
210
0
220
0
230
1
0
LINE
5
B8
100
AcDbEntity
8
1
62
256
6
ByLayer
370
-1
48
1
60
0
100
AcDbLine
10
11.207661
20
-6.235081
30
0
11
11.206003
21
3.119164
31
0
39
0
210
0
220
0
230
1
0
LINE
5
B9
100
AcDbEntity
8
1
62
256
6
ByLayer
370
-1
48
1
60
0
100
AcDbLine
10
0
20
14.842386
30
0
11
0
21
14.183485
31
0
39
0
210
0
220
0
230
1
0
LINE
5
BA
100
AcDbEntity
8
1
62
256
6
ByLayer
370
-1
48
1
60
0
100
AcDbLine
10
0.394519
20
16.296283
30
0
11
0.394519
21
16.091699
31
0
39
0
210
0
220
0
230
1
0
LINE
5
BB
100
AcDbEntity
8
1
62
256
6
ByLayer
370
-1
48
1
60
0
100
AcDbLine
10
0.394519
20
18.580738
30
0
11
0.394519
21
18.473429
31
0
39
0
210
0
220
0
230
1
0
LINE
5
BC
100
AcDbEntity
8
1
62
256
6
ByLayer
370
-1
48
1
60
0
100
AcDbLine
10
0
20
19.233341
30
0
11
0
21
19.291745
31
0
39
0
210
0
220
0
230
1
0
LINE
5
BD
100
AcDbEntity
8
1
62
256
6
ByLayer
370
-1
48
1
60
0
100
AcDbLine
10
0.394519
20
19.047366
30
0
11
0.394519
21
18.965951
31
0
39
0
210
0
220
0
230
1
0
LINE
5
BE
100
AcDbEntity
8
1
62
256
6
ByLayer
370
-1
48
1
60
0
100
AcDbLine
10
0
20
-7.924419
30
0
11
0
21
-5.98301
31
0
39
0
210
0
220
0
230
1
0
LINE
5
BF
100
AcDbEntity
8
1
62
256
6
ByLayer
370
-1
48
1
60
0
100
AcDbLine
10
10.022626
20
10.535654
30
0
11
5.9
21
10.535654
31
0
39
0
210
0
220
0
230
1
0
LINE
5
C0
100
AcDbEntity
8
1
62
256
6
ByLayer
370
-1
48
1
60
0
100
AcDbLine
10
5.9
20
-10.535654
30
0
11
5.9
21
10.535654
31
0
39
0
210
0
220
0
230
1
0
LINE
5
C1
100
AcDbEntity
8
1
62
256
6
ByLayer
370
-1
48
1
60
0
100
AcDbLine
10
0
20
-18.879126
30
0
11
0
21
-18.699503
31
0
39
0
210
0
220
0
230
1
0
LINE
5
C2
100
AcDbEntity
8
1
62
256
6
ByLayer
370
-1
48
1
60
0
100
AcDbLine
10
0
20
19.32088
30
0
11
0
21
19.291583
31
0
39
0
210
0
220
0
230
1
0
LINE
5
C3
100
AcDbEntity
8
1
62
256
6
ByLayer
370
-1
48
1
60
0
100
AcDbLine
10
10.028349
20
-5.379808
30
0
11
10.023886
21
19.804762
31
0
39
0
210
0
220
0
230
1
0
LINE
5
C4
100
AcDbEntity
8
1
62
256
6
ByLayer
370
-1
48
1
60
0
100
AcDbLine
10
0
20
17.292952
30
0
11
0
21
17.647136
31
0
39
0
210
0
220
0
230
1
0
LINE
5
C5
100
AcDbEntity
8
1
62
256
6
ByLayer
370
-1
48
1
60
0
100
AcDbLine
10
0.394519
20
-19.698551
30
0
11
0.394519
21
-19.709823
31
0
39
0
210
0
220
0
230
1
0
LINE
5
C6
100
AcDbEntity
8
1
62
256
6
ByLayer
370
-1
48
1
60
0
100
AcDbLine
10
21.613578
20
7.62806
30
0
11
21.13213
21
7.688095
31
0
39
0
210
0
220
0
230
1
0
LINE
5
C7
100
AcDbEntity
8
1
62
256
6
ByLayer
370
-1
48
1
60
0
100
AcDbLine
10
0
20
-16.459691
30
0
11
0
21
-15.974086
31
0
39
0
210
0
220
0
230
1
0
LINE
5
C8
100
AcDbEntity
8
1
62
256
6
ByLayer
370
-1
48
1
60
0
100
AcDbLine
10
0.394519
20
-17.841722
30
0
11
0.394519
21
-17.97736
31
0
39
0
210
0
220
0
230
1
0
LINE
5
C9
100
AcDbEntity
8
1
62
256
6
ByLayer
370
-1
48
1
60
0
100
AcDbLine
10
10.439927
20
-14.772635
30
0
11
10.163596
21
-17.931107
31
0
39
0
210
0
220
0
230
1
0
LINE
5
CA
100
AcDbEntity
8
1
62
256
6
ByLayer
370
-1
48
1
60
0
100
AcDbLine
10
0
20
19.32088
30
0
11
0
21
19.324519
31
0
39
0
210
0
220
0
230
1
0
LINE
5
CB
100
AcDbEntity
8
1
62
256
6
ByLayer
370
-1
48
1
60
0
100
AcDbLine
10
5.9
20
-10.535654
30
0
11
10.027217
21
-10.535654
31
0
39
0
210
0
220
0
230
1
0
LINE
5
CC
100
AcDbEntity
8
1
62
256
6
ByLayer
370
-1
48
1
60
0
100
AcDbLine
10
0
20
-2.769731
30
0
11
0
21
2.769731
31
0
39
0
210
0
220
0
230
1
0
LINE
5
CD
100
AcDbEntity
8
1
62
256
6
ByLayer
370
-1
48
1
60
0
100
AcDbLine
10
0
20
19.145388
30
0
11
0
21
19.233341
31
0
39
0
210
0
220
0
230
1
0
LINE
5
CE
100
AcDbEntity
8
1
62
256
6
ByLayer
370
-1
48
1
60
0
100
AcDbLine
10
0.394519
20
-19.330076
30
0
11
0.394519
21
-19.387121
31
0
39
0
210
0
220
0
230
1
0
LINE
5
CF
100
AcDbEntity
8
1
62
256
6
ByLayer
370
-1
48
1
60
0
100
AcDbLine
10
0
20
-17.647136
30
0
11
0
21
-17.292952
31
0
39
0
210
0
220
0
230
1
0
LINE
5
D0
100
AcDbEntity
8
1
62
256
6
ByLayer
370
-1
48
1
60
0
100
AcDbLine
10
0
20
-18.487737
30
0
11
0
21
-18.242708
31
0
39
0
210
0
220
0
230
1
0
LINE
5
D1
100
AcDbEntity
8
1
62
256
6
ByLayer
370
-1
48
1
60
0
100
AcDbLine
10
0
20
16.898119
30
0
11
0
21
16.459648
31
0
39
0
210
0
220
0
230
1
0
LINE
5
D2
100
AcDbEntity
8
1
62
256
6
ByLayer
370
-1
48
1
60
0
100
AcDbLine
10
0
20
18.242708
30
0
11
0
21
18.487737
31
0
39
0
210
0
220
0
230
1
0
LINE
5
D3
100
AcDbEntity
8
SK1
62
256
6
ByLayer
370
-1
48
1
60
0
100
AcDbLine
10
0
20
-18.879056
30
0
11
0
21
-19.027517
31
0
39
0
210
0
220
0
230
1
0
LINE
5
D4
100
AcDbEntity
8
SK1
62
256
6
ByLayer
370
-1
48
1
60
0
100
AcDbLine
10
0
20
-17.963025
30
0
11
0
21
-18.242708
31
0
39
0
210
0
220
0
230
1
0
LINE
5
D5
100
AcDbEntity
8
SK1
62
256
6
ByLayer
370
-1
48
1
60
0
100
AcDbLine
10
0
20
-19.291583
30
0
11
0
21
-19.32088
31
0
39
0
210
0
220
0
230
1
0
LINE
5
D6
100
AcDbEntity
8
SK1
62
256
6
ByLayer
370
-1
48
1
60
0
100
AcDbLine
10
0
20
18.487583
30
0
11
0
21
18.699503
31
0
39
0
210
0
220
0
230
1
0
LINE
5
D7
100
AcDbEntity
8
SK1
62
256
6
ByLayer
370
-1
48
1
60
0
100
AcDbLine
10
0
20
-7.924419
30
0
11
0
21
-5.98301
31
0
39
0
210
0
220
0
230
1
0
LINE
5
D8
100
AcDbEntity
8
SK1
62
256
6
ByLayer
370
-1
48
1
60
0
100
AcDbLine
10
0
20
-18.699503
30
0
11
0
21
-18.487583
31
0
39
0
210
0
220
0
230
1
0
LINE
5
D9
100
AcDbEntity
8
SK1
62
256
6
ByLayer
370
-1
48
1
60
0
100
AcDbLine
10
0
20
-9.41655
30
0
11
0
21
-7.924321
31
0
39
0
210
0
220
0
230
1
0
LINE
5
DA
100
AcDbEntity
8
SK1
62
256
6
ByLayer
370
-1
48
1
60
0
100
AcDbLine
10
0
20
7.924321
30
0
11
0
21
9.41655
31
0
39
0
210
0
220
0
230
1
0
LINE
5
DB
100
AcDbEntity
8
SK1
62
256
6
ByLayer
370
-1
48
1
60
0
100
AcDbLine
10
0
20
19.145388
30
0
11
0
21
19.233341
31
0
39
0
210
0
220
0
230
1
0
LINE
5
DC
100
AcDbEntity
8
SK1
62
256
6
ByLayer
370
-1
48
1
60
0
100
AcDbLine
10
0
20
9.41655
30
0
11
0
21
10.649949
31
0
39
0
210
0
220
0
230
1
0
LINE
5
DD
100
AcDbEntity
8
SK1
62
256
6
ByLayer
370
-1
48
1
60
0
100
AcDbLine
10
0
20
16.898119
30
0
11
0
21
17.292958
31
0
39
0
210
0
220
0
230
1
0
LINE
5
DE
100
AcDbEntity
8
SK1
62
256
6
ByLayer
370
-1
48
1
60
0
100
AcDbLine
10
0
20
16.898119
30
0
11
0
21
16.459648
31
0
39
0
210
0
220
0
230
1
0
LINE
5
DF
100
AcDbEntity
8
SK1
62
256
6
ByLayer
370
-1
48
1
60
0
100
AcDbLine
10
0
20
-16.459648
30
0
11
0
21
-16.898119
31
0
39
0
210
0
220
0
230
1
0
LINE
5
E0
100
AcDbEntity
8
SK1
62
256
6
ByLayer
370
-1
48
1
60
0
100
AcDbLine
10
0
20
-12.631168
30
0
11
0
21
-11.706682
31
0
39
0
210
0
220
0
230
1
0
LINE
5
E1
100
AcDbEntity
8
1
62
256
6
ByLayer
370
-1
48
1
60
0
100
AcDbLine
10
20.747301
20
18.075829
30
0
11
20.747301
21
18.274883
31
0
39
0
210
0
220
0
230
1
0
LINE
5
E2
100
AcDbEntity
8
1
62
256
6
ByLayer
370
-1
48
1
60
0
100
AcDbLine
10
17.81058
20
9.201458
30
0
11
20.792927
21
7.498223
31
0
39
0
210
0
220
0
230
1
0
LINE
5
E3
100
AcDbEntity
8
1
62
256
6
ByLayer
370
-1
48
1
60
0
100
AcDbLine
10
22.804379
20
20.284629
30
0
11
22.804379
21
19.319975
31
0
39
0
210
0
220
0
230
1
0
LINE
5
E4
100
AcDbEntity
8
1
62
256
6
ByLayer
370
-1
48
1
60
0
100
AcDbLine
10
20.838786
20
19.19904
30
0
11
20.838786
21
18.127583
31
0
39
0
210
0
220
0
230
1
0
LINE
5
E5
100
AcDbEntity
8
1
62
256
6
ByLayer
370
-1
48
1
60
0
100
AcDbLine
10
20.838786
20
19.19904
30
0
11
20.747301
21
18.274883
31
0
39
0
210
0
220
0
230
1
0
LINE
5
E6
100
AcDbEntity
8
1
62
256
6
ByLayer
370
-1
48
1
60
0
100
AcDbLine
10
23.808936
20
20.176183
30
0
11
23.808936
21
19.823485
31
0
39
0
210
0
220
0
230
1
0
LINE
5
E7
100
AcDbEntity
8
1
62
256
6
ByLayer
370
-1
48
1
60
0
100
AcDbLine
10
23.555946
20
20.176836
30
0
11
23.555946
21
19.697702
31
0
39
0
210
0
220
0
230
1
0
LINE
5
E8
100
AcDbEntity
8
1
62
256
6
ByLayer
370
-1
48
1
60
0
100
AcDbLine
10
21.668227
20
20.167293
30
0
11
21.668227
21
18.633315
31
0
39
0
210
0
220
0
230
1
0
LINE
5
E9
100
AcDbEntity
8
1
62
256
6
ByLayer
370
-1
48
1
60
0
100
AcDbLine
10
22.690899
20
20.284922
30
0
11
22.804379
21
20.284629
31
0
39
0
210
0
220
0
230
1
0
LINE
5
EA
100
AcDbEntity
8
1
62
256
6
ByLayer
370
-1
48
1
60
0
100
AcDbLine
10
22.690899
20
20.284922
30
0
11
22.690899
21
19.254635
31
0
39
0
210
0
220
0
230
1
0
LINE
5
EB
100
AcDbEntity
8
1
62
256
6
ByLayer
370
-1
48
1
60
0
100
AcDbLine
10
22.245689
20
20.252267
30
0
11
22.245689
21
19.002821
31
0
39
0
210
0
220
0
230
1
0
LINE
5
EC
100
AcDbEntity
8
1
62
256
6
ByLayer
370
-1
48
1
60
0
100
AcDbLine
10
21.921217
20
20.181055
30
0
11
21.921217
21
18.81689
31
0
39
0
210
0
220
0
230
1
0
LINE
5
ED
100
AcDbEntity
8
1
62
256
6
ByLayer
370
-1
48
1
60
0
100
AcDbLine
10
23.243804
20
20.249691
30
0
11
23.243804
21
19.558826
31
0
39
0
210
0
220
0
230
1
0
LINE
5
EE
100
AcDbEntity
8
SK1
62
256
6
ByLayer
370
-1
48
1
60
0
100
AcDbLine
10
-0.324519
20
-11.790712
30
0
11
-0.324519
21
-11.530772
31
0
39
0
210
0
220
0
230
1
0
LINE
5
EF
100
AcDbEntity
8
SK1
62
256
6
ByLayer
370
-1
48
1
60
0
100
AcDbLine
10
-0.249519
20
-16.939826
30
0
11
-0.249519
21
-17.438125
31
0
39
0
210
0
220
0
230
1
0
LINE
5
F0
100
AcDbEntity
8
SK1
62
256
6
ByLayer
370
-1
48
1
60
0
100
AcDbLine
10
-0.324519
20
9.241515
30
0
11
-0.324519
21
9.595519
31
0
39
0
210
0
220
0
230
1
0
LINE
5
F1
100
AcDbEntity
8
SK1
62
256
6
ByLayer
370
-1
48
1
60
0
100
AcDbLine
10
-0.324519
20
-17.500152
30
0
11
-0.324519
21
-17.413335
31
0
39
0
210
0
220
0
230
1
0
LINE
5
F2
100
AcDbEntity
8
SK1
62
256
6
ByLayer
370
-1
48
1
60
0
100
AcDbLine
10
-0.249519
20
15.770306
30
0
11
-0.249519
21
15.011486
31
0
39
0
210
0
220
0
230
1
0
LINE
5
F3
100
AcDbEntity
8
SK1
62
256
6
ByLayer
370
-1
48
1
60
0
100
AcDbLine
10
-0.324519
20
16.678463
30
0
11
-0.324519
21
15.901587
31
0
39
0
210
0
220
0
230
1
0
LINE
5
F4
100
AcDbEntity
8
SK1
62
256
6
ByLayer
370
-1
48
1
60
0
100
AcDbLine
10
-0.324519
20
18.745228
30
0
11
-0.324519
21
18.77754
31
0
39
0
210
0
220
0
230
1
0
LINE
5
F5
100
AcDbEntity
8
SK1
62
256
6
ByLayer
370
-1
48
1
60
0
100
AcDbLine
10
-0.324519
20
-11.987818
30
0
11
-0.324519
21
-13.266944
31
0
39
0
210
0
220
0
230
1
0
LINE
5
F6
100
AcDbEntity
8
SK1
62
256
6
ByLayer
370
-1
48
1
60
0
100
AcDbLine
10
-0.249519
20
13.240729
30
0
11
-0.249519
21
12.071893
31
0
39
0
210
0
220
0
230
1
0
LINE
5
F7
100
AcDbEntity
8
SK1
62
256
6
ByLayer
370
-1
48
1
60
0
100
AcDbLine
10
-0.324519
20
18.932424
30
0
11
-0.324519
21
18.948427
31
0
39
0
210
0
220
0
230
1
0
LINE
5
F8
100
AcDbEntity
8
SK1
62
256
6
ByLayer
370
-1
48
1
60
0
100
AcDbLine
10
-0.324519
20
-6.373939
30
0
11
-0.324519
21
-5.775161
31
0
39
0
210
0
220
0
230
1
0
LINE
5
F9
100
AcDbEntity
8
SK1
62
256
6
ByLayer
370
-1
48
1
60
0
100
AcDbLine
10
-0.324519
20
17.993814
30
0
11
-0.324519
21
17.500131
31
0
39
0
210
0
220
0
230
1
0
LINE
5
FA
100
AcDbEntity
8
SK1
62
256
6
ByLayer
370
-1
48
1
60
0
100
AcDbLine
10
-0.324519
20
-15.901621
30
0
11
-0.324519
21
-15.767626
31
0
39
0
210
0
220
0
230
1
0
LINE
5
FB
100
AcDbEntity
8
SK1
62
256
6
ByLayer
370
-1
48
1
60
0
100
AcDbLine
10
-0.324519
20
16.678463
30
0
11
-0.324519
21
16.787151
31
0
39
0
210
0
220
0
230
1
0
LINE
5
FC
100
AcDbEntity
8
SK1
62
256
6
ByLayer
370
-1
48
1
60
0
100
AcDbLine
10
-0.324519
20
-18.061069
30
0
11
-0.324519
21
-17.993814
31
0
39
0
210
0
220
0
230
1
0
LINE
5
FD
100
AcDbEntity
8
SK1
62
256
6
ByLayer
370
-1
48
1
60
0
100
AcDbLine
10
-0.324519
20
18.434491
30
0
11
-0.324519
21
18.483753
31
0
39
0
210
0
220
0
230
1
0
LINE
5
FE
100
AcDbEntity
8
SK1
62
256
6
ByLayer
370
-1
48
1
60
0
100
AcDbLine
10
-0.324519
20
-13.534838
30
0
11
-0.324519
21
-14.648035
31
0
39
0
210
0
220
0
230
1
0
LINE
5
FF
100
AcDbEntity
8
SK1
62
256
6
ByLayer
370
-1
48
1
60
0
100
AcDbLine
10
-0.249519
20
9.161401
30
0
11
-0.249519
21
6.936326
31
0
39
0
210
0
220
0
230
1
0
LINE
5
100
100
AcDbEntity
8
SK1
62
256
6
ByLayer
370
-1
48
1
60
0
100
AcDbLine
10
-0.249519
20
-6.936326
30
0
11
-0.249519
21
-9.161401
31
0
39
0
210
0
220
0
230
1
0
LINE
5
101
100
AcDbEntity
8
SK1
62
256
6
ByLayer
370
-1
48
1
60
0
100
AcDbLine
10
-0.249519
20
-18.87287
30
0
11
-0.249519
21
-18.996302
31
0
39
0
210
0
220
0
230
1
0
LINE
5
102
100
AcDbEntity
8
SK1
62
256
6
ByLayer
370
-1
48
1
60
0
100
AcDbLine
10
-0.324519
20
11.530772
30
0
11
-0.324519
21
9.595404
31
0
39
0
210
0
220
0
230
1
0
LINE
5
103
100
AcDbEntity
8
SK1
62
256
6
ByLayer
370
-1
48
1
60
0
100
AcDbLine
10
-0.324519
20
-9.595404
30
0
11
-0.324519
21
-11.530772
31
0
39
0
210
0
220
0
230
1
0
LINE
5
104
100
AcDbEntity
8
SK1
62
256
6
ByLayer
370
-1
48
1
60
0
100
AcDbLine
10
-0.249519
20
-15.011486
30
0
11
-0.249519
21
-15.770306
31
0
39
0
210
0
220
0
230
1
0
LINE
5
105
100
AcDbEntity
8
SK1
62
256
6
ByLayer
370
-1
48
1
60
0
100
AcDbLine
10
-0.324519
20
-14.812662
30
0
11
-0.324519
21
-15.767626
31
0
39
0
210
0
220
0
230
1
0
LINE
5
106
100
AcDbEntity
8
SK1
62
256
6
ByLayer
370
-1
48
1
60
0
100
AcDbLine
10
-0.249519
20
-13.703567
30
0
11
-0.249519
21
-14.637614
31
0
39
0
210
0
220
0
230
1
0
LINE
5
107
100
AcDbEntity
8
SK1
62
256
6
ByLayer
370
-1
48
1
60
0
100
AcDbLine
10
-0.249519
20
5.611457
30
0
11
-0.249519
21
-5.611457
31
0
39
0
210
0
220
0
230
1
0
LINE
5
108
100
AcDbEntity
8
SK1
62
256
6
ByLayer
370
-1
48
1
60
0
100
AcDbLine
10
-0.249519
20
19.073602
30
0
11
-0.249519
21
19.032647
31
0
39
0
210
0
220
0
230
1
0
LINE
5
109
100
AcDbEntity
8
SK1
62
256
6
ByLayer
370
-1
48
1
60
0
100
AcDbLine
10
-0.324519
20
-11.805856
30
0
11
-0.324519
21
-11.987821
31
0
39
0
210
0
220
0
230
1
0
LINE
5
10A
100
AcDbEntity
8
SK1
62
256
6
ByLayer
370
-1
48
1
60
0
100
AcDbLine
10
-0.324519
20
-17.500131
30
0
11
-0.324519
21
-17.993814
31
0
39
0
210
0
220
0
230
1
0
LINE
5
10B
100
AcDbEntity
8
SK1
62
256
6
ByLayer
370
-1
48
1
60
0
100
AcDbLine
10
-0.249519
20
-17.635622
30
0
11
-0.249519
21
-18.028616
31
0
39
0
210
0
220
0
230
1
0
LINE
5
10C
100
AcDbEntity
8
SK1
62
256
6
ByLayer
370
-1
48
1
60
0
100
AcDbLine
10
-0.249519
20
-19.032647
30
0
11
-0.249519
21
-19.073602
31
0
39
0
210
0
220
0
230
1
0
LINE
5
10D
100
AcDbEntity
8
SK1
62
256
6
ByLayer
370
-1
48
1
60
0
100
AcDbLine
10
-0.324519
20
15.767626
30
0
11
-0.324519
21
14.812662
31
0
39
0
210
0
220
0
230
1
0
LINE
5
10E
100
AcDbEntity
8
SK1
62
256
6
ByLayer
370
-1
48
1
60
0
100
AcDbLine
10
-0.324519
20
-16.787098
30
0
11
-0.324519
21
-17.413335
31
0
39
0
210
0
220
0
230
1
0
LINE
5
10F
100
AcDbEntity
8
SK1
62
256
6
ByLayer
370
-1
48
1
60
0
100
AcDbLine
10
-0.324519
20
-18.483743
30
0
11
-0.324519
21
-18.745228
31
0
39
0
210
0
220
0
230
1
0
LINE
5
110
100
AcDbEntity
8
SK1
62
256
6
ByLayer
370
-1
48
1
60
0
100
AcDbLine
10
-0.249519
20
14.637614
30
0
11
-0.249519
21
13.703567
31
0
39
0
210
0
220
0
230
1
0
LINE
5
111
100
AcDbEntity
8
SK1
62
256
6
ByLayer
370
-1
48
1
60
0
100
AcDbLine
10
-0.249519
20
11.483644
30
0
11
-0.249519
21
9.958473
31
0
39
0
210
0
220
0
230
1
0
LINE
5
112
100
AcDbEntity
8
SK1
62
256
6
ByLayer
370
-1
48
1
60
0
100
AcDbLine
10
-0.249519
20
-9.958473
30
0
11
-0.249519
21
-11.483644
31
0
39
0
210
0
220
0
230
1
0
LINE
5
113
100
AcDbEntity
8
SK1
62
256
6
ByLayer
370
-1
48
1
60
0
100
AcDbLine
10
-0.324519
20
18.434491
30
0
11
-0.324519
21
18.061058
31
0
39
0
210
0
220
0
230
1
0
LINE
5
114
100
AcDbEntity
8
SK1
62
256
6
ByLayer
370
-1
48
1
60
0
100
AcDbLine
10
-0.249519
20
-16.074887
30
0
11
-0.249519
21
-16.692674
31
0
39
0
210
0
220
0
230
1
0
LINE
5
115
100
AcDbEntity
8
1
62
256
6
ByLayer
370
-1
48
1
60
0
100
AcDbLine
10
26.047694
20
12.523462
30
0
11
26.067239
21
12.529457
31
0
39
0
210
0
220
0
230
1
0
LINE
5
116
100
AcDbEntity
8
1
62
256
6
ByLayer
370
-1
48
1
60
0
100
AcDbLine
10
26.590413
20
14.450488
30
0
11
26.623271
21
14.804111
31
0
39
0
210
0
220
0
230
1
0
LINE
5
117
100
AcDbEntity
8
1
62
256
6
ByLayer
370
-1
48
1
60
0
100
AcDbLine
10
26.575322
20
14.464177
30
0
11
26.60837
21
14.819853
31
0
39
0
210
0
220
0
230
1
0
LINE
5
118
100
AcDbEntity
8
1
62
256
6
ByLayer
370
-1
48
1
60
0
100
AcDbLine
10
27.525854
20
11.43873
30
0
11
27.528906
21
11.471572
31
0
39
0
210
0
220
0
230
1
0
LINE
5
119
100
AcDbEntity
8
1
62
256
6
ByLayer
370
-1
48
1
60
0
100
AcDbLine
10
29.44803
20
14.442481
30
0
11
29.463121
21
14.456086
31
0
39
0
210
0
220
0
230
1
0
LINE
5
11A
100
AcDbEntity
8
1
62
256
6
ByLayer
370
-1
48
1
60
0
100
AcDbLine
10
28.575026
20
11.398561
30
0
11
28.579897
21
11.450984
31
0
39
0
210
0
220
0
230
1
0
LINE
5
11B
100
AcDbEntity
8
1
62
256
6
ByLayer
370
-1
48
1
60
0
100
AcDbLine
10
26.575322
20
14.464177
30
0
11
26.590413
21
14.450488
31
0
39
0
210
0
220
0
230
1
0
LINE
5
11C
100
AcDbEntity
8
1
62
256
6
ByLayer
370
-1
48
1
60
0
100
AcDbLine
10
29.971204
20
12.518519
30
0
11
30.004062
21
12.872142
31
0
39
0
210
0
220
0
230
1
0
LINE
5
11D
100
AcDbEntity
8
1
62
256
6
ByLayer
370
-1
48
1
60
0
100
AcDbLine
10
26.067239
20
12.529457
30
0
11
26.100097
21
12.883081
31
0
39
0
210
0
220
0
230
1
0
LINE
5
11E
100
AcDbEntity
8
1
62
256
6
ByLayer
370
-1
48
1
60
0
100
AcDbLine
10
29.971204
20
12.518519
30
0
11
29.990748
21
12.512415
31
0
39
0
210
0
220
0
230
1
0
LINE
5
11F
100
AcDbEntity
8
1
62
256
6
ByLayer
370
-1
48
1
60
0
100
AcDbLine
10
26.047694
20
12.523462
30
0
11
26.080743
21
12.879138
31
0
39
0
210
0
220
0
230
1
0
LINE
5
120
100
AcDbEntity
8
1
62
256
6
ByLayer
370
-1
48
1
60
0
100
AcDbLine
10
28.566922
20
11.378975
30
0
11
28.575253
21
11.468641
31
0
39
0
210
0
220
0
230
1
0
LINE
5
121
100
AcDbEntity
8
1
62
256
6
ByLayer
370
-1
48
1
60
0
100
AcDbLine
10
29.44803
20
14.442481
30
0
11
29.480888
21
14.796105
31
0
39
0
210
0
220
0
230
1
0
LINE
5
122
100
AcDbEntity
8
1
62
256
6
ByLayer
370
-1
48
1
60
0
100
AcDbLine
10
29.990748
20
12.512415
30
0
11
30.023797
21
12.86809
31
0
39
0
210
0
220
0
230
1
0
LINE
5
123
100
AcDbEntity
8
1
62
256
6
ByLayer
370
-1
48
1
60
0
100
AcDbLine
10
29.463121
20
14.456086
30
0
11
29.49617
21
14.811761
31
0
39
0
210
0
220
0
230
1
0
LINE
5
124
100
AcDbEntity
8
1
62
256
6
ByLayer
370
-1
48
1
60
0
100
AcDbLine
10
19.22918
20
10.660955
30
0
11
14.968836
21
9.693272
31
0
39
0
210
0
220
0
230
1
0
LINE
5
125
100
AcDbEntity
8
1
62
256
6
ByLayer
370
-1
48
1
60
0
100
AcDbLine
10
14.968836
20
9.693272
30
0
11
13.629264
21
11.98228
31
0
39
0
210
0
220
0
230
1
0
LINE
5
126
100
AcDbEntity
8
1
62
256
6
ByLayer
370
-1
48
1
60
0
100
AcDbLine
10
13.629264
20
11.98228
30
0
11
16.729539
21
14.932243
31
0
39
0
210
0
220
0
230
1
0
LINE
5
127
100
AcDbEntity
8
1
62
256
6
ByLayer
370
-1
48
1
60
0
100
AcDbLine
10
16.729539
20
14.932243
30
0
11
16.805711
21
15.869108
31
0
39
0
210
0
220
0
230
1
0
LINE
5
128
100
AcDbEntity
8
1
62
256
6
ByLayer
370
-1
48
1
60
0
100
AcDbLine
10
16.805711
20
15.869108
30
0
11
16.717605
21
14.920897
31
0
39
0
210
0
220
0
230
1
0
LINE
5
129
100
AcDbEntity
8
1
62
256
6
ByLayer
370
-1
48
1
60
0
100
AcDbLine
10
20.011148
20
10.277135
30
0
11
19.908335
21
9.170642
31
0
39
0
210
0
220
0
230
1
0
LINE
5
12A
100
AcDbEntity
8
1
62
256
6
ByLayer
370
-1
48
1
60
0
100
AcDbLine
10
19.22918
20
10.660955
30
0
11
19.124966
21
9.539386
31
0
39
0
210
0
220
0
230
1
0
LINE
5
12B
100
AcDbEntity
8
1
62
256
6
ByLayer
370
-1
48
1
60
0
100
AcDbLine
10
24.832395
20
19.159888
30
0
11
28.050788
21
19.15087
31
0
39
0
210
0
220
0
230
1
0
LINE
5
12C
100
AcDbEntity
8
1
62
256
6
ByLayer
370
-1
48
1
60
0
100
AcDbLine
10
35.968181
20
20.669821
30
0
11
35.970313
21
21.430863
31
0
39
0
210
0
220
0
230
1
0
LINE
5
12D
100
AcDbEntity
8
1
62
256
6
ByLayer
370
-1
48
1
60
0
100
AcDbLine
10
35.975759
20
15.582901
30
0
11
35.975759
21
14.737773
31
0
39
0
210
0
220
0
230
1
0
LINE
5
12E
100
AcDbEntity
8
1
62
256
6
ByLayer
370
-1
48
1
60
0
100
AcDbLine
10
23.210555
20
19.520667
30
0
11
24.832395
21
19.159888
31
0
39
0
210
0
220
0
230
1
0
LINE
5
12F
100
AcDbEntity
8
1
62
256
6
ByLayer
370
-1
48
1
60
0
100
AcDbLine
10
33.885704
20
16.577633
30
0
11
35.496699
21
16.016319
31
0
39
0
210
0
220
0
230
1
0
LINE
5
130
100
AcDbEntity
8
1
62
256
6
ByLayer
370
-1
48
1
60
0
100
AcDbLine
10
35.975759
20
15.582901
30
0
11
35.926088
21
15.61361
31
0
39
0
210
0
220
0
230
1
0
LINE
5
131
100
AcDbEntity
8
1
62
256
6
ByLayer
370
-1
48
1
60
0
100
AcDbLine
10
35.948162
20
14.231612
30
0
11
34.735281
21
13.219118
31
0
39
0
210
0
220
0
230
1
0
LINE
5
132
100
AcDbEntity
8
1
62
256
6
ByLayer
370
-1
48
1
60
0
100
AcDbLine
10
26.383092
20
5.145739
30
0
11
31.075239
21
7.589868
31
0
39
0
210
0
220
0
230
1
0
LINE
5
133
100
AcDbEntity
8
1
62
256
6
ByLayer
370
-1
48
1
60
0
100
AcDbLine
10
35.427839
20
15.700282
30
0
11
33.837051
21
16.254556
31
0
39
0
210
0
220
0
230
1
0
LINE
5
134
100
AcDbEntity
8
1
62
256
6
ByLayer
370
-1
48
1
60
0
100
AcDbLine
10
26.783258
20
21.516794
30
0
11
29.457289
21
21.509302
31
0
39
0
210
0
220
0
230
1
0
LINE
5
135
100
AcDbEntity
8
1
62
256
6
ByLayer
370
-1
48
1
60
0
100
AcDbLine
10
13.629264
20
11.98228
30
0
11
13.512919
21
10.730163
31
0
39
0
210
0
220
0
230
1
0
LINE
5
136
100
AcDbEntity
8
1
62
256
6
ByLayer
370
-1
48
1
60
0
100
AcDbLine
10
33.641844
20
10.023882
30
0
11
35.973157
21
13.994474
31
0
39
0
210
0
220
0
230
1
0
LINE
5
137
100
AcDbEntity
8
1
62
256
6
ByLayer
370
-1
48
1
60
0
100
AcDbLine
10
35.967997
20
16.495098
30
0
11
35.967997
21
20.539585
31
0
39
0
210
0
220
0
230
1
0
LINE
5
138
100
AcDbEntity
8
1
62
256
6
ByLayer
370
-1
48
1
60
0
100
AcDbLine
10
14.852491
20
8.441155
30
0
11
19.124966
21
9.539386
31
0
39
0
210
0
220
0
230
1
0
LINE
5
139
100
AcDbEntity
8
1
62
256
6
ByLayer
370
-1
48
1
60
0
100
AcDbLine
10
24.921955
20
7.800016
30
0
11
25.292784
21
6.088806
31
0
39
0
210
0
220
0
230
1
0
LINE
5
13A
100
AcDbEntity
8
1
62
256
6
ByLayer
370
-1
48
1
60
0
100
AcDbLine
10
27.883013
20
6.955672
30
0
11
30.724685
21
8.435894
31
0
39
0
210
0
220
0
230
1
0
LINE
5
13B
100
AcDbEntity
8
1
62
256
6
ByLayer
370
-1
48
1
60
0
100
AcDbLine
10
25.235805
20
8.877173
30
0
11
24.921955
21
7.800016
31
0
39
0
210
0
220
0
230
1
0
LINE
5
13C
100
AcDbEntity
8
1
62
256
6
ByLayer
370
-1
48
1
60
0
100
AcDbLine
10
24.796079
20
7.844468
30
0
11
25.109928
21
8.921624
31
0
39
0
210
0
220
0
230
1
0
LINE
5
13D
100
AcDbEntity
8
1
62
256
6
ByLayer
370
-1
48
1
60
0
100
AcDbLine
10
19.908335
20
9.170642
30
0
11
20.863842
21
7.537909
31
0
39
0
210
0
220
0
230
1
0
LINE
5
13E
100
AcDbEntity
8
1
62
256
6
ByLayer
370
-1
48
1
60
0
100
AcDbLine
10
34.735281
20
13.219118
30
0
11
33.126084
21
10.478403
31
0
39
0
210
0
220
0
230
1
0
LINE
5
13F
100
AcDbEntity
8
1
62
256
6
ByLayer
370
-1
48
1
60
0
100
AcDbLine
10
27.695493
20
7.008927
30
0
11
28.009342
21
8.086083
31
0
39
0
210
0
220
0
230
1
0
LINE
5
140
100
AcDbEntity
8
1
62
256
6
ByLayer
370
-1
48
1
60
0
100
AcDbLine
10
26.770344
20
21.509107
30
0
11
25.380608
21
20.699485
31
0
39
0
210
0
220
0
230
1
0
LINE
5
141
100
AcDbEntity
8
1
62
256
6
ByLayer
370
-1
48
1
60
0
100
AcDbLine
10
33.43026
20
13.226955
30
0
11
34.535071
21
13.49517
31
0
39
0
210
0
220
0
230
1
0
LINE
5
142
100
AcDbEntity
8
1
62
256
6
ByLayer
370
-1
48
1
60
0
100
AcDbLine
10
34.567719
20
13.377493
30
0
11
33.462908
21
13.109278
31
0
39
0
210
0
220
0
230
1
0
LINE
5
143
100
AcDbEntity
8
1
62
256
6
ByLayer
370
-1
48
1
60
0
100
AcDbLine
10
36.373015
20
0.470503
30
0
11
37.712586
21
2.752004
31
0
39
0
210
0
220
0
230
1
0
LINE
5
144
100
AcDbEntity
8
1
62
256
6
ByLayer
370
-1
48
1
60
0
100
AcDbLine
10
28.136767
20
8.058286
30
0
11
27.822917
21
6.98113
31
0
39
0
210
0
220
0
230
1
0
LINE
5
145
100
AcDbEntity
8
1
62
256
6
ByLayer
370
-1
48
1
60
0
100
AcDbLine
10
24.432876
20
20.161336
30
0
11
28.03153
21
20.151253
31
0
39
0
210
0
220
0
230
1
0
LINE
5
146
100
AcDbEntity
8
1
62
256
6
ByLayer
370
-1
48
1
60
0
100
AcDbLine
10
31.786834
20
19.080136
30
0
11
35.967997
21
16.495098
31
0
39
0
210
0
220
0
230
1
0
LINE
5
147
100
AcDbEntity
8
1
62
256
6
ByLayer
370
-1
48
1
60
0
100
AcDbLine
10
35.967997
20
20.539585
30
0
11
25.154878
21
20.569881
31
0
39
0
210
0
220
0
230
1
0
LINE
5
148
100
AcDbEntity
8
1
62
256
6
ByLayer
370
-1
48
1
60
0
100
AcDbLine
10
35.968181
20
20.669821
30
0
11
25.380608
21
20.699485
31
0
39
0
210
0
220
0
230
1
0
LINE
5
149
100
AcDbEntity
8
1
62
256
6
ByLayer
370
-1
48
1
60
0
100
AcDbLine
10
31.156352
20
18.265078
30
0
11
31.466473
21
18.623482
31
0
39
0
210
0
220
0
230
1
0
LINE
5
14A
100
AcDbEntity
8
1
62
256
6
ByLayer
370
-1
48
1
60
0
100
AcDbLine
10
28.050788
20
19.15087
30
0
11
28.03669
21
19.601751
31
0
39
0
210
0
220
0
230
1
0
LINE
5
14B
100
AcDbEntity
8
1
62
256
6
ByLayer
370
-1
48
1
60
0
100
AcDbLine
10
24.697248
20
18.861481
30
0
11
23.095751
21
19.217735
31
0
39
0
210
0
220
0
230
1
0
LINE
5
14C
100
AcDbEntity
8
1
62
256
6
ByLayer
370
-1
48
1
60
0
100
AcDbLine
10
35.732738
20
14.494966
30
0
11
33.157033
21
13.869661
31
0
39
0
210
0
220
0
230
1
0
LINE
5
14D
100
AcDbEntity
8
1
62
256
6
ByLayer
370
-1
48
1
60
0
100
AcDbLine
10
22.193911
20
13.596561
30
0
11
22.306231
21
16.764226
31
0
39
0
210
0
220
0
230
1
0
LINE
5
14E
100
AcDbEntity
8
1
62
256
6
ByLayer
370
-1
48
1
60
0
100
AcDbLine
10
31.358468
20
6.999322
30
0
11
27.005239
21
4.731734
31
0
39
0
210
0
220
0
230
1
0
LINE
5
14F
100
AcDbEntity
8
1
62
256
6
ByLayer
370
-1
48
1
60
0
100
AcDbLine
10
24.584689
20
7.757111
30
0
11
22.975492
21
10.506843
31
0
39
0
210
0
220
0
230
1
0
LINE
5
150
100
AcDbEntity
8
1
62
256
6
ByLayer
370
-1
48
1
60
0
100
AcDbLine
10
30.674394
20
2.63706
30
0
11
35.968181
21
11.653211
31
0
39
0
210
0
220
0
230
1
0
LINE
5
151
100
AcDbEntity
8
1
62
256
6
ByLayer
370
-1
48
1
60
0
100
AcDbLine
10
22.62173
20
16.893185
30
0
11
23.412691
21
16.084243
31
0
39
0
210
0
220
0
230
1
0
LINE
5
152
100
AcDbEntity
8
1
62
256
6
ByLayer
370
-1
48
1
60
0
100
AcDbLine
10
21.75382
20
18.697998
30
0
11
21.568358
21
13.467575
31
0
39
0
210
0
220
0
230
1
0
LINE
5
153
100
AcDbEntity
8
1
62
256
6
ByLayer
370
-1
48
1
60
0
100
AcDbLine
10
30.802101
20
8.274477
30
0
11
31.075239
21
7.589868
31
0
39
0
210
0
220
0
230
1
0
LINE
5
154
100
AcDbEntity
8
1
62
256
6
ByLayer
370
-1
48
1
60
0
100
AcDbLine
10
33.126084
20
10.478403
30
0
11
33.641844
21
10.023882
31
0
39
0
210
0
220
0
230
1
0
LINE
5
155
100
AcDbEntity
8
1
62
256
6
ByLayer
370
-1
48
1
60
0
100
AcDbLine
10
23.318688
20
16.002691
30
0
11
22.527728
21
16.811632
31
0
39
0
210
0
220
0
230
1
0
LINE
5
156
100
AcDbEntity
8
1
62
256
6
ByLayer
370
-1
48
1
60
0
100
AcDbLine
10
23.122312
20
10.604301
30
0
11
24.731508
21
7.854569
31
0
39
0
210
0
220
0
230
1
0
LINE
5
157
100
AcDbEntity
8
1
62
256
6
ByLayer
370
-1
48
1
60
0
100
AcDbLine
10
13.512919
20
10.730163
30
0
11
14.852491
21
8.441155
31
0
39
0
210
0
220
0
230
1
0
LINE
5
158
100
AcDbEntity
8
1
62
256
6
ByLayer
370
-1
48
1
60
0
100
AcDbLine
10
22.475444
20
16.773162
30
0
11
22.363123
21
13.605497
31
0
39
0
210
0
220
0
230
1
0
LINE
5
159
100
AcDbEntity
8
1
62
256
6
ByLayer
370
-1
48
1
60
0
100
AcDbLine
10
25.292784
20
6.088806
30
0
11
26.024479
21
8.600041
31
0
39
0
210
0
220
0
230
1
0
LINE
5
15A
100
AcDbEntity
8
1
62
256
6
ByLayer
370
-1
48
1
60
0
100
AcDbLine
10
27.235977
20
8.254488
30
0
11
26.504282
21
5.743253
31
0
39
0
210
0
220
0
230
1
0
LINE
5
15B
100
AcDbEntity
8
1
62
256
6
ByLayer
370
-1
48
1
60
0
100
AcDbLine
10
26.189196
20
5.342528
30
0
11
27.125576
21
8.556258
31
0
39
0
210
0
220
0
230
1
0
LINE
5
15C
100
AcDbEntity
8
1
62
256
6
ByLayer
370
-1
48
1
60
0
100
AcDbLine
10
23.693717
20
6.624119
30
0
11
21.89439
21
9.698738
31
0
39
0
210
0
220
0
230
1
0
LINE
5
15D
100
AcDbEntity
8
1
62
256
6
ByLayer
370
-1
48
1
60
0
100
AcDbLine
10
26.284762
20
8.796081
30
0
11
25.394385
21
5.740236
31
0
39
0
210
0
220
0
230
1
0
LINE
5
15E
100
AcDbEntity
8
1
62
256
6
ByLayer
370
-1
48
1
60
0
100
AcDbLine
10
20.949288
20
13.434881
30
0
11
21.121354
21
18.287507
31
0
39
0
210
0
220
0
230
1
0
LINE
5
15F
100
AcDbEntity
8
1
62
256
6
ByLayer
370
-1
48
1
60
0
100
AcDbLine
10
17.452566
20
16.213393
30
0
11
22.746353
21
7.167578
31
0
39
0
210
0
220
0
230
1
0
LINE
5
160
100
AcDbEntity
8
1
62
256
6
ByLayer
370
-1
48
1
60
0
100
AcDbLine
10
22.193911
20
13.596561
30
0
11
21.568358
21
13.467575
31
0
39
0
210
0
220
0
230
1
0
LINE
5
161
100
AcDbEntity
8
1
62
256
6
ByLayer
370
-1
48
1
60
0
100
AcDbLine
10
22.975492
20
10.506843
30
0
11
22.431535
21
10.055292
31
0
39
0
210
0
220
0
230
1
0
LINE
5
162
100
AcDbEntity
8
1
62
256
6
ByLayer
370
-1
48
1
60
0
100
AcDbLine
10
23.095751
20
19.217735
30
0
11
24.939761
21
17.331805
31
0
39
0
210
0
220
0
230
1
0
LINE
5
163
100
AcDbEntity
8
1
62
256
6
ByLayer
370
-1
48
1
60
0
100
AcDbLine
10
24.033163
20
16.472041
30
0
11
22.189152
21
18.357971
31
0
39
0
210
0
220
0
230
1
0
LINE
5
164
100
AcDbEntity
8
1
62
256
6
ByLayer
370
-1
48
1
60
0
100
AcDbLine
10
22.002592
20
18.808809
30
0
11
24.362447
21
16.395308
31
0
39
0
210
0
220
0
230
1
0
LINE
5
165
100
AcDbEntity
8
1
62
256
6
ByLayer
370
-1
48
1
60
0
100
AcDbLine
10
24.991653
20
16.992008
30
0
11
22.747732
21
19.286939
31
0
39
0
210
0
220
0
230
1
0
LINE
5
166
100
AcDbEntity
8
1
62
256
6
ByLayer
370
-1
48
1
60
0
100
AcDbLine
10
32.231718
20
1.558221
30
0
11
36.373015
21
0.470503
31
0
39
0
210
0
220
0
230
1
0
LINE
5
167
100
AcDbEntity
8
1
62
256
6
ByLayer
370
-1
48
1
60
0
100
AcDbLine
10
32.982085
20
10.576675
30
0
11
34.591282
21
13.31739
31
0
39
0
210
0
220
0
230
1
0
LINE
5
168
100
AcDbEntity
8
1
62
256
6
ByLayer
370
-1
48
1
60
0
100
AcDbLine
10
36.489359
20
1.722619
30
0
11
36.373015
21
0.470503
31
0
39
0
210
0
220
0
230
1
0
LINE
5
169
100
AcDbEntity
8
1
62
256
6
ByLayer
370
-1
48
1
60
0
100
AcDbLine
10
35.867808
20
8.978772
30
0
11
35.970622
21
10.085265
31
0
39
0
210
0
220
0
230
1
0
LINE
5
16A
100
AcDbEntity
8
1
62
256
6
ByLayer
370
-1
48
1
60
0
100
AcDbLine
10
34.633606
20
7.808117
30
0
11
34.704395
21
6.971525
31
0
39
0
210
0
220
0
230
1
0
LINE
5
16B
100
AcDbEntity
8
1
62
256
6
ByLayer
370
-1
48
1
60
0
100
AcDbLine
10
34.704395
20
6.971525
30
0
11
37.828931
21
4.004121
31
0
39
0
210
0
220
0
230
1
0
LINE
5
16C
100
AcDbEntity
8
1
62
256
6
ByLayer
370
-1
48
1
60
0
100
AcDbLine
10
37.828931
20
4.004121
30
0
11
36.489359
21
1.722619
31
0
39
0
210
0
220
0
230
1
0
LINE
5
16D
100
AcDbEntity
8
1
62
256
6
ByLayer
370
-1
48
1
60
0
100
AcDbLine
10
36.489359
20
1.722619
30
0
11
32.204754
21
2.714244
31
0
39
0
210
0
220
0
230
1
0
LINE
5
16E
100
AcDbEntity
8
1
62
256
6
ByLayer
370
-1
48
1
60
0
100
AcDbLine
10
32.204754
20
2.714244
30
0
11
31.325514
21
2.289139
31
0
39
0
210
0
220
0
230
1
0
LINE
5
16F
100
AcDbEntity
8
1
62
256
6
ByLayer
370
-1
48
1
60
0
100
AcDbLine
10
31.325514
20
2.289139
30
0
11
31.30673
21
2.086982
31
0
39
0
210
0
220
0
230
1
0
LINE
5
170
100
AcDbEntity
8
1
62
256
6
ByLayer
370
-1
48
1
60
0
100
AcDbLine
10
17.565156
20
16.275228
30
0
11
22.971715
21
7.03671
31
0
39
0
210
0
220
0
230
1
0
LINE
5
171
100
AcDbEntity
8
1
62
256
6
ByLayer
370
-1
48
1
60
0
100
AcDbLine
10
32.70114
20
16.120672
30
0
11
33.805951
21
16.388887
31
0
39
0
210
0
220
0
230
1
0
LINE
5
172
100
AcDbEntity
8
1
62
256
6
ByLayer
370
-1
48
1
60
0
100
AcDbLine
10
35.973157
20
13.994474
30
0
11
35.975866
21
14.255259
31
0
39
0
210
0
220
0
230
1
0
LINE
5
173
100
AcDbEntity
8
1
62
256
6
ByLayer
370
-1
48
1
60
0
100
AcDbLine
10
28.052198
20
19.000673
30
0
11
24.833805
21
19.00969
31
0
39
0
210
0
220
0
230
1
0
LINE
5
174
100
AcDbEntity
8
1
62
256
6
ByLayer
370
-1
48
1
60
0
100
AcDbLine
10
27.960429
20
6.794256
30
0
11
26.754087
21
5.512506
31
0
39
0
210
0
220
0
230
1
0
LINE
5
175
100
AcDbEntity
8
1
62
256
6
ByLayer
370
-1
48
1
60
0
100
AcDbLine
10
33.798139
20
16.452815
30
0
11
31.068787
21
18.140259
31
0
39
0
210
0
220
0
230
1
0
LINE
5
176
100
AcDbEntity
8
1
62
256
6
ByLayer
370
-1
48
1
60
0
100
AcDbLine
10
26.137481
20
5.31559
30
0
11
26.189196
21
5.342528
31
0
39
0
210
0
220
0
230
1
0
LINE
5
177
100
AcDbEntity
8
1
62
256
6
ByLayer
370
-1
48
1
60
0
100
AcDbLine
10
35.973157
20
15.837188
30
0
11
31.466473
21
18.623482
31
0
39
0
210
0
220
0
230
1
0
LINE
5
178
100
AcDbEntity
8
1
62
256
6
ByLayer
370
-1
48
1
60
0
100
AcDbLine
10
24.960227
20
6.024164
30
0
11
24.584689
21
7.757111
31
0
39
0
210
0
220
0
230
1
0
LINE
5
179
100
AcDbEntity
8
1
62
256
6
ByLayer
370
-1
48
1
60
0
100
AcDbLine
10
28.03669
20
19.601751
30
0
11
23.374064
21
19.614815
31
0
39
0
210
0
220
0
230
1
0
LINE
5
17A
100
AcDbEntity
8
1
62
256
6
ByLayer
370
-1
48
1
60
0
100
AcDbLine
10
26.343383
20
5.178821
30
0
11
26.383092
21
5.145739
31
0
39
0
210
0
220
0
230
1
0
LINE
5
17B
100
AcDbEntity
8
1
62
256
6
ByLayer
370
-1
48
1
60
0
100
AcDbLine
10
22.189152
20
18.357971
30
0
11
22.62173
21
16.893185
31
0
39
0
210
0
220
0
230
1
0
LINE
5
17C
100
AcDbEntity
8
1
62
256
6
ByLayer
370
-1
48
1
60
0
100
AcDbLine
10
22.971715
20
7.03671
30
0
11
23.693717
21
6.624119
31
0
39
0
210
0
220
0
230
1
0
LINE
5
17D
100
AcDbEntity
8
1
62
256
6
ByLayer
370
-1
48
1
60
0
100
AcDbLine
10
21.361175
20
7.984974
30
0
11
21.331282
21
7.66326
31
0
39
0
210
0
220
0
230
1
0
LINE
5
17E
100
AcDbEntity
8
1
62
256
6
ByLayer
370
-1
48
1
60
0
100
AcDbLine
10
21.121354
20
18.287507
30
0
11
17.565156
21
16.275228
31
0
39
0
210
0
220
0
230
1
0
LINE
5
17F
100
AcDbEntity
8
1
62
256
6
ByLayer
370
-1
48
1
60
0
100
AcDbLine
10
17.452566
20
16.213393
30
0
11
16.805711
21
15.869108
31
0
39
0
210
0
220
0
230
1
0
LINE
5
180
100
AcDbEntity
8
1
62
256
6
ByLayer
370
-1
48
1
60
0
100
AcDbLine
10
21.361175
20
7.984974
30
0
11
22.746353
21
7.167578
31
0
39
0
210
0
220
0
230
1
0
LINE
5
181
100
AcDbEntity
8
1
62
256
6
ByLayer
370
-1
48
1
60
0
100
AcDbLine
10
32.841461
20
13.976859
30
0
11
35.975759
21
14.737773
31
0
39
0
210
0
220
0
230
1
0
LINE
5
182
100
AcDbEntity
8
1
62
256
6
ByLayer
370
-1
48
1
60
0
100
AcDbLine
10
26.504282
20
5.743253
30
0
11
27.695493
21
7.008927
31
0
39
0
210
0
220
0
230
1
0
LINE
5
183
100
AcDbEntity
8
1
62
256
6
ByLayer
370
-1
48
1
60
0
100
AcDbLine
10
22.306231
20
16.764226
30
0
11
21.868159
21
18.247619
31
0
39
0
210
0
220
0
230
1
0
LINE
5
184
100
AcDbEntity
8
1
62
256
6
ByLayer
370
-1
48
1
60
0
100
AcDbLine
10
22.004636
20
18.866457
30
0
11
22.002592
21
18.808809
31
0
39
0
210
0
220
0
230
1
0
LINE
5
185
100
AcDbEntity
8
1
62
256
6
ByLayer
370
-1
48
1
60
0
100
AcDbLine
10
29.457289
20
21.509302
30
0
11
30.172671
21
22.007299
31
0
39
0
210
0
220
0
230
1
0
LINE
5
186
100
AcDbEntity
8
1
62
256
6
ByLayer
370
-1
48
1
60
0
100
AcDbLine
10
30.172671
20
22.007299
30
0
11
31.34487
21
26.334032
31
0
39
0
210
0
220
0
230
1
0
LINE
5
187
100
AcDbEntity
8
1
62
256
6
ByLayer
370
-1
48
1
60
0
100
AcDbLine
10
31.34487
20
26.334032
30
0
11
34.024014
21
26.326525
31
0
39
0
210
0
220
0
230
1
0
LINE
5
188
100
AcDbEntity
8
1
62
256
6
ByLayer
370
-1
48
1
60
0
100
AcDbLine
10
34.024014
20
26.326525
30
0
11
35.171952
21
21.993292
31
0
39
0
210
0
220
0
230
1
0
LINE
5
189
100
AcDbEntity
8
1
62
256
6
ByLayer
370
-1
48
1
60
0
100
AcDbLine
10
35.171952
20
21.993292
30
0
11
35.970313
21
21.430863
31
0
39
0
210
0
220
0
230
1
0
LINE
5
18A
100
AcDbEntity
8
1
62
256
6
ByLayer
370
-1
48
1
60
0
100
AcDbLine
10
22.004636
20
18.866457
30
0
11
22.747732
21
19.286939
31
0
39
0
210
0
220
0
230
1
0
LINE
5
18B
100
AcDbEntity
8
1
62
256
6
ByLayer
370
-1
48
1
60
0
100
AcDbLine
10
14.968836
20
9.693272
30
0
11
14.852491
21
8.441155
31
0
39
0
210
0
220
0
230
1
0
LINE
5
18C
100
AcDbEntity
8
1
62
256
6
ByLayer
370
-1
48
1
60
0
100
AcDbLine
10
35.974073
20
15.80085
30
0
11
35.973157
21
15.837188
31
0
39
0
210
0
220
0
230
1
0
LINE
5
18D
100
AcDbEntity
8
1
62
256
6
ByLayer
370
-1
48
1
60
0
100
AcDbLine
10
21.795362
20
18.730852
30
0
11
21.75382
21
18.697998
31
0
39
0
210
0
220
0
230
1
0
LINE
5
18E
100
AcDbEntity
8
1
62
256
6
ByLayer
370
-1
48
1
60
0
100
AcDbLine
10
23.374064
20
19.614815
30
0
11
23.173113
21
19.528733
31
0
39
0
210
0
220
0
230
1
0
LINE
5
18F
100
AcDbEntity
8
1
62
256
6
ByLayer
370
-1
48
1
60
0
100
AcDbLine
10
32.852134
20
15.074977
30
0
11
35.427839
21
15.700282
31
0
39
0
210
0
220
0
230
1
0
LINE
5
190
100
AcDbEntity
8
1
62
256
6
ByLayer
370
-1
48
1
60
0
100
AcDbLine
10
19.124966
20
9.539386
30
0
11
19.908335
21
9.170642
31
0
39
0
210
0
220
0
230
1
0
LINE
5
191
100
AcDbEntity
8
1
62
256
6
ByLayer
370
-1
48
1
60
0
100
AcDbLine
10
30.561437
20
2.699527
30
0
11
35.967997
21
11.907748
31
0
39
0
210
0
220
0
230
1
0
LINE
5
192
100
AcDbEntity
8
1
62
256
6
ByLayer
370
-1
48
1
60
0
100
AcDbLine
10
34.535071
20
13.49517
30
0
11
35.732738
21
14.494966
31
0
39
0
210
0
220
0
230
1
0
LINE
5
193
100
AcDbEntity
8
1
62
256
6
ByLayer
370
-1
48
1
60
0
100
AcDbLine
10
31.156352
20
18.265078
30
0
11
33.885704
21
16.577633
31
0
39
0
210
0
220
0
230
1
0
LINE
5
194
100
AcDbEntity
8
1
62
256
6
ByLayer
370
-1
48
1
60
0
100
AcDbLine
10
33.837051
20
16.254556
30
0
11
32.732241
21
15.986341
31
0
39
0
210
0
220
0
230
1
0
LINE
5
195
100
AcDbEntity
8
1
62
256
6
ByLayer
370
-1
48
1
60
0
100
AcDbLine
10
25.488208
20
18.052539
30
0
11
24.697248
21
18.861481
31
0
39
0
210
0
220
0
230
1
0
LINE
5
196
100
AcDbEntity
8
1
62
256
6
ByLayer
370
-1
48
1
60
0
100
AcDbLine
10
24.792798
20
18.959688
30
0
11
25.583758
21
18.150747
31
0
39
0
210
0
220
0
230
1
0
LINE
5
197
100
AcDbEntity
8
1
62
256
6
ByLayer
370
-1
48
1
60
0
100
AcDbLine
10
34.702494
20
6.994059
30
0
11
35.867808
21
8.978772
31
0
39
0
210
0
220
0
230
1
0
LINE
5
198
100
AcDbEntity
8
1
62
256
6
ByLayer
370
-1
48
1
60
0
100
AcDbLine
10
27.005239
20
4.731734
30
0
11
30.561437
21
2.699527
31
0
39
0
210
0
220
0
230
1
0
LINE
5
199
100
AcDbEntity
8
1
62
256
6
ByLayer
370
-1
48
1
60
0
100
AcDbLine
10
30.674394
20
2.63706
30
0
11
31.325514
21
2.289139
31
0
39
0
210
0
220
0
230
1
0
LINE
5
19A
100
AcDbEntity
8
1
62
256
6
ByLayer
370
-1
48
1
60
0
100
AcDbLine
10
35.97046
20
10.099775
30
0
11
35.968181
21
11.653211
31
0
39
0
210
0
220
0
230
1
0
LINE
5
19B
100
AcDbEntity
8
1
62
256
6
ByLayer
370
-1
48
1
60
0
100
AcDbLine
10
37.828931
20
4.004121
30
0
11
37.712586
21
2.752004
31
0
39
0
210
0
220
0
230
1
0
LINE
5
19C
100
AcDbEntity
8
1
62
256
6
ByLayer
370
-1
48
1
60
0
100
AcDbLine
10
35.926088
20
15.61361
30
0
11
32.629852
21
14.813382
31
0
39
0
210
0
220
0
230
1
0
LINE
5
19D
100
AcDbEntity
8
1
62
256
6
ByLayer
370
-1
48
1
60
0
100
AcDbLine
10
35.967997
20
12.728885
30
0
11
34.16867
21
9.664348
31
0
39
0
210
0
220
0
230
1
0
LINE
5
19E
100
AcDbEntity
8
1
62
256
6
ByLayer
370
-1
48
1
60
0
100
AcDbLine
10
32.204754
20
2.714244
30
0
11
32.104117
21
1.631177
31
0
39
0
210
0
220
0
230
1
0
LINE
5
19F
100
AcDbEntity
8
1
62
256
6
ByLayer
370
-1
48
1
60
0
100
AcDbLine
10
22.431535
20
10.055292
30
0
11
24.762848
21
6.071636
31
0
39
0
210
0
220
0
230
1
0
LINE
5
1A0
100
AcDbEntity
8
1
62
256
6
ByLayer
370
-1
48
1
60
0
100
AcDbLine
10
21.348164
20
7.992495
30
0
11
20.011148
21
10.277135
31
0
39
0
210
0
220
0
230
1
0
LINE
5
1A1
100
AcDbEntity
8
1
62
256
6
ByLayer
370
-1
48
1
60
0
100
AcDbLine
10
35.970622
20
10.085265
30
0
11
34.633606
21
7.808117
31
0
39
0
210
0
220
0
230
1
0
LINE
5
1A2
100
AcDbEntity
8
1
62
256
6
ByLayer
370
-1
48
1
60
0
100
AcDbLine
10
21.317728
20
7.664939
30
0
11
21.348164
21
7.992495
31
0
39
0
210
0
220
0
230
1
0
LINE
5
1A3
100
AcDbEntity
8
1
62
256
6
ByLayer
370
-1
48
1
60
0
100
AcDbLine
10
20.011148
20
10.277135
30
0
11
19.22918
21
10.660955
31
0
39
0
210
0
220
0
230
1
0
LINE
5
1A4
100
AcDbEntity
8
1
62
256
6
ByLayer
370
-1
48
1
60
0
100
AcDbLine
10
25.154878
20
20.569881
30
0
11
24.432876
21
20.161336
31
0
39
0
210
0
220
0
230
1
0
LINE
5
1A5
100
AcDbEntity
8
1
62
256
6
ByLayer
370
-1
48
1
60
0
100
AcDbLine
10
30.802101
20
8.274477
30
0
11
27.960429
21
6.794256
31
0
39
0
210
0
220
0
230
1
0
LINE
5
1A6
100
AcDbEntity
8
1
62
256
6
ByLayer
370
-1
48
1
60
0
100
AcDbLine
10
24.762848
20
6.071636
30
0
11
24.969218
21
5.984413
31
0
39
0
210
0
220
0
230
1
0
LINE
5
1A7
100
AcDbEntity
8
1
62
256
6
ByLayer
370
-1
48
1
60
0
100
AcDbLine
10
26.137481
20
5.31559
30
0
11
25.394385
21
5.740236
31
0
39
0
210
0
220
0
230
1
0
LINE
5
1A8
100
AcDbEntity
8
1
62
256
6
ByLayer
370
-1
48
1
60
0
100
AcDbLine
10
35.967997
20
11.907748
30
0
11
35.967997
21
12.728885
31
0
39
0
210
0
220
0
230
1
0
LINE
5
1A9
100
AcDbEntity
8
SK1
62
256
6
ByLayer
370
-1
48
1
60
0
100
AcDbLine
10
-0.324519
20
18.999731
30
0
11
-0.324519
21
19
31
0
39
0
210
0
220
0
230
1
0
LINE
5
1AA
100
AcDbEntity
8
SK1
62
256
6
ByLayer
370
-1
48
1
60
0
100
AcDbLine
10
-0.324519
20
-19
30
0
11
-0.324519
21
-18.999731
31
0
39
0
210
0
220
0
230
1
0
LINE
5
1AB
100
AcDbEntity
8
SK1
62
256
6
ByLayer
370
-1
48
1
60
0
100
AcDbLine
10
-0.324519
20
9.241515
30
0
11
-0.324519
21
6.373757
31
0
39
0
210
0
220
0
230
1
0
LINE
5
1AC
100
AcDbEntity
8
SK1
62
256
6
ByLayer
370
-1
48
1
60
0
100
AcDbLine
10
-0.324519
20
-6.373757
30
0
11
-0.324519
21
-9.241515
31
0
39
0
210
0
220
0
230
1
0
LINE
5
1AD
100
AcDbEntity
8
SK1
62
256
6
ByLayer
370
-1
48
1
60
0
100
AcDbLine
10
-0.249519
20
-12.071893
30
0
11
-0.249519
21
-13.240729
31
0
39
0
210
0
220
0
230
1
0
LINE
5
1AE
100
AcDbEntity
8
SK1
62
256
6
ByLayer
370
-1
48
1
60
0
100
AcDbLine
10
0
20
-13.450703
30
0
11
0
21
-12.631051
31
0
39
0
210
0
220
0
230
1
0
LINE
5
1AF
100
AcDbEntity
8
SK1
62
256
6
ByLayer
370
-1
48
1
60
0
100
AcDbLine
10
0
20
12.631051
30
0
11
0
21
13.450703
31
0
39
0
210
0
220
0
230
1
0
LINE
5
1B0
100
AcDbEntity
8
SK1
62
256
6
ByLayer
370
-1
48
1
60
0
100
AcDbLine
10
-0.249519
20
16.692674
30
0
11
-0.249519
21
16.074887
31
0
39
0
210
0
220
0
230
1
0
LINE
5
1B1
100
AcDbEntity
8
SK1
62
256
6
ByLayer
370
-1
48
1
60
0
100
AcDbLine
10
-0.324519
20
-15.901587
30
0
11
-0.324519
21
-16.678463
31
0
39
0
210
0
220
0
230
1
0
LINE
5
1B2
100
AcDbEntity
8
SK1
62
256
6
ByLayer
370
-1
48
1
60
0
100
AcDbLine
10
-0.249519
20
17.438125
30
0
11
-0.249519
21
16.939826
31
0
39
0
210
0
220
0
230
1
0
LINE
5
1B3
100
AcDbEntity
8
SK1
62
256
6
ByLayer
370
-1
48
1
60
0
100
AcDbLine
10
-0.324519
20
17.413335
30
0
11
-0.324519
21
16.787098
31
0
39
0
210
0
220
0
230
1
0
LINE
5
1B4
100
AcDbEntity
8
SK1
62
256
6
ByLayer
370
-1
48
1
60
0
100
AcDbLine
10
-0.249519
20
18.028616
30
0
11
-0.249519
21
17.635622
31
0
39
0
210
0
220
0
230
1
0
LINE
5
1B5
100
AcDbEntity
8
SK1
62
256
6
ByLayer
370
-1
48
1
60
0
100
AcDbLine
10
-0.249519
20
18.479011
30
0
11
-0.249519
21
18.181625
31
0
39
0
210
0
220
0
230
1
0
LINE
5
1B6
100
AcDbEntity
8
SK1
62
256
6
ByLayer
370
-1
48
1
60
0
100
AcDbLine
10
-0.249519
20
-18.181625
30
0
11
-0.249519
21
-18.479011
31
0
39
0
210
0
220
0
230
1
0
LINE
5
1B7
100
AcDbEntity
8
SK1
62
256
6
ByLayer
370
-1
48
1
60
0
100
AcDbLine
10
-0.324519
20
-18.061058
30
0
11
-0.324519
21
-18.434491
31
0
39
0
210
0
220
0
230
1
0
LINE
5
1B8
100
AcDbEntity
8
SK1
62
256
6
ByLayer
370
-1
48
1
60
0
100
AcDbLine
10
-0.249519
20
18.799379
30
0
11
-0.249519
21
18.591085
31
0
39
0
210
0
220
0
230
1
0
LINE
5
1B9
100
AcDbEntity
8
SK1
62
256
6
ByLayer
370
-1
48
1
60
0
100
AcDbLine
10
-0.249519
20
-18.591085
30
0
11
-0.249519
21
-18.799379
31
0
39
0
210
0
220
0
230
1
0
LINE
5
1BA
100
AcDbEntity
8
SK1
62
256
6
ByLayer
370
-1
48
1
60
0
100
AcDbLine
10
-0.324519
20
18.745228
30
0
11
-0.324519
21
18.483743
31
0
39
0
210
0
220
0
230
1
0
LINE
5
1BB
100
AcDbEntity
8
SK1
62
256
6
ByLayer
370
-1
48
1
60
0
100
AcDbLine
10
-0.249519
20
18.996302
30
0
11
-0.249519
21
18.87287
31
0
39
0
210
0
220
0
230
1
0
LINE
5
1BC
100
AcDbEntity
8
SK1
62
256
6
ByLayer
370
-1
48
1
60
0
100
AcDbLine
10
-0.324519
20
-18.777527
30
0
11
-0.324519
21
-18.932424
31
0
39
0
210
0
220
0
230
1
0
LINE
5
1BD
100
AcDbEntity
8
SK1
62
256
6
ByLayer
370
-1
48
1
60
0
100
AcDbLine
10
-0.324519
20
18.932424
30
0
11
-0.324519
21
18.777527
31
0
39
0
210
0
220
0
230
1
0
LINE
5
1BE
100
AcDbEntity
8
SK1
62
256
6
ByLayer
370
-1
48
1
60
0
100
AcDbLine
10
-0.324519
20
-18.948416
30
0
11
-0.324519
21
-18.999731
31
0
39
0
210
0
220
0
230
1
0
LINE
5
1BF
100
AcDbEntity
8
SK1
62
256
6
ByLayer
370
-1
48
1
60
0
100
AcDbLine
10
-0.324519
20
18.999731
30
0
11
-0.324519
21
18.948416
31
0
39
0
210
0
220
0
230
1
0
LINE
5
1C0
100
AcDbEntity
8
SK1
62
256
6
ByLayer
370
-1
48
1
60
0
100
AcDbLine
10
0
20
18.242708
30
0
11
0
21
17.963025
31
0
39
0
210
0
220
0
230
1
0
LINE
5
1C1
100
AcDbEntity
8
1
62
256
6
ByLayer
370
-1
48
1
60
0
100
AcDbLine
10
24.456203
20
20.174512
30
0
11
23.808936
21
20.176183
31
0
39
0
210
0
220
0
230
1
0
LINE
5
1C2
100
AcDbEntity
8
SK1
62
256
6
ByLayer
370
-1
48
1
60
0
100
AcDbLine
10
0
20
-17.647136
30
0
11
0
21
-17.292952
31
0
39
0
210
0
220
0
230
1
0
LINE
5
1C3
100
AcDbEntity
8
SK1
62
256
6
ByLayer
370
-1
48
1
60
0
100
AcDbLine
10
0
20
19.32088
30
0
11
0
21
19.291583
31
0
39
0
210
0
220
0
230
1
0
LINE
5
1C4
100
AcDbEntity
8
SK1
62
256
6
ByLayer
370
-1
48
1
60
0
100
AcDbLine
10
0
20
19.32088
30
0
11
0
21
19.324519
31
0
39
0
210
0
220
0
230
1
0
LINE
5
1C5
100
AcDbEntity
8
SK1
62
256
6
ByLayer
370
-1
48
1
60
0
100
AcDbLine
10
0
20
-15.974086
30
0
11
0
21
-15.43684
31
0
39
0
210
0
220
0
230
1
0
LINE
5
1C6
100
AcDbEntity
8
SK1
62
256
6
ByLayer
370
-1
48
1
60
0
100
AcDbLine
10
0
20
14.842386
30
0
11
0
21
14.183485
31
0
39
0
210
0
220
0
230
1
0
LINE
5
1C7
100
AcDbEntity
8
SK1
62
256
6
ByLayer
370
-1
48
1
60
0
100
AcDbLine
10
0
20
15.43684
30
0
11
0
21
15.974086
31
0
39
0
210
0
220
0
230
1
0
LINE
5
1C8
100
AcDbEntity
8
SK1
62
256
6
ByLayer
370
-1
48
1
60
0
100
AcDbLine
10
0
20
5.98301
30
0
11
0
21
2.769573
31
0
39
0
210
0
220
0
230
1
0
LINE
5
1C9
100
AcDbEntity
8
SK1
62
256
6
ByLayer
370
-1
48
1
60
0
100
AcDbLine
10
0
20
-2.769573
30
0
11
0
21
-5.98301
31
0
39
0
210
0
220
0
230
1
0
LINE
5
1CA
100
AcDbEntity
8
SK1
62
256
6
ByLayer
370
-1
48
1
60
0
100
AcDbLine
10
0
20
11.706682
30
0
11
0
21
10.649788
31
0
39
0
210
0
220
0
230
1
0
LINE
5
1CB
100
AcDbEntity
8
SK1
62
256
6
ByLayer
370
-1
48
1
60
0
100
AcDbLine
10
0
20
-10.649788
30
0
11
0
21
-11.706682
31
0
39
0
210
0
220
0
230
1
0
LINE
5
1CC
100
AcDbEntity
8
SK1
62
256
6
ByLayer
370
-1
48
1
60
0
100
AcDbLine
10
0
20
-14.183485
30
0
11
0
21
-14.842386
31
0
39
0
210
0
220
0
230
1
0
LINE
5
1CD
100
AcDbEntity
8
SK1
62
256
6
ByLayer
370
-1
48
1
60
0
100
AcDbLine
10
0
20
19.027517
30
0
11
0
21
18.879056
31
0
39
0
210
0
220
0
230
1
0
LINE
5
1CE
100
AcDbEntity
8
SK1
62
256
6
ByLayer
370
-1
48
1
60
0
100
AcDbLine
10
0
20
-19.324519
30
0
11
0
21
-19.32088
31
0
39
0
210
0
220
0
230
1
0
LINE
5
1CF
100
AcDbEntity
8
SK1
62
256
6
ByLayer
370
-1
48
1
60
0
100
AcDbLine
10
0
20
-19.233341
30
0
11
0
21
-19.145388
31
0
39
0
210
0
220
0
230
1
0
LINE
5
1D0
100
AcDbEntity
8
SK1
62
256
6
ByLayer
370
-1
48
1
60
0
100
AcDbLine
10
0
20
17.292952
30
0
11
0
21
17.647136
31
0
39
0
210
0
220
0
230
1
0
LINE
5
1D1
100
AcDbEntity
8
SK1
62
256
6
ByLayer
370
-1
48
1
60
0
100
AcDbLine
10
0
20
18.699503
30
0
11
0
21
18.879126
31
0
39
0
210
0
220
0
230
1
0
LINE
5
1D2
100
AcDbEntity
8
SK1
62
256
6
ByLayer
370
-1
48
1
60
0
100
AcDbLine
10
-0.324519
20
17.993814
30
0
11
-0.324519
21
18.061069
31
0
39
0
210
0
220
0
230
1
0
LINE
5
1D3
100
AcDbEntity
8
SK1
62
256
6
ByLayer
370
-1
48
1
60
0
100
AcDbLine
10
-0.324519
20
-16.787151
30
0
11
-0.324519
21
-16.678463
31
0
39
0
210
0
220
0
230
1
0
LINE
5
1D4
100
AcDbEntity
8
SK1
62
256
6
ByLayer
370
-1
48
1
60
0
100
AcDbLine
10
-0.324519
20
-18.77754
30
0
11
-0.324519
21
-18.745228
31
0
39
0
210
0
220
0
230
1
0
LINE
5
1D5
100
AcDbEntity
8
SK1
62
256
6
ByLayer
370
-1
48
1
60
0
100
AcDbLine
10
-0.324519
20
15.767626
30
0
11
-0.324519
21
15.901621
31
0
39
0
210
0
220
0
230
1
0
LINE
5
1D6
100
AcDbEntity
8
SK1
62
256
6
ByLayer
370
-1
48
1
60
0
100
AcDbLine
10
0
20
-18.487737
30
0
11
0
21
-18.242708
31
0
39
0
210
0
220
0
230
1
0
LINE
5
1D7
100
AcDbEntity
8
SK1
62
256
6
ByLayer
370
-1
48
1
60
0
100
AcDbLine
10
-0.324519
20
14.648035
30
0
11
-0.324519
21
13.534838
31
0
39
0
210
0
220
0
230
1
0
LINE
5
1D8
100
AcDbEntity
8
SK1
62
256
6
ByLayer
370
-1
48
1
60
0
100
AcDbLine
10
-0.324519
20
13.266944
30
0
11
-0.324519
21
13.470997
31
0
39
0
210
0
220
0
230
1
0
LINE
5
1D9
100
AcDbEntity
8
SK1
62
256
6
ByLayer
370
-1
48
1
60
0
100
AcDbLine
10
0
20
-19.145402
30
0
11
0
21
-19.027517
31
0
39
0
210
0
220
0
230
1
0
LINE
5
1DA
100
AcDbEntity
8
SK1
62
256
6
ByLayer
370
-1
48
1
60
0
100
AcDbLine
10
-0.324519
20
5.775161
30
0
11
-0.324519
21
-5.775161
31
0
39
0
210
0
220
0
230
1
0
LINE
5
1DB
100
AcDbEntity
8
SK1
62
256
6
ByLayer
370
-1
48
1
60
0
100
AcDbLine
10
-0.324519
20
5.775161
30
0
11
-0.324519
21
6.373939
31
0
39
0
210
0
220
0
230
1
0
LINE
5
1DC
100
AcDbEntity
8
SK1
62
256
6
ByLayer
370
-1
48
1
60
0
100
AcDbLine
10
0
20
-16.459691
30
0
11
0
21
-15.974086
31
0
39
0
210
0
220
0
230
1
0
LINE
5
1DD
100
AcDbEntity
8
SK1
62
256
6
ByLayer
370
-1
48
1
60
0
100
AcDbLine
10
0
20
-10.649949
30
0
11
0
21
-9.41655
31
0
39
0
210
0
220
0
230
1
0
LINE
5
1DE
100
AcDbEntity
8
SK1
62
256
6
ByLayer
370
-1
48
1
60
0
100
AcDbLine
10
-0.324519
20
13.266944
30
0
11
-0.324519
21
11.987818
31
0
39
0
210
0
220
0
230
1
0
LINE
5
1DF
100
AcDbEntity
8
1
62
256
6
ByLayer
370
-1
48
1
60
0
100
AcDbLine
10
0
20
-2.769731
30
0
11
0
21
2.769731
31
0
39
0
210
0
220
0
230
1
0
LINE
5
1E0
100
AcDbEntity
8
SK1
62
256
6
ByLayer
370
-1
48
1
60
0
100
AcDbLine
10
0
20
5.98301
30
0
11
0
21
7.924419
31
0
39
0
210
0
220
0
230
1
0
LINE
5
1E1
100
AcDbEntity
8
SK1
62
256
6
ByLayer
370
-1
48
1
60
0
100
AcDbLine
10
0
20
17.647136
30
0
11
0
21
17.963057
31
0
39
0
210
0
220
0
230
1
0
LINE
5
1E2
100
AcDbEntity
8
SK1
62
256
6
ByLayer
370
-1
48
1
60
0
100
AcDbLine
10
-0.324519
20
-18.483753
30
0
11
-0.324519
21
-18.434491
31
0
39
0
210
0
220
0
230
1
0
LINE
5
1E3
100
AcDbEntity
8
SK1
62
256
6
ByLayer
370
-1
48
1
60
0
100
AcDbLine
10
0
20
19.233341
30
0
11
0
21
19.291745
31
0
39
0
210
0
220
0
230
1
0
LINE
5
1E4
100
AcDbEntity
8
SK1
62
256
6
ByLayer
370
-1
48
1
60
0
100
AcDbLine
10
0
20
14.842386
30
0
11
0
21
15.436852
31
0
39
0
210
0
220
0
230
1
0
LINE
5
1E5
100
AcDbEntity
8
SK1
62
256
6
ByLayer
370
-1
48
1
60
0
100
AcDbLine
10
0
20
11.706682
30
0
11
0
21
12.631168
31
0
39
0
210
0
220
0
230
1
0
LINE
5
1E6
100
AcDbEntity
8
SK1
62
256
6
ByLayer
370
-1
48
1
60
0
100
AcDbLine
10
-0.324519
20
14.648035
30
0
11
-0.324519
21
14.812652
31
0
39
0
210
0
220
0
230
1
0
LINE
5
1E7
100
AcDbEntity
8
SK1
62
256
6
ByLayer
370
-1
48
1
60
0
100
AcDbLine
10
-0.324519
20
-9.595519
30
0
11
-0.324519
21
-9.241515
31
0
39
0
210
0
220
0
230
1
0
LINE
5
1E8
100
AcDbEntity
8
SK1
62
256
6
ByLayer
370
-1
48
1
60
0
100
AcDbLine
10
-0.324519
20
-18.948427
30
0
11
-0.324519
21
-18.932424
31
0
39
0
210
0
220
0
230
1
0
LINE
5
1E9
100
AcDbEntity
8
SK1
62
256
6
ByLayer
370
-1
48
1
60
0
100
AcDbLine
10
-0.324519
20
17.413335
30
0
11
-0.324519
21
17.500152
31
0
39
0
210
0
220
0
230
1
0
LINE
5
1EA
100
AcDbEntity
8
SK1
62
256
6
ByLayer
370
-1
48
1
60
0
100
AcDbLine
10
0
20
-17.292958
30
0
11
0
21
-16.898119
31
0
39
0
210
0
220
0
230
1
0
LINE
5
1EB
100
AcDbEntity
8
SK1
62
256
6
ByLayer
370
-1
48
1
60
0
100
AcDbLine
10
0
20
-19.291745
30
0
11
0
21
-19.233341
31
0
39
0
210
0
220
0
230
1
0
LINE
5
1EC
100
AcDbEntity
8
SK1
62
256
6
ByLayer
370
-1
48
1
60
0
100
AcDbLine
10
0
20
-18.879126
30
0
11
0
21
-18.699503
31
0
39
0
210
0
220
0
230
1
0
LINE
5
1ED
100
AcDbEntity
8
SK1
62
256
6
ByLayer
370
-1
48
1
60
0
100
AcDbLine
10
0
20
19.027517
30
0
11
0
21
19.145402
31
0
39
0
210
0
220
0
230
1
0
LINE
5
1EE
100
AcDbEntity
8
SK1
62
256
6
ByLayer
370
-1
48
1
60
0
100
AcDbLine
10
0
20
-17.963057
30
0
11
0
21
-17.647136
31
0
39
0
210
0
220
0
230
1
0
LINE
5
1EF
100
AcDbEntity
8
SK1
62
256
6
ByLayer
370
-1
48
1
60
0
100
AcDbLine
10
0
20
15.974086
30
0
11
0
21
16.459691
31
0
39
0
210
0
220
0
230
1
0
LINE
5
1F0
100
AcDbEntity
8
SK1
62
256
6
ByLayer
370
-1
48
1
60
0
100
AcDbLine
10
-0.324519
20
11.530772
30
0
11
-0.324519
21
11.790712
31
0
39
0
210
0
220
0
230
1
0
LINE
5
1F1
100
AcDbEntity
8
SK1
62
256
6
ByLayer
370
-1
48
1
60
0
100
AcDbLine
10
-0.324519
20
-13.470997
30
0
11
-0.324519
21
-13.266944
31
0
39
0
210
0
220
0
230
1
0
LINE
5
1F2
100
AcDbEntity
8
SK1
62
256
6
ByLayer
370
-1
48
1
60
0
100
AcDbLine
10
0
20
-15.436852
30
0
11
0
21
-14.842386
31
0
39
0
210
0
220
0
230
1
0
LINE
5
1F3
100
AcDbEntity
8
SK1
62
256
6
ByLayer
370
-1
48
1
60
0
100
AcDbLine
10
0
20
18.242708
30
0
11
0
21
18.487737
31
0
39
0
210
0
220
0
230
1
0
LINE
5
1F4
100
AcDbEntity
8
SK1
62
256
6
ByLayer
370
-1
48
1
60
0
100
AcDbLine
10
0
20
13.450703
30
0
11
0
21
14.183491
31
0
39
0
210
0
220
0
230
1
0
LINE
5
1F5
100
AcDbEntity
8
SK1
62
256
6
ByLayer
370
-1
48
1
60
0
100
AcDbLine
10
0
20
-14.183491
30
0
11
0
21
-13.450703
31
0
39
0
210
0
220
0
230
1
0
LINE
5
1F6
100
AcDbEntity
8
SK1
62
256
6
ByLayer
370
-1
48
1
60
0
100
AcDbLine
10
-0.324519
20
-14.812652
30
0
11
-0.324519
21
-14.648035
31
0
39
0
210
0
220
0
230
1
0
MTEXT
5
3CD
100
AcDbEntity
8
SK6
62
256
6
ByLayer
370
-1
48
1
60
0
100
AcDbMText
10
18.875
20
-34.3125
30
0
210
0
220
0
230
1
1
\W00.753;\fsimplex.shx,bigfont.shx;SL-266RKF-403627-27 
40
3.5
41
0
44
1.084337
50
0
71
7
72
5
7
DEFAULT
0
DIMENSION
5
400
100
AcDbEntity
8
2
62
256
6
ByLayer
370
-3
48
1
60
0
100
AcDbDimension
2
DimnDraft3D1
10
50.25
20
26.875
30
0
11
50.25
21
10.808553
31
0
70
32
71
5
72
1
41
1
210
0
220
0
230
1
3
Standard
100
AcDbAlignedDimension
13
42.5
23
0
33
0
14
37.5
24
26.875
34
0
50
90
100
AcDbRotatedDimension
1001
ACAD
1000
DSTYLE
1002
{
1070
    74
1070
     0
1070
   279
1070
     0
1070
   172
1070
     1
1070
   173
1070
     1
1070
   340
1005
3CE
1070
   271
1070
     3
1070
   272
1070
     3
1070
    77
1070
     1
1070
    73
1070
     0
1070
   171
1070
     4
1070
   274
1070
     4
1070
   177
1070
     2
1070
   176
1070
     2
1070
   178
1070
     7
1070
    78
1070
     8
1070
    41
1041
3.0
1070
   147
1041
2.25
1070
    42
1041
1.5
1070
    44
1041
3.0
1070
   140
1041
4.5
1070
   343
1005
401
1070
   344
1005
401
1002
}
0
DIMENSION
5
416
100
AcDbEntity
8
SK2
62
256
6
ByLayer
370
-3
48
1
60
0
100
AcDbDimension
2
DimnDraft3D2
10
-9.75
20
-20
30
0
11
-9.75
21
-5.021053
31
0
70
32
71
5
72
1
41
1
210
0
220
0
230
1
3
Standard
100
AcDbAlignedDimension
13
-1.5
23
20
33
0
14
-1.5
24
-20
34
0
50
90
100
AcDbRotatedDimension
1001
ACAD
1000
DSTYLE
1002
{
1070
    74
1070
     0
1070
   279
1070
     0
1070
   172
1070
     1
1070
   173
1070
     1
1070
   340
1005
3CE
1070
   271
1070
     3
1070
   272
1070
     3
1070
    77
1070
     1
1070
    73
1070
     0
1070
   171
1070
     4
1070
   274
1070
     4
1070
   177
1070
     2
1070
   176
1070
     2
1070
   178
1070
     7
1070
    78
1070
     8
1070
    41
1041
3.0
1070
   147
1041
2.25
1070
    42
1041
1.5
1070
    44
1041
3.0
1070
   140
1041
4.5
1070
   343
1005
401
1070
   344
1005
401
1002
}
0
DIMENSION
5
424
100
AcDbEntity
8
2
62
256
6
ByLayer
370
-3
48
1
60
0
100
AcDbDimension
2
DimnDraft3D3
10
0
20
46.625
30
0
11
15.371053
21
46.625
31
0
70
32
71
5
72
1
41
1
210
0
220
0
230
1
3
Standard
100
AcDbAlignedDimension
13
36
23
28.375
33
0
14
0
24
1.5
34
0
50
0
100
AcDbRotatedDimension
1001
ACAD
1000
DSTYLE
1002
{
1070
   279
1070
     0
1070
   172
1070
     1
1070
   173
1070
     1
1070
   340
1005
3CE
1070
   271
1070
     3
1070
   272
1070
     3
1070
    77
1070
     1
1070
    73
1070
     0
1070
   171
1070
     4
1070
   274
1070
     4
1070
   177
1070
     2
1070
   176
1070
     2
1070
   178
1070
     7
1070
    78
1070
     8
1070
    41
1041
3.0
1070
   147
1041
2.25
1070
    42
1041
1.5
1070
    44
1041
3.0
1070
   140
1041
4.5
1070
   343
1005
401
1070
   344
1005
401
1002
}
0
ENDSEC
0
SECTION
2
OBJECTS
0
DICTIONARY
5
455
330
0
100
AcDbDictionary
280
0
281
1
3
ACAD_GROUP
350
456
3
ACAD_MLINESTYLE
350
457
0
DICTIONARY
5
456
330
0
100
AcDbDictionary
280
0
281
1
0
DICTIONARY
5
457
330
0
100
AcDbDictionary
280
0
281
1
3
Standard
350
18
0
MLINESTYLE
5
18
330
457
100
AcDbMlineStyle
2
Standard
70
0
3

62
256
51
90
52
90
71
2
49
-0.5
62
256
6
ByLayer
49
0.5
62
256
6
ByLayer
0
RASTERVARIABLES
5
443
330

100
AcDbRasterVariables
90
0
70
1
71
1
72
1
0
ENDSEC
0
EOF
