0
SECTION
2
HEADER
9
$ACADVER
1
AC1015
9
$DWGCODEPAGE
3
ANSI_1252
9
$HANDSEED
5
49a
9
$ANGBASE
50
0
9
$ANGDIR
70
0
9
$ATTMODE
70
1
9
$AUNITS
70
0
9
$AUPREC
70
0
9
$CECOLOR
62
256
9
$CELTSCALE
40
1
9
$CELTYPE
6
ByLayer
9
$CELWEIGHT
370
-1
9
$CLAYER
8
0
9
$CMLJUST
70
0
9
$CMLSCALE
40
1
9
$CMLSTYLE
2
Standard
9
$DIMSTYLE
2
Standard
9
$TEXTSIZE
40
0.2
9
$TEXTSTYLE
7
Standard
9
$LUNITS
70
2
9
$LUPREC
70
4
9
$EXTNAMES
290
1
9
$INSUNITS
70
4
9
$LTSCALE
40
1
9
$LWDISPLAY
290
0
9
$PDMODE
70
0
9
$PDSIZE
40
0
9
$PLINEGEN
70
0
0
ENDSEC
0
SECTION
2
CLASSES
0
CLASS
1
RASTERVARIABLES
2
AcDbRasterVariables
3
ISM
90
0
280
0
281
0
0
ENDSEC
0
SECTION
2
TABLES
0
TABLE
2
VPORT
5
490
100
AcDbSymbolTable
0
VPORT
5
1
100
AcDbSymbolTableRecord
100
AcDbViewportTableRecord
2
*Active
70
0
10
0
20
0
11
1
21
1
12
-1
22
1
13
0
23
0
14
0.5
24
0.5
15
10
25
10
16
0
26
0
36
1
17
0
27
0
37
0
0
ENDTAB
0
TABLE
2
LTYPE
5
491
100
AcDbSymbolTable
0
LTYPE
5
14
100
AcDbSymbolTableRecord
100
AcDbLinetypeTableRecord
70
0
2
ByBlock
3

72
65
73
0
40
0
0
LTYPE
5
15
100
AcDbSymbolTableRecord
100
AcDbLinetypeTableRecord
70
0
2
ByLayer
3

72
65
73
0
40
0
0
LTYPE
5
16
100
AcDbSymbolTableRecord
100
AcDbLinetypeTableRecord
70
0
2
CONTINUOUS
3
Solid line
72
65
73
0
40
0
0
LTYPE
5
3B
100
AcDbSymbolTableRecord
100
AcDbLinetypeTableRecord
70
0
2
DASHED
3
__ __ __ __ __ __ __ __ __
72
65
73
2
40
25.72
49
12.86
74
0
49
-12.86
74
0
0
LTYPE
5
3C
100
AcDbSymbolTableRecord
100
AcDbLinetypeTableRecord
70
0
2
HIDDEN
3
_ _ _ _ _ _ _ _ _ _ _ _ _ _ _
72
65
73
2
40
0.5
49
0.25
74
0
49
-0.25
74
0
0
LTYPE
5
3D
100
AcDbSymbolTableRecord
100
AcDbLinetypeTableRecord
70
0
2
PHANTOM
3
____ _ _ ____ _ _ _____ _ _ ____
72
65
73
6
40
50.5
49
18
74
0
49
-6.5
74
0
49
6.5
74
0
49
-6.5
74
0
49
6.5
74
0
49
-6.5
74
0
0
LTYPE
5
3E
100
AcDbSymbolTableRecord
100
AcDbLinetypeTableRecord
70
0
2
CENTER
3
____ _ ____ _ ____ _ ____
72
65
73
4
40
47.5
49
22
74
0
49
-8.5
74
0
49
8.5
74
0
49
-8.5
74
0
0
LTYPE
5
3F
100
AcDbSymbolTableRecord
100
AcDbLinetypeTableRecord
70
0
2
DOT
3
.........................
72
65
73
2
40
10
49
0
74
0
49
-10
74
0
0
LTYPE
5
40
100
AcDbSymbolTableRecord
100
AcDbLinetypeTableRecord
70
0
2
DASHDOT
3
_._._._._._._._._._._._._._._._.
72
65
73
4
40
70
49
31
74
0
49
-13
74
0
49
13
74
0
49
-13
74
0
0
ENDTAB
0
TABLE
2
LAYER
5
492
100
AcDbSymbolTable
0
LAYER
5
10
100
AcDbSymbolTableRecord
100
AcDbLayerTableRecord
2
0
70
0
62
7
6
CONTINUOUS
290
1
370
-3
390
0
0
LAYER
5
42
100
AcDbSymbolTableRecord
100
AcDbLayerTableRecord
2
80
70
0
62
-6
6
CONTINUOUS
290
1
370
-3
390
0
0
LAYER
5
44
100
AcDbSymbolTableRecord
100
AcDbLayerTableRecord
2
81
70
0
62
-3
6
CONTINUOUS
290
1
370
-3
390
0
0
LAYER
5
46
100
AcDbSymbolTableRecord
100
AcDbLayerTableRecord
2
2
70
0
62
7
6
CONTINUOUS
290
1
370
-3
390
0
0
LAYER
5
48
100
AcDbSymbolTableRecord
100
AcDbLayerTableRecord
2
1
70
0
62
4
6
CONTINUOUS
290
1
370
-3
390
0
0
LAYER
5
4C
100
AcDbSymbolTableRecord
100
AcDbLayerTableRecord
2
4
70
0
62
-2
6
CENTER
290
1
370
-3
390
0
0
LAYER
5
47c
100
AcDbSymbolTableRecord
100
AcDbLayerTableRecord
2
SK4
70
0
62
2
6
CENTER
290
1
370
-3
390
0
0
LAYER
5
47d
100
AcDbSymbolTableRecord
100
AcDbLayerTableRecord
2
SK1
70
0
62
4
6
CONTINUOUS
290
1
370
-3
390
0
0
LAYER
5
47e
100
AcDbSymbolTableRecord
100
AcDbLayerTableRecord
2
SK6
70
0
62
5
6
CONTINUOUS
290
1
370
-3
390
0
0
LAYER
5
47f
100
AcDbSymbolTableRecord
100
AcDbLayerTableRecord
2
SK2
70
0
62
7
6
CONTINUOUS
290
1
370
-3
390
0
0
ENDTAB
0
TABLE
2
STYLE
5
493
100
AcDbSymbolTable
0
STYLE
5
11
100
AcDbSymbolTableRecord
100
AcDbTextStyleTableRecord
2
Standard
3
txt
70
0
71
0
40
0
41
1
42
0
50
0
0
STYLE
5
406
100
AcDbSymbolTableRecord
100
AcDbTextStyleTableRecord
2
DEFAULT
3
simplex.shx
70
0
71
0
40
0
41
1
42
0
50
0
0
STYLE
5
429
100
AcDbSymbolTableRecord
100
AcDbTextStyleTableRecord
2
DWGDirectTextStyle
3
SIMPLEX
70
0
71
0
40
0
41
1
42
0
50
0
0
ENDTAB
0
TABLE
2
DIMSTYLE
5
494
100
AcDbSymbolTable
100
AcDbDimStyleTable
0
DIMSTYLE
105
27
100
AcDbSymbolTableRecord
100
AcDbDimStyleTableRecord
2
Standard
70
0
3
<>
41
0.18
42
0.0625
44
0.18
140
0.18
147
0.09
73
0
74
0
77
1
271
2
275
0
278
52
280
0
340
11
0
ENDTAB
0
TABLE
2
VIEW
5
495
100
AcDbSymbolTable
0
ENDTAB
0
TABLE
2
UCS
5
496
100
AcDbSymbolTable
0
ENDTAB
0
TABLE
2
APPID
5
497
100
AcDbSymbolTable
0
APPID
5
12
100
AcDbSymbolTableRecord
100
AcDbRegAppTableRecord
2
ACAD
70
0
0
ENDTAB
0
TABLE
2
BLOCK_RECORD
5
498
100
AcDbSymbolTable
0
BLOCK_RECORD
5
1F
100
AcDbSymbolTableRecord
100
AcDbBlockTableRecord
2
*Model_Space
340
0
70
0
0
BLOCK_RECORD
5
1B
100
AcDbSymbolTableRecord
100
AcDbBlockTableRecord
2
*Paper_Space
340
0
70
0
0
BLOCK_RECORD
5
23
100
AcDbSymbolTableRecord
100
AcDbBlockTableRecord
2
*Paper_Space0
340
0
70
0
0
BLOCK_RECORD
5
42B
100
AcDbSymbolTableRecord
100
AcDbBlockTableRecord
2
DimnDraft3D1
340
0
70
0
0
BLOCK_RECORD
5
439
100
AcDbSymbolTableRecord
100
AcDbBlockTableRecord
2
_CLOSED
340
0
70
0
0
BLOCK_RECORD
5
440
100
AcDbSymbolTableRecord
100
AcDbBlockTableRecord
2
DimnDraft3D2
340
0
70
0
0
BLOCK_RECORD
5
44F
100
AcDbSymbolTableRecord
100
AcDbBlockTableRecord
2
DimnDraft3D3
340
0
70
0
0
ENDTAB
0
ENDSEC
0
SECTION
2
BLOCKS
0
BLOCK
5
20
100
AcDbEntity
8
0
100
AcDbBlockBegin
2
*Model_Space
70
0
10
0
20
0
30
0
3
*Model_Space
0
ENDBLK
5
21
100
AcDbEntity
8
0
100
AcDbBlockEnd
0
BLOCK
5
1C
100
AcDbEntity
8
0
100
AcDbBlockBegin
2
*Paper_Space
70
0
10
0
20
0
30
0
3
*Paper_Space
0
ENDBLK
5
1D
100
AcDbEntity
8
0
100
AcDbBlockEnd
0
BLOCK
5
24
100
AcDbEntity
8
0
100
AcDbBlockBegin
2
*Paper_Space0
70
0
10
0
20
0
30
0
3
*Paper_Space0
0
ENDBLK
5
25
100
AcDbEntity
8
0
100
AcDbBlockEnd
0
BLOCK
5
436
100
AcDbEntity
8
0
100
AcDbBlockBegin
2
DimnDraft3D1
70
0
10
0
20
0
30
0
3
DimnDraft3D1
0
MTEXT
5
42C
100
AcDbEntity
8
2
62
256
6
ByLayer
370
-1
48
1
60
0
100
AcDbMText
10
45.125
20
11.933553
30
0
210
0
220
0
230
1
1
\W01.000;\fsimplex.shx,bigfont.shx;27 
40
4.5
41
0
44
1.084337
50
90
71
7
72
5
7
DEFAULT
0
LINE
5
42D
100
AcDbEntity
8
2
62
256
6
ByLayer
370
-1
48
1
60
0
100
AcDbLine
10
38.5
20
0
30
0
11
49.25
21
0
31
0
39
0
210
0
220
0
230
1
0
LINE
5
42E
100
AcDbEntity
8
2
62
256
6
ByLayer
370
-1
48
1
60
0
100
AcDbLine
10
33.5
20
26.875
30
0
11
49.25
21
26.875
31
0
39
0
210
0
220
0
230
1
0
LINE
5
42F
100
AcDbEntity
8
2
62
256
6
ByLayer
370
-1
48
1
60
0
100
AcDbLine
10
46.25
20
0
30
0
11
46.25
21
26.875
31
0
39
0
210
0
220
0
230
1
0
LINE
5
430
100
AcDbEntity
8
2
62
256
6
ByLayer
370
-1
48
1
60
0
100
AcDbLine
10
46.25
20
0
30
0
11
45.855043
21
2.999999
31
0
39
0
210
0
220
0
230
1
0
LINE
5
431
100
AcDbEntity
8
2
62
256
6
ByLayer
370
-1
48
1
60
0
100
AcDbLine
10
46.25
20
0
30
0
11
46.644957
21
3.000001
31
0
39
0
210
0
220
0
230
1
0
LINE
5
432
100
AcDbEntity
8
2
62
256
6
ByLayer
370
-1
48
1
60
0
100
AcDbLine
10
45.855043
20
2.999999
30
0
11
46.644957
21
3.000001
31
0
39
0
210
0
220
0
230
1
0
LINE
5
433
100
AcDbEntity
8
2
62
256
6
ByLayer
370
-1
48
1
60
0
100
AcDbLine
10
46.25
20
26.875
30
0
11
46.644957
21
23.875001
31
0
39
0
210
0
220
0
230
1
0
LINE
5
434
100
AcDbEntity
8
2
62
256
6
ByLayer
370
-1
48
1
60
0
100
AcDbLine
10
46.25
20
26.875
30
0
11
45.855043
21
23.874999
31
0
39
0
210
0
220
0
230
1
0
LINE
5
435
100
AcDbEntity
8
2
62
256
6
ByLayer
370
-1
48
1
60
0
100
AcDbLine
10
46.644957
20
23.875001
30
0
11
45.855043
21
23.874999
31
0
39
0
210
0
220
0
230
1
0
ENDBLK
5
437
100
AcDbEntity
8
0
100
AcDbBlockEnd
0
BLOCK
5
43A
100
AcDbEntity
8
0
100
AcDbBlockBegin
2
_CLOSED
70
0
10
0
20
0
30
0
3
_CLOSED
0
LINE
5
43C
100
AcDbEntity
8
0
62
256
6
ByLayer
370
-2
48
1
60
0
100
AcDbLine
10
-1
20
0.166667
30
0
11
0
21
0
31
0
39
0
210
0
220
0
230
1
0
LINE
5
43D
100
AcDbEntity
8
0
62
256
6
ByLayer
370
-2
48
1
60
0
100
AcDbLine
10
0
20
0
30
0
11
-1
21
-0.166667
31
0
39
0
210
0
220
0
230
1
0
LINE
5
43E
100
AcDbEntity
8
0
62
256
6
ByLayer
370
-2
48
1
60
0
100
AcDbLine
10
-1
20
0.166667
30
0
11
-1
21
-0.166667
31
0
39
0
210
0
220
0
230
1
0
LINE
5
43F
100
AcDbEntity
8
0
62
256
6
ByLayer
370
-2
48
1
60
0
100
AcDbLine
10
0
20
0
30
0
11
-1
21
0
31
0
39
0
210
0
220
0
230
1
0
ENDBLK
5
43B
100
AcDbEntity
8
0
100
AcDbBlockEnd
0
BLOCK
5
44C
100
AcDbEntity
8
0
100
AcDbBlockBegin
2
DimnDraft3D2
70
0
10
0
20
0
30
0
3
DimnDraft3D2
0
MTEXT
5
441
100
AcDbEntity
8
SK2
62
256
6
ByLayer
370
-1
48
1
60
0
100
AcDbMText
10
-10.875
20
-3.896053
30
0
210
0
220
0
230
1
1
\W01.000;\fsimplex.shx,bigfont.shx;%%c40 
40
4.5
41
0
44
1.084337
50
90
71
7
72
5
7
DEFAULT
0
LINE
5
443
100
AcDbEntity
8
SK2
62
256
6
ByLayer
370
-1
48
1
60
0
100
AcDbLine
10
-1.5
20
20
30
0
11
-12.75
21
20
31
0
39
0
210
0
220
0
230
1
0
LINE
5
444
100
AcDbEntity
8
SK2
62
256
6
ByLayer
370
-1
48
1
60
0
100
AcDbLine
10
-1.5
20
-20
30
0
11
-12.75
21
-20
31
0
39
0
210
0
220
0
230
1
0
LINE
5
445
100
AcDbEntity
8
SK2
62
256
6
ByLayer
370
-1
48
1
60
0
100
AcDbLine
10
-9.75
20
20
30
0
11
-9.75
21
-20
31
0
39
0
210
0
220
0
230
1
0
LINE
5
446
100
AcDbEntity
8
SK2
62
256
6
ByLayer
370
-1
48
1
60
0
100
AcDbLine
10
-9.75
20
20
30
0
11
-9.355043
21
17.000001
31
0
39
0
210
0
220
0
230
1
0
LINE
5
447
100
AcDbEntity
8
SK2
62
256
6
ByLayer
370
-1
48
1
60
0
100
AcDbLine
10
-9.75
20
20
30
0
11
-10.144957
21
16.999999
31
0
39
0
210
0
220
0
230
1
0
LINE
5
448
100
AcDbEntity
8
SK2
62
256
6
ByLayer
370
-1
48
1
60
0
100
AcDbLine
10
-9.355043
20
17.000001
30
0
11
-10.144957
21
16.999999
31
0
39
0
210
0
220
0
230
1
0
LINE
5
449
100
AcDbEntity
8
SK2
62
256
6
ByLayer
370
-1
48
1
60
0
100
AcDbLine
10
-9.75
20
-20
30
0
11
-10.144957
21
-17.000001
31
0
39
0
210
0
220
0
230
1
0
LINE
5
44A
100
AcDbEntity
8
SK2
62
256
6
ByLayer
370
-1
48
1
60
0
100
AcDbLine
10
-9.75
20
-20
30
0
11
-9.355043
21
-16.999999
31
0
39
0
210
0
220
0
230
1
0
LINE
5
44B
100
AcDbEntity
8
SK2
62
256
6
ByLayer
370
-1
48
1
60
0
100
AcDbLine
10
-10.144957
20
-17.000001
30
0
11
-9.355043
21
-16.999999
31
0
39
0
210
0
220
0
230
1
0
ENDBLK
5
44D
100
AcDbEntity
8
0
100
AcDbBlockEnd
0
BLOCK
5
45A
100
AcDbEntity
8
0
100
AcDbBlockBegin
2
DimnDraft3D3
70
0
10
0
20
0
30
0
3
DimnDraft3D3
0
MTEXT
5
450
100
AcDbEntity
8
2
62
256
6
ByLayer
370
-1
48
1
60
0
100
AcDbMText
10
14.496053
20
47.75
30
0
210
0
220
0
230
1
1
\W01.000;\fsimplex.shx,bigfont.shx;32 
40
4.5
41
0
44
1.084337
50
0
71
7
72
5
7
DEFAULT
0
LINE
5
451
100
AcDbEntity
8
2
62
256
6
ByLayer
370
-1
48
1
60
0
100
AcDbLine
10
32
20
28.375
30
0
11
32
21
49.625
31
0
39
0
210
0
220
0
230
1
0
LINE
5
452
100
AcDbEntity
8
2
62
256
6
ByLayer
370
-1
48
1
60
0
100
AcDbLine
10
0
20
1.5
30
0
11
0
21
49.625
31
0
39
0
210
0
220
0
230
1
0
LINE
5
453
100
AcDbEntity
8
2
62
256
6
ByLayer
370
-1
48
1
60
0
100
AcDbLine
10
32
20
46.625
30
0
11
0
21
46.625
31
0
39
0
210
0
220
0
230
1
0
LINE
5
454
100
AcDbEntity
8
2
62
256
6
ByLayer
370
-1
48
1
60
0
100
AcDbLine
10
32
20
46.625
30
0
11
29.000001
21
46.230043
31
0
39
0
210
0
220
0
230
1
0
LINE
5
455
100
AcDbEntity
8
2
62
256
6
ByLayer
370
-1
48
1
60
0
100
AcDbLine
10
32
20
46.625
30
0
11
28.999999
21
47.019957
31
0
39
0
210
0
220
0
230
1
0
LINE
5
456
100
AcDbEntity
8
2
62
256
6
ByLayer
370
-1
48
1
60
0
100
AcDbLine
10
29.000001
20
46.230043
30
0
11
28.999999
21
47.019957
31
0
39
0
210
0
220
0
230
1
0
LINE
5
457
100
AcDbEntity
8
2
62
256
6
ByLayer
370
-1
48
1
60
0
100
AcDbLine
10
0
20
46.625
30
0
11
2.999999
21
47.019957
31
0
39
0
210
0
220
0
230
1
0
LINE
5
458
100
AcDbEntity
8
2
62
256
6
ByLayer
370
-1
48
1
60
0
100
AcDbLine
10
0
20
46.625
30
0
11
3.000001
21
46.230043
31
0
39
0
210
0
220
0
230
1
0
LINE
5
459
100
AcDbEntity
8
2
62
256
6
ByLayer
370
-1
48
1
60
0
100
AcDbLine
10
2.999999
20
47.019957
30
0
11
3.000001
21
46.230043
31
0
39
0
210
0
220
0
230
1
0
ENDBLK
5
45B
100
AcDbEntity
8
0
100
AcDbBlockEnd
0
ENDSEC
0
SECTION
2
ENTITIES
0
ARC
5
228
100
AcDbEntity
8
1
62
256
6
ByLayer
370
-1
48
1
60
0
100
AcDbCircle
39
0
10
-12.975001
20
20.8
30
0
40
0.8
210
0
220
0
230
-1
100
AcDbArc
50
220
51
270
0
ARC
5
229
100
AcDbEntity
8
1
62
256
6
ByLayer
370
-1
48
1
60
0
100
AcDbCircle
39
0
10
19.522832
20
-13.189601
30
0
40
9.9999999999992
210
0
220
0
230
1
100
AcDbArc
50
90
51
123.385603
0
ARC
5
22A
100
AcDbEntity
8
1
62
256
6
ByLayer
370
-1
48
1
60
0
100
AcDbCircle
39
0
10
25.522832
20
2.810399
30
0
40
6.00000000000003
210
0
220
0
230
1
100
AcDbArc
50
270
51
350.081535
0
ARC
5
22B
100
AcDbEntity
8
1
62
256
6
ByLayer
370
-1
48
1
60
0
100
AcDbCircle
39
0
10
19.522832
20
-13.189601
30
0
40
10
210
0
220
0
230
1
100
AcDbArc
50
161.745169
51
164.609591
0
ELLIPSE
5
22C
100
AcDbEntity
8
1
62
256
6
ByLayer
370
-1
48
1
60
0
100
AcDbEllipse
10
25.938043
20
19.350571
30
0
11
-0.20005104428045
21
-0.32695788301096
31
0
210
0
220
0
230
1
40
0.499975
41
0.178877565652193
42
1.58915102710991
0
ELLIPSE
5
22D
100
AcDbEntity
8
1
62
256
6
ByLayer
370
-1
48
1
60
0
100
AcDbEllipse
10
28.506764
20
19.338412
30
0
11
-0.200517583762262
21
0.328568772579043
31
0
210
0
220
0
230
1
40
0.495781
41
0.60851324608393
42
1.54958265946519
0
ELLIPSE
5
22E
100
AcDbEntity
8
1
62
256
6
ByLayer
370
-1
48
1
60
0
100
AcDbEllipse
10
27.222404
20
18.628113
30
0
11
-1.28709104541676
21
0.0909435583645227
31
0
210
0
220
0
230
1
40
0.965764
41
-2.54986031696419
42
-1.5026627657676
0
ELLIPSE
5
22F
100
AcDbEntity
8
1
62
256
6
ByLayer
370
-1
48
1
60
0
100
AcDbEllipse
10
25.739252
20
18.635133
30
0
11
-0.000623103068504325
21
0.380672332819596
31
0
210
0
220
0
230
1
40
0.50691
41
-0.0603741684584126
42
0.857580032545899
0
ELLIPSE
5
230
100
AcDbEntity
8
1
62
256
6
ByLayer
370
-1
48
1
60
0
100
AcDbEllipse
10
27.222404
20
18.628113
30
0
11
-1.28709104541676
21
0.0909435583645227
31
0
210
0
220
0
230
1
40
0.965764
41
-0.455465214570994
42
0.124927586583853
0
ELLIPSE
5
231
100
AcDbEntity
8
1
62
256
6
ByLayer
370
-1
48
1
60
0
100
AcDbEllipse
10
27.222404
20
18.628113
30
0
11
-1.28709104541676
21
0.0909435583645227
31
0
210
0
220
0
230
1
40
0.965764
41
3.12691571093335
42
-2.54986031696419
0
ELLIPSE
5
232
100
AcDbEntity
8
1
62
256
6
ByLayer
370
-1
48
1
60
0
100
AcDbEllipse
10
28.506764
20
19.338412
30
0
11
-0.200517583763077
21
0.328568772578745
31
0
210
0
220
0
230
1
40
0.495781
41
1.54958265946006
42
2.95985612092196
0
ELLIPSE
5
233
100
AcDbEntity
8
1
62
256
6
ByLayer
370
-1
48
1
60
0
100
AcDbEllipse
10
27.96398
20
19.865491
30
0
11
-0.342845330156825
21
0.189166589712733
31
0
210
0
220
0
230
1
40
0.479089
41
-2.35411703748968
42
0.0400244433162133
0
ELLIPSE
5
234
100
AcDbEntity
8
1
62
256
6
ByLayer
370
-1
48
1
60
0
100
AcDbEllipse
10
27.222404
20
18.628113
30
0
11
-1.28709104541676
21
0.0909435583645227
31
0
210
0
220
0
230
1
40
0.965764
41
0.732793256386803
42
0.963569540893242
0
ELLIPSE
5
235
100
AcDbEntity
8
1
62
256
6
ByLayer
370
-1
48
1
60
0
100
AcDbEllipse
10
27.222404
20
20.06087
30
0
11
-0.394032475315302
21
0.00240287603060478
31
0
210
0
220
0
230
1
40
0.473102
41
0.163407912190704
42
1.57368137365108
0
ELLIPSE
5
236
100
AcDbEntity
8
1
62
256
6
ByLayer
370
-1
48
1
60
0
100
AcDbEllipse
10
25.938043
20
19.350571
30
0
11
-0.200051044280606
21
-0.326957883010246
31
0
210
0
220
0
230
1
40
0.499975
41
1.58915102711276
42
2.37462779238881
0
ELLIPSE
5
237
100
AcDbEntity
8
1
62
256
6
ByLayer
370
-1
48
1
60
0
100
AcDbEllipse
10
27.222404
20
18.628113
30
0
11
-1.28709104541676
21
0.0909435583645227
31
0
210
0
220
0
230
1
40
0.965764
41
2.12648254357438
42
2.57250707433217
0
ELLIPSE
5
238
100
AcDbEntity
8
1
62
256
6
ByLayer
370
-1
48
1
60
0
100
AcDbEllipse
10
27.251202
20
19.035684
30
0
11
1.67223082115527
21
-0.118156848207617
31
0
210
0
220
0
230
1
40
0.965764
41
-3.07345909256249
42
-2.02626154136589
0
ELLIPSE
5
239
100
AcDbEntity
8
1
62
256
6
ByLayer
370
-1
48
1
60
0
100
AcDbEllipse
10
27.251202
20
19.035684
30
0
11
1.67223082115527
21
-0.118156848207617
31
0
210
0
220
0
230
1
40
0.965764
41
2.1625286634205
42
-3.07345909256249
0
ELLIPSE
5
23A
100
AcDbEntity
8
1
62
256
6
ByLayer
370
-1
48
1
60
0
100
AcDbEllipse
10
27.251202
20
19.035684
30
0
11
1.67223082115527
21
-0.118156848207617
31
0
210
0
220
0
230
1
40
0.965764
41
0.0681335610272946
42
1.1153311122239
0
ELLIPSE
5
23B
100
AcDbEntity
8
1
62
256
6
ByLayer
370
-1
48
1
60
0
100
AcDbEllipse
10
27.251202
20
19.035684
30
0
11
1.67223082115527
21
-0.118156848207617
31
0
210
0
220
0
230
1
40
0.965764
41
-0.979063990169297
42
0.0681335610272968
0
ELLIPSE
5
23C
100
AcDbEntity
8
1
62
256
6
ByLayer
370
-1
48
1
60
0
100
AcDbEllipse
10
27.251202
20
19.035684
30
0
11
1.67223082115527
21
-0.118156848207617
31
0
210
0
220
0
230
1
40
0.965764
41
1.1153311122239
42
2.1625286634205
0
ELLIPSE
5
23D
100
AcDbEntity
8
1
62
256
6
ByLayer
370
-1
48
1
60
0
100
AcDbEllipse
10
27.251202
20
19.035684
30
0
11
1.67223082115527
21
-0.118156848207617
31
0
210
0
220
0
230
1
40
0.965764
41
-2.02626154136589
42
-0.979063990169297
0
ELLIPSE
5
23E
100
AcDbEntity
8
1
62
256
6
ByLayer
370
-1
48
1
60
0
100
AcDbEllipse
10
27.222404
20
20.06087
30
0
11
-0.394032475315819
21
0.00240287603064748
31
0
210
0
220
0
230
1
40
0.473102
41
1.57368137365137
42
2.98395483511039
0
ELLIPSE
5
23F
100
AcDbEntity
8
1
62
256
6
ByLayer
370
-1
48
1
60
0
100
AcDbEllipse
10
27.222404
20
18.628113
30
0
11
1.28709104541676
21
-0.0909435583645234
31
0
210
0
220
0
230
1
40
0.965764
41
1.6389298878222
42
2.6861274390188
0
ELLIPSE
5
240
100
AcDbEntity
8
1
62
256
6
ByLayer
370
-1
48
1
60
0
100
AcDbEllipse
10
28.705556
20
18.621093
30
0
11
-0.000623103068509059
21
0.380672332819596
31
0
210
0
220
0
230
1
40
0.50691
41
-1.17741844002583
42
0.0539160509661732
0
ELLIPSE
5
241
100
AcDbEntity
8
1
62
256
6
ByLayer
370
-1
48
1
60
0
100
AcDbEllipse
10
26.480828
20
19.872511
30
0
11
-0.343133849056969
21
-0.185391276329966
31
0
210
0
220
0
230
1
40
0.48292
41
3.10477118287727
42
-0.934348470810686
0
ELLIPSE
5
242
100
AcDbEntity
8
1
62
256
6
ByLayer
370
-1
48
1
60
0
100
AcDbEllipse
10
24.852767
20
22.310047
30
0
11
-1.8
21
2.20429143688028E-16
31
0
210
0
220
0
230
1
40
0.258819
41
-0.755396374706215
42
-0.528503571946953
0
ELLIPSE
5
243
100
AcDbEntity
8
1
62
256
6
ByLayer
370
-1
48
1
60
0
100
AcDbEllipse
10
23.724367
20
22.58508
30
0
11
-0.25
21
3.06151588455594E-17
31
0
210
0
220
0
230
1
40
0.258819
41
-1.58442776940352
42
-0.755396374706166
0
ELLIPSE
5
244
100
AcDbEntity
8
1
62
256
6
ByLayer
370
-1
48
1
60
0
100
AcDbEllipse
10
22.864868
20
22.317061
30
0
11
-1.8
21
2.20429143688028E-16
31
0
210
0
220
0
230
1
40
0.258819
41
-2.44231040400174
42
-2.41345916410083
0
ELLIPSE
5
245
100
AcDbEntity
8
1
62
256
6
ByLayer
370
-1
48
1
60
0
100
AcDbEllipse
10
24.021815
20
22.58403
30
0
11
-0.25
21
3.06151588455594E-17
31
0
210
0
220
0
230
1
40
0.258819
41
-2.41345916410084
42
-1.58442776940352
0
ELLIPSE
5
246
100
AcDbEntity
8
1
62
256
6
ByLayer
370
-1
48
1
60
0
100
AcDbEllipse
10
23.082464
20
22.577587
30
0
11
-0.25
21
3.06151588455594E-17
31
0
210
0
220
0
230
1
40
0.258819
41
2.02965358241131
42
2.61308908164288
0
ELLIPSE
5
247
100
AcDbEntity
8
1
62
256
6
ByLayer
370
-1
48
1
60
0
100
AcDbEllipse
10
10.031857
20
0
30
0
11
-0.00644904178043812
21
19.9999999994125
31
0
210
0
220
0
230
1
40
0.000529
41
0.161989241455399
42
1.01598512320004
0
ELLIPSE
5
248
100
AcDbEntity
8
1
62
256
6
ByLayer
370
-1
48
1
60
0
100
AcDbEllipse
10
11.457314
20
-9.899577
30
0
11
-311.384925368754
21
1.35917119313357
31
0
210
0
220
0
230
1
40
0.016286
41
-1.57895568908012
42
-1.56992383149735
0
ELLIPSE
5
249
100
AcDbEntity
8
1
62
256
6
ByLayer
370
-1
48
1
60
0
100
AcDbEllipse
10
428.142218
20
-0.072461
30
0
11
-1188.63925119966
21
5.21138326325079
31
0
210
0
220
0
230
1
40
0.016308
41
-1.21392285902326
42
-1.21233167075184
0
ELLIPSE
5
24A
100
AcDbEntity
8
1
62
256
6
ByLayer
370
-1
48
1
60
0
100
AcDbEllipse
10
-292.472805
20
9.899494
30
0
11
-311.382221087176
21
1.35915908203334
31
0
210
0
220
0
230
1
40
0.016285
41
2.91875760904669
42
2.92865023224399
0
ELLIPSE
5
24B
100
AcDbEntity
8
1
62
256
6
ByLayer
370
-1
48
1
60
0
100
AcDbEllipse
10
10.023427
20
9.899495
30
0
11
-0.00169287346746367
21
5.24999999999992
31
0
210
0
220
0
230
1
40
0.000529
41
-1.09913851333912
42
-2.56604737259248
0
ELLIPSE
5
24C
100
AcDbEntity
8
1
62
256
6
ByLayer
370
-1
48
1
60
0
100
AcDbEllipse
10
10.029811
20
-9.899495
30
0
11
-0.00169287346747884
21
5.25000000002527
31
0
210
0
220
0
230
1
40
0.000529
41
-0.0264390396024522
42
1.60026699399111
0
ELLIPSE
5
24D
100
AcDbEntity
8
1
62
256
6
ByLayer
370
-1
48
1
60
0
100
AcDbEllipse
10
19.744939
20
18.29025
30
0
11
-1.65234319823104
21
0.107635857932081
31
0
210
0
220
0
230
1
40
0.965788
41
1.05614501345198
42
1.85235537885523
0
ELLIPSE
5
24E
100
AcDbEntity
8
1
62
256
6
ByLayer
370
-1
48
1
60
0
100
AcDbEllipse
10
20.163952
20
16.916499
30
0
11
-2.11145701959824
21
0.149191788242017
31
0
210
0
220
0
230
1
40
0.965764
41
-1.11762307732669
42
-0.627728021228732
0
ELLIPSE
5
24F
100
AcDbEntity
8
1
62
256
6
ByLayer
370
-1
48
1
60
0
100
AcDbEllipse
10
19.045151
20
18.534785
30
0
11
-1.64651197074777
21
0.107256010922497
31
0
210
0
220
0
230
1
40
0.965788
41
-1.49893315505094
42
1.50963367748879
0
ELLIPSE
5
250
100
AcDbEntity
8
1
62
256
6
ByLayer
370
-1
48
1
60
0
100
AcDbEllipse
10
18.958593
20
17.309758
30
0
11
1.64589647751503
21
-0.116296110440566
31
0
210
0
220
0
230
1
40
0.965764
41
1.75362471590293
42
2.07470006325479
0
ELLIPSE
5
251
100
AcDbEntity
8
1
62
256
6
ByLayer
370
-1
48
1
60
0
100
AcDbEllipse
10
18.914161
20
16.680933
30
0
11
1.64589647751503
21
-0.116296110440566
31
0
210
0
220
0
230
1
40
0.965764
41
1.38386088998124
42
1.86794914054501
0
ELLIPSE
5
252
100
AcDbEntity
8
1
62
256
6
ByLayer
370
-1
48
1
60
0
100
AcDbEllipse
10
19.591913
20
26.272908
30
0
11
-1.63784993062359
21
-7.54195098398695
31
0
210
0
220
0
230
1
40
0.160744
41
0.242557715258495
42
0.654352033601526
0
ELLIPSE
5
253
100
AcDbEntity
8
1
62
256
6
ByLayer
370
-1
48
1
60
0
100
AcDbEllipse
10
17.521922
20
12.527888
30
0
11
-5.5763901838838
21
-5.51476332651538
31
0
210
0
220
0
230
1
40
0.188408
41
-0.272483731845573
42
0.71072319370632
0
ELLIPSE
5
254
100
AcDbEntity
8
1
62
256
6
ByLayer
370
-1
48
1
60
0
100
AcDbEllipse
10
18.912332
20
16.655055
30
0
11
-1.64589647751503
21
0.116296110440566
31
0
210
0
220
0
230
1
40
0.965764
41
-1.50266254663832
42
-0.632441668253004
0
ELLIPSE
5
255
100
AcDbEntity
8
1
62
256
6
ByLayer
370
-1
48
1
60
0
100
AcDbEllipse
10
18.912332
20
16.655055
30
0
11
-1.64589647751503
21
0.116296110440566
31
0
210
0
220
0
230
1
40
0.965764
41
-1.75781897900742
42
-1.50266254663832
0
ELLIPSE
5
256
100
AcDbEntity
8
1
62
256
6
ByLayer
370
-1
48
1
60
0
100
AcDbEllipse
10
24.033669
20
15.583049
30
0
11
-2.65443259222578
21
1.29855551986208
31
0
210
0
220
0
230
1
40
0.133258
41
1.16354352643405
42
1.44615652855247
0
ELLIPSE
5
257
100
AcDbEntity
8
1
62
256
6
ByLayer
370
-1
48
1
60
0
100
AcDbEllipse
10
30.094833
20
12.17362
30
0
11
-2.65443259276371
21
1.29855552005005
31
0
210
0
220
0
230
1
40
0.133258
41
0.88093052420834
42
1.16354352629006
0
ELLIPSE
5
258
100
AcDbEntity
8
1
62
256
6
ByLayer
370
-1
48
1
60
0
100
AcDbEllipse
10
20.208384
20
17.545324
30
0
11
-1.99502603335156
21
0.140964982352201
31
0
210
0
220
0
230
1
40
0.965764
41
-1.26020625214143
42
-0.699701739960669
0
ELLIPSE
5
259
100
AcDbEntity
8
1
62
256
6
ByLayer
370
-1
48
1
60
0
100
AcDbEllipse
10
19.223731
20
21.062008
30
0
11
-2.24610851425706
21
-9.02285838176652
31
0
210
0
220
0
230
1
40
0.041991
41
-1.31707533745449
42
-1.30213285653406
0
ELLIPSE
5
25A
100
AcDbEntity
8
1
62
256
6
ByLayer
370
-1
48
1
60
0
100
AcDbEllipse
10
21.308634
20
16.532431
30
0
11
-1.35348965832257
21
0.751718354876367
31
0
210
0
220
0
230
1
40
0.040993
41
-2.47898514166319
42
-1.06670542963949
0
ELLIPSE
5
25B
100
AcDbEntity
8
1
62
256
6
ByLayer
370
-1
48
1
60
0
100
AcDbEllipse
10
17.521922
20
12.527888
30
0
11
-5.57639018388434
21
-5.51476332651597
31
0
210
0
220
0
230
1
40
0.188408
41
1.13192590346811
42
2.41996062282105
0
ELLIPSE
5
25C
100
AcDbEntity
8
1
62
256
6
ByLayer
370
-1
48
1
60
0
100
AcDbEllipse
10
-292.47298
20
9.899495
30
0
11
-311.38239564227
21
1.35916046280905
31
0
210
0
220
0
230
1
40
0.016285
41
2.96337313604695
42
-3.00692128597143
0
ELLIPSE
5
25D
100
AcDbEntity
8
1
62
256
6
ByLayer
370
-1
48
1
60
0
100
AcDbEllipse
10
-292.473019
20
9.899495
30
0
11
-311.382434899936
21
1.35916050128059
31
0
210
0
220
0
230
1
40
0.016285
41
-2.94591012470676
42
-2.918609630693
0
ELLIPSE
5
25E
100
AcDbEntity
8
1
62
256
6
ByLayer
370
-1
48
1
60
0
100
AcDbEllipse
10
17.521922
20
12.527888
30
0
11
-5.57639018388454
21
-5.51476332651618
31
0
210
0
220
0
230
1
40
0.188408
41
-2.22764768936688
42
-0.823889354300007
0
ELLIPSE
5
25F
100
AcDbEntity
8
1
62
256
6
ByLayer
370
-1
48
1
60
0
100
AcDbEllipse
10
28.742971
20
12.932986
30
0
11
0.176329317764092
21
-0.267035525158826
31
0
210
0
220
0
230
1
40
0.03732
41
-2.29821777815298
42
-1.12825396992078
0
ELLIPSE
5
260
100
AcDbEntity
8
1
62
256
6
ByLayer
370
-1
48
1
60
0
100
AcDbEllipse
10
24.35428
20
22.641417
30
0
11
-0.14351761370407
21
-0.0843322544405083
31
0
210
0
220
0
230
1
40
0.195042
41
-2.40799874311658
42
-1.70241255342908
0
ELLIPSE
5
261
100
AcDbEntity
8
1
62
256
6
ByLayer
370
-1
48
1
60
0
100
AcDbEllipse
10
30.542053
20
12.867053
30
0
11
0.126989212138566
21
0.304587819849098
31
0
210
0
220
0
230
1
40
0.517188
41
-2.14635572770679
42
-1.54493633139592
0
ELLIPSE
5
262
100
AcDbEntity
8
1
62
256
6
ByLayer
370
-1
48
1
60
0
100
AcDbEllipse
10
30.808867
20
23.854076
30
0
11
-0.822902478273042
21
-0.504346294682871
31
0
210
0
220
0
230
1
40
0.3419
41
2.3146563602182
42
3.13110594625799
0
ELLIPSE
5
263
100
AcDbEntity
8
1
62
256
6
ByLayer
370
-1
48
1
60
0
100
AcDbEllipse
10
29.941358
20
12.825287
30
0
11
0.329092877421674
21
-0.0244515445386046
31
0
210
0
220
0
230
1
40
0.673036
41
-2.14481203860296
42
-1.32836245256557
0
ELLIPSE
5
264
100
AcDbEntity
8
1
62
256
6
ByLayer
370
-1
48
1
60
0
100
AcDbEllipse
10
20.171429
20
19.207093
30
0
11
0.126714333577781
21
-0.304702277093459
31
0
210
0
220
0
230
1
40
0.542683
41
-1.6114190898499
42
-1.00999969353904
0
ELLIPSE
5
265
100
AcDbEntity
8
1
62
256
6
ByLayer
370
-1
48
1
60
0
100
AcDbEllipse
10
20.460449
20
19.675195
30
0
11
0.16664678834278
21
0.284831262215082
31
0
210
0
220
0
230
1
40
0.020796
41
1.15004999605176
42
2.03107132206069
0
ELLIPSE
5
266
100
AcDbEntity
8
1
62
256
6
ByLayer
370
-1
48
1
60
0
100
AcDbEllipse
10
31.001783
20
25.485321
30
0
11
-0.000396770131986745
21
-0.0911034398230902
31
0
210
0
220
0
230
1
40
0.965798
41
2.10952713509607
42
3.14158434266384
0
ELLIPSE
5
267
100
AcDbEntity
8
1
62
256
6
ByLayer
370
-1
48
1
60
0
100
AcDbEllipse
10
20.171429
20
19.207093
30
0
11
-0.0259338634078571
21
-0.328979383440274
31
0
210
0
220
0
230
1
40
0.228524
41
-1.16829399898113
42
-0.81922814858226
0
ELLIPSE
5
268
100
AcDbEntity
8
1
62
256
6
ByLayer
370
-1
48
1
60
0
100
AcDbEllipse
10
25.695307
20
23.383532
30
0
11
-0.128945792949216
21
-0.0768529686731044
31
0
210
0
220
0
230
1
40
0.215846
41
-1.71819106654016
42
-1.00566648799967
0
ELLIPSE
5
269
100
AcDbEntity
8
1
62
256
6
ByLayer
370
-1
48
1
60
0
100
AcDbEllipse
10
32.036153
20
15.5999
30
0
11
-0.140714193199364
21
-0.239169977058745
31
0
210
0
220
0
230
1
40
0.063581
41
-1.18041021170503
42
-0.753835096548831
0
ELLIPSE
5
26A
100
AcDbEntity
8
1
62
256
6
ByLayer
370
-1
48
1
60
0
100
AcDbEllipse
10
31.764296
20
23.030832
30
0
11
0.150248298124003
21
0.282533978329759
31
0
210
0
220
0
230
1
40
0.014394
41
1.57841055121137
42
2.74837435944443
0
ELLIPSE
5
26B
100
AcDbEntity
8
1
62
256
6
ByLayer
370
-1
48
1
60
0
100
AcDbEllipse
10
20.908088
20
19.305221
30
0
11
-0.832437249551168
21
0.488229794598823
31
0
210
0
220
0
230
1
40
0.306363
41
-0.823404481087388
42
-0.0069548950521472
0
ELLIPSE
5
26C
100
AcDbEntity
8
1
62
256
6
ByLayer
370
-1
48
1
60
0
100
AcDbEllipse
10
25.310641
20
16.194153
30
0
11
0.0357259918071452
21
0.145683401626252
31
0
210
0
220
0
230
1
40
0.046814
41
1.31258632271838
42
1.48711924791792
0
ELLIPSE
5
26D
100
AcDbEntity
8
1
62
256
6
ByLayer
370
-1
48
1
60
0
100
AcDbEllipse
10
30.830764
20
18.083706
30
0
11
-0.143814300897886
21
-0.042631524219201
31
0
210
0
220
0
230
1
40
0.244304
41
-1.83516128982961
42
-1.66062836463025
0
ELLIPSE
5
26E
100
AcDbEntity
8
1
62
256
6
ByLayer
370
-1
48
1
60
0
100
AcDbEllipse
10
30.993134
20
23.967018
30
0
11
-4.67600826818841E-17
21
-0.254558441227155
31
0
210
0
220
0
230
1
40
0.999867
41
-0.558493593836948
42
0.549766437173565
0
ELLIPSE
5
26F
100
AcDbEntity
8
1
62
256
6
ByLayer
370
-1
48
1
60
0
100
AcDbEllipse
10
28.693385
20
12.709883
30
0
11
-0.289207306602783
21
0.16986217305203
31
0
210
0
220
0
230
1
40
0.223196
41
1.65552978543839
42
1.93117354639484
0
ELLIPSE
5
270
100
AcDbEntity
8
1
62
256
6
ByLayer
370
-1
48
1
60
0
100
AcDbEllipse
10
31.121918
20
12.780744
30
0
11
-0.179619284128354
21
0.0117009730030306
31
0
210
0
220
0
230
1
40
0.965789
41
2.39034587768743
42
2.68082561138857
0
ELLIPSE
5
271
100
AcDbEntity
8
1
62
256
6
ByLayer
370
-1
48
1
60
0
100
AcDbEllipse
10
31.764296
20
23.030832
30
0
11
-0.17567740821477
21
-0.267464854220028
31
0
210
0
220
0
230
1
40
0.203761
41
0.402079994214023
42
1.3926853202012
0
ELLIPSE
5
272
100
AcDbEntity
8
1
62
256
6
ByLayer
370
-1
48
1
60
0
100
AcDbEllipse
10
31.487527
20
17.952518
30
0
11
0.00498680642490504
21
-0.149917082954814
31
0
210
0
220
0
230
1
40
0.026344
41
1.83182940267628
42
2.54435398120267
0
ELLIPSE
5
273
100
AcDbEntity
8
1
62
256
6
ByLayer
370
-1
48
1
60
0
100
AcDbEllipse
10
30.686929
20
24.158376
30
0
11
-4.67600826818841E-17
21
-0.254558441227155
31
0
210
0
220
0
230
1
40
0.999867
41
-0.863312072454483
42
-0.558493593836917
0
ELLIPSE
5
274
100
AcDbEntity
8
1
62
256
6
ByLayer
370
-1
48
1
60
0
100
AcDbEllipse
10
31.189814
20
11.44743
30
0
11
-0.0878138722405286
21
0.00572047569037051
31
0
210
0
220
0
230
1
40
0.965789
41
2.68082561138865
42
-3.14157919444833
0
ELLIPSE
5
275
100
AcDbEntity
8
1
62
256
6
ByLayer
370
-1
48
1
60
0
100
AcDbEllipse
10
31.256343
20
12.468693
30
0
11
-0.0842609164753845
21
-0.0290942334855396
31
0
210
0
220
0
230
1
40
0.911082
41
2.31546043531629
42
-2.93566766430196
0
ELLIPSE
5
276
100
AcDbEntity
8
1
62
256
6
ByLayer
370
-1
48
1
60
0
100
AcDbEllipse
10
27.240537
20
18.964191
30
0
11
3.07390048262852
21
-0.200243680603565
31
0
210
0
220
0
230
1
40
0.965789
41
0
42
6.28318530717959
0
ELLIPSE
5
277
100
AcDbEntity
8
1
62
256
6
ByLayer
370
-1
48
1
60
0
100
AcDbEllipse
10
31.764296
20
23.030832
30
0
11
-0.101161855390477
21
0.303588996859169
31
0
210
0
220
0
230
1
40
0.015437
41
1.56561488893599
42
1.84125864988252
0
ELLIPSE
5
278
100
AcDbEntity
8
1
62
256
6
ByLayer
370
-1
48
1
60
0
100
AcDbEllipse
10
29.941358
20
12.825287
30
0
11
-0.329941928492634
21
-0.00619062376193214
31
0
210
0
220
0
230
1
40
0.387666
41
0.891887709617999
42
1.77290903562736
0
ELLIPSE
5
279
100
AcDbEntity
8
1
62
256
6
ByLayer
370
-1
48
1
60
0
100
AcDbEllipse
10
31.176381
20
23.852472
30
0
11
-0.8184700766581
21
0.511508916891201
31
0
210
0
220
0
230
1
40
0.341899
41
0.0104869071733788
42
0.826936493208776
0
ELLIPSE
5
27A
100
AcDbEntity
8
1
62
256
6
ByLayer
370
-1
48
1
60
0
100
AcDbEllipse
10
21.373711
20
17.448863
30
0
11
-0.352030382737668
21
0.578101923540496
31
0
210
0
220
0
230
1
40
0.071322
41
1.7462573523205
42
2.60919099825499
0
ELLIPSE
5
27B
100
AcDbEntity
8
1
62
256
6
ByLayer
370
-1
48
1
60
0
100
AcDbEllipse
10
28.810296
20
24.601735
30
0
11
-0.704940313660798
21
0.0225354790917857
31
0
210
0
220
0
230
1
40
0.11846
41
0.629741133710954
42
1.49267477966355
0
ELLIPSE
5
27C
100
AcDbEntity
8
1
62
256
6
ByLayer
370
-1
48
1
60
0
100
AcDbEllipse
10
30.657629
20
18.667764
30
0
11
-0.143814300897886
21
-0.042631524219201
31
0
210
0
220
0
230
1
40
0.244304
41
-1.83516128982966
42
-1.66062836463021
0
ELLIPSE
5
27D
100
AcDbEntity
8
1
62
256
6
ByLayer
370
-1
48
1
60
0
100
AcDbEllipse
10
31.304402
20
24.155669
30
0
11
-0.171567193481958
21
0.281894835214703
31
0
210
0
220
0
230
1
40
0.328804
41
-2.38864574650007
42
-1.57219616046267
0
ELLIPSE
5
27E
100
AcDbEntity
8
1
62
256
6
ByLayer
370
-1
48
1
60
0
100
AcDbEllipse
10
31.994457
20
22.879656
30
0
11
-0.000910734195035561
21
-0.382239909243537
31
0
210
0
220
0
230
1
40
0.013965
41
-1.40181009876652
42
-0.411204772702444
0
ELLIPSE
5
27F
100
AcDbEntity
8
1
62
256
6
ByLayer
370
-1
48
1
60
0
100
AcDbEllipse
10
20.430314
20
18.336951
30
0
11
-0.120148037016419
21
0.0531314302280092
31
0
210
0
220
0
230
1
40
0.908072
41
3.10576497508268
42
-2.23387201348398
0
ELLIPSE
5
280
100
AcDbEntity
8
1
62
256
6
ByLayer
370
-1
48
1
60
0
100
AcDbEllipse
10
20.767483
20
19.160105
30
0
11
-0.0259338634078571
21
-0.328979383440274
31
0
210
0
220
0
230
1
40
0.228524
41
-1.16829399898113
42
-0.81922814858226
0
ELLIPSE
5
281
100
AcDbEntity
8
1
62
256
6
ByLayer
370
-1
48
1
60
0
100
AcDbEllipse
10
22.025785
20
16.862471
30
0
11
0.249471227956047
21
-0.0162513513930981
31
0
210
0
220
0
230
1
40
0.965789
41
-2.12769914672036
42
-2.03156336899609
0
ELLIPSE
5
282
100
AcDbEntity
8
1
62
256
6
ByLayer
370
-1
48
1
60
0
100
AcDbEllipse
10
31.158013
20
19.073601
30
0
11
0.0633059060388762
21
-0.13598662530042
31
0
210
0
220
0
230
1
40
0.127852
41
1.09471097891126
42
1.80029716860975
0
ELLIPSE
5
283
100
AcDbEntity
8
1
62
256
6
ByLayer
370
-1
48
1
60
0
100
AcDbEllipse
10
30.999689
20
24.688877
30
0
11
-0.285075263893943
21
0.166229040530826
31
0
210
0
220
0
230
1
40
0.008173
41
1.20764539343759
42
1.5567112438362
0
ELLIPSE
5
284
100
AcDbEntity
8
1
62
256
6
ByLayer
370
-1
48
1
60
0
100
AcDbEllipse
10
31.752396
20
15.643896
30
0
11
0.249471227956047
21
-0.0162513513930981
31
0
210
0
220
0
230
1
40
0.965789
41
-0.0333040443271947
42
0.0628317333970937
0
ELLIPSE
5
285
100
AcDbEntity
8
1
62
256
6
ByLayer
370
-1
48
1
60
0
100
AcDbEllipse
10
31.300996
20
24.155696
30
0
11
-4.67600826818841E-17
21
-0.254558441227155
31
0
210
0
220
0
230
1
40
0.999867
41
0.549766437173584
42
0.854585258752904
0
ELLIPSE
5
286
100
AcDbEntity
8
1
62
256
6
ByLayer
370
-1
48
1
60
0
100
AcDbEllipse
10
31.509494
20
14.291528
30
0
11
-0.172351874611787
21
-0.0595109321265725
31
0
210
0
220
0
230
1
40
0.911082
41
2.3154604353399
42
-3.02417655323501
0
ELLIPSE
5
287
100
AcDbEntity
8
1
62
256
6
ByLayer
370
-1
48
1
60
0
100
AcDbEllipse
10
31.185064
20
13.750084
30
0
11
-0.172351874609512
21
-0.059510932128676
31
0
210
0
220
0
230
1
40
0.911082
41
1.37191211671289
42
2.31546043532019
0
ELLIPSE
5
288
100
AcDbEntity
8
1
62
256
6
ByLayer
370
-1
48
1
60
0
100
AcDbEllipse
10
31.304402
20
24.155669
30
0
11
0.172437766515789
21
-0.281363140228151
31
0
210
0
220
0
230
1
40
0.013865
41
-1.57933547052239
42
-0.698314144512089
0
ELLIPSE
5
289
100
AcDbEntity
8
1
62
256
6
ByLayer
370
-1
48
1
60
0
100
AcDbEllipse
10
31.149569
20
13.454334
30
0
11
-0.124476353881203
21
-0.0429801176525435
31
0
210
0
220
0
230
1
40
0.911082
41
-1.76968053692113
42
-0.826132218299814
0
ELLIPSE
5
28A
100
AcDbEntity
8
1
62
256
6
ByLayer
370
-1
48
1
60
0
100
AcDbEllipse
10
30.996539
20
23.966991
30
0
11
-0.174886668864491
21
-0.279847553238334
31
0
210
0
220
0
230
1
40
0.013828
41
-1.56219675959259
42
-0.681175433583295
0
ELLIPSE
5
28B
100
AcDbEntity
8
1
62
256
6
ByLayer
370
-1
48
1
60
0
100
AcDbEllipse
10
31.304402
20
24.155669
30
0
11
0.286515006649981
21
0.163735002257798
31
0
210
0
220
0
230
1
40
0.008111
41
1.23585108313171
42
1.58491693353028
0
ELLIPSE
5
28C
100
AcDbEntity
8
1
62
256
6
ByLayer
370
-1
48
1
60
0
100
AcDbEllipse
10
31.68311
20
14.580301
30
0
11
0.249471227956047
21
-0.0162513513930981
31
0
210
0
220
0
230
1
40
0.965789
41
-0.460767042201221
42
-1.31917324382653E-06
0
ELLIPSE
5
28D
100
AcDbEntity
8
1
62
256
6
ByLayer
370
-1
48
1
60
0
100
AcDbEllipse
10
30.690335
20
24.158349
30
0
11
0.174886668864491
21
0.279847553238334
31
0
210
0
220
0
230
1
40
0.013828
41
1.57939589399722
42
2.46041722000744
0
ELLIPSE
5
28E
100
AcDbEntity
8
1
62
256
6
ByLayer
370
-1
48
1
60
0
100
AcDbEllipse
10
29.516326
20
12.495358
30
0
11
-0.239377603623274
21
-0.0826540723993964
31
0
210
0
220
0
230
1
40
0.911082
41
0.744664108530251
42
1.2834032277652
0
ELLIPSE
5
28F
100
AcDbEntity
8
1
62
256
6
ByLayer
370
-1
48
1
60
0
100
AcDbEllipse
10
25.745755
20
21.914205
30
0
11
0.105854520827011
21
-0.106277092642224
31
0
210
0
220
0
230
1
40
0.19749
41
1.74310194330165
42
1.9176348685011
0
ELLIPSE
5
290
100
AcDbEntity
8
1
62
256
6
ByLayer
370
-1
48
1
60
0
100
AcDbEllipse
10
30.999689
20
24.688877
30
0
11
0.286515006649981
21
0.163735002257798
31
0
210
0
220
0
230
1
40
0.008111
41
1.23585108313172
42
1.58491693353028
0
ELLIPSE
5
291
100
AcDbEntity
8
1
62
256
6
ByLayer
370
-1
48
1
60
0
100
AcDbEllipse
10
26.182088
20
22.348803
30
0
11
0.105854520827011
21
-0.106277092642224
31
0
210
0
220
0
230
1
40
0.19749
41
1.74310194330165
42
1.91763486850115
0
ELLIPSE
5
292
100
AcDbEntity
8
1
62
256
6
ByLayer
370
-1
48
1
60
0
100
AcDbEllipse
10
20.308316
20
18.541619
30
0
11
-0.120148037018894
21
0.0531314302263636
31
0
210
0
220
0
230
1
40
0.908072
41
-2.233872013501
42
-1.20181480594711
0
ELLIPSE
5
293
100
AcDbEntity
8
1
62
256
6
ByLayer
370
-1
48
1
60
0
100
AcDbEllipse
10
30.999689
20
24.688877
30
0
11
-0.329991143274648
21
0.00241771799247295
31
0
210
0
220
0
230
1
40
0.178986
41
-1.85495451927011
42
-1.25353512295925
0
ELLIPSE
5
294
100
AcDbEntity
8
1
62
256
6
ByLayer
370
-1
48
1
60
0
100
AcDbEllipse
10
19.390722
20
17.793703
30
0
11
-0.0878138722405257
21
0.00572047569037032
31
0
210
0
220
0
230
1
40
0.965789
41
1.16283422104283E-05
42
0.586430508995392
0
ELLIPSE
5
295
100
AcDbEntity
8
1
62
256
6
ByLayer
370
-1
48
1
60
0
100
AcDbEllipse
10
25.426218
20
15.570999
30
0
11
-0.149596176921153
21
0.0109992659107356
31
0
210
0
220
0
230
1
40
0.259322
41
-1.5686327434371
42
-0.863046553738863
0
ELLIPSE
5
296
100
AcDbEntity
8
1
62
256
6
ByLayer
370
-1
48
1
60
0
100
AcDbEllipse
10
30.690335
20
24.158349
30
0
11
-0.285075263893943
21
0.166229040530826
31
0
210
0
220
0
230
1
40
0.008173
41
1.20764539343821
42
1.55671124383617
0
ELLIPSE
5
297
100
AcDbEntity
8
1
62
256
6
ByLayer
370
-1
48
1
60
0
100
AcDbEllipse
10
31.742559
20
23.859672
30
0
11
-0.00112718778029565
21
-0.258816590394325
31
0
210
0
220
0
230
1
40
0.965798
41
1.57078801548393
42
2.10952713474753
0
ELLIPSE
5
298
100
AcDbEntity
8
1
62
256
6
ByLayer
370
-1
48
1
60
0
100
AcDbEllipse
10
25.359913
20
14.669211
30
0
11
-0.14336018976644
21
0.0848352940999507
31
0
210
0
220
0
230
1
40
0.209444
41
-1.4649898243323
42
-0.759403634588144
0
ELLIPSE
5
299
100
AcDbEntity
8
1
62
256
6
ByLayer
370
-1
48
1
60
0
100
AcDbEllipse
10
31.446349
20
13.322189
30
0
11
-0.179619284128354
21
0.0117009730030306
31
0
210
0
220
0
230
1
40
0.965789
41
2.68082561138857
42
-3.14158154768321
0
ELLIPSE
5
29A
100
AcDbEntity
8
1
62
256
6
ByLayer
370
-1
48
1
60
0
100
AcDbEllipse
10
30.690335
20
24.158349
30
0
11
-0.175765810909963
21
-0.279296222164144
31
0
210
0
220
0
230
1
40
0.354829
41
-1.5511582483868
42
-0.73470866234942
0
ELLIPSE
5
29B
100
AcDbEntity
8
1
62
256
6
ByLayer
370
-1
48
1
60
0
100
AcDbEllipse
10
20.721586
20
19.414338
30
0
11
0.21413543481211
21
-0.13764452607288
31
0
210
0
220
0
230
1
40
0.895737
41
0.509329721976609
42
1.61758975637612
0
ELLIPSE
5
29C
100
AcDbEntity
8
1
62
256
6
ByLayer
370
-1
48
1
60
0
100
AcDbEllipse
10
31.027571
20
13.250731
30
0
11
-0.124476353884196
21
-0.042980117649099
31
0
210
0
220
0
230
1
40
0.911082
41
-0.826132218272856
42
0.205924989287964
0
ELLIPSE
5
29D
100
AcDbEntity
8
1
62
256
6
ByLayer
370
-1
48
1
60
0
100
AcDbEllipse
10
29.83329
20
24.715167
30
0
11
-0.000811575269414966
21
-0.18634794509231
31
0
210
0
220
0
230
1
40
0.965798
41
2.1980360240438
42
3.14158434266043
0
ELLIPSE
5
29E
100
AcDbEntity
8
1
62
256
6
ByLayer
370
-1
48
1
60
0
100
AcDbEllipse
10
24.257758
20
15.860238
30
0
11
-0.131634364356025
21
0.0719193584550448
31
0
210
0
220
0
230
1
40
0.236597
41
-2.17381970518016
42
-1.46129512665362
0
ELLIPSE
5
29F
100
AcDbEntity
8
1
62
256
6
ByLayer
370
-1
48
1
60
0
100
AcDbEllipse
10
31.999831
20
22.036648
30
0
11
-0.000560354040804186
21
-0.175204025600388
31
0
210
0
220
0
230
1
40
0.014074
41
1.79425022181589
42
2.7367280178179
0
ELLIPSE
5
2A0
100
AcDbEntity
8
1
62
256
6
ByLayer
370
-1
48
1
60
0
100
AcDbEllipse
10
21.876591
20
16.586741
30
0
11
-0.14026406968315
21
0.24030257443461
31
0
210
0
220
0
230
1
40
0.078706
41
-0.938728402137874
42
-0.512153286651115
0
ELLIPSE
5
2A1
100
AcDbEntity
8
1
62
256
6
ByLayer
370
-1
48
1
60
0
100
AcDbEllipse
10
30.996539
20
23.966991
30
0
11
-0.172437766515789
21
0.281363140228151
31
0
210
0
220
0
230
1
40
0.013865
41
1.56225718306738
42
2.4432785090777
0
ELLIPSE
5
2A2
100
AcDbEntity
8
1
62
256
6
ByLayer
370
-1
48
1
60
0
100
AcDbEllipse
10
21.009267
20
17.600279
30
0
11
-0.166358820483163
21
0.0735665957015129
31
0
210
0
220
0
230
1
40
0.908072
41
0.907720640108473
42
1.85126895872689
0
ELLIPSE
5
2A3
100
AcDbEntity
8
1
62
256
6
ByLayer
370
-1
48
1
60
0
100
AcDbEllipse
10
20.244599
20
17.56351
30
0
11
0.129725038537144
21
-0.00845070272441108
31
0
210
0
220
0
230
1
40
0.965789
41
0.586430508995397
42
1.61848771655681
0
ELLIPSE
5
2A4
100
AcDbEntity
8
1
62
256
6
ByLayer
370
-1
48
1
60
0
100
AcDbEllipse
10
20.724331
20
19.613498
30
0
11
-0.000207326155889337
21
0.890157524695587
31
0
210
0
220
0
230
1
40
0.360082
41
3.11313022187921
42
-2.3536054992642
0
ELLIPSE
5
2A5
100
AcDbEntity
8
1
62
256
6
ByLayer
370
-1
48
1
60
0
100
AcDbEllipse
10
29.941358
20
12.825287
30
0
11
0.0228891020462456
21
-0.329205238426603
31
0
210
0
220
0
230
1
40
0.196789
41
0.821693699627987
42
1.17075955002689
0
ELLIPSE
5
2A6
100
AcDbEntity
8
1
62
256
6
ByLayer
370
-1
48
1
60
0
100
AcDbEllipse
10
24.701173
20
16.343613
30
0
11
0.0357259918071452
21
0.145683401626252
31
0
210
0
220
0
230
1
40
0.046814
41
1.31258632271849
42
1.48711924791799
0
ELLIPSE
5
2A7
100
AcDbEntity
8
1
62
256
6
ByLayer
370
-1
48
1
60
0
100
AcDbEllipse
10
27.219312
20
18.638373
30
0
11
-2.91486949082832
21
0.18988389462218
31
0
210
0
220
0
230
1
40
0.965789
41
-0.591306881925009
42
0
0
ELLIPSE
5
2A8
100
AcDbEntity
8
1
62
256
6
ByLayer
370
-1
48
1
60
0
100
AcDbEllipse
10
27.219312
20
18.638373
30
0
11
-2.91486949082832
21
0.18988389462218
31
0
210
0
220
0
230
1
40
0.965789
41
0
42
0.440412056915358
0
ELLIPSE
5
2A9
100
AcDbEntity
8
1
62
256
6
ByLayer
370
-1
48
1
60
0
100
AcDbEllipse
10
27.219312
20
18.638373
30
0
11
-2.91486949082832
21
0.18988389462218
31
0
210
0
220
0
230
1
40
0.965789
41
2.70108248924325
42
-2.57767685223083
0
ELLIPSE
5
2AA
100
AcDbEntity
8
1
62
256
6
ByLayer
370
-1
48
1
60
0
100
AcDbEllipse
10
30.248392
20
13.337698
30
0
11
-0.206260449892315
21
0.257597800476285
31
0
210
0
220
0
230
1
40
0.301789
41
-2.02768703974589
42
-1.21123745370851
0
ELLIPSE
5
2AB
100
AcDbEntity
8
1
62
256
6
ByLayer
370
-1
48
1
60
0
100
AcDbEllipse
10
19.459289
20
18.811547
30
0
11
-0.0813309789042464
21
0.0359658912308823
31
0
210
0
220
0
230
1
40
0.908072
41
0.907720640097436
42
1.93977784765728
0
ELLIPSE
5
2AC
100
AcDbEntity
8
1
62
256
6
ByLayer
370
-1
48
1
60
0
100
AcDbEllipse
10
24.018886
20
15.42303
30
0
11
-0.128769199352727
21
0.077150160623867
31
0
210
0
220
0
230
1
40
0.232115
41
-2.16459055346904
42
-1.45206597492249
0
ELLIPSE
5
2AD
100
AcDbEntity
8
1
62
256
6
ByLayer
370
-1
48
1
60
0
100
AcDbEllipse
10
20.684837
20
18.144555
30
0
11
-0.166358820487559
21
0.0735665956975645
31
0
210
0
220
0
230
1
40
0.908072
41
-0.0358276785259497
42
0.907720640081559
0
ELLIPSE
5
2AE
100
AcDbEntity
8
1
62
256
6
ByLayer
370
-1
48
1
60
0
100
AcDbEllipse
10
20.460449
20
19.675195
30
0
11
-0.210233595088772
21
-0.254365554853739
31
0
210
0
220
0
230
1
40
0.325777
41
-1.90870933697282
42
-1.09225975093542
0
ELLIPSE
5
2AF
100
AcDbEntity
8
1
62
256
6
ByLayer
370
-1
48
1
60
0
100
AcDbEllipse
10
27.94343
20
24.386207
30
0
11
0.249471227956047
21
-0.0162513513930981
31
0
210
0
220
0
230
1
40
0.965789
41
2.06109105806601
42
2.15722683579031
0
ELLIPSE
5
2B0
100
AcDbEntity
8
1
62
256
6
ByLayer
370
-1
48
1
60
0
100
AcDbEllipse
10
21.081064
20
19.585376
30
0
11
-1.53630689172649
21
-0.724448865248617
31
0
210
0
220
0
230
1
40
0.188839
41
-0.282355984093635
42
0.319063412215209
0
ELLIPSE
5
2B1
100
AcDbEntity
8
1
62
256
6
ByLayer
370
-1
48
1
60
0
100
AcDbEllipse
10
30.292036
20
13.25875
30
0
11
0.222782340523564
21
0.123158551269663
31
0
210
0
220
0
230
1
40
0.903036
41
1.28317267091923
42
1.58799132119614
0
ELLIPSE
5
2B2
100
AcDbEntity
8
1
62
256
6
ByLayer
370
-1
48
1
60
0
100
AcDbEllipse
10
20.767483
20
19.160105
30
0
11
0.328515456278559
21
0.0312665154133048
31
0
210
0
220
0
230
1
40
0.671
41
-1.8570543643811
42
-1.04060477834373
0
ELLIPSE
5
2B3
100
AcDbEntity
8
1
62
256
6
ByLayer
370
-1
48
1
60
0
100
AcDbEllipse
10
25.96874
20
22.963365
30
0
11
0.125722164389598
21
0.0818164859988184
31
0
210
0
220
0
230
1
40
0.210253
41
1.41488498587117
42
2.12740956439779
0
ELLIPSE
5
2B4
100
AcDbEntity
8
1
62
256
6
ByLayer
370
-1
48
1
60
0
100
AcDbEllipse
10
20.772069
20
19.492875
30
0
11
-0.166646788342781
21
-0.284831262215081
31
0
210
0
220
0
230
1
40
0.020796
41
-1.99154265753786
42
-1.1105213315286
0
ELLIPSE
5
2B5
100
AcDbEntity
8
1
62
256
6
ByLayer
370
-1
48
1
60
0
100
AcDbEllipse
10
21.214334
20
20.824273
30
0
11
-0.336670865987861
21
-0.199900719032441
31
0
210
0
220
0
230
1
40
0.176549
41
1.40038053933255
42
2.39098586531591
0
ELLIPSE
5
2B6
100
AcDbEntity
8
1
62
256
6
ByLayer
370
-1
48
1
60
0
100
AcDbEllipse
10
29.985002
20
12.746339
30
0
11
0.222782340523564
21
0.123158551269663
31
0
210
0
220
0
230
1
40
0.903036
41
2.69625135559562
42
3.00107000587251
0
ELLIPSE
5
2B7
100
AcDbEntity
8
1
62
256
6
ByLayer
370
-1
48
1
60
0
100
AcDbEllipse
10
30.248392
20
13.337698
30
0
11
0.164123276904417
21
-0.286292769692418
31
0
210
0
220
0
230
1
40
0.007386
41
-2.00786484603937
42
-1.12684352003077
0
ELLIPSE
5
2B8
100
AcDbEntity
8
1
62
256
6
ByLayer
370
-1
48
1
60
0
100
AcDbEllipse
10
21.189619
20
20.549209
30
0
11
-0.319437373112233
21
-0.0189674631713382
31
0
210
0
220
0
230
1
40
0.372092
41
1.30555697618067
42
2.4755207844133
0
ELLIPSE
5
2B9
100
AcDbEntity
8
1
62
256
6
ByLayer
370
-1
48
1
60
0
100
AcDbEllipse
10
30.542053
20
12.867053
30
0
11
0.0228891020462456
21
-0.329205238426603
31
0
210
0
220
0
230
1
40
0.196789
41
0.821693699628021
42
1.17075955002688
0
ELLIPSE
5
2BA
100
AcDbEntity
8
1
62
256
6
ByLayer
370
-1
48
1
60
0
100
AcDbEllipse
10
21.189619
20
20.549209
30
0
11
-0.214373568568198
21
-0.237579403777635
31
0
210
0
220
0
230
1
40
0.080191
41
1.11663809063045
42
1.3922818515772
0
ELLIPSE
5
2BB
100
AcDbEntity
8
1
62
256
6
ByLayer
370
-1
48
1
60
0
100
AcDbEllipse
10
31.999831
20
19.465493
30
0
11
-0.000592402744059581
21
-0.165729210466523
31
0
210
0
220
0
230
1
40
0.014833
41
1.10168084660969
42
1.80726703742999
0
ELLIPSE
5
2BC
100
AcDbEntity
8
1
62
256
6
ByLayer
370
-1
48
1
60
0
100
AcDbEllipse
10
21.01006
20
20.711229
30
0
11
-0.289259154739323
21
-0.169069488443439
31
0
210
0
220
0
230
1
40
0.207991
41
1.18265416952392
42
1.45829792957398
0
ELLIPSE
5
2BD
100
AcDbEntity
8
1
62
256
6
ByLayer
370
-1
48
1
60
0
100
AcDbEllipse
10
20.621691
20
17.175216
30
0
11
-0.179619284128354
21
0.0117009730030306
31
0
210
0
220
0
230
1
40
0.965789
41
9.08050353245728E-07
42
0.586430508995421
0
ELLIPSE
5
2BE
100
AcDbEntity
8
1
62
256
6
ByLayer
370
-1
48
1
60
0
100
AcDbEllipse
10
29.935114
20
13.158105
30
0
11
0.329941928492634
21
0.00619062376193233
31
0
210
0
220
0
230
1
40
0.387666
41
-2.24970494397179
42
-1.36868361796241
0
ELLIPSE
5
2BF
100
AcDbEntity
8
1
62
256
6
ByLayer
370
-1
48
1
60
0
100
AcDbEllipse
10
29.97502
20
13.278345
30
0
11
-0.00595811942282783
21
0.890176669400321
31
0
210
0
220
0
230
1
40
0.362985
41
2.34793671772965
42
-3.11879900341432
0
ELLIPSE
5
2C0
100
AcDbEntity
8
1
62
256
6
ByLayer
370
-1
48
1
60
0
100
AcDbEllipse
10
20.409966
20
19.596658
30
0
11
0.21413543481211
21
-0.13764452607288
31
0
210
0
220
0
230
1
40
0.895737
41
1.61758975637608
42
1.92240840665299
0
ELLIPSE
5
2C1
100
AcDbEntity
8
1
62
256
6
ByLayer
370
-1
48
1
60
0
100
AcDbEllipse
10
27.66482
20
13.373575
30
0
11
-0.152152475739795
21
0.0895179785101438
31
0
210
0
220
0
230
1
40
0.197758
41
-2.41395421089133
42
-1.47147641481749
0
ELLIPSE
5
2C2
100
AcDbEntity
8
1
62
256
6
ByLayer
370
-1
48
1
60
0
100
AcDbEllipse
10
28.489111
20
12.82471
30
0
11
-0.335804858940241
21
0.201414936976741
31
0
210
0
220
0
230
1
40
0.189826
41
0.727550146215566
42
1.71815547219998
0
ELLIPSE
5
2C3
100
AcDbEntity
8
1
62
256
6
ByLayer
370
-1
48
1
60
0
100
AcDbEllipse
10
28.742971
20
12.932986
30
0
11
0.312377620717914
21
-0.0694278191693724
31
0
210
0
220
0
230
1
40
0.335766
41
-1.55801442581499
42
-1.2823706648683
0
ELLIPSE
5
2C4
100
AcDbEntity
8
1
62
256
6
ByLayer
370
-1
48
1
60
0
100
AcDbEllipse
10
20.767483
20
19.160105
30
0
11
-0.329968661514939
21
0.00454779265573736
31
0
210
0
220
0
230
1
40
0.388155
41
1.33335276074515
42
2.21437408675451
0
ELLIPSE
5
2C5
100
AcDbEntity
8
1
62
256
6
ByLayer
370
-1
48
1
60
0
100
AcDbEllipse
10
20.171429
20
19.207093
30
0
11
-0.280790684040502
21
0.173368370114237
31
0
210
0
220
0
230
1
40
0.444526
41
1.21365952070709
42
1.56272537110594
0
ELLIPSE
5
2C6
100
AcDbEntity
8
1
62
256
6
ByLayer
370
-1
48
1
60
0
100
AcDbEllipse
10
27.801281
20
24.58948
30
0
11
-0.283033031873319
21
0.000905222927830984
31
0
210
0
220
0
230
1
40
0.13718
41
-2.52176974041904
42
-2.09519462534549
0
ELLIPSE
5
2C7
100
AcDbEntity
8
1
62
256
6
ByLayer
370
-1
48
1
60
0
100
AcDbEllipse
10
22.049373
20
21.365898
30
0
11
-0.152300321248501
21
-0.0888973533469357
31
0
210
0
220
0
230
1
40
0.184283
41
-1.69445883676737
42
-0.751981040695779
0
ELLIPSE
5
2C8
100
AcDbEntity
8
1
62
256
6
ByLayer
370
-1
48
1
60
0
100
AcDbEllipse
10
21.189619
20
20.549209
30
0
11
0.3187160302586
21
-0.0286372494524016
31
0
210
0
220
0
230
1
40
0.189541
41
-1.61440428860228
42
-0.623798962615184
0
ELLIPSE
5
2C9
100
AcDbEntity
8
1
62
256
6
ByLayer
370
-1
48
1
60
0
100
AcDbEllipse
10
19.392761
20
17.790283
30
0
11
-0.0878138722405286
21
0.00572047569037051
31
0
210
0
220
0
230
1
40
0.965789
41
0.586430508995462
42
1.61848771655683
0
ELLIPSE
5
2CA
100
AcDbEntity
8
1
62
256
6
ByLayer
370
-1
48
1
60
0
100
AcDbEllipse
10
19.45725
20
18.814967
30
0
11
-0.0813309789044081
21
0.0359658912307172
31
0
210
0
220
0
230
1
40
0.908072
41
-0.124336567467347
42
0.907720640092948
0
ELLIPSE
5
2CB
100
AcDbEntity
8
1
62
256
6
ByLayer
370
-1
48
1
60
0
100
AcDbEllipse
10
25.129793
20
22.131521
30
0
11
0.0824075344049261
21
0.125335542737489
31
0
210
0
220
0
230
1
40
0.131471
41
0.637761892177596
42
1.34334808187597
0
ELLIPSE
5
2CC
100
AcDbEntity
8
1
62
256
6
ByLayer
370
-1
48
1
60
0
100
AcDbEllipse
10
31.999831
20
17.969559
30
0
11
-0.000654095719382754
21
-0.15010469261426
31
0
210
0
220
0
230
1
40
0.016273
41
1.83244169684199
42
2.54496627482929
0
ELLIPSE
5
2CD
100
AcDbEntity
8
1
62
256
6
ByLayer
370
-1
48
1
60
0
100
AcDbEllipse
10
29.615509
20
13.253349
30
0
11
-1.55232594747011
21
0.738057643119415
31
0
210
0
220
0
230
1
40
0.185907
41
2.8229809607814
42
-2.85878495008632
0
ELLIPSE
5
2CE
100
AcDbEntity
8
1
62
256
6
ByLayer
370
-1
48
1
60
0
100
AcDbEllipse
10
20.460449
20
19.675195
30
0
11
-0.280790684040502
21
0.173368370114237
31
0
210
0
220
0
230
1
40
0.444526
41
1.21365952070708
42
1.56272537110595
0
ELLIPSE
5
2CF
100
AcDbEntity
8
1
62
256
6
ByLayer
370
-1
48
1
60
0
100
AcDbEllipse
10
31.994457
20
23.107527
30
0
11
-0.0014739934709009
21
-0.337784707443146
31
0
210
0
220
0
230
1
40
0.015426
41
-1.57076266466911
42
-1.29511890654942
0
ELLIPSE
5
2D0
100
AcDbEntity
8
1
62
256
6
ByLayer
370
-1
48
1
60
0
100
AcDbEllipse
10
31.254304
20
12.465291
30
0
11
-0.0842609164750678
21
-0.0290942334858382
31
0
210
0
220
0
230
1
40
0.911082
41
1.28340322774961
42
2.31546043531288
0
ELLIPSE
5
2D1
100
AcDbEntity
8
1
62
256
6
ByLayer
370
-1
48
1
60
0
100
AcDbEllipse
10
29.978758
20
13.079157
30
0
11
0.222782340523564
21
0.123158551269663
31
0
210
0
220
0
230
1
40
0.903036
41
1.58799132119614
42
2.6962513555956
0
ELLIPSE
5
2D2
100
AcDbEntity
8
1
62
256
6
ByLayer
370
-1
48
1
60
0
100
AcDbEllipse
10
31.533273
20
14.775482
30
0
11
-0.352978025599933
21
-0.614491679974695
31
0
210
0
220
0
230
1
40
0.052277
41
1.5389058252459
42
2.40183947121482
0
ELLIPSE
5
2D3
100
AcDbEntity
8
1
62
256
6
ByLayer
370
-1
48
1
60
0
100
AcDbEllipse
10
29.935114
20
13.158105
30
0
11
-0.164123276904417
21
0.286292769692418
31
0
210
0
220
0
230
1
40
0.007386
41
1.13372780754959
42
2.01474913355905
0
ELLIPSE
5
2D4
100
AcDbEntity
8
1
62
256
6
ByLayer
370
-1
48
1
60
0
100
AcDbEllipse
10
30.369017
20
24.843767
30
0
11
-0.000586137696563741
21
-0.134584627014002
31
0
210
0
220
0
230
1
40
0.965798
41
-8.31091511136489E-06
42
1.03204889664091
0
ELLIPSE
5
2D5
100
AcDbEntity
8
1
62
256
6
ByLayer
370
-1
48
1
60
0
100
AcDbEllipse
10
29.184428
20
24.717999
30
0
11
-0.000811575293882575
21
-0.186347945092979
31
0
210
0
220
0
230
1
40
0.965798
41
3.14158434278702
42
-2.19805264577797
0
ELLIPSE
5
2D6
100
AcDbEntity
8
1
62
256
6
ByLayer
370
-1
48
1
60
0
100
AcDbEllipse
10
30.125021
20
24.844831
30
0
11
-0.000586137714148955
21
-0.134584627014236
31
0
210
0
220
0
230
1
40
0.965798
41
-0.943556629393408
42
-8.31078908264611E-06
0
ELLIPSE
5
2D7
100
AcDbEntity
8
1
62
256
6
ByLayer
370
-1
48
1
60
0
100
AcDbEllipse
10
31.187776
20
11.444027
30
0
11
-0.0878138722405257
21
0.00572047569037032
31
0
210
0
220
0
230
1
40
0.965789
41
1.64876840382719
42
2.68082561138863
0
ELLIPSE
5
2D8
100
AcDbEntity
8
1
62
256
6
ByLayer
370
-1
48
1
60
0
100
AcDbEllipse
10
30.248392
20
13.337698
30
0
11
0.279970847001603
21
0.174689223563462
31
0
210
0
220
0
230
1
40
0.429075
41
-1.59348664827043
42
-1.24442079787158
0
ELLIPSE
5
2D9
100
AcDbEntity
8
1
62
256
6
ByLayer
370
-1
48
1
60
0
100
AcDbEllipse
10
20.717
20
19.081568
30
0
11
0.21413543481211
21
-0.13764452607288
31
0
210
0
220
0
230
1
40
0.895737
41
0.204511071699708
42
0.509329721976602
0
ELLIPSE
5
2DA
100
AcDbEntity
8
1
62
256
6
ByLayer
370
-1
48
1
60
0
100
AcDbEllipse
10
20.433217
20
20.084554
30
0
11
-0.231053917342445
21
0.102175827377363
31
0
210
0
220
0
230
1
40
0.908072
41
-0.663075686633619
42
-0.124336567409265
0
ELLIPSE
5
2DB
100
AcDbEntity
8
1
62
256
6
ByLayer
370
-1
48
1
60
0
100
AcDbEllipse
10
27.223552
20
18.703454
30
0
11
-3.00359442768436
21
0.195663719967137
31
0
210
0
220
0
230
1
40
0.965789
41
-1.09248911100415
42
0
0
ELLIPSE
5
2DC
100
AcDbEntity
8
1
62
256
6
ByLayer
370
-1
48
1
60
0
100
AcDbEllipse
10
27.223552
20
18.703454
30
0
11
-3.00359442768436
21
0.195663719967137
31
0
210
0
220
0
230
1
40
0.965789
41
0
42
0.220206031232929
0
ELLIPSE
5
2DD
100
AcDbEntity
8
1
62
256
6
ByLayer
370
-1
48
1
60
0
100
AcDbEllipse
10
27.223552
20
18.703454
30
0
11
-3.00359442768436
21
0.195663719967137
31
0
210
0
220
0
230
1
40
0.965789
41
2.92128823926724
42
-2.0795383476551
0
ELLIPSE
5
2DE
100
AcDbEntity
8
1
62
256
6
ByLayer
370
-1
48
1
60
0
100
AcDbEllipse
10
29.791263
20
12.971672
30
0
11
-0.837564038355226
21
-0.479739159385222
31
0
210
0
220
0
230
1
40
0.308746
41
-3.12995290557943
42
-2.31350331954208
0
ELLIPSE
5
2DF
100
AcDbEntity
8
1
62
256
6
ByLayer
370
-1
48
1
60
0
100
AcDbEllipse
10
30.997706
20
25.485339
30
0
11
-0.000396770131875982
21
-0.0911034398248768
31
0
210
0
220
0
230
1
40
0.965798
41
3.1415843426623
42
-2.10954375696139
0
ELLIPSE
5
2E0
100
AcDbEntity
8
1
62
256
6
ByLayer
370
-1
48
1
60
0
100
AcDbEllipse
10
30.991235
20
23.534955
30
0
11
-0.00804175809620406
21
-1.84310051253625
31
0
210
0
220
0
230
1
40
0.179021
41
2.84088284843069
42
-2.84088306243985
0
ELLIPSE
5
2E1
100
AcDbEntity
8
1
62
256
6
ByLayer
370
-1
48
1
60
0
100
AcDbEllipse
10
30.542053
20
12.867053
30
0
11
0.279970847001603
21
0.174689223563462
31
0
210
0
220
0
230
1
40
0.429075
41
-1.59348664827048
42
-1.24442079787162
0
ELLIPSE
5
2E2
100
AcDbEntity
8
1
62
256
6
ByLayer
370
-1
48
1
60
0
100
AcDbEllipse
10
28.742971
20
12.932986
30
0
11
-0.125543597399465
21
0.294344704644064
31
0
210
0
220
0
230
1
40
0.19293
41
0.864332537322557
42
1.85493786330968
0
ELLIPSE
5
2E3
100
AcDbEntity
8
1
62
256
6
ByLayer
370
-1
48
1
60
0
100
AcDbEllipse
10
20.772069
20
19.492875
30
0
11
0.329968661514939
21
-0.00454779265573755
31
0
210
0
220
0
230
1
40
0.388155
41
-1.80823989284472
42
-0.927218566835315
0
ELLIPSE
5
2E4
100
AcDbEntity
8
1
62
256
6
ByLayer
370
-1
48
1
60
0
100
AcDbEllipse
10
32.12537
20
11.267706
30
0
11
0.00693407685583657
21
-1.4096829461188
31
0
210
0
220
0
230
1
40
0.052006
41
-1.83287963693166
42
-0.78568208573502
0
ELLIPSE
5
2E5
100
AcDbEntity
8
1
62
256
6
ByLayer
370
-1
48
1
60
0
100
AcDbEllipse
10
32.12537
20
11.267706
30
0
11
0.00693407685583657
21
-1.4096829461188
31
0
210
0
220
0
230
1
40
0.052006
41
-2.88007718812828
42
-1.83287963693166
0
ELLIPSE
5
2E6
100
AcDbEntity
8
1
62
256
6
ByLayer
370
-1
48
1
60
0
100
AcDbEllipse
10
32.12537
20
11.267706
30
0
11
0.00693407685583657
21
-1.4096829461188
31
0
210
0
220
0
230
1
40
0.052006
41
0.261515465461615
42
1.30871301665818
0
ELLIPSE
5
2E7
100
AcDbEntity
8
1
62
256
6
ByLayer
370
-1
48
1
60
0
100
AcDbEllipse
10
32.12537
20
11.267706
30
0
11
0.00693407685583657
21
-1.4096829461188
31
0
210
0
220
0
230
1
40
0.052006
41
2.35591056785471
42
-2.88007718812828
0
ELLIPSE
5
2E8
100
AcDbEntity
8
1
62
256
6
ByLayer
370
-1
48
1
60
0
100
AcDbEllipse
10
32.12537
20
11.267706
30
0
11
0.00693407685583657
21
-1.4096829461188
31
0
210
0
220
0
230
1
40
0.052006
41
1.30871301665818
42
2.35591056785471
0
ELLIPSE
5
2E9
100
AcDbEntity
8
1
62
256
6
ByLayer
370
-1
48
1
60
0
100
AcDbEllipse
10
32.12537
20
11.267706
30
0
11
0.00693407685583657
21
-1.4096829461188
31
0
210
0
220
0
230
1
40
0.052006
41
-0.78568208573502
42
0.261515465461615
0
ELLIPSE
5
2EA
100
AcDbEntity
8
1
62
256
6
ByLayer
370
-1
48
1
60
0
100
AcDbEllipse
10
31.026871
20
11.262303
30
0
11
-0.0152483778485429
21
3.09996249767203
31
0
210
0
220
0
230
1
40
0.052006
41
1.57054039011301
42
1.57486007868975
0
ELLIPSE
5
2EB
100
AcDbEntity
8
1
62
256
6
ByLayer
370
-1
48
1
60
0
100
AcDbEllipse
10
31.026871
20
11.262303
30
0
11
-0.0152483778485429
21
3.09996249767203
31
0
210
0
220
0
230
1
40
0.052006
41
1.54049899354177
42
1.57054039011301
0
ELLIPSE
5
2EC
100
AcDbEntity
8
1
62
256
6
ByLayer
370
-1
48
1
60
0
100
AcDbEllipse
10
32.12537
20
11.267706
30
0
11
-0.00836201365887834
21
1.69997943420724
31
0
210
0
220
0
230
1
40
0.052006
41
0
42
6.28318530717959
0
ELLIPSE
5
2ED
100
AcDbEntity
8
1
62
256
6
ByLayer
370
-1
48
1
60
0
100
AcDbEllipse
10
27.227432
20
18.699276
30
0
11
-2.71822297044149
21
0.192064788454874
31
0
210
0
220
0
230
1
40
0.965764
41
0
42
3.14149459685376
0
ELLIPSE
5
2EE
100
AcDbEntity
8
1
62
256
6
ByLayer
370
-1
48
1
60
0
100
AcDbEllipse
10
27.250079
20
19.019799
30
0
11
-2.7182229704415
21
0.192064788454874
31
0
210
0
220
0
230
1
40
0.965764
41
0
42
6.28318530717959
0
ELLIPSE
5
2EF
100
AcDbEntity
8
1
62
256
6
ByLayer
370
-1
48
1
60
0
100
AcDbEllipse
10
27.251202
20
19.035684
30
0
11
-1.7955234300164
21
0.126868484116981
31
0
210
0
220
0
230
1
40
0.965764
41
0
42
6.28318530717959
0
POINT
5
41
100
AcDbEntity
8
80
62
256
6
ByLayer
370
-1
48
1
60
0
100
AcDbPoint
10
0
20
0
30
0
39
0
210
0
220
0
230
1
50
360
0
POINT
5
43
100
AcDbEntity
8
81
62
256
6
ByLayer
370
-1
48
1
60
0
100
AcDbPoint
10
32
20
26.875
30
0
39
0
210
0
220
0
230
1
50
360
0
POINT
5
45
100
AcDbEntity
8
2
62
256
6
ByLayer
370
-1
48
1
60
0
100
AcDbPoint
10
32
20
26.875
30
0
39
0
210
0
220
0
230
1
50
360
0
POINT
5
47
100
AcDbEntity
8
1
62
256
6
ByLayer
370
-1
48
1
60
0
100
AcDbPoint
10
32.005843
20
26.911222
30
0
39
0
210
0
220
0
230
1
50
360
0
POINT
5
49
100
AcDbEntity
8
1
62
256
6
ByLayer
370
-1
48
1
60
0
100
AcDbPoint
10
32.005843
20
26.911222
30
0
39
0
210
0
220
0
230
1
50
360
0
POINT
5
4A
100
AcDbEntity
8
1
62
256
6
ByLayer
370
-1
48
1
60
0
100
AcDbPoint
10
31.000142
20
25.576468
30
0
39
0
210
0
220
0
230
1
50
360
0
SPLINE
5
2F0
100
AcDbEntity
8
1
62
256
6
ByLayer
370
-1
48
1
60
0
100
AcDbSpline
70
4
71
3
72
11
73
7
40
0
40
0
40
0
40
0
40
0.226188693917544
40
0.588397116288037
40
0.934058373065583
40
1
40
1
40
1
40
1
41
1
10
31.6567706825921
20
13.734020815106
30
0
41
1
10
31.7000468378746
20
13.6795369488793
30
0
41
1
10
31.8082462206628
20
13.5342523715755
30
0
41
1
10
31.9613117775952
20
13.2912005754644
30
0
41
1
10
32.0746225039078
20
13.081175861996
30
0
41
1
10
32.1225268045677
20
12.9641037131244
30
0
41
1
10
32.1299799705218
20
12.9452417988128
30
0
0
SPLINE
5
2F1
100
AcDbEntity
8
1
62
256
6
ByLayer
370
-1
48
1
60
0
100
AcDbSpline
70
4
71
3
72
11
73
7
40
0
40
0
40
0
40
0
40
0.20477423515171
40
0.480508190968261
40
0.775349245823378
40
1
40
1
40
1
40
1
41
1
10
32.1421444500033
20
9.58639672118778
30
0
41
1
10
32.1091463027918
20
9.50441144297271
30
0
41
1
10
32.0240416014077
20
9.31612394104782
30
0
41
1
10
31.8533324900173
20
9.02856022467869
30
0
41
1
10
31.6520481459914
20
8.7508877929468
30
0
41
1
10
31.5024959751271
20
8.58489955455487
30
0
41
1
10
31.4357040131687
20
8.51485799753996
30
0
0
SPLINE
5
2F2
100
AcDbEntity
8
1
62
256
6
ByLayer
370
-1
48
1
60
0
100
AcDbSpline
70
4
71
1
72
4
73
2
40
0
40
0
40
1
40
1
41
1
10
22.7193348472746
20
22.202101014846
30
0
41
1
10
22.6106558379373
20
21.7139269797371
30
0
0
SPLINE
5
2F3
100
AcDbEntity
8
SK1
62
256
6
ByLayer
370
-1
48
1
60
0
100
AcDbSpline
70
4
71
3
72
8
73
4
40
0
40
0
40
0
40
0
40
1
40
1
40
1
40
1
41
1
10
0
20
-18.6995029779807
30
0
41
1
10
-0.0831995072585414
20
-18.6260454864902
30
0
41
1
10
-0.166372838435052
20
-18.5525484468556
30
0
41
1
10
-0.249519052838338
20
-18.4790105443333
30
0
0
SPLINE
5
2F4
100
AcDbEntity
8
SK1
62
256
6
ByLayer
370
-1
48
1
60
0
100
AcDbSpline
70
4
71
3
72
8
73
4
40
0
40
0
40
0
40
0
40
1
40
1
40
1
40
1
41
1
10
0
20
-19.1454018402203
30
0
41
1
10
-0.0832962738564049
20
-19.0547325687286
30
0
41
1
10
-0.166470906512473
20
-18.9639140498515
30
0
41
1
10
-0.249519052838338
20
-18.8729418033523
30
0
0
SPLINE
5
2F5
100
AcDbEntity
8
SK1
62
256
6
ByLayer
370
-1
48
1
60
0
100
AcDbSpline
70
4
71
3
72
8
73
4
40
0
40
0
40
0
40
0
40
1
40
1
40
1
40
1
41
1
10
0
20
5.98301024765146
30
0
41
1
10
-0.0843116200382497
20
5.86018989155255
30
0
41
1
10
-0.167536471258103
20
5.73636178632356
30
0
41
1
10
-0.249519052838338
20
5.61145683315186
30
0
0
SPLINE
5
2F6
100
AcDbEntity
8
SK1
62
256
6
ByLayer
370
-1
48
1
60
0
100
AcDbSpline
70
4
71
3
72
8
73
4
40
0
40
0
40
0
40
0
40
1
40
1
40
1
40
1
41
1
10
0
20
14.183490812332
30
0
41
1
10
-0.0840281136433134
20
14.0241122346499
30
0
41
1
10
-0.167216153527676
20
13.8641387078905
30
0
41
1
10
-0.249519052838338
20
13.7035643018125
30
0
0
SPLINE
5
2F7
100
AcDbEntity
8
SK1
62
256
6
ByLayer
370
-1
48
1
60
0
100
AcDbSpline
70
4
71
3
72
8
73
4
40
0
40
0
40
0
40
0
40
1
40
1
40
1
40
1
41
1
10
0
20
-12.6311682604383
30
0
41
1
10
-0.0844518749535723
20
-12.4455098841085
30
0
41
1
10
-0.167648592736953
20
-12.2590823591226
30
0
41
1
10
-0.249519052838338
20
-12.0718886217914
30
0
0
SPLINE
5
2F8
100
AcDbEntity
8
1
62
256
6
ByLayer
370
-1
48
1
60
0
100
AcDbSpline
70
4
71
3
72
8
73
4
40
0
40
0
40
0
40
0
40
1
40
1
40
1
40
1
41
1
10
0
20
12.6311682604383
30
0
41
1
10
0.128658059895059
20
12.914009186291
30
0
41
1
10
0.260243397498556
20
13.1950971379547
30
0
41
1
10
0.394519052838319
20
13.4744348947103
30
0
0
SPLINE
5
2F9
100
AcDbEntity
8
SK1
62
256
6
ByLayer
370
-1
48
1
60
0
100
AcDbSpline
70
4
71
3
72
8
73
4
40
0
40
0
40
0
40
0
40
1
40
1
40
1
40
1
41
1
10
0
20
-18.4877367901945
30
0
41
1
10
-0.083376546037556
20
-18.3859403967323
30
0
41
1
10
-0.16655242241734
20
-18.2839243209088
30
0
41
1
10
-0.249519052838338
20
-18.181682346768
30
0
0
SPLINE
5
2FA
100
AcDbEntity
8
1
62
256
6
ByLayer
370
-1
48
1
60
0
100
AcDbSpline
70
4
71
3
72
8
73
4
40
0
40
0
40
0
40
0
40
1
40
1
40
1
40
1
41
1
10
0
20
-19.2917446495518
30
0
41
1
10
0.131276854193146
20
-19.4276643880555
30
0
41
1
10
0.262787655213145
20
-19.5632833936142
30
0
41
1
10
0.394519052838319
20
-19.6986154928503
30
0
0
SPLINE
5
2FB
100
AcDbEntity
8
1
62
256
6
ByLayer
370
-1
48
1
60
0
100
AcDbSpline
70
4
71
3
72
8
73
4
40
0
40
0
40
0
40
0
40
1
40
1
40
1
40
1
41
1
10
0
20
-16.4596905081325
30
0
41
1
10
0.130450045331941
20
-16.6591749695091
30
0
41
1
10
0.26198177360439
20
-16.8577217216663
30
0
41
1
10
0.394519052838319
20
-17.0553632209806
30
0
0
SPLINE
5
2FC
100
AcDbEntity
8
SK1
62
256
6
ByLayer
370
-1
48
1
60
0
100
AcDbSpline
70
4
71
3
72
8
73
4
40
0
40
0
40
0
40
0
40
1
40
1
40
1
40
1
41
1
10
0
20
-15.4368523871774
30
0
41
1
10
-0.0837817374583381
20
-15.2955438255014
30
0
41
1
10
-0.166964923531196
20
-15.1537593946222
30
0
41
1
10
-0.249519052838338
20
-15.0114907404589
30
0
0
SPLINE
5
2FD
100
AcDbEntity
8
1
62
256
6
ByLayer
370
-1
48
1
60
0
100
AcDbSpline
70
4
71
3
72
8
73
4
40
0
40
0
40
0
40
0
40
1
40
1
40
1
40
1
41
1
10
0
20
9.41654987898986
30
0
41
1
10
0.131088642845327
20
9.54993805463116
30
0
41
1
10
0.262611087046167
20
9.68275952809725
30
0
41
1
10
0.394519052838319
20
9.81506636790175
30
0
0
SPLINE
5
2FE
100
AcDbEntity
8
SK1
62
256
6
ByLayer
370
-1
48
1
60
0
100
AcDbSpline
70
4
71
3
72
8
73
4
40
0
40
0
40
0
40
0
40
1
40
1
40
1
40
1
41
1
10
0
20
19.3208801979494
30
0
41
1
10
-0.0832455498896536
20
19.2385518046065
30
0
41
1
10
-0.166419466436651
20
19.1561267310563
30
0
41
1
10
-0.249519052838338
20
19.0736019583787
30
0
0
SPLINE
5
2FF
100
AcDbEntity
8
SK1
62
256
6
ByLayer
370
-1
48
1
60
0
100
AcDbSpline
70
4
71
3
72
8
73
4
40
0
40
0
40
0
40
0
40
1
40
1
40
1
40
1
41
1
10
0
20
19.2917446495518
30
0
41
1
10
-0.0832682037895154
20
19.2055314891718
30
0
41
1
10
-0.166442432040981
20
19.1191971441407
30
0
41
1
10
-0.249519052838338
20
19.0327379005148
30
0
0
SPLINE
5
300
100
AcDbEntity
8
1
62
256
6
ByLayer
370
-1
48
1
60
0
100
AcDbSpline
70
4
71
3
72
8
73
4
40
0
40
0
40
0
40
0
40
1
40
1
40
1
40
1
41
1
10
0
20
19.2333411456125
30
0
41
1
10
0.131375561072161
20
19.3579451495771
30
0
41
1
10
0.262884337371048
20
19.4823620925447
30
0
41
1
10
0.394519052838319
20
19.6066008845751
30
0
0
SPLINE
5
301
100
AcDbEntity
8
SK1
62
256
6
ByLayer
370
-1
48
1
60
0
100
AcDbSpline
70
4
71
3
72
8
73
4
40
0
40
0
40
0
40
0
40
1
40
1
40
1
40
1
41
1
10
0
20
16.8981185823602
30
0
41
1
10
-0.0831758476997777
20
16.8296416826295
30
0
41
1
10
-0.166348900140491
20
16.76116025562
30
0
41
1
10
-0.249519052838338
20
16.6926741335383
30
0
0
SPLINE
5
302
100
AcDbEntity
8
SK1
62
256
6
ByLayer
370
-1
48
1
60
0
100
AcDbSpline
70
4
71
3
72
8
73
4
40
0
40
0
40
0
40
0
40
1
40
1
40
1
40
1
41
1
10
0
20
17.9630568563235
30
0
41
1
10
-0.0834352757658792
20
17.8541907726336
30
0
41
1
10
-0.166612124255238
20
17.7450598241335
30
0
41
1
10
-0.249519052838338
20
17.6356568712878
30
0
0
SPLINE
5
303
100
AcDbEntity
8
1
62
256
6
ByLayer
370
-1
48
1
60
0
100
AcDbSpline
70
4
71
3
72
8
73
4
40
0
40
0
40
0
40
0
40
1
40
1
40
1
40
1
41
1
10
0
20
18.6995029779807
30
0
41
1
10
0.131442149365427
20
18.8155542730744
30
0
41
1
10
0.262949664135363
20
18.9315069156534
30
0
41
1
10
0.394519052838319
20
19.0473658062967
30
0
0
SPLINE
5
304
100
AcDbEntity
8
SK1
62
256
6
ByLayer
370
-1
48
1
60
0
100
AcDbSpline
70
4
71
3
72
8
73
4
40
0
40
0
40
0
40
0
40
1
40
1
40
1
40
1
41
1
10
0
20
18.8791263469343
30
0
41
1
10
-0.0833315242048229
20
18.7833167506412
30
0
41
1
10
-0.166506688858249
20
18.6873254601423
30
0
41
1
10
-0.249519052838338
20
18.5911471576056
30
0
0
SPLINE
5
305
100
AcDbEntity
8
1
62
256
6
ByLayer
370
-1
48
1
60
0
100
AcDbSpline
70
4
71
3
72
8
73
4
40
0
40
0
40
0
40
0
40
1
40
1
40
1
40
1
41
1
10
0
20
15.9740856271496
30
0
41
1
10
0.131506148378492
20
16.0814850449873
30
0
41
1
10
0.263012503329605
20
16.1888841255729
30
0
41
1
10
0.394519052838319
20
16.2962828885178
30
0
0
SPLINE
5
306
100
AcDbEntity
8
1
62
256
6
ByLayer
370
-1
48
1
60
0
100
AcDbSpline
70
4
71
3
72
8
73
4
40
0
40
0
40
0
40
0
40
1
40
1
40
1
40
1
41
1
10
0
20
17.2929584404609
30
0
41
1
10
0.130699965526105
20
17.4766490191934
30
0
41
1
10
0.262224882939222
20
17.6595606391472
30
0
41
1
10
0.394519052838319
20
17.8417232227021
30
0
0
SPLINE
5
307
100
AcDbEntity
8
1
62
256
6
ByLayer
370
-1
48
1
60
0
100
AcDbSpline
70
4
71
3
72
8
73
4
40
0
40
0
40
0
40
0
40
1
40
1
40
1
40
1
41
1
10
0
20
-16.8981185823602
30
0
41
1
10
0.131499494301977
20
-17.0063793087006
30
0
41
1
10
0.263005974523594
20
-17.1146287218544
30
0
41
1
10
0.394519052838319
20
-17.2228674449602
30
0
0
SPLINE
5
308
100
AcDbEntity
8
1
62
256
6
ByLayer
370
-1
48
1
60
0
100
AcDbSpline
70
4
71
3
72
8
73
4
40
0
40
0
40
0
40
0
40
1
40
1
40
1
40
1
41
1
10
0
20
13.4507030159581
30
0
41
1
10
0.131474683017728
20
13.5612902597836
30
0
41
1
10
0.262981795084329
20
13.6718261138648
30
0
41
1
10
0.394519052838319
20
13.7823140979466
30
0
0
SPLINE
5
309
100
AcDbEntity
8
SK1
62
256
6
ByLayer
370
-1
48
1
60
0
100
AcDbSpline
70
4
71
3
72
8
73
4
40
0
40
0
40
0
40
0
40
1
40
1
40
1
40
1
41
1
10
0
20
18.2427084508718
30
0
41
1
10
-0.0831894147874266
20
18.1713699316054
30
0
41
1
10
-0.166362626497147
20
18.1000062119281
30
0
41
1
10
-0.249519052838338
20
18.0286164298471
30
0
0
SPLINE
5
30A
100
AcDbEntity
8
1
62
256
6
ByLayer
370
-1
48
1
60
0
100
AcDbSpline
70
4
71
3
72
8
73
4
40
0
40
0
40
0
40
0
40
1
40
1
40
1
40
1
41
1
10
0
20
-14.183490812332
30
0
41
1
10
0.12955220400724
20
-14.429216262006
30
0
41
1
10
0.261110073250762
20
-14.6735448954387
30
0
41
1
10
0.394519052838319
20
-14.9165032325849
30
0
0
SPLINE
5
30B
100
AcDbEntity
8
SK1
62
256
6
ByLayer
370
-1
48
1
60
0
100
AcDbSpline
70
4
71
3
72
8
73
4
40
0
40
0
40
0
40
0
40
1
40
1
40
1
40
1
41
1
10
0
20
16.4596905081325
30
0
41
1
10
-0.083623106564545
20
16.3318138919978
30
0
41
1
10
-0.166803293990711
20
16.2035493499351
30
0
41
1
10
-0.249519052838338
20
16.0748883021891
30
0
0
SPLINE
5
30C
100
AcDbEntity
8
SK1
62
256
6
ByLayer
370
-1
48
1
60
0
100
AcDbSpline
70
4
71
3
72
8
73
4
40
0
40
0
40
0
40
0
40
1
40
1
40
1
40
1
41
1
10
0
20
-9.41654987898986
30
0
41
1
10
-0.0833526587894937
20
-9.33173506323269
30
0
41
1
10
-0.166530386803458
20
-9.24669039428301
30
0
41
1
10
-0.249519052838338
20
-9.16140099075224
30
0
0
SPLINE
5
30D
100
AcDbEntity
8
SK1
62
256
6
ByLayer
370
-1
48
1
60
0
100
AcDbSpline
70
4
71
3
72
8
73
4
40
0
40
0
40
0
40
0
40
1
40
1
40
1
40
1
41
1
10
0
20
10.6499489023893
30
0
41
1
10
-0.0853229403857085
20
10.4205429189484
30
0
41
1
10
-0.168538126347244
20
10.1900748976197
30
0
41
1
10
-0.249519052838338
20
9.95857998009566
30
0
0
SPLINE
5
30E
100
AcDbEntity
8
1
62
256
6
ByLayer
370
-1
48
1
60
0
100
AcDbSpline
70
4
71
3
72
8
73
4
40
0
40
0
40
0
40
0
40
1
40
1
40
1
40
1
41
1
10
0
20
7.92441869309681
30
0
41
1
10
0.122557944122832
20
8.38066645202932
30
0
41
1
10
0.25434140223021
20
8.83372695911297
30
0
41
1
10
0.394519052838319
20
9.28315947401119
30
0
0
SPLINE
5
30F
100
AcDbEntity
8
SK1
62
256
6
ByLayer
370
-1
48
1
60
0
100
AcDbSpline
70
4
71
3
72
8
73
4
40
0
40
0
40
0
40
0
40
1
40
1
40
1
40
1
41
1
10
0
20
-15.9740856271496
30
0
41
1
10
-0.0831731013446984
20
-15.9061592010903
30
0
41
1
10
-0.166346120039435
20
-15.8382326400955
30
0
41
1
10
-0.249519052838338
20
-15.7703059388672
30
0
0
SPLINE
5
310
100
AcDbEntity
8
SK1
62
256
6
ByLayer
370
-1
48
1
60
0
100
AcDbSpline
70
4
71
3
72
8
73
4
40
0
40
0
40
0
40
0
40
1
40
1
40
1
40
1
41
1
10
0
20
-13.4507030159581
30
0
41
1
10
-0.0831862082840189
20
-13.380732636207
30
0
41
1
10
-0.166359434825864
20
-13.3107416731093
30
0
41
1
10
-0.249519052838338
20
-13.2407291626788
30
0
0
SPLINE
5
311
100
AcDbEntity
8
SK1
62
256
6
ByLayer
370
-1
48
1
60
0
100
AcDbSpline
70
4
71
3
72
8
73
4
40
0
40
0
40
0
40
0
40
1
40
1
40
1
40
1
41
1
10
0
20
-17.2929584404609
30
0
41
1
10
-0.0835139622307679
20
-17.1755848207153
30
0
41
1
10
-0.166692173533136
20
-17.0578915172672
30
0
41
1
10
-0.249519052838338
20
-16.9398705309347
30
0
0
SPLINE
5
312
100
AcDbEntity
8
1
62
256
6
ByLayer
370
-1
48
1
60
0
100
AcDbSpline
70
4
71
3
72
8
73
4
40
0
40
0
40
0
40
0
40
1
40
1
40
1
40
1
41
1
10
0
20
-14.8423856446161
30
0
41
1
10
0.131501640983174
20
-14.9502972007992
30
0
41
1
10
0.263008092457539
20
-15.0582009412332
30
0
41
1
10
0.394519052838319
20
-15.1660973535886
30
0
0
SPLINE
5
313
100
AcDbEntity
8
1
62
256
6
ByLayer
370
-1
48
1
60
0
100
AcDbSpline
70
4
71
3
72
8
73
4
40
0
40
0
40
0
40
0
40
1
40
1
40
1
40
1
41
1
10
0
20
15.4368523871774
30
0
41
1
10
0.130093023525688
20
15.6562708260424
30
0
41
1
10
0.261634896238689
20
15.87455214455
30
0
41
1
10
0.394519052838319
20
16.0917289824197
30
0
0
SPLINE
5
314
100
AcDbEntity
8
SK1
62
256
6
ByLayer
370
-1
48
1
60
0
100
AcDbSpline
70
4
71
3
72
8
73
4
40
0
40
0
40
0
40
0
40
1
40
1
40
1
40
1
41
1
10
0
20
14.8423856446161
30
0
41
1
10
-0.0831749697857163
20
14.774131436091
30
0
41
1
10
-0.166348014707381
20
14.7058740999149
30
0
41
1
10
-0.249519052838338
20
14.637613503657
30
0
0
SPLINE
5
315
100
AcDbEntity
8
SK1
62
256
6
ByLayer
370
-1
48
1
60
0
100
AcDbSpline
70
4
71
3
72
8
73
4
40
0
40
0
40
0
40
0
40
1
40
1
40
1
40
1
41
1
10
0
20
11.7066823491331
30
0
41
1
10
-0.0832221958467869
20
11.6324097762753
30
0
41
1
10
-0.166396158696614
20
11.5580650812788
30
0
41
1
10
-0.249519052838338
20
11.483644388276
30
0
0
SPLINE
5
316
100
AcDbEntity
8
1
62
256
6
ByLayer
370
-1
48
1
60
0
100
AcDbSpline
70
4
71
3
72
8
73
4
40
0
40
0
40
0
40
0
40
1
40
1
40
1
40
1
41
1
10
0
20
-11.7066823491331
30
0
41
1
10
0.131389411454364
20
-11.8239422884521
30
0
41
1
10
0.262899137267397
20
-11.9410226641193
30
0
41
1
10
0.394519052838348
20
-12.0579374210678
30
0
0
SPLINE
5
317
100
AcDbEntity
8
SK1
62
256
6
ByLayer
370
-1
48
1
60
0
100
AcDbSpline
70
4
71
3
72
8
73
4
40
0
40
0
40
0
40
0
40
1
40
1
40
1
40
1
41
1
10
0
20
-19.2333411456125
30
0
41
1
10
-0.0832270823895556
20
-19.1544038788987
30
0
41
1
10
-0.166400755928578
20
-19.0753914664499
30
0
41
1
10
-0.249519052838338
20
-18.9963015174965
30
0
0
SPLINE
5
318
100
AcDbEntity
8
1
62
256
6
ByLayer
370
-1
48
1
60
0
100
AcDbSpline
70
4
71
3
72
8
73
4
40
0
40
0
40
0
40
0
40
1
40
1
40
1
40
1
41
1
10
0
20
-18.2427084508718
30
0
41
1
10
0.131466595340072
20
-18.355446739373
30
0
41
1
10
0.262973667389161
20
-18.4681221179633
30
0
41
1
10
0.394519052838348
20
-18.5807377979135
30
0
0
SPLINE
5
319
100
AcDbEntity
8
SK1
62
256
6
ByLayer
370
-1
48
1
60
0
100
AcDbSpline
70
4
71
3
72
8
73
4
40
0
40
0
40
0
40
0
40
1
40
1
40
1
40
1
41
1
10
0
20
19.0275172217373
30
0
41
1
10
-0.0832119351491656
20
18.9515279375099
30
0
41
1
10
-0.166385417532922
20
18.875482473715
30
0
41
1
10
-0.249519052838338
20
18.7993790062494
30
0
0
SPLINE
5
31A
100
AcDbEntity
8
1
62
256
6
ByLayer
370
-1
48
1
60
0
100
AcDbSpline
70
4
71
3
72
8
73
4
40
0
40
0
40
0
40
0
40
1
40
1
40
1
40
1
41
1
10
0
20
-5.98301024765145
30
0
41
1
10
0.129090328529031
20
-6.17106167059488
30
0
41
1
10
0.260749519023733
20
-6.35678893830931
30
0
41
1
10
0.394519052847272
20
-6.54042817882781
30
0
0
SPLINE
5
31B
100
AcDbEntity
8
1
62
256
6
ByLayer
370
-1
48
1
60
0
100
AcDbSpline
70
4
71
3
72
8
73
4
40
0
40
0
40
0
40
0
40
1
40
1
40
1
40
1
41
1
10
0
20
19.1454018402203
30
0
41
1
10
0.131209869747579
20
19.2882257956237
30
0
41
1
10
0.262722134736862
20
19.4306801575146
30
0
41
1
10
0.394519052838319
20
19.572781595349
30
0
0
SPLINE
5
31C
100
AcDbEntity
8
1
62
256
6
ByLayer
370
-1
48
1
60
0
100
AcDbSpline
70
4
71
3
72
8
73
4
40
0
40
0
40
0
40
0
40
1
40
1
40
1
40
1
41
1
10
0
20
-17.9630568563235
30
0
41
1
10
0.130882435689898
20
-18.1338318440795
30
0
41
1
10
0.262402589278366
20
-18.3039576866996
30
0
41
1
10
0.394519052838319
20
-18.4734609781557
30
0
0
SPLINE
5
31D
100
AcDbEntity
8
1
62
256
6
ByLayer
370
-1
48
1
60
0
100
AcDbSpline
70
4
71
3
72
8
73
4
40
0
40
0
40
0
40
0
40
1
40
1
40
1
40
1
41
1
10
0
20
17.6471360742617
30
0
41
1
10
0.131485811585407
20
17.7572435888389
30
0
41
1
10
0.262992539514613
20
17.8673178070594
30
0
41
1
10
0.394519052838319
20
17.977360486755
30
0
0
SPLINE
5
31E
100
AcDbEntity
8
1
62
256
6
ByLayer
370
-1
48
1
60
0
100
AcDbSpline
70
4
71
3
72
8
73
4
40
0
40
0
40
0
40
0
40
1
40
1
40
1
40
1
41
1
10
0
20
2.7697313269525
30
0
41
1
10
-0.167692085966053
20
0.931215315281534
30
0
41
1
10
-0.169152595808299
20
-0.915202808103956
30
0
41
1
10
0
20
-2.7697313269525
30
0
0
SPLINE
5
31F
100
AcDbEntity
8
1
62
256
6
ByLayer
370
-1
48
1
60
0
100
AcDbSpline
70
4
71
3
72
8
73
4
40
0
40
0
40
0
40
0
40
1
40
1
40
1
40
1
41
1
10
0
20
-19.3208801979494
30
0
41
1
10
0.131331144961194
20
-19.4507644040705
30
0
41
1
10
0.262840810877805
20
-19.5804082781262
30
0
41
1
10
0.394519052838319
20
-19.709823065951
30
0
0
SPLINE
5
320
100
AcDbEntity
8
SK1
62
256
6
ByLayer
370
-1
48
1
60
0
100
AcDbSpline
70
4
71
3
72
8
73
4
40
0
40
0
40
0
40
0
40
1
40
1
40
1
40
1
41
1
10
0
20
-17.6471360742617
30
0
41
1
10
-0.0831814897333629
20
-17.5774790749024
30
0
41
1
10
-0.166354608804397
20
-17.507808745594
30
0
41
1
10
-0.249519052838338
20
-17.4381246139465
30
0
0
SPLINE
5
321
100
AcDbEntity
8
1
62
256
6
ByLayer
370
-1
48
1
60
0
100
AcDbSpline
70
4
71
3
72
8
73
4
40
0
40
0
40
0
40
0
40
1
40
1
40
1
40
1
41
1
10
0
20
-18.8791263469343
30
0
41
1
10
0.13112617985135
20
-19.0298873761474
30
0
41
1
10
0.262640357753725
20
-19.1801996475
30
0
41
1
10
0.394519052838319
20
-19.3300829388625
30
0
0
SPLINE
5
322
100
AcDbEntity
8
1
62
256
6
ByLayer
370
-1
48
1
60
0
100
AcDbSpline
70
4
71
3
72
8
73
4
40
0
40
0
40
0
40
0
40
1
40
1
40
1
40
1
41
1
10
0
20
18.4877367901945
30
0
41
1
10
0.131019951491623
20
18.6477021421703
30
0
41
1
10
0.262536668669412
20
18.8071267308867
30
0
41
1
10
0.394519052838319
20
18.9660336777981
30
0
0
SPLINE
5
323
100
AcDbEntity
8
1
62
256
6
ByLayer
370
-1
48
1
60
0
100
AcDbSpline
70
4
71
3
72
8
73
4
40
0
40
0
40
0
40
0
40
1
40
1
40
1
40
1
41
1
10
0
20
-19.0275172217373
30
0
41
1
10
0.131412099455616
20
-19.1475229800285
30
0
41
1
10
0.26292017266897
20
-19.2673887300816
30
0
41
1
10
0.394519052838319
20
-19.3871212716832
30
0
0
SPLINE
5
324
100
AcDbEntity
8
1
62
256
6
ByLayer
370
-1
48
1
60
0
100
AcDbSpline
70
4
71
3
72
8
73
4
40
0
40
0
40
0
40
0
40
1
40
1
40
1
40
1
41
1
10
0
20
-2.7697313269525
30
0
41
1
10
0.0874358963161512
20
-3.72834719988381
30
0
41
1
10
0.220393475081408
20
-4.6866807251749
30
0
41
1
10
0.394519052838291
20
-5.63341609185697
30
0
0
SPLINE
5
325
100
AcDbEntity
8
1
62
256
6
ByLayer
370
-1
48
1
60
0
100
AcDbSpline
70
4
71
3
72
8
73
4
40
0
40
0
40
0
40
0
40
1
40
1
40
1
40
1
41
1
10
0
20
-10.6499489023893
30
0
41
1
10
0.126948364210165
20
-10.9912722816142
30
0
41
1
10
0.258588067896966
20
-11.3303132235976
30
0
41
1
10
0.394519052838319
20
-11.6669928763094
30
0
0
SPLINE
5
326
100
AcDbEntity
8
1
62
256
6
ByLayer
370
-1
48
1
60
0
100
AcDbSpline
70
4
71
3
72
8
73
4
40
0
40
0
40
0
40
0
40
1
40
1
40
1
40
1
41
1
10
25.797243977836
20
18.6407004692562
30
0
41
1
10
25.7906501419502
20
18.6404134008719
30
0
41
1
10
25.784056344762
20
18.6401263570012
30
0
41
1
10
25.7774625847393
20
18.6398393366724
30
0
0
SPLINE
5
327
100
AcDbEntity
8
1
62
256
6
ByLayer
370
-1
48
1
60
0
100
AcDbSpline
70
4
71
3
72
30
73
26
40
0
40
0
40
0
40
0
40
0.0511772287528937
40
0.0511772287528937
40
0.135075241067807
40
0.135075241067807
40
0.271834780652456
40
0.271834780652456
40
0.469061266910915
40
0.469061266910915
40
0.500636061959781
40
0.500636061959781
40
0.599800502489174
40
0.599800502489174
40
0.697557955314496
40
0.697557955314496
40
0.781333785463091
40
0.781333785463091
40
0.847844869822079
40
0.847844869822079
40
0.899113486931144
40
0.899113486931144
40
0.939077913069162
40
0.939077913069162
40
1
40
1
40
1
40
1
41
1
10
26.1862123299376
20
17.9879938563826
30
0
41
1
10
26.1952536885757
20
17.9958501941635
30
0
41
1
10
26.2023411237446
20
18.0055747152503
30
0
41
1
10
26.2162457808864
20
18.033402801724
30
0
41
1
10
26.220445718365
20
18.0533351344654
30
0
41
1
10
26.2238416383998
20
18.1071509512143
30
0
41
1
10
26.2185236676093
20
18.1431211488407
30
0
41
1
10
26.1953915565414
20
18.2305980434016
30
0
41
1
10
26.1725602247577
20
18.28390448541
30
0
41
1
10
26.1395617190858
20
18.3435751558256
30
0
41
1
10
26.1347966449232
20
18.3518704485054
30
0
41
1
10
26.1144826866865
20
18.3859581957555
30
0
41
1
10
26.0975375254497
20
18.4114649933948
30
0
41
1
10
26.0613132373674
20
18.4604182907428
30
0
41
1
10
26.0419523501853
20
18.484055083575
30
0
41
1
10
26.0037780789728
20
18.5255065729163
30
0
41
1
10
25.9851672669992
20
18.543797960268
30
0
41
1
10
25.9502139570168
20
18.5739583222143
30
0
41
1
10
25.9340976049592
20
18.5864558607434
30
0
41
1
10
25.9046248615149
20
18.606107708877
30
0
41
1
10
25.8914048984606
20
18.6138778740666
30
0
41
1
10
25.8674432564295
20
18.6255570772117
30
0
41
1
10
25.8567353506502
20
18.6299658826717
30
0
41
1
10
25.8297335810227
20
18.6385017624286
30
0
41
1
10
25.8130109972661
20
18.64138690017
30
0
41
1
10
25.797243977836
20
18.6407004692562
30
0
0
SPLINE
5
328
100
AcDbEntity
8
1
62
256
6
ByLayer
370
-1
48
1
60
0
100
AcDbSpline
70
4
71
3
72
30
73
26
40
0
40
0
40
0
40
0
40
0.051519488930991
40
0.051519488930991
40
0.0928771460763386
40
0.0928771460763386
40
0.148185150442216
40
0.148185150442216
40
0.203338923043298
40
0.203338923043298
40
0.287955708682711
40
0.287955708682711
40
0.372427214532647
40
0.372427214532647
40
0.435367147735167
40
0.435367147735167
40
0.498971020782832
40
0.498971020782832
40
0.701334348038888
40
0.701334348038888
40
0.838887327921248
40
0.838887327921248
40
0.925006664597003
40
0.925006664597003
40
1
40
1
40
1
40
1
41
1
10
25.797243977836
20
19.3927957882209
30
0
41
1
10
25.8106201383423
20
19.3879653957399
30
0
41
1
10
25.8246831624704
20
19.3856976514543
30
0
41
1
10
25.8496501657883
20
19.3852086153362
30
0
41
1
10
25.8607962310385
20
19.3862616319623
30
0
41
1
10
25.8863266055463
20
19.39096912813
30
0
41
1
10
25.9006744147181
20
19.395393821382
30
0
41
1
10
25.928431558419
20
19.4066580816878
30
0
41
1
10
25.9419368983613
20
19.4135319036118
30
0
41
1
10
25.9750168406033
20
19.4332698675803
30
0
41
1
10
25.9941492436003
20
19.4474568442824
30
0
41
1
10
26.030363196083
20
19.4789154513649
30
0
41
1
10
26.0475649083274
20
19.4962945696618
30
0
41
1
10
26.0758329180788
20
19.5287759161054
30
0
41
1
10
26.0873882551283
20
19.5433847897709
30
0
41
1
10
26.1094553402458
20
19.5739411914083
30
0
41
1
10
26.1199839342165
20
19.589942061094
30
0
41
1
10
26.1609899074375
20
19.6583637728431
30
0
41
1
10
26.1865032113724
20
19.7163306502157
30
0
41
1
10
26.2142129999311
20
19.8172578556832
30
0
41
1
10
26.2215231419922
20
19.8600513562989
30
0
41
1
10
26.2225357180562
20
19.9288829504614
30
0
41
1
10
26.2202602491481
20
19.9557149173565
30
0
41
1
10
26.2083078994519
20
20.0029073918022
30
0
41
1
10
26.1993367564662
20
20.024309119164
30
0
41
1
10
26.1862123299376
20
20.0418202687175
30
0
0
SPLINE
5
329
100
AcDbEntity
8
1
62
256
6
ByLayer
370
-1
48
1
60
0
100
AcDbSpline
70
4
71
3
72
22
73
18
40
0
40
0
40
0
40
0
40
0.142057608739133
40
0.142057608739133
40
0.35100481299275
40
0.35100481299275
40
0.487763342941883
40
0.487763342941883
40
0.591529353509406
40
0.591529353509406
40
0.758694969227084
40
0.758694969227084
40
0.858776631808884
40
0.858776631808884
40
0.960359919517387
40
0.960359919517387
40
1
40
1
40
1
40
1
41
1
10
25.5750820831052
20
19.0436178660679
30
0
41
1
10
25.5750820831052
20
19.0664642613773
30
0
41
1
10
25.5761148661617
20
19.0892513568992
30
0
41
1
10
25.5812931001009
20
19.1450001583184
30
0
41
1
10
25.586670935244
20
19.1778865888971
30
0
41
1
10
25.6000078335764
20
19.2305937984332
30
0
41
1
10
25.6064645200374
20
19.2510949627362
30
0
41
1
10
25.6202814496131
20
19.2857835135517
30
0
41
1
10
25.6270727835829
20
19.3003568472092
30
0
41
1
10
25.6472398695057
20
19.3363187478411
30
0
41
1
10
25.662375965494
20
19.3570491378517
30
0
41
1
10
25.6917096856828
20
19.3829026705659
30
0
41
1
10
25.7041161680423
20
19.3910628329013
30
0
41
1
10
25.7308785291213
20
19.4017118602691
30
0
41
1
10
25.7456877303861
20
19.4041574274973
30
0
41
1
10
25.7659942179378
20
19.4024925891908
30
0
41
1
10
25.7717783262651
20
19.4014700195088
30
0
41
1
10
25.7774625847393
20
19.3999393046539
30
0
0
SPLINE
5
32A
100
AcDbEntity
8
1
62
256
6
ByLayer
370
-1
48
1
60
0
100
AcDbSpline
70
4
71
3
72
8
73
4
40
0
40
0
40
0
40
0
40
1
40
1
40
1
40
1
41
1
10
25.7774625847393
20
19.3999393046539
30
0
41
1
10
25.784056344762
20
19.3975581232522
30
0
41
1
10
25.7906501419502
20
19.395176950982
30
0
41
1
10
25.797243977836
20
19.3927957882209
30
0
0
SPLINE
5
32B
100
AcDbEntity
8
1
62
256
6
ByLayer
370
-1
48
1
60
0
100
AcDbSpline
70
4
71
3
72
24
73
20
40
0
40
0
40
0
40
0
40
0.0974021566269759
40
0.0974021566269759
40
0.180354031075308
40
0.180354031075308
40
0.307542616517154
40
0.307542616517154
40
0.412109117009512
40
0.412109117009512
40
0.516348967690755
40
0.516348967690755
40
0.620446917153311
40
0.620446917153311
40
0.724476829459871
40
0.724476829459871
40
0.933310901386041
40
0.933310901386041
40
1
40
1
40
1
40
1
41
1
10
25.7774625847393
20
18.6398393366724
30
0
41
1
10
25.7637586940945
20
18.640403694895
30
0
41
1
10
25.7493045673201
20
18.6440282386463
30
0
41
1
10
25.7240757795608
20
18.6557317754141
30
0
41
1
10
25.7127749478255
20
18.6631605136573
30
0
41
1
10
25.6866346395021
20
18.6849677153375
30
0
41
1
10
25.6726035401663
20
18.7012153828164
30
0
41
1
10
25.6506235566252
20
18.7327284575192
30
0
41
1
10
25.6418476138928
20
18.7479104131608
30
0
41
1
10
25.626364429099
20
18.7789904202937
30
0
41
1
10
25.6196034362222
20
18.7949863362015
30
0
41
1
10
25.6077490448384
20
18.8273661601162
30
0
41
1
10
25.6026346635043
20
18.8438071122758
30
0
41
1
10
25.5938237970247
20
18.8768949031108
30
0
41
1
10
25.5901177823477
20
18.8935790287982
30
0
41
1
10
25.580879931272
20
18.9438334504055
30
0
41
1
10
25.5772060123784
20
18.9776877335301
30
0
41
1
10
25.5753109062169
20
19.0221219031158
30
0
41
1
10
25.5750820831052
20
19.0328806292179
30
0
41
1
10
25.5750820831052
20
19.0436178660679
30
0
0
SPLINE
5
32C
100
AcDbEntity
8
1
62
256
6
ByLayer
370
-1
48
1
60
0
100
AcDbSpline
70
4
71
3
72
22
73
18
40
0
40
0
40
0
40
0
40
0.0973712659846815
40
0.0973712659846815
40
0.180296832630702
40
0.180296832630702
40
0.307445080802983
40
0.307445080802983
40
0.411978418514809
40
0.411978418514809
40
0.516185210010968
40
0.516185210010968
40
0.620250145291764
40
0.620250145291764
40
0.829289859625863
40
0.829289859625863
40
1
40
1
40
1
40
1
41
1
10
27.6449723255622
20
17.5893576638929
30
0
41
1
10
27.6506416969106
20
17.5790244850258
30
0
41
1
10
27.659438012576
20
17.5695705622325
30
0
41
1
10
27.6797719835988
20
17.5556448655804
30
0
41
1
10
27.6909043787537
20
17.5504548242828
30
0
41
1
10
27.7209111289137
20
17.5406790817738
30
0
41
1
10
27.7411968631145
20
17.5376233936075
30
0
41
1
10
27.7784985628654
20
17.5357902851723
30
0
41
1
10
27.7957619927876
20
17.5363249899074
30
0
41
1
10
27.8301096461616
20
17.5393749519539
30
0
41
1
10
27.847304324161
20
17.541895707512
30
0
41
1
10
27.8813598760503
20
17.5484510053466
30
0
41
1
10
27.8982809792138
20
17.5524969096457
30
0
41
1
10
27.9485118666784
20
17.5665070310336
30
0
41
1
10
27.981401430262
20
17.5783659712755
30
0
41
1
10
28.0392334597773
20
17.6032739381633
30
0
41
1
10
28.0646466216471
20
17.6157687498854
30
0
41
1
10
28.089261697528
20
17.6293818118756
30
0
0
SPLINE
5
32D
100
AcDbEntity
8
1
62
256
6
ByLayer
370
-1
48
1
60
0
100
AcDbSpline
70
4
71
3
72
8
73
4
40
0
40
0
40
0
40
0
40
1
40
1
40
1
40
1
41
1
10
26.1728414789748
20
20.0596602820651
30
0
41
1
10
26.1772984033188
20
20.0537136212129
30
0
41
1
10
26.1817553532875
20
20.0477669502358
30
0
41
1
10
26.1862123299376
20
20.0418202687175
30
0
0
SPLINE
5
32E
100
AcDbEntity
8
1
62
256
6
ByLayer
370
-1
48
1
60
0
100
AcDbSpline
70
4
71
3
72
34
73
30
40
0
40
0
40
0
40
0
40
0.0514465755209308
40
0.0514465755209308
40
0.135786144735403
40
0.135786144735403
40
0.20313163521886
40
0.20313163521886
40
0.270315608875092
40
0.270315608875092
40
0.337431278535928
40
0.337431278535928
40
0.404515897625518
40
0.404515897625518
40
0.499929883690876
40
0.499929883690876
40
0.599210771748151
40
0.599210771748151
40
0.697083019894238
40
0.697083019894238
40
0.78095722692277
40
0.78095722692277
40
0.847546414393289
40
0.847546414393289
40
0.898875235580387
40
0.898875235580387
40
0.980803570703582
40
0.980803570703582
40
1
40
1
40
1
40
1
41
1
10
26.86040981588
20
17.608755083307
30
0
41
1
10
26.8645990601389
20
17.6193407547657
30
0
41
1
10
26.871429302425
20
17.6292099478744
30
0
41
1
10
26.8935161862327
20
17.6524354992356
30
0
41
1
10
26.9116295163334
20
17.6645414931706
30
0
41
1
10
26.9473449453899
20
17.6827577294194
30
0
41
1
10
26.9646173990439
20
17.6897184662248
30
0
41
1
10
27.0005561582314
20
17.701722573826
30
0
41
1
10
27.0193408283863
20
17.7068057417
30
0
41
1
10
27.0578109315651
20
17.7154158253305
30
0
41
1
10
27.0775813680365
20
17.7189608637751
30
0
41
1
10
27.1176899418912
20
17.724704259735
30
0
41
1
10
27.1380978093971
20
17.7269120104047
30
0
41
1
10
27.1878611628518
20
17.7307685374184
30
0
41
1
10
27.2175233189763
20
17.7318054860337
30
0
41
1
10
27.2779208130224
20
17.731519612431
30
0
41
1
10
27.3088452635758
20
17.7300995626383
30
0
41
1
10
27.3693430508269
20
17.7246463070942
30
0
41
1
10
27.399133034007
20
17.7206355394389
30
0
41
1
10
27.4527769118035
20
17.7104389539915
30
0
41
1
10
27.4770347933771
20
17.7046165303578
30
0
41
1
10
27.5185391274958
20
17.6917691627505
30
0
41
1
10
27.5363137443426
20
17.6852028961874
30
0
41
1
10
27.5657749901302
20
17.6717041404774
30
0
41
1
10
27.5779971139547
20
17.6651630303901
30
0
41
1
10
27.6068135593615
20
17.6463472775706
30
0
41
1
10
27.6223167523331
20
17.6325718096956
30
0
41
1
10
27.6345987164563
20
17.6129856180026
30
0
41
1
10
27.6366572243676
20
17.6090796940881
30
0
41
1
10
27.6383465200832
20
17.60507295093
30
0
0
SPLINE
5
32F
100
AcDbEntity
8
1
62
256
6
ByLayer
370
-1
48
1
60
0
100
AcDbSpline
70
4
71
3
72
24
73
20
40
0
40
0
40
0
40
0
40
0.0380198325518074
40
0.0380198325518074
40
0.246834654674915
40
0.246834654674915
40
0.404726505663336
40
0.404726505663336
40
0.52615063796288
40
0.52615063796288
40
0.621531995503718
40
0.621531995503718
40
0.776890538332153
40
0.776890538332153
40
0.873684213898039
40
0.873684213898039
40
0.971746172255058
40
0.971746172255058
40
1
40
1
40
1
40
1
41
1
10
26.4131419545795
20
17.6373152269464
30
0
41
1
10
26.418630273778
20
17.6342280255218
30
0
41
1
10
26.4241560278186
20
17.6311972233874
30
0
41
1
10
26.4602073306909
20
17.6119235122961
30
0
41
1
10
26.4918388400251
20
17.5972983562511
30
0
41
1
10
26.5487498252263
20
17.5752603103232
30
0
41
1
10
26.5738041336134
20
17.5669203661139
30
0
41
1
10
26.6186884805224
20
17.5548199690645
30
0
41
1
10
26.638462365371
20
17.5504284784917
30
0
41
1
10
26.6738721530971
20
17.5446406091115
30
0
41
1
10
26.6895450702672
20
17.5427957604269
30
0
41
1
10
26.7302506024771
20
17.5403751132209
30
0
41
1
10
26.755641194657
20
17.5412556059658
30
0
41
1
10
26.7934207062443
20
17.5489124647765
30
0
41
1
10
26.8073572868911
20
17.5534663547994
30
0
41
1
10
26.8313291770156
20
17.5661654702458
30
0
41
1
10
26.8415824508839
20
17.5745935460777
30
0
41
1
10
26.8507797406462
20
17.5871024215958
30
0
41
1
10
26.8526233260099
20
17.5900586357258
30
0
41
1
10
26.8542145370911
20
17.593100481065
30
0
0
SPLINE
5
330
100
AcDbEntity
8
1
62
256
6
ByLayer
370
-1
48
1
60
0
100
AcDbSpline
70
4
71
3
72
8
73
4
40
0
40
0
40
0
40
0
40
1
40
1
40
1
40
1
41
1
10
28.3263453836785
20
17.9661825708503
30
0
41
1
10
28.321744948073
20
17.9700981691076
30
0
41
1
10
28.3171444891754
20
17.974013810504
30
0
41
1
10
28.3125440060256
20
17.977929496819
30
0
0
SPLINE
5
331
100
AcDbEntity
8
1
62
256
6
ByLayer
370
-1
48
1
60
0
100
AcDbSpline
70
4
71
3
72
22
73
18
40
0
40
0
40
0
40
0
40
0.0973712659846913
40
0.0973712659846913
40
0.18029683263071
40
0.18029683263071
40
0.307445080802993
40
0.307445080802993
40
0.411978418514809
40
0.411978418514809
40
0.51618521001098
40
0.51618521001098
40
0.620250145291784
40
0.620250145291784
40
0.829289859625895
40
0.829289859625895
40
1
40
1
40
1
40
1
41
1
10
26.1728414789748
20
17.9763755420891
30
0
41
1
10
26.1646612774358
20
17.9676708983804
30
0
41
1
10
26.1588588367913
20
17.9567775187094
30
0
41
1
10
26.1537259071768
20
17.9347592901162
30
0
41
1
10
26.1534565520083
20
17.9236767081812
30
0
41
1
10
26.157099508996
20
17.8955062340003
30
0
41
1
10
26.1632437780509
20
17.8778987143036
30
0
41
1
10
26.1784007052705
20
17.8470943611125
30
0
41
1
10
26.1868259283934
20
17.833411976912
30
0
41
1
10
26.2055841370284
20
17.8070333661286
30
0
41
1
10
26.2159734759068
20
17.7942502441321
30
0
41
1
10
26.2380989106926
20
17.7696103719063
30
0
41
1
10
26.2498741360823
20
17.7577097946363
30
0
41
1
10
26.2867876046083
20
17.723265512704
30
0
41
1
10
26.313585279897
20
17.7018996754394
30
0
41
1
10
26.3646110715834
20
17.6661645801777
30
0
41
1
10
26.3885268786985
20
17.6511613052408
30
0
41
1
10
26.4131419545795
20
17.6373152269464
30
0
0
SPLINE
5
332
100
AcDbEntity
8
1
62
256
6
ByLayer
370
-1
48
1
60
0
100
AcDbSpline
70
4
71
3
72
8
73
4
40
0
40
0
40
0
40
0
40
1
40
1
40
1
40
1
41
1
10
27.6383465200832
20
17.60507295093
30
0
41
1
10
27.6405551325688
20
17.5998344702517
30
0
41
1
10
27.6427637342526
20
17.5945960419307
30
0
41
1
10
27.6449723255622
20
17.5893576638929
30
0
0
SPLINE
5
333
100
AcDbEntity
8
1
62
256
6
ByLayer
370
-1
48
1
60
0
100
AcDbSpline
70
4
71
3
72
24
73
20
40
0
40
0
40
0
40
0
40
0.0380198325517714
40
0.0380198325517714
40
0.246834654674864
40
0.246834654674864
40
0.404726505663294
40
0.404726505663294
40
0.526150637962844
40
0.526150637962844
40
0.621531995503677
40
0.621531995503677
40
0.776890538332116
40
0.776890538332116
40
0.873684213898011
40
0.873684213898011
40
0.971746172255024
40
0.971746172255024
40
1
40
1
40
1
40
1
41
1
10
26.4131419545795
20
20.4419870901185
30
0
41
1
10
26.4076536353809
20
20.4389518433522
30
0
41
1
10
26.4022019120989
20
20.4358477486319
30
0
41
1
10
26.3671115229853
20
20.4152849900935
30
0
41
1
10
26.3385058581519
20
20.3958260708976
30
0
41
1
10
26.291153005313
20
20.3581033836472
30
0
41
1
10
26.2716172556214
20
20.3406321938875
30
0
41
1
10
26.2393892752366
20
20.3074583053534
30
0
41
1
10
26.2261072060893
20
20.2922235914467
30
0
41
1
10
26.2043755857669
20
20.2635158755181
30
0
41
1
10
26.1954658148751
20
20.2503168288721
30
0
41
1
10
26.1746993013747
20
20.21434940562
30
0
41
1
10
26.1641355865452
20
20.19022089292
30
0
41
1
10
26.1548945742965
20
20.1495615990177
30
0
41
1
10
26.1532519873411
20
20.1332633633672
30
0
41
1
10
26.1554422280791
20
20.1014835292301
30
0
41
1
10
26.1594691578787
20
20.0855808429973
30
0
41
1
10
26.1682053414521
20
20.0674608281543
30
0
41
1
10
26.1704211720345
20
20.0634791350577
30
0
41
1
10
26.1728414789748
20
20.0596602820651
30
0
0
SPLINE
5
334
100
AcDbEntity
8
1
62
256
6
ByLayer
370
-1
48
1
60
0
100
AcDbSpline
70
4
71
3
72
22
73
18
40
0
40
0
40
0
40
0
40
0.0973712659846766
40
0.0973712659846766
40
0.180296832630703
40
0.180296832630703
40
0.307445080802983
40
0.307445080802983
40
0.411978418514803
40
0.411978418514803
40
0.516185210010969
40
0.516185210010969
40
0.620250145291769
40
0.620250145291769
40
0.829289859625867
40
0.829289859625867
40
1
40
1
40
1
40
1
41
1
10
26.8542145370912
20
20.4364851890225
30
0
41
1
10
26.848836530228
20
20.4509419432893
30
0
41
1
10
26.8403294736335
20
20.4644896443183
30
0
41
1
10
26.8204717283667
20
20.4851551905777
30
0
41
1
10
26.809541170388
20
20.4932017598892
30
0
41
1
10
26.7799813899256
20
20.5093033016705
30
0
41
1
10
26.7599163873449
20
20.5154829240304
30
0
41
1
10
26.7229442655746
20
20.5219804295407
30
0
41
1
10
26.7058053637861
20
20.5232081261084
30
0
41
1
10
26.6716702303026
20
20.5231658806385
30
0
41
1
10
26.6545642447936
20
20.5219003575809
30
0
41
1
10
26.6206601443439
20
20.5174884967883
30
0
41
1
10
26.6038020340579
20
20.5143341077318
30
0
41
1
10
26.5537309582765
20
20.5025857428674
30
0
41
1
10
26.5209098570404
20
20.4916957252861
30
0
41
1
10
26.4631539066054
20
20.4678644779023
30
0
41
1
10
26.4377570304605
20
20.4556001521088
30
0
41
1
10
26.4131419545795
20
20.4419870901185
30
0
0
SPLINE
5
335
100
AcDbEntity
8
1
62
256
6
ByLayer
370
-1
48
1
60
0
100
AcDbSpline
70
4
71
3
72
24
73
20
40
0
40
0
40
0
40
0
40
0.0380198325518303
40
0.0380198325518303
40
0.246834654674926
40
0.246834654674926
40
0.404726505663354
40
0.404726505663354
40
0.52615063796289
40
0.52615063796289
40
0.621531995503712
40
0.621531995503712
40
0.776890538332145
40
0.776890538332145
40
0.873684213898026
40
0.873684213898026
40
0.971746172255041
40
0.971746172255041
40
1
40
1
40
1
40
1
41
1
10
28.9273215690023
20
19.0277510359262
30
0
41
1
10
28.9273215690023
20
19.0338734841173
30
0
41
1
10
28.927246305988
20
19.0399909413052
30
0
41
1
10
28.9262693760962
20
19.0796007404387
30
0
41
1
10
28.9231936052086
20
19.1129782257165
30
0
41
1
10
28.9134701698805
20
19.1703994862505
30
0
41
1
10
28.9078547730732
20
19.1948401057069
30
0
41
1
10
28.8949649545602
20
19.2368104303546
30
0
41
1
10
28.8883504643625
20
19.2547004673846
30
0
41
1
10
28.8744011622695
20
19.2853587822257
30
0
41
1
10
28.867500238396
20
19.2984527614513
30
0
41
1
10
28.847136735728
20
19.3308332651095
30
0
41
1
10
28.8319789092369
20
19.3493974824604
30
0
41
1
10
28.8027368170627
20
19.3724422245103
30
0
41
1
10
28.7901253331105
20
19.3796932461578
30
0
41
1
10
28.7632419114002
20
19.3885657982875
30
0
41
1
10
28.7485448774721
20
19.3901411618921
30
0
41
1
10
28.7300531367366
20
19.3878513461183
30
0
41
1
10
28.7258651065917
20
19.3870565951915
30
0
41
1
10
28.721724277914
20
19.386003516243
30
0
0
SPLINE
5
336
100
AcDbEntity
8
1
62
256
6
ByLayer
370
-1
48
1
60
0
100
AcDbSpline
70
4
71
3
72
22
73
18
40
0
40
0
40
0
40
0
40
0.0973712659846932
40
0.0973712659846932
40
0.180296832630714
40
0.180296832630714
40
0.307445080803
40
0.307445080803
40
0.411978418514827
40
0.411978418514827
40
0.516185210011002
40
0.516185210011002
40
0.620250145291806
40
0.620250145291806
40
0.829289859625917
40
0.829289859625917
40
1
40
1
40
1
40
1
41
1
10
28.721724277914
20
18.6259035482615
30
0
41
1
10
28.7357195330442
20
18.6263368008029
30
0
41
1
10
28.7504629188894
20
18.6298231467986
30
0
41
1
10
28.7761679324047
20
18.6412856035432
30
0
41
1
10
28.7876706013162
20
18.6486064081876
30
0
41
1
10
28.8142578793373
20
18.6701640394956
30
0
41
1
10
28.8285097102933
20
18.6862778381228
30
0
41
1
10
28.8508192718149
20
18.7175812814162
30
0
41
1
10
28.859719742681
20
18.7326795710032
30
0
41
1
10
28.8754154473653
20
18.7636120021216
30
0
41
1
10
28.8822651327315
20
18.7795434959263
30
0
41
1
10
28.8942709755548
20
18.8118103845079
30
0
41
1
10
28.8994483497673
20
18.8282026236982
30
0
41
1
10
28.9128456745475
20
18.8777879052802
30
0
41
1
10
28.9189717940162
20
18.9114971441169
30
0
41
1
10
28.9258160713853
20
18.9726785660185
30
0
41
1
10
28.9273215690023
20
19.0002918956416
30
0
41
1
10
28.9273215690023
20
19.0277510359262
30
0
0
SPLINE
5
337
100
AcDbEntity
8
1
62
256
6
ByLayer
370
-1
48
1
60
0
100
AcDbSpline
70
4
71
3
72
8
73
4
40
0
40
0
40
0
40
0
40
1
40
1
40
1
40
1
41
1
10
28.3125440060256
20
20.0317559091539
30
0
41
1
10
28.3171444891754
20
20.0376597198759
30
0
41
1
10
28.321744948073
20
20.0435635202977
30
0
41
1
10
28.3263453836785
20
20.0494673108263
30
0
0
SPLINE
5
338
100
AcDbEntity
8
1
62
256
6
ByLayer
370
-1
48
1
60
0
100
AcDbSpline
70
4
71
3
72
8
73
4
40
0
40
0
40
0
40
0
40
1
40
1
40
1
40
1
41
1
10
28.721724277914
20
19.386003516243
30
0
41
1
10
28.7149870066297
20
19.3836854333192
30
0
41
1
10
28.7082497005128
20
19.3813673598678
30
0
41
1
10
28.7015123581272
20
19.3790492962803
30
0
0
SPLINE
5
339
100
AcDbEntity
8
1
62
256
6
ByLayer
370
-1
48
1
60
0
100
AcDbSpline
70
4
71
3
72
8
73
4
40
0
40
0
40
0
40
0
40
1
40
1
40
1
40
1
41
1
10
26.8542145370912
20
17.593100481065
30
0
41
1
10
26.8562796171392
20
17.5983186309486
30
0
41
1
10
26.8583447098941
20
17.603536831006
30
0
41
1
10
26.86040981588
20
17.608755083307
30
0
0
SPLINE
5
33A
100
AcDbEntity
8
1
62
256
6
ByLayer
370
-1
48
1
60
0
100
AcDbSpline
70
4
71
3
72
8
73
4
40
0
40
0
40
0
40
0
40
1
40
1
40
1
40
1
41
1
10
26.1862123299376
20
17.9879938563826
30
0
41
1
10
26.1817553532875
20
17.9841210408639
30
0
41
1
10
26.1772984033188
20
17.9802482700227
30
0
41
1
10
26.1728414789748
20
17.9763755420891
30
0
0
SPLINE
5
33B
100
AcDbEntity
8
1
62
256
6
ByLayer
370
-1
48
1
60
0
100
AcDbSpline
70
4
71
3
72
8
73
4
40
0
40
0
40
0
40
0
40
1
40
1
40
1
40
1
41
1
10
26.86040981588
20
20.4146768146065
30
0
41
1
10
26.8583447098941
20
20.421946290488
30
0
41
1
10
26.8562796171392
20
20.4292157483897
30
0
41
1
10
26.8542145370912
20
20.4364851890225
30
0
0
SPLINE
5
33C
100
AcDbEntity
8
1
62
256
6
ByLayer
370
-1
48
1
60
0
100
AcDbSpline
70
4
71
3
72
22
73
18
40
0
40
0
40
0
40
0
40
0.0973712659846891
40
0.0973712659846891
40
0.180296832630709
40
0.180296832630709
40
0.30744508080299
40
0.30744508080299
40
0.411978418514822
40
0.411978418514822
40
0.516185210010991
40
0.516185210010991
40
0.620250145291793
40
0.620250145291793
40
0.829289859625909
40
0.829289859625909
40
1
40
1
40
1
40
1
41
1
10
28.3263453836785
20
20.0494673108263
30
0
41
1
10
28.3348169497029
20
20.0622955299346
30
0
41
1
10
28.3409086494182
20
20.0772826878415
30
0
41
1
10
28.3465178047887
20
20.1060407660418
30
0
41
1
10
28.3469889971334
20
20.1199798759908
30
0
41
1
10
28.3437930098433
20
20.154476149444
30
0
41
1
10
28.3378694724085
20
20.1752076033343
30
0
41
1
10
28.3230421231695
20
20.2106763536004
30
0
41
1
10
28.3147414281803
20
20.2261211391037
30
0
41
1
10
28.2961957394358
20
20.2555074664639
30
0
41
1
10
28.2858950930477
20
20.2695458209608
30
0
41
1
10
28.2639211097016
20
20.2963291302287
30
0
41
1
10
28.2522088771893
20
20.3091212227412
30
0
41
1
10
28.2154552203465
20
20.3458272611971
30
0
41
1
10
28.1887260074054
20
20.3681620211222
30
0
41
1
10
28.1377762947994
20
20.4049738358879
30
0
41
1
10
28.113876773409
20
20.4202075967533
30
0
41
1
10
28.0892616975281
20
20.4340536750477
30
0
0
SPLINE
5
33D
100
AcDbEntity
8
1
62
256
6
ByLayer
370
-1
48
1
60
0
100
AcDbSpline
70
4
71
3
72
8
73
4
40
0
40
0
40
0
40
0
40
1
40
1
40
1
40
1
41
1
10
27.6449723255622
20
20.4327423718504
30
0
41
1
10
27.6427637342526
20
20.4254931593719
30
0
41
1
10
27.6405551325688
20
20.4182439297337
30
0
41
1
10
27.6383465200832
20
20.4109946822295
30
0
0
SPLINE
5
33E
100
AcDbEntity
8
1
62
256
6
ByLayer
370
-1
48
1
60
0
100
AcDbSpline
70
4
71
3
72
34
73
30
40
0
40
0
40
0
40
0
40
0.0514465755209343
40
0.0514465755209343
40
0.135786144735407
40
0.135786144735407
40
0.203131635218862
40
0.203131635218862
40
0.270315608875093
40
0.270315608875093
40
0.337431278535927
40
0.337431278535927
40
0.404515897625514
40
0.404515897625514
40
0.499929883690875
40
0.499929883690875
40
0.599210771748145
40
0.599210771748145
40
0.697083019894235
40
0.697083019894235
40
0.780957226922761
40
0.780957226922761
40
0.84754641439328
40
0.84754641439328
40
0.898875235580388
40
0.898875235580388
40
0.980803570703579
40
0.980803570703579
40
1
40
1
40
1
40
1
41
1
10
27.6383465200833
20
20.4109946822295
30
0
41
1
10
27.6338661606058
20
20.3962889631541
30
0
41
1
10
27.6267452249735
20
20.3823056930335
30
0
41
1
10
27.6039373337911
20
20.3488759870029
30
0
41
1
10
27.5854080230136
20
20.3308827701159
30
0
41
1
10
27.5490293761322
20
20.3032802536406
30
0
41
1
10
27.5314874508687
20
20.2925057833319
30
0
41
1
10
27.4950660369406
20
20.2736708390451
30
0
41
1
10
27.4760665351141
20
20.2655472368001
30
0
41
1
10
27.4372216115946
20
20.2516324574562
30
0
41
1
10
27.417290354282
20
20.2458113802425
30
0
41
1
10
27.3769150366133
20
20.2362928562732
30
0
41
1
10
27.3564007868231
20
20.232579515896
30
0
41
1
10
27.3064469715201
20
20.2260274517387
30
0
41
1
10
27.2767284965646
20
20.2241934432285
30
0
41
1
10
27.2163310025185
20
20.2244793168312
30
0
41
1
10
27.1854675255137
20
20.2267623030426
30
0
41
1
10
27.1252098675275
20
20.2356140205778
30
0
41
1
10
27.0955980518439
20
20.2421463278941
30
0
41
1
10
27.0423901413921
20
20.2585130003228
30
0
41
1
10
27.0183762815554
20
20.2677889746874
30
0
41
1
10
26.9773831668538
20
20.2878714444374
30
0
41
1
10
26.9598620193759
20
20.2980249706249
30
0
41
1
10
26.930895186376
20
20.3185209703753
30
0
41
1
10
26.9189048805373
20
20.3283429159508
30
0
41
1
10
26.8907240518168
20
20.356154320139
30
0
41
1
10
26.8756585545663
20
20.3761243360766
30
0
41
1
10
26.8639382657969
20
20.4036597144
30
0
41
1
10
26.8619893481505
20
20.4091166294039
30
0
41
1
10
26.86040981588
20
20.4146768146065
30
0
0
SPLINE
5
33F
100
AcDbEntity
8
1
62
256
6
ByLayer
370
-1
48
1
60
0
100
AcDbSpline
70
4
71
3
72
24
73
20
40
0
40
0
40
0
40
0
40
0.0380198325518306
40
0.0380198325518306
40
0.246834654674948
40
0.246834654674948
40
0.404726505663376
40
0.404726505663376
40
0.526150637962917
40
0.526150637962917
40
0.621531995503732
40
0.621531995503732
40
0.77689053833216
40
0.77689053833216
40
0.873684213898045
40
0.873684213898045
40
0.97174617225506
40
0.97174617225506
40
1
40
1
40
1
40
1
41
1
10
28.0892616975281
20
20.4340536750477
30
0
41
1
10
28.0837733783295
20
20.4371408764724
30
0
41
1
10
28.078246802785
20
20.4401600521623
30
0
41
1
10
28.0421848224907
20
20.4592826495894
30
0
41
1
10
28.0105200288986
20
20.473436745659
30
0
41
1
10
27.9534988417202
20
20.4939151431575
30
0
41
1
10
27.9283799745919
20
20.5013414110249
30
0
41
1
10
27.8833399930237
20
20.5112391674505
30
0
41
1
10
27.8634843251775
20
20.5144732130569
30
0
41
1
10
27.8278937809919
20
20.5177029021254
30
0
41
1
10
27.8121290120916
20
20.5182478067399
30
0
41
1
10
27.7711404905761
20
20.5166634094127
30
0
41
1
10
27.7455292656357
20
20.5126603815984
30
0
41
1
10
27.7072806921581
20
20.4983650607597
30
0
41
1
10
27.6931324513374
20
20.4908156214168
30
0
41
1
10
27.6686797006476
20
20.4713110615964
30
0
41
1
10
27.6581485399392
20
20.458950154567
30
0
41
1
10
27.6485790719104
20
20.4411739756498
30
0
41
1
10
27.6466497437475
20
20.4370042749242
30
0
41
1
10
27.6449723255622
20
20.4327423718504
30
0
0
SPLINE
5
340
100
AcDbEntity
8
1
62
256
6
ByLayer
370
-1
48
1
60
0
100
AcDbSpline
70
4
71
3
72
8
73
4
40
0
40
0
40
0
40
0
40
1
40
1
40
1
40
1
41
1
10
28.7015123581272
20
18.6269539773156
30
0
41
1
10
28.7082497005128
20
18.6266038097577
30
0
41
1
10
28.7149870066297
20
18.6262536670683
30
0
41
1
10
28.721724277914
20
18.6259035482615
30
0
0
SPLINE
5
341
100
AcDbEntity
8
1
62
256
6
ByLayer
370
-1
48
1
60
0
100
AcDbSpline
70
4
71
3
72
24
73
20
40
0
40
0
40
0
40
0
40
0.0380198325517623
40
0.0380198325517623
40
0.24683465467485
40
0.24683465467485
40
0.404726505663305
40
0.404726505663305
40
0.526150637962863
40
0.526150637962863
40
0.621531995503691
40
0.621531995503691
40
0.776890538332144
40
0.776890538332144
40
0.873684213898024
40
0.873684213898024
40
0.971746172255039
40
0.971746172255039
40
1
40
1
40
1
40
1
41
1
10
28.089261697528
20
17.6293818118756
30
0
41
1
10
28.0947500167266
20
17.6324170586419
30
0
41
1
10
28.1002009185048
20
17.6355095269178
30
0
41
1
10
28.1352806301963
20
17.655921171792
30
0
41
1
10
28.1638530107718
20
17.6749090310125
30
0
41
1
10
28.2110956616335
20
17.7110720698334
30
0
41
1
10
28.2305668525839
20
17.7276295832513
30
0
41
1
10
28.2626391983096
20
17.7586008311616
30
0
41
1
10
28.2758394844592
20
17.7726781001019
30
0
41
1
10
28.2973903483221
20
17.7988276357188
30
0
41
1
10
28.3062082674838
20
17.8107267382948
30
0
41
1
10
28.3266917916785
20
17.8426891170135
30
0
41
1
10
28.3370348737476
20
17.8636950946442
30
0
41
1
10
28.3458068241058
20
17.8977159265187
30
0
41
1
10
28.3472377508874
20
17.9110186128491
30
0
41
1
10
28.3445666495842
20
17.9359930026122
30
0
41
1
10
28.3402618329444
20
17.9479628576474
30
0
41
1
10
28.3311534711045
20
17.9608155690913
30
0
41
1
10
28.3288518977229
20
17.9635837755923
30
0
41
1
10
28.3263453836785
20
17.9661825708503
30
0
0
SPLINE
5
342
100
AcDbEntity
8
1
62
256
6
ByLayer
370
-1
48
1
60
0
100
AcDbSpline
70
4
71
3
72
34
73
30
40
0
40
0
40
0
40
0
40
0.0514465755209305
40
0.0514465755209305
40
0.135786144735401
40
0.135786144735401
40
0.203131635218858
40
0.203131635218858
40
0.270315608875085
40
0.270315608875085
40
0.337431278535921
40
0.337431278535921
40
0.404515897625514
40
0.404515897625514
40
0.499929883690881
40
0.499929883690881
40
0.599210771748163
40
0.599210771748163
40
0.69708301989425
40
0.69708301989425
40
0.780957226922776
40
0.780957226922776
40
0.847546414393291
40
0.847546414393291
40
0.898875235580394
40
0.898875235580394
40
0.980803570703587
40
0.980803570703587
40
1
40
1
40
1
40
1
41
1
10
28.3125440060256
20
17.977929496819
30
0
41
1
10
28.303211532169
20
17.9858728016797
30
0
41
1
10
28.2958334036538
20
17.9956657912167
30
0
41
1
10
28.2812077391373
20
18.0236289174958
30
0
41
1
10
28.276591820982
20
18.0436029774718
30
0
41
1
10
28.2735942336615
20
18.0806214300089
30
0
41
1
10
28.2741400878004
20
18.097750172082
30
0
41
1
10
28.2780128353352
20
18.132380960608
30
0
41
1
10
28.2813518607363
20
18.1499970136725
30
0
41
1
10
28.2902332530617
20
18.1853674912274
30
0
41
1
10
28.2957960268004
20
18.2031996030802
30
0
41
1
10
28.3087722948878
20
18.2388293775021
30
0
41
1
10
28.3162089087767
20
18.2566886988626
30
0
41
1
10
28.3361661581357
20
18.2996806534804
30
0
41
1
10
28.3495703818313
20
18.3248471355733
30
0
41
1
10
28.3797691288543
20
18.37523613507
30
0
41
1
10
28.3967752636399
20
18.4005822343316
30
0
41
1
10
28.433239680987
20
18.4491914812778
30
0
41
1
10
28.4527787356672
20
18.4726441527857
30
0
41
1
10
28.4913889742245
20
18.5137322054515
30
0
41
1
10
28.5102438079333
20
18.531846260296
30
0
41
1
10
28.5457083373327
20
18.5616733203105
30
0
41
1
10
28.5620781587592
20
18.5740170951844
30
0
41
1
10
28.5920453149913
20
18.5933876022038
30
0
41
1
10
28.6054970960314
20
18.6010315246131
30
0
41
1
10
28.6408421924449
20
18.6176177753515
30
0
41
1
10
28.6637635194565
20
18.624995136646
30
0
41
1
10
28.6911144904789
20
18.627130427442
30
0
41
1
10
28.6963591844942
20
18.6272218090693
30
0
41
1
10
28.7015123581272
20
18.6269539773156
30
0
0
SPLINE
5
343
100
AcDbEntity
8
1
62
256
6
ByLayer
370
-1
48
1
60
0
100
AcDbSpline
70
4
71
3
72
34
73
30
40
0
40
0
40
0
40
0
40
0.0514465755209352
40
0.0514465755209352
40
0.135786144735409
40
0.135786144735409
40
0.203131635218866
40
0.203131635218866
40
0.270315608875102
40
0.270315608875102
40
0.337431278535938
40
0.337431278535938
40
0.404515897625529
40
0.404515897625529
40
0.499929883690878
40
0.499929883690878
40
0.599210771748145
40
0.599210771748145
40
0.697083019894239
40
0.697083019894239
40
0.780957226922762
40
0.780957226922762
40
0.847546414393277
40
0.847546414393277
40
0.898875235580377
40
0.898875235580377
40
0.980803570703572
40
0.980803570703572
40
1
40
1
40
1
40
1
41
1
10
28.7015123581272
20
19.3790492962803
30
0
41
1
10
28.6878450824024
20
19.3743469058739
30
0
41
1
10
28.6734913649281
20
19.3722136637963
30
0
41
1
10
28.6364183129165
20
19.3718491613794
30
0
41
1
10
28.6134810743221
20
19.3767736159445
30
0
41
1
10
28.5744364490327
20
19.3908826921195
30
0
41
1
10
28.5575751137128
20
19.3991438306356
30
0
41
1
10
28.5252677746898
20
19.4183550932175
30
0
41
1
10
28.5097147141002
20
19.4293677612226
30
0
41
1
10
28.4799385930765
20
19.4534758072903
30
0
41
1
10
28.4656505199231
20
19.4666248613139
30
0
41
1
10
28.4383848422488
20
19.4946236757712
30
0
41
1
10
28.4253603974897
20
19.5095224516082
30
0
41
1
10
28.3954590624698
20
19.5473101106406
30
0
41
1
10
28.3791729706254
20
19.5710411141706
30
0
41
1
10
28.3489742236024
20
19.6217159872701
30
0
41
1
10
28.3350863946089
20
19.6489136045337
30
0
41
1
10
28.3111730893373
20
19.7046753380196
30
0
41
1
10
28.3010112445857
20
19.7333995470132
30
0
41
1
10
28.2861955890188
20
19.7877692286171
30
0
41
1
10
28.2809145520224
20
19.8134324824608
30
0
41
1
10
28.2751303570117
20
19.8597244611539
30
0
41
1
10
28.2738522962759
20
19.8804281324031
30
0
41
1
10
28.2746054131142
20
19.9167960171527
30
0
41
1
10
28.2759509793227
20
19.9326214673934
30
0
41
1
10
28.2827974386725
20
19.9725212966357
30
0
41
1
10
28.2904344205731
20
19.9967713998365
30
0
41
1
10
28.3057842651492
20
20.0224674756406
30
0
41
1
10
28.3090252463857
20
20.0272402767271
30
0
41
1
10
28.3125440060256
20
20.0317559091538
30
0
0
SPLINE
5
344
100
AcDbEntity
8
1
62
256
6
ByLayer
370
-1
48
1
60
0
100
AcDbSpline
70
4
71
3
72
8
73
4
40
0
40
0
40
0
40
0
40
1
40
1
40
1
40
1
41
1
10
23.1931947459697
20
22.5195752736869
30
0
41
1
10
23.1928674486192
20
22.5195334243282
30
0
41
1
10
23.1925397962008
20
22.5194914679193
30
0
41
1
10
23.1922117941146
20
22.5194494029736
30
0
0
SPLINE
5
345
100
AcDbEntity
8
1
62
256
6
ByLayer
370
-1
48
1
60
0
100
AcDbSpline
70
4
71
1
72
4
73
2
40
0
40
0
40
1
40
1
41
1.08358774580744
10
19.5651106576214
20
16.7142456980678
30
0
41
1.08358774580744
10
19.5985611960972
20
16.8772335187805
30
0
0
SPLINE
5
346
100
AcDbEntity
8
1
62
256
6
ByLayer
370
-1
48
1
60
0
100
AcDbSpline
70
4
71
3
72
10
73
6
40
0
40
0
40
0
40
0
40
0.722254617258793
40
0.722254617258793
40
1
40
1
40
1
40
1
41
1
10
22.9666334467427
20
22.4678449382479
30
0
41
1
10
23.0165381236385
20
22.4921615696966
30
0
41
1
10
23.071508725554
20
22.5084741975072
30
0
41
1
10
23.1485901637136
20
22.5181415458612
30
0
41
1
10
23.170422801947
20
22.5194861163459
30
0
41
1
10
23.1922117941135
20
22.5194494029737
30
0
0
SPLINE
5
347
100
AcDbEntity
8
1
62
256
6
ByLayer
370
-1
48
1
60
0
100
AcDbSpline
70
4
71
3
72
10
73
6
40
0
40
0
40
0
40
0
40
0.638091248905425
40
0.638091248905425
40
1
40
1
40
1
40
1
41
1
10
22.9666334467427
20
22.4678449382479
30
0
41
1
10
22.9385978312875
20
22.4574756514364
30
0
41
1
10
22.913831232653
20
22.446361552474
30
0
41
1
10
22.8820950107051
20
22.4309769815108
30
0
41
1
10
22.8718623344524
20
22.4257459290082
30
0
41
1
10
22.8632170139509
20
22.4214773545037
30
0
0
SPLINE
5
348
100
AcDbEntity
8
1
62
256
6
ByLayer
370
-1
48
1
60
0
100
AcDbSpline
70
4
71
3
72
12
73
8
40
0
40
0
40
0
40
0
40
0.404644073901354
40
0.404644073901354
40
0.809285947755716
40
0.809285947755716
40
1
40
1
40
1
40
1
41
1
10
22.6988736992669
20
22.0641123213662
30
0
41
1
10
22.6988736992669
20
22.1181595628661
30
0
41
1
10
22.7085338946951
20
22.1729180566476
30
0
41
1
10
22.7455734564292
20
22.274787942225
30
0
41
1
10
22.7734633761762
20
22.3233040845859
30
0
41
1
10
22.8250688745124
20
22.3854398474739
30
0
41
1
10
22.8434540015143
20
22.4042569846191
30
0
41
1
10
22.8632170139528
20
22.421477354506
30
0
0
SPLINE
5
349
100
AcDbEntity
8
SK1
62
256
6
ByLayer
370
-1
48
1
60
0
100
AcDbSpline
70
4
71
3
72
16
73
12
40
0
40
0
40
0
40
0
40
0.247558680792328
40
0.247558680792328
40
0.459132017404154
40
0.459132017404154
40
0.6724863834057
40
0.6724863834057
40
0.861284656994213
40
0.861284656994213
40
1
40
1
40
1
40
1
41
1
10
-0.249519052838338
20
16.6926741335383
30
0
41
1
10
-0.259240911168234
20
16.6846687090579
30
0
41
1
10
-0.269006136766222
20
16.6774429614849
30
0
41
1
10
-0.285896697970458
20
16.6670573149427
30
0
41
1
10
-0.293356741332559
20
16.6633865594013
30
0
41
1
10
-0.30617165679584
20
16.6594665199251
30
0
41
1
10
-0.311667032141656
20
16.6592244557159
30
0
41
1
10
-0.319182939636676
20
16.6621116375743
30
0
41
1
10
-0.321636225919747
20
16.6648679976982
30
0
41
1
10
-0.324047988810065
20
16.6713930700812
30
0
41
1
10
-0.324519052838326
20
16.6747331071713
30
0
41
1
10
-0.324519052838326
20
16.6784633080723
30
0
0
SPLINE
5
34A
100
AcDbEntity
8
1
62
256
6
ByLayer
370
-1
48
1
60
0
100
AcDbSpline
70
4
71
3
72
24
73
20
40
0
40
0
40
0
40
0
40
0.481377986196365
40
0.481377986196365
40
0.639909060809528
40
0.639909060809528
40
0.800676356226434
40
0.800676356226434
40
0.852432573468672
40
0.852432573468672
40
0.886614790918357
40
0.886614790918357
40
0.915369091210942
40
0.915369091210942
40
0.944125270311942
40
0.944125270311942
40
0.983016998003775
40
0.983016998003775
40
1
40
1
40
1
40
1
41
1
10
0.394519052838319
20
9.28315947401117
30
0
41
1
10
0.427946970388319
20
9.39033485458813
30
0
41
1
10
0.454524794231901
20
9.49923364059751
30
0
41
1
10
0.474366783293391
20
9.63921023331385
30
0
41
1
10
0.477974295001502
20
9.67383082780086
30
0
41
1
10
0.480317398173582
20
9.74101878576312
30
0
41
1
10
0.479469166024245
20
9.77478381062221
30
0
41
1
10
0.469051392891146
20
9.81157087492787
30
0
41
1
10
0.465623379348301
20
9.82003083074574
30
0
41
1
10
0.457702567697226
20
9.83113294006212
30
0
41
1
10
0.453879715144041
20
9.83482095068899
30
0
41
1
10
0.445632083812768
20
9.83906552395044
30
0
41
1
10
0.441304302654856
20
9.84003608412381
30
0
41
1
10
0.432139750800388
20
9.83963373816039
30
0
41
1
10
0.427200669077962
20
9.83826113958844
30
0
41
1
10
0.415721979670593
20
9.83293756758252
30
0
41
1
10
0.409050650370176
20
9.82822690994971
30
0
41
1
10
0.399949236549787
20
9.82034185962462
30
0
41
1
10
0.397207580434241
20
9.8177630252856
30
0
41
1
10
0.394519052838319
20
9.81506636790175
30
0
0
SPLINE
5
34B
100
AcDbEntity
8
SK1
62
256
6
ByLayer
370
-1
48
1
60
0
100
AcDbSpline
70
4
71
3
72
8
73
4
40
0
40
0
40
0
40
0
40
1
40
1
40
1
40
1
41
1
10
-0.249519052838338
20
16.9398705309347
30
0
41
1
10
-0.166692173533136
20
17.0578915172672
30
0
41
1
10
-0.0835139622307679
20
17.1755848207153
30
0
41
1
10
0
20
17.2929584404609
30
0
0
SPLINE
5
34C
100
AcDbEntity
8
SK1
62
256
6
ByLayer
370
-1
48
1
60
0
100
AcDbSpline
70
4
71
3
72
20
73
16
40
0
40
0
40
0
40
0
40
0.385406985191178
40
0.385406985191178
40
0.579616154909684
40
0.579616154909684
40
0.671848246021603
40
0.671848246021603
40
0.76524764880691
40
0.76524764880691
40
0.84851143696937
40
0.84851143696937
40
0.971663017794213
40
0.971663017794213
40
1
40
1
40
1
40
1
41
1
10
-0.324519052838326
20
9.24151469522658
30
0
41
1
10
-0.324519052838326
20
9.21814827719885
30
0
41
1
10
-0.32305425626214
20
9.19503803794194
30
0
41
1
10
-0.315092437748234
20
9.16504459765713
30
0
41
1
10
-0.311326104686998
20
9.15557781466973
30
0
41
1
10
-0.302956414001983
20
9.14549610651345
30
0
41
1
10
-0.299741503737749
20
9.14282351615424
30
0
41
1
10
-0.292368279739037
20
9.13955644084855
30
0
41
1
10
-0.288086393789286
20
9.13898493962385
30
0
41
1
10
-0.27963901652609
20
9.14021746380293
30
0
41
1
10
-0.275421117819008
20
9.14176754777201
30
0
41
1
10
-0.265204329535152
20
9.14728600941044
30
0
41
1
10
-0.259144614642707
20
9.15208597074678
30
0
41
1
10
-0.252125062080978
20
9.1587697932906
30
0
41
1
10
-0.250814811624679
20
9.16006930897824
30
0
41
1
10
-0.249519052838963
20
9.16140099075159
30
0
0
SPLINE
5
34D
100
AcDbEntity
8
1
62
256
6
ByLayer
370
-1
48
1
60
0
100
AcDbSpline
70
4
71
3
72
22
73
18
40
0
40
0
40
0
40
0
40
0.130974566624924
40
0.130974566624924
40
0.235962005115146
40
0.235962005115146
40
0.342043800223119
40
0.342043800223119
40
0.433499584198726
40
0.433499584198726
40
0.550051092896469
40
0.550051092896469
40
0.713937831560577
40
0.713937831560577
40
0.956613812143024
40
0.956613812143024
40
1
40
1
40
1
40
1
41
1
10
0.394519052838319
20
18.5807377979135
30
0
41
1
10
0.407306951952563
20
18.5916854867964
30
0
41
1
10
0.419987695493092
20
18.6017420247622
30
0
41
1
10
0.440755429824492
20
18.6161634772445
30
0
41
1
10
0.449439597834214
20
18.6213686776538
30
0
41
1
10
0.463903333892972
20
18.6277887377414
30
0
41
1
10
0.469830766817182
20
18.6290081515976
30
0
41
1
10
0.477011742273561
20
18.6270360141608
30
0
41
1
10
0.478898460828162
20
18.624421208698
30
0
41
1
10
0.480003530986977
20
18.6155255334878
30
0
41
1
10
0.478415708351122
20
18.6083452986138
30
0
41
1
10
0.470927088921258
20
18.588338657926
30
0
41
1
10
0.463493164027568
20
18.5741061591378
30
0
41
1
10
0.441112715450629
20
18.5368015839103
30
0
41
1
10
0.423888232878994
20
18.5120334732542
30
0
41
1
10
0.401552729564713
20
18.482547847082
30
0
41
1
10
0.398065399485745
20
18.478010883695
30
0
41
1
10
0.394519052838319
20
18.4734609781557
30
0
0
SPLINE
5
34E
100
AcDbEntity
8
SK1
62
256
6
ByLayer
370
-1
48
1
60
0
100
AcDbSpline
70
4
71
3
72
8
73
4
40
0
40
0
40
0
40
0
40
1
40
1
40
1
40
1
41
1
10
-0.249519052838338
20
-14.637613503657
30
0
41
1
10
-0.166348014707381
20
-14.7058740999149
30
0
41
1
10
-0.0831749697857163
20
-14.774131436091
30
0
41
1
10
0
20
-14.8423856446161
30
0
0
SPLINE
5
34F
100
AcDbEntity
8
SK1
62
256
6
ByLayer
370
-1
48
1
60
0
100
AcDbSpline
70
4
71
3
72
20
73
16
40
0
40
0
40
0
40
0
40
0.129391398627121
40
0.129391398627121
40
0.220458200384517
40
0.220458200384517
40
0.312379509132678
40
0.312379509132678
40
0.394769845010268
40
0.394769845010268
40
0.533954665856946
40
0.533954665856946
40
0.802759335600818
40
0.802759335600818
40
1
40
1
40
1
40
1
41
1
10
-0.249519052838309
20
-9.16140099075223
30
0
41
1
10
-0.255362040070764
20
-9.15539601537785
30
0
41
1
10
-0.26158530331864
20
-9.14995408544223
30
0
41
1
10
-0.272397150019259
20
-9.14315542354133
30
0
41
1
10
-0.277015653486984
20
-9.14104445330936
30
0
41
1
10
-0.285864724264968
20
-9.13904191818953
30
0
41
1
10
-0.290199085765948
20
-9.1391735377341
30
0
41
1
10
-0.297427390436127
20
-9.14151478857605
30
0
41
1
10
-0.300513117526208
20
-9.14350839566707
30
0
41
1
10
-0.307648911384433
20
-9.15037575216957
30
0
41
1
10
-0.311079358948092
20
-9.15633702430398
30
0
41
1
10
-0.318874261048876
20
-9.17550517435612
30
0
41
1
10
-0.321502736864034
20
-9.19062343783872
30
0
41
1
10
-0.324080154367181
20
-9.21760140429068
30
0
41
1
10
-0.324519052838326
20
-9.22946789997459
30
0
41
1
10
-0.324519052838326
20
-9.24151469522658
30
0
0
SPLINE
5
350
100
AcDbEntity
8
SK1
62
256
6
ByLayer
370
-1
48
1
60
0
100
AcDbSpline
70
4
71
3
72
14
73
10
40
0
40
0
40
0
40
0
40
0.339601837560697
40
0.339601837560697
40
0.593375305699849
40
0.593375305699849
40
0.809229904298043
40
0.809229904298043
40
1
40
1
40
1
40
1
41
1
10
-0.249519052838338
20
18.7993790062494
30
0
41
1
10
-0.26260151986736
20
18.7874028536337
30
0
41
1
10
-0.275380287377004
20
18.7761610329438
30
0
41
1
10
-0.29503729128038
20
18.7599909580239
30
0
41
1
10
-0.302756917796728
20
18.7540587951265
30
0
41
1
10
-0.314132639676984
20
18.7463972372463
30
0
41
1
10
-0.318322371631524
20
18.7441162535515
30
0
41
1
10
-0.323323307682159
20
18.7428229180693
30
0
41
1
10
-0.324519052838326
20
18.7434511633463
30
0
41
1
10
-0.324519052838326
20
18.7452280296618
30
0
0
SPLINE
5
351
100
AcDbEntity
8
1
62
256
6
ByLayer
370
-1
48
1
60
0
100
AcDbSpline
70
4
71
3
72
8
73
4
40
0
40
0
40
0
40
0
40
1
40
1
40
1
40
1
41
1
10
0.394519052838319
20
-19.0473658062967
30
0
41
1
10
0.262949664135363
20
-18.9315069156534
30
0
41
1
10
0.131442149365427
20
-18.8155542730744
30
0
41
1
10
0
20
-18.6995029779807
30
0
0
SPLINE
5
352
100
AcDbEntity
8
1
62
256
6
ByLayer
370
-1
48
1
60
0
100
AcDbSpline
70
4
71
3
72
8
73
4
40
0
40
0
40
0
40
0
40
1
40
1
40
1
40
1
41
1
10
0.394519052838319
20
-13.4744348947103
30
0
41
1
10
0.260243397498556
20
-13.1950971379547
30
0
41
1
10
0.128658059895059
20
-12.914009186291
30
0
41
1
10
0
20
-12.6311682604383
30
0
0
SPLINE
5
353
100
AcDbEntity
8
1
62
256
6
ByLayer
370
-1
48
1
60
0
100
AcDbSpline
70
4
71
3
72
22
73
18
40
0
40
0
40
0
40
0
40
0.158340513132241
40
0.158340513132241
40
0.276939831173065
40
0.276939831173065
40
0.397022832656943
40
0.397022832656943
40
0.498084648972833
40
0.498084648972833
40
0.597193131002474
40
0.597193131002474
40
0.746836677106019
40
0.746836677106019
40
0.959222739310269
40
0.959222739310269
40
1
40
1
40
1
40
1
41
1
10
0.394519052838319
20
19.3871212716832
30
0
41
1
10
0.409128747760207
20
19.4004136029156
30
0
41
1
10
0.423420951297288
20
19.4128705550573
30
0
41
1
10
0.445514914376929
20
19.430739006232
30
0
41
1
10
0.454232597147779
20
19.4372718152089
30
0
41
1
10
0.468256980664961
20
19.4463054976485
30
0
41
1
10
0.473690718677204
20
19.4488389037063
30
0
41
1
10
0.479169338661904
20
19.4487793396687
30
0
41
1
10
0.480004254824706
20
19.4469373910693
30
0
41
1
10
0.478484416950579
20
19.4402837265525
30
0
41
1
10
0.476199320582282
20
19.4354789912127
30
0
41
1
10
0.467674866747245
20
19.4210482502573
30
0
41
1
10
0.459928001762677
20
19.410016598829
30
0
41
1
10
0.437909803413703
20
19.3810477578902
30
0
41
1
10
0.421904311629987
20
19.3616383358771
30
0
41
1
10
0.40136195510749
20
19.3378919974575
30
0
41
1
10
0.397964534263025
20
19.3339988109139
30
0
41
1
10
0.394519052838319
20
19.3300829388625
30
0
0
SPLINE
5
354
100
AcDbEntity
8
SK1
62
256
6
ByLayer
370
-1
48
1
60
0
100
AcDbSpline
70
4
71
3
72
18
73
14
40
0
40
0
40
0
40
0
40
0.169247904249822
40
0.169247904249822
40
0.342555548337606
40
0.342555548337606
40
0.500577267541833
40
0.500577267541833
40
0.642414387875974
40
0.642414387875974
40
0.879948043499346
40
0.879948043499346
40
1
40
1
40
1
40
1
41
1
10
-0.249519052838338
20
-13.2407291626788
30
0
41
1
10
-0.256523342066231
20
-13.2348322155265
30
0
41
1
10
-0.263718898509694
20
-13.229564385463
30
0
41
1
10
-0.27790100621624
20
-13.2214327771424
30
0
41
1
10
-0.285061655336875
20
-13.2185685046563
30
0
41
1
10
-0.297217913654578
20
-13.2167282477592
30
0
41
1
10
-0.302495198082056
20
-13.2174295348524
30
0
41
1
10
-0.310628666182652
20
-13.2214452940038
30
0
41
1
10
-0.313787913507269
20
-13.2244988947863
30
0
41
1
10
-0.320334718871123
20
-13.234578634272
30
0
41
1
10
-0.322631157732815
20
-13.2429990984549
30
0
41
1
10
-0.324272134418209
20
-13.2568957746325
30
0
41
1
10
-0.324519052838326
20
-13.2618399062863
30
0
41
1
10
-0.324519052838326
20
-13.2669443220638
30
0
0
SPLINE
5
355
100
AcDbEntity
8
SK1
62
256
6
ByLayer
370
-1
48
1
60
0
100
AcDbSpline
70
4
71
3
72
14
73
10
40
0
40
0
40
0
40
0
40
0.215671456023021
40
0.215671456023021
40
0.432055502470583
40
0.432055502470583
40
0.651295319439995
40
0.651295319439995
40
1
40
1
40
1
40
1
41
1
10
-0.324519052838326
20
-18.7452280296618
30
0
41
1
10
-0.324519052838326
20
-18.7432262310315
30
0
41
1
10
-0.322986587936356
20
-18.7426935981352
30
0
41
1
10
-0.317027347027277
20
-18.7447580700333
30
0
41
1
10
-0.312525063511828
20
-18.7473811701276
30
0
41
1
10
-0.301460306286572
20
-18.7550744803925
30
0
41
1
10
-0.294765490337795
20
-18.7602413969045
30
0
41
1
10
-0.27606276845782
20
-18.7755611962421
30
0
41
1
10
-0.262946308913087
20
-18.7870872215574
30
0
41
1
10
-0.249519052838338
20
-18.7993790062494
30
0
0
SPLINE
5
356
100
AcDbEntity
8
1
62
256
6
ByLayer
370
-1
48
1
60
0
100
AcDbSpline
70
4
71
3
72
22
73
18
40
0
40
0
40
0
40
0
40
0.0640164757347773
40
0.0640164757347773
40
0.129490059942414
40
0.129490059942414
40
0.189219450406554
40
0.189219450406554
40
0.242602336709541
40
0.242602336709541
40
0.331388955569462
40
0.331388955569462
40
0.486817486684524
40
0.486817486684524
40
0.790430254740947
40
0.790430254740947
40
1
40
1
40
1
40
1
41
1
10
0.394519052838319
20
-13.7823140979466
30
0
41
1
10
0.402512983417381
20
-13.7890287983262
30
0
41
1
10
0.410720580431388
20
-13.7950266334042
30
0
41
1
10
0.426872456875572
20
-13.8042814764771
30
0
41
1
10
0.435015052575977
20
-13.8075436869248
30
0
41
1
10
0.448826464690626
20
-13.8096421921079
30
0
41
1
10
0.454816784341915
20
-13.8088424711783
30
0
41
1
10
0.464008772165443
20
-13.8042518493918
30
0
41
1
10
0.467564322567796
20
-13.8007707114001
30
0
41
1
10
0.474882090678648
20
-13.7893208736958
30
0
41
1
10
0.477432596726487
20
-13.7797880355793
30
0
41
1
10
0.480735368288748
20
-13.7511744282264
30
0
41
1
10
0.478972478514919
20
-13.7297698329426
30
0
41
1
10
0.468276638131243
20
-13.6649789440841
30
0
41
1
10
0.453991481908133
20
-13.6183062162702
30
0
41
1
10
0.424199036825257
20
-13.5395635526583
30
0
41
1
10
0.41012229498827
20
-13.50689479706
30
0
41
1
10
0.394519052838319
20
-13.4744348947103
30
0
0
SPLINE
5
357
100
AcDbEntity
8
SK1
62
256
6
ByLayer
370
-1
48
1
60
0
100
AcDbSpline
70
4
71
3
72
18
73
14
40
0
40
0
40
0
40
0
40
0.140124930238981
40
0.140124930238981
40
0.283917050894812
40
0.283917050894812
40
0.416086444514683
40
0.416086444514683
40
0.53217769638527
40
0.53217769638527
40
0.732824601273379
40
0.732824601273379
40
1
40
1
40
1
40
1
41
1
10
-0.249519052838338
20
11.483644388276
30
0
41
1
10
-0.255526209508417
20
11.4782661255606
30
0
41
1
10
-0.261757909792522
20
11.4734263222854
30
0
41
1
10
-0.274293036239527
20
11.465845043188
30
0
41
1
10
-0.280758574931212
20
11.4631062870923
30
0
41
1
10
-0.292096801883048
20
11.4612021725887
30
0
41
1
10
-0.297193487605028
20
11.4617681095187
30
0
41
1
10
-0.305233753672383
20
11.4653392215912
30
0
41
1
10
-0.308470473353708
20
11.4680478274888
30
0
41
1
10
-0.315720510016405
20
11.4771715978621
30
0
41
1
10
-0.318786933413037
20
11.4849346022656
30
0
41
1
10
-0.323531211386523
20
11.5046951200955
30
0
41
1
10
-0.324519052838326
20
11.5175083314951
30
0
41
1
10
-0.324519052838326
20
11.5307719929506
30
0
0
SPLINE
5
358
100
AcDbEntity
8
SK1
62
256
6
ByLayer
370
-1
48
1
60
0
100
AcDbSpline
70
4
71
3
72
8
73
4
40
0
40
0
40
0
40
0
40
1
40
1
40
1
40
1
41
1
10
-0.249519052838338
20
18.4790105443333
30
0
41
1
10
-0.166372838435052
20
18.5525484468556
30
0
41
1
10
-0.0831995072585414
20
18.6260454864902
30
0
41
1
10
0
20
18.6995029779807
30
0
0
SPLINE
5
359
100
AcDbEntity
8
SK1
62
256
6
ByLayer
370
-1
48
1
60
0
100
AcDbSpline
70
4
71
3
72
14
73
10
40
0
40
0
40
0
40
0
40
0.224988908767943
40
0.224988908767943
40
0.449307446414288
40
0.449307446414288
40
0.764271595107042
40
0.764271595107042
40
1
40
1
40
1
40
1
41
1
10
-0.324519052838326
20
-18.99973135775
30
0
41
1
10
-0.324519052838326
20
-18.9996610306687
30
0
41
1
10
-0.322688493619154
20
-19.0014055692112
30
0
41
1
10
-0.316015221172592
20
-19.0078965099529
30
0
41
1
10
-0.311122586485027
20
-19.012690801461
30
0
41
1
10
-0.297114830857851
20
-19.0264704212903
30
0
41
1
10
-0.286897940776583
20
-19.0365572483739
30
0
41
1
10
-0.267570126463596
20
-19.0556894266828
30
0
41
1
10
-0.25867869207795
20
-19.0645056778941
30
0
41
1
10
-0.249519052838338
20
-19.0736019583787
30
0
0
SPLINE
5
35A
100
AcDbEntity
8
SK1
62
256
6
ByLayer
370
-1
48
1
60
0
100
AcDbSpline
70
4
71
3
72
8
73
4
40
0
40
0
40
0
40
0
40
1
40
1
40
1
40
1
41
1
10
-0.249519052838338
20
-17.6356568712878
30
0
41
1
10
-0.166612124255238
20
-17.7450598241335
30
0
41
1
10
-0.0834352757658792
20
-17.8541907726337
30
0
41
1
10
0
20
-17.9630568563235
30
0
0
SPLINE
5
35B
100
AcDbEntity
8
SK1
62
256
6
ByLayer
370
-1
48
1
60
0
100
AcDbSpline
70
4
71
3
72
8
73
4
40
0
40
0
40
0
40
0
40
1
40
1
40
1
40
1
41
1
10
-0.249519052838338
20
18.8729418033523
30
0
41
1
10
-0.166470906512473
20
18.9639140498514
30
0
41
1
10
-0.0832962738564049
20
19.0547325687286
30
0
41
1
10
0
20
19.1454018402203
30
0
0
SPLINE
5
35C
100
AcDbEntity
8
1
62
256
6
ByLayer
370
-1
48
1
60
0
100
AcDbSpline
70
4
71
3
72
22
73
18
40
0
40
0
40
0
40
0
40
0.351301322823231
40
0.351301322823231
40
0.506290471394933
40
0.506290471394933
40
0.663569563285859
40
0.663569563285859
40
0.739975199861312
40
0.739975199861312
40
0.817498860684146
40
0.817498860684146
40
0.884677341401526
40
0.884677341401526
40
0.963787750922993
40
0.963787750922993
40
1
40
1
40
1
40
1
41
1
10
0.394519052838319
20
-14.9165032325849
30
0
41
1
10
0.421036976549772
20
-14.9647964634411
30
0
41
1
10
0.443796445492609
20
-15.0140037525999
30
0
41
1
10
0.466679802974255
20
-15.0807387099843
30
0
41
1
10
0.472404510967948
20
-15.1009185887
30
0
41
1
10
0.479461036308123
20
-15.1386884811075
30
0
41
1
10
0.480861308008002
20
-15.1567939747942
30
0
41
1
10
0.47658660043308
20
-15.1778069837906
30
0
41
1
10
0.474085570149583
20
-15.1838321663816
30
0
41
1
10
0.466333078762574
20
-15.1925121026632
30
0
41
1
10
0.460879153437105
20
-15.1951770838996
30
0
41
1
10
0.448406109843859
20
-15.1957912136961
30
0
41
1
10
0.441538852840239
20
-15.1943275465581
30
0
41
1
10
0.42576002470264
20
-15.1879859643433
30
0
41
1
10
0.416484212419618
20
-15.1825101074222
30
0
41
1
10
0.403041879497863
20
-15.1728856548443
30
0
41
1
10
0.398769950515288
20
-15.169584945857
30
0
41
1
10
0.394519052838319
20
-15.1660973535886
30
0
0
SPLINE
5
35D
100
AcDbEntity
8
1
62
256
6
ByLayer
370
-1
48
1
60
0
100
AcDbSpline
70
4
71
3
72
8
73
4
40
0
40
0
40
0
40
0
40
1
40
1
40
1
40
1
41
1
10
0.394519052838319
20
-19.572781595349
30
0
41
1
10
0.262722134736862
20
-19.4306801575147
30
0
41
1
10
0.131209869747579
20
-19.2882257956237
30
0
41
1
10
0
20
-19.1454018402203
30
0
0
SPLINE
5
35E
100
AcDbEntity
8
SK1
62
256
6
ByLayer
370
-1
48
1
60
0
100
AcDbSpline
70
4
71
3
72
10
73
6
40
0
40
0
40
0
40
0
40
0.552682639196674
40
0.552682639196674
40
1
40
1
40
1
40
1
41
1
10
-0.324519052838326
20
-9.59551923927148
30
0
41
1
10
-0.324519052838326
20
-9.65818243950838
30
0
41
1
10
-0.31298851795168
20
-9.72645273607178
30
0
41
1
10
-0.284745961794215
20
-9.84854031294877
30
0
41
1
10
-0.268671396765569
20
-9.90383041782292
30
0
41
1
10
-0.249519052838338
20
-9.95857998009566
30
0
0
SPLINE
5
35F
100
AcDbEntity
8
SK1
62
256
6
ByLayer
370
-1
48
1
60
0
100
AcDbSpline
70
4
71
3
72
12
73
8
40
0
40
0
40
0
40
0
40
0.58692894146783
40
0.58692894146783
40
0.899803830264789
40
0.899803830264789
40
1
40
1
40
1
40
1
41
1
10
-0.249519052838338
20
16.0748883021891
30
0
41
1
10
-0.273031817321254
20
16.0383151393973
30
0
41
1
10
-0.293531671147491
20
16.0010313969561
30
0
41
1
10
-0.315053692739923
20
15.9486930185265
30
0
41
1
10
-0.320835978604379
20
15.930933385035
30
0
41
1
10
-0.324078278764006
20
15.9106792734836
30
0
41
1
10
-0.324519052838326
20
15.9059636217426
30
0
41
1
10
-0.324519052838326
20
15.9016211093691
30
0
0
SPLINE
5
360
100
AcDbEntity
8
1
62
256
6
ByLayer
370
-1
48
1
60
0
100
AcDbSpline
70
4
71
3
72
8
73
4
40
0
40
0
40
0
40
0
40
1
40
1
40
1
40
1
41
1
10
16.27392911
20
23.4709831164087
30
0
41
1
10
16.2003270415133
20
23.3938248385826
30
0
41
1
10
16.1310709292593
20
23.3165820097221
30
0
41
1
10
16.0662808779636
20
23.239252293177
30
0
0
SPLINE
5
361
100
AcDbEntity
8
SK1
62
256
6
ByLayer
370
-1
48
1
60
0
100
AcDbSpline
70
4
71
3
72
8
73
4
40
0
40
0
40
0
40
0
40
1
40
1
40
1
40
1
41
1
10
-0.249519052838338
20
15.7703059388672
30
0
41
1
10
-0.166346120039435
20
15.8382326400955
30
0
41
1
10
-0.0831731013446984
20
15.9061592010903
30
0
41
1
10
0
20
15.9740856271496
30
0
0
SPLINE
5
362
100
AcDbEntity
8
SK1
62
256
6
ByLayer
370
-1
48
1
60
0
100
AcDbSpline
70
4
71
3
72
10
73
6
40
0
40
0
40
0
40
0
40
0.384847239802077
40
0.384847239802077
40
1
40
1
40
1
40
1
41
1
10
-0.324519052838326
20
11.7907116231339
30
0
41
1
10
-0.324519052838326
20
11.823098572442
30
0
41
1
10
-0.318462256776428
20
11.8592176392477
30
0
41
1
10
-0.296162605285048
20
11.9530775692916
30
0
41
1
10
-0.275235094192823
20
12.0130898574439
30
0
41
1
10
-0.249519052838338
20
12.0718886217914
30
0
0
SPLINE
5
363
100
AcDbEntity
8
SK1
62
256
6
ByLayer
370
-1
48
1
60
0
100
AcDbSpline
70
4
71
3
72
12
73
8
40
0
40
0
40
0
40
0
40
0.327025023567502
40
0.327025023567502
40
0.787085296139235
40
0.787085296139235
40
1
40
1
40
1
40
1
41
1
10
-0.324519052838326
20
-15.9016211093692
30
0
41
1
10
-0.324519052838326
20
-15.9155577312448
30
0
41
1
10
-0.320056187790954
20
-15.9332695578562
30
0
41
1
10
-0.304106585504684
20
-15.9776569215538
30
0
41
1
10
-0.290155590930652
20
-16.0061652935337
30
0
41
1
10
-0.266325543110156
20
-16.0480025991564
30
0
41
1
10
-0.258156326111163
20
-16.061453369784
30
0
41
1
10
-0.249519052838338
20
-16.0748883021891
30
0
0
SPLINE
5
364
100
AcDbEntity
8
SK1
62
256
6
ByLayer
370
-1
48
1
60
0
100
AcDbSpline
70
4
71
3
72
8
73
4
40
0
40
0
40
0
40
0
40
1
40
1
40
1
40
1
41
1
10
-0.249519052838338
20
-18.0286164298471
30
0
41
1
10
-0.166362626497147
20
-18.1000062119281
30
0
41
1
10
-0.0831894147874266
20
-18.1713699316054
30
0
41
1
10
0
20
-18.2427084508718
30
0
0
SPLINE
5
365
100
AcDbEntity
8
SK1
62
256
6
ByLayer
370
-1
48
1
60
0
100
AcDbSpline
70
4
71
3
72
10
73
6
40
0
40
0
40
0
40
0
40
0.51612089783664
40
0.51612089783664
40
1
40
1
40
1
40
1
41
1
10
-0.324519052838326
20
6.37393899896699
30
0
41
1
10
-0.324519052838326
20
6.46848413226296
30
0
41
1
10
-0.314804489987182
20
6.56605508744215
30
0
41
1
10
-0.288139098852241
20
6.75418772188657
30
0
41
1
10
-0.271010764248047
20
6.84569363094244
30
0
41
1
10
-0.249519052838338
20
6.93657952761937
30
0
0
SPLINE
5
366
100
AcDbEntity
8
1
62
256
6
ByLayer
370
-1
48
1
60
0
100
AcDbSpline
70
4
71
3
72
8
73
4
40
0
40
0
40
0
40
0
40
1
40
1
40
1
40
1
41
1
10
0.394519052838319
20
19.3871212716832
30
0
41
1
10
0.26292017266897
20
19.2673887300816
30
0
41
1
10
0.131412099455616
20
19.1475229800285
30
0
41
1
10
0
20
19.0275172217373
30
0
0
SPLINE
5
367
100
AcDbEntity
8
SK1
62
256
6
ByLayer
370
-1
48
1
60
0
100
AcDbSpline
70
4
71
3
72
10
73
6
40
0
40
0
40
0
40
0
40
0.513375337451243
40
0.513375337451243
40
1
40
1
40
1
40
1
41
1
10
-0.249519052838338
20
-6.93657952761937
30
0
41
1
10
-0.272315306293393
20
-6.84017687747019
30
0
41
1
10
-0.29023253751842
20
-6.74306482713487
30
0
41
1
10
-0.315788365312358
20
-6.55499292611641
30
0
41
1
10
-0.324519052838326
20
-6.46310244771587
30
0
41
1
10
-0.324519052838326
20
-6.37393899896699
30
0
0
SPLINE
5
368
100
AcDbEntity
8
1
62
256
6
ByLayer
370
-1
48
1
60
0
100
AcDbSpline
70
4
71
3
72
8
73
4
40
0
40
0
40
0
40
0
40
1
40
1
40
1
40
1
41
1
10
0.394519052838348
20
15.1660973535886
30
0
41
1
10
0.263008092457568
20
15.0582009412332
30
0
41
1
10
0.131501640983174
20
14.9502972007992
30
0
41
1
10
0
20
14.8423856446161
30
0
0
SPLINE
5
369
100
AcDbEntity
8
SK1
62
256
6
ByLayer
370
-1
48
1
60
0
100
AcDbSpline
70
4
71
3
72
12
73
8
40
0
40
0
40
0
40
0
40
0.547982201163934
40
0.547982201163934
40
0.845853588693653
40
0.845853588693653
40
1
40
1
40
1
40
1
41
1
10
-0.249519052838338
20
-16.9398705309347
30
0
41
1
10
-0.271270568203306
20
-16.908876543003
30
0
41
1
10
-0.290644176716427
20
-16.877498070952
30
0
41
1
10
-0.312225003099854
20
-16.833464238582
30
0
41
1
10
-0.31836395283284
20
-16.818445143655
30
0
41
1
10
-0.323501261087358
20
-16.7987427364084
30
0
41
1
10
-0.324519052838326
20
-16.7924907253144
30
0
41
1
10
-0.324519052838326
20
-16.787151188174
30
0
0
SPLINE
5
36A
100
AcDbEntity
8
1
62
256
6
ByLayer
370
-1
48
1
60
0
100
AcDbSpline
70
4
71
3
72
8
73
4
40
0
40
0
40
0
40
0
40
1
40
1
40
1
40
1
41
1
10
0.394519052838319
20
17.0553632209806
30
0
41
1
10
0.26198177360439
20
16.8577217216663
30
0
41
1
10
0.130450045331941
20
16.6591749695092
30
0
41
1
10
0
20
16.4596905081325
30
0
0
SPLINE
5
36B
100
AcDbEntity
8
1
62
256
6
ByLayer
370
-1
48
1
60
0
100
AcDbSpline
70
4
71
3
72
19
73
15
40
0
40
0
40
0
40
0
40
0.301823260858636
40
0.301823260858636
40
0.730777080131608
40
0.730777080131608
40
0.730777080131608
40
0.831542376499394
40
0.831542376499394
40
0.933360180946483
40
0.933360180946483
40
0.973344984768855
40
0.973344984768855
40
1
40
1
40
1
40
1
41
1
10
10.0251325110119
20
12.2849052449956
30
0
41
1
10
10.0217212377
20
12.0125443353917
30
0
41
1
10
10.0703017683531
20
11.7251703571212
30
0
41
1
10
10.2563248128472
20
11.0418389574445
30
0
41
1
10
10.4204524571929
20
10.6336025391332
30
0
41
1
10
10.6367137378164
20
10.2594251974269
30
0
41
1
10
10.6881895151857
20
10.1703613137636
30
0
41
1
10
10.7433257144689
20
10.0829113396989
30
0
41
1
10
10.8663725873722
20
9.91688818020344
30
0
41
1
10
10.9347092329558
20
9.83571368559421
30
0
41
1
10
11.0506657181142
20
9.74932217296077
30
0
41
1
10
11.0865632252255
20
9.72785774155437
30
0
41
1
10
11.1506226755962
20
9.70390644424283
30
0
41
1
10
11.1778192748397
20
9.69746968668831
30
0
41
1
10
11.2051433048385
20
9.69538735060544
30
0
0
SPLINE
5
36C
100
AcDbEntity
8
1
62
256
6
ByLayer
370
-1
48
1
60
0
100
AcDbSpline
70
4
71
3
72
18
73
14
40
0
40
0
40
0
40
0
40
0.0349664557158874
40
0.0349664557158874
40
0.086768666173708
40
0.086768666173708
40
0.241195310778231
40
0.241195310778231
40
0.589976538367622
40
0.589976538367622
40
0.931487602618975
40
0.931487602618975
40
1
40
1
40
1
40
1
41
1
10
11.2055483747918
20
7.45326918155872
30
0
41
1
10
11.1698244843735
20
7.45085841215582
30
0
41
1
10
11.1343256409877
20
7.44175248428732
30
0
41
1
10
11.0535486331047
20
7.40902101424193
30
0
41
1
10
11.0098606606348
20
7.38062581196097
30
0
41
1
10
10.8535338956666
20
7.25804376707625
30
0
41
1
10
10.7633684257197
20
7.14337655765661
30
0
41
1
10
10.497501459929
20
6.7788060418729
30
0
41
1
10
10.3541114818269
20
6.51795754108697
30
0
41
1
10
10.1326179599383
20
6.03894865698909
30
0
41
1
10
10.0535291219781
20
5.81217811407799
30
0
41
1
10
10.0275320112018
20
5.57290908934462
30
0
41
1
10
10.0255580623592
20
5.53348560999829
30
0
41
1
10
10.0263591492038
20
5.49529334097453
30
0
0
SPLINE
5
36D
100
AcDbEntity
8
1
62
256
6
ByLayer
370
-1
48
1
60
0
100
AcDbSpline
70
4
71
2
72
6
73
3
40
0
40
0
40
0
40
1
40
1
40
1
41
0.500000483609817
10
16.7590717699579
20
23.4709831164087
30
0
41
0.499999516390183
10
16.516486824836
20
23.4708254414666
30
0
41
0.500000483609817
10
16.2739291099997
20
23.4706662080841
30
0
0
SPLINE
5
36E
100
AcDbEntity
8
1
62
256
6
ByLayer
370
-1
48
1
60
0
100
AcDbSpline
70
4
71
3
72
8
73
4
40
0
40
0
40
0
40
0
40
1
40
1
40
1
40
1
41
1
10
16.27392911
20
23.4706662080841
30
0
41
1
10
15.3739995037653
20
22.3860224118817
30
0
41
1
10
14.4778632917137
20
21.2984106627883
30
0
41
1
10
13.5878365799318
20
20.2061514714547
30
0
0
SPLINE
5
36F
100
AcDbEntity
8
1
62
256
6
ByLayer
370
-1
48
1
60
0
100
AcDbSpline
70
4
71
3
72
12
73
8
40
0
40
0
40
0
40
0
40
0.385750430516354
40
0.385750430516354
40
0.773160225768571
40
0.773160225768571
40
1
40
1
40
1
40
1
41
1
10
13.5878365799318
20
20.2061514714547
30
0
41
1
10
13.5318285586584
20
20.1374172691949
30
0
41
1
10
13.463287556428
20
20.0766544182487
30
0
41
1
10
13.3106588902755
20
19.981954898917
30
0
41
1
10
13.2242877402544
20
19.9468578086986
30
0
41
1
10
13.0829472954613
20
19.916797215035
30
0
41
1
10
13.0288413313185
20
19.9110320585615
30
0
41
1
10
12.975001025437
20
19.9109407558689
30
0
0
SPLINE
5
370
100
AcDbEntity
8
1
62
256
6
ByLayer
370
-1
48
1
60
0
100
AcDbSpline
70
4
71
3
72
16
73
12
40
0
40
0
40
0
40
0
40
0.239159971212504
40
0.239159971212504
40
0.479182729451621
40
0.479182729451621
40
0.705091296508479
40
0.705091296508479
40
0.913409770369953
40
0.913409770369953
40
1
40
1
40
1
40
1
41
1
10
10.0237859750981
20
19.7381676083019
30
0
41
1
10
10.0213788408051
20
19.763310919762
30
0
41
1
10
10.0447817987942
20
19.7869794873081
30
0
41
1
10
10.142266776795
20
19.8280254671481
30
0
41
1
10
10.2181392356743
20
19.8459971248627
30
0
41
1
10
10.4080846128097
20
19.8738926047258
30
0
41
1
10
10.5226291584581
20
19.8846725459027
30
0
41
1
10
10.767029542842
20
19.8994375324066
30
0
41
1
10
10.8985624437428
20
19.9041244932748
30
0
41
1
10
11.0888006173989
20
19.9072923888545
30
0
41
1
10
11.1460922622157
20
19.9078114013531
30
0
41
1
10
11.2032982700086
20
19.907910103347
30
0
0
SPLINE
5
371
100
AcDbEntity
8
1
62
256
6
ByLayer
370
-1
48
1
60
0
100
AcDbSpline
70
4
71
3
72
16
73
12
40
0
40
0
40
0
40
0
40
0.213584246201533
40
0.213584246201533
40
0.427431279956371
40
0.427431279956371
40
0.63801133554211
40
0.63801133554211
40
0.849602205579777
40
0.849602205579777
40
1
40
1
40
1
40
1
41
1
10
10.0281922783381
20
-4.65132974093376
30
0
41
1
10
10.0259862017211
20
-4.65487797463308
30
0
41
1
10
10.0456667646123
20
-4.66390931641402
30
0
41
1
10
10.1276296842622
20
-4.69004282776876
30
0
41
1
10
10.1911341342242
20
-4.70745024838492
30
0
41
1
10
10.3519522833128
20
-4.74355713246788
30
0
41
1
10
10.4509032602824
20
-4.7626097594198
30
0
41
1
10
10.6714379736416
20
-4.79517323821914
30
0
41
1
10
10.7961363030524
20
-4.80900254509669
30
0
41
1
10
11.0169318776173
20
-4.82346837537563
30
0
41
1
10
11.1125860136717
20
-4.82688282255316
30
0
41
1
10
11.2077670305297
20
-4.82729692788868
30
0
0
SPLINE
5
372
100
AcDbEntity
8
1
62
256
6
ByLayer
370
-1
48
1
60
0
100
AcDbSpline
70
4
71
3
72
12
73
8
40
0
40
0
40
0
40
0
40
0.351025470896534
40
0.351025470896534
40
0.675512735448267
40
0.675512735448267
40
1
40
1
40
1
40
1
41
1
10
10.0425603983221
20
-10.0712027503864
30
0
41
1
10
10.3384611821193
20
-9.17938810865952
30
0
41
1
10
10.7500190383554
20
-8.31039281709181
30
0
41
1
10
11.6959070109041
20
-6.91295414132253
30
0
41
1
10
12.2033970579421
20
-6.3426525487709
30
0
41
1
10
13.1890273007362
20
-5.42186333760596
30
0
41
1
10
13.6902567384352
20
-5.05712692482567
30
0
41
1
10
14.0201223758247
20
-4.83973951882527
30
0
0
SPLINE
5
373
100
AcDbEntity
8
1
62
256
6
ByLayer
370
-1
48
1
60
0
100
AcDbSpline
70
4
71
3
72
22
73
18
40
0
40
0
40
0
40
0
40
0.254870626188923
40
0.254870626188923
40
0.404442713215351
40
0.404442713215351
40
0.523165816630691
40
0.523165816630691
40
0.621531216469595
40
0.621531216469595
40
0.720212233183625
40
0.720212233183625
40
0.814930019931253
40
0.814930019931253
40
0.952302569433041
40
0.952302569433041
40
1
40
1
40
1
40
1
41
1
10
0.394519052838319
20
18.9660336777981
30
0
41
1
10
0.415397257062637
20
18.9911710604205
30
0
41
1
10
0.434745901513281
20
19.0161221644437
30
0
41
1
10
0.458931875838118
20
19.0511968235287
30
0
41
1
10
0.466623046410064
20
19.0634552832728
30
0
41
1
10
0.476107730084294
20
19.0818099803902
30
0
41
1
10
0.478845551808718
20
19.0888031444728
30
0
41
1
10
0.479875340860843
20
19.0977256603011
30
0
41
1
10
0.478826576558816
20
19.1003788452061
30
0
41
1
10
0.473451118959929
20
19.1020609137239
30
0
41
1
10
0.469035178978999
20
19.1010894788818
30
0
41
1
10
0.457891153363391
20
19.0959678596139
30
0
41
1
10
0.451153362829416
20
19.0919116516006
30
0
41
1
10
0.433072742475133
20
19.0794582369487
30
0
41
1
10
0.420751809470772
20
19.0697722314114
30
0
41
1
10
0.403613580947621
20
19.0552982452463
30
0
41
1
10
0.399086632525979
20
19.0513879783289
30
0
41
1
10
0.394519052838319
20
19.0473658062967
30
0
0
SPLINE
5
374
100
AcDbEntity
8
SK1
62
256
6
ByLayer
370
-1
48
1
60
0
100
AcDbSpline
70
4
71
3
72
8
73
4
40
0
40
0
40
0
40
0
40
1
40
1
40
1
40
1
41
1
10
-0.249519052838338
20
18.181682346768
30
0
41
1
10
-0.16655242241734
20
18.2839243209088
30
0
41
1
10
-0.083376546037556
20
18.3859403967323
30
0
41
1
10
0
20
18.4877367901945
30
0
0
SPLINE
5
375
100
AcDbEntity
8
SK1
62
256
6
ByLayer
370
-1
48
1
60
0
100
AcDbSpline
70
4
71
3
72
16
73
12
40
0
40
0
40
0
40
0
40
0.210224895571941
40
0.210224895571941
40
0.422611356221281
40
0.422611356221281
40
0.625869325623
40
0.625869325623
40
0.913852544759781
40
0.913852544759781
40
1
40
1
40
1
40
1
41
1
10
-0.324519052838326
20
-17.9938143844313
30
0
41
1
10
-0.324519052838326
20
-17.9900475966146
30
0
41
1
10
-0.323236918855798
20
-17.9874282966573
30
0
41
1
10
-0.317891789879042
20
-17.9852817286343
30
0
41
1
10
-0.313719154277408
20
-17.9857737563884
30
0
41
1
10
-0.303426245198977
20
-17.9896516272587
30
0
41
1
10
-0.297292975915326
20
-17.9929378899092
30
0
41
1
10
-0.281207039541584
20
-18.003180592669
30
0
41
1
10
-0.270488816608804
20
-18.0112186764518
30
0
41
1
10
-0.256237488845812
20
-18.0229090274813
30
0
41
1
10
-0.252888711364932
20
-18.0257235784045
30
0
41
1
10
-0.249519052838338
20
-18.0286164298471
30
0
0
SPLINE
5
376
100
AcDbEntity
8
1
62
256
6
ByLayer
370
-1
48
1
60
0
100
AcDbSpline
70
4
71
3
72
12
73
8
40
0
40
0
40
0
40
0
40
0.204685073490931
40
0.204685073490931
40
0.668654271384597
40
0.668654271384597
40
1
40
1
40
1
40
1
41
1
10
20.1041881780382
20
16.7273684004366
30
0
41
1
10
20.137691661982
20
16.7282705145008
30
0
41
1
10
20.1724451037587
20
16.7312093272425
30
0
41
1
10
20.2875733749506
20
16.747681602159
30
0
41
1
10
20.3713754724407
20
16.7703583928931
30
0
41
1
10
20.5102435343074
20
16.825995032442
30
0
41
1
10
20.5674684372078
20
16.8543634126404
30
0
41
1
10
20.6224283895221
20
16.8869417200998
30
0
0
SPLINE
5
377
100
AcDbEntity
8
1
62
256
6
ByLayer
370
-1
48
1
60
0
100
AcDbSpline
70
4
71
3
72
8
73
4
40
0
40
0
40
0
40
0
40
1
40
1
40
1
40
1
41
1
10
0.394519052838319
20
-9.28315947401119
30
0
41
1
10
0.25434140223021
20
-8.83372695911297
30
0
41
1
10
0.122557944122832
20
-8.38066645202932
30
0
41
1
10
0
20
-7.92441869309681
30
0
0
SPLINE
5
378
100
AcDbEntity
8
SK1
62
256
6
ByLayer
370
-1
48
1
60
0
100
AcDbSpline
70
4
71
3
72
12
73
8
40
0
40
0
40
0
40
0
40
0.244382081688521
40
0.244382081688521
40
0.545489326418063
40
0.545489326418063
40
1
40
1
40
1
40
1
41
1
10
-0.324519052838326
20
-18.4837528208056
30
0
41
1
10
-0.324519052838326
20
-18.4873744367385
30
0
41
1
10
-0.322128618712242
20
-18.4933432827467
30
0
41
1
10
-0.313183882397595
20
-18.5095109152339
30
0
41
1
10
-0.305704760138468
20
-18.5206052291406
30
0
41
1
10
-0.28374770105026
20
-18.5503630366426
30
0
41
1
10
-0.267231283716455
20
-18.5706257290097
30
0
41
1
10
-0.249519052838338
20
-18.5911471576056
30
0
0
SPLINE
5
379
100
AcDbEntity
8
SK1
62
256
6
ByLayer
370
-1
48
1
60
0
100
AcDbSpline
70
4
71
3
72
8
73
4
40
0
40
0
40
0
40
0
40
1
40
1
40
1
40
1
41
1
10
-0.249519052838366
20
6.93657952761939
30
0
41
1
10
-0.171274600487806
20
7.2674660296901
30
0
41
1
10
-0.0880009987361632
20
7.59681644140632
30
0
41
1
10
0
20
7.92441869309681
30
0
0
SPLINE
5
37A
100
AcDbEntity
8
1
62
256
6
ByLayer
370
-1
48
1
60
0
100
AcDbSpline
70
4
71
3
72
8
73
4
40
0
40
0
40
0
40
0
40
1
40
1
40
1
40
1
41
1
10
0.394519052838177
20
5.63341609185615
30
0
41
1
10
0.219335928576925
20
4.68093075615455
30
0
41
1
10
0.0872579573579912
20
3.72639634083311
30
0
41
1
10
0
20
2.7697313269525
30
0
0
SPLINE
5
37B
100
AcDbEntity
8
1
62
256
6
ByLayer
370
-1
48
1
60
0
100
AcDbSpline
70
4
71
3
72
8
73
4
40
0
40
0
40
0
40
0
40
1
40
1
40
1
40
1
41
1
10
0.394519052838319
20
-17.8417232227022
30
0
41
1
10
0.262224882939222
20
-17.6595606391472
30
0
41
1
10
0.130699965526105
20
-17.4766490191934
30
0
41
1
10
0
20
-17.2929584404609
30
0
0
SPLINE
5
37C
100
AcDbEntity
8
SK1
62
256
6
ByLayer
370
-1
48
1
60
0
100
AcDbSpline
70
4
71
3
72
16
73
12
40
0
40
0
40
0
40
0
40
0.294252714393228
40
0.294252714393228
40
0.529898215766517
40
0.529898215766517
40
0.767965977116175
40
0.767965977116175
40
0.973600455338375
40
0.973600455338375
40
1
40
1
40
1
40
1
41
1
10
-0.249519052838338
20
18.0286164298471
30
0
41
1
10
-0.260923587708845
20
18.018825638023
30
0
41
1
10
-0.272223717922031
20
18.0098251146612
30
0
41
1
10
-0.290679810990809
20
17.9968972347042
30
0
41
1
10
-0.298377115552597
20
17.9922197116286
30
0
41
1
10
-0.311145567526211
20
17.9863871625771
30
0
41
1
10
-0.316346496481771
20
17.9852237644193
30
0
41
1
10
-0.322566393250241
20
17.986801178794
30
0
41
1
10
-0.324146381287477
20
17.9890373581814
30
0
41
1
10
-0.324499025888883
20
17.9928736424809
30
0
41
1
10
-0.324519052840685
20
17.9933346587517
30
0
41
1
10
-0.324519052840685
20
17.993814384429
30
0
0
SPLINE
5
37D
100
AcDbEntity
8
1
62
256
6
ByLayer
370
-1
48
1
60
0
100
AcDbSpline
70
4
71
3
72
8
73
4
40
0
40
0
40
0
40
0
40
1
40
1
40
1
40
1
41
1
10
0.394519052838319
20
19.6986154928503
30
0
41
1
10
0.262787655213145
20
19.5632833936142
30
0
41
1
10
0.131276854193146
20
19.4276643880555
30
0
41
1
10
0
20
19.2917446495518
30
0
0
SPLINE
5
37E
100
AcDbEntity
8
1
62
256
6
ByLayer
370
-1
48
1
60
0
100
AcDbSpline
70
4
71
3
72
8
73
4
40
0
40
0
40
0
40
0
40
1
40
1
40
1
40
1
41
1
10
0.394519052838319
20
19.3300829388625
30
0
41
1
10
0.262640357753725
20
19.1801996475
30
0
41
1
10
0.13112617985135
20
19.0298873761474
30
0
41
1
10
0
20
18.8791263469343
30
0
0
SPLINE
5
37F
100
AcDbEntity
8
1
62
256
6
ByLayer
370
-1
48
1
60
0
100
AcDbSpline
70
4
71
3
72
8
73
4
40
0
40
0
40
0
40
0
40
1
40
1
40
1
40
1
41
1
10
18.5396364608436
20
18.234868791676
30
0
41
1
10
18.6173725817541
20
18.4583146833963
30
0
41
1
10
18.6941312865123
20
18.6778338688838
30
0
41
1
10
18.7697923643456
20
18.8939576553307
30
0
0
SPLINE
5
380
100
AcDbEntity
8
1
62
256
6
ByLayer
370
-1
48
1
60
0
100
AcDbSpline
70
4
71
2
72
6
73
3
40
0
40
0
40
0
40
1
40
1
40
1
41
0.500000280802347
10
20.6224283895221
20
16.8869417200998
30
0
41
0.499999719197653
10
20.652106902749
20
16.9154822743977
30
0
41
0.500000280802347
10
20.6818655695792
20
16.9441027472574
30
0
0
SPLINE
5
381
100
AcDbEntity
8
1
62
256
6
ByLayer
370
-1
48
1
60
0
100
AcDbSpline
70
4
71
3
72
8
73
4
40
0
40
0
40
0
40
0
40
1
40
1
40
1
40
1
41
1
10
0.394519052838319
20
-19.6066008845751
30
0
41
1
10
0.262884337371048
20
-19.4823620925447
30
0
41
1
10
0.131375561072161
20
-19.3579451495771
30
0
41
1
10
0
20
-19.2333411456125
30
0
0
SPLINE
5
382
100
AcDbEntity
8
SK1
62
256
6
ByLayer
370
-1
48
1
60
0
100
AcDbSpline
70
4
71
3
72
14
73
10
40
0
40
0
40
0
40
0
40
0.420767572538387
40
0.420767572538387
40
0.689032461479675
40
0.689032461479675
40
0.910590925525609
40
0.910590925525609
40
1
40
1
40
1
40
1
41
1
10
-0.249519052838338
20
19.0327379005148
30
0
41
1
10
-0.26575349800612
20
19.0158424389948
30
0
41
1
10
-0.281208146423893
20
18.999478290443
30
0
41
1
10
-0.302114376358674
20
18.9766269871991
30
0
41
1
10
-0.309318125509236
20
18.9685312786031
30
0
41
1
10
-0.319033328950354
20
18.9569877045766
30
0
41
1
10
-0.322214231576424
20
18.9528843741229
30
0
41
1
10
-0.324219940534505
20
18.9495287305081
30
0
41
1
10
-0.324519052838326
20
18.9488295545045
30
0
41
1
10
-0.324519052838326
20
18.9484273901026
30
0
0
SPLINE
5
383
100
AcDbEntity
8
SK1
62
256
6
ByLayer
370
-1
48
1
60
0
100
AcDbSpline
70
4
71
3
72
8
73
4
40
0
40
0
40
0
40
0
40
1
40
1
40
1
40
1
41
1
10
-0.324519052838326
20
11.9878176024207
30
0
41
1
10
-0.324519052838326
20
11.9575223782507
30
0
41
1
10
-0.322084347298471
20
11.9258547401202
30
0
41
1
10
-0.31814602856042
20
11.8935332692602
30
0
0
SPLINE
5
384
100
AcDbEntity
8
SK1
62
256
6
ByLayer
370
-1
48
1
60
0
100
AcDbSpline
70
4
71
3
72
14
73
10
40
0
40
0
40
0
40
0
40
0.316895144360519
40
0.316895144360519
40
0.562168438036201
40
0.562168438036201
40
0.810227665569687
40
0.810227665569687
40
1
40
1
40
1
40
1
41
1
10
-0.249519052838338
20
-18.4790105443333
30
0
41
1
10
-0.261758456916198
20
-18.4681855162732
30
0
41
1
10
-0.273801280056034
20
-18.4581311775524
30
0
41
1
10
-0.292898155610345
20
-18.4436785214857
30
0
41
1
10
-0.300630418859043
20
-18.4384045914485
30
0
41
1
10
-0.313225525760458
20
-18.4314029039591
30
0
41
1
10
-0.318209284397199
20
-18.4296548339051
30
0
41
1
10
-0.323400842601245
20
-18.4303455145907
30
0
41
1
10
-0.324519052838326
20
-18.4318962207165
30
0
41
1
10
-0.324519052838326
20
-18.4344911780253
30
0
0
SPLINE
5
385
100
AcDbEntity
8
1
62
256
6
ByLayer
370
-1
48
1
60
0
100
AcDbSpline
70
4
71
3
72
22
73
18
40
0
40
0
40
0
40
0
40
0.210679055338583
40
0.210679055338583
40
0.363680104554599
40
0.363680104554599
40
0.483752370949913
40
0.483752370949913
40
0.584755677908312
40
0.584755677908312
40
0.686031728860165
40
0.686031728860165
40
0.783963016705266
40
0.783963016705266
40
0.925663641799724
40
0.925663641799724
40
1
40
1
40
1
40
1
41
1
10
0.394519052838319
20
-19.3300829388625
30
0
41
1
10
0.41212255554322
20
-19.3500897407437
30
0
41
1
10
0.428689458905126
20
-19.3697530532802
30
0
41
1
10
0.452747829989875
20
-19.4003036933854
30
0
41
1
10
0.461670979408723
20
-19.4123729195888
30
0
41
1
10
0.473329490273528
20
-19.4302053177714
30
0
41
1
10
0.477060936996025
20
-19.4369094135752
30
0
41
1
10
0.479978213610366
20
-19.4454329106482
30
0
41
1
10
0.479791197946895
20
-19.4479190748962
30
0
41
1
10
0.476020455554163
20
-19.4492899825392
30
0
41
1
10
0.47237148480508
20
-19.4481745515556
30
0
41
1
10
0.462507422169551
20
-19.4428112994535
30
0
41
1
10
0.456287111711788
20
-19.4386294607178
30
0
41
1
10
0.439226967436724
20
-19.4259033781917
30
0
41
1
10
0.427315544760319
20
-19.4160814831809
30
0
41
1
10
0.408261527110284
20
-19.3995028932816
30
0
41
1
10
0.401442717627674
20
-19.393420626065
30
0
41
1
10
0.394519052838319
20
-19.3871212716832
30
0
0
SPLINE
5
386
100
AcDbEntity
8
SK1
62
256
6
ByLayer
370
-1
48
1
60
0
100
AcDbSpline
70
4
71
3
72
8
73
4
40
0
40
0
40
0
40
0
40
1
40
1
40
1
40
1
41
1
10
-0.249519052838338
20
17.4381246139465
30
0
41
1
10
-0.166354608804397
20
17.507808745594
30
0
41
1
10
-0.0831814897333629
20
17.5774790749024
30
0
41
1
10
0
20
17.6471360742617
30
0
0
SPLINE
5
387
100
AcDbEntity
8
1
62
256
6
ByLayer
370
-1
48
1
60
0
100
AcDbSpline
70
4
71
3
72
8
73
4
40
0
40
0
40
0
40
0
40
1
40
1
40
1
40
1
41
1
10
0.394519052838319
20
-18.9660336777981
30
0
41
1
10
0.262536668669412
20
-18.8071267308867
30
0
41
1
10
0.131019951491623
20
-18.6477021421703
30
0
41
1
10
0
20
-18.4877367901945
30
0
0
SPLINE
5
388
100
AcDbEntity
8
SK1
62
256
6
ByLayer
370
-1
48
1
60
0
100
AcDbSpline
70
4
71
3
72
14
73
10
40
0
40
0
40
0
40
0
40
0.219964312915531
40
0.219964312915531
40
0.439935265063836
40
0.439935265063836
40
0.730440072114299
40
0.730440072114299
40
1
40
1
40
1
40
1
41
1
10
-0.324519052838326
20
18.9324241124939
30
0
41
1
10
-0.324519052838326
20
18.9313546580718
30
0
41
1
10
-0.322843598611456
20
18.9319253303128
30
0
41
1
10
-0.31653964590447
20
18.9361536330603
30
0
41
1
10
-0.311849867729734
20
18.9398451886151
30
0
41
1
10
-0.298757700405332
20
18.9508691130917
30
0
41
1
10
-0.289472419167168
20
18.959126379535
30
0
41
1
10
-0.27011474460852
20
18.9768556719407
30
0
41
1
10
-0.25995972345072
20
18.9863668564595
30
0
41
1
10
-0.249519052838338
20
18.9963015174965
30
0
0
SPLINE
5
389
100
AcDbEntity
8
1
62
256
6
ByLayer
370
-1
48
1
60
0
100
AcDbSpline
70
4
71
3
72
22
73
18
40
0
40
0
40
0
40
0
40
0.144598599285387
40
0.144598599285387
40
0.256699365951616
40
0.256699365951616
40
0.370082641733434
40
0.370082641733434
40
0.466657588575158
40
0.466657588575158
40
0.564068157643561
40
0.564068157643561
40
0.716572393061035
40
0.716572393061035
40
0.936945012758068
40
0.936945012758068
40
1
40
1
40
1
40
1
41
1
10
0.394519052838319
20
-19.0473658062967
30
0
41
1
10
0.408214504287599
20
-19.0594259049824
30
0
41
1
10
0.42170507190005
20
-19.0706140862987
30
0
41
1
10
0.443178844916304
20
-19.0866611502955
30
0
41
1
10
0.451905079037545
20
-19.0924990294535
30
0
41
1
10
0.466194431389738
20
-19.1001562394458
30
0
41
1
10
0.471896102067348
20
-19.1019924020467
30
0
41
1
10
0.478262752803943
20
-19.1009159444591
30
0
41
1
10
0.479637513823462
20
-19.0986636573495
30
0
41
1
10
0.479382488733819
20
-19.0913155598733
30
0
41
1
10
0.477750111527598
20
-19.0861380753486
30
0
41
1
10
0.470716771417273
20
-19.0705543545702
30
0
41
1
10
0.463652883951681
20
-19.0586284622446
30
0
41
1
10
0.442780499065123
20
-19.0272505359944
30
0
41
1
10
0.427030536295632
20
-19.0062328275241
30
0
41
1
10
0.404874748049821
20
-18.9786062440512
30
0
41
1
10
0.399756043146454
20
-18.9723390203338
30
0
41
1
10
0.394519052838319
20
-18.9660336777981
30
0
0
SPLINE
5
38A
100
AcDbEntity
8
1
62
256
6
ByLayer
370
-1
48
1
60
0
100
AcDbSpline
70
4
71
3
72
10
73
6
40
0
40
0
40
0
40
0
40
0.5
40
0.5
40
1
40
1
40
1
40
1
41
1
10
13.973472753716
20
7.66288530520175
30
0
41
1
10
14.3675228701598
20
7.86197796485231
30
0
41
1
10
14.7339880545207
20
8.103338366066
30
0
41
1
10
15.4334070696293
20
8.63382984524745
30
0
41
1
10
15.7675316882403
20
8.92422102138899
30
0
41
1
10
16.0929786733623
20
9.23349895683018
30
0
0
SPLINE
5
38B
100
AcDbEntity
8
1
62
256
6
ByLayer
370
-1
48
1
60
0
100
AcDbSpline
70
4
71
3
72
12
73
8
40
0
40
0
40
0
40
0
40
0.5
40
0.5
40
0.75
40
0.75
40
1
40
1
40
1
40
1
41
1
10
12.9710451576157
20
9.55226195415152
30
0
41
1
10
12.6927872084434
20
9.24374294322534
30
0
41
1
10
12.4243815097861
20
8.92406260052671
30
0
41
1
10
12.0847116904057
20
8.41809243831925
30
0
41
1
10
11.9797854429083
20
8.24206930197991
30
0
41
1
10
11.8343665738496
20
7.87766856803979
30
0
41
1
10
11.7844962253052
20
7.66994272025943
30
0
41
1
10
11.8716428790746
20
7.49934196495254
30
0
0
SPLINE
5
38C
100
AcDbEntity
8
1
62
256
6
ByLayer
370
-1
48
1
60
0
100
AcDbSpline
70
4
71
3
72
22
73
18
40
0
40
0
40
0
40
0
40
0.275727316123159
40
0.275727316123159
40
0.428602543447363
40
0.428602543447363
40
0.549120162462184
40
0.549120162462184
40
0.645444488302809
40
0.645444488302809
40
0.742264601009257
40
0.742264601009257
40
0.832567834543573
40
0.832567834543573
40
0.960604338778268
40
0.960604338778268
40
1
40
1
40
1
40
1
41
1
10
0.394519052838319
20
-18.4734609781557
30
0
41
1
10
0.416739790093544
20
-18.5019698255911
30
0
41
1
10
0.437067535062965
20
-18.5304983597117
30
0
41
1
10
0.461249050468751
20
-18.5701595535583
30
0
41
1
10
0.468555599248219
20
-18.5836738484427
30
0
41
1
10
0.477177908014284
20
-18.6042553094808
30
0
41
1
10
0.479479315771357
20
-18.6122481662567
30
0
41
1
10
0.479549925426085
20
-18.622691477533
30
0
41
1
10
0.478099791999938
20
-18.6260021527981
30
0
41
1
10
0.471943773943224
20
-18.6289143447912
30
0
41
1
10
0.467122155651594
20
-18.6285153753229
30
0
41
1
10
0.455354313901381
20
-18.6243038580098
30
0
41
1
10
0.448453389358548
20
-18.6206974779665
30
0
41
1
10
0.430377060414429
20
-18.6093680373215
30
0
41
1
10
0.418351009332866
20
-18.600421221637
30
0
41
1
10
0.402266909816149
20
-18.5872977315688
30
0
41
1
10
0.398404796793301
20
-18.5840643737269
30
0
41
1
10
0.394519052838348
20
-18.5807377979135
30
0
0
SPLINE
5
38D
100
AcDbEntity
8
SK1
62
256
6
ByLayer
370
-1
48
1
60
0
100
AcDbSpline
70
4
71
3
72
10
73
6
40
0
40
0
40
0
40
0
40
0.769673970735105
40
0.769673970735105
40
1
40
1
40
1
40
1
41
1
10
-0.249519052838338
20
-12.0718886217914
30
0
41
1
10
-0.281564031317714
20
-11.9986189800081
30
0
41
1
10
-0.306800677815431
20
-11.9228168658542
30
0
41
1
10
-0.322210829766476
20
-11.8312878095864
30
0
41
1
10
-0.324519052838326
20
-11.8102779902036
30
0
41
1
10
-0.324519052838326
20
-11.7907116231339
30
0
0
SPLINE
5
38E
100
AcDbEntity
8
SK1
62
256
6
ByLayer
370
-1
48
1
60
0
100
AcDbSpline
70
4
71
3
72
22
73
18
40
0
40
0
40
0
40
0
40
0.0856174634481561
40
0.0856174634481561
40
0.134825029442243
40
0.134825029442243
40
0.174527146179651
40
0.174527146179651
40
0.214477434778859
40
0.214477434778859
40
0.261551162214559
40
0.261551162214559
40
0.340810854424602
40
0.340810854424602
40
0.577132586944293
40
0.577132586944293
40
1
40
1
40
1
40
1
41
1
10
-0.249519052838338
20
5.61145683315186
30
0
41
1
10
-0.253798716498892
20
5.60493653117052
30
0
41
1
10
-0.258449695359957
20
5.5987002268925
30
0
41
1
10
-0.266520083320302
20
5.59059483615645
30
0
41
1
10
-0.269677491386176
20
5.58796821863443
30
0
41
1
10
-0.2755695212837
20
5.58457740664718
30
0
41
1
10
-0.278323684911072
20
5.583542252656
30
0
41
1
10
-0.283666175074785
20
5.58287503764208
30
0
41
1
10
-0.286316303058072
20
5.58325414631425
30
0
41
1
10
-0.291520597236769
20
5.58542279538239
30
0
41
1
10
-0.29406097905732
20
5.58744936764259
30
0
41
1
10
-0.299958132475013
20
5.5940339804104
30
0
41
1
10
-0.302866290294219
20
5.59942932034254
30
0
41
1
10
-0.312410070826701
20
5.62209996439327
30
0
41
1
10
-0.315974274426225
20
5.64238315515723
30
0
41
1
10
-0.323309536962483
20
5.69892560251589
30
0
41
1
10
-0.324519052838326
20
5.73700047251158
30
0
41
1
10
-0.324519052838326
20
5.77516103418449
30
0
0
SPLINE
5
38F
100
AcDbEntity
8
SK1
62
256
6
ByLayer
370
-1
48
1
60
0
100
AcDbSpline
70
4
71
3
72
16
73
12
40
0
40
0
40
0
40
0
40
0.216525341083707
40
0.216525341083707
40
0.437598882768676
40
0.437598882768676
40
0.632197208818113
40
0.632197208818113
40
0.809603864970845
40
0.809603864970845
40
1
40
1
40
1
40
1
41
1
10
-0.324519052838326
20
15.7676259921204
30
0
41
1
10
-0.324519052838326
20
15.7608343707043
30
0
41
1
10
-0.323483716408788
20
15.7548038014129
30
0
41
1
10
-0.318639718248534
20
15.7456414697231
30
0
41
1
10
-0.314655274291312
20
15.7424942643018
30
0
41
1
10
-0.304458771015504
20
15.7406986315941
30
0
41
1
10
-0.298427824021189
20
15.7415508978682
30
0
41
1
10
-0.285708667223162
20
15.7460934281866
30
0
41
1
10
-0.278994071361069
20
15.7495500558628
30
0
41
1
10
-0.264772620289221
20
15.7584578599997
30
0
41
1
10
-0.257117310111909
20
15.7641004999785
30
0
41
1
10
-0.249519052838338
20
15.7703059388672
30
0
0
SPLINE
5
390
100
AcDbEntity
8
1
62
256
6
ByLayer
370
-1
48
1
60
0
100
AcDbSpline
70
4
71
3
72
22
73
18
40
0
40
0
40
0
40
0
40
0.360398650986887
40
0.360398650986887
40
0.507040735908437
40
0.507040735908437
40
0.656230896070085
40
0.656230896070085
40
0.735823930778752
40
0.735823930778752
40
0.816184345254592
40
0.816184345254592
40
0.888209392933061
40
0.888209392933061
40
0.986665172848572
40
0.986665172848572
40
1
40
1
40
1
40
1
41
1
10
0.394519052838319
20
16.0917289824197
30
0
41
1
10
0.422135753480461
20
16.1368638417689
30
0
41
1
10
0.446097874168828
20
16.1829720290048
30
0
41
1
10
0.468569613737714
20
16.2422053548891
30
0
41
1
10
0.473810837718929
20
16.2590078955548
30
0
41
1
10
0.479858892984282
20
16.2896129713519
30
0
41
1
10
0.480667866262479
20
16.3038405651389
30
0
41
1
10
0.475758966214045
20
16.3194862441535
30
0
41
1
10
0.472803933944476
20
16.3238530196782
30
0
41
1
10
0.464176767662508
20
16.3290094465438
30
0
41
1
10
0.45832982234225
20
16.3297915085337
30
0
41
1
10
0.445334248679558
20
16.3275336210466
30
0
41
1
10
0.438243093600732
20
16.3248759927297
30
0
41
1
10
0.420736811112505
20
16.3158480289951
30
0
41
1
10
0.409793715813919
20
16.3083897229872
30
0
41
1
10
0.397487609997228
20
16.2986868578721
30
0
41
1
10
0.396003365879579
20
16.2974950972351
30
0
41
1
10
0.394519052838348
20
16.2962828885272
30
0
0
SPLINE
5
391
100
AcDbEntity
8
SK1
62
256
6
ByLayer
370
-1
48
1
60
0
100
AcDbSpline
70
4
71
3
72
8
73
4
40
0
40
0
40
0
40
0
40
1
40
1
40
1
40
1
41
1
10
-0.249519052838338
20
-18.7993790062494
30
0
41
1
10
-0.166385417532922
20
-18.875482473715
30
0
41
1
10
-0.0832119351491656
20
-18.9515279375099
30
0
41
1
10
0
20
-19.0275172217373
30
0
0
SPLINE
5
392
100
AcDbEntity
8
SK1
62
256
6
ByLayer
370
-1
48
1
60
0
100
AcDbSpline
70
4
71
3
72
14
73
10
40
0
40
0
40
0
40
0
40
0.362203630042166
40
0.362203630042166
40
0.623194640203971
40
0.623194640203971
40
0.842318788675735
40
0.842318788675735
40
1
40
1
40
1
40
1
41
1
10
-0.249519052838338
20
-18.9963015174965
30
0
41
1
10
-0.263462353376582
20
-18.983033982323
30
0
41
1
10
-0.276976984035883
20
-18.9704469491028
30
0
41
1
10
-0.297119030409903
20
-18.9523406520921
30
0
41
1
10
-0.304781405826446
20
-18.9456860752016
30
0
41
1
10
-0.315773498902729
20
-18.9367473854937
30
0
41
1
10
-0.319691897097101
20
-18.9338657283653
30
0
41
1
10
-0.323662536225584
20
-18.9317185216818
30
0
41
1
10
-0.324519052838326
20
-18.9316511709397
30
0
41
1
10
-0.324519052838326
20
-18.9324241124939
30
0
0
SPLINE
5
393
100
AcDbEntity
8
1
62
256
6
ByLayer
370
-1
48
1
60
0
100
AcDbSpline
70
4
71
3
72
8
73
4
40
0
40
0
40
0
40
0
40
1
40
1
40
1
40
1
41
1
10
0.394519052838319
20
18.5807377979135
30
0
41
1
10
0.262973667389161
20
18.4681221179633
30
0
41
1
10
0.131466595340072
20
18.355446739373
30
0
41
1
10
0
20
18.2427084508718
30
0
0
SPLINE
5
394
100
AcDbEntity
8
SK1
62
256
6
ByLayer
370
-1
48
1
60
0
100
AcDbSpline
70
4
71
3
72
18
73
14
40
0
40
0
40
0
40
0
40
0.32083029364833
40
0.32083029364833
40
0.476811069138415
40
0.476811069138415
40
0.609697449132548
40
0.609697449132548
40
0.744015930930369
40
0.744015930930369
40
0.859671294155377
40
0.859671294155377
40
1
40
1
40
1
40
1
41
1
10
-0.324519052838326
20
-11.5307719929506
30
0
41
1
10
-0.324519052838326
20
-11.5149110219309
30
0
41
1
10
-0.323132417764185
20
-11.4995838321521
30
0
41
1
10
-0.316964200684765
20
-11.4806760840516
30
0
41
1
10
-0.314220739890175
20
-11.4750394838329
30
0
41
1
10
-0.307408577791023
20
-11.4669600705495
30
0
41
1
10
-0.30350734729106
20
-11.464123894537
30
0
41
1
10
-0.294336844123023
20
-11.4613051848512
30
0
41
1
10
-0.288908281993827
20
-11.4613547971215
30
0
41
1
10
-0.278332460249459
20
-11.4641633284412
30
0
41
1
10
-0.273138707681426
20
-11.4665477933462
30
0
41
1
10
-0.261790314299759
20
-11.4734011769204
30
0
41
1
10
-0.255541685027822
20
-11.4782522701855
30
0
41
1
10
-0.249519052838338
20
-11.483644388276
30
0
0
SPLINE
5
395
100
AcDbEntity
8
SK1
62
256
6
ByLayer
370
-1
48
1
60
0
100
AcDbSpline
70
4
71
3
72
10
73
6
40
0
40
0
40
0
40
0
40
0.599902116640991
40
0.599902116640991
40
1
40
1
40
1
40
1
41
1
10
-0.249519052838338
20
-15.0114907404589
30
0
41
1
10
-0.273885994261604
20
-14.9694982684715
30
0
41
1
10
-0.294696453476916
20
-14.9265709293308
30
0
41
1
10
-0.317917590072824
20
-14.8600836524593
30
0
41
1
10
-0.324519052838326
20
-14.8337903920928
30
0
41
1
10
-0.324519052838326
20
-14.8126521189576
30
0
0
SPLINE
5
396
100
AcDbEntity
8
SK1
62
256
6
ByLayer
370
-1
48
1
60
0
100
AcDbSpline
70
4
71
3
72
10
73
6
40
0
40
0
40
0
40
0
40
0.768045832176213
40
0.768045832176213
40
1
40
1
40
1
40
1
41
1
10
-0.249519052838338
20
9.95857998009566
30
0
41
1
10
-0.282220574569095
20
9.86509826280752
30
0
41
1
10
-0.30695605067865
20
9.76924729934063
30
0
41
1
10
-0.322219142887974
20
9.64976843816068
30
0
41
1
10
-0.324519052838326
20
9.622064957834
30
0
41
1
10
-0.324519052838326
20
9.59551923927148
30
0
0
SPLINE
5
397
100
AcDbEntity
8
1
62
256
6
ByLayer
370
-1
48
1
60
0
100
AcDbSpline
70
4
71
3
72
22
73
18
40
0
40
0
40
0
40
0
40
0.104318682418402
40
0.104318682418402
40
0.193445107366587
40
0.193445107366587
40
0.283343744032801
40
0.283343744032801
40
0.362608705495849
40
0.362608705495849
40
0.473804161880507
40
0.473804161880507
40
0.64092102443543
40
0.64092102443543
40
0.90626991213341
40
0.90626991213341
40
1
40
1
40
1
40
1
41
1
10
0.394519052838348
20
17.2228674449602
30
0
41
1
10
0.405473669439715
20
17.2318833826011
30
0
41
1
10
0.416479652978836
20
17.2400214788822
30
0
41
1
10
0.435532918358888
20
17.2517132993882
30
0
41
1
10
0.443955203471091
20
17.2558434363981
30
0
41
1
10
0.458451883226019
20
17.2602275995547
30
0
41
1
10
0.464685556395807
20
17.2604700559101
30
0
41
1
10
0.473231946911795
20
17.2571221831027
30
0
41
1
10
0.476041251445224
20
17.2539671742059
30
0
41
1
10
0.479932802642821
20
17.2437036163446
30
0
41
1
10
0.479989904762306
20
17.2354068026071
30
0
41
1
10
0.47629028403
20
17.2119916884379
30
0
41
1
10
0.470653225175312
20
17.1951666646053
30
0
41
1
10
0.4514251703458
20
17.1497628240649
30
0
41
1
10
0.434780268885334
20
17.1191022359134
30
0
41
1
10
0.409044256126407
20
17.07744777963
30
0
41
1
10
0.40192674158854
20
17.0664096731148
30
0
41
1
10
0.394519052838319
20
17.0553632209806
30
0
0
SPLINE
5
398
100
AcDbEntity
8
1
62
256
6
ByLayer
370
-1
48
1
60
0
100
AcDbSpline
70
4
71
3
72
8
73
4
40
0
40
0
40
0
40
0
40
1
40
1
40
1
40
1
41
1
10
0.394519052838319
20
11.6669928763094
30
0
41
1
10
0.258588067896966
20
11.3303132235976
30
0
41
1
10
0.126948364210165
20
10.9912722816142
30
0
41
1
10
0
20
10.6499489023893
30
0
0
SPLINE
5
399
100
AcDbEntity
8
SK1
62
256
6
ByLayer
370
-1
48
1
60
0
100
AcDbSpline
70
4
71
3
72
12
73
8
40
0
40
0
40
0
40
0
40
0.484360704776294
40
0.484360704776294
40
0.758944015301489
40
0.758944015301489
40
1
40
1
40
1
40
1
41
1
10
-0.249519052838338
20
-18.181682346768
30
0
41
1
10
-0.268486304763485
20
-18.1583085003069
30
0
41
1
10
-0.285941951223037
20
-18.1350199861427
30
0
41
1
10
-0.307182540152667
20
-18.1024469830297
30
0
41
1
10
-0.313746593133686
20
-18.0912263791264
30
0
41
1
10
-0.322144505375832
20
-18.0733092758655
30
0
41
1
10
-0.324519052838326
20
-18.0660466306376
30
0
41
1
10
-0.324519052838326
20
-18.0610693822919
30
0
0
SPLINE
5
39A
100
AcDbEntity
8
SK1
62
256
6
ByLayer
370
-1
48
1
60
0
100
AcDbSpline
70
4
71
3
72
8
73
4
40
0
40
0
40
0
40
0
40
1
40
1
40
1
40
1
41
1
10
-0.249519052838338
20
12.0718886217914
30
0
41
1
10
-0.167648592736953
20
12.2590823591226
30
0
41
1
10
-0.0844518749535723
20
12.4455098841085
30
0
41
1
10
0
20
12.6311682604383
30
0
0
SPLINE
5
39B
100
AcDbEntity
8
SK1
62
256
6
ByLayer
370
-1
48
1
60
0
100
AcDbSpline
70
4
71
3
72
8
73
4
40
0
40
0
40
0
40
0
40
1
40
1
40
1
40
1
41
1
10
-0.249519052838338
20
18.9963015174965
30
0
41
1
10
-0.166400755928578
20
19.0753914664499
30
0
41
1
10
-0.0832270823895556
20
19.1544038788987
30
0
41
1
10
0
20
19.2333411456125
30
0
0
SPLINE
5
39C
100
AcDbEntity
8
SK1
62
256
6
ByLayer
370
-1
48
1
60
0
100
AcDbSpline
70
4
71
3
72
16
73
12
40
0
40
0
40
0
40
0
40
0.209479155782296
40
0.209479155782296
40
0.421847879524335
40
0.421847879524335
40
0.620161699554187
40
0.620161699554187
40
0.880473932719267
40
0.880473932719267
40
1
40
1
40
1
40
1
41
1
10
-0.324519052838326
20
17.4133353269855
30
0
41
1
10
-0.324519052838326
20
17.4086730762758
30
0
41
1
10
-0.323341381830914
20
17.4050131309646
30
0
41
1
10
-0.31824939650744
20
17.4007174301237
30
0
41
1
10
-0.314206727296238
20
17.4000963464948
30
0
41
1
10
-0.304142388946502
20
17.4021153047519
30
0
41
1
10
-0.298160226702635
20
17.4045527194701
30
0
41
1
10
-0.283076283088803
20
17.4127143000575
30
0
41
1
10
-0.273370059462707
20
17.4193113747992
30
0
41
1
10
-0.258886607687714
20
17.4304261009954
30
0
41
1
10
-0.254215317784571
20
17.4341895771821
30
0
41
1
10
-0.249519052838338
20
17.4381246139465
30
0
0
SPLINE
5
39D
100
AcDbEntity
8
SK1
62
256
6
ByLayer
370
-1
48
1
60
0
100
AcDbSpline
70
4
71
3
72
8
73
4
40
0
40
0
40
0
40
0
40
1
40
1
40
1
40
1
41
1
10
-0.249519052838338
20
13.2407291626788
30
0
41
1
10
-0.166359434825864
20
13.3107416731093
30
0
41
1
10
-0.0831862082839905
20
13.380732636207
30
0
41
1
10
0
20
13.4507030159581
30
0
0
SPLINE
5
39E
100
AcDbEntity
8
SK1
62
256
6
ByLayer
370
-1
48
1
60
0
100
AcDbSpline
70
4
71
3
72
8
73
4
40
0
40
0
40
0
40
0
40
1
40
1
40
1
40
1
41
1
10
-0.249519052838338
20
-16.0748883021891
30
0
41
1
10
-0.166803293990711
20
-16.2035493499351
30
0
41
1
10
-0.083623106564545
20
-16.3318138919978
30
0
41
1
10
0
20
-16.4596905081325
30
0
0
SPLINE
5
39F
100
AcDbEntity
8
SK1
62
256
6
ByLayer
370
-1
48
1
60
0
100
AcDbSpline
70
4
71
3
72
8
73
4
40
0
40
0
40
0
40
0
40
1
40
1
40
1
40
1
41
1
10
-0.249519052838338
20
15.0114907404588
30
0
41
1
10
-0.166964923531196
20
15.1537593946222
30
0
41
1
10
-0.0837817374583381
20
15.2955438255014
30
0
41
1
10
0
20
15.4368523871774
30
0
0
SPLINE
5
3A0
100
AcDbEntity
8
SK1
62
256
6
ByLayer
370
-1
48
1
60
0
100
AcDbSpline
70
4
71
3
72
16
73
12
40
0
40
0
40
0
40
0
40
0.211149623058203
40
0.211149623058203
40
0.42594831560744
40
0.42594831560744
40
0.621562080863177
40
0.621562080863177
40
0.814615131718166
40
0.814615131718166
40
1
40
1
40
1
40
1
41
1
10
-0.324519052838326
20
-16.6784633080723
30
0
41
1
10
-0.324519052838326
20
-16.6728280398634
30
0
41
1
10
-0.323426708403986
20
-16.6680648537593
30
0
41
1
10
-0.318521005972968
20
-16.6614849911426
30
0
41
1
10
-0.31455880361878
20
-16.6596729133821
30
0
41
1
10
-0.304563128691598
20
-16.6598066765478
30
0
41
1
10
-0.298625746186531
20
-16.6614306467995
30
0
41
1
10
-0.285664426601556
20
-16.6672033698362
30
0
41
1
10
-0.278524478665617
20
-16.6713577152732
30
0
41
1
10
-0.264156666422281
20
-16.6810793119385
30
0
41
1
10
-0.25683859486665
20
-16.6866468865912
30
0
41
1
10
-0.249519052838338
20
-16.6926741335383
30
0
0
SPLINE
5
3A1
100
AcDbEntity
8
SK1
62
256
6
ByLayer
370
-1
48
1
60
0
100
AcDbSpline
70
4
71
3
72
16
73
12
40
0
40
0
40
0
40
0
40
0.212430474389447
40
0.212430474389447
40
0.426295978708325
40
0.426295978708325
40
0.636556268297902
40
0.636556268297902
40
0.95354695766652
40
0.95354695766652
40
1
40
1
40
1
40
1
41
1
10
-0.324519052838326
20
18.4344911780253
30
0
41
1
10
-0.324519052838326
20
18.4315992676575
30
0
41
1
10
-0.323117923704416
20
18.4300114617852
30
0
41
1
10
-0.317479667023633
20
18.4299661489408
30
0
41
1
10
-0.313150660150427
20
18.4315306558945
30
0
41
1
10
-0.302517607566244
20
18.4372835390707
30
0
41
1
10
-0.296144295624288
20
18.4414712478929
30
0
41
1
10
-0.278863540551981
20
18.4540802831147
30
0
41
1
10
-0.267028157326337
20
18.4637422062463
30
0
41
1
10
-0.253135491921768
20
18.4758249333406
30
0
41
1
10
-0.251331288975706
20
18.4774077287948
30
0
41
1
10
-0.249519052838338
20
18.4790105443333
30
0
0
SPLINE
5
3A2
100
AcDbEntity
8
1
62
256
6
ByLayer
370
-1
48
1
60
0
100
AcDbSpline
70
4
71
3
72
22
73
18
40
0
40
0
40
0
40
0
40
0.0775839193109272
40
0.0775839193109272
40
0.156885420043649
40
0.156885420043649
40
0.227587553499006
40
0.227587553499006
40
0.290983349914784
40
0.290983349914784
40
0.39293235423506
40
0.39293235423506
40
0.562762131967825
40
0.562762131967825
40
0.865700677527772
40
0.865700677527772
40
1
40
1
40
1
40
1
41
1
10
0.394519052838319
20
15.1660973535886
30
0
41
1
10
0.403544704540252
20
15.173502329075
30
0
41
1
10
0.412739090997519
20
15.1801161439529
30
0
41
1
10
0.430544112898332
20
15.1902973078633
30
0
41
1
10
0.439373404865648
20
15.1938786394794
30
0
41
1
10
0.453778577892564
20
15.1961404256716
30
0
41
1
10
0.459777612816026
20
15.195314006757
30
0
41
1
10
0.46864352399524
20
15.1904857301071
30
0
41
1
10
0.471894332956623
20
15.1867995374597
30
0
41
1
10
0.477949159839426
20
15.1748682431631
30
0
41
1
10
0.479468067215947
20
15.1650828930848
30
0
41
1
10
0.479600311387429
20
15.1365163306556
30
0
41
1
10
0.47578149961538
20
15.1155669751218
30
0
41
1
10
0.459761922944551
20
15.0556485761855
30
0
41
1
10
0.443064184835606
20
15.0139047011116
30
0
41
1
10
0.414359188756492
20
14.9538313448656
30
0
41
1
10
0.404752946498292
20
14.9351407320534
30
0
41
1
10
0.394519052838319
20
14.9165032325849
30
0
0
SPLINE
5
3A3
100
AcDbEntity
8
SK1
62
256
6
ByLayer
370
-1
48
1
60
0
100
AcDbSpline
70
4
71
3
72
16
73
12
40
0
40
0
40
0
40
0
40
0.19660452944643
40
0.19660452944643
40
0.397753669143357
40
0.397753669143357
40
0.577066618867397
40
0.577066618867397
40
0.738670781269067
40
0.738670781269067
40
1
40
1
40
1
40
1
41
1
10
-0.249519052838338
20
14.637613503657
30
0
41
1
10
-0.257471316975881
20
14.6310868772756
30
0
41
1
10
-0.265574472151627
20
14.6252592563981
30
0
41
1
10
-0.281277117941556
20
14.6162897929247
30
0
41
1
10
-0.289068554053785
20
14.6131393983352
30
0
41
1
10
-0.301780059707625
20
14.6111498419911
30
0
41
1
10
-0.307073212276066
20
14.6118745909008
30
0
41
1
10
-0.314921610889172
20
14.6161054180538
30
0
41
1
10
-0.317805451302036
20
14.619347791567
30
0
41
1
10
-0.323187338690502
20
14.6298744249309
30
0
41
1
10
-0.324519052838326
20
14.6385341235637
30
0
41
1
10
-0.324519052838326
20
14.6480346987596
30
0
0
SPLINE
5
3A4
100
AcDbEntity
8
1
62
256
6
ByLayer
370
-1
48
1
60
0
100
AcDbSpline
70
4
71
3
72
8
73
4
40
0
40
0
40
0
40
0
40
1
40
1
40
1
40
1
41
1
10
0.394519052838319
20
17.2228674449602
30
0
41
1
10
0.263005974523594
20
17.1146287218544
30
0
41
1
10
0.131499494301977
20
17.0063793087006
30
0
41
1
10
0
20
16.8981185823602
30
0
0
SPLINE
5
3A5
100
AcDbEntity
8
1
62
256
6
ByLayer
370
-1
48
1
60
0
100
AcDbSpline
70
4
71
3
72
22
73
18
40
0
40
0
40
0
40
0
40
0.050362724612077
40
0.050362724612077
40
0.101958745990659
40
0.101958745990659
40
0.149530474122574
40
0.149530474122574
40
0.191258249392857
40
0.191258249392857
40
0.262670051298846
40
0.262670051298846
40
0.394492315498876
40
0.394492315498876
40
0.682048144163198
40
0.682048144163198
40
1
40
1
40
1
40
1
41
1
10
0.394519052838319
20
12.0579374210678
30
0
41
1
10
0.401427601053285
20
12.0640741157459
30
0
41
1
10
0.408587323029366
20
12.0695901747023
30
0
41
1
10
0.422949084269305
20
12.0782128396388
30
0
41
1
10
0.430334711529781
20
12.0813208938064
30
0
41
1
10
0.443277358798383
20
12.0834788474439
30
0
41
1
10
0.449089877611812
20
12.0828231034782
30
0
41
1
10
0.458223885746179
20
12.0787096230535
30
0
41
1
10
0.46188520740867
20
12.0755949201753
30
0
41
1
10
0.469999357388019
20
12.0651611408931
30
0
41
1
10
0.47339040326159
20
12.0563281186121
30
0
41
1
10
0.479702919706199
20
12.0289547573174
30
0
41
1
10
0.480165060578685
20
12.0080137289938
30
0
41
1
10
0.476311579427602
20
11.9398802480501
30
0
41
1
10
0.46582765248047
20
11.8888440824657
30
0
41
1
10
0.437121316899862
20
11.7815626979047
30
0
41
1
10
0.417521665847232
20
11.7239667278757
30
0
41
1
10
0.394519052838319
20
11.6669928763094
30
0
0
SPLINE
5
3A6
100
AcDbEntity
8
1
62
256
6
ByLayer
370
-1
48
1
60
0
100
AcDbSpline
70
4
71
3
72
22
73
18
40
0
40
0
40
0
40
0
40
0.214731283158032
40
0.214731283158032
40
0.346694427231024
40
0.346694427231024
40
0.456841553863308
40
0.456841553863308
40
0.567743359814641
40
0.567743359814641
40
0.668002637161351
40
0.668002637161351
40
0.799479380592847
40
0.799479380592847
40
0.979115263712282
40
0.979115263712282
40
1
40
1
40
1
40
1
41
1
10
0.394519052838319
20
-19.6986154928503
30
0
41
1
10
0.413046293940766
20
-19.7176491513148
30
0
41
1
10
0.430737488838531
20
-19.7360292699243
30
0
41
1
10
0.4542731016858
20
-19.7609342268498
30
0
41
1
10
0.462229281514254
20
-19.7694857689091
30
0
41
1
10
0.473093892054891
20
-19.7815159914878
30
0
41
1
10
0.476700066166899
20
-19.7856928445035
30
0
41
1
10
0.480079176504887
20
-19.7902070905439
30
0
41
1
10
0.479844579745475
20
-19.7905525650357
30
0
41
1
10
0.47570315871647
20
-19.7874298753918
30
0
41
1
10
0.472118765301559
20
-19.7843051225123
30
0
41
1
10
0.461172605916147
20
-19.7743033105186
30
0
41
1
10
0.452850467138347
20
-19.7664461517624
30
0
41
1
10
0.430749688780509
20
-19.7452578798196
30
0
41
1
10
0.415737486663943
20
-19.7306456634328
30
0
41
1
10
0.398238552505063
20
-19.7134771055984
30
0
41
1
10
0.396384290205816
20
-19.7116562412322
30
0
41
1
10
0.394519052839144
20
-19.7098230659524
30
0
0
SPLINE
5
3A7
100
AcDbEntity
8
SK1
62
256
6
ByLayer
370
-1
48
1
60
0
100
AcDbSpline
70
4
71
3
72
12
73
8
40
0
40
0
40
0
40
0
40
0.264463236759315
40
0.264463236759315
40
0.622665857900503
40
0.622665857900503
40
1
40
1
40
1
40
1
41
1
10
-0.324519052838326
20
-17.5001524600012
30
0
41
1
10
-0.324519052838326
20
-17.5072972255263
30
0
41
1
10
-0.321624964649345
20
-17.5171453539007
30
0
41
1
10
-0.310764903028144
20
-17.5427734757379
30
0
41
1
10
-0.301233631961224
20
-17.5598977037521
30
0
41
1
10
-0.278327850859085
20
-17.5962059994125
30
0
41
1
10
-0.26448519955693
20
-17.6159077300313
30
0
41
1
10
-0.249519052838338
20
-17.6356568712878
30
0
0
SPLINE
5
3A8
100
AcDbEntity
8
SK1
62
256
6
ByLayer
370
-1
48
1
60
0
100
AcDbSpline
70
4
71
3
72
14
73
10
40
0
40
0
40
0
40
0
40
0.431988199166862
40
0.431988199166862
40
0.68608693001285
40
0.68608693001285
40
0.943546696531175
40
0.943546696531175
40
1
40
1
40
1
40
1
41
1
10
-0.249519052838338
20
19.0736019583787
30
0
41
1
10
-0.26612816946502
20
19.0571077297869
30
0
41
1
10
-0.282079861488512
20
19.0413128931183
30
0
41
1
10
-0.302768475341224
20
19.0209026362755
30
0
41
1
10
-0.309572242547404
20
19.0142107147592
30
0
41
1
10
-0.31973314348258
20
19.0042656693031
30
0
41
1
10
-0.323154010967585
20
19.0009515866634
30
0
41
1
10
-0.324404072908948
20
18.9998094040996
30
0
41
1
10
-0.324519052838326
20
18.9997133562905
30
0
41
1
10
-0.324519052838326
20
18.9997313577499
30
0
0
SPLINE
5
3A9
100
AcDbEntity
8
1
62
256
6
ByLayer
370
-1
48
1
60
0
100
AcDbSpline
70
4
71
3
72
8
73
4
40
0
40
0
40
0
40
0
40
1
40
1
40
1
40
1
41
1
10
0.394519052838319
20
14.9165032325849
30
0
41
1
10
0.261110073250762
20
14.6735448954387
30
0
41
1
10
0.12955220400724
20
14.429216262006
30
0
41
1
10
0
20
14.183490812332
30
0
0
SPLINE
5
3AA
100
AcDbEntity
8
1
62
256
6
ByLayer
370
-1
48
1
60
0
100
AcDbSpline
70
4
71
3
72
22
73
18
40
0
40
0
40
0
40
0
40
0.0436369563004696
40
0.0436369563004696
40
0.0744949566618586
40
0.0744949566618586
40
0.105621047709127
40
0.105621047709127
40
0.133748808265416
40
0.133748808265416
40
0.181272372610359
40
0.181272372610359
40
0.272322247199487
40
0.272322247199487
40
0.55030981288234
40
0.55030981288234
40
1
40
1
40
1
40
1
41
1
10
0.394519052838319
20
-9.81506636790175
30
0
41
1
10
0.401363938093539
20
-9.8219319512765
30
0
41
1
10
0.408643289748198
20
-9.82812252942173
30
0
41
1
10
0.421239852648512
20
-9.83578748781622
30
0
41
1
10
0.426614581838692
20
-9.83813660676901
30
0
41
1
10
0.436849717151375
20
-9.8402611888488
30
0
41
1
10
0.441829037005164
20
-9.84001190380447
30
0
41
1
10
0.450124298357537
20
-9.83714146354649
30
0
41
1
10
0.453657064794498
20
-9.834747807097
30
0
41
1
10
0.461779987613767
20
-9.82656502340286
30
0
41
1
10
0.465628585627229
20
-9.81950934144652
30
0
41
1
10
0.474208070443382
20
-9.79697170415233
30
0
41
1
10
0.476930730974999
20
-9.77929436989612
30
0
41
1
10
0.48260427760809
20
-9.70621349940819
30
0
41
1
10
0.475888232455674
20
-9.64461019196196
30
0
41
1
10
0.450862000692581
20
-9.4849327517065
30
0
41
1
10
0.425772182653674
20
-9.38336212878836
30
0
41
1
10
0.394519052838319
20
-9.28315947401117
30
0
0
SPLINE
5
3AB
100
AcDbEntity
8
1
62
256
6
ByLayer
370
-1
48
1
60
0
100
AcDbSpline
70
4
71
3
72
8
73
4
40
0
40
0
40
0
40
0
40
1
40
1
40
1
40
1
41
1
10
0.394519052838319
20
-9.81506636790175
30
0
41
1
10
0.262611087046167
20
-9.68275952809725
30
0
41
1
10
0.131088642845327
20
-9.54993805463116
30
0
41
1
10
0
20
-9.41654987898986
30
0
0
SPLINE
5
3AC
100
AcDbEntity
8
SK1
62
256
6
ByLayer
370
-1
48
1
60
0
100
AcDbSpline
70
4
71
3
72
8
73
4
40
0
40
0
40
0
40
0
40
1
40
1
40
1
40
1
41
1
10
-0.249519052838338
20
-19.0736019583787
30
0
41
1
10
-0.166419466436651
20
-19.1561267310563
30
0
41
1
10
-0.0832455498896536
20
-19.2385518046065
30
0
41
1
10
0
20
-19.3208801979494
30
0
0
SPLINE
5
3AD
100
AcDbEntity
8
1
62
256
6
ByLayer
370
-1
48
1
60
0
100
AcDbSpline
70
4
71
3
72
22
73
18
40
0
40
0
40
0
40
0
40
0.299363580156425
40
0.299363580156425
40
0.453915767108517
40
0.453915767108517
40
0.576207771096449
40
0.576207771096449
40
0.669692963969136
40
0.669692963969136
40
0.763865114712142
40
0.763865114712142
40
0.84915036902841
40
0.84915036902841
40
0.96714617985239
40
0.96714617985239
40
1
40
1
40
1
40
1
41
1
10
0.394519052838319
20
17.8417232227021
30
0
41
1
10
0.418256336885037
20
17.8744082986343
30
0
41
1
10
0.439649953514021
20
17.9073632870322
30
0
41
1
10
0.463624123588119
20
17.9524285851217
30
0
41
1
10
0.470428420787954
20
17.9672289583493
30
0
41
1
10
0.47810293901847
20
17.9902449697362
30
0
41
1
10
0.479951931740175
20
17.9993794851626
30
0
41
1
10
0.479032525939175
20
18.0114631806348
30
0
41
1
10
0.477199697014498
20
18.0154401970101
30
0
41
1
10
0.470318232805027
20
18.0196187986299
30
0
41
1
10
0.465125505795214
20
18.0198181329196
30
0
41
1
10
0.452829072031193
20
18.0165150970173
30
0
41
1
10
0.445823135259189
20
18.0133442836213
30
0
41
1
10
0.427913980857426
20
18.0030824465562
30
0
41
1
10
0.416281382878793
20
17.9948429972922
30
0
41
1
10
0.40120939848785
20
17.9828891959178
30
0
41
1
10
0.397870522458106
20
17.9801645198625
30
0
41
1
10
0.394519052838319
20
17.977360486755
30
0
0
SPLINE
5
3AE
100
AcDbEntity
8
1
62
256
6
ByLayer
370
-1
48
1
60
0
100
AcDbSpline
70
4
71
3
72
22
73
18
40
0
40
0
40
0
40
0
40
0.326924660114704
40
0.326924660114704
40
0.480227445467508
40
0.480227445467508
40
0.604912955361423
40
0.604912955361423
40
0.694478485193103
40
0.694478485193103
40
0.784923219142227
40
0.784923219142227
40
0.864523302426418
40
0.864523302426418
40
0.971549591847171
40
0.971549591847171
40
1
40
1
40
1
40
1
41
1
10
0.394519052838319
20
-17.0553632209806
30
0
41
1
10
0.420017283443855
20
-17.093386549631
30
0
41
1
10
0.442601423713171
20
-17.1319888896103
30
0
41
1
10
0.466064895883648
20
-17.1834891983547
30
0
41
1
10
0.47220367693447
20
-17.199485166516
30
0
41
1
10
0.478868193551676
20
-17.2251688004805
30
0
41
1
10
0.480260594561116
20
-17.2356978586683
30
0
41
1
10
0.478301899123409
20
-17.2496039013895
30
0
41
1
10
0.476114604610331
20
-17.2542443704308
30
0
41
1
10
0.468595526499001
20
-17.2597260488108
30
0
41
1
10
0.463090479114726
20
-17.2605622358449
30
0
41
1
10
0.450397277590952
20
-17.2581972296419
30
0
41
1
10
0.443352792041708
20
-17.2554608325842
30
0
41
1
10
0.425804744107211
20
-17.2462471180413
30
0
41
1
10
0.414688144357683
20
-17.2387157644607
30
0
41
1
10
0.4005494573926
20
-17.2277616222795
30
0
41
1
10
0.397536912384624
20
-17.2253512227562
30
0
41
1
10
0.394519052838319
20
-17.2228674449602
30
0
0
SPLINE
5
3AF
100
AcDbEntity
8
1
62
256
6
ByLayer
370
-1
48
1
60
0
100
AcDbSpline
70
4
71
3
72
8
73
4
40
0
40
0
40
0
40
0
40
1
40
1
40
1
40
1
41
1
10
0.394519052838319
20
-16.2962828885178
30
0
41
1
10
0.263012503329605
20
-16.1888841255729
30
0
41
1
10
0.131506148378492
20
-16.0814850449873
30
0
41
1
10
0
20
-15.9740856271496
30
0
0
SPLINE
5
3B0
100
AcDbEntity
8
SK1
62
256
6
ByLayer
370
-1
48
1
60
0
100
AcDbSpline
70
4
71
3
72
8
73
4
40
0
40
0
40
0
40
0
40
1
40
1
40
1
40
1
41
1
10
-0.314810772771324
20
-11.8697941435887
30
0
41
1
10
-0.320506898570244
20
-11.9101864062024
30
0
41
1
10
-0.324519052838326
20
-11.9501519158157
30
0
41
1
10
-0.324519052838326
20
-11.9878176024207
30
0
0
SPLINE
5
3B1
100
AcDbEntity
8
1
62
256
6
ByLayer
370
-1
48
1
60
0
100
AcDbSpline
70
4
71
3
72
8
73
4
40
0
40
0
40
0
40
0
40
1
40
1
40
1
40
1
41
1
10
9.88143339949778
20
-10.5356537528527
30
0
41
1
10
9.71423978117073
20
-11.1430434480071
30
0
41
1
10
9.61143781667437
20
-11.7402204233423
30
0
41
1
10
9.56088483053207
20
-12.3180436990094
30
0
0
SPLINE
5
3B2
100
AcDbEntity
8
1
62
256
6
ByLayer
370
-1
48
1
60
0
100
AcDbSpline
70
4
71
2
72
6
73
3
40
0
40
0
40
0
40
1
40
1
40
1
41
0.500016404603025
10
10.0270840838218
20
-10.0541944394272
30
0
41
0.499983595396975
10
10.0265941147207
20
-10.0556783371931
30
0
41
0.500016404603025
10
10.0261046094179
20
-10.0571623880278
30
0
0
SPLINE
5
3B3
100
AcDbEntity
8
SK1
62
256
6
ByLayer
370
-1
48
1
60
0
100
AcDbSpline
70
4
71
3
72
14
73
10
40
0
40
0
40
0
40
0
40
0.407876602330535
40
0.407876602330535
40
0.691435932390086
40
0.691435932390086
40
0.915731781658023
40
0.915731781658023
40
1
40
1
40
1
40
1
41
1
10
-0.249519052838338
20
-18.8729418033523
30
0
41
1
10
-0.265341404734016
20
-18.8556097500731
30
0
41
1
10
-0.280286621582661
20
-18.838661302219
30
0
41
1
10
-0.301439688224548
20
-18.8132351704067
30
0
41
1
10
-0.309086006481437
20
-18.8035417311858
30
0
41
1
10
-0.319109111519055
20
-18.7894239104497
30
0
41
1
10
-0.322320713382538
20
-18.7842104298646
30
0
41
1
10
-0.324244100885295
20
-18.779425111899
30
0
41
1
10
-0.324519052838326
20
-18.7783468613494
30
0
41
1
10
-0.324519052838326
20
-18.7775400265667
30
0
0
SPLINE
5
3B4
100
AcDbEntity
8
1
62
256
6
ByLayer
370
-1
48
1
60
0
100
AcDbSpline
70
4
71
3
72
8
73
4
40
0
40
0
40
0
40
0
40
1
40
1
40
1
40
1
41
1
10
0.394519052838319
20
-16.0917289824197
30
0
41
1
10
0.261634896238689
20
-15.87455214455
30
0
41
1
10
0.130093023525688
20
-15.6562708260424
30
0
41
1
10
0
20
-15.4368523871774
30
0
0
SPLINE
5
3B5
100
AcDbEntity
8
1
62
256
6
ByLayer
370
-1
48
1
60
0
100
AcDbSpline
70
4
71
3
72
8
73
4
40
0
40
0
40
0
40
0
40
1
40
1
40
1
40
1
41
1
10
0.394519052838319
20
19.709823065951
30
0
41
1
10
0.262840810877805
20
19.5804082781262
30
0
41
1
10
0.131331144961194
20
19.4507644040705
30
0
41
1
10
0
20
19.3208801979494
30
0
0
SPLINE
5
3B6
100
AcDbEntity
8
1
62
256
6
ByLayer
370
-1
48
1
60
0
100
AcDbSpline
70
4
71
3
72
24
73
20
40
0
40
0
40
0
40
0
40
0.43917115628847
40
0.43917115628847
40
0.796834177251203
40
0.796834177251203
40
0.886314705816321
40
0.886314705816321
40
0.915732144741112
40
0.915732144741112
40
0.932646512971609
40
0.932646512971609
40
0.945725223613188
40
0.945725223613188
40
0.958772267798244
40
0.958772267798244
40
0.974771166986145
40
0.974771166986145
40
1
40
1
40
1
40
1
41
1
10
0.394519052838859
20
-5.63341609185696
30
0
41
1
10
0.422494396505073
20
-5.78552038110108
30
0
41
1
10
0.445669086549742
20
-5.93819212682831
30
0
41
1
10
0.474692141763597
20
-6.21255310511954
30
0
41
1
10
0.485664759910094
20
-6.33747674188595
30
0
41
1
10
0.474681766614623
20
-6.48285088107816
30
0
41
1
10
0.471233390621137
20
-6.51221066369003
30
0
41
1
10
0.459757107235475
20
-6.54539340875959
30
0
41
1
10
0.456219172991979
20
-6.55324744873246
30
0
41
1
10
0.448780379272677
20
-6.56295064938773
30
0
41
1
10
0.445590502192033
20
-6.56596634289443
30
0
41
1
10
0.439149571778785
20
-6.56930122141593
30
0
41
1
10
0.436005663187473
20
-6.57007979145712
30
0
41
1
10
0.429520094617232
20
-6.56993483394837
30
0
41
1
10
0.426105690234181
20
-6.56901599233203
30
0
41
1
10
0.418740276415946
20
-6.5655342072529
30
0
41
1
10
0.414738320051981
20
-6.56263646326018
30
0
41
1
10
0.405067199335747
20
-6.55395264447074
30
0
41
1
10
0.399583930816561
20
-6.5473812593752
30
0
41
1
10
0.394519052846306
20
-6.54042817882649
30
0
0
SPLINE
5
3B7
100
AcDbEntity
8
1
62
256
6
ByLayer
370
-1
48
1
60
0
100
AcDbSpline
70
4
71
3
72
8
73
4
40
0
40
0
40
0
40
0
40
1
40
1
40
1
40
1
41
1
10
0.394519052838319
20
-17.977360486755
30
0
41
1
10
0.262992539514613
20
-17.8673178070594
30
0
41
1
10
0.131485811585407
20
-17.7572435888389
30
0
41
1
10
0
20
-17.6471360742617
30
0
0
SPLINE
5
3B8
100
AcDbEntity
8
1
62
256
6
ByLayer
370
-1
48
1
60
0
100
AcDbSpline
70
4
71
3
72
18
73
14
40
0
40
0
40
0
40
0
40
0.424992420801014
40
0.424992420801014
40
0.593754962831924
40
0.593754962831924
40
0.763986775462965
40
0.763986775462965
40
0.861690444877604
40
0.861690444877604
40
0.960953447679617
40
0.960953447679617
40
1
40
1
40
1
40
1
41
1
10
5.49999999999974
20
9.86103442849685
30
0
41
1
10
5.49999999999974
20
9.97809228112732
30
0
41
1
10
5.51580300274355
20
10.0961137699805
30
0
41
1
10
5.56929089316779
20
10.251494642647
30
0
41
1
10
5.58839695862608
20
10.2951050002849
30
0
41
1
10
5.63670123583751
20
10.3778273961336
30
0
41
1
10
5.66633335648501
20
10.417650775704
30
0
41
1
10
5.72425744632352
20
10.4711018585615
30
0
41
1
10
5.74816657977047
20
10.4889037068077
30
0
41
1
10
5.80125236203685
20
10.5173071164489
30
0
41
1
10
5.83136280563531
20
10.5280603564696
30
0
41
1
10
5.87476053636371
20
10.5346811183149
30
0
41
1
10
5.88740404777587
20
10.5356537528529
30
0
41
1
10
5.89999999999984
20
10.5356537528529
30
0
0
SPLINE
5
3B9
100
AcDbEntity
8
1
62
256
6
ByLayer
370
-1
48
1
60
0
100
AcDbSpline
70
4
71
3
72
16
73
12
40
0
40
0
40
0
40
0
40
0.0783639217757119
40
0.0783639217757119
40
0.173754824441704
40
0.173754824441704
40
0.31783301549714
40
0.31783301549714
40
0.574019100217118
40
0.574019100217118
40
1
40
1
40
1
40
1
41
1
10
5.89999999999986
20
-10.5356537528528
30
0
41
1
10
5.87493632133484
20
-10.5356537528528
30
0
41
1
10
5.84956142408058
20
-10.5316755669259
30
0
41
1
10
5.79726251369411
20
-10.5157582028334
30
0
41
1
10
5.77033942310828
20
-10.5021725760057
30
0
41
1
10
5.71046791575293
20
-10.4617487386469
30
0
41
1
10
5.68002044558796
20
-10.4311599986309
30
0
41
1
10
5.60927173977703
20
-10.340793929177
30
0
41
1
10
5.5774254510568
20
-10.2749073567421
30
0
41
1
10
5.51587310670934
20
-10.0966753973275
30
0
41
1
10
5.49999999999974
20
-9.97836690825913
30
0
41
1
10
5.49999999999974
20
-9.86103442849684
30
0
0
SPLINE
5
3BA
100
AcDbEntity
8
1
62
256
6
ByLayer
370
-1
48
1
60
0
100
AcDbSpline
70
4
71
3
72
22
73
18
40
0
40
0
40
0
40
0
40
0.117619170449701
40
0.117619170449701
40
0.215008273314094
40
0.215008273314094
40
0.313321090704389
40
0.313321090704389
40
0.399080953499576
40
0.399080953499576
40
0.513763962610516
40
0.513763962610516
40
0.680089136995476
40
0.680089136995476
40
0.933901061714767
40
0.933901061714767
40
1
40
1
40
1
40
1
41
1
10
0.394519052838319
20
-17.977360486755
30
0
41
1
10
0.406396631300254
20
-17.9872979550967
30
0
41
1
10
0.418251957628655
20
-17.99634220228
30
0
41
1
10
0.438217719472959
20
-18.009315896833
30
0
41
1
10
0.446803464686582
20
-18.013950988077
30
0
41
1
10
0.46134124947514
20
-18.019276971381
30
0
41
1
10
0.467448118092932
20
-18.0199631128949
30
0
41
1
10
0.475360658845204
20
-18.0172279112385
30
0
41
1
10
0.477727927871314
20
-18.0143077574716
30
0
41
1
10
0.480228388777931
20
-18.0046696804274
30
0
41
1
10
0.479435434549686
20
-17.9969031193638
30
0
41
1
10
0.473717250498794
20
-17.9751819964867
30
0
41
1
10
0.467091805717843
20
-17.9596808386955
30
0
41
1
10
0.446061082873342
20
-17.9185982124191
30
0
41
1
10
0.429035680646962
20
-17.8911560248138
30
0
41
1
10
0.40500598819446
20
-17.8563407243791
30
0
41
1
10
0.399832898020492
20
-17.8490401268993
30
0
41
1
10
0.394519052838319
20
-17.8417232227022
30
0
0
SPLINE
5
3BB
100
AcDbEntity
8
1
62
256
6
ByLayer
370
-1
48
1
60
0
100
AcDbSpline
70
4
71
3
72
8
73
4
40
0
40
0
40
0
40
0
40
1
40
1
40
1
40
1
41
1
10
0.394519052838319
20
6.54042817881556
30
0
41
1
10
0.260749519017878
20
6.35678893830105
30
0
41
1
10
0.129090328526161
20
6.1710616705907
30
0
41
1
10
0
20
5.98301024765146
30
0
0
SPLINE
5
3BC
100
AcDbEntity
8
1
62
256
6
ByLayer
370
-1
48
1
60
0
100
AcDbSpline
70
4
71
3
72
12
73
8
40
0
40
0
40
0
40
0
40
0.429273377725761
40
0.429273377725761
40
0.739537698768673
40
0.739537698768673
40
1
40
1
40
1
40
1
41
1
10
0.394519052838319
20
-19.6066008845751
30
0
41
1
10
0.410059323498217
20
-19.6212680219466
30
0
41
1
10
0.425151937109206
20
-19.6351541764503
30
0
41
1
10
0.447786494362617
20
-19.6550641246958
30
0
41
1
10
0.456448278435317
20
-19.6623555189091
30
0
41
1
10
0.468979377135554
20
-19.6720234867616
30
0
41
1
10
0.473499015976103
20
-19.6750720013535
30
0
41
1
10
0.476245366047152
20
-19.6762820615546
30
0
0
SPLINE
5
3BD
100
AcDbEntity
8
1
62
256
6
ByLayer
370
-1
48
1
60
0
100
AcDbSpline
70
4
71
3
72
16
73
12
40
0
40
0
40
0
40
0
40
0.0450186128579026
40
0.0450186128579026
40
0.237511060202588
40
0.237511060202588
40
0.5059344594877
40
0.5059344594877
40
0.879218500720981
40
0.879218500720981
40
1
40
1
40
1
40
1
41
1
10
0.479511578251106
20
-19.6758105461466
30
0
41
1
10
0.479516758375013
20
-19.6754584645699
30
0
41
1
10
0.479435885629073
20
-19.6750208095175
30
0
41
1
10
0.478550353193469
20
-19.6722584840326
30
0
41
1
10
0.476255647446578
20
-19.6684434019461
30
0
41
1
10
0.467932133461801
20
-19.6567153707543
30
0
41
1
10
0.460702109137827
20
-19.6476345231386
30
0
41
1
10
0.440398223370153
20
-19.6234481564787
30
0
41
1
10
0.425828992687883
20
-19.6069754329105
30
0
41
1
10
0.405117946903942
20
-19.5842557332814
30
0
41
1
10
0.399870897837559
20
-19.5785518734436
30
0
41
1
10
0.394519052838319
20
-19.572781595349
30
0
0
SPLINE
5
3BE
100
AcDbEntity
8
SK1
62
256
6
ByLayer
370
-1
48
1
60
0
100
AcDbSpline
70
4
71
3
72
18
73
14
40
0
40
0
40
0
40
0
40
0.25766559186793
40
0.25766559186793
40
0.442636803225034
40
0.442636803225034
40
0.590466321133836
40
0.590466321133836
40
0.738820296478184
40
0.738820296478184
40
0.88163858359393
40
0.88163858359393
40
1
40
1
40
1
40
1
41
1
10
-0.324519052838326
20
13.2669443220638
30
0
41
1
10
-0.324519052838326
20
13.2560769005284
30
0
41
1
10
-0.323411955597265
20
13.2458223023132
30
0
41
1
10
-0.318453698673636
20
13.2312497625183
30
0
41
1
10
-0.315391962062449
20
13.2259872468159
30
0
41
1
10
-0.307740395707668
20
13.2195459723056
30
0
41
1
10
-0.303482884406861
20
13.2177332297189
30
0
41
1
10
-0.293680306675697
20
13.2169063642198
30
0
41
1
10
-0.28800734034823
20
13.2179014108895
30
0
41
1
10
-0.276412927178654
20
13.2222281571865
30
0
41
1
10
-0.27038952240639
20
13.2254905906541
30
0
41
1
10
-0.259443145393305
20
13.2327617174657
30
0
41
1
10
-0.254442441863119
20
13.2365841361179
30
0
41
1
10
-0.249519052838338
20
13.2407291626788
30
0
0
SPLINE
5
3BF
100
AcDbEntity
8
SK1
62
256
6
ByLayer
370
-1
48
1
60
0
100
AcDbSpline
70
4
71
3
72
18
73
14
40
0
40
0
40
0
40
0
40
0.229345296545338
40
0.229345296545338
40
0.421145408004467
40
0.421145408004467
40
0.584059575953199
40
0.584059575953199
40
0.74679571442304
40
0.74679571442304
40
0.962805581120729
40
0.962805581120729
40
1
40
1
40
1
40
1
41
1
10
-0.324519052838326
20
-14.6480346987596
30
0
41
1
10
-0.324519052838326
20
-14.6396791951524
30
0
41
1
10
-0.323493278895029
20
-14.6319977561569
30
0
41
1
10
-0.318910317288356
20
-14.6207214398974
30
0
41
1
10
-0.315719347805157
20
-14.616588504455
30
0
41
1
10
-0.307615092479097
20
-14.6121232407988
30
0
41
1
10
-0.302930125421909
20
-14.6112940868226
30
0
41
1
10
-0.292305298224989
20
-14.6124028699919
30
0
41
1
10
-0.286247885804016
20
-14.6143421188411
30
0
41
1
10
-0.271674487083516
20
-14.6212968164628
30
0
41
1
10
-0.262787049856684
20
-14.627165967273
30
0
41
1
10
-0.252552342463161
20
-14.6351535508655
30
0
41
1
10
-0.251034543647421
20
-14.6363697016247
30
0
41
1
10
-0.249519052838338
20
-14.637613503657
30
0
0
SPLINE
5
3C0
100
AcDbEntity
8
SK1
62
256
6
ByLayer
370
-1
48
1
60
0
100
AcDbSpline
70
4
71
3
72
12
73
8
40
0
40
0
40
0
40
0
40
0.277415679706919
40
0.277415679706919
40
0.673634013454208
40
0.673634013454208
40
1
40
1
40
1
40
1
41
1
10
-0.324519052838326
20
16.787151188174
30
0
41
1
10
-0.324519052838326
20
16.7966543472907
30
0
41
1
10
-0.321301686784096
20
16.8090410966392
30
0
41
1
10
-0.309146518767818
20
16.8412807102613
30
0
41
1
10
-0.298175211391168
20
16.8627355192172
30
0
41
1
10
-0.274710570806576
20
16.9025986668713
30
0
41
1
10
-0.262594071091541
20
16.9212397849316
30
0
41
1
10
-0.249519052838338
20
16.9398705309347
30
0
0
SPLINE
5
3C1
100
AcDbEntity
8
1
62
256
6
ByLayer
370
-1
48
1
60
0
100
AcDbSpline
70
4
71
3
72
22
73
18
40
0
40
0
40
0
40
0
40
0.53574482092229
40
0.53574482092229
40
0.671525719845895
40
0.671525719845895
40
0.766764426725178
40
0.766764426725178
40
0.822586602375154
40
0.822586602375154
40
0.867754001564155
40
0.867754001564155
40
0.913239534006522
40
0.913239534006522
40
0.954758253342654
40
0.954758253342654
40
1
40
1
40
1
40
1
41
1
10
0.394519052838319
20
-11.6669928763094
30
0
41
1
10
0.432906177974388
20
-11.7620717427282
30
0
41
1
10
0.463648435070809
20
-11.8607052207651
30
0
41
1
10
0.478513433997648
20
-11.9735896599641
30
0
41
1
10
0.480198002212404
20
-11.9963547519699
30
0
41
1
10
0.478624083718103
20
-12.0320012500984
30
0
41
1
10
0.476679536000717
20
-12.0460484738573
30
0
41
1
10
0.469846607008662
20
-12.064548930504
30
0
41
1
10
0.466427345558429
20
-12.0706486747575
30
0
41
1
10
0.458218064288644
20
-12.0787344319002
30
0
41
1
10
0.453711141939948
20
-12.0813193677053
30
0
41
1
10
0.443363993756549
20
-12.0834355779887
30
0
41
1
10
0.437371304633132
20
-12.0829466385884
30
0
41
1
10
0.425491111788489
20
-12.0792684574248
30
0
41
1
10
0.41951589987309
20
-12.0763093170355
30
0
41
1
10
0.407198551956697
20
-12.0685130160287
30
0
41
1
10
0.40076114853639
20
-12.0634821222494
30
0
41
1
10
0.394519052838319
20
-12.0579374210678
30
0
0
SPLINE
5
3C2
100
AcDbEntity
8
1
62
256
6
ByLayer
370
-1
48
1
60
0
100
AcDbSpline
70
4
71
3
72
8
73
4
40
0
40
0
40
0
40
0
40
1
40
1
40
1
40
1
41
1
10
0.394519052838319
20
18.4734609781557
30
0
41
1
10
0.262402589278366
20
18.3039576866995
30
0
41
1
10
0.130882435689898
20
18.1338318440795
30
0
41
1
10
0
20
17.9630568563235
30
0
0
SPLINE
5
3C3
100
AcDbEntity
8
SK1
62
256
6
ByLayer
370
-1
48
1
60
0
100
AcDbSpline
70
4
71
3
72
12
73
8
40
0
40
0
40
0
40
0
40
0.299428144559046
40
0.299428144559046
40
0.798476334754698
40
0.798476334754698
40
1
40
1
40
1
40
1
41
1
10
-0.324519052838326
20
14.8126521189576
30
0
41
1
10
-0.324519052838326
20
14.8285037391865
30
0
41
1
10
-0.320734298944188
20
14.8473379769856
30
0
41
1
10
-0.305612291705671
20
14.8989605565873
30
0
41
1
10
-0.290623213035133
20
14.9339908415919
30
0
41
1
10
-0.265573612198182
20
14.9829869700513
30
0
41
1
10
-0.257778028133714
20
14.9972577358847
30
0
41
1
10
-0.249519052838338
20
15.0114907404588
30
0
0
SPLINE
5
3C4
100
AcDbEntity
8
SK1
62
256
6
ByLayer
370
-1
48
1
60
0
100
AcDbSpline
70
4
71
3
72
8
73
4
40
0
40
0
40
0
40
0
40
1
40
1
40
1
40
1
41
1
10
-0.249519052838338
20
-5.61145683315186
30
0
41
1
10
-0.167536471258103
20
-5.73636178632354
30
0
41
1
10
-0.0843116200382781
20
-5.86018989155254
30
0
41
1
10
0
20
-5.98301024765145
30
0
0
SPLINE
5
3C5
100
AcDbEntity
8
SK1
62
256
6
ByLayer
370
-1
48
1
60
0
100
AcDbSpline
70
4
71
3
72
8
73
4
40
0
40
0
40
0
40
0
40
1
40
1
40
1
40
1
41
1
10
-0.249519052838338
20
-16.6926741335383
30
0
41
1
10
-0.166348900140491
20
-16.76116025562
30
0
41
1
10
-0.0831758476997777
20
-16.8296416826295
30
0
41
1
10
0
20
-16.8981185823602
30
0
0
SPLINE
5
3C6
100
AcDbEntity
8
1
62
256
6
ByLayer
370
-1
48
1
60
0
100
AcDbSpline
70
4
71
3
72
22
73
18
40
0
40
0
40
0
40
0
40
0.0910047741915422
40
0.0910047741915422
40
0.184023049178438
40
0.184023049178438
40
0.264712432995396
40
0.264712432995396
40
0.33664602610819
40
0.33664602610819
40
0.448212359185216
40
0.448212359185216
40
0.625937467640396
40
0.625937467640396
40
0.920973346702054
40
0.920973346702054
40
1
40
1
40
1
40
1
41
1
10
0.394519052838319
20
-16.2962828885178
30
0
41
1
10
0.404527168273603
20
-16.3044563157819
30
0
41
1
10
0.414650079342181
20
-16.3117854929754
30
0
41
1
10
0.433970125828608
20
-16.3231245543355
30
0
41
1
10
0.443408611477253
20
-16.3271623060183
30
0
41
1
10
0.458167637876272
20
-16.3297944771553
30
0
41
1
10
0.464046530848833
20
-16.3290462676041
30
0
41
1
10
0.472305217838794
20
-16.3241869837803
30
0
41
1
10
0.47511518918796
20
-16.3204258707156
30
0
41
1
10
0.479642171430101
20
-16.3084062007746
30
0
41
1
10
0.480059805326363
20
-16.2986752254001
30
0
41
1
10
0.477148390315193
20
-16.2709132845923
30
0
41
1
10
0.471539711438481
20
-16.2508928141742
30
0
41
1
10
0.451489991581639
20
-16.1960224903627
30
0
41
1
10
0.433291297997727
20
-16.1588091241487
30
0
41
1
10
0.406592336284149
20
-16.1118163809665
30
0
41
1
10
0.400663120027105
20
-16.101770428427
30
0
41
1
10
0.394519052838319
20
-16.0917289824197
30
0
0
SPLINE
5
3C7
100
AcDbEntity
8
SK1
62
256
6
ByLayer
370
-1
48
1
60
0
100
AcDbSpline
70
4
71
3
72
8
73
4
40
0
40
0
40
0
40
0
40
1
40
1
40
1
40
1
41
1
10
-0.249519052838338
20
-9.95857998009566
30
0
41
1
10
-0.168538126347244
20
-10.1900748976197
30
0
41
1
10
-0.0853229403857085
20
-10.4205429189484
30
0
41
1
10
0
20
-10.6499489023893
30
0
0
SPLINE
5
3C8
100
AcDbEntity
8
SK1
62
256
6
ByLayer
370
-1
48
1
60
0
100
AcDbSpline
70
4
71
3
72
16
73
12
40
0
40
0
40
0
40
0
40
0.271287166541257
40
0.271287166541257
40
0.495849247911302
40
0.495849247911302
40
0.722496354028585
40
0.722496354028585
40
0.920757420964226
40
0.920757420964226
40
1
40
1
40
1
40
1
41
1
10
-0.249519052838338
20
-17.4381246139465
30
0
41
1
10
-0.260087617632081
20
-17.4292691316671
30
0
41
1
10
-0.270631215497218
20
-17.4212069762917
30
0
41
1
10
-0.28835648275745
20
-17.4096304521675
30
0
41
1
10
-0.295965814726003
20
-17.4054879654697
30
0
41
1
10
-0.308812233682033
20
-17.4006852458105
30
0
41
1
10
-0.314185683458874
20
-17.4000256496255
30
0
41
1
10
-0.321100950955923
20
-17.4023296699407
30
0
41
1
10
-0.32313629646319
20
-17.4048592634196
30
0
41
1
10
-0.324351578837138
20
-17.4099176102427
30
0
41
1
10
-0.324519052838326
20
-17.4115519336131
30
0
41
1
10
-0.324519052838326
20
-17.4133353269855
30
0
0
SPLINE
5
3C9
100
AcDbEntity
8
SK1
62
256
6
ByLayer
370
-1
48
1
60
0
100
AcDbSpline
70
4
71
3
72
8
73
4
40
0
40
0
40
0
40
0
40
1
40
1
40
1
40
1
41
1
10
-0.249519052838338
20
-18.5911471576056
30
0
41
1
10
-0.166506688858249
20
-18.6873254601423
30
0
41
1
10
-0.0833315242048229
20
-18.7833167506412
30
0
41
1
10
0
20
-18.8791263469343
30
0
0
SPLINE
5
3CA
100
AcDbEntity
8
SK1
62
256
6
ByLayer
370
-1
48
1
60
0
100
AcDbSpline
70
4
71
3
72
16
73
12
40
0
40
0
40
0
40
0
40
0.222771344639826
40
0.222771344639826
40
0.450654338437164
40
0.450654338437164
40
0.648277798447987
40
0.648277798447987
40
0.82532120630811
40
0.82532120630811
40
1
40
1
40
1
40
1
41
1
10
-0.249519052838338
20
-15.7703059388672
30
0
41
1
10
-0.258372853288392
20
-15.7630751074216
30
0
41
1
10
-0.2673284002706
20
-15.756592918016
30
0
41
1
10
-0.284420209767831
20
-15.7465638730825
30
0
41
1
10
-0.292768565489297
20
-15.742995516769
30
0
41
1
10
-0.305806106248781
20
-15.7406563916084
30
0
41
1
10
-0.310991226949767
20
-15.7413031254805
30
0
41
1
10
-0.318281132649531
20
-15.7455489093593
30
0
41
1
10
-0.320756045158447
20
-15.748853780123
30
0
41
1
10
-0.323842932562314
20
-15.7571225376409
30
0
41
1
10
-0.324519052838326
20
-15.7621180518632
30
0
41
1
10
-0.324519052838326
20
-15.7676259921204
30
0
0
SPLINE
5
3CB
100
AcDbEntity
8
1
62
256
6
ByLayer
370
-1
48
1
60
0
100
AcDbSpline
70
4
71
3
72
14
73
10
40
0
40
0
40
0
40
0
40
0.413284200125544
40
0.413284200125544
40
0.688537597965375
40
0.688537597965375
40
0.911484974823067
40
0.911484974823067
40
1
40
1
40
1
40
1
41
1
10
0.394519052838319
20
19.572781595349
30
0
41
1
10
0.412606628640191
20
19.5922833452033
30
0
41
1
10
0.429745252264695
20
19.6112969007662
30
0
41
1
10
0.453525134465821
20
19.638934682572
30
0
41
1
10
0.461939836758859
20
19.6491264635687
30
0
41
1
10
0.473193007674013
20
19.6638916471194
30
0
41
1
10
0.476866223489594
20
19.6692815379348
30
0
41
1
10
0.47916090526553
20
19.6740098461234
30
0
41
1
10
0.479492155366671
20
19.6750432160671
30
0
41
1
10
0.47949848193511
20
19.6757520388732
30
0
0
SPLINE
5
3CC
100
AcDbEntity
8
1
62
256
6
ByLayer
370
-1
48
1
60
0
100
AcDbSpline
70
4
71
3
72
16
73
12
40
0
40
0
40
0
40
0
40
0.0026771711126911
40
0.0026771711126911
40
0.245218485151869
40
0.245218485151869
40
0.493963212407296
40
0.493963212407296
40
0.878938912812941
40
0.878938912812941
40
1
40
1
40
1
40
1
41
1
10
0.477257214804411
20
19.6766728292311
30
0
41
1
10
0.477233016064417
20
19.676665078558
30
0
41
1
10
0.477208619643619
20
19.6766571196051
30
0
41
1
10
0.474943820704027
20
19.675905001888
30
0
41
1
10
0.471034762474943
20
19.6734430847121
30
0
41
1
10
0.460675177538832
20
19.6657200768778
30
0
41
1
10
0.45406687652445
20
19.6603258471678
30
0
41
1
10
0.435387209108143
20
19.6443266747826
30
0
41
1
10
0.422018173714974
20
19.6322555164921
30
0
41
1
10
0.403622625873624
20
19.6151620505897
30
0
41
1
10
0.399099122832325
20
19.6109236223989
30
0
41
1
10
0.394519052838319
20
19.6066008845751
30
0
0
SPLINE
5
3CD
100
AcDbEntity
8
1
62
256
6
ByLayer
370
-1
48
1
60
0
100
AcDbSpline
70
4
71
3
72
20
73
16
40
0
40
0
40
0
40
0
40
0.215744483256851
40
0.215744483256851
40
0.338701570710834
40
0.338701570710834
40
0.46321575312052
40
0.46321575312052
40
0.569270963802197
40
0.569270963802197
40
0.670103706586263
40
0.670103706586263
40
0.816047342310315
40
0.816047342310315
40
1
40
1
40
1
40
1
41
1
10
0.394519052838319
20
19.709823065951
30
0
41
1
10
0.413447916421859
20
19.7284265560034
30
0
41
1
10
0.431681270373929
20
19.746189098272
30
0
41
1
10
0.454996713047819
20
19.7684752727375
30
0
41
1
10
0.462534364086139
20
19.7755666139487
30
0
41
1
10
0.473859966348044
20
19.7858740690561
30
0
41
1
10
0.477721636108981
20
19.7891444962885
30
0
41
1
10
0.480111060981045
20
19.7903895009946
30
0
41
1
10
0.479369952617446
20
19.7890875887818
30
0
41
1
10
0.474661217045394
20
19.7833182228387
30
0
41
1
10
0.470823418304946
20
19.778966626203
30
0
41
1
10
0.458879178753108
20
19.7658537966699
30
0
41
1
10
0.449480077963273
20
19.7558186596939
30
0
41
1
10
0.425776441786155
20
19.7308789605063
30
0
41
1
10
0.410488140427759
20
19.7150210740961
30
0
41
1
10
0.394519052838319
20
19.6986154928503
30
0
0
SPLINE
5
3CE
100
AcDbEntity
8
SK1
62
256
6
ByLayer
370
-1
48
1
60
0
100
AcDbSpline
70
4
71
3
72
8
73
4
40
0
40
0
40
0
40
0
40
1
40
1
40
1
40
1
41
1
10
-0.249519052838338
20
-13.7035643018125
30
0
41
1
10
-0.167216153527676
20
-13.8641387078905
30
0
41
1
10
-0.0840281136433134
20
-14.0241122346499
30
0
41
1
10
0
20
-14.183490812332
30
0
0
SPLINE
5
3CF
100
AcDbEntity
8
SK1
62
256
6
ByLayer
370
-1
48
1
60
0
100
AcDbSpline
70
4
71
3
72
14
73
10
40
0
40
0
40
0
40
0
40
0.237410249611162
40
0.237410249611162
40
0.472928506373312
40
0.472928506373312
40
0.843868254150533
40
0.843868254150533
40
1
40
1
40
1
40
1
41
1
10
-0.324519052838326
20
18.7775400265667
30
0
41
1
10
-0.324519052838326
20
18.7797786852478
30
0
41
1
10
-0.32233454525948
20
18.7841867362847
30
0
41
1
10
-0.314826585930604
20
18.7957146895275
30
0
41
1
10
-0.309465003063025
20
18.8029340035142
30
0
41
1
10
-0.293265720328463
20
18.8233657535545
30
0
41
1
10
-0.280807865435577
20
18.8379745799745
30
0
41
1
10
-0.261601752026053
20
18.8596200369761
30
0
41
1
10
-0.255639597729328
20
18.8662372621534
30
0
41
1
10
-0.249519052838338
20
18.8729418033522
30
0
0
SPLINE
5
3D0
100
AcDbEntity
8
SK1
62
256
6
ByLayer
370
-1
48
1
60
0
100
AcDbSpline
70
4
71
3
72
8
73
4
40
0
40
0
40
0
40
0
40
1
40
1
40
1
40
1
41
1
10
-0.249519052838338
20
-11.483644388276
30
0
41
1
10
-0.166396158696614
20
-11.5580650812788
30
0
41
1
10
-0.0832221958467869
20
-11.6324097762753
30
0
41
1
10
0
20
-11.7066823491331
30
0
0
SPLINE
5
3D1
100
AcDbEntity
8
1
62
256
6
ByLayer
370
-1
48
1
60
0
100
AcDbSpline
70
4
71
3
72
8
73
4
40
0
40
0
40
0
40
0
40
1
40
1
40
1
40
1
41
1
10
0.394519052838319
20
12.0579374210678
30
0
41
1
10
0.262899137267397
20
11.9410226641193
30
0
41
1
10
0.131389411454364
20
11.8239422884521
30
0
41
1
10
0
20
11.7066823491331
30
0
0
SPLINE
5
3D2
100
AcDbEntity
8
SK1
62
256
6
ByLayer
370
-1
48
1
60
0
100
AcDbSpline
70
4
71
3
72
8
73
4
40
0
40
0
40
0
40
0
40
1
40
1
40
1
40
1
41
1
10
-0.249519052838338
20
-19.0327379005148
30
0
41
1
10
-0.166442432040981
20
-19.1191971441407
30
0
41
1
10
-0.0832682037895154
20
-19.2055314891718
30
0
41
1
10
0
20
-19.2917446495518
30
0
0
SPLINE
5
3D3
100
AcDbEntity
8
SK1
62
256
6
ByLayer
370
-1
48
1
60
0
100
AcDbSpline
70
4
71
3
72
24
73
20
40
0
40
0
40
0
40
0
40
0.403503335254803
40
0.403503335254803
40
0.606711906865478
40
0.606711906865478
40
0.676515638214978
40
0.676515638214978
40
0.747118092000871
40
0.747118092000871
40
0.788567893742621
40
0.788567893742621
40
0.830538706496999
40
0.830538706496999
40
0.867732737396276
40
0.867732737396276
40
0.927484719514768
40
0.927484719514768
40
1
40
1
40
1
40
1
41
1
10
-0.324519052838326
20
-5.77516103418449
30
0
41
1
10
-0.324519052838326
20
-5.73867453764593
30
0
41
1
10
-0.323379330325082
20
-5.70230504651734
30
0
41
1
10
-0.317094816541413
20
-5.64986850688985
30
0
41
1
10
-0.314245184388796
20
-5.63248269647693
30
0
41
1
10
-0.307731450287548
20
-5.61123082253586
30
0
41
1
10
-0.305799099762027
20
-5.60595567847203
30
0
41
1
10
-0.30110247853267
20
-5.59626380188212
30
0
41
1
10
-0.298288183110458
20
-5.59175561188735
30
0
41
1
10
-0.292778362914078
20
-5.58643594655018
30
0
41
1
10
-0.290462694549774
20
-5.58485485836478
30
0
41
1
10
-0.285410952440032
20
-5.58305045672095
30
0
41
1
10
-0.282597900576007
20
-5.58284693597045
30
0
41
1
10
-0.277288613949196
20
-5.58389902383404
30
0
41
1
10
-0.274736107865152
20
-5.58498818736919
30
0
41
1
10
-0.268384586562519
20
-5.58884979085359
30
0
41
1
10
-0.264646061622813
20
-5.59225991710197
30
0
41
1
10
-0.257005229928069
20
-5.60067036363166
30
0
41
1
10
-0.253133915202227
20
-5.60594939235672
30
0
41
1
10
-0.249519052838338
20
-5.61145683315186
30
0
0
SPLINE
5
3D4
100
AcDbEntity
8
SK1
62
256
6
ByLayer
370
-1
48
1
60
0
100
AcDbSpline
70
4
71
3
72
12
73
8
40
0
40
0
40
0
40
0
40
0.253641376617096
40
0.253641376617096
40
0.58074340677927
40
0.58074340677927
40
1
40
1
40
1
40
1
41
1
10
-0.324519052838326
20
18.0610693822919
30
0
41
1
10
-0.324519052838326
20
18.0662979442687
30
0
41
1
10
-0.321895408668212
20
18.07405155422
30
0
41
1
10
-0.31208082273875
20
18.0944701761884
30
0
41
1
10
-0.303683047257039
20
18.1082450563928
30
0
41
1
10
-0.281272710505931
20
18.1412100687847
30
0
41
1
10
-0.265995960588612
20
18.1613774173334
30
0
41
1
10
-0.249519052838338
20
18.181682346768
30
0
0
SPLINE
5
3D5
100
AcDbEntity
8
1
62
256
6
ByLayer
370
-1
48
1
60
0
100
AcDbSpline
70
4
71
3
72
24
73
20
40
0
40
0
40
0
40
0
40
0.0252288330299177
40
0.0252288330299177
40
0.0412277322175423
40
0.0412277322175423
40
0.0542747764023727
40
0.0542747764023727
40
0.0673534870437264
40
0.0673534870437264
40
0.0842678552739321
40
0.0842678552739321
40
0.113685294198215
40
0.113685294198215
40
0.20316582276179
40
0.20316582276179
40
0.560828843718351
40
0.560828843718351
40
1
40
1
40
1
40
1
41
1
10
0.394519052838319
20
6.54042817881556
30
0
41
1
10
0.399583930810849
20
6.54738125936842
30
0
41
1
10
0.405067199332677
20
6.55395264446797
30
0
41
1
10
0.414738320051981
20
6.56263646326018
30
0
41
1
10
0.418740276415946
20
6.5655342072529
30
0
41
1
10
0.426105690234181
20
6.56901599233203
30
0
41
1
10
0.429520094617232
20
6.56993483394837
30
0
41
1
10
0.436005663187473
20
6.57007979145712
30
0
41
1
10
0.439149571778785
20
6.56930122141593
30
0
41
1
10
0.445590502192033
20
6.56596634289443
30
0
41
1
10
0.448780379272677
20
6.56295064938773
30
0
41
1
10
0.456219172991979
20
6.55324744873246
30
0
41
1
10
0.459757107235475
20
6.54539340875959
30
0
41
1
10
0.471233390621137
20
6.51221066369003
30
0
41
1
10
0.474681766614623
20
6.48285088107816
30
0
41
1
10
0.485664759910094
20
6.33747674188595
30
0
41
1
10
0.474692141763597
20
6.21255310511954
30
0
41
1
10
0.445669086549714
20
5.93819212682806
30
0
41
1
10
0.422494396505016
20
5.78552038110055
30
0
41
1
10
0.394519052838717
20
5.63341609185618
30
0
0
SPLINE
5
3D6
100
AcDbEntity
8
SK1
62
256
6
ByLayer
370
-1
48
1
60
0
100
AcDbSpline
70
4
71
3
72
14
73
10
40
0
40
0
40
0
40
0
40
0.230774734198141
40
0.230774734198141
40
0.460243147902721
40
0.460243147902721
40
0.801894458421471
40
0.801894458421471
40
1
40
1
40
1
40
1
41
1
10
-0.324519052838326
20
-18.9484273901026
30
0
41
1
10
-0.324519052838326
20
-18.9494492221481
30
0
41
1
10
-0.322519729188173
20
-18.952462750139
30
0
41
1
10
-0.315447865823927
20
-18.9613658746406
30
0
41
1
10
-0.310333289381418
20
-18.9673248530255
30
0
41
1
10
-0.295297642800307
20
-18.9842056521681
30
0
41
1
10
-0.284031796598953
20
-18.996386063672
30
0
41
1
10
-0.264753764627272
20
-19.0168196261959
30
0
41
1
10
-0.257247743342703
20
-19.0246945216579
30
0
41
1
10
-0.249519052838338
20
-19.0327379005148
30
0
0
SPLINE
5
3D7
100
AcDbEntity
8
1
62
256
6
ByLayer
370
-1
48
1
60
0
100
AcDbSpline
70
4
71
3
72
8
73
4
40
0
40
0
40
0
40
0
40
1
40
1
40
1
40
1
41
1
10
0.394519052838319
20
-13.7823140979466
30
0
41
1
10
0.262981795084329
20
-13.6718261138648
30
0
41
1
10
0.131474683017728
20
-13.5612902597836
30
0
41
1
10
0
20
-13.4507030159581
30
0
0
SPLINE
5
3D8
100
AcDbEntity
8
SK1
62
256
6
ByLayer
370
-1
48
1
60
0
100
AcDbSpline
70
4
71
3
72
12
73
8
40
0
40
0
40
0
40
0
40
0.514374796179559
40
0.514374796179559
40
0.799677103656323
40
0.799677103656323
40
1
40
1
40
1
40
1
41
1
10
-0.249519052838338
20
17.6356568712878
30
0
41
1
10
-0.269783320475057
20
17.6089163954965
30
0
41
1
10
-0.288154837836117
20
17.5820507193339
30
0
41
1
10
-0.309617190623357
20
17.5444018641693
30
0
41
1
10
-0.31600194403967
20
17.5314968240923
30
0
41
1
10
-0.322840504691811
20
17.5126171162788
30
0
41
1
10
-0.324519052838326
20
17.5056005989192
30
0
41
1
10
-0.324519052838326
20
17.5001524600012
30
0
0
SPLINE
5
3D9
100
AcDbEntity
8
SK1
62
256
6
ByLayer
370
-1
48
1
60
0
100
AcDbSpline
70
4
71
3
72
10
73
6
40
0
40
0
40
0
40
0
40
0.341349123091376
40
0.341349123091376
40
1
40
1
40
1
40
1
41
1
10
-0.324519052838326
20
-13.4709974273838
30
0
41
1
10
-0.324519052838326
20
-13.4935735308694
30
0
41
1
10
-0.319632073347577
20
-13.5196269639021
30
0
41
1
10
-0.298930169003057
20
-13.5965699452029
30
0
41
1
10
-0.276571866160452
20
-13.6507837865654
30
0
41
1
10
-0.249519052838338
20
-13.7035643018125
30
0
0
SPLINE
5
3DA
100
AcDbEntity
8
1
62
256
6
ByLayer
370
-1
48
1
60
0
100
AcDbSpline
70
4
71
3
72
12
73
8
40
0
40
0
40
0
40
0
40
0.347623173836882
40
0.347623173836882
40
0.696503371294858
40
0.696503371294858
40
1
40
1
40
1
40
1
41
1
10
21.394563489464
20
17.3232266796433
30
0
41
1
10
21.3874886405837
20
17.3345209735852
30
0
41
1
10
21.3782734829346
20
17.3449089850807
30
0
41
1
10
21.3568915215767
20
17.3624764381258
30
0
41
1
10
21.3443906795926
20
17.3698942984611
30
0
41
1
10
21.319753341629
20
17.380138194736
30
0
41
1
10
21.3074909526799
20
17.3835547340939
30
0
41
1
10
21.2954260720382
20
17.3854866600008
30
0
0
SPLINE
5
3DB
100
AcDbEntity
8
1
62
256
6
ByLayer
370
-1
48
1
60
0
100
AcDbSpline
70
4
71
3
72
20
73
16
40
0
40
0
40
0
40
0
40
0.511365204367439
40
0.511365204367439
40
0.617167309555454
40
0.617167309555454
40
0.785488434327115
40
0.785488434327115
40
0.873398812153865
40
0.873398812153865
40
0.935684402254223
40
0.935684402254223
40
0.978722765374131
40
0.978722765374131
40
1
40
1
40
1
40
1
41
1
10
31.1605421515042
20
19.1124185356867
30
0
41
1
10
31.0557693315754
20
19.0636436044815
30
0
41
1
10
30.9522441193674
20
19.0111138962036
30
0
41
1
10
30.8357586726924
20
18.9354025851911
30
0
41
1
10
30.8160654548722
20
18.9218949495323
30
0
41
1
10
30.7665340746469
20
18.8852039064036
30
0
41
1
10
30.7371436086564
20
18.8609917979273
30
0
41
1
10
30.6981173327077
20
18.8191453834224
30
0
41
1
10
30.6856391724223
20
18.8037335101679
30
0
41
1
10
30.6686546067453
20
18.7750704352785
30
0
41
1
10
30.6627999473585
20
18.7622769148394
30
0
41
1
10
30.6574149009798
20
18.7396947793619
30
0
41
1
10
30.6565130952957
20
18.7300067148855
30
0
41
1
10
30.6578953134845
20
18.7158399531816
30
0
41
1
10
30.6588060519693
20
18.7111401744185
30
0
41
1
10
30.6601575886813
20
18.7065808650591
30
0
0
SPLINE
5
3DC
100
AcDbEntity
8
1
62
256
6
ByLayer
370
-1
48
1
60
0
100
AcDbSpline
70
4
71
3
72
14
73
10
40
0
40
0
40
0
40
0
40
0.249606055014984
40
0.249606055014984
40
0.499158243446882
40
0.499158243446882
40
0.746144217743603
40
0.746144217743603
40
1
40
1
40
1
40
1
41
1
10
25.3432996562534
20
23.1737464755703
30
0
41
1
10
25.3589843871608
20
23.1826456997342
30
0
41
1
10
25.374684051586
20
23.1919405087066
30
0
41
1
10
25.4054542452957
20
23.2109148462967
30
0
41
1
10
25.4206319070349
20
23.220660149995
30
0
41
1
10
25.4498153198994
20
23.240166788466
30
0
41
1
10
25.4639284453082
20
23.2499916661694
30
0
41
1
10
25.4911671830362
20
23.2697673352095
30
0
41
1
10
25.504349288129
20
23.2797828986409
30
0
41
1
10
25.5166299309381
20
23.2895825839837
30
0
0
SPLINE
5
3DD
100
AcDbEntity
8
1
62
256
6
ByLayer
370
-1
48
1
60
0
100
AcDbSpline
70
4
71
3
72
12
73
8
40
0
40
0
40
0
40
0
40
0.474376698371053
40
0.474376698371053
40
0.706219783413745
40
0.706219783413745
40
1
40
1
40
1
40
1
41
1
10
25.1016267640547
20
14.8060843307661
30
0
41
1
10
25.0784393712354
20
14.8136962503396
30
0
41
1
10
25.0518793684276
20
14.8244016552596
30
0
41
1
10
25.0106906963517
20
14.843469582862
30
0
41
1
10
24.9966869500108
20
14.8503315808993
30
0
41
1
10
24.9647397580637
20
14.8667986141566
30
0
41
1
10
24.9465754479039
20
14.8767326998128
30
0
41
1
10
24.928621958918
20
14.8870953086338
30
0
0
SPLINE
5
3DE
100
AcDbEntity
8
1
62
256
6
ByLayer
370
-1
48
1
60
0
100
AcDbSpline
70
4
71
3
72
18
73
14
40
0
40
0
40
0
40
0
40
0.439677344605708
40
0.439677344605708
40
0.819840138515274
40
0.819840138515274
40
0.920758376963029
40
0.920758376963029
40
0.968467673881571
40
0.968467673881571
40
0.990240013274129
40
0.990240013274129
40
1
40
1
40
1
40
1
41
1
10
24.3464270749263
20
15.8451012531877
30
0
41
1
10
24.3850398882892
20
15.9299115288796
30
0
41
1
10
24.4255300286196
20
16.0140127776306
30
0
41
1
10
24.5087406253859
20
16.1665902141964
30
0
41
1
10
24.5491358125622
20
16.2375311720448
30
0
41
1
10
24.6161105968758
20
16.3149709989136
30
0
41
1
10
24.6313269517236
20
16.3307966184966
30
0
41
1
10
24.6575573198841
20
16.3489630054744
30
0
41
1
10
24.666819430522
20
16.3541305344956
30
0
41
1
10
24.6813803253504
20
16.3579453634003
30
0
41
1
10
24.6862120796345
20
16.3585813792005
30
0
41
1
10
24.6931136453417
20
16.3582242758911
30
0
41
1
10
24.6952642265428
20
16.35793335293
30
0
41
1
10
24.6973628002793
20
16.3574561232627
30
0
0
SPLINE
5
3DF
100
AcDbEntity
8
1
62
256
6
ByLayer
370
-1
48
1
60
0
100
AcDbSpline
70
4
71
3
72
20
73
16
40
0
40
0
40
0
40
0
40
0.51136520436687
40
0.51136520436687
40
0.617167309555271
40
0.617167309555271
40
0.785488434327007
40
0.785488434327007
40
0.873398812153799
40
0.873398812153799
40
0.935684402254187
40
0.935684402254187
40
0.978722765374117
40
0.978722765374117
40
1
40
1
40
1
40
1
41
1
10
25.4287469730172
20
15.6098164085547
30
0
41
1
10
25.4369993305703
20
15.7220530933078
30
0
41
1
10
25.4412668021278
20
15.8351380410471
30
0
41
1
10
25.4311825890001
20
15.9707476835372
30
0
41
1
10
25.4288432663654
20
15.9940307170226
30
0
41
1
10
25.4205235805715
20
16.0539603113067
30
0
41
1
10
25.413398943516
20
16.0907506805546
30
0
41
1
10
25.3952462777009
20
16.1444890084954
30
0
41
1
10
25.3876206007028
20
16.1626951157251
30
0
41
1
10
25.3703514837783
20
16.191348955286
30
0
41
1
10
25.3617871840506
20
16.2026940763783
30
0
41
1
10
25.3442149298857
20
16.2185788941866
30
0
41
1
10
25.3359774583123
20
16.2242153228326
30
0
41
1
10
25.3225919901901
20
16.2301976865181
30
0
41
1
10
25.3179270760795
20
16.231803989501
30
0
41
1
10
25.3131694107344
20
16.2329707134465
30
0
0
SPLINE
5
3E0
100
AcDbEntity
8
1
62
256
6
ByLayer
370
-1
48
1
60
0
100
AcDbSpline
70
4
71
3
72
12
73
8
40
0
40
0
40
0
40
0
40
0.347623173836869
40
0.347623173836869
40
0.69650337129485
40
0.69650337129485
40
1
40
1
40
1
40
1
41
1
10
31.5541252467711
20
14.7374459637948
30
0
41
1
10
31.5470503978908
20
14.7251769341373
30
0
41
1
10
31.5419007205695
20
14.7116163988474
30
0
41
1
10
31.5363304274205
20
14.6841472374995
30
0
41
1
10
31.535863542846
20
14.6698396075235
30
0
41
1
10
31.5394551123435
20
14.6446662144479
30
0
41
1
10
31.5429802934248
20
14.6333045359944
30
0
41
1
10
31.5479866932225
20
14.6232068286944
30
0
0
SPLINE
5
3E1
100
AcDbEntity
8
1
62
256
6
ByLayer
370
-1
48
1
60
0
100
AcDbSpline
70
4
71
3
72
12
73
8
40
0
40
0
40
0
40
0
40
0.474376698371057
40
0.474376698371057
40
0.706219783413749
40
0.706219783413749
40
1
40
1
40
1
40
1
41
1
10
31.9993088935015
20
19.1699328000278
30
0
41
1
10
31.998968152087
20
19.1392163969229
30
0
41
1
10
31.9987026747951
20
19.1058092078007
30
0
41
1
10
31.9984459606277
20
19.0562082848665
30
0
41
1
10
31.9983825030249
20
19.0396835784135
30
0
41
1
10
31.9982887967614
20
19.0027121161956
30
0
41
1
10
31.9982714243002
20
18.982202279396
30
0
41
1
10
31.9982884283142
20
18.9624169754141
30
0
0
SPLINE
5
3E2
100
AcDbEntity
8
1
62
256
6
ByLayer
370
-1
48
1
60
0
100
AcDbSpline
70
4
71
3
72
16
73
12
40
0
40
0
40
0
40
0
40
0.0426292751499095
40
0.0426292751499095
40
0.0996436166287537
40
0.0996436166287537
40
0.207156078099352
40
0.207156078099352
40
0.580806890299258
40
0.580806890299258
40
1
40
1
40
1
40
1
41
1
10
26.184616422264
20
22.3876199113404
30
0
41
1
10
26.1915436649207
20
22.3945196103615
30
0
41
1
10
26.1971204047606
20
22.4028380248573
30
0
41
1
10
26.206554318958
20
22.4233808439934
30
0
41
1
10
26.2094899469837
20
22.4362644955191
30
0
41
1
10
26.2133875132128
20
22.4731442676574
30
0
41
1
10
26.2107894829927
20
22.4977525804541
30
0
41
1
10
26.1907421192701
20
22.6037487750255
30
0
41
1
10
26.1543645107257
20
22.6817325547145
30
0
41
1
10
26.0725935024792
20
22.8409825910019
30
0
41
1
10
26.0231583671108
20
22.9224470015774
30
0
41
1
10
25.9712685222777
20
23.0021828093749
30
0
0
SPLINE
5
3E3
100
AcDbEntity
8
1
62
256
6
ByLayer
370
-1
48
1
60
0
100
AcDbSpline
70
4
71
3
72
24
73
20
40
0
40
0
40
0
40
0
40
0.0154450745970433
40
0.0154450745970433
40
0.0417985895668248
40
0.0417985895668248
40
0.0483972597876619
40
0.0483972597876619
40
0.102103855500441
40
0.102103855500441
40
0.18533032112181
40
0.18533032112181
40
0.354377449491145
40
0.354377449491145
40
0.5353487273987
40
0.5353487273987
40
0.666091501001302
40
0.666091501001302
40
1
40
1
40
1
40
1
41
1
10
25.3068304953329
20
16.2079961460988
30
0
41
1
10
25.3100362369561
20
16.2072671390681
30
0
41
1
10
25.3131627834357
20
16.2060838951529
30
0
41
1
10
25.3209294018768
20
16.2019258464519
30
0
41
1
10
25.3252477329253
20
16.1982196234134
30
0
41
1
10
25.3297976113132
20
16.1930486173486
30
0
41
1
10
25.3306813130395
20
16.1919699469062
30
0
41
1
10
25.338328725774
20
16.1820257518444
30
0
41
1
10
25.3430382889657
20
16.1716532046979
30
0
41
1
10
25.3525157425412
20
16.1449596696619
30
0
41
1
10
25.3560188834566
20
16.1279480994575
30
0
41
1
10
25.3638818284722
20
16.0764117669997
30
0
41
1
10
25.3653785333895
20
16.041339226503
30
0
41
1
10
25.3658694021075
20
15.9690113478091
30
0
41
1
10
25.3644441131766
20
15.9315780567789
30
0
41
1
10
25.3604825401377
20
15.8672378407317
30
0
41
1
10
25.3583378205895
20
15.8402726480246
30
0
41
1
10
25.3494824608917
20
15.7445806869792
30
0
41
1
10
25.3409122639889
20
15.6760051185943
30
0
41
1
10
25.3311292740381
20
15.607626412579
30
0
0
SPLINE
5
3E4
100
AcDbEntity
8
1
62
256
6
ByLayer
370
-1
48
1
60
0
100
AcDbSpline
70
4
71
3
72
14
73
10
40
0
40
0
40
0
40
0
40
0.24960605501498
40
0.24960605501498
40
0.499158243446871
40
0.499158243446871
40
0.7461442177436
40
0.7461442177436
40
1
40
1
40
1
40
1
41
1
10
24.3688678216052
20
15.2101808752032
30
0
41
1
10
24.3532127450052
20
15.2192168589608
30
0
41
1
10
24.3375950846987
20
15.2286483294173
30
0
41
1
10
24.3070879542433
20
15.2478900669254
30
0
41
1
10
24.2920922286485
20
15.2577670402324
30
0
41
1
10
24.2633625089835
20
15.2775263980755
30
0
41
1
10
24.249521697856
20
15.2874732602233
30
0
41
1
10
24.2229184690107
20
15.307483883019
30
0
41
1
10
24.2101040876088
20
15.3176128890404
30
0
41
1
10
24.1982294163911
20
15.3275179825268
30
0
0
SPLINE
5
3E5
100
AcDbEntity
8
1
62
256
6
ByLayer
370
-1
48
1
60
0
100
AcDbSpline
70
4
71
3
72
10
73
6
40
0
40
0
40
0
40
0
40
0.709495622816789
40
0.709495622816789
40
1
40
1
40
1
40
1
41
1
10
32.0012058988419
20
15.6196308294667
30
0
41
1
10
31.9987534331305
20
15.5950728089116
30
0
41
1
10
31.9921309410939
20
15.5694576979035
30
0
41
1
10
31.9783043093756
20
15.5360319567916
30
0
41
1
10
31.9736778280507
20
15.5264343014397
30
0
41
1
10
31.968542102796
20
15.5171583036373
30
0
0
SPLINE
5
3E6
100
AcDbEntity
8
1
62
256
6
ByLayer
370
-1
48
1
60
0
100
AcDbSpline
70
4
71
3
72
24
73
20
40
0
40
0
40
0
40
0
40
0.0154450745970629
40
0.0154450745970629
40
0.0417985895668768
40
0.0417985895668768
40
0.048397259787725
40
0.048397259787725
40
0.102103855500581
40
0.102103855500581
40
0.18533032112207
40
0.18533032112207
40
0.354377449491639
40
0.354377449491639
40
0.53534872739945
40
0.53534872739945
40
0.666091500997333
40
0.666091500997333
40
1
40
1
40
1
40
1
41
1
10
30.6851538154918
20
18.7128168472421
30
0
41
1
10
30.6841944096306
20
18.7158641974977
30
0
41
1
10
30.6836752576173
20
18.7190606953896
30
0
41
1
10
30.6834606556868
20
18.7275802633051
30
0
41
1
10
30.6845711800019
20
18.7329798414603
30
0
41
1
10
30.6868579523848
20
18.7392705592943
30
0
41
1
10
30.6873676630204
20
18.740527697066
30
0
41
1
10
30.6923162607559
20
18.7516964152693
30
0
41
1
10
30.6991111068649
20
18.7605933429263
30
0
41
1
10
30.717918098235
20
18.7812625990754
30
0
41
1
10
30.7311714111494
20
18.7922972891917
30
0
41
1
10
30.7726959197032
20
18.8234089180133
30
0
41
1
10
30.8028806679833
20
18.8413328259436
30
0
41
1
10
30.8664245003498
20
18.8761066997543
30
0
41
1
10
30.9001500789516
20
18.8926876339007
30
0
41
1
10
30.9588717218141
20
18.9199110577942
30
0
41
1
10
30.9837238482399
20
18.9309117127504
30
0
41
1
10
31.0725376834062
20
18.968899489545
30
0
41
1
10
31.1372933387234
20
18.994244836211
30
0
41
1
10
31.2024794711793
20
19.0184717662535
30
0
0
SPLINE
5
3E7
100
AcDbEntity
8
1
62
256
6
ByLayer
370
-1
48
1
60
0
100
AcDbSpline
70
4
71
2
72
6
73
3
40
0
40
0
40
0
40
1
40
1
40
1
41
0.500001284270657
10
31.5479866932225
20
14.6232068286944
30
0
41
0.499998715729343
10
31.5484028025992
20
14.6223675527956
30
0
41
0.500001284270657
10
31.5488184035136
20
14.6215312923707
30
0
0
SPLINE
5
3E8
100
AcDbEntity
8
1
62
256
6
ByLayer
370
-1
48
1
60
0
100
AcDbSpline
70
4
71
3
72
20
73
16
40
0
40
0
40
0
40
0
40
0.511365204367435
40
0.511365204367435
40
0.617167309555445
40
0.617167309555445
40
0.785488434327108
40
0.785488434327108
40
0.87339881215386
40
0.87339881215386
40
0.93568440225422
40
0.93568440225422
40
0.978722765374131
40
0.978722765374131
40
1
40
1
40
1
40
1
41
1
10
25.1323215128037
20
22.1703386782686
30
0
41
1
10
25.2288419751794
20
22.1068769247207
30
0
41
1
10
25.3280997158311
20
22.0463216852593
30
0
41
1
10
25.4546693756342
20
21.9864233537817
30
0
41
1
10
25.4767019160876
20
21.9766479559551
30
0
41
1
10
25.5345529821068
20
21.9534094047997
30
0
41
1
10
25.5710680851526
20
21.9408311440281
30
0
41
1
10
25.6282470269165
20
21.9289392305923
30
0
41
1
10
25.6483508642
20
21.9261449966171
30
0
41
1
10
25.6826045468015
20
21.9261542319456
30
0
41
1
10
25.697023505916
20
21.9276026312924
30
0
41
1
10
25.7199808064596
20
21.9342999489616
30
0
41
1
10
25.7291200837171
20
21.938351584792
30
0
41
1
10
25.7411233336504
20
21.9465359828104
30
0
41
1
10
25.7448775092763
20
21.9496294585906
30
0
41
1
10
25.7482836379094
20
21.9530220440045
30
0
0
SPLINE
5
3E9
100
AcDbEntity
8
1
62
256
6
ByLayer
370
-1
48
1
60
0
100
AcDbSpline
70
4
71
3
72
16
73
12
40
0
40
0
40
0
40
0
40
0.0426292751499114
40
0.0426292751499114
40
0.0996436166287563
40
0.0996436166287563
40
0.207156078099354
40
0.207156078099354
40
0.580806890299264
40
0.580806890299264
40
1
40
1
40
1
40
1
41
1
10
30.8332924993804
20
18.1225230205593
30
0
41
1
10
30.8360411984966
20
18.1132504869349
30
0
41
1
10
30.8407316707448
20
18.1043929469536
30
0
41
1
10
30.8544671885374
20
18.0861482704698
30
0
41
1
10
30.8645603828548
20
18.0771999454481
30
0
41
1
10
30.8956876469509
20
18.0553548821654
30
0
41
1
10
30.9190365732361
20
18.0451281086248
30
0
41
1
10
31.0240019155125
20
18.0084880381523
30
0
41
1
10
31.111956822972
20
17.9996264929021
30
0
41
1
10
31.2952818347611
20
17.9877924053425
30
0
41
1
10
31.392834630849
20
17.9881015381836
30
0
41
1
10
31.4900555765011
20
17.9913354727483
30
0
0
SPLINE
5
3EA
100
AcDbEntity
8
1
62
256
6
ByLayer
370
-1
48
1
60
0
100
AcDbSpline
70
4
71
3
72
10
73
6
40
0
40
0
40
0
40
0
40
0.709495622816775
40
0.709495622816775
40
1
40
1
40
1
40
1
41
1
10
27.8398038349676
20
24.6064123582383
30
0
41
1
10
27.8630546515992
20
24.6165434392561
30
0
41
1
10
27.888166127392
20
24.6219874249781
30
0
41
1
10
27.9228031113536
20
24.6236746442517
30
0
41
1
10
27.9329839697443
20
24.6234717072203
30
0
41
1
10
27.9431008469153
20
24.6226363932798
30
0
0
SPLINE
5
3EB
100
AcDbEntity
8
1
62
256
6
ByLayer
370
-1
48
1
60
0
100
AcDbSpline
70
4
71
3
72
14
73
10
40
0
40
0
40
0
40
0
40
0.24960605501499
40
0.24960605501499
40
0.499158243446866
40
0.499158243446866
40
0.746144217743591
40
0.746144217743591
40
1
40
1
40
1
40
1
41
1
10
31.9988185797055
20
18.3455504838605
30
0
41
1
10
31.9988334068592
20
18.3282981019065
30
0
41
1
10
31.9988744089185
20
18.3114600655876
30
0
41
1
10
31.9990059405457
20
18.2793013371836
30
0
41
1
10
31.9990969086179
20
18.2638683579389
30
0
41
1
10
31.9993237552176
20
18.2350491912626
30
0
41
1
10
31.9994599123583
20
18.2215478140882
30
0
41
1
10
31.9997776667996
20
18.1963948758896
30
0
41
1
10
31.9999615286451
20
18.1847175851102
30
0
41
1
10
32.0001645144408
20
18.1743607887026
30
0
0
SPLINE
5
3EC
100
AcDbEntity
8
1
62
256
6
ByLayer
370
-1
48
1
60
0
100
AcDbSpline
70
4
71
3
72
24
73
20
40
0
40
0
40
0
40
0
40
0.0154450745970654
40
0.0154450745970654
40
0.0417985895668822
40
0.0417985895668822
40
0.0483972597877293
40
0.0483972597877293
40
0.102103855500583
40
0.102103855500583
40
0.185330321122073
40
0.185330321122073
40
0.354377449491649
40
0.354377449491649
40
0.535348727399456
40
0.535348727399456
40
0.666091500997344
40
0.666091500997344
40
1
40
1
40
1
40
1
41
1
10
25.7295110772648
20
21.9699914613254
30
0
41
1
10
25.7272652305627
20
21.9676806255588
30
0
41
1
10
25.7246569782995
20
21.9656542037167
30
0
41
1
10
25.7170993833281
20
21.9612070506699
30
0
41
1
10
25.7116634817384
20
21.9594055303532
30
0
41
1
10
25.7048158199375
20
21.9581167904758
30
0
41
1
10
25.7034200583771
20
21.957902261072
30
0
41
1
10
25.6908019908416
20
21.9563391443537
30
0
41
1
10
25.679271954699
20
21.9574213713445
30
0
41
1
10
25.6509193985499
20
21.962400088838
30
0
41
1
10
25.6341174680789
20
21.9676788661506
30
0
41
1
10
25.5845899095937
20
21.9859528473913
30
0
41
1
10
25.5528098480983
20
22.0015877638019
30
0
41
1
10
25.4885693836333
20
22.0359831363987
30
0
41
1
10
25.456161074521
20
22.0551773085544
30
0
41
1
10
25.4012138517763
20
22.0894211538427
30
0
41
1
10
25.3784275358792
20
22.104174375464
30
0
41
1
10
25.2981877602043
20
22.1575603767459
30
0
41
1
10
25.2417984242114
20
22.1976609144383
30
0
41
1
10
25.1861905812906
20
22.2386703754825
30
0
0
SPLINE
5
3ED
100
AcDbEntity
8
1
62
256
6
ByLayer
370
-1
48
1
60
0
100
AcDbSpline
70
4
71
2
72
6
73
3
40
0
40
0
40
0
40
1
40
1
40
1
41
0.500001284170752
10
28.8578399044045
20
24.5713690651681
30
0
41
0.499998715829248
10
28.858437331905
20
24.5722129181399
30
0
41
0.500001284170752
10
28.8590339794569
20
24.573057266447
30
0
0
SPLINE
5
3EE
100
AcDbEntity
8
1
62
256
6
ByLayer
370
-1
48
1
60
0
100
AcDbSpline
70
4
71
3
72
12
73
8
40
0
40
0
40
0
40
0
40
0.347623173836861
40
0.347623173836861
40
0.696503371294843
40
0.696503371294843
40
1
40
1
40
1
40
1
41
1
10
28.7526194007186
20
24.5202413776193
30
0
41
1
10
28.7666678476776
20
24.5196618326364
30
0
41
1
10
28.7809381549005
20
24.5213832799838
30
0
41
1
10
28.8077731599582
20
24.5294851155642
30
0
41
1
10
28.8207179949087
20
24.5360234807311
30
0
41
1
10
28.8418344427971
20
24.5520379631345
30
0
41
1
10
28.8506519843863
20
24.5612162890356
30
0
41
1
10
28.8578399044045
20
24.5713690651681
30
0
0
SPLINE
5
3EF
100
AcDbEntity
8
1
62
256
6
ByLayer
370
-1
48
1
60
0
100
AcDbSpline
70
4
71
2
72
6
73
3
40
0
40
0
40
0
40
1
40
1
40
1
41
0.500001284277948
10
21.2954260720382
20
17.3854866600008
30
0
41
0.499998715722052
10
21.2944232935616
20
17.3856472329709
30
0
41
0.500001284277948
10
21.2934221311148
20
17.3858093243473
30
0
0
SPLINE
5
3F0
100
AcDbEntity
8
1
62
256
6
ByLayer
370
-1
48
1
60
0
100
AcDbSpline
70
4
71
3
72
12
73
8
40
0
40
0
40
0
40
0
40
0.474376698371055
40
0.474376698371055
40
0.706219783413742
40
0.706219783413742
40
1
40
1
40
1
40
1
41
1
10
24.611521341396
20
22.7760408293623
30
0
41
1
10
24.6340272513861
20
22.7834533540439
30
0
41
1
10
24.6600562996099
20
22.7939292726391
30
0
41
1
10
24.7007315433508
20
22.8126399652501
30
0
41
1
10
24.7146083744865
20
22.8193802989646
30
0
41
1
10
24.7463681539067
20
22.8355693298915
30
0
41
1
10
24.7644977191442
20
22.8453450375598
30
0
41
1
10
24.7824852161581
20
22.8555508083198
30
0
0
SPLINE
5
3F1
100
AcDbEntity
8
1
62
256
6
ByLayer
370
-1
48
1
60
0
100
AcDbSpline
70
4
71
3
72
18
73
14
40
0
40
0
40
0
40
0
40
0.439677344605704
40
0.439677344605704
40
0.819840138515276
40
0.819840138515276
40
0.920758376963034
40
0.920758376963034
40
0.968467673881575
40
0.968467673881575
40
0.990240013274129
40
0.990240013274129
40
1
40
1
40
1
40
1
41
1
10
31.4856243699837
20
18.076557193586
30
0
41
1
10
31.3915234179367
20
18.0687964180292
30
0
41
1
10
31.2971062263633
20
18.062949588978
30
0
41
1
10
31.1209332270556
20
18.0605518141131
30
0
41
1
10
31.0381662521438
20
18.0608713033028
30
0
41
1
10
30.9363794543691
20
18.0804943802451
30
0
41
1
10
30.9148137405959
20
18.0857929932835
30
0
41
1
10
30.8856777661561
20
18.0992586550723
30
0
41
1
10
30.8764897602854
20
18.1046062049178
30
0
41
1
10
30.865846279341
20
18.1150609811731
30
0
41
1
10
30.8628700360824
20
18.1188295511779
30
0
41
1
10
30.8597351689593
20
18.1248139536508
30
0
41
1
10
30.8589167817798
20
18.1267641167022
30
0
41
1
10
30.8582887261908
20
18.1287590027423
30
0
0
SPLINE
5
3F2
100
AcDbEntity
8
1
62
256
6
ByLayer
370
-1
48
1
60
0
100
AcDbSpline
70
4
71
3
72
16
73
12
40
0
40
0
40
0
40
0
40
0.0426292751499062
40
0.0426292751499062
40
0.0996436166287504
40
0.0996436166287504
40
0.207156078099347
40
0.207156078099347
40
0.580806890299258
40
0.580806890299258
40
1
40
1
40
1
40
1
41
1
10
24.7037017156807
20
16.3824306906103
30
0
41
1
10
24.6940257739078
20
16.3848035252136
30
0
41
1
10
24.6837585618197
20
16.3853426506991
30
0
41
1
10
24.6605891298297
20
16.3830445080469
30
0
41
1
10
24.6475603074865
20
16.3791091815428
30
0
41
1
10
24.6125354771614
20
16.3640744726873
30
0
41
1
10
24.5917845810963
20
16.3496929334312
30
0
41
1
10
24.5068666025424
20
16.2803368093323
30
0
41
1
10
24.4552893036275
20
16.2112145748934
30
0
41
1
10
24.3537353000847
20
16.0637986261657
30
0
41
1
10
24.3056176393653
20
15.9820250827491
30
0
41
1
10
24.2602865385463
20
15.8990553403869
30
0
0
SPLINE
5
3F3
100
AcDbEntity
8
1
62
256
6
ByLayer
370
-1
48
1
60
0
100
AcDbSpline
70
4
71
3
72
18
73
14
40
0
40
0
40
0
40
0
40
0.439677344605706
40
0.439677344605706
40
0.819840138515276
40
0.819840138515276
40
0.920758376963031
40
0.920758376963031
40
0.968467673881574
40
0.968467673881574
40
0.990240013274131
40
0.990240013274131
40
1
40
1
40
1
40
1
41
1
10
25.8877136101133
20
22.9425840128711
30
0
41
1
10
25.9434738421378
20
22.8697113628993
30
0
41
1
10
25.9976718394034
20
22.7956161811196
30
0
41
1
10
26.0911325465436
20
22.6530858931328
30
0
41
1
10
26.1337369283883
20
22.5853959515042
30
0
41
1
10
26.1688208119491
20
22.4925064709321
30
0
41
1
10
26.1752269345296
20
22.4722536057685
30
0
41
1
10
26.178204674419
20
22.4417288655493
30
0
41
1
10
26.1781525223055
20
22.4315507774569
30
0
41
1
10
26.1742574580355
20
22.4176242567272
30
0
41
1
10
26.1724075854197
20
22.4133062250155
30
0
41
1
10
26.1686453655449
20
22.4077476776194
30
0
41
1
10
26.167314059614
20
22.4061020704288
30
0
41
1
10
26.1658438616195
20
22.4045893286613
30
0
0
SPLINE
5
3F4
100
AcDbEntity
8
1
62
256
6
ByLayer
370
-1
48
1
60
0
100
AcDbSpline
70
4
71
3
72
10
73
6
40
0
40
0
40
0
40
0
40
0.709495622816795
40
0.709495622816795
40
1
40
1
40
1
40
1
41
1
10
21.8806009035156
20
16.6665304348051
30
0
41
1
10
21.8598025525954
20
16.6809573743424
30
0
41
1
10
21.8410800375326
20
16.6975436074917
30
0
41
1
10
21.819818683946
20
16.7223588983821
30
0
41
1
10
21.8141160707407
20
16.7298839475895
30
0
41
1
10
21.8089803454861
20
16.7376224350938
30
0
0
SPLINE
5
3F5
100
AcDbEntity
8
1
62
256
6
ByLayer
370
-1
48
1
60
0
100
AcDbSpline
70
4
71
3
72
22
73
18
40
0
40
0
40
0
40
0
40
0.20826636344273
40
0.20826636344273
40
0.317899168105445
40
0.317899168105445
40
0.427584739861804
40
0.427584739861804
40
0.53737725373294
40
0.53737725373294
40
0.647402228730916
40
0.647402228730916
40
0.811583680502277
40
0.811583680502277
40
0.906636022131485
40
0.906636022131485
40
1
40
1
40
1
40
1
41
1
10
32.1723215795343
20
12.2644745843714
30
0
41
1
10
32.171144384049
20
12.2851599734245
30
0
41
1
10
32.1692962053804
20
12.3045143950189
30
0
41
1
10
32.1653384580201
20
12.3313939265771
30
0
41
1
10
32.1637592713554
20
12.3402064460069
30
0
41
1
10
32.1601073349774
20
12.35668206377
30
0
41
1
10
32.1580310055168
20
12.3643640230526
30
0
41
1
10
32.1532620868332
20
12.3782975273532
30
0
41
1
10
32.1505623989053
20
12.3845723506515
30
0
41
1
10
32.144350465491
20
12.3952319174519
30
0
41
1
10
32.1408210755318
20
12.3996448224324
30
0
41
1
10
32.1307188679145
20
12.4072626620756
30
0
41
1
10
32.1233085170679
20
12.4089609673818
30
0
41
1
10
32.1089403208747
20
12.4037466006717
30
0
41
1
10
32.102948283056
20
12.4000297604169
30
0
41
1
10
32.0902698512769
20
12.3888915474245
30
0
41
1
10
32.083433276899
20
12.3813726572775
30
0
41
1
10
32.0766394790459
20
12.372558858534
30
0
0
SPLINE
5
3F6
100
AcDbEntity
8
1
62
256
6
ByLayer
370
-1
48
1
60
0
100
AcDbSpline
70
4
71
3
72
8
73
4
40
0
40
0
40
0
40
0
40
1
40
1
40
1
40
1
41
1
10
32.0905800856228
20
11.8953858689298
30
0
41
1
10
32.0947697997177
20
11.8991677136622
30
0
41
1
10
32.0989596056794
20
11.9029495288288
30
0
41
1
10
32.1031494991756
20
11.9067313158212
30
0
0
SPLINE
5
3F7
100
AcDbEntity
8
1
62
256
6
ByLayer
370
-1
48
1
60
0
100
AcDbSpline
70
4
71
3
72
8
73
4
40
0
40
0
40
0
40
0
40
1
40
1
40
1
40
1
41
1
10
32.1152175052288
20
11.2661522694468
30
0
41
1
10
32.1109486996909
20
11.2665591943418
30
0
41
1
10
32.1066799810873
20
11.2669661229189
30
0
41
1
10
32.1024113537208
20
11.2673730553599
30
0
0
SPLINE
5
3F8
100
AcDbEntity
8
1
62
256
6
ByLayer
370
-1
48
1
60
0
100
AcDbSpline
70
4
71
3
72
8
73
4
40
0
40
0
40
0
40
0
40
1
40
1
40
1
40
1
41
1
10
32.0967351440362
20
10.6388601268546
30
0
41
1
10
32.1009803002593
20
10.635854291638
30
0
41
1
10
32.1052255479067
20
10.6328484810268
30
0
41
1
10
32.109470882667
20
10.6298426938626
30
0
0
SPLINE
5
3F9
100
AcDbEntity
8
1
62
256
6
ByLayer
370
-1
48
1
60
0
100
AcDbSpline
70
4
71
3
72
22
73
18
40
0
40
0
40
0
40
0
40
0.208266363442874
40
0.208266363442874
40
0.317899168105595
40
0.317899168105595
40
0.427584739861964
40
0.427584739861964
40
0.53737725373311
40
0.53737725373311
40
0.647402228731094
40
0.647402228731094
40
0.811583680502345
40
0.811583680502345
40
0.906636022131534
40
0.906636022131534
40
1
40
1
40
1
40
1
41
1
10
32.1510222070447
20
9.90604673857327
30
0
41
1
10
32.1524545852158
20
9.91361710926452
30
0
41
1
10
32.1532530999979
20
9.92310131383357
30
0
41
1
10
32.1533327326729
20
9.94050712527336
30
0
41
1
10
32.1531500633945
20
9.94706661553015
30
0
41
1
10
32.1522799531896
20
9.96133098715924
30
0
41
1
10
32.151592068356
20
9.96905163177081
30
0
41
1
10
32.1495718210668
20
9.9857506626585
30
0
41
1
10
32.1482369158065
20
9.99475653100201
30
0
41
1
10
32.14469609691
20
10.0141815533503
30
0
41
1
10
32.1424805049697
20
10.0246568278522
30
0
41
1
10
32.1354805548145
20
10.0524996244942
30
0
41
1
10
32.1298377966858
20
10.071293967814
30
0
41
1
10
32.11766882571
20
10.1027980498564
30
0
41
1
10
32.1123698654824
20
10.1150243078086
30
0
41
1
10
32.1006553776918
20
10.1386418919602
30
0
41
1
10
32.0941055088807
20
10.1503265194985
30
0
41
1
10
32.0873828003313
20
10.1609230008505
30
0
0
SPLINE
5
3FA
100
AcDbEntity
8
1
62
256
6
ByLayer
370
-1
48
1
60
0
100
AcDbSpline
70
4
71
3
72
16
73
12
40
0
40
0
40
0
40
0
40
0.0023448809068131
40
0.0023448809068131
40
0.244769775801019
40
0.244769775801019
40
0.487038716340512
40
0.487038716340512
40
0.973677497833421
40
0.973677497833421
40
1
40
1
40
1
40
1
41
1
10
32.1314810547481
20
9.88618122469437
30
0
41
1
10
32.131506005083
20
9.88617006859793
30
0
41
1
10
32.1315309254935
20
9.88615898835977
30
0
41
1
10
32.1341303835549
20
9.88500972316079
30
0
41
1
10
32.1363939175978
20
9.88467817164683
30
0
41
1
10
32.1404198218607
20
9.88537664417601
30
0
41
1
10
32.1421865200234
20
9.88640776218183
30
0
41
1
10
32.1468661470127
20
9.89130849850986
30
0
41
1
10
32.1491756946845
20
9.89698938276864
30
0
41
1
10
32.1508557739441
20
9.90518470559799
30
0
41
1
10
32.1509400619353
20
9.90561258721506
30
0
41
1
10
32.1510222070447
20
9.90604673857327
30
0
0
SPLINE
5
3FB
100
AcDbEntity
8
1
62
256
6
ByLayer
370
-1
48
1
60
0
100
AcDbSpline
70
4
71
3
72
24
73
20
40
0
40
0
40
0
40
0
40
0.104000448201688
40
0.104000448201688
40
0.19249905546083
40
0.19249905546083
40
0.328500518746452
40
0.328500518746452
40
0.438682575665069
40
0.438682575665069
40
0.548533158171498
40
0.548533158171498
40
0.658237202769534
40
0.658237202769534
40
0.767870673660644
40
0.767870673660644
40
0.988088331633987
40
0.988088331633987
40
1
40
1
40
1
40
1
41
1
10
32.1031494991756
20
11.9067313158212
30
0
41
1
10
32.1107721018047
20
11.9147411878161
30
0
41
1
10
32.118223272875
20
11.925244964129
30
0
41
1
10
32.1302805574531
20
11.9471649693161
30
0
41
1
10
32.1353014040291
20
11.9584390464491
30
0
41
1
10
32.1462523120468
20
11.9876401453393
30
0
41
1
10
32.1514729874095
20
12.006365198343
30
0
41
1
10
32.1589428158415
20
12.0394879897375
30
0
41
1
10
32.1616296393535
20
12.0543040878431
30
0
41
1
10
32.1660175041133
20
12.0832232842371
30
0
41
1
10
32.167733456574
20
12.0974209723119
30
0
41
1
10
32.1704539087457
20
12.1250885738584
30
0
41
1
10
32.1714627117309
20
12.138609411053
30
0
41
1
10
32.1729315909845
20
12.1649263060394
30
0
41
1
10
32.1733928879759
20
12.177754118257
30
0
41
1
10
32.1741001733907
20
12.2152022533977
30
0
41
1
10
32.1736795418802
20
12.2388586678006
30
0
41
1
10
32.1724543610014
20
12.2620974023631
30
0
41
1
10
32.1723890902336
20
12.2632883029964
30
0
41
1
10
32.1723215795343
20
12.2644745843714
30
0
0
SPLINE
5
3FC
100
AcDbEntity
8
1
62
256
6
ByLayer
370
-1
48
1
60
0
100
AcDbSpline
70
4
71
3
72
22
73
18
40
0
40
0
40
0
40
0
40
0.208266363442774
40
0.208266363442774
40
0.31789916810549
40
0.31789916810549
40
0.427584739861849
40
0.427584739861849
40
0.537377253732988
40
0.537377253732988
40
0.647402228730962
40
0.647402228730962
40
0.811583680502292
40
0.811583680502292
40
0.906636022131495
40
0.906636022131495
40
1
40
1
40
1
40
1
41
1
10
32.1979741742681
20
10.9028151189079
30
0
41
1
10
32.1982293569538
20
10.9310708786523
30
0
41
1
10
32.1977819576904
20
10.9599124672899
30
0
41
1
10
32.1958764597109
20
11.0042075133746
30
0
41
1
10
32.1949916311287
20
11.0195838370632
30
0
41
1
10
32.192688353076
20
11.0503347403361
30
0
41
1
10
32.1912678533105
20
11.0657439538157
30
0
41
1
10
32.1877565368565
20
11.0963926123887
30
0
41
1
10
32.1856607116848
20
11.1116828406191
30
0
41
1
10
32.1805788350013
20
11.1417904052963
30
0
41
1
10
32.1775787453149
20
11.1566920866045
30
0
41
1
10
32.1686368528943
20
11.192192862346
30
0
41
1
10
32.1618032198157
20
11.2127161038964
30
0
41
1
10
32.1479185904756
20
11.2390680556842
30
0
41
1
10
32.1420127345698
20
11.2476039623091
30
0
41
1
10
32.1292635927505
20
11.2601406079428
30
0
41
1
10
32.1222716951119
20
11.264337799407
30
0
41
1
10
32.1152175052311
20
11.2661522694466
30
0
0
SPLINE
5
3FD
100
AcDbEntity
8
1
62
256
6
ByLayer
370
-1
48
1
60
0
100
AcDbSpline
70
4
71
3
72
24
73
20
40
0
40
0
40
0
40
0
40
0.104000448201687
40
0.104000448201687
40
0.192499055460835
40
0.192499055460835
40
0.328500518746466
40
0.328500518746466
40
0.438682575665084
40
0.438682575665084
40
0.548533158171512
40
0.548533158171512
40
0.658237202769552
40
0.658237202769552
40
0.767870673660669
40
0.767870673660669
40
0.988088331634028
40
0.988088331634028
40
1
40
1
40
1
40
1
41
1
10
32.109470882667
20
10.6298426938626
30
0
41
1
10
32.1172606490926
20
10.6254430624112
30
0
41
1
10
32.1250321279211
20
10.623670956248
30
0
41
1
10
32.1379000772804
20
10.6255973847793
30
0
41
1
10
32.143386122574
20
10.628496442316
30
0
41
1
10
32.1556303635547
20
10.6395033547456
30
0
41
1
10
32.1617583409069
20
10.6496458664163
30
0
41
1
10
32.1709196027535
20
10.6710122267124
30
0
41
1
10
32.1743949547576
20
10.6818340964189
30
0
41
1
10
32.180368991849
20
10.7048217404688
30
0
41
1
10
32.1828876771351
20
10.7170587617218
30
0
41
1
10
32.18721093519
20
10.7424314256908
30
0
41
1
10
32.1890227554443
20
10.7556135272485
30
0
41
1
10
32.1920885542555
20
10.782616946853
30
0
41
1
10
32.1933456869408
20
10.7964711015096
30
0
41
1
10
32.1964239626845
20
10.8388086170461
30
0
41
1
10
32.1975663486082
20
10.8681422436069
30
0
41
1
10
32.1979425464666
20
10.8995759138794
30
0
41
1
10
32.1979595398579
20
10.9011946861747
30
0
41
1
10
32.1979741742681
20
10.9028151189079
30
0
0
SPLINE
5
3FE
100
AcDbEntity
8
1
62
256
6
ByLayer
370
-1
48
1
60
0
100
AcDbSpline
70
4
71
3
72
10
73
6
40
0
40
0
40
0
40
0
40
0.425586067180577
40
0.425586067180577
40
1
40
1
40
1
40
1
41
1
10
32.1024113537208
20
11.2673730553599
30
0
41
1
10
32.0945990655102
20
11.2681178084712
30
0
41
1
10
32.0867910806477
20
11.2713312544593
30
0
41
1
10
32.0695423170443
20
11.2827108267427
30
0
41
1
10
32.0602142079949
20
11.2922689855278
30
0
41
1
10
32.0517283160238
20
11.3035068819361
30
0
0
SPLINE
5
3FF
100
AcDbEntity
8
1
62
256
6
ByLayer
370
-1
48
1
60
0
100
AcDbSpline
70
4
71
3
72
10
73
6
40
0
40
0
40
0
40
0
40
0.747052175316923
40
0.747052175316923
40
1
40
1
40
1
40
1
41
1
10
32.0568932564663
20
11.8515261030571
30
0
41
1
10
32.0645785809975
20
11.8645861054043
30
0
41
1
10
32.0728916857415
20
11.8765483598677
30
0
41
1
10
32.0845041047392
20
11.8895571163547
30
0
41
1
10
32.0875333851047
20
11.8926357652127
30
0
41
1
10
32.0905800856228
20
11.8953858689298
30
0
0
SPLINE
5
400
100
AcDbEntity
8
SK1
62
256
6
ByLayer
370
-1
48
1
60
0
100
AcDbSpline
70
4
71
3
72
14
73
10
40
0
40
0
40
0
40
0
40
0.393621224318929
40
0.393621224318929
40
0.694221223982595
40
0.694221223982595
40
0.925984743280957
40
0.925984743280957
40
1
40
1
40
1
40
1
41
1
10
-0.249519052838338
20
18.5911471576056
30
0
41
1
10
-0.264885296613954
20
18.5733437946866
30
0
41
1
10
-0.279300162301951
20
18.5557955374966
30
0
41
1
10
-0.300741320455614
20
18.527587554582
30
0
41
1
10
-0.308883950365839
20
18.5160367177047
30
0
41
1
10
-0.319313667439644
20
18.4988657561025
30
0
41
1
10
-0.322582421844231
20
18.4923544618305
30
0
41
1
10
-0.324300283222385
20
18.4861869777089
30
0
41
1
10
-0.324519052838326
20
18.484863400127
30
0
41
1
10
-0.324519052838326
20
18.4837528208056
30
0
0
SPLINE
5
401
100
AcDbEntity
8
SK1
62
256
6
ByLayer
370
-1
48
1
60
0
100
AcDbSpline
70
4
71
3
72
8
73
4
40
0
40
0
40
0
40
0
40
1
40
1
40
1
40
1
41
1
10
-0.249519052838963
20
9.16140099075159
30
0
41
1
10
-0.166530386803885
20
9.24669039428258
30
0
41
1
10
-0.0833526587897211
20
9.33173506323246
30
0
41
1
10
0
20
9.41654987898986
30
0
0
SPLINE
5
402
100
AcDbEntity
8
1
62
256
6
ByLayer
370
-1
48
1
60
0
100
AcDbSpline
70
4
71
3
72
22
73
18
40
0
40
0
40
0
40
0
40
0.437896690009531
40
0.437896690009531
40
0.639990234380837
40
0.639990234380837
40
0.71774841132762
40
0.71774841132762
40
0.796672609064531
40
0.796672609064531
40
0.851154317625829
40
0.851154317625829
40
0.905737447010996
40
0.905737447010996
40
0.973199244945158
40
0.973199244945158
40
1
40
1
40
1
40
1
41
1
10
0.394519052838319
20
13.4744348947103
30
0
41
1
10
0.42678416475772
20
13.5415569948574
30
0
41
1
10
0.453440103505045
20
13.6105944461558
30
0
41
1
10
0.475591486669941
20
13.7040318631824
30
0
41
1
10
0.480268468420093
20
13.7333062353311
30
0
41
1
10
0.479098104313295
20
13.7681879751399
30
0
41
1
10
0.47789108947697
20
13.7773926265592
30
0
41
1
10
0.47285536890189
20
13.7932666954997
30
0
41
1
10
0.468887305982122
20
13.8000695456668
30
0
41
1
10
0.459192308018174
20
13.8071998127549
30
0
41
1
10
0.454268900350911
20
13.8089016011102
30
0
41
1
10
0.443084545046645
20
13.8092232918541
30
0
41
1
10
0.436687456484322
20
13.8078387655905
30
0
41
1
10
0.42191541107681
20
13.8019085867757
30
0
41
1
10
0.413220603813215
20
13.7966620704221
30
0
41
1
10
0.401309145742204
20
13.7878585523284
30
0
41
1
10
0.39790095191546
20
13.7851548080069
30
0
41
1
10
0.394519052838319
20
13.7823140979466
30
0
0
SPLINE
5
403
100
AcDbEntity
8
SK1
62
256
6
ByLayer
370
-1
48
1
60
0
100
AcDbSpline
70
4
71
3
72
10
73
6
40
0
40
0
40
0
40
0
40
0.662657911971726
40
0.662657911971726
40
1
40
1
40
1
40
1
41
1
10
-0.249519052838338
20
13.7035643018125
30
0
41
1
10
-0.276732417370795
20
13.6504705483264
30
0
41
1
10
-0.299206461546106
20
13.5959134000062
30
0
41
1
10
-0.319738815083696
20
13.5190351780072
30
0
41
1
10
-0.324519052838326
20
13.4933149479983
30
0
41
1
10
-0.324519052838326
20
13.4709974273838
30
0
0
SPLINE
5
404
100
AcDbEntity
8
SK1
62
256
6
ByLayer
370
-1
48
1
60
0
100
AcDbSpline
70
4
71
3
72
8
73
4
40
0
40
0
40
0
40
0
40
1
40
1
40
1
40
1
41
1
10
0
20
-7.92441869309681
30
0
41
1
10
-0.0880009987361632
20
-7.59681644140632
30
0
41
1
10
-0.171274600487806
20
-7.2674660296901
30
0
41
1
10
-0.249519052838366
20
-6.93657952761939
30
0
0
LINE
5
4B
100
AcDbEntity
8
4
62
256
6
ByLayer
370
-1
48
0.05
60
0
100
AcDbLine
10
0
20
0
30
0
11
32
21
0
31
0
39
0
210
0
220
0
230
1
0
LINE
5
4D
100
AcDbEntity
8
SK4
62
256
6
ByLayer
370
-1
48
0.05
60
0
100
AcDbLine
10
-5
20
0
30
0
11
37
21
0
31
0
39
0
210
0
220
0
230
1
0
LINE
5
4F
100
AcDbEntity
8
80
62
256
6
ByLayer
370
-1
48
1
60
0
100
AcDbLine
10
0
20
0
30
0
11
-5
21
0
31
0
39
0
210
0
220
0
230
1
0
LINE
5
50
100
AcDbEntity
8
81
62
256
6
ByLayer
370
-1
48
1
60
0
100
AcDbLine
10
32
20
26.875
30
0
11
37
21
26.875
31
0
39
0
210
0
220
0
230
1
0
LINE
5
51
100
AcDbEntity
8
SK1
62
256
6
ByLayer
370
-1
48
1
60
0
100
AcDbLine
10
0
20
19.324519
30
0
11
-0.324519
21
19
31
0
39
0
210
0
220
0
230
1
0
LINE
5
53
100
AcDbEntity
8
1
62
256
6
ByLayer
370
-1
48
1
60
0
100
AcDbLine
10
32.063281
20
10.650463
30
0
11
32.062475
21
10.650459
31
0
39
0
210
0
220
0
230
1
0
LINE
5
54
100
AcDbEntity
8
1
62
256
6
ByLayer
370
-1
48
1
60
0
100
AcDbLine
10
24.531856
20
19.211864
30
0
11
24.509209
21
18.891341
31
0
39
0
210
0
220
0
230
1
0
LINE
5
55
100
AcDbEntity
8
1
62
256
6
ByLayer
370
-1
48
1
60
0
100
AcDbLine
10
29.945655
20
18.507211
30
0
11
29.968302
21
18.827735
31
0
39
0
210
0
220
0
230
1
0
LINE
5
56
100
AcDbEntity
8
1
62
256
6
ByLayer
370
-1
48
1
60
0
100
AcDbLine
10
26.203211
20
17.811522
30
0
11
26.221635
21
18.072275
31
0
39
0
210
0
220
0
230
1
0
LINE
5
57
100
AcDbEntity
8
1
62
256
6
ByLayer
370
-1
48
1
60
0
100
AcDbLine
10
28.274911
20
18.102362
30
0
11
28.249282
21
17.739644
31
0
39
0
210
0
220
0
230
1
0
LINE
5
58
100
AcDbEntity
8
1
62
256
6
ByLayer
370
-1
48
1
60
0
100
AcDbLine
10
26.195525
20
19.516581
30
0
11
26.221173
21
19.879573
31
0
39
0
210
0
220
0
230
1
0
LINE
5
59
100
AcDbEntity
8
1
62
256
6
ByLayer
370
-1
48
1
60
0
100
AcDbLine
10
28.275072
20
19.918468
30
0
11
28.24912
21
19.551176
31
0
39
0
210
0
220
0
230
1
0
LINE
5
5A
100
AcDbEntity
8
SK1
62
256
6
ByLayer
370
-1
48
1
60
0
100
AcDbLine
10
-0.324519
20
-19
30
0
11
0
21
-19.324519
31
0
39
0
210
0
220
0
230
1
0
LINE
5
5B
100
AcDbEntity
8
1
62
256
6
ByLayer
370
-1
48
1
60
0
100
AcDbLine
10
0.675481
20
-20
30
0
11
8.888801
21
-20
31
0
39
0
210
0
220
0
230
1
0
LINE
5
5C
100
AcDbEntity
8
1
62
256
6
ByLayer
370
-1
48
1
60
0
100
AcDbLine
10
12.975001
20
20
30
0
11
0.675481
21
20
31
0
39
0
210
0
220
0
230
1
0
LINE
5
5D
100
AcDbEntity
8
1
62
256
6
ByLayer
370
-1
48
1
60
0
100
AcDbLine
10
0.675481
20
20
30
0
11
0
21
19.324519
31
0
39
0
210
0
220
0
230
1
0
LINE
5
5E
100
AcDbEntity
8
1
62
256
6
ByLayer
370
-1
48
1
60
0
100
AcDbLine
10
0
20
-19.324519
30
0
11
0.675481
21
-20
31
0
39
0
210
0
220
0
230
1
0
LINE
5
5F
100
AcDbEntity
8
1
62
256
6
ByLayer
370
-1
48
1
60
0
100
AcDbLine
10
16.075115
20
23.249993
30
0
11
13.587837
21
20.28577
31
0
39
0
210
0
220
0
230
1
0
LINE
5
60
100
AcDbEntity
8
1
62
256
6
ByLayer
370
-1
48
1
60
0
100
AcDbLine
10
31.277628
20
11.441709
30
0
11
31.344513
21
12.468439
31
0
39
0
210
0
220
0
230
1
0
LINE
5
61
100
AcDbEntity
8
1
62
256
6
ByLayer
370
-1
48
1
60
0
100
AcDbLine
10
31.625968
20
13.310488
30
0
11
31.689842
21
14.291007
31
0
39
0
210
0
220
0
230
1
0
LINE
5
62
100
AcDbEntity
8
1
62
256
6
ByLayer
370
-1
48
1
60
0
100
AcDbLine
10
31.932581
20
14.564049
30
0
11
32.001887
21
15.62795
31
0
39
0
210
0
220
0
230
1
0
LINE
5
63
100
AcDbEntity
8
1
62
256
6
ByLayer
370
-1
48
1
60
0
100
AcDbLine
10
19.369768
20
18.82577
30
0
11
19.302908
21
17.799424
31
0
39
0
210
0
220
0
230
1
0
LINE
5
64
100
AcDbEntity
8
1
62
256
6
ByLayer
370
-1
48
1
60
0
100
AcDbLine
10
20.505895
20
18.166652
30
0
11
20.442072
21
17.186917
31
0
39
0
210
0
220
0
230
1
0
LINE
5
65
100
AcDbEntity
8
1
62
256
6
ByLayer
370
-1
48
1
60
0
100
AcDbLine
10
27.818448
20
24.595882
30
0
11
25.697836
21
23.42235
31
0
39
0
210
0
220
0
230
1
0
LINE
5
66
100
AcDbEntity
8
1
62
256
6
ByLayer
370
-1
48
1
60
0
100
AcDbLine
10
31.992524
20
23.858581
30
0
11
31.989247
21
23.107538
31
0
39
0
210
0
220
0
230
1
0
LINE
5
67
100
AcDbEntity
8
SK1
62
256
6
ByLayer
370
-1
48
1
60
0
100
AcDbLine
10
0
20
-18.879056
30
0
11
0
21
-19.027517
31
0
39
0
210
0
220
0
230
1
0
LINE
5
68
100
AcDbEntity
8
1
62
256
6
ByLayer
370
-1
48
1
60
0
100
AcDbLine
10
0
20
18.242708
30
0
11
0
21
17.963025
31
0
39
0
210
0
220
0
230
1
0
LINE
5
69
100
AcDbEntity
8
1
62
256
6
ByLayer
370
-1
48
1
60
0
100
AcDbLine
10
0
20
15.974086
30
0
11
0
21
16.459691
31
0
39
0
210
0
220
0
230
1
0
LINE
5
6A
100
AcDbEntity
8
1
62
256
6
ByLayer
370
-1
48
1
60
0
100
AcDbLine
10
0
20
5.98301
30
0
11
0
21
7.924419
31
0
39
0
210
0
220
0
230
1
0
LINE
5
6B
100
AcDbEntity
8
1
62
256
6
ByLayer
370
-1
48
1
60
0
100
AcDbLine
10
0
20
19.32088
30
0
11
0
21
19.324519
31
0
39
0
210
0
220
0
230
1
0
LINE
5
6C
100
AcDbEntity
8
1
62
256
6
ByLayer
370
-1
48
1
60
0
100
AcDbLine
10
0
20
-2.769731
30
0
11
0
21
2.769731
31
0
39
0
210
0
220
0
230
1
0
LINE
5
6D
100
AcDbEntity
8
1
62
256
6
ByLayer
370
-1
48
1
60
0
100
AcDbLine
10
0
20
15.43684
30
0
11
0
21
15.974086
31
0
39
0
210
0
220
0
230
1
0
LINE
5
6E
100
AcDbEntity
8
1
62
256
6
ByLayer
370
-1
48
1
60
0
100
AcDbLine
10
0
20
9.41655
30
0
11
0
21
10.649949
31
0
39
0
210
0
220
0
230
1
0
LINE
5
6F
100
AcDbEntity
8
SK1
62
256
6
ByLayer
370
-1
48
1
60
0
100
AcDbLine
10
0
20
-17.647136
30
0
11
0
21
-17.292952
31
0
39
0
210
0
220
0
230
1
0
LINE
5
70
100
AcDbEntity
8
1
62
256
6
ByLayer
370
-1
48
1
60
0
100
AcDbLine
10
0
20
-10.649949
30
0
11
0
21
-9.41655
31
0
39
0
210
0
220
0
230
1
0
LINE
5
71
100
AcDbEntity
8
SK1
62
256
6
ByLayer
370
-1
48
1
60
0
100
AcDbLine
10
0
20
-7.924419
30
0
11
0
21
-5.98301
31
0
39
0
210
0
220
0
230
1
0
LINE
5
72
100
AcDbEntity
8
SK1
62
256
6
ByLayer
370
-1
48
1
60
0
100
AcDbLine
10
0
20
-9.41655
30
0
11
0
21
-7.924321
31
0
39
0
210
0
220
0
230
1
0
LINE
5
73
100
AcDbEntity
8
SK1
62
256
6
ByLayer
370
-1
48
1
60
0
100
AcDbLine
10
0
20
7.924321
30
0
11
0
21
9.41655
31
0
39
0
210
0
220
0
230
1
0
LINE
5
74
100
AcDbEntity
8
1
62
256
6
ByLayer
370
-1
48
1
60
0
100
AcDbLine
10
0
20
19.233341
30
0
11
0
21
19.291745
31
0
39
0
210
0
220
0
230
1
0
LINE
5
75
100
AcDbEntity
8
SK1
62
256
6
ByLayer
370
-1
48
1
60
0
100
AcDbLine
10
0
20
9.41655
30
0
11
0
21
10.649949
31
0
39
0
210
0
220
0
230
1
0
LINE
5
76
100
AcDbEntity
8
SK1
62
256
6
ByLayer
370
-1
48
1
60
0
100
AcDbLine
10
0
20
18.242708
30
0
11
0
21
17.963025
31
0
39
0
210
0
220
0
230
1
0
LINE
5
77
100
AcDbEntity
8
1
62
256
6
ByLayer
370
-1
48
1
60
0
100
AcDbLine
10
0
20
-17.647136
30
0
11
0
21
-17.292952
31
0
39
0
210
0
220
0
230
1
0
LINE
5
78
100
AcDbEntity
8
SK1
62
256
6
ByLayer
370
-1
48
1
60
0
100
AcDbLine
10
0
20
-16.459648
30
0
11
0
21
-16.898119
31
0
39
0
210
0
220
0
230
1
0
LINE
5
79
100
AcDbEntity
8
1
62
256
6
ByLayer
370
-1
48
1
60
0
100
AcDbLine
10
0
20
17.647136
30
0
11
0
21
17.963057
31
0
39
0
210
0
220
0
230
1
0
LINE
5
7A
100
AcDbEntity
8
SK1
62
256
6
ByLayer
370
-1
48
1
60
0
100
AcDbLine
10
0
20
-19.291583
30
0
11
0
21
-19.32088
31
0
39
0
210
0
220
0
230
1
0
LINE
5
7B
100
AcDbEntity
8
SK1
62
256
6
ByLayer
370
-1
48
1
60
0
100
AcDbLine
10
0
20
19.027517
30
0
11
0
21
18.879056
31
0
39
0
210
0
220
0
230
1
0
LINE
5
7C
100
AcDbEntity
8
SK1
62
256
6
ByLayer
370
-1
48
1
60
0
100
AcDbLine
10
0
20
-18.699503
30
0
11
0
21
-18.487583
31
0
39
0
210
0
220
0
230
1
0
LINE
5
7D
100
AcDbEntity
8
1
62
256
6
ByLayer
370
-1
48
1
60
0
100
AcDbLine
10
0
20
14.842386
30
0
11
0
21
15.436852
31
0
39
0
210
0
220
0
230
1
0
LINE
5
7E
100
AcDbEntity
8
1
62
256
6
ByLayer
370
-1
48
1
60
0
100
AcDbLine
10
0
20
18.487583
30
0
11
0
21
18.699503
31
0
39
0
210
0
220
0
230
1
0
LINE
5
7F
100
AcDbEntity
8
1
62
256
6
ByLayer
370
-1
48
1
60
0
100
AcDbLine
10
0
20
-17.963025
30
0
11
0
21
-18.242708
31
0
39
0
210
0
220
0
230
1
0
LINE
5
80
100
AcDbEntity
8
1
62
256
6
ByLayer
370
-1
48
1
60
0
100
AcDbLine
10
0
20
-19.324519
30
0
11
0
21
-19.32088
31
0
39
0
210
0
220
0
230
1
0
LINE
5
81
100
AcDbEntity
8
1
62
256
6
ByLayer
370
-1
48
1
60
0
100
AcDbLine
10
0
20
-15.974086
30
0
11
0
21
-15.43684
31
0
39
0
210
0
220
0
230
1
0
LINE
5
82
100
AcDbEntity
8
1
62
256
6
ByLayer
370
-1
48
1
60
0
100
AcDbLine
10
0
20
19.027517
30
0
11
0
21
19.145402
31
0
39
0
210
0
220
0
230
1
0
LINE
5
83
100
AcDbEntity
8
SK1
62
256
6
ByLayer
370
-1
48
1
60
0
100
AcDbLine
10
0
20
16.898119
30
0
11
0
21
17.292958
31
0
39
0
210
0
220
0
230
1
0
LINE
5
84
100
AcDbEntity
8
SK1
62
256
6
ByLayer
370
-1
48
1
60
0
100
AcDbLine
10
0
20
-19.291745
30
0
11
0
21
-19.233341
31
0
39
0
210
0
220
0
230
1
0
LINE
5
85
100
AcDbEntity
8
1
62
256
6
ByLayer
370
-1
48
1
60
0
100
AcDbLine
10
0
20
-9.41655
30
0
11
0
21
-7.924321
31
0
39
0
210
0
220
0
230
1
0
LINE
5
86
100
AcDbEntity
8
1
62
256
6
ByLayer
370
-1
48
1
60
0
100
AcDbLine
10
0
20
7.924321
30
0
11
0
21
9.41655
31
0
39
0
210
0
220
0
230
1
0
LINE
5
87
100
AcDbEntity
8
1
62
256
6
ByLayer
370
-1
48
1
60
0
100
AcDbLine
10
0
20
11.706682
30
0
11
0
21
10.649788
31
0
39
0
210
0
220
0
230
1
0
LINE
5
88
100
AcDbEntity
8
1
62
256
6
ByLayer
370
-1
48
1
60
0
100
AcDbLine
10
0
20
-10.649788
30
0
11
0
21
-11.706682
31
0
39
0
210
0
220
0
230
1
0
LINE
5
89
100
AcDbEntity
8
1
62
256
6
ByLayer
370
-1
48
1
60
0
100
AcDbLine
10
0
20
-17.963057
30
0
11
0
21
-17.647136
31
0
39
0
210
0
220
0
230
1
0
LINE
5
8A
100
AcDbEntity
8
1
62
256
6
ByLayer
370
-1
48
1
60
0
100
AcDbLine
10
0
20
-19.291745
30
0
11
0
21
-19.233341
31
0
39
0
210
0
220
0
230
1
0
LINE
5
8B
100
AcDbEntity
8
SK1
62
256
6
ByLayer
370
-1
48
1
60
0
100
AcDbLine
10
0
20
15.974086
30
0
11
0
21
16.459691
31
0
39
0
210
0
220
0
230
1
0
LINE
5
8C
100
AcDbEntity
8
1
62
256
6
ByLayer
370
-1
48
1
60
0
100
AcDbLine
10
0
20
-14.183485
30
0
11
0
21
-14.842386
31
0
39
0
210
0
220
0
230
1
0
LINE
5
8D
100
AcDbEntity
8
1
62
256
6
ByLayer
370
-1
48
1
60
0
100
AcDbLine
10
0
20
19.32088
30
0
11
0
21
19.291583
31
0
39
0
210
0
220
0
230
1
0
LINE
5
8E
100
AcDbEntity
8
SK1
62
256
6
ByLayer
370
-1
48
1
60
0
100
AcDbLine
10
0
20
11.706682
30
0
11
0
21
10.649788
31
0
39
0
210
0
220
0
230
1
0
LINE
5
8F
100
AcDbEntity
8
SK1
62
256
6
ByLayer
370
-1
48
1
60
0
100
AcDbLine
10
0
20
-10.649788
30
0
11
0
21
-11.706682
31
0
39
0
210
0
220
0
230
1
0
LINE
5
90
100
AcDbEntity
8
SK1
62
256
6
ByLayer
370
-1
48
1
60
0
100
AcDbLine
10
0
20
18.487583
30
0
11
0
21
18.699503
31
0
39
0
210
0
220
0
230
1
0
LINE
5
91
100
AcDbEntity
8
1
62
256
6
ByLayer
370
-1
48
1
60
0
100
AcDbLine
10
0
20
16.898119
30
0
11
0
21
17.292958
31
0
39
0
210
0
220
0
230
1
0
LINE
5
92
100
AcDbEntity
8
SK1
62
256
6
ByLayer
370
-1
48
1
60
0
100
AcDbLine
10
0
20
-12.631168
30
0
11
0
21
-11.706682
31
0
39
0
210
0
220
0
230
1
0
LINE
5
93
100
AcDbEntity
8
1
62
256
6
ByLayer
370
-1
48
1
60
0
100
AcDbLine
10
0
20
-18.699503
30
0
11
0
21
-18.487583
31
0
39
0
210
0
220
0
230
1
0
LINE
5
94
100
AcDbEntity
8
1
62
256
6
ByLayer
370
-1
48
1
60
0
100
AcDbLine
10
0
20
19.145388
30
0
11
0
21
19.233341
31
0
39
0
210
0
220
0
230
1
0
LINE
5
95
100
AcDbEntity
8
1
62
256
6
ByLayer
370
-1
48
1
60
0
100
AcDbLine
10
0
20
-16.459691
30
0
11
0
21
-15.974086
31
0
39
0
210
0
220
0
230
1
0
LINE
5
96
100
AcDbEntity
8
1
62
256
6
ByLayer
370
-1
48
1
60
0
100
AcDbLine
10
0
20
19.027517
30
0
11
0
21
18.879056
31
0
39
0
210
0
220
0
230
1
0
LINE
5
97
100
AcDbEntity
8
SK1
62
256
6
ByLayer
370
-1
48
1
60
0
100
AcDbLine
10
0
20
18.242708
30
0
11
0
21
18.487737
31
0
39
0
210
0
220
0
230
1
0
LINE
5
98
100
AcDbEntity
8
SK1
62
256
6
ByLayer
370
-1
48
1
60
0
100
AcDbLine
10
0
20
-18.879126
30
0
11
0
21
-18.699503
31
0
39
0
210
0
220
0
230
1
0
LINE
5
99
100
AcDbEntity
8
SK1
62
256
6
ByLayer
370
-1
48
1
60
0
100
AcDbLine
10
0
20
14.842386
30
0
11
0
21
14.183485
31
0
39
0
210
0
220
0
230
1
0
LINE
5
9A
100
AcDbEntity
8
SK1
62
256
6
ByLayer
370
-1
48
1
60
0
100
AcDbLine
10
0
20
14.842386
30
0
11
0
21
15.436852
31
0
39
0
210
0
220
0
230
1
0
LINE
5
9B
100
AcDbEntity
8
SK1
62
256
6
ByLayer
370
-1
48
1
60
0
100
AcDbLine
10
0
20
5.98301
30
0
11
0
21
2.769573
31
0
39
0
210
0
220
0
230
1
0
LINE
5
9C
100
AcDbEntity
8
SK1
62
256
6
ByLayer
370
-1
48
1
60
0
100
AcDbLine
10
0
20
-2.769573
30
0
11
0
21
-5.98301
31
0
39
0
210
0
220
0
230
1
0
LINE
5
9D
100
AcDbEntity
8
SK1
62
256
6
ByLayer
370
-1
48
1
60
0
100
AcDbLine
10
0
20
-15.436852
30
0
11
0
21
-14.842386
31
0
39
0
210
0
220
0
230
1
0
LINE
5
9E
100
AcDbEntity
8
SK1
62
256
6
ByLayer
370
-1
48
1
60
0
100
AcDbLine
10
0
20
-18.487737
30
0
11
0
21
-18.242708
31
0
39
0
210
0
220
0
230
1
0
LINE
5
9F
100
AcDbEntity
8
SK1
62
256
6
ByLayer
370
-1
48
1
60
0
100
AcDbLine
10
0
20
18.699503
30
0
11
0
21
18.879126
31
0
39
0
210
0
220
0
230
1
0
LINE
5
A0
100
AcDbEntity
8
SK1
62
256
6
ByLayer
370
-1
48
1
60
0
100
AcDbLine
10
0
20
19.32088
30
0
11
0
21
19.291583
31
0
39
0
210
0
220
0
230
1
0
LINE
5
A1
100
AcDbEntity
8
1
62
256
6
ByLayer
370
-1
48
1
60
0
100
AcDbLine
10
0
20
-2.769731
30
0
11
0
21
2.769731
31
0
39
0
210
0
220
0
230
1
0
LINE
5
A2
100
AcDbEntity
8
SK1
62
256
6
ByLayer
370
-1
48
1
60
0
100
AcDbLine
10
0
20
-14.183491
30
0
11
0
21
-13.450703
31
0
39
0
210
0
220
0
230
1
0
LINE
5
A3
100
AcDbEntity
8
SK1
62
256
6
ByLayer
370
-1
48
1
60
0
100
AcDbLine
10
0
20
-16.459691
30
0
11
0
21
-15.974086
31
0
39
0
210
0
220
0
230
1
0
LINE
5
A4
100
AcDbEntity
8
1
62
256
6
ByLayer
370
-1
48
1
60
0
100
AcDbLine
10
0
20
18.699503
30
0
11
0
21
18.879126
31
0
39
0
210
0
220
0
230
1
0
LINE
5
A5
100
AcDbEntity
8
SK1
62
256
6
ByLayer
370
-1
48
1
60
0
100
AcDbLine
10
0
20
-19.145402
30
0
11
0
21
-19.027517
31
0
39
0
210
0
220
0
230
1
0
LINE
5
A6
100
AcDbEntity
8
SK1
62
256
6
ByLayer
370
-1
48
1
60
0
100
AcDbLine
10
0
20
19.233341
30
0
11
0
21
19.291745
31
0
39
0
210
0
220
0
230
1
0
LINE
5
A7
100
AcDbEntity
8
1
62
256
6
ByLayer
370
-1
48
1
60
0
100
AcDbLine
10
0
20
-19.145402
30
0
11
0
21
-19.027517
31
0
39
0
210
0
220
0
230
1
0
LINE
5
A8
100
AcDbEntity
8
1
62
256
6
ByLayer
370
-1
48
1
60
0
100
AcDbLine
10
0
20
-15.436852
30
0
11
0
21
-14.842386
31
0
39
0
210
0
220
0
230
1
0
LINE
5
A9
100
AcDbEntity
8
1
62
256
6
ByLayer
370
-1
48
1
60
0
100
AcDbLine
10
0
20
13.450703
30
0
11
0
21
14.183491
31
0
39
0
210
0
220
0
230
1
0
LINE
5
AA
100
AcDbEntity
8
1
62
256
6
ByLayer
370
-1
48
1
60
0
100
AcDbLine
10
0
20
-19.233341
30
0
11
0
21
-19.145388
31
0
39
0
210
0
220
0
230
1
0
LINE
5
AB
100
AcDbEntity
8
SK1
62
256
6
ByLayer
370
-1
48
1
60
0
100
AcDbLine
10
0
20
17.292952
30
0
11
0
21
17.647136
31
0
39
0
210
0
220
0
230
1
0
LINE
5
AC
100
AcDbEntity
8
1
62
256
6
ByLayer
370
-1
48
1
60
0
100
AcDbLine
10
0
20
5.98301
30
0
11
0
21
2.769573
31
0
39
0
210
0
220
0
230
1
0
LINE
5
AD
100
AcDbEntity
8
1
62
256
6
ByLayer
370
-1
48
1
60
0
100
AcDbLine
10
0
20
-2.769573
30
0
11
0
21
-5.98301
31
0
39
0
210
0
220
0
230
1
0
LINE
5
AE
100
AcDbEntity
8
SK1
62
256
6
ByLayer
370
-1
48
1
60
0
100
AcDbLine
10
0
20
-13.450703
30
0
11
0
21
-12.631051
31
0
39
0
210
0
220
0
230
1
0
LINE
5
AF
100
AcDbEntity
8
SK1
62
256
6
ByLayer
370
-1
48
1
60
0
100
AcDbLine
10
0
20
12.631051
30
0
11
0
21
13.450703
31
0
39
0
210
0
220
0
230
1
0
LINE
5
B0
100
AcDbEntity
8
SK1
62
256
6
ByLayer
370
-1
48
1
60
0
100
AcDbLine
10
0
20
-17.963025
30
0
11
0
21
-18.242708
31
0
39
0
210
0
220
0
230
1
0
LINE
5
B1
100
AcDbEntity
8
1
62
256
6
ByLayer
370
-1
48
1
60
0
100
AcDbLine
10
0
20
-12.631168
30
0
11
0
21
-11.706682
31
0
39
0
210
0
220
0
230
1
0
LINE
5
B2
100
AcDbEntity
8
SK1
62
256
6
ByLayer
370
-1
48
1
60
0
100
AcDbLine
10
0
20
-17.963057
30
0
11
0
21
-17.647136
31
0
39
0
210
0
220
0
230
1
0
LINE
5
B3
100
AcDbEntity
8
SK1
62
256
6
ByLayer
370
-1
48
1
60
0
100
AcDbLine
10
0
20
17.647136
30
0
11
0
21
17.963057
31
0
39
0
210
0
220
0
230
1
0
LINE
5
B4
100
AcDbEntity
8
SK1
62
256
6
ByLayer
370
-1
48
1
60
0
100
AcDbLine
10
0
20
11.706682
30
0
11
0
21
12.631168
31
0
39
0
210
0
220
0
230
1
0
LINE
5
B5
100
AcDbEntity
8
SK1
62
256
6
ByLayer
370
-1
48
1
60
0
100
AcDbLine
10
0
20
19.145388
30
0
11
0
21
19.233341
31
0
39
0
210
0
220
0
230
1
0
LINE
5
B6
100
AcDbEntity
8
1
62
256
6
ByLayer
370
-1
48
1
60
0
100
AcDbLine
10
0
20
-14.183491
30
0
11
0
21
-13.450703
31
0
39
0
210
0
220
0
230
1
0
LINE
5
B7
100
AcDbEntity
8
SK1
62
256
6
ByLayer
370
-1
48
1
60
0
100
AcDbLine
10
0
20
16.898119
30
0
11
0
21
16.459648
31
0
39
0
210
0
220
0
230
1
0
LINE
5
B8
100
AcDbEntity
8
SK1
62
256
6
ByLayer
370
-1
48
1
60
0
100
AcDbLine
10
0
20
-10.649949
30
0
11
0
21
-9.41655
31
0
39
0
210
0
220
0
230
1
0
LINE
5
B9
100
AcDbEntity
8
1
62
256
6
ByLayer
370
-1
48
1
60
0
100
AcDbLine
10
0
20
-17.292958
30
0
11
0
21
-16.898119
31
0
39
0
210
0
220
0
230
1
0
LINE
5
BA
100
AcDbEntity
8
SK1
62
256
6
ByLayer
370
-1
48
1
60
0
100
AcDbLine
10
0
20
-19.324519
30
0
11
0
21
-19.32088
31
0
39
0
210
0
220
0
230
1
0
LINE
5
BB
100
AcDbEntity
8
SK1
62
256
6
ByLayer
370
-1
48
1
60
0
100
AcDbLine
10
0
20
-15.974086
30
0
11
0
21
-15.43684
31
0
39
0
210
0
220
0
230
1
0
LINE
5
BC
100
AcDbEntity
8
1
62
256
6
ByLayer
370
-1
48
1
60
0
100
AcDbLine
10
0
20
14.842386
30
0
11
0
21
14.183485
31
0
39
0
210
0
220
0
230
1
0
LINE
5
BD
100
AcDbEntity
8
1
62
256
6
ByLayer
370
-1
48
1
60
0
100
AcDbLine
10
0
20
11.706682
30
0
11
0
21
12.631168
31
0
39
0
210
0
220
0
230
1
0
LINE
5
BE
100
AcDbEntity
8
SK1
62
256
6
ByLayer
370
-1
48
1
60
0
100
AcDbLine
10
0
20
-17.292958
30
0
11
0
21
-16.898119
31
0
39
0
210
0
220
0
230
1
0
LINE
5
BF
100
AcDbEntity
8
1
62
256
6
ByLayer
370
-1
48
1
60
0
100
AcDbLine
10
0
20
-7.924419
30
0
11
0
21
-5.98301
31
0
39
0
210
0
220
0
230
1
0
LINE
5
C0
100
AcDbEntity
8
SK1
62
256
6
ByLayer
370
-1
48
1
60
0
100
AcDbLine
10
0
20
-14.183485
30
0
11
0
21
-14.842386
31
0
39
0
210
0
220
0
230
1
0
LINE
5
C1
100
AcDbEntity
8
SK1
62
256
6
ByLayer
370
-1
48
1
60
0
100
AcDbLine
10
0
20
15.43684
30
0
11
0
21
15.974086
31
0
39
0
210
0
220
0
230
1
0
LINE
5
C2
100
AcDbEntity
8
1
62
256
6
ByLayer
370
-1
48
1
60
0
100
AcDbLine
10
0
20
17.292952
30
0
11
0
21
17.647136
31
0
39
0
210
0
220
0
230
1
0
LINE
5
C3
100
AcDbEntity
8
SK1
62
256
6
ByLayer
370
-1
48
1
60
0
100
AcDbLine
10
0
20
19.32088
30
0
11
0
21
19.324519
31
0
39
0
210
0
220
0
230
1
0
LINE
5
C4
100
AcDbEntity
8
1
62
256
6
ByLayer
370
-1
48
1
60
0
100
AcDbLine
10
0
20
-18.879126
30
0
11
0
21
-18.699503
31
0
39
0
210
0
220
0
230
1
0
LINE
5
C5
100
AcDbEntity
8
1
62
256
6
ByLayer
370
-1
48
1
60
0
100
AcDbLine
10
0
20
18.242708
30
0
11
0
21
18.487737
31
0
39
0
210
0
220
0
230
1
0
LINE
5
C6
100
AcDbEntity
8
SK1
62
256
6
ByLayer
370
-1
48
1
60
0
100
AcDbLine
10
0
20
13.450703
30
0
11
0
21
14.183491
31
0
39
0
210
0
220
0
230
1
0
LINE
5
C7
100
AcDbEntity
8
SK1
62
256
6
ByLayer
370
-1
48
1
60
0
100
AcDbLine
10
0
20
19.027517
30
0
11
0
21
19.145402
31
0
39
0
210
0
220
0
230
1
0
LINE
5
C8
100
AcDbEntity
8
1
62
256
6
ByLayer
370
-1
48
1
60
0
100
AcDbLine
10
0
20
-16.459648
30
0
11
0
21
-16.898119
31
0
39
0
210
0
220
0
230
1
0
LINE
5
C9
100
AcDbEntity
8
SK1
62
256
6
ByLayer
370
-1
48
1
60
0
100
AcDbLine
10
0
20
-19.233341
30
0
11
0
21
-19.145388
31
0
39
0
210
0
220
0
230
1
0
LINE
5
CA
100
AcDbEntity
8
1
62
256
6
ByLayer
370
-1
48
1
60
0
100
AcDbLine
10
0
20
16.898119
30
0
11
0
21
16.459648
31
0
39
0
210
0
220
0
230
1
0
LINE
5
CB
100
AcDbEntity
8
SK1
62
256
6
ByLayer
370
-1
48
1
60
0
100
AcDbLine
10
0
20
5.98301
30
0
11
0
21
7.924419
31
0
39
0
210
0
220
0
230
1
0
LINE
5
CC
100
AcDbEntity
8
1
62
256
6
ByLayer
370
-1
48
1
60
0
100
AcDbLine
10
0
20
-13.450703
30
0
11
0
21
-12.631051
31
0
39
0
210
0
220
0
230
1
0
LINE
5
CD
100
AcDbEntity
8
1
62
256
6
ByLayer
370
-1
48
1
60
0
100
AcDbLine
10
0
20
12.631051
30
0
11
0
21
13.450703
31
0
39
0
210
0
220
0
230
1
0
LINE
5
CE
100
AcDbEntity
8
1
62
256
6
ByLayer
370
-1
48
1
60
0
100
AcDbLine
10
0
20
-18.487737
30
0
11
0
21
-18.242708
31
0
39
0
210
0
220
0
230
1
0
LINE
5
CF
100
AcDbEntity
8
1
62
256
6
ByLayer
370
-1
48
1
60
0
100
AcDbLine
10
25.770269
20
19.011034
30
0
11
25.797244
21
19.392796
31
0
39
0
210
0
220
0
230
1
0
LINE
5
D0
100
AcDbEntity
8
1
62
256
6
ByLayer
370
-1
48
1
60
0
100
AcDbLine
10
25.750273
20
19.01513
30
0
11
25.777463
21
19.399939
31
0
39
0
210
0
220
0
230
1
0
LINE
5
D1
100
AcDbEntity
8
1
62
256
6
ByLayer
370
-1
48
1
60
0
100
AcDbLine
10
26.16592
20
17.878418
30
0
11
26.172841
21
17.976376
31
0
39
0
210
0
220
0
230
1
0
LINE
5
D2
100
AcDbEntity
8
1
62
256
6
ByLayer
370
-1
48
1
60
0
100
AcDbLine
10
28.300266
20
17.804168
30
0
11
28.312544
21
17.977929
31
0
39
0
210
0
220
0
230
1
0
LINE
5
D3
100
AcDbEntity
8
1
62
256
6
ByLayer
370
-1
48
1
60
0
100
AcDbLine
10
27.611372
20
20.029232
30
0
11
27.638347
21
20.410995
31
0
39
0
210
0
220
0
230
1
0
LINE
5
D4
100
AcDbEntity
8
1
62
256
6
ByLayer
370
-1
48
1
60
0
100
AcDbLine
10
26.827025
20
20.051676
30
0
11
26.854215
21
20.436485
31
0
39
0
210
0
220
0
230
1
0
LINE
5
D5
100
AcDbEntity
8
1
62
256
6
ByLayer
370
-1
48
1
60
0
100
AcDbLine
10
28.674538
20
18.997287
30
0
11
28.694534
21
19.001195
31
0
39
0
210
0
220
0
230
1
0
LINE
5
D6
100
AcDbEntity
8
1
62
256
6
ByLayer
370
-1
48
1
60
0
100
AcDbLine
10
28.694534
20
19.001195
30
0
11
28.721724
21
19.386004
31
0
39
0
210
0
220
0
230
1
0
LINE
5
D7
100
AcDbEntity
8
1
62
256
6
ByLayer
370
-1
48
1
60
0
100
AcDbLine
10
27.617782
20
20.047934
30
0
11
27.644972
21
20.432742
31
0
39
0
210
0
220
0
230
1
0
LINE
5
D8
100
AcDbEntity
8
1
62
256
6
ByLayer
370
-1
48
1
60
0
100
AcDbLine
10
28.316621
20
17.828553
30
0
11
28.326345
21
17.966183
31
0
39
0
210
0
220
0
230
1
0
LINE
5
D9
100
AcDbEntity
8
1
62
256
6
ByLayer
370
-1
48
1
60
0
100
AcDbLine
10
28.674538
20
18.997287
30
0
11
28.701512
21
19.379049
31
0
39
0
210
0
220
0
230
1
0
LINE
5
DA
100
AcDbEntity
8
1
62
256
6
ByLayer
370
-1
48
1
60
0
100
AcDbLine
10
26.176645
20
17.852588
30
0
11
26.186212
21
17.987994
31
0
39
0
210
0
220
0
230
1
0
LINE
5
DB
100
AcDbEntity
8
1
62
256
6
ByLayer
370
-1
48
1
60
0
100
AcDbLine
10
25.750273
20
19.01513
30
0
11
25.770269
21
19.011034
31
0
39
0
210
0
220
0
230
1
0
LINE
5
DC
100
AcDbEntity
8
1
62
256
6
ByLayer
370
-1
48
1
60
0
100
AcDbLine
10
27.611372
20
20.029232
30
0
11
27.617782
21
20.047934
31
0
39
0
210
0
220
0
230
1
0
LINE
5
DD
100
AcDbEntity
8
1
62
256
6
ByLayer
370
-1
48
1
60
0
100
AcDbLine
10
26.827025
20
20.051676
30
0
11
26.833435
21
20.032915
31
0
39
0
210
0
220
0
230
1
0
LINE
5
DE
100
AcDbEntity
8
1
62
256
6
ByLayer
370
-1
48
1
60
0
100
AcDbLine
10
26.833435
20
20.032915
30
0
11
26.86041
21
20.414677
31
0
39
0
210
0
220
0
230
1
0
LINE
5
DF
100
AcDbEntity
8
1
62
256
6
ByLayer
370
-1
48
1
60
0
100
AcDbLine
10
24.025223
20
22.648729
30
0
11
24.025223
21
22.496736
31
0
39
0
210
0
220
0
230
1
0
LINE
5
E0
100
AcDbEntity
8
1
62
256
6
ByLayer
370
-1
48
1
60
0
100
AcDbLine
10
22.698874
20
21.76273
30
0
11
22.698874
21
22.064112
31
0
39
0
210
0
220
0
230
1
0
LINE
5
E1
100
AcDbEntity
8
1
62
256
6
ByLayer
370
-1
48
1
60
0
100
AcDbLine
10
19.431842
20
17.704519
30
0
11
19.431842
21
16.721064
31
0
39
0
210
0
220
0
230
1
0
LINE
5
E2
100
AcDbEntity
8
1
62
256
6
ByLayer
370
-1
48
1
60
0
100
AcDbLine
10
22.966633
20
22.467845
30
0
11
22.966633
21
21.910817
31
0
39
0
210
0
220
0
230
1
0
LINE
5
E3
100
AcDbEntity
8
1
62
256
6
ByLayer
370
-1
48
1
60
0
100
AcDbLine
10
19.598561
20
16.877234
30
0
11
19.598561
21
17.701386
31
0
39
0
210
0
220
0
230
1
0
LINE
5
E4
100
AcDbEntity
8
1
62
256
6
ByLayer
370
-1
48
1
60
0
100
AcDbLine
10
22.622353
20
21.720391
30
0
11
22.698874
21
22.064112
31
0
39
0
210
0
220
0
230
1
0
LINE
5
E5
100
AcDbEntity
8
1
62
256
6
ByLayer
370
-1
48
1
60
0
100
AcDbLine
10
24.20842
20
22.62709
30
0
11
24.20842
21
22.598079
31
0
39
0
210
0
220
0
230
1
0
LINE
5
E6
100
AcDbEntity
8
1
62
256
6
ByLayer
370
-1
48
1
60
0
100
AcDbLine
10
23.298354
20
22.54496
30
0
11
23.298354
21
22.094386
31
0
39
0
210
0
220
0
230
1
0
LINE
5
E7
100
AcDbEntity
8
1
62
256
6
ByLayer
370
-1
48
1
60
0
100
AcDbLine
10
23.192212
20
22.51945
30
0
11
23.192212
21
22.035719
31
0
39
0
210
0
220
0
230
1
0
LINE
5
E8
100
AcDbEntity
8
1
62
256
6
ByLayer
370
-1
48
1
60
0
100
AcDbLine
10
24.025223
20
22.648729
30
0
11
23.727775
21
22.649778
31
0
39
0
210
0
220
0
230
1
0
LINE
5
E9
100
AcDbEntity
8
1
62
256
6
ByLayer
370
-1
48
1
60
0
100
AcDbLine
10
22.863217
20
22.421477
30
0
11
22.863217
21
21.853651
31
0
39
0
210
0
220
0
230
1
0
LINE
5
EA
100
AcDbEntity
8
1
62
256
6
ByLayer
370
-1
48
1
60
0
100
AcDbLine
10
23.727775
20
22.649778
30
0
11
23.727775
21
22.332096
31
0
39
0
210
0
220
0
230
1
0
LINE
5
EB
100
AcDbEntity
8
1
62
256
6
ByLayer
370
-1
48
1
60
0
100
AcDbLine
10
23.542367
20
22.62944
30
0
11
23.542367
21
22.229475
31
0
39
0
210
0
220
0
230
1
0
LINE
5
EC
100
AcDbEntity
8
1
62
256
6
ByLayer
370
-1
48
1
60
0
100
AcDbLine
10
19.916763
20
16.698707
30
0
11
19.598561
21
16.877234
31
0
39
0
210
0
220
0
230
1
0
LINE
5
ED
100
AcDbEntity
8
SK1
62
256
6
ByLayer
370
-1
48
1
60
0
100
AcDbLine
10
-0.324519
20
-18.948427
30
0
11
-0.324519
21
-18.932424
31
0
39
0
210
0
220
0
230
1
0
LINE
5
EE
100
AcDbEntity
8
1
62
256
6
ByLayer
370
-1
48
1
60
0
100
AcDbLine
10
9.560885
20
-12.318044
30
0
11
8.888801
21
-20
31
0
39
0
210
0
220
0
230
1
0
LINE
5
EF
100
AcDbEntity
8
1
62
256
6
ByLayer
370
-1
48
1
60
0
100
AcDbLine
10
31.433155
20
10.889077
30
0
11
31.433155
21
1.77692
31
0
39
0
210
0
220
0
230
1
0
LINE
5
F0
100
AcDbEntity
8
1
62
256
6
ByLayer
370
-1
48
1
60
0
100
AcDbLine
10
16.273929
20
23.470666
30
0
11
16.273929
21
23.470983
31
0
39
0
210
0
220
0
230
1
0
LINE
5
F1
100
AcDbEntity
8
1
62
256
6
ByLayer
370
-1
48
1
60
0
100
AcDbLine
10
0.394519
20
-17.841722
30
0
11
0.394519
21
-17.97736
31
0
39
0
210
0
220
0
230
1
0
LINE
5
F2
100
AcDbEntity
8
1
62
256
6
ByLayer
370
-1
48
1
60
0
100
AcDbLine
10
0.394519
20
13.782314
30
0
11
0.394519
21
13.474366
31
0
39
0
210
0
220
0
230
1
0
LINE
5
F3
100
AcDbEntity
8
1
62
256
6
ByLayer
370
-1
48
1
60
0
100
AcDbLine
10
0.394519
20
-13.474366
30
0
11
0.394519
21
-13.782314
31
0
39
0
210
0
220
0
230
1
0
LINE
5
F4
100
AcDbEntity
8
SK1
62
256
6
ByLayer
370
-1
48
1
60
0
100
AcDbLine
10
-0.324519
20
-11.790712
30
0
11
-0.324519
21
-11.530772
31
0
39
0
210
0
220
0
230
1
0
LINE
5
F5
100
AcDbEntity
8
1
62
256
6
ByLayer
370
-1
48
1
60
0
100
AcDbLine
10
0.394519
20
19.047366
30
0
11
0.394519
21
18.965951
31
0
39
0
210
0
220
0
230
1
0
LINE
5
F6
100
AcDbEntity
8
SK1
62
256
6
ByLayer
370
-1
48
1
60
0
100
AcDbLine
10
-0.249519
20
-16.939826
30
0
11
-0.249519
21
-17.438125
31
0
39
0
210
0
220
0
230
1
0
LINE
5
F7
100
AcDbEntity
8
1
62
256
6
ByLayer
370
-1
48
1
60
0
100
AcDbLine
10
0.394519
20
-17.055333
30
0
11
0.394519
21
-17.222867
31
0
39
0
210
0
220
0
230
1
0
LINE
5
F8
100
AcDbEntity
8
1
62
256
6
ByLayer
370
-1
48
1
60
0
100
AcDbLine
10
0.394519
20
-19.698551
30
0
11
0.394519
21
-19.709823
31
0
39
0
210
0
220
0
230
1
0
LINE
5
F9
100
AcDbEntity
8
SK1
62
256
6
ByLayer
370
-1
48
1
60
0
100
AcDbLine
10
-0.324519
20
9.241515
30
0
11
-0.324519
21
9.595519
31
0
39
0
210
0
220
0
230
1
0
LINE
5
FA
100
AcDbEntity
8
SK1
62
256
6
ByLayer
370
-1
48
1
60
0
100
AcDbLine
10
-0.324519
20
-17.500152
30
0
11
-0.324519
21
-17.413335
31
0
39
0
210
0
220
0
230
1
0
LINE
5
FB
100
AcDbEntity
8
SK1
62
256
6
ByLayer
370
-1
48
1
60
0
100
AcDbLine
10
-0.249519
20
18.028616
30
0
11
-0.249519
21
17.635622
31
0
39
0
210
0
220
0
230
1
0
LINE
5
FC
100
AcDbEntity
8
SK1
62
256
6
ByLayer
370
-1
48
1
60
0
100
AcDbLine
10
-0.324519
20
17.993814
30
0
11
-0.324519
21
18.061069
31
0
39
0
210
0
220
0
230
1
0
LINE
5
FD
100
AcDbEntity
8
1
62
256
6
ByLayer
370
-1
48
1
60
0
100
AcDbLine
10
16.759072
20
23.470983
30
0
11
16.273929
21
23.470983
31
0
39
0
210
0
220
0
230
1
0
LINE
5
FE
100
AcDbEntity
8
1
62
256
6
ByLayer
370
-1
48
1
60
0
100
AcDbLine
10
16.759072
20
23.470983
30
0
11
22.438312
21
23.4462
31
0
39
0
210
0
220
0
230
1
0
LINE
5
FF
100
AcDbEntity
8
SK1
62
256
6
ByLayer
370
-1
48
1
60
0
100
AcDbLine
10
-0.324519
20
18.932424
30
0
11
-0.324519
21
18.777527
31
0
39
0
210
0
220
0
230
1
0
LINE
5
100
100
AcDbEntity
8
1
62
256
6
ByLayer
370
-1
48
1
60
0
100
AcDbLine
10
0.394519
20
17.97736
30
0
11
0.394519
21
17.841722
31
0
39
0
210
0
220
0
230
1
0
LINE
5
101
100
AcDbEntity
8
SK1
62
256
6
ByLayer
370
-1
48
1
60
0
100
AcDbLine
10
-0.249519
20
-12.071893
30
0
11
-0.249519
21
-13.240729
31
0
39
0
210
0
220
0
230
1
0
LINE
5
102
100
AcDbEntity
8
SK1
62
256
6
ByLayer
370
-1
48
1
60
0
100
AcDbLine
10
-0.324519
20
5.775161
30
0
11
-0.324519
21
-5.775161
31
0
39
0
210
0
220
0
230
1
0
LINE
5
103
100
AcDbEntity
8
1
62
256
6
ByLayer
370
-1
48
1
60
0
100
AcDbLine
10
0.394519
20
-16.091699
30
0
11
0.394519
21
-16.296283
31
0
39
0
210
0
220
0
230
1
0
LINE
5
104
100
AcDbEntity
8
1
62
256
6
ByLayer
370
-1
48
1
60
0
100
AcDbLine
10
0.394519
20
6.540428
30
0
11
0.394519
21
5.633353
31
0
39
0
210
0
220
0
230
1
0
LINE
5
105
100
AcDbEntity
8
1
62
256
6
ByLayer
370
-1
48
1
60
0
100
AcDbLine
10
0.394519
20
-5.633353
30
0
11
0.394519
21
-6.540428
31
0
39
0
210
0
220
0
230
1
0
LINE
5
106
100
AcDbEntity
8
1
62
256
6
ByLayer
370
-1
48
1
60
0
100
AcDbLine
10
0.675481
20
-20
30
0
11
0.675481
21
20
31
0
39
0
210
0
220
0
230
1
0
LINE
5
107
100
AcDbEntity
8
1
62
256
6
ByLayer
370
-1
48
1
60
0
100
AcDbLine
10
10.025133
20
12.284905
30
0
11
10.023786
21
19.738168
31
0
39
0
210
0
220
0
230
1
0
LINE
5
108
100
AcDbEntity
8
1
62
256
6
ByLayer
370
-1
48
1
60
0
100
AcDbLine
10
11.205143
20
9.695387
30
0
11
11.203298
21
19.90791
31
0
39
0
210
0
220
0
230
1
0
LINE
5
109
100
AcDbEntity
8
1
62
256
6
ByLayer
370
-1
48
1
60
0
100
AcDbLine
10
11.207767
20
-4.827297
30
0
11
11.205548
21
7.453269
31
0
39
0
210
0
220
0
230
1
0
LINE
5
10A
100
AcDbEntity
8
1
62
256
6
ByLayer
370
-1
48
1
60
0
100
AcDbLine
10
10.028192
20
-4.65133
30
0
11
10.026359
21
5.495293
31
0
39
0
210
0
220
0
230
1
0
LINE
5
10B
100
AcDbEntity
8
SK1
62
256
6
ByLayer
370
-1
48
1
60
0
100
AcDbLine
10
-0.324519
20
5.775161
30
0
11
-0.324519
21
6.373939
31
0
39
0
210
0
220
0
230
1
0
LINE
5
10C
100
AcDbEntity
8
SK1
62
256
6
ByLayer
370
-1
48
1
60
0
100
AcDbLine
10
-0.249519
20
15.770306
30
0
11
-0.249519
21
15.011486
31
0
39
0
210
0
220
0
230
1
0
LINE
5
10D
100
AcDbEntity
8
1
62
256
6
ByLayer
370
-1
48
1
60
0
100
AcDbLine
10
0.394519
20
19.709823
30
0
11
0.394519
21
19.698551
31
0
39
0
210
0
220
0
230
1
0
LINE
5
10E
100
AcDbEntity
8
SK1
62
256
6
ByLayer
370
-1
48
1
60
0
100
AcDbLine
10
-0.324519
20
16.678463
30
0
11
-0.324519
21
15.901587
31
0
39
0
210
0
220
0
230
1
0
LINE
5
10F
100
AcDbEntity
8
SK1
62
256
6
ByLayer
370
-1
48
1
60
0
100
AcDbLine
10
-0.324519
20
13.266944
30
0
11
-0.324519
21
13.470997
31
0
39
0
210
0
220
0
230
1
0
LINE
5
110
100
AcDbEntity
8
SK1
62
256
6
ByLayer
370
-1
48
1
60
0
100
AcDbLine
10
-0.324519
20
17.413335
30
0
11
-0.324519
21
17.500152
31
0
39
0
210
0
220
0
230
1
0
LINE
5
111
100
AcDbEntity
8
1
62
256
6
ByLayer
370
-1
48
1
60
0
100
AcDbLine
10
0.394519
20
17.222867
30
0
11
0.394519
21
17.055333
31
0
39
0
210
0
220
0
230
1
0
LINE
5
112
100
AcDbEntity
8
SK1
62
256
6
ByLayer
370
-1
48
1
60
0
100
AcDbLine
10
-0.324519
20
18.745228
30
0
11
-0.324519
21
18.77754
31
0
39
0
210
0
220
0
230
1
0
LINE
5
113
100
AcDbEntity
8
1
62
256
6
ByLayer
370
-1
48
1
60
0
100
AcDbLine
10
19.885958
20
19.678267
30
0
11
18.268384
21
18.783688
31
0
39
0
210
0
220
0
230
1
0
LINE
5
114
100
AcDbEntity
8
1
62
256
6
ByLayer
370
-1
48
1
60
0
100
AcDbLine
10
22.303778
20
21.544088
30
0
11
22.438312
21
22.0143
31
0
39
0
210
0
220
0
230
1
0
LINE
5
115
100
AcDbEntity
8
1
62
256
6
ByLayer
370
-1
48
1
60
0
100
AcDbLine
10
22.438312
20
22.0143
30
0
11
19.030248
21
20.128563
31
0
39
0
210
0
220
0
230
1
0
LINE
5
116
100
AcDbEntity
8
1
62
256
6
ByLayer
370
-1
48
1
60
0
100
AcDbLine
10
31.433155
20
10.889077
30
0
11
31.419707
21
10.937135
31
0
39
0
210
0
220
0
230
1
0
LINE
5
117
100
AcDbEntity
8
1
62
256
6
ByLayer
370
-1
48
1
60
0
100
AcDbLine
10
22.408016
20
21.908401
30
0
11
22.408016
21
21.601765
31
0
39
0
210
0
220
0
230
1
0
LINE
5
118
100
AcDbEntity
8
SK1
62
256
6
ByLayer
370
-1
48
1
60
0
100
AcDbLine
10
-0.324519
20
-11.987818
30
0
11
-0.324519
21
-13.266944
31
0
39
0
210
0
220
0
230
1
0
LINE
5
119
100
AcDbEntity
8
SK1
62
256
6
ByLayer
370
-1
48
1
60
0
100
AcDbLine
10
-0.324519
20
18.999731
30
0
11
-0.324519
21
19
31
0
39
0
210
0
220
0
230
1
0
LINE
5
11A
100
AcDbEntity
8
SK1
62
256
6
ByLayer
370
-1
48
1
60
0
100
AcDbLine
10
-0.249519
20
13.240729
30
0
11
-0.249519
21
12.071893
31
0
39
0
210
0
220
0
230
1
0
LINE
5
11B
100
AcDbEntity
8
1
62
256
6
ByLayer
370
-1
48
1
60
0
100
AcDbLine
10
0.394519
20
-19.572716
30
0
11
0.394519
21
-19.606601
31
0
39
0
210
0
220
0
230
1
0
LINE
5
11C
100
AcDbEntity
8
SK1
62
256
6
ByLayer
370
-1
48
1
60
0
100
AcDbLine
10
-0.324519
20
11.530772
30
0
11
-0.324519
21
11.790712
31
0
39
0
210
0
220
0
230
1
0
LINE
5
11D
100
AcDbEntity
8
SK1
62
256
6
ByLayer
370
-1
48
1
60
0
100
AcDbLine
10
-0.324519
20
-13.470997
30
0
11
-0.324519
21
-13.266944
31
0
39
0
210
0
220
0
230
1
0
LINE
5
11E
100
AcDbEntity
8
SK1
62
256
6
ByLayer
370
-1
48
1
60
0
100
AcDbLine
10
-0.324519
20
18.932424
30
0
11
-0.324519
21
18.948427
31
0
39
0
210
0
220
0
230
1
0
LINE
5
11F
100
AcDbEntity
8
SK1
62
256
6
ByLayer
370
-1
48
1
60
0
100
AcDbLine
10
-0.324519
20
-6.373939
30
0
11
-0.324519
21
-5.775161
31
0
39
0
210
0
220
0
230
1
0
LINE
5
120
100
AcDbEntity
8
1
62
256
6
ByLayer
370
-1
48
1
60
0
100
AcDbLine
10
13.587837
20
20.28577
30
0
11
13.587837
21
20.206151
31
0
39
0
210
0
220
0
230
1
0
LINE
5
121
100
AcDbEntity
8
1
62
256
6
ByLayer
370
-1
48
1
60
0
100
AcDbLine
10
12.975001
20
20
30
0
11
12.975001
21
19.910941
31
0
39
0
210
0
220
0
230
1
0
LINE
5
122
100
AcDbEntity
8
1
62
256
6
ByLayer
370
-1
48
1
60
0
100
AcDbLine
10
28.884554
20
12.363169
30
0
11
31.419707
21
10.937135
31
0
39
0
210
0
220
0
230
1
0
LINE
5
123
100
AcDbEntity
8
1
62
256
6
ByLayer
370
-1
48
1
60
0
100
AcDbLine
10
20.841327
20
16.887517
30
0
11
22.82339
21
15.772598
31
0
39
0
210
0
220
0
230
1
0
LINE
5
124
100
AcDbEntity
8
1
62
256
6
ByLayer
370
-1
48
1
60
0
100
AcDbLine
10
23.531977
20
15.393502
30
0
11
28.27199
21
12.727226
31
0
39
0
210
0
220
0
230
1
0
LINE
5
125
100
AcDbEntity
8
1
62
256
6
ByLayer
370
-1
48
1
60
0
100
AcDbLine
10
20.841327
20
16.887517
30
0
11
20.681866
21
16.944103
31
0
39
0
210
0
220
0
230
1
0
LINE
5
126
100
AcDbEntity
8
1
62
256
6
ByLayer
370
-1
48
1
60
0
100
AcDbLine
10
31.433155
20
10.889077
30
0
11
22.39467
21
15.973916
31
0
39
0
210
0
220
0
230
1
0
LINE
5
127
100
AcDbEntity
8
1
62
256
6
ByLayer
370
-1
48
1
60
0
100
AcDbLine
10
22.438312
20
23.4462
30
0
11
22.438312
21
22.0143
31
0
39
0
210
0
220
0
230
1
0
LINE
5
128
100
AcDbEntity
8
SK1
62
256
6
ByLayer
370
-1
48
1
60
0
100
AcDbLine
10
-0.324519
20
17.993814
30
0
11
-0.324519
21
17.500131
31
0
39
0
210
0
220
0
230
1
0
LINE
5
129
100
AcDbEntity
8
SK1
62
256
6
ByLayer
370
-1
48
1
60
0
100
AcDbLine
10
-0.324519
20
-15.901621
30
0
11
-0.324519
21
-15.767626
31
0
39
0
210
0
220
0
230
1
0
LINE
5
12A
100
AcDbEntity
8
SK1
62
256
6
ByLayer
370
-1
48
1
60
0
100
AcDbLine
10
-0.324519
20
16.678463
30
0
11
-0.324519
21
16.787151
31
0
39
0
210
0
220
0
230
1
0
LINE
5
12B
100
AcDbEntity
8
SK1
62
256
6
ByLayer
370
-1
48
1
60
0
100
AcDbLine
10
-0.324519
20
13.266944
30
0
11
-0.324519
21
11.987818
31
0
39
0
210
0
220
0
230
1
0
LINE
5
12C
100
AcDbEntity
8
SK1
62
256
6
ByLayer
370
-1
48
1
60
0
100
AcDbLine
10
-0.324519
20
17.413335
30
0
11
-0.324519
21
16.787098
31
0
39
0
210
0
220
0
230
1
0
LINE
5
12D
100
AcDbEntity
8
SK1
62
256
6
ByLayer
370
-1
48
1
60
0
100
AcDbLine
10
-0.324519
20
14.648035
30
0
11
-0.324519
21
14.812652
31
0
39
0
210
0
220
0
230
1
0
LINE
5
12E
100
AcDbEntity
8
SK1
62
256
6
ByLayer
370
-1
48
1
60
0
100
AcDbLine
10
-0.324519
20
-9.595519
30
0
11
-0.324519
21
-9.241515
31
0
39
0
210
0
220
0
230
1
0
LINE
5
12F
100
AcDbEntity
8
1
62
256
6
ByLayer
370
-1
48
1
60
0
100
AcDbLine
10
0.394519
20
19.606601
30
0
11
0.394519
21
19.572716
31
0
39
0
210
0
220
0
230
1
0
LINE
5
130
100
AcDbEntity
8
SK1
62
256
6
ByLayer
370
-1
48
1
60
0
100
AcDbLine
10
-0.249519
20
17.438125
30
0
11
-0.249519
21
16.939826
31
0
39
0
210
0
220
0
230
1
0
LINE
5
131
100
AcDbEntity
8
SK1
62
256
6
ByLayer
370
-1
48
1
60
0
100
AcDbLine
10
-0.324519
20
-18.061069
30
0
11
-0.324519
21
-17.993814
31
0
39
0
210
0
220
0
230
1
0
LINE
5
132
100
AcDbEntity
8
1
62
256
6
ByLayer
370
-1
48
1
60
0
100
AcDbLine
10
0.394519
20
19.387121
30
0
11
0.394519
21
19.330076
31
0
39
0
210
0
220
0
230
1
0
LINE
5
133
100
AcDbEntity
8
SK1
62
256
6
ByLayer
370
-1
48
1
60
0
100
AcDbLine
10
-0.324519
20
14.648035
30
0
11
-0.324519
21
13.534838
31
0
39
0
210
0
220
0
230
1
0
LINE
5
134
100
AcDbEntity
8
1
62
256
6
ByLayer
370
-1
48
1
60
0
100
AcDbLine
10
0.394519
20
12.057937
30
0
11
0.394519
21
11.666808
31
0
39
0
210
0
220
0
230
1
0
LINE
5
135
100
AcDbEntity
8
1
62
256
6
ByLayer
370
-1
48
1
60
0
100
AcDbLine
10
0.394519
20
-11.666808
30
0
11
0.394519
21
-12.057937
31
0
39
0
210
0
220
0
230
1
0
LINE
5
136
100
AcDbEntity
8
1
62
256
6
ByLayer
370
-1
48
1
60
0
100
AcDbLine
10
0.394519
20
18.580738
30
0
11
0.394519
21
18.473429
31
0
39
0
210
0
220
0
230
1
0
LINE
5
137
100
AcDbEntity
8
SK1
62
256
6
ByLayer
370
-1
48
1
60
0
100
AcDbLine
10
-0.249519
20
16.692674
30
0
11
-0.249519
21
16.074887
31
0
39
0
210
0
220
0
230
1
0
LINE
5
138
100
AcDbEntity
8
SK1
62
256
6
ByLayer
370
-1
48
1
60
0
100
AcDbLine
10
-0.249519
20
18.479011
30
0
11
-0.249519
21
18.181625
31
0
39
0
210
0
220
0
230
1
0
LINE
5
139
100
AcDbEntity
8
SK1
62
256
6
ByLayer
370
-1
48
1
60
0
100
AcDbLine
10
-0.324519
20
9.241515
30
0
11
-0.324519
21
6.373757
31
0
39
0
210
0
220
0
230
1
0
LINE
5
13A
100
AcDbEntity
8
SK1
62
256
6
ByLayer
370
-1
48
1
60
0
100
AcDbLine
10
-0.324519
20
-6.373757
30
0
11
-0.324519
21
-9.241515
31
0
39
0
210
0
220
0
230
1
0
LINE
5
13B
100
AcDbEntity
8
SK1
62
256
6
ByLayer
370
-1
48
1
60
0
100
AcDbLine
10
-0.249519
20
9.161401
30
0
11
-0.249519
21
6.936326
31
0
39
0
210
0
220
0
230
1
0
LINE
5
13C
100
AcDbEntity
8
SK1
62
256
6
ByLayer
370
-1
48
1
60
0
100
AcDbLine
10
-0.249519
20
-6.936326
30
0
11
-0.249519
21
-9.161401
31
0
39
0
210
0
220
0
230
1
0
LINE
5
13D
100
AcDbEntity
8
SK1
62
256
6
ByLayer
370
-1
48
1
60
0
100
AcDbLine
10
-0.249519
20
-18.87287
30
0
11
-0.249519
21
-18.996302
31
0
39
0
210
0
220
0
230
1
0
LINE
5
13E
100
AcDbEntity
8
SK1
62
256
6
ByLayer
370
-1
48
1
60
0
100
AcDbLine
10
-0.324519
20
11.530772
30
0
11
-0.324519
21
9.595404
31
0
39
0
210
0
220
0
230
1
0
LINE
5
13F
100
AcDbEntity
8
SK1
62
256
6
ByLayer
370
-1
48
1
60
0
100
AcDbLine
10
-0.324519
20
-9.595404
30
0
11
-0.324519
21
-11.530772
31
0
39
0
210
0
220
0
230
1
0
LINE
5
140
100
AcDbEntity
8
SK1
62
256
6
ByLayer
370
-1
48
1
60
0
100
AcDbLine
10
-0.249519
20
-15.011486
30
0
11
-0.249519
21
-15.770306
31
0
39
0
210
0
220
0
230
1
0
LINE
5
141
100
AcDbEntity
8
SK1
62
256
6
ByLayer
370
-1
48
1
60
0
100
AcDbLine
10
-0.324519
20
-14.812662
30
0
11
-0.324519
21
-15.767626
31
0
39
0
210
0
220
0
230
1
0
LINE
5
142
100
AcDbEntity
8
1
62
256
6
ByLayer
370
-1
48
1
60
0
100
AcDbLine
10
0.394519
20
9.815066
30
0
11
0.394519
21
9.282906
31
0
39
0
210
0
220
0
230
1
0
LINE
5
143
100
AcDbEntity
8
1
62
256
6
ByLayer
370
-1
48
1
60
0
100
AcDbLine
10
0.394519
20
-9.282906
30
0
11
0.394519
21
-9.815066
31
0
39
0
210
0
220
0
230
1
0
LINE
5
144
100
AcDbEntity
8
SK1
62
256
6
ByLayer
370
-1
48
1
60
0
100
AcDbLine
10
-0.249519
20
-13.703567
30
0
11
-0.249519
21
-14.637614
31
0
39
0
210
0
220
0
230
1
0
LINE
5
145
100
AcDbEntity
8
SK1
62
256
6
ByLayer
370
-1
48
1
60
0
100
AcDbLine
10
-0.249519
20
-19.032647
30
0
11
-0.249519
21
-19.073602
31
0
39
0
210
0
220
0
230
1
0
LINE
5
146
100
AcDbEntity
8
SK1
62
256
6
ByLayer
370
-1
48
1
60
0
100
AcDbLine
10
-0.324519
20
-14.812652
30
0
11
-0.324519
21
-14.648035
31
0
39
0
210
0
220
0
230
1
0
LINE
5
147
100
AcDbEntity
8
SK1
62
256
6
ByLayer
370
-1
48
1
60
0
100
AcDbLine
10
-0.249519
20
19.073602
30
0
11
-0.249519
21
19.032647
31
0
39
0
210
0
220
0
230
1
0
LINE
5
148
100
AcDbEntity
8
1
62
256
6
ByLayer
370
-1
48
1
60
0
100
AcDbLine
10
0.394519
20
16.296283
30
0
11
0.394519
21
16.091699
31
0
39
0
210
0
220
0
230
1
0
LINE
5
149
100
AcDbEntity
8
SK1
62
256
6
ByLayer
370
-1
48
1
60
0
100
AcDbLine
10
-0.324519
20
-11.805856
30
0
11
-0.324519
21
-11.987821
31
0
39
0
210
0
220
0
230
1
0
LINE
5
14A
100
AcDbEntity
8
SK1
62
256
6
ByLayer
370
-1
48
1
60
0
100
AcDbLine
10
-0.324519
20
-17.500131
30
0
11
-0.324519
21
-17.993814
31
0
39
0
210
0
220
0
230
1
0
LINE
5
14B
100
AcDbEntity
8
SK1
62
256
6
ByLayer
370
-1
48
1
60
0
100
AcDbLine
10
-0.324519
20
-16.787151
30
0
11
-0.324519
21
-16.678463
31
0
39
0
210
0
220
0
230
1
0
LINE
5
14C
100
AcDbEntity
8
SK1
62
256
6
ByLayer
370
-1
48
1
60
0
100
AcDbLine
10
-0.324519
20
-18.77754
30
0
11
-0.324519
21
-18.745228
31
0
39
0
210
0
220
0
230
1
0
LINE
5
14D
100
AcDbEntity
8
SK1
62
256
6
ByLayer
370
-1
48
1
60
0
100
AcDbLine
10
-0.324519
20
-19
30
0
11
-0.324519
21
-18.999731
31
0
39
0
210
0
220
0
230
1
0
LINE
5
14E
100
AcDbEntity
8
SK1
62
256
6
ByLayer
370
-1
48
1
60
0
100
AcDbLine
10
-0.249519
20
-17.635622
30
0
11
-0.249519
21
-18.028616
31
0
39
0
210
0
220
0
230
1
0
LINE
5
14F
100
AcDbEntity
8
1
62
256
6
ByLayer
370
-1
48
1
60
0
100
AcDbLine
10
0.394519
20
-18.473429
30
0
11
0.394519
21
-18.580738
31
0
39
0
210
0
220
0
230
1
0
LINE
5
150
100
AcDbEntity
8
SK1
62
256
6
ByLayer
370
-1
48
1
60
0
100
AcDbLine
10
-0.249519
20
18.799379
30
0
11
-0.249519
21
18.591085
31
0
39
0
210
0
220
0
230
1
0
LINE
5
151
100
AcDbEntity
8
SK1
62
256
6
ByLayer
370
-1
48
1
60
0
100
AcDbLine
10
-0.324519
20
15.767626
30
0
11
-0.324519
21
15.901621
31
0
39
0
210
0
220
0
230
1
0
LINE
5
152
100
AcDbEntity
8
1
62
256
6
ByLayer
370
-1
48
1
60
0
100
AcDbLine
10
0.394519
20
15.166097
30
0
11
0.394519
21
14.916479
31
0
39
0
210
0
220
0
230
1
0
LINE
5
153
100
AcDbEntity
8
1
62
256
6
ByLayer
370
-1
48
1
60
0
100
AcDbLine
10
5.9
20
-10.535654
30
0
11
5.9
21
10.535654
31
0
39
0
210
0
220
0
230
1
0
LINE
5
154
100
AcDbEntity
8
1
62
256
6
ByLayer
370
-1
48
1
60
0
100
AcDbLine
10
10.019464
20
10.535654
30
0
11
5.9
21
10.535654
31
0
39
0
210
0
220
0
230
1
0
LINE
5
155
100
AcDbEntity
8
1
62
256
6
ByLayer
370
-1
48
1
60
0
100
AcDbLine
10
10.026105
20
-10.057162
30
0
11
10.019464
21
10.535654
31
0
39
0
210
0
220
0
230
1
0
LINE
5
156
100
AcDbEntity
8
1
62
256
6
ByLayer
370
-1
48
1
60
0
100
AcDbLine
10
5.9
20
-10.535654
30
0
11
9.881433
21
-10.535654
31
0
39
0
210
0
220
0
230
1
0
LINE
5
157
100
AcDbEntity
8
1
62
256
6
ByLayer
370
-1
48
1
60
0
100
AcDbLine
10
5.5
20
-9.861034
30
0
11
5.5
21
9.861034
31
0
39
0
210
0
220
0
230
1
0
LINE
5
158
100
AcDbEntity
8
1
62
256
6
ByLayer
370
-1
48
1
60
0
100
AcDbLine
10
19.522832
20
-3.189601
30
0
11
25.522832
21
-3.189601
31
0
39
0
210
0
220
0
230
1
0
LINE
5
159
100
AcDbEntity
8
1
62
256
6
ByLayer
370
-1
48
1
60
0
100
AcDbLine
10
0.394519
20
-14.916479
30
0
11
0.394519
21
-15.166097
31
0
39
0
210
0
220
0
230
1
0
LINE
5
15A
100
AcDbEntity
8
SK1
62
256
6
ByLayer
370
-1
48
1
60
0
100
AcDbLine
10
-0.324519
20
-15.901587
30
0
11
-0.324519
21
-16.678463
31
0
39
0
210
0
220
0
230
1
0
LINE
5
15B
100
AcDbEntity
8
SK1
62
256
6
ByLayer
370
-1
48
1
60
0
100
AcDbLine
10
-0.249519
20
-18.181625
30
0
11
-0.249519
21
-18.479011
31
0
39
0
210
0
220
0
230
1
0
LINE
5
15C
100
AcDbEntity
8
SK1
62
256
6
ByLayer
370
-1
48
1
60
0
100
AcDbLine
10
-0.324519
20
15.767626
30
0
11
-0.324519
21
14.812662
31
0
39
0
210
0
220
0
230
1
0
LINE
5
15D
100
AcDbEntity
8
SK1
62
256
6
ByLayer
370
-1
48
1
60
0
100
AcDbLine
10
-0.324519
20
-16.787098
30
0
11
-0.324519
21
-17.413335
31
0
39
0
210
0
220
0
230
1
0
LINE
5
15E
100
AcDbEntity
8
SK1
62
256
6
ByLayer
370
-1
48
1
60
0
100
AcDbLine
10
-0.324519
20
-18.483753
30
0
11
-0.324519
21
-18.434491
31
0
39
0
210
0
220
0
230
1
0
LINE
5
15F
100
AcDbEntity
8
SK1
62
256
6
ByLayer
370
-1
48
1
60
0
100
AcDbLine
10
-0.324519
20
-18.483743
30
0
11
-0.324519
21
-18.745228
31
0
39
0
210
0
220
0
230
1
0
LINE
5
160
100
AcDbEntity
8
SK1
62
256
6
ByLayer
370
-1
48
1
60
0
100
AcDbLine
10
-0.324519
20
-18.948416
30
0
11
-0.324519
21
-18.999731
31
0
39
0
210
0
220
0
230
1
0
LINE
5
161
100
AcDbEntity
8
SK1
62
256
6
ByLayer
370
-1
48
1
60
0
100
AcDbLine
10
-0.249519
20
14.637614
30
0
11
-0.249519
21
13.703567
31
0
39
0
210
0
220
0
230
1
0
LINE
5
162
100
AcDbEntity
8
SK1
62
256
6
ByLayer
370
-1
48
1
60
0
100
AcDbLine
10
-0.249519
20
-18.591085
30
0
11
-0.249519
21
-18.799379
31
0
39
0
210
0
220
0
230
1
0
LINE
5
163
100
AcDbEntity
8
SK1
62
256
6
ByLayer
370
-1
48
1
60
0
100
AcDbLine
10
-0.324519
20
-18.777527
30
0
11
-0.324519
21
-18.932424
31
0
39
0
210
0
220
0
230
1
0
LINE
5
164
100
AcDbEntity
8
SK1
62
256
6
ByLayer
370
-1
48
1
60
0
100
AcDbLine
10
-0.249519
20
11.483644
30
0
11
-0.249519
21
9.958473
31
0
39
0
210
0
220
0
230
1
0
LINE
5
165
100
AcDbEntity
8
SK1
62
256
6
ByLayer
370
-1
48
1
60
0
100
AcDbLine
10
-0.249519
20
-9.958473
30
0
11
-0.249519
21
-11.483644
31
0
39
0
210
0
220
0
230
1
0
LINE
5
166
100
AcDbEntity
8
SK1
62
256
6
ByLayer
370
-1
48
1
60
0
100
AcDbLine
10
-0.324519
20
18.434491
30
0
11
-0.324519
21
18.061058
31
0
39
0
210
0
220
0
230
1
0
LINE
5
167
100
AcDbEntity
8
SK1
62
256
6
ByLayer
370
-1
48
1
60
0
100
AcDbLine
10
-0.324519
20
-18.061058
30
0
11
-0.324519
21
-18.434491
31
0
39
0
210
0
220
0
230
1
0
LINE
5
168
100
AcDbEntity
8
SK1
62
256
6
ByLayer
370
-1
48
1
60
0
100
AcDbLine
10
-0.324519
20
18.999731
30
0
11
-0.324519
21
18.948416
31
0
39
0
210
0
220
0
230
1
0
LINE
5
169
100
AcDbEntity
8
1
62
256
6
ByLayer
370
-1
48
1
60
0
100
AcDbLine
10
0.394519
20
-19.330076
30
0
11
0.394519
21
-19.387121
31
0
39
0
210
0
220
0
230
1
0
LINE
5
16A
100
AcDbEntity
8
SK1
62
256
6
ByLayer
370
-1
48
1
60
0
100
AcDbLine
10
-0.249519
20
-16.074887
30
0
11
-0.249519
21
-16.692674
31
0
39
0
210
0
220
0
230
1
0
LINE
5
16B
100
AcDbEntity
8
1
62
256
6
ByLayer
370
-1
48
1
60
0
100
AcDbLine
10
0.394519
20
-18.965951
30
0
11
0.394519
21
-19.047366
31
0
39
0
210
0
220
0
230
1
0
LINE
5
16C
100
AcDbEntity
8
1
62
256
6
ByLayer
370
-1
48
1
60
0
100
AcDbLine
10
31.33294
20
12.431962
30
0
11
31.266014
21
11.404597
31
0
39
0
210
0
220
0
230
1
0
LINE
5
16D
100
AcDbEntity
8
1
62
256
6
ByLayer
370
-1
48
1
60
0
100
AcDbLine
10
32.001206
20
15.619631
30
0
11
27.667349
21
13.412393
31
0
39
0
210
0
220
0
230
1
0
LINE
5
16E
100
AcDbEntity
8
1
62
256
6
ByLayer
370
-1
48
1
60
0
100
AcDbLine
10
25.362442
20
14.708029
30
0
11
27.667349
21
13.412393
31
0
39
0
210
0
220
0
230
1
0
LINE
5
16F
100
AcDbEntity
8
1
62
256
6
ByLayer
370
-1
48
1
60
0
100
AcDbLine
10
31.490056
20
17.991335
30
0
11
32.00236
21
18.008377
31
0
39
0
210
0
220
0
230
1
0
LINE
5
170
100
AcDbEntity
8
1
62
256
6
ByLayer
370
-1
48
1
60
0
100
AcDbLine
10
20.688152
20
19.03669
30
0
11
20.692739
21
19.36946
31
0
39
0
210
0
220
0
230
1
0
LINE
5
171
100
AcDbEntity
8
1
62
256
6
ByLayer
370
-1
48
1
60
0
100
AcDbLine
10
20.933134
20
20.591554
30
0
11
21.112693
21
20.429533
31
0
39
0
210
0
220
0
230
1
0
LINE
5
172
100
AcDbEntity
8
1
62
256
6
ByLayer
370
-1
48
1
60
0
100
AcDbLine
10
32.00236
20
15.642805
30
0
11
32.00236
21
18.008377
31
0
39
0
210
0
220
0
230
1
0
LINE
5
173
100
AcDbEntity
8
1
62
256
6
ByLayer
370
-1
48
1
60
0
100
AcDbLine
10
21.445139
20
20.490678
30
0
11
21.484606
21
20.929913
31
0
39
0
210
0
220
0
230
1
0
LINE
5
174
100
AcDbEntity
8
1
62
256
6
ByLayer
370
-1
48
1
60
0
100
AcDbLine
10
20.715416
20
18.723699
30
0
11
20.694848
21
18.939813
31
0
39
0
210
0
220
0
230
1
0
LINE
5
175
100
AcDbEntity
8
1
62
256
6
ByLayer
370
-1
48
1
60
0
100
AcDbLine
10
30.660158
20
18.706581
30
0
11
30.833292
21
18.122523
31
0
39
0
210
0
220
0
230
1
0
LINE
5
176
100
AcDbEntity
8
1
62
256
6
ByLayer
370
-1
48
1
60
0
100
AcDbLine
10
21.656088
20
16.938032
30
0
11
21.445139
21
20.490678
31
0
39
0
210
0
220
0
230
1
0
LINE
5
177
100
AcDbEntity
8
1
62
256
6
ByLayer
370
-1
48
1
60
0
100
AcDbLine
10
25.51663
20
23.289583
30
0
11
25.887714
21
22.942584
31
0
39
0
210
0
220
0
230
1
0
LINE
5
178
100
AcDbEntity
8
1
62
256
6
ByLayer
370
-1
48
1
60
0
100
AcDbLine
10
21.394563
20
17.323227
30
0
11
21.347628
21
16.602725
31
0
39
0
210
0
220
0
230
1
0
LINE
5
179
100
AcDbEntity
8
1
62
256
6
ByLayer
370
-1
48
1
60
0
100
AcDbLine
10
19.391429
20
17.705297
30
0
11
20.246566
21
17.689057
31
0
39
0
210
0
220
0
230
1
0
LINE
5
17A
100
AcDbEntity
8
1
62
256
6
ByLayer
370
-1
48
1
60
0
100
AcDbLine
10
21.192019
20
20.731794
30
0
11
21.170302
21
20.490105
31
0
39
0
210
0
220
0
230
1
0
LINE
5
17B
100
AcDbEntity
8
1
62
256
6
ByLayer
370
-1
48
1
60
0
100
AcDbLine
10
25.3433
20
23.173746
30
0
11
26.165844
21
22.404589
31
0
39
0
210
0
220
0
230
1
0
LINE
5
17C
100
AcDbEntity
8
1
62
256
6
ByLayer
370
-1
48
1
60
0
100
AcDbLine
10
21.484606
20
20.929913
30
0
11
21.926952
21
21.320144
31
0
39
0
210
0
220
0
230
1
0
LINE
5
17D
100
AcDbEntity
8
1
62
256
6
ByLayer
370
-1
48
1
60
0
100
AcDbLine
10
31.077512
20
25.531733
30
0
11
31.957697
21
23.991523
31
0
39
0
210
0
220
0
230
1
0
LINE
5
17E
100
AcDbEntity
8
1
62
256
6
ByLayer
370
-1
48
1
60
0
100
AcDbLine
10
25.748284
20
21.953022
30
0
11
26.184616
21
22.38762
31
0
39
0
210
0
220
0
230
1
0
LINE
5
17F
100
AcDbEntity
8
1
62
256
6
ByLayer
370
-1
48
1
60
0
100
AcDbLine
10
31.989042
20
22.815383
30
0
11
31.786807
21
22.948216
31
0
39
0
210
0
220
0
230
1
0
LINE
5
180
100
AcDbEntity
8
1
62
256
6
ByLayer
370
-1
48
1
60
0
100
AcDbLine
10
30.858289
20
18.128759
30
0
11
30.685154
21
18.712817
31
0
39
0
210
0
220
0
230
1
0
LINE
5
181
100
AcDbEntity
8
1
62
256
6
ByLayer
370
-1
48
1
60
0
100
AcDbLine
10
31.263975
20
11.401194
30
0
11
31.266014
21
11.404597
31
0
39
0
210
0
220
0
230
1
0
LINE
5
182
100
AcDbEntity
8
1
62
256
6
ByLayer
370
-1
48
1
60
0
100
AcDbLine
10
25.313169
20
16.232971
30
0
11
24.703702
21
16.382431
31
0
39
0
210
0
220
0
230
1
0
LINE
5
183
100
AcDbEntity
8
1
62
256
6
ByLayer
370
-1
48
1
60
0
100
AcDbLine
10
30.610636
20
12.742992
30
0
11
30.009942
21
12.701226
31
0
39
0
210
0
220
0
230
1
0
LINE
5
184
100
AcDbEntity
8
1
62
256
6
ByLayer
370
-1
48
1
60
0
100
AcDbLine
10
28.500596
20
12.732083
30
0
11
28.680085
21
12.631189
31
0
39
0
210
0
220
0
230
1
0
LINE
5
185
100
AcDbEntity
8
1
62
256
6
ByLayer
370
-1
48
1
60
0
100
AcDbLine
10
31.786807
20
22.948216
30
0
11
31.989042
21
23.015604
31
0
39
0
210
0
220
0
230
1
0
LINE
5
186
100
AcDbEntity
8
1
62
256
6
ByLayer
370
-1
48
1
60
0
100
AcDbLine
10
29.391343
20
12.286775
30
0
11
28.75989
21
12.589582
31
0
39
0
210
0
220
0
230
1
0
LINE
5
187
100
AcDbEntity
8
1
62
256
6
ByLayer
370
-1
48
1
60
0
100
AcDbLine
10
21.295426
20
17.385487
30
0
11
21.248082
21
16.658722
31
0
39
0
210
0
220
0
230
1
0
LINE
5
188
100
AcDbEntity
8
1
62
256
6
ByLayer
370
-1
48
1
60
0
100
AcDbLine
10
20.529787
20
18.070784
30
0
11
20.465828
21
17.088963
31
0
39
0
210
0
220
0
230
1
0
LINE
5
189
100
AcDbEntity
8
1
62
256
6
ByLayer
370
-1
48
1
60
0
100
AcDbLine
10
20.991124
20
17.434752
30
0
11
20.951441
21
16.825588
31
0
39
0
210
0
220
0
230
1
0
LINE
5
18A
100
AcDbEntity
8
1
62
256
6
ByLayer
370
-1
48
1
60
0
100
AcDbLine
10
24.611521
20
22.776041
30
0
11
25.186191
21
22.23867
31
0
39
0
210
0
220
0
230
1
0
LINE
5
18B
100
AcDbEntity
8
1
62
256
6
ByLayer
370
-1
48
1
60
0
100
AcDbLine
10
31.899585
20
14.458615
30
0
11
31.968542
21
15.517158
31
0
39
0
210
0
220
0
230
1
0
LINE
5
18C
100
AcDbEntity
8
1
62
256
6
ByLayer
370
-1
48
1
60
0
100
AcDbLine
10
20.290083
20
19.618861
30
0
11
20.001063
21
19.150758
31
0
39
0
210
0
220
0
230
1
0
LINE
5
18D
100
AcDbEntity
8
1
62
256
6
ByLayer
370
-1
48
1
60
0
100
AcDbLine
10
20.076711
20
19.795213
30
0
11
20.290083
21
19.618861
31
0
39
0
210
0
220
0
230
1
0
LINE
5
18E
100
AcDbEntity
8
1
62
256
6
ByLayer
370
-1
48
1
60
0
100
AcDbLine
10
31.66617
20
14.216396
30
0
11
31.602211
21
13.234576
31
0
39
0
210
0
220
0
230
1
0
LINE
5
18F
100
AcDbEntity
8
1
62
256
6
ByLayer
370
-1
48
1
60
0
100
AcDbLine
10
30.605082
20
12.646168
30
0
11
31.046728
21
12.462037
31
0
39
0
210
0
220
0
230
1
0
LINE
5
190
100
AcDbEntity
8
1
62
256
6
ByLayer
370
-1
48
1
60
0
100
AcDbLine
10
20.520978
20
18.223486
30
0
11
20.548656
21
18.279945
31
0
39
0
210
0
220
0
230
1
0
LINE
5
191
100
AcDbEntity
8
1
62
256
6
ByLayer
370
-1
48
1
60
0
100
AcDbLine
10
19.381449
20
18.778901
30
0
11
19.314523
21
17.751535
31
0
39
0
210
0
220
0
230
1
0
LINE
5
192
100
AcDbEntity
8
1
62
256
6
ByLayer
370
-1
48
1
60
0
100
AcDbLine
10
19.567476
20
18.970446
30
0
11
20.076711
21
19.795213
31
0
39
0
210
0
220
0
230
1
0
LINE
5
193
100
AcDbEntity
8
1
62
256
6
ByLayer
370
-1
48
1
60
0
100
AcDbLine
10
31.204162
20
13.584394
30
0
11
31.135776
21
13.573998
31
0
39
0
210
0
220
0
230
1
0
LINE
5
194
100
AcDbEntity
8
1
62
256
6
ByLayer
370
-1
48
1
60
0
100
AcDbLine
10
25.268175
20
14.75141
30
0
11
25.101627
21
14.806084
31
0
39
0
210
0
220
0
230
1
0
LINE
5
195
100
AcDbEntity
8
1
62
256
6
ByLayer
370
-1
48
1
60
0
100
AcDbLine
10
30.914417
20
13.304993
30
0
11
30.90739
21
13.197135
31
0
39
0
210
0
220
0
230
1
0
LINE
5
196
100
AcDbEntity
8
1
62
256
6
ByLayer
370
-1
48
1
60
0
100
AcDbLine
10
31.66617
20
14.216396
30
0
11
31.341739
21
13.674951
31
0
39
0
210
0
220
0
230
1
0
LINE
5
197
100
AcDbEntity
8
1
62
256
6
ByLayer
370
-1
48
1
60
0
100
AcDbLine
10
21.112693
20
20.429533
30
0
11
21.293422
21
17.385809
31
0
39
0
210
0
220
0
230
1
0
LINE
5
198
100
AcDbEntity
8
1
62
256
6
ByLayer
370
-1
48
1
60
0
100
AcDbLine
10
24.356809
20
22.680235
30
0
11
22.051901
21
21.404715
31
0
39
0
210
0
220
0
230
1
0
LINE
5
199
100
AcDbEntity
8
1
62
256
6
ByLayer
370
-1
48
1
60
0
100
AcDbLine
10
31.623956
20
22.77069
30
0
11
31.991489
21
22.529285
31
0
39
0
210
0
220
0
230
1
0
LINE
5
19A
100
AcDbEntity
8
1
62
256
6
ByLayer
370
-1
48
1
60
0
100
AcDbLine
10
31.433969
20
23.938628
30
0
11
31.126106
21
23.74995
31
0
39
0
210
0
220
0
230
1
0
LINE
5
19B
100
AcDbEntity
8
1
62
256
6
ByLayer
370
-1
48
1
60
0
100
AcDbLine
10
31.341739
20
13.674951
30
0
11
31.27778
21
12.693131
31
0
39
0
210
0
220
0
230
1
0
LINE
5
19C
100
AcDbEntity
8
1
62
256
6
ByLayer
370
-1
48
1
60
0
100
AcDbLine
10
19.383487
20
18.77548
30
0
11
19.316562
21
17.748115
31
0
39
0
210
0
220
0
230
1
0
LINE
5
19D
100
AcDbEntity
8
1
62
256
6
ByLayer
370
-1
48
1
60
0
100
AcDbLine
10
31.096647
20
25.294923
30
0
11
31.633532
21
24.355444
31
0
39
0
210
0
220
0
230
1
0
LINE
5
19E
100
AcDbEntity
8
1
62
256
6
ByLayer
370
-1
48
1
60
0
100
AcDbLine
10
20.542294
20
18.39023
30
0
11
20.533033
21
18.248076
31
0
39
0
210
0
220
0
230
1
0
LINE
5
19F
100
AcDbEntity
8
1
62
256
6
ByLayer
370
-1
48
1
60
0
100
AcDbLine
10
19.458161
20
18.729691
30
0
11
19.391429
21
17.705297
31
0
39
0
210
0
220
0
230
1
0
LINE
5
1A0
100
AcDbEntity
8
1
62
256
6
ByLayer
370
-1
48
1
60
0
100
AcDbLine
10
20.854218
20
17.526507
30
0
11
20.813242
21
16.897498
31
0
39
0
210
0
220
0
230
1
0
LINE
5
1A1
100
AcDbEntity
8
1
62
256
6
ByLayer
370
-1
48
1
60
0
100
AcDbLine
10
30.316975
20
13.213637
30
0
11
30.610636
21
12.742992
31
0
39
0
210
0
220
0
230
1
0
LINE
5
1A2
100
AcDbEntity
8
1
62
256
6
ByLayer
370
-1
48
1
60
0
100
AcDbLine
10
20.465828
20
17.088963
30
0
11
20.594491
21
16.873115
31
0
39
0
210
0
220
0
230
1
0
LINE
5
1A3
100
AcDbEntity
8
1
62
256
6
ByLayer
370
-1
48
1
60
0
100
AcDbLine
10
20.357166
20
17.625804
30
0
11
20.45948
21
17.454157
31
0
39
0
210
0
220
0
230
1
0
LINE
5
1A4
100
AcDbEntity
8
1
62
256
6
ByLayer
370
-1
48
1
60
0
100
AcDbLine
10
21.900803
20
16.653887
30
0
11
24.021415
21
15.461847
31
0
39
0
210
0
220
0
230
1
0
LINE
5
1A5
100
AcDbEntity
8
1
62
256
6
ByLayer
370
-1
48
1
60
0
100
AcDbLine
10
28.500596
20
12.732083
30
0
11
28.723654
21
12.827221
31
0
39
0
210
0
220
0
230
1
0
LINE
5
1A6
100
AcDbEntity
8
1
62
256
6
ByLayer
370
-1
48
1
60
0
100
AcDbLine
10
31.25584
20
12.383424
30
0
11
31.189108
21
11.35903
31
0
39
0
210
0
220
0
230
1
0
LINE
5
1A7
100
AcDbEntity
8
1
62
256
6
ByLayer
370
-1
48
1
60
0
100
AcDbLine
10
29.988341
20
12.388449
30
0
11
30.004387
21
12.604403
31
0
39
0
210
0
220
0
230
1
0
LINE
5
1A8
100
AcDbEntity
8
1
62
256
6
ByLayer
370
-1
48
1
60
0
100
AcDbLine
10
24.260287
20
15.899055
30
0
11
24.021415
21
15.461847
31
0
39
0
210
0
220
0
230
1
0
LINE
5
1A9
100
AcDbEntity
8
1
62
256
6
ByLayer
370
-1
48
1
60
0
100
AcDbLine
10
24.198229
20
15.327518
30
0
11
24.105776
21
15.404637
31
0
39
0
210
0
220
0
230
1
0
LINE
5
1AA
100
AcDbEntity
8
1
62
256
6
ByLayer
370
-1
48
1
60
0
100
AcDbLine
10
31.036415
20
13.508596
30
0
11
30.914417
21
13.304993
31
0
39
0
210
0
220
0
230
1
0
LINE
5
1AB
100
AcDbEntity
8
1
62
256
6
ByLayer
370
-1
48
1
60
0
100
AcDbLine
10
27.790214
20
13.326741
30
0
11
31.923154
21
15.431652
31
0
39
0
210
0
220
0
230
1
0
LINE
5
1AC
100
AcDbEntity
8
1
62
256
6
ByLayer
370
-1
48
1
60
0
100
AcDbLine
10
29.863727
20
13.27819
30
0
11
30.177005
21
13.457783
31
0
39
0
210
0
220
0
230
1
0
LINE
5
1AD
100
AcDbEntity
8
1
62
256
6
ByLayer
370
-1
48
1
60
0
100
AcDbLine
10
30.858245
20
23.751119
30
0
11
30.55204
21
23.942477
31
0
39
0
210
0
220
0
230
1
0
LINE
5
1AE
100
AcDbEntity
8
1
62
256
6
ByLayer
370
-1
48
1
60
0
100
AcDbLine
10
31.989247
20
23.107538
30
0
11
31.759085
21
23.030844
31
0
39
0
210
0
220
0
230
1
0
LINE
5
1AF
100
AcDbEntity
8
1
62
256
6
ByLayer
370
-1
48
1
60
0
100
AcDbLine
10
20.092099
20
19.083677
30
0
11
20.381119
21
19.55178
31
0
39
0
210
0
220
0
230
1
0
LINE
5
1B0
100
AcDbEntity
8
1
62
256
6
ByLayer
370
-1
48
1
60
0
100
AcDbLine
10
19.665208
20
18.806488
30
0
11
20.098794
21
18.986801
31
0
39
0
210
0
220
0
230
1
0
LINE
5
1B1
100
AcDbEntity
8
1
62
256
6
ByLayer
370
-1
48
1
60
0
100
AcDbLine
10
20.688152
20
19.03669
30
0
11
20.092099
21
19.083677
31
0
39
0
210
0
220
0
230
1
0
LINE
5
1B2
100
AcDbEntity
8
1
62
256
6
ByLayer
370
-1
48
1
60
0
100
AcDbLine
10
21.293422
20
17.385809
30
0
11
20.991124
21
17.434752
31
0
39
0
210
0
220
0
230
1
0
LINE
5
1B3
100
AcDbEntity
8
1
62
256
6
ByLayer
370
-1
48
1
60
0
100
AcDbLine
10
30.901184
20
25.295776
30
0
11
30.897154
21
24.745747
31
0
39
0
210
0
220
0
230
1
0
LINE
5
1B4
100
AcDbEntity
8
1
62
256
6
ByLayer
370
-1
48
1
60
0
100
AcDbLine
10
30.994316
20
24.688889
30
0
11
31.299028
21
24.155681
31
0
39
0
210
0
220
0
230
1
0
LINE
5
1B5
100
AcDbEntity
8
1
62
256
6
ByLayer
370
-1
48
1
60
0
100
AcDbLine
10
30.356122
20
24.361018
30
0
11
30.901184
21
25.295776
31
0
39
0
210
0
220
0
230
1
0
LINE
5
1B6
100
AcDbEntity
8
1
62
256
6
ByLayer
370
-1
48
1
60
0
100
AcDbLine
10
28.239005
20
24.570768
30
0
11
31.623956
21
22.77069
31
0
39
0
210
0
220
0
230
1
0
LINE
5
1B7
100
AcDbEntity
8
1
62
256
6
ByLayer
370
-1
48
1
60
0
100
AcDbLine
10
20.420296
20
18.594898
30
0
11
20.357166
21
17.625804
31
0
39
0
210
0
220
0
230
1
0
LINE
5
1B8
100
AcDbEntity
8
1
62
256
6
ByLayer
370
-1
48
1
60
0
100
AcDbLine
10
31.999309
20
19.169933
30
0
11
31.202479
21
19.018472
31
0
39
0
210
0
220
0
230
1
0
LINE
5
1B9
100
AcDbEntity
8
1
62
256
6
ByLayer
370
-1
48
1
60
0
100
AcDbLine
10
30.913731
20
13.18547
30
0
11
31.333403
21
12.51287
31
0
39
0
210
0
220
0
230
1
0
LINE
5
1BA
100
AcDbEntity
8
1
62
256
6
ByLayer
370
-1
48
1
60
0
100
AcDbLine
10
31.33294
20
12.431962
30
0
11
31.330901
21
12.42856
31
0
39
0
210
0
220
0
230
1
0
LINE
5
1BB
100
AcDbEntity
8
1
62
256
6
ByLayer
370
-1
48
1
60
0
100
AcDbLine
10
31.299028
20
24.155681
30
0
11
30.991166
21
23.967002
31
0
39
0
210
0
220
0
230
1
0
LINE
5
1BC
100
AcDbEntity
8
1
62
256
6
ByLayer
370
-1
48
1
60
0
100
AcDbLine
10
31.998819
20
18.34555
30
0
11
30.858289
21
18.128759
31
0
39
0
210
0
220
0
230
1
0
LINE
5
1BD
100
AcDbEntity
8
1
62
256
6
ByLayer
370
-1
48
1
60
0
100
AcDbLine
10
21.926952
20
21.320144
30
0
11
21.763593
21
16.801621
31
0
39
0
210
0
220
0
230
1
0
LINE
5
1BE
100
AcDbEntity
8
1
62
256
6
ByLayer
370
-1
48
1
60
0
100
AcDbLine
10
32.00236
20
19.50431
30
0
11
31.160542
21
19.112419
31
0
39
0
210
0
220
0
230
1
0
LINE
5
1BF
100
AcDbEntity
8
1
62
256
6
ByLayer
370
-1
48
1
60
0
100
AcDbLine
10
30.684961
20
24.158361
30
0
11
30.994316
21
24.688889
31
0
39
0
210
0
220
0
230
1
0
LINE
5
1C0
100
AcDbEntity
8
1
62
256
6
ByLayer
370
-1
48
1
60
0
100
AcDbLine
10
31.092617
20
24.744895
30
0
11
31.096647
21
25.294923
31
0
39
0
210
0
220
0
230
1
0
LINE
5
1C1
100
AcDbEntity
8
1
62
256
6
ByLayer
370
-1
48
1
60
0
100
AcDbLine
10
26.165844
20
22.404589
30
0
11
25.729511
21
21.969991
31
0
39
0
210
0
220
0
230
1
0
LINE
5
1C2
100
AcDbEntity
8
1
62
256
6
ByLayer
370
-1
48
1
60
0
100
AcDbLine
10
30.897154
20
24.745747
30
0
11
30.5878
21
24.215219
31
0
39
0
210
0
220
0
230
1
0
LINE
5
1C3
100
AcDbEntity
8
1
62
256
6
ByLayer
370
-1
48
1
60
0
100
AcDbLine
10
25.362442
20
14.708029
30
0
11
25.428747
21
15.609816
31
0
39
0
210
0
220
0
230
1
0
LINE
5
1C4
100
AcDbEntity
8
1
62
256
6
ByLayer
370
-1
48
1
60
0
100
AcDbLine
10
30.678973
20
11.353794
30
0
11
31.189108
21
11.35903
31
0
39
0
210
0
220
0
230
1
0
LINE
5
1C5
100
AcDbEntity
8
1
62
256
6
ByLayer
370
-1
48
1
60
0
100
AcDbLine
10
31.67651
20
14.086324
30
0
11
31.899585
21
14.458615
31
0
39
0
210
0
220
0
230
1
0
LINE
5
1C6
100
AcDbEntity
8
1
62
256
6
ByLayer
370
-1
48
1
60
0
100
AcDbLine
10
24.198229
20
15.327518
30
0
11
24.346427
21
15.845101
31
0
39
0
210
0
220
0
230
1
0
LINE
5
1C7
100
AcDbEntity
8
1
62
256
6
ByLayer
370
-1
48
1
60
0
100
AcDbLine
10
31.633532
20
24.355444
30
0
11
31.39733
21
24.211686
31
0
39
0
210
0
220
0
230
1
0
LINE
5
1C8
100
AcDbEntity
8
1
62
256
6
ByLayer
370
-1
48
1
60
0
100
AcDbLine
10
32.001756
20
19.390559
30
0
11
31.999309
21
19.169933
31
0
39
0
210
0
220
0
230
1
0
LINE
5
1C9
100
AcDbEntity
8
1
62
256
6
ByLayer
370
-1
48
1
60
0
100
AcDbLine
10
31.330901
20
12.42856
30
0
11
31.263975
21
11.401194
31
0
39
0
210
0
220
0
230
1
0
LINE
5
1CA
100
AcDbEntity
8
1
62
256
6
ByLayer
370
-1
48
1
60
0
100
AcDbLine
10
32.000165
20
18.174361
30
0
11
31.485624
21
18.076557
31
0
39
0
210
0
220
0
230
1
0
LINE
5
1CB
100
AcDbEntity
8
1
62
256
6
ByLayer
370
-1
48
1
60
0
100
AcDbLine
10
29.520689
20
12.262782
30
0
11
29.504512
21
12.01444
31
0
39
0
210
0
220
0
230
1
0
LINE
5
1CC
100
AcDbEntity
8
1
62
256
6
ByLayer
370
-1
48
1
60
0
100
AcDbLine
10
30.356122
20
24.361018
30
0
11
30.5878
21
24.215219
31
0
39
0
210
0
220
0
230
1
0
LINE
5
1CD
100
AcDbEntity
8
1
62
256
6
ByLayer
370
-1
48
1
60
0
100
AcDbLine
10
31.548818
20
14.621531
30
0
11
31.674308
21
14.369025
31
0
39
0
210
0
220
0
230
1
0
LINE
5
1CE
100
AcDbEntity
8
1
62
256
6
ByLayer
370
-1
48
1
60
0
100
AcDbLine
10
24.449868
20
22.722799
30
0
11
24.611521
21
22.776041
31
0
39
0
210
0
220
0
230
1
0
LINE
5
1CF
100
AcDbEntity
8
1
62
256
6
ByLayer
370
-1
48
1
60
0
100
AcDbLine
10
24.697363
20
16.357456
30
0
11
25.30683
21
16.207996
31
0
39
0
210
0
220
0
230
1
0
LINE
5
1D0
100
AcDbEntity
8
1
62
256
6
ByLayer
370
-1
48
1
60
0
100
AcDbLine
10
30.684961
20
24.158361
30
0
11
30.991166
21
23.967002
31
0
39
0
210
0
220
0
230
1
0
LINE
5
1D1
100
AcDbEntity
8
1
62
256
6
ByLayer
370
-1
48
1
60
0
100
AcDbLine
10
25.186191
20
22.23867
30
0
11
24.449868
21
22.722799
31
0
39
0
210
0
220
0
230
1
0
LINE
5
1D2
100
AcDbEntity
8
1
62
256
6
ByLayer
370
-1
48
1
60
0
100
AcDbLine
10
31.39733
20
24.211686
30
0
11
31.092617
21
24.744895
31
0
39
0
210
0
220
0
230
1
0
LINE
5
1D3
100
AcDbEntity
8
1
62
256
6
ByLayer
370
-1
48
1
60
0
100
AcDbLine
10
25.971269
20
23.002183
30
0
11
25.697836
21
23.42235
31
0
39
0
210
0
220
0
230
1
0
LINE
5
1D4
100
AcDbEntity
8
1
62
256
6
ByLayer
370
-1
48
1
60
0
100
AcDbLine
10
24.928622
20
14.887095
30
0
11
25.30683
21
16.207996
31
0
39
0
210
0
220
0
230
1
0
LINE
5
1D5
100
AcDbEntity
8
1
62
256
6
ByLayer
370
-1
48
1
60
0
100
AcDbLine
10
31.991489
20
22.529285
30
0
11
32.001318
21
22.197685
31
0
39
0
210
0
220
0
230
1
0
LINE
5
1D6
100
AcDbEntity
8
1
62
256
6
ByLayer
370
-1
48
1
60
0
100
AcDbLine
10
30.124434
20
24.710247
30
0
11
30.36843
21
24.709182
31
0
39
0
210
0
220
0
230
1
0
LINE
5
1D7
100
AcDbEntity
8
1
62
256
6
ByLayer
370
-1
48
1
60
0
100
AcDbLine
10
30.702813
20
12.809273
30
0
11
30.409152
21
13.279918
31
0
39
0
210
0
220
0
230
1
0
LINE
5
1D8
100
AcDbEntity
8
1
62
256
6
ByLayer
370
-1
48
1
60
0
100
AcDbLine
10
21.170302
20
20.490105
30
0
11
21.01253
21
20.632466
31
0
39
0
210
0
220
0
230
1
0
LINE
5
1D9
100
AcDbEntity
8
1
62
256
6
ByLayer
370
-1
48
1
60
0
100
AcDbLine
10
31.25584
20
12.383424
30
0
11
29.520689
21
12.262782
31
0
39
0
210
0
220
0
230
1
0
LINE
5
1DA
100
AcDbEntity
8
1
62
256
6
ByLayer
370
-1
48
1
60
0
100
AcDbLine
10
31.923154
20
15.431652
30
0
11
31.815649
21
15.216928
31
0
39
0
210
0
220
0
230
1
0
LINE
5
1DB
100
AcDbEntity
8
1
62
256
6
ByLayer
370
-1
48
1
60
0
100
AcDbLine
10
31.135776
20
13.573998
30
0
11
31.091869
21
12.899987
31
0
39
0
210
0
220
0
230
1
0
LINE
5
1DC
100
AcDbEntity
8
1
62
256
6
ByLayer
370
-1
48
1
60
0
100
AcDbLine
10
24.928622
20
14.887095
30
0
11
24.368868
21
15.210181
31
0
39
0
210
0
220
0
230
1
0
LINE
5
1DD
100
AcDbEntity
8
1
62
256
6
ByLayer
370
-1
48
1
60
0
100
AcDbLine
10
30.004387
20
12.604403
30
0
11
30.605082
21
12.646168
31
0
39
0
210
0
220
0
230
1
0
LINE
5
1DE
100
AcDbEntity
8
1
62
256
6
ByLayer
370
-1
48
1
60
0
100
AcDbLine
10
30.009942
20
12.701226
30
0
11
30.003697
21
13.034044
31
0
39
0
210
0
220
0
230
1
0
LINE
5
1DF
100
AcDbEntity
8
1
62
256
6
ByLayer
370
-1
48
1
60
0
100
AcDbLine
10
31.27778
20
12.693131
30
0
11
31.602211
21
13.234576
31
0
39
0
210
0
220
0
230
1
0
LINE
5
1E0
100
AcDbEntity
8
1
62
256
6
ByLayer
370
-1
48
1
60
0
100
AcDbLine
10
31.202479
20
19.018472
30
0
11
32.001756
21
19.390559
31
0
39
0
210
0
220
0
230
1
0
LINE
5
1E1
100
AcDbEntity
8
1
62
256
6
ByLayer
370
-1
48
1
60
0
100
AcDbLine
10
20.542294
20
18.39023
30
0
11
20.420296
21
18.594898
31
0
39
0
210
0
220
0
230
1
0
LINE
5
1E2
100
AcDbEntity
8
1
62
256
6
ByLayer
370
-1
48
1
60
0
100
AcDbLine
10
30.316975
20
13.213637
30
0
11
30.003697
21
13.034044
31
0
39
0
210
0
220
0
230
1
0
LINE
5
1E3
100
AcDbEntity
8
1
62
256
6
ByLayer
370
-1
48
1
60
0
100
AcDbLine
10
20.308234
20
20.294229
30
0
11
20.933134
21
20.591554
31
0
39
0
210
0
220
0
230
1
0
LINE
5
1E4
100
AcDbEntity
8
1
62
256
6
ByLayer
370
-1
48
1
60
0
100
AcDbLine
10
19.314523
20
17.751535
30
0
11
19.316562
21
17.748115
31
0
39
0
210
0
220
0
230
1
0
LINE
5
1E5
100
AcDbEntity
8
1
62
256
6
ByLayer
370
-1
48
1
60
0
100
AcDbLine
10
20.381119
20
19.55178
30
0
11
20.692739
21
19.36946
31
0
39
0
210
0
220
0
230
1
0
LINE
5
1E6
100
AcDbEntity
8
1
62
256
6
ByLayer
370
-1
48
1
60
0
100
AcDbLine
10
20.098794
20
18.986801
30
0
11
20.694848
21
18.939813
31
0
39
0
210
0
220
0
230
1
0
LINE
5
1E7
100
AcDbEntity
8
1
62
256
6
ByLayer
370
-1
48
1
60
0
100
AcDbLine
10
30.627047
20
13.454388
30
0
11
31.144459
21
12.625141
31
0
39
0
210
0
220
0
230
1
0
LINE
5
1E8
100
AcDbEntity
8
1
62
256
6
ByLayer
370
-1
48
1
60
0
100
AcDbLine
10
29.736041
20
12.721855
30
0
11
29.729796
21
13.054672
31
0
39
0
210
0
220
0
230
1
0
LINE
5
1E9
100
AcDbEntity
8
1
62
256
6
ByLayer
370
-1
48
1
60
0
100
AcDbLine
10
20.854218
20
17.526507
30
0
11
20.529787
21
18.070784
31
0
39
0
210
0
220
0
230
1
0
LINE
5
1EA
100
AcDbEntity
8
1
62
256
6
ByLayer
370
-1
48
1
60
0
100
AcDbLine
10
21.784195
20
16.357142
30
0
11
21.80898
21
16.737622
31
0
39
0
210
0
220
0
230
1
0
LINE
5
1EB
100
AcDbEntity
8
1
62
256
6
ByLayer
370
-1
48
1
60
0
100
AcDbLine
10
28.809476
20
12.812684
30
0
11
31.548818
21
14.621531
31
0
39
0
210
0
220
0
230
1
0
LINE
5
1EC
100
AcDbEntity
8
1
62
256
6
ByLayer
370
-1
48
1
60
0
100
AcDbLine
10
25.331129
20
15.607626
30
0
11
25.268175
21
14.75141
31
0
39
0
210
0
220
0
230
1
0
LINE
5
1ED
100
AcDbEntity
8
1
62
256
6
ByLayer
370
-1
48
1
60
0
100
AcDbLine
10
19.383487
20
18.77548
30
0
11
19.381449
21
18.778901
31
0
39
0
210
0
220
0
230
1
0
LINE
5
1EE
100
AcDbEntity
8
1
62
256
6
ByLayer
370
-1
48
1
60
0
100
AcDbLine
10
25.612244
20
23.365881
30
0
11
25.887714
21
22.942584
31
0
39
0
210
0
220
0
230
1
0
LINE
5
1EF
100
AcDbEntity
8
1
62
256
6
ByLayer
370
-1
48
1
60
0
100
AcDbLine
10
21.192019
20
20.731794
30
0
11
21.01253
21
20.632466
31
0
39
0
210
0
220
0
230
1
0
LINE
5
1F0
100
AcDbEntity
8
1
62
256
6
ByLayer
370
-1
48
1
60
0
100
AcDbLine
10
31.204162
20
13.584394
30
0
11
31.153176
21
12.80172
31
0
39
0
210
0
220
0
230
1
0
LINE
5
1F1
100
AcDbEntity
8
1
62
256
6
ByLayer
370
-1
48
1
60
0
100
AcDbLine
10
28.212903
20
12.932735
30
0
11
27.790214
21
13.326741
31
0
39
0
210
0
220
0
230
1
0
LINE
5
1F2
100
AcDbEntity
8
1
62
256
6
ByLayer
370
-1
48
1
60
0
100
AcDbLine
10
21.880601
20
16.66653
30
0
11
22.051901
21
21.404715
31
0
39
0
210
0
220
0
230
1
0
LINE
5
1F3
100
AcDbEntity
8
1
62
256
6
ByLayer
370
-1
48
1
60
0
100
AcDbLine
10
20.001063
20
19.150758
30
0
11
19.567476
21
18.970446
31
0
39
0
210
0
220
0
230
1
0
LINE
5
1F4
100
AcDbEntity
8
1
62
256
6
ByLayer
370
-1
48
1
60
0
100
AcDbLine
10
32.001318
20
22.197685
30
0
11
28.031737
21
24.611298
31
0
39
0
210
0
220
0
230
1
0
LINE
5
1F5
100
AcDbEntity
8
1
62
256
6
ByLayer
370
-1
48
1
60
0
100
AcDbLine
10
31.036415
20
13.508596
30
0
11
31.005757
21
13.037979
31
0
39
0
210
0
220
0
230
1
0
LINE
5
1F6
100
AcDbEntity
8
1
62
256
6
ByLayer
370
-1
48
1
60
0
100
AcDbLine
10
20.309982
20
18.662541
30
0
11
19.458161
21
18.729691
31
0
39
0
210
0
220
0
230
1
0
LINE
5
1F7
100
AcDbEntity
8
1
62
256
6
ByLayer
370
-1
48
1
60
0
100
AcDbLine
10
20.309982
20
18.662541
30
0
11
20.246566
21
17.689057
31
0
39
0
210
0
220
0
230
1
0
LINE
5
1F8
100
AcDbEntity
8
1
62
256
6
ByLayer
370
-1
48
1
60
0
100
AcDbLine
10
24.782485
20
22.855551
30
0
11
25.3433
21
23.173746
31
0
39
0
210
0
220
0
230
1
0
LINE
5
1F9
100
AcDbEntity
8
1
62
256
6
ByLayer
370
-1
48
1
60
0
100
AcDbLine
10
28.859034
20
24.573057
30
0
11
29.03919
21
24.828006
31
0
39
0
210
0
220
0
230
1
0
LINE
5
1FA
100
AcDbEntity
8
1
62
256
6
ByLayer
370
-1
48
1
60
0
100
AcDbLine
10
27.839804
20
24.606412
30
0
11
32.00236
21
22.075466
31
0
39
0
210
0
220
0
230
1
0
LINE
5
1FB
100
AcDbEntity
8
1
62
256
6
ByLayer
370
-1
48
1
60
0
100
AcDbLine
10
25.101627
20
14.806084
30
0
11
25.331129
21
15.607626
31
0
39
0
210
0
220
0
230
1
0
LINE
5
1FC
100
AcDbEntity
8
1
62
256
6
ByLayer
370
-1
48
1
60
0
100
AcDbLine
10
31.144459
20
12.625141
30
0
11
30.702813
21
12.809273
31
0
39
0
210
0
220
0
230
1
0
LINE
5
1FD
100
AcDbEntity
8
1
62
256
6
ByLayer
370
-1
48
1
60
0
100
AcDbLine
10
29.378229
20
12.085461
30
0
11
29.391343
21
12.286775
31
0
39
0
210
0
220
0
230
1
0
LINE
5
1FE
100
AcDbEntity
8
1
62
256
6
ByLayer
370
-1
48
1
60
0
100
AcDbLine
10
24.782485
20
22.855551
30
0
11
25.729511
21
21.969991
31
0
39
0
210
0
220
0
230
1
0
LINE
5
1FF
100
AcDbEntity
8
1
62
256
6
ByLayer
370
-1
48
1
60
0
100
AcDbLine
10
31.554125
20
14.737446
30
0
11
31.546911
21
14.626705
31
0
39
0
210
0
220
0
230
1
0
LINE
5
200
100
AcDbEntity
8
1
62
256
6
ByLayer
370
-1
48
1
60
0
100
AcDbLine
10
31.989042
20
22.815383
30
0
11
31.989042
21
23.015604
31
0
39
0
210
0
220
0
230
1
0
LINE
5
201
100
AcDbEntity
8
1
62
256
6
ByLayer
370
-1
48
1
60
0
100
AcDbLine
10
28.031737
20
24.611298
30
0
11
28.239005
21
24.570768
31
0
39
0
210
0
220
0
230
1
0
LINE
5
202
100
AcDbEntity
8
1
62
256
6
ByLayer
370
-1
48
1
60
0
100
AcDbLine
10
20.523108
20
19.794696
30
0
11
20.834728
21
19.612375
31
0
39
0
210
0
220
0
230
1
0
LINE
5
203
100
AcDbEntity
8
1
62
256
6
ByLayer
370
-1
48
1
60
0
100
AcDbLine
10
24.356809
20
22.680235
30
0
11
25.132322
21
22.170339
31
0
39
0
210
0
220
0
230
1
0
LINE
5
204
100
AcDbEntity
8
1
62
256
6
ByLayer
370
-1
48
1
60
0
100
AcDbLine
10
20.715416
20
18.723699
30
0
11
19.665208
21
18.806488
31
0
39
0
210
0
220
0
230
1
0
LINE
5
205
100
AcDbEntity
8
1
62
256
6
ByLayer
370
-1
48
1
60
0
100
AcDbLine
10
31.998288
20
18.962417
30
0
11
31.998819
21
18.34555
31
0
39
0
210
0
220
0
230
1
0
LINE
5
206
100
AcDbEntity
8
1
62
256
6
ByLayer
370
-1
48
1
60
0
100
AcDbLine
10
31.046728
20
12.462037
30
0
11
29.988341
21
12.388449
31
0
39
0
210
0
220
0
230
1
0
LINE
5
207
100
AcDbEntity
8
1
62
256
6
ByLayer
370
-1
48
1
60
0
100
AcDbLine
10
24.105776
20
15.404637
30
0
11
24.346427
21
15.845101
31
0
39
0
210
0
220
0
230
1
0
LINE
5
208
100
AcDbEntity
8
1
62
256
6
ByLayer
370
-1
48
1
60
0
100
AcDbLine
10
32.001745
20
18.093725
30
0
11
31.485624
21
18.076557
31
0
39
0
210
0
220
0
230
1
0
LINE
5
209
100
AcDbEntity
8
1
62
256
6
ByLayer
370
-1
48
1
60
0
100
AcDbLine
10
31.998288
20
18.962417
30
0
11
30.685154
21
18.712817
31
0
39
0
210
0
220
0
230
1
0
LINE
5
20A
100
AcDbEntity
8
1
62
256
6
ByLayer
370
-1
48
1
60
0
100
AcDbLine
10
30.480286
20
24.77423
30
0
11
30.922385
21
25.53241
31
0
39
0
210
0
220
0
230
1
0
LINE
5
20B
100
AcDbEntity
8
1
62
256
6
ByLayer
370
-1
48
1
60
0
100
AcDbLine
10
29.185241
20
24.904347
30
0
11
29.834103
21
24.901515
31
0
39
0
210
0
220
0
230
1
0
LINE
5
20C
100
AcDbEntity
8
1
62
256
6
ByLayer
370
-1
48
1
60
0
100
AcDbLine
10
29.979483
20
24.823903
30
0
11
30.019438
21
24.7663
31
0
39
0
210
0
220
0
230
1
0
LINE
5
20D
100
AcDbEntity
8
1
62
256
6
ByLayer
370
-1
48
1
60
0
100
AcDbLine
10
31.815649
20
15.216928
30
0
11
28.618278
21
13.105635
31
0
39
0
210
0
220
0
230
1
0
LINE
5
20E
100
AcDbEntity
8
1
62
256
6
ByLayer
370
-1
48
1
60
0
100
AcDbLine
10
28.75989
20
12.589582
30
0
11
28.809476
21
12.812684
31
0
39
0
210
0
220
0
230
1
0
LINE
5
20F
100
AcDbEntity
8
1
62
256
6
ByLayer
370
-1
48
1
60
0
100
AcDbLine
10
19.380598
20
18.859814
30
0
11
20.215453
21
20.211962
31
0
39
0
210
0
220
0
230
1
0
LINE
5
210
100
AcDbEntity
8
1
62
256
6
ByLayer
370
-1
48
1
60
0
100
AcDbLine
10
30.627047
20
13.454388
30
0
11
30.409152
21
13.279918
31
0
39
0
210
0
220
0
230
1
0
LINE
5
211
100
AcDbEntity
8
1
62
256
6
ByLayer
370
-1
48
1
60
0
100
AcDbLine
10
28.618278
20
13.105635
30
0
11
28.212903
21
12.932735
31
0
39
0
210
0
220
0
230
1
0
LINE
5
212
100
AcDbEntity
8
1
62
256
6
ByLayer
370
-1
48
1
60
0
100
AcDbLine
10
21.763593
20
16.801621
30
0
11
21.656088
21
16.938032
31
0
39
0
210
0
220
0
230
1
0
LINE
5
213
100
AcDbEntity
8
1
62
256
6
ByLayer
370
-1
48
1
60
0
100
AcDbLine
10
21.900803
20
16.653887
30
0
11
21.878034
21
16.304363
31
0
39
0
210
0
220
0
230
1
0
LINE
5
214
100
AcDbEntity
8
1
62
256
6
ByLayer
370
-1
48
1
60
0
100
AcDbLine
10
28.723654
20
12.827221
30
0
11
28.680085
21
12.631189
31
0
39
0
210
0
220
0
230
1
0
LINE
5
215
100
AcDbEntity
8
1
62
256
6
ByLayer
370
-1
48
1
60
0
100
AcDbLine
10
32.00236
20
19.50431
30
0
11
32.00236
21
22.075466
31
0
39
0
210
0
220
0
230
1
0
LINE
5
216
100
AcDbEntity
8
1
62
256
6
ByLayer
370
-1
48
1
60
0
100
AcDbLine
10
32.000165
20
18.174361
30
0
11
32.001745
21
18.093725
31
0
39
0
210
0
220
0
230
1
0
LINE
5
217
100
AcDbEntity
8
1
62
256
6
ByLayer
370
-1
48
1
60
0
100
AcDbLine
10
20.968658
20
19.387689
30
0
11
20.964072
21
19.054919
31
0
39
0
210
0
220
0
230
1
0
LINE
5
218
100
AcDbEntity
8
1
62
256
6
ByLayer
370
-1
48
1
60
0
100
AcDbLine
10
24.368868
20
15.210181
30
0
11
24.697363
21
16.357456
31
0
39
0
210
0
220
0
230
1
0
LINE
5
219
100
AcDbEntity
8
1
62
256
6
ByLayer
370
-1
48
1
60
0
100
AcDbLine
10
30.998103
20
25.576442
30
0
11
31.002181
21
25.576425
31
0
39
0
210
0
220
0
230
1
0
LINE
5
21A
100
AcDbEntity
8
1
62
256
6
ByLayer
370
-1
48
1
60
0
100
AcDbLine
10
31.759085
20
23.030844
30
0
11
28.859034
21
24.573057
31
0
39
0
210
0
220
0
230
1
0
LINE
5
21B
100
AcDbEntity
8
1
62
256
6
ByLayer
370
-1
48
1
60
0
100
AcDbLine
10
25.51663
20
23.289583
30
0
11
25.612244
21
23.365881
31
0
39
0
210
0
220
0
230
1
0
LINE
5
21C
100
AcDbEntity
8
1
62
256
6
ByLayer
370
-1
48
1
60
0
100
AcDbLine
10
32.056875
20
11.906504
30
0
11
32.103149
21
11.906731
31
0
39
0
210
0
220
0
230
1
0
LINE
5
21D
100
AcDbEntity
8
1
62
256
6
ByLayer
370
-1
48
1
60
0
100
AcDbLine
10
32.085376
20
10.160913
30
0
11
32.087383
21
10.160923
31
0
39
0
210
0
220
0
230
1
0
LINE
5
21E
100
AcDbEntity
8
1
62
256
6
ByLayer
370
-1
48
1
60
0
100
AcDbLine
10
32.056623
20
11.895219
30
0
11
32.09058
21
11.895386
31
0
39
0
210
0
220
0
230
1
0
LINE
5
21F
100
AcDbEntity
8
1
62
256
6
ByLayer
370
-1
48
1
60
0
100
AcDbLine
10
32.052055
20
11.265842
30
0
11
32.115218
21
11.266152
31
0
39
0
210
0
220
0
230
1
0
LINE
5
220
100
AcDbEntity
8
1
62
256
6
ByLayer
370
-1
48
1
60
0
100
AcDbLine
10
32.052057
20
11.267125
30
0
11
32.102411
21
11.267373
31
0
39
0
210
0
220
0
230
1
0
LINE
5
221
100
AcDbEntity
8
1
62
256
6
ByLayer
370
-1
48
1
60
0
100
AcDbLine
10
0
20
-19.291583
30
0
11
0
21
-19.32088
31
0
39
0
210
0
220
0
230
1
0
LINE
5
222
100
AcDbEntity
8
SK1
62
256
6
ByLayer
370
-1
48
1
60
0
100
AcDbLine
10
-0.324519
20
18.745228
30
0
11
-0.324519
21
18.483743
31
0
39
0
210
0
220
0
230
1
0
LINE
5
223
100
AcDbEntity
8
SK1
62
256
6
ByLayer
370
-1
48
1
60
0
100
AcDbLine
10
-0.249519
20
18.996302
30
0
11
-0.249519
21
18.87287
31
0
39
0
210
0
220
0
230
1
0
LINE
5
224
100
AcDbEntity
8
1
62
256
6
ByLayer
370
-1
48
1
60
0
100
AcDbLine
10
0
20
-18.879056
30
0
11
0
21
-19.027517
31
0
39
0
210
0
220
0
230
1
0
LINE
5
225
100
AcDbEntity
8
SK1
62
256
6
ByLayer
370
-1
48
1
60
0
100
AcDbLine
10
-0.324519
20
18.434491
30
0
11
-0.324519
21
18.483753
31
0
39
0
210
0
220
0
230
1
0
LINE
5
226
100
AcDbEntity
8
SK1
62
256
6
ByLayer
370
-1
48
1
60
0
100
AcDbLine
10
-0.324519
20
-13.534838
30
0
11
-0.324519
21
-14.648035
31
0
39
0
210
0
220
0
230
1
0
LINE
5
227
100
AcDbEntity
8
SK1
62
256
6
ByLayer
370
-1
48
1
60
0
100
AcDbLine
10
-0.249519
20
5.611457
30
0
11
-0.249519
21
-5.611457
31
0
39
0
210
0
220
0
230
1
0
MTEXT
5
405
100
AcDbEntity
8
SK6
62
256
6
ByLayer
370
-1
48
1
60
0
100
AcDbMText
10
16.875
20
-34.294389
30
0
210
0
220
0
230
1
1
\W00.740;\fsimplex.shx,bigfont.shx;SL-266RKF-403227-16 
40
3.5
41
0
44
1.084337
50
0
71
7
72
5
7
DEFAULT
0
DIMENSION
5
438
100
AcDbEntity
8
2
62
256
6
ByLayer
370
-3
48
1
60
0
100
AcDbDimension
2
DimnDraft3D1
10
46.25
20
26.875
30
0
11
46.25
21
10.808553
31
0
70
32
71
5
72
1
41
1
210
0
220
0
230
1
3
Standard
100
AcDbAlignedDimension
13
38.5
23
0
33
0
14
33.5
24
26.875
34
0
50
90
100
AcDbRotatedDimension
1001
ACAD
1000
DSTYLE
1002
{
1070
    74
1070
     0
1070
   279
1070
     0
1070
   172
1070
     1
1070
   173
1070
     1
1070
   340
1005
406
1070
   271
1070
     3
1070
   272
1070
     3
1070
    77
1070
     1
1070
    73
1070
     0
1070
   171
1070
     4
1070
   274
1070
     4
1070
   177
1070
     2
1070
   176
1070
     2
1070
   178
1070
     7
1070
    78
1070
     8
1070
    41
1041
3.0
1070
   147
1041
2.25
1070
    42
1041
1.5
1070
    44
1041
3.0
1070
   140
1041
4.5
1070
   343
1005
439
1070
   344
1005
439
1002
}
0
DIMENSION
5
44E
100
AcDbEntity
8
SK2
62
256
6
ByLayer
370
-3
48
1
60
0
100
AcDbDimension
2
DimnDraft3D2
10
-9.75
20
-20
30
0
11
-9.75
21
-5.021053
31
0
70
32
71
5
72
1
41
1
210
0
220
0
230
1
3
Standard
100
AcDbAlignedDimension
13
-1.5
23
20
33
0
14
-1.5
24
-20
34
0
50
90
100
AcDbRotatedDimension
1001
ACAD
1000
DSTYLE
1002
{
1070
    74
1070
     0
1070
   279
1070
     0
1070
   172
1070
     1
1070
   173
1070
     1
1070
   340
1005
406
1070
   271
1070
     3
1070
   272
1070
     3
1070
    77
1070
     1
1070
    73
1070
     0
1070
   171
1070
     4
1070
   274
1070
     4
1070
   177
1070
     2
1070
   176
1070
     2
1070
   178
1070
     7
1070
    78
1070
     8
1070
    41
1041
3.0
1070
   147
1041
2.25
1070
    42
1041
1.5
1070
    44
1041
3.0
1070
   140
1041
4.5
1070
   343
1005
439
1070
   344
1005
439
1002
}
0
DIMENSION
5
45C
100
AcDbEntity
8
2
62
256
6
ByLayer
370
-3
48
1
60
0
100
AcDbDimension
2
DimnDraft3D3
10
0
20
46.625
30
0
11
13.371053
21
46.625
31
0
70
32
71
5
72
1
41
1
210
0
220
0
230
1
3
Standard
100
AcDbAlignedDimension
13
32
23
28.375
33
0
14
0
24
1.5
34
0
50
0
100
AcDbRotatedDimension
1001
ACAD
1000
DSTYLE
1002
{
1070
   279
1070
     0
1070
   172
1070
     1
1070
   173
1070
     1
1070
   340
1005
406
1070
   271
1070
     3
1070
   272
1070
     3
1070
    77
1070
     1
1070
    73
1070
     0
1070
   171
1070
     4
1070
   274
1070
     4
1070
   177
1070
     2
1070
   176
1070
     2
1070
   178
1070
     7
1070
    78
1070
     8
1070
    41
1041
3.0
1070
   147
1041
2.25
1070
    42
1041
1.5
1070
    44
1041
3.0
1070
   140
1041
4.5
1070
   343
1005
439
1070
   344
1005
439
1002
}
0
ENDSEC
0
SECTION
2
OBJECTS
0
DICTIONARY
5
48d
330
0
100
AcDbDictionary
280
0
281
1
3
ACAD_GROUP
350
48e
3
ACAD_MLINESTYLE
350
48f
0
DICTIONARY
5
48e
330
0
100
AcDbDictionary
280
0
281
1
0
DICTIONARY
5
48f
330
0
100
AcDbDictionary
280
0
281
1
3
Standard
350
18
0
MLINESTYLE
5
18
330
48f
100
AcDbMlineStyle
2
Standard
70
0
3

62
256
51
90
52
90
71
2
49
-0.5
62
256
6
ByLayer
49
0.5
62
256
6
ByLayer
0
RASTERVARIABLES
5
47b
330

100
AcDbRasterVariables
90
0
70
1
71
1
72
1
0
ENDSEC
0
EOF
