0
SECTION
2
HEADER
9
$ACADVER
1
AC1015
9
$DWGCODEPAGE
3
ANSI_1252
9
$HANDSEED
5
490
9
$ANGBASE
50
0
9
$ANGDIR
70
0
9
$ATTMODE
70
1
9
$AUNITS
70
0
9
$AUPREC
70
0
9
$CECOLOR
62
256
9
$CELTSCALE
40
1
9
$CELTYPE
6
ByLayer
9
$CELWEIGHT
370
18
9
$CLAYER
8
0
9
$CMLJUST
70
0
9
$CMLSCALE
40
1
9
$CMLSTYLE
2
Standard
9
$DIMSTYLE
2
Standard
9
$TEXTSIZE
40
0.2
9
$TEXTSTYLE
7
Standard
9
$LUNITS
70
2
9
$LUPREC
70
4
9
$EXTNAMES
290
1
9
$INSUNITS
70
4
9
$LTSCALE
40
1
9
$LWDISPLAY
290
1
9
$PDMODE
70
0
9
$PDSIZE
40
0
9
$PLINEGEN
70
0
0
ENDSEC
0
SECTION
2
CLASSES
0
CLASS
1
RASTERVARIABLES
2
AcDbRasterVariables
3
ISM
90
0
280
0
281
0
0
ENDSEC
0
SECTION
2
TABLES
0
TABLE
2
VPORT
5
486
100
AcDbSymbolTable
0
VPORT
5
1
100
AcDbSymbolTableRecord
100
AcDbViewportTableRecord
2
*Active
70
0
10
0
20
0
11
1
21
1
12
-1
22
1
13
0
23
0
14
0.5
24
0.5
15
10
25
10
16
0
26
0
36
1
17
0
27
0
37
0
0
ENDTAB
0
TABLE
2
LTYPE
5
487
100
AcDbSymbolTable
0
LTYPE
5
14
100
AcDbSymbolTableRecord
100
AcDbLinetypeTableRecord
70
0
2
ByBlock
3

72
65
73
0
40
0
0
LTYPE
5
15
100
AcDbSymbolTableRecord
100
AcDbLinetypeTableRecord
70
0
2
ByLayer
3

72
65
73
0
40
0
0
LTYPE
5
16
100
AcDbSymbolTableRecord
100
AcDbLinetypeTableRecord
70
0
2
CONTINUOUS
3
Solid line
72
65
73
0
40
0
0
LTYPE
5
6A
100
AcDbSymbolTableRecord
100
AcDbLinetypeTableRecord
70
0
2
CENTER
3
____ _ ____ _ ____ _ ____
72
65
73
4
40
47.5
49
22
74
0
49
-8.5
74
0
49
8.5
74
0
49
-8.5
74
0
0
LTYPE
5
6B
100
AcDbSymbolTableRecord
100
AcDbLinetypeTableRecord
70
0
2
DASHED
3
__ __ __ __ __ __ __ __ __
72
65
73
2
40
25.72
49
12.86
74
0
49
-12.86
74
0
0
ENDTAB
0
TABLE
2
LAYER
5
488
100
AcDbSymbolTable
0
LAYER
5
10
100
AcDbSymbolTableRecord
100
AcDbLayerTableRecord
2
0
70
0
62
7
6
CONTINUOUS
290
1
370
-3
390
0
0
LAYER
5
6D
100
AcDbSymbolTableRecord
100
AcDbLayerTableRecord
2
1
70
0
62
4
6
CONTINUOUS
290
1
370
-3
390
0
0
LAYER
5
70
100
AcDbSymbolTableRecord
100
AcDbLayerTableRecord
2
80
70
0
62
-6
6
CONTINUOUS
290
1
370
-3
390
0
0
LAYER
5
72
100
AcDbSymbolTableRecord
100
AcDbLayerTableRecord
2
81
70
0
62
-3
6
CONTINUOUS
290
1
370
-3
390
0
0
LAYER
5
74
100
AcDbSymbolTableRecord
100
AcDbLayerTableRecord
2
2
70
0
62
7
6
CONTINUOUS
290
1
370
-3
390
0
0
LAYER
5
83
100
AcDbSymbolTableRecord
100
AcDbLayerTableRecord
2
4
70
0
62
-2
6
CENTER
290
1
370
-3
390
0
0
LAYER
5
472
100
AcDbSymbolTableRecord
100
AcDbLayerTableRecord
2
SK4
70
0
62
2
6
CENTER
290
1
370
-3
390
0
0
LAYER
5
473
100
AcDbSymbolTableRecord
100
AcDbLayerTableRecord
2
SK1
70
0
62
4
6
CONTINUOUS
290
1
370
-3
390
0
0
LAYER
5
474
100
AcDbSymbolTableRecord
100
AcDbLayerTableRecord
2
SK6
70
0
62
5
6
CONTINUOUS
290
1
370
-3
390
0
0
LAYER
5
475
100
AcDbSymbolTableRecord
100
AcDbLayerTableRecord
2
SK2
70
0
62
7
6
CONTINUOUS
290
1
370
-3
390
0
0
ENDTAB
0
TABLE
2
STYLE
5
489
100
AcDbSymbolTable
0
STYLE
5
11
100
AcDbSymbolTableRecord
100
AcDbTextStyleTableRecord
2
Standard
3
txt
70
0
71
0
40
0
41
1
42
0
50
0
0
STYLE
5
3E4
100
AcDbSymbolTableRecord
100
AcDbTextStyleTableRecord
2
iso_b_vert
3
simplex.shx
70
0
71
0
40
0
41
1
42
0
50
0
0
STYLE
5
3E5
100
AcDbSymbolTableRecord
100
AcDbTextStyleTableRecord
2
DWGDirectTextStyle
3
simplex
70
0
71
0
40
0
41
1
42
0
50
0
0
ENDTAB
0
TABLE
2
DIMSTYLE
5
48a
100
AcDbSymbolTable
100
AcDbDimStyleTable
0
DIMSTYLE
105
27
100
AcDbSymbolTableRecord
100
AcDbDimStyleTableRecord
2
Standard
70
0
3
<>
41
0.18
42
0.0625
44
0.18
140
0.18
147
0.09
73
0
74
0
77
1
271
2
275
0
278
52
280
0
340
11
0
ENDTAB
0
TABLE
2
VIEW
5
48b
100
AcDbSymbolTable
0
ENDTAB
0
TABLE
2
UCS
5
48c
100
AcDbSymbolTable
0
ENDTAB
0
TABLE
2
APPID
5
48d
100
AcDbSymbolTable
0
APPID
5
12
100
AcDbSymbolTableRecord
100
AcDbRegAppTableRecord
2
ACAD
70
0
0
ENDTAB
0
TABLE
2
BLOCK_RECORD
5
48e
100
AcDbSymbolTable
0
BLOCK_RECORD
5
1F
100
AcDbSymbolTableRecord
100
AcDbBlockTableRecord
2
*Model_Space
340
0
70
0
0
BLOCK_RECORD
5
1B
100
AcDbSymbolTableRecord
100
AcDbBlockTableRecord
2
*Paper_Space
340
0
70
0
0
BLOCK_RECORD
5
23
100
AcDbSymbolTableRecord
100
AcDbBlockTableRecord
2
*Paper_Space0
340
0
70
0
0
BLOCK_RECORD
5
3E7
100
AcDbSymbolTableRecord
100
AcDbBlockTableRecord
2
DimnDraft3D1
340
0
70
0
0
BLOCK_RECORD
5
3F5
100
AcDbSymbolTableRecord
100
AcDbBlockTableRecord
2
_CLOSED
340
0
70
0
0
BLOCK_RECORD
5
3FC
100
AcDbSymbolTableRecord
100
AcDbBlockTableRecord
2
DimnDraft3D2
340
0
70
0
0
BLOCK_RECORD
5
40B
100
AcDbSymbolTableRecord
100
AcDbBlockTableRecord
2
DimnDraft3D3
340
0
70
0
0
ENDTAB
0
ENDSEC
0
SECTION
2
BLOCKS
0
BLOCK
5
20
100
AcDbEntity
8
0
100
AcDbBlockBegin
2
*Model_Space
70
0
10
0
20
0
30
0
3
*Model_Space
0
ENDBLK
5
21
100
AcDbEntity
8
0
100
AcDbBlockEnd
0
BLOCK
5
1C
100
AcDbEntity
8
0
100
AcDbBlockBegin
2
*Paper_Space
70
0
10
0
20
0
30
0
3
*Paper_Space
0
ENDBLK
5
1D
100
AcDbEntity
8
0
100
AcDbBlockEnd
0
BLOCK
5
24
100
AcDbEntity
8
0
100
AcDbBlockBegin
2
*Paper_Space0
70
0
10
0
20
0
30
0
3
*Paper_Space0
0
ENDBLK
5
25
100
AcDbEntity
8
0
100
AcDbBlockEnd
0
BLOCK
5
3F2
100
AcDbEntity
8
0
100
AcDbBlockBegin
2
DimnDraft3D1
70
0
10
0
20
0
30
0
3
DimnDraft3D1
0
MTEXT
5
3E8
100
AcDbEntity
8
2
62
256
6
ByLayer
370
18
48
1
60
0
100
AcDbMText
10
41.125
20
8.436842
30
0
210
0
220
0
230
1
1
\W0.5469;19
40
4.5
41
0
44
1.084337
50
90
71
7
72
5
7
iso_b_vert
0
LINE
5
3E9
100
AcDbEntity
8
2
62
256
6
ByLayer
370
13
48
1
60
0
100
AcDbLine
10
34.5
20
0
30
0
11
45.25
21
0
31
0
39
0
210
0
220
0
230
1
0
LINE
5
3EA
100
AcDbEntity
8
2
62
256
6
ByLayer
370
13
48
1
60
0
100
AcDbLine
10
29.5
20
18.875
30
0
11
45.25
21
18.875
31
0
39
0
210
0
220
0
230
1
0
LINE
5
3EB
100
AcDbEntity
8
2
62
256
6
ByLayer
370
13
48
1
60
0
100
AcDbLine
10
42.25
20
0
30
0
11
42.25
21
18.875
31
0
39
0
210
0
220
0
230
1
0
LINE
5
3EC
100
AcDbEntity
8
2
62
256
6
ByLayer
370
13
48
1
60
0
100
AcDbLine
10
42.25
20
0
30
0
11
41.855043
21
2.999999
31
0
39
0
210
0
220
0
230
1
0
LINE
5
3ED
100
AcDbEntity
8
2
62
256
6
ByLayer
370
13
48
1
60
0
100
AcDbLine
10
42.25
20
0
30
0
11
42.644957
21
3.000001
31
0
39
0
210
0
220
0
230
1
0
LINE
5
3EE
100
AcDbEntity
8
2
62
256
6
ByLayer
370
13
48
1
60
0
100
AcDbLine
10
41.855043
20
2.999999
30
0
11
42.644957
21
3.000001
31
0
39
0
210
0
220
0
230
1
0
LINE
5
3EF
100
AcDbEntity
8
2
62
256
6
ByLayer
370
13
48
1
60
0
100
AcDbLine
10
42.25
20
18.875
30
0
11
42.644957
21
15.875001
31
0
39
0
210
0
220
0
230
1
0
LINE
5
3F0
100
AcDbEntity
8
2
62
256
6
ByLayer
370
13
48
1
60
0
100
AcDbLine
10
42.25
20
18.875
30
0
11
41.855043
21
15.874999
31
0
39
0
210
0
220
0
230
1
0
LINE
5
3F1
100
AcDbEntity
8
2
62
256
6
ByLayer
370
13
48
1
60
0
100
AcDbLine
10
42.644957
20
15.875001
30
0
11
41.855043
21
15.874999
31
0
39
0
210
0
220
0
230
1
0
ENDBLK
5
3F3
100
AcDbEntity
8
0
100
AcDbBlockEnd
0
BLOCK
5
3F6
100
AcDbEntity
8
0
100
AcDbBlockBegin
2
_CLOSED
70
0
10
0
20
0
30
0
3
_CLOSED
0
LINE
5
3F8
100
AcDbEntity
8
0
62
256
6
ByLayer
370
-2
48
1
60
0
100
AcDbLine
10
-1
20
0.166667
30
0
11
0
21
0
31
0
39
0
210
0
220
0
230
1
0
LINE
5
3F9
100
AcDbEntity
8
0
62
256
6
ByLayer
370
-2
48
1
60
0
100
AcDbLine
10
0
20
0
30
0
11
-1
21
-0.166667
31
0
39
0
210
0
220
0
230
1
0
LINE
5
3FA
100
AcDbEntity
8
0
62
256
6
ByLayer
370
-2
48
1
60
0
100
AcDbLine
10
-1
20
0.166667
30
0
11
-1
21
-0.166667
31
0
39
0
210
0
220
0
230
1
0
LINE
5
3FB
100
AcDbEntity
8
0
62
256
6
ByLayer
370
-2
48
1
60
0
100
AcDbLine
10
0
20
0
30
0
11
-1
21
0
31
0
39
0
210
0
220
0
230
1
0
ENDBLK
5
3F7
100
AcDbEntity
8
0
100
AcDbBlockEnd
0
BLOCK
5
408
100
AcDbEntity
8
0
100
AcDbBlockBegin
2
DimnDraft3D2
70
0
10
0
20
0
30
0
3
DimnDraft3D2
0
MTEXT
5
3FD
100
AcDbEntity
8
SK2
62
256
6
ByLayer
370
18
48
1
60
0
100
AcDbMText
10
-10.875
20
-3.748026
30
0
210
0
220
0
230
1
1
\W0.8879;%%c25
40
4.5
41
0
44
1.084337
50
90
71
7
72
5
7
iso_b_vert
0
LINE
5
3FF
100
AcDbEntity
8
SK2
62
256
6
ByLayer
370
13
48
1
60
0
100
AcDbLine
10
-1.5
20
12.5
30
0
11
-12.75
21
12.5
31
0
39
0
210
0
220
0
230
1
0
LINE
5
400
100
AcDbEntity
8
SK2
62
256
6
ByLayer
370
13
48
1
60
0
100
AcDbLine
10
-1.5
20
-12.5
30
0
11
-12.75
21
-12.5
31
0
39
0
210
0
220
0
230
1
0
LINE
5
401
100
AcDbEntity
8
SK2
62
256
6
ByLayer
370
13
48
1
60
0
100
AcDbLine
10
-9.75
20
12.5
30
0
11
-9.75
21
-12.5
31
0
39
0
210
0
220
0
230
1
0
LINE
5
402
100
AcDbEntity
8
SK2
62
256
6
ByLayer
370
13
48
1
60
0
100
AcDbLine
10
-9.75
20
12.5
30
0
11
-9.355043
21
9.500001
31
0
39
0
210
0
220
0
230
1
0
LINE
5
403
100
AcDbEntity
8
SK2
62
256
6
ByLayer
370
13
48
1
60
0
100
AcDbLine
10
-9.75
20
12.5
30
0
11
-10.144957
21
9.499999
31
0
39
0
210
0
220
0
230
1
0
LINE
5
404
100
AcDbEntity
8
SK2
62
256
6
ByLayer
370
13
48
1
60
0
100
AcDbLine
10
-9.355043
20
9.500001
30
0
11
-10.144957
21
9.499999
31
0
39
0
210
0
220
0
230
1
0
LINE
5
405
100
AcDbEntity
8
SK2
62
256
6
ByLayer
370
13
48
1
60
0
100
AcDbLine
10
-9.75
20
-12.5
30
0
11
-10.144957
21
-9.500001
31
0
39
0
210
0
220
0
230
1
0
LINE
5
406
100
AcDbEntity
8
SK2
62
256
6
ByLayer
370
13
48
1
60
0
100
AcDbLine
10
-9.75
20
-12.5
30
0
11
-9.355043
21
-9.499999
31
0
39
0
210
0
220
0
230
1
0
LINE
5
407
100
AcDbEntity
8
SK2
62
256
6
ByLayer
370
13
48
1
60
0
100
AcDbLine
10
-10.144957
20
-9.500001
30
0
11
-9.355043
21
-9.499999
31
0
39
0
210
0
220
0
230
1
0
ENDBLK
5
409
100
AcDbEntity
8
0
100
AcDbBlockEnd
0
BLOCK
5
416
100
AcDbEntity
8
0
100
AcDbBlockBegin
2
DimnDraft3D3
70
0
10
0
20
0
30
0
3
DimnDraft3D3
0
MTEXT
5
40C
100
AcDbEntity
8
2
62
256
6
ByLayer
370
18
48
1
60
0
100
AcDbMText
10
12.436842
20
39.75
30
0
210
0
220
0
230
1
1
\W0.6740;28
40
4.5
41
0
44
1.084337
50
0
71
7
72
5
7
iso_b_vert
0
LINE
5
40D
100
AcDbEntity
8
2
62
256
6
ByLayer
370
13
48
1
60
0
100
AcDbLine
10
28
20
20.375
30
0
11
28
21
41.625
31
0
39
0
210
0
220
0
230
1
0
LINE
5
40E
100
AcDbEntity
8
2
62
256
6
ByLayer
370
13
48
1
60
0
100
AcDbLine
10
0
20
1.5
30
0
11
0
21
41.625
31
0
39
0
210
0
220
0
230
1
0
LINE
5
40F
100
AcDbEntity
8
2
62
256
6
ByLayer
370
13
48
1
60
0
100
AcDbLine
10
28
20
38.625
30
0
11
0
21
38.625
31
0
39
0
210
0
220
0
230
1
0
LINE
5
410
100
AcDbEntity
8
2
62
256
6
ByLayer
370
13
48
1
60
0
100
AcDbLine
10
28
20
38.625
30
0
11
25.000001
21
38.230043
31
0
39
0
210
0
220
0
230
1
0
LINE
5
411
100
AcDbEntity
8
2
62
256
6
ByLayer
370
13
48
1
60
0
100
AcDbLine
10
28
20
38.625
30
0
11
24.999999
21
39.019957
31
0
39
0
210
0
220
0
230
1
0
LINE
5
412
100
AcDbEntity
8
2
62
256
6
ByLayer
370
13
48
1
60
0
100
AcDbLine
10
25.000001
20
38.230043
30
0
11
24.999999
21
39.019957
31
0
39
0
210
0
220
0
230
1
0
LINE
5
413
100
AcDbEntity
8
2
62
256
6
ByLayer
370
13
48
1
60
0
100
AcDbLine
10
0
20
38.625
30
0
11
2.999999
21
39.019957
31
0
39
0
210
0
220
0
230
1
0
LINE
5
414
100
AcDbEntity
8
2
62
256
6
ByLayer
370
13
48
1
60
0
100
AcDbLine
10
0
20
38.625
30
0
11
3.000001
21
38.230043
31
0
39
0
210
0
220
0
230
1
0
LINE
5
415
100
AcDbEntity
8
2
62
256
6
ByLayer
370
13
48
1
60
0
100
AcDbLine
10
2.999999
20
39.019957
30
0
11
3.000001
21
38.230043
31
0
39
0
210
0
220
0
230
1
0
ENDBLK
5
417
100
AcDbEntity
8
0
100
AcDbBlockEnd
0
ENDSEC
0
SECTION
2
ENTITIES
0
ARC
5
1EF
100
AcDbEntity
8
1
62
256
6
ByLayer
370
18
48
1
60
0
100
AcDbCircle
39
0
10
-6.126954
20
13.3
30
0
40
0.8
210
0
220
0
230
-1
100
AcDbArc
50
220
51
255.725195
0
ELLIPSE
5
1F0
100
AcDbEntity
8
1
62
256
6
ByLayer
370
18
48
1
60
0
100
AcDbEllipse
10
10.490261
20
6.746996
30
0
11
-0.507819092284971
21
3.07825776249577
31
0
210
0
220
0
230
1
40
0.643324
41
-0.567352516248678
42
-0.41736583588114
0
ELLIPSE
5
1F1
100
AcDbEntity
8
1
62
256
6
ByLayer
370
18
48
1
60
0
100
AcDbEllipse
10
5.958211
20
0
30
0
11
-0.0505303937184274
21
-12.4999999748526
31
0
210
0
220
0
230
1
40
0.015757
41
0.830661151182442
42
1.22998908256496
0
ELLIPSE
5
1F2
100
AcDbEntity
8
1
62
256
6
ByLayer
370
18
48
1
60
0
100
AcDbEllipse
10
6.926707
20
0
30
0
11
-0.980360827332652
21
-12.4999926516273
31
0
210
0
220
0
230
1
40
0.013825
41
0.156355897051615
42
0.463352694141044
0
ELLIPSE
5
1F3
100
AcDbEntity
8
1
62
256
6
ByLayer
370
18
48
1
60
0
100
AcDbEllipse
10
10.39364
20
5.656854
30
0
11
-2.28967732124185
21
3.73696266408921
31
0
210
0
220
0
230
1
40
0.13645
41
1.46551645178971
42
1.67445948156167
0
ELLIPSE
5
1F4
100
AcDbEntity
8
1
62
256
6
ByLayer
370
18
48
1
60
0
100
AcDbEllipse
10
13.620587
20
5.656854
30
0
11
-6.72293632039979
21
-3.68252967031007
31
0
210
0
220
0
230
1
40
0.105333
41
1.39011452443789
42
1.59010645990118
0
ELLIPSE
5
1F5
100
AcDbEntity
8
1
62
256
6
ByLayer
370
18
48
1
60
0
100
AcDbEllipse
10
27.116787
20
-5.656854
30
0
11
-0.0327730077853785
21
-3.74999984799848
31
0
210
0
220
0
230
1
40
0.032579
41
-2.10937821076602
42
-1.64439726027887
0
ELLIPSE
5
1F6
100
AcDbEntity
8
1
62
256
6
ByLayer
370
18
48
1
60
0
100
AcDbEllipse
10
17.26273
20
-3.504172
30
0
11
-2.5
21
3.06151588455594E-16
31
0
210
0
220
0
230
1
40
0.258819
41
2.02134349402141
42
1.12024915956838
0
ELLIPSE
5
1F7
100
AcDbEntity
8
1
62
256
6
ByLayer
370
18
48
1
60
0
100
AcDbEllipse
10
11.667165
20
6.336022
30
0
11
-0.538811754365992
21
2.41653380609007
31
0
210
0
220
0
230
1
40
0.807227
41
0.231761091106168
42
0.260576381838447
0
ELLIPSE
5
1F8
100
AcDbEntity
8
1
62
256
6
ByLayer
370
18
48
1
60
0
100
AcDbEllipse
10
10.536648
20
7.218304
30
0
11
-2.09980894710406
21
-0.468192060738513
31
0
210
0
220
0
230
1
40
0.718199
41
-1.93899019590709
42
-1.82554671090794
0
ELLIPSE
5
1F9
100
AcDbEntity
8
1
62
256
6
ByLayer
370
18
48
1
60
0
100
AcDbEllipse
10
25.880816
20
-5.656854
30
0
11
-3.72980205746865
21
-3.72558305076218
31
0
210
0
220
0
230
1
40
0.114547
41
-2.05410314240376
42
-1.88865522755438
0
ELLIPSE
5
1FA
100
AcDbEntity
8
1
62
256
6
ByLayer
370
18
48
1
60
0
100
AcDbEllipse
10
10.497694
20
6.822522
30
0
11
2.08990208005799
21
-0.205692235559115
31
0
210
0
220
0
230
1
40
0.965613
41
1.43198366063444
42
1.4343635105277
0
ELLIPSE
5
1FB
100
AcDbEntity
8
1
62
256
6
ByLayer
370
18
48
1
60
0
100
AcDbEllipse
10
6.561817
20
-5.656854
30
0
11
-0.29410824821477
21
-3.74999779569006
31
0
210
0
220
0
230
1
40
0.013825
41
-1.41693423419978
42
0.786296953928362
0
ELLIPSE
5
1FC
100
AcDbEntity
8
1
62
256
6
ByLayer
370
18
48
1
60
0
100
AcDbEllipse
10
51.489807
20
-5.656854
30
0
11
-111.174111591993
21
0.971602715085876
31
0
210
0
220
0
230
1
40
0.032579
41
-1.32028951544682
42
-1.25381781143036
0
ELLIPSE
5
1FD
100
AcDbEntity
8
1
62
256
6
ByLayer
370
18
48
1
60
0
100
AcDbEllipse
10
24.809715
20
-5.656853
30
0
11
-0.0417556044840129
21
-3.74999856906709
31
0
210
0
220
0
230
1
40
0.041479
41
-2.60616536547173
42
-2.56263753620461
0
ELLIPSE
5
1FE
100
AcDbEntity
8
1
62
256
6
ByLayer
370
18
48
1
60
0
100
AcDbEllipse
10
11.861336
20
8.416062
30
0
11
-2.71862558427205
21
0.353905735769705
31
0
210
0
220
0
230
1
40
0.965338
41
-0.925521879385353
42
-0.431631692296971
0
ELLIPSE
5
1FF
100
AcDbEntity
8
1
62
256
6
ByLayer
370
18
48
1
60
0
100
AcDbEllipse
10
17.203515
20
0
30
0
11
-1.75313961275938
21
13.7325083865413
31
0
210
0
220
0
230
1
40
0.395482
41
-0.0762452375104842
42
0.0779224724365368
0
ELLIPSE
5
200
100
AcDbEntity
8
1
62
256
6
ByLayer
370
18
48
1
60
0
100
AcDbEllipse
10
7.26677
20
3.262818
30
0
11
-1.19698232570082
21
-16.0299970805535
31
0
210
0
220
0
230
1
40
0.001072
41
-0.764193900907259
42
-0.688648709664606
0
ELLIPSE
5
201
100
AcDbEntity
8
1
62
256
6
ByLayer
370
18
48
1
60
0
100
AcDbEllipse
10
-35.320968
20
5.656854
30
0
11
-111.174111453809
21
0.971602711657433
31
0
210
0
220
0
230
1
40
0.032579
41
1.96380908699704
42
2.07776917429073
0
ELLIPSE
5
202
100
AcDbEntity
8
1
62
256
6
ByLayer
370
18
48
1
60
0
100
AcDbEllipse
10
11.468423
20
5.656854
30
0
11
-7.15595000039292
21
3.69351263466817
31
0
210
0
220
0
230
1
40
0.090614
41
-3.07049268125487
42
-2.15481981798496
0
ELLIPSE
5
203
100
AcDbEntity
8
1
62
256
6
ByLayer
370
18
48
1
60
0
100
AcDbEllipse
10
10.425819
20
6.092241
30
0
11
-0.551953642090291
21
2.47547378557311
31
0
210
0
220
0
230
1
40
0.807227
41
-0.453379446222712
42
-0.374921520664753
0
ELLIPSE
5
204
100
AcDbEntity
8
1
62
256
6
ByLayer
370
18
48
1
60
0
100
AcDbEllipse
10
12.724345
20
29.446037
30
0
11
-4.18620334785106
21
-29.3807000612895
31
0
210
0
220
0
230
1
40
0.055934
41
0.79925133994999
42
0.833414687523874
0
ELLIPSE
5
205
100
AcDbEntity
8
1
62
256
6
ByLayer
370
18
48
1
60
0
100
AcDbEllipse
10
30.116649
20
-1E-06
30
0
11
-13.6759402131365
21
-13.6604704236173
31
0
210
0
220
0
230
1
40
0.114547
41
1.17595943707193
42
1.22072615217888
0
ELLIPSE
5
206
100
AcDbEntity
8
1
62
256
6
ByLayer
370
18
48
1
60
0
100
AcDbEllipse
10
10.622545
20
8.09105
30
0
11
-2.08249206160547
21
0.271149992189291
31
0
210
0
220
0
230
1
40
0.965345
41
-0.901053638699631
42
-0.120192974543986
0
ELLIPSE
5
207
100
AcDbEntity
8
1
62
256
6
ByLayer
370
18
48
1
60
0
100
AcDbEllipse
10
10.459588
20
6.435347
30
0
11
-2.08990208005799
21
0.205692235559113
31
0
210
0
220
0
230
1
40
0.965613
41
-1.47604345436112
42
-0.321900981467431
0
ELLIPSE
5
208
100
AcDbEntity
8
1
62
256
6
ByLayer
370
18
48
1
60
0
100
AcDbEllipse
10
10.459588
20
6.435347
30
0
11
-2.08990208005799
21
0.205692235559113
31
0
210
0
220
0
230
1
40
0.965613
41
-2.26684103261065
42
-1.47604345436113
0
ELLIPSE
5
209
100
AcDbEntity
8
1
62
256
6
ByLayer
370
18
48
1
60
0
100
AcDbEllipse
10
14.95572
20
5.656854
30
0
11
-6.49003496806291
21
3.65602182335321
31
0
210
0
220
0
230
1
40
0.128546
41
1.51711776912594
42
1.75668209988497
0
ELLIPSE
5
20A
100
AcDbEntity
8
1
62
256
6
ByLayer
370
18
48
1
60
0
100
AcDbEllipse
10
-17.748584
20
-7E-06
30
0
11
-539.777309036397
21
3.5609180834357
31
0
210
0
220
0
230
1
40
0.024604
41
-1.63609835462077
42
-1.6334631986112
0
ELLIPSE
5
20B
100
AcDbEntity
8
1
62
256
6
ByLayer
370
18
48
1
60
0
100
AcDbEllipse
10
10.467228
20
6.512968
30
0
11
2.08990208005799
21
-0.205692235559115
31
0
210
0
220
0
230
1
40
0.965613
41
0.857829307473153
42
1.50400749043959
0
ELLIPSE
5
20C
100
AcDbEntity
8
1
62
256
6
ByLayer
370
18
48
1
60
0
100
AcDbEllipse
10
10.467228
20
6.512968
30
0
11
2.08990208005799
21
-0.205692235559115
31
0
210
0
220
0
230
1
40
0.965613
41
-1.44140515840105
42
-0.408848334235698
0
ELLIPSE
5
20D
100
AcDbEntity
8
1
62
256
6
ByLayer
370
18
48
1
60
0
100
AcDbEllipse
10
5.958211
20
0
30
0
11
-0.0505303937194265
21
-12.4999999745999
31
0
210
0
220
0
230
1
40
0.015757
41
2.41387145087015
42
2.83464590266727
0
ELLIPSE
5
20E
100
AcDbEntity
8
1
62
256
6
ByLayer
370
18
48
1
60
0
100
AcDbEllipse
10
24.34637
20
-5.656854
30
0
11
-0.478128985255526
21
3.74522955963806
31
0
210
0
220
0
230
1
40
0.395482
41
-0.585411114788597
42
-0.0620230580146604
0
ELLIPSE
5
20F
100
AcDbEntity
8
1
62
256
6
ByLayer
370
18
48
1
60
0
100
AcDbEllipse
10
25.880816
20
-5.656854
30
0
11
-3.72980205844094
21
-3.72558305206688
31
0
210
0
220
0
230
1
40
0.114547
41
1.59341168574601
42
1.7588596005574
0
ELLIPSE
5
210
100
AcDbEntity
8
1
62
256
6
ByLayer
370
18
48
1
60
0
100
AcDbEllipse
10
10.031548
20
-5.136974
30
0
11
-3.37148837950049
21
0.439392884436141
31
0
210
0
220
0
230
1
40
0.965377
41
-1.44564015338792
42
-1.20875926067573
0
ELLIPSE
5
211
100
AcDbEntity
8
1
62
256
6
ByLayer
370
18
48
1
60
0
100
AcDbEllipse
10
170.07555
20
-2E-06
30
0
11
-407.6384375723
21
3.56254411598711
31
0
210
0
220
0
230
1
40
0.032579
41
-1.18034396263689
42
-1.16040946068078
0
ELLIPSE
5
212
100
AcDbEntity
8
1
62
256
6
ByLayer
370
18
48
1
60
0
100
AcDbEllipse
10
51.489811
20
-5.656855
30
0
11
-111.174117292739
21
0.971602882134672
31
0
210
0
220
0
230
1
40
0.032579
41
-1.18062266132293
42
-1.16102577986705
0
ELLIPSE
5
213
100
AcDbEntity
8
1
62
256
6
ByLayer
370
18
48
1
60
0
100
AcDbEllipse
10
-35.320773
20
5.656868
30
0
11
-111.173824194912
21
0.971606032677444
31
0
210
0
220
0
230
1
40
0.032579
41
-1.97651653522182
42
-1.96322705052656
0
ELLIPSE
5
214
100
AcDbEntity
8
1
62
256
6
ByLayer
370
18
48
1
60
0
100
AcDbEllipse
10
21.587888
20
7.799253
30
0
11
-3.55780949343204
21
0.35016654386849
31
0
210
0
220
0
230
1
40
0.965613
41
1.41747370599319E-05
42
3.14150878090955
0
ELLIPSE
5
215
100
AcDbEntity
8
1
62
256
6
ByLayer
370
18
48
1
60
0
100
AcDbEllipse
10
21.61751
20
8.100224
30
0
11
-3.55780949343204
21
0.35016654386849
31
0
210
0
220
0
230
1
40
0.965613
41
0
42
6.28318530717959
0
ELLIPSE
5
216
100
AcDbEntity
8
1
62
256
6
ByLayer
370
18
48
1
60
0
100
AcDbEllipse
10
21.619719
20
8.122672
30
0
11
-2.38845952006626
21
0.235076840638986
31
0
210
0
220
0
230
1
40
0.965613
41
0
42
6.28318530717959
0
ELLIPSE
5
217
100
AcDbEntity
8
1
62
256
6
ByLayer
370
18
48
1
60
0
100
AcDbEllipse
10
21.573882
20
7.656949
30
0
11
-1.52423525038896
21
0.150018203801113
31
0
210
0
220
0
230
1
40
0.965613
41
-0.913530767300454
42
-0.131634356723082
0
ELLIPSE
5
218
100
AcDbEntity
8
1
62
256
6
ByLayer
370
18
48
1
60
0
100
AcDbEllipse
10
23.053842
20
8.54874
30
0
11
-0.251829884175524
21
0.37945058687945
31
0
210
0
220
0
230
1
40
0.473127
41
-1.83746232965238
42
0.163507753258579
0
ELLIPSE
5
219
100
AcDbEntity
8
1
62
256
6
ByLayer
370
18
48
1
60
0
100
AcDbEllipse
10
23.32199
20
7.711186
30
0
11
-0.0193769920919454
21
0.449176849808405
31
0
210
0
220
0
230
1
40
0.485452
41
1.27607897811898
42
1.56492407532556
0
ELLIPSE
5
21A
100
AcDbEntity
8
1
62
256
6
ByLayer
370
18
48
1
60
0
100
AcDbEllipse
10
20.640886
20
9.093014
30
0
11
-0.395736453277436
21
-0.23345470415676
31
0
210
0
220
0
230
1
40
0.464818
41
1.59087614742814
42
2.8949173197081
0
ELLIPSE
5
21B
100
AcDbEntity
8
1
62
256
6
ByLayer
370
18
48
1
60
0
100
AcDbEllipse
10
21.573882
20
7.656949
30
0
11
-1.52423525038896
21
0.150018203801113
31
0
210
0
220
0
230
1
40
0.965613
41
0.171120318379794
42
0.71695539760859
0
ELLIPSE
5
21C
100
AcDbEntity
8
1
62
256
6
ByLayer
370
18
48
1
60
0
100
AcDbEllipse
10
21.619719
20
8.122672
30
0
11
1.95903440218769
21
-0.19281198366577
31
0
210
0
220
0
230
1
40
0.965613
41
2.75166066188763
42
-2.48432709409536
0
ELLIPSE
5
21D
100
AcDbEntity
8
1
62
256
6
ByLayer
370
18
48
1
60
0
100
AcDbEllipse
10
21.573882
20
7.656949
30
0
11
1.52423525038896
21
-0.150018203801114
31
0
210
0
220
0
230
1
40
0.965613
41
1.18086433509274
42
2.22806188628933
0
ELLIPSE
5
21E
100
AcDbEntity
8
1
62
256
6
ByLayer
370
18
48
1
60
0
100
AcDbEllipse
10
21.619719
20
8.122672
30
0
11
1.95903440218769
21
-0.19281198366577
31
0
210
0
220
0
230
1
40
0.965613
41
-0.38993199170216
42
0.657265559494432
0
ELLIPSE
5
21F
100
AcDbEntity
8
1
62
256
6
ByLayer
370
18
48
1
60
0
100
AcDbEllipse
10
21.619719
20
8.122672
30
0
11
1.95903440218769
21
-0.19281198366577
31
0
210
0
220
0
230
1
40
0.965613
41
-1.43712954289875
42
-0.38993199170216
0
ELLIPSE
5
220
100
AcDbEntity
8
1
62
256
6
ByLayer
370
18
48
1
60
0
100
AcDbEllipse
10
23.32199
20
7.711186
30
0
11
-0.0193769920916566
21
0.449176849810115
31
0
210
0
220
0
230
1
40
0.485452
41
1.56492407532736
42
2.86896524760409
0
ELLIPSE
5
221
100
AcDbEntity
8
1
62
256
6
ByLayer
370
18
48
1
60
0
100
AcDbEllipse
10
21.619719
20
8.122672
30
0
11
1.95903440218769
21
-0.19281198366577
31
0
210
0
220
0
230
1
40
0.965613
41
0.657265559494432
42
1.70446311069105
0
ELLIPSE
5
222
100
AcDbEntity
8
1
62
256
6
ByLayer
370
18
48
1
60
0
100
AcDbEllipse
10
21.619719
20
8.122672
30
0
11
1.95903440218769
21
-0.19281198366577
31
0
210
0
220
0
230
1
40
0.965613
41
-2.48432709409536
42
-1.43712954289875
0
ELLIPSE
5
223
100
AcDbEntity
8
1
62
256
6
ByLayer
370
18
48
1
60
0
100
AcDbEllipse
10
23.121906
20
6.859104
30
0
11
-0.21967624720865
21
-0.394669692487791
31
0
210
0
220
0
230
1
40
0.480963
41
3.03507295213003
42
-2.9420388172422
0
ELLIPSE
5
224
100
AcDbEntity
8
1
62
256
6
ByLayer
370
18
48
1
60
0
100
AcDbEllipse
10
21.619719
20
8.122672
30
0
11
1.95903440218769
21
-0.19281198366577
31
0
210
0
220
0
230
1
40
0.965613
41
1.70446311069105
42
2.75166066188763
0
ELLIPSE
5
225
100
AcDbEntity
8
1
62
256
6
ByLayer
370
18
48
1
60
0
100
AcDbEllipse
10
22.388994
20
9.147251
30
0
11
-0.412981680001475
21
0.20945187073506
31
0
210
0
220
0
230
1
40
0.457631
41
0.252506813972564
42
1.55654798625173
0
ELLIPSE
5
226
100
AcDbEntity
8
1
62
256
6
ByLayer
370
18
48
1
60
0
100
AcDbEllipse
10
21.573882
20
7.656949
30
0
11
-1.52423525038896
21
0.150018203801113
31
0
210
0
220
0
230
1
40
0.965613
41
-3.00792586969365
42
-1.96072831849705
0
ELLIPSE
5
227
100
AcDbEntity
8
1
62
256
6
ByLayer
370
18
48
1
60
0
100
AcDbEllipse
10
20.640886
20
9.093014
30
0
11
-0.395736453277753
21
-0.233454704156865
31
0
210
0
220
0
230
1
40
0.464818
41
0.286834975149279
42
1.5908761474285
0
ELLIPSE
5
228
100
AcDbEntity
8
1
62
256
6
ByLayer
370
18
48
1
60
0
100
AcDbEllipse
10
21.505818
20
9.346585
30
0
11
-0.464835354532114
21
-0.0133066407690301
31
0
210
0
220
0
230
1
40
0.453769
41
-3.07816939653384
42
-0.326958274178012
0
ELLIPSE
5
229
100
AcDbEntity
8
1
62
256
6
ByLayer
370
18
48
1
60
0
100
AcDbEllipse
10
21.573882
20
7.656949
30
0
11
-1.52423525038896
21
0.150018203801113
31
0
210
0
220
0
230
1
40
0.965613
41
2.71909966217462
42
-3.00792586969365
0
ELLIPSE
5
22A
100
AcDbEntity
8
1
62
256
6
ByLayer
370
18
48
1
60
0
100
AcDbEllipse
10
20.025857
20
8.454793
30
0
11
-0.219676247208651
21
-0.394669692487791
31
0
210
0
220
0
230
1
40
0.480963
41
2.97284238771697
42
-1.49144752962149
0
ELLIPSE
5
22B
100
AcDbEntity
8
1
62
256
6
ByLayer
370
18
48
1
60
0
100
AcDbEllipse
10
22.388994
20
9.147251
30
0
11
-0.412981680001059
21
0.209451870734658
31
0
210
0
220
0
230
1
40
0.457631
41
1.55654798625086
42
2.86058915853127
0
ELLIPSE
5
22C
100
AcDbEntity
8
1
62
256
6
ByLayer
370
18
48
1
60
0
100
AcDbEllipse
10
19.825774
20
7.602712
30
0
11
-0.0193769920923935
21
0.449176849809182
31
0
210
0
220
0
230
1
40
0.485452
41
-2.88070975054504
42
-1.86551472547932
0
ELLIPSE
5
22D
100
AcDbEntity
8
1
62
256
6
ByLayer
370
18
48
1
60
0
100
AcDbEllipse
10
27.992583
20
10.159057
30
0
11
-0.00254601628445178
21
-0.308566300707732
31
0
210
0
220
0
230
1
40
0.03172
41
-2.01444607656907
42
-1.31631437554075
0
ELLIPSE
5
22E
100
AcDbEntity
8
1
62
256
6
ByLayer
370
18
48
1
60
0
100
AcDbEllipse
10
25.448745
20
10.762656
30
0
11
0.0226218689952112
21
-0.0974076539249535
31
0
210
0
220
0
230
1
40
0.09421
41
1.11950367503862
42
1.81763537583633
0
ELLIPSE
5
22F
100
AcDbEntity
8
1
62
256
6
ByLayer
370
18
48
1
60
0
100
AcDbEllipse
10
21.663049
20
8.379076
30
0
11
-4.51893735051296
21
0.588935417692965
31
0
210
0
220
0
230
1
40
0.965377
41
-2.42821332506078
42
-1.02157234235324
0
ELLIPSE
5
230
100
AcDbEntity
8
1
62
256
6
ByLayer
370
18
48
1
60
0
100
AcDbEllipse
10
26.87175
20
8.034179
30
0
11
0.0226218689952112
21
-0.0974076539249535
31
0
210
0
220
0
230
1
40
0.09421
41
1.81763537583629
42
2.51576707663397
0
ELLIPSE
5
231
100
AcDbEntity
8
1
62
256
6
ByLayer
370
18
48
1
60
0
100
AcDbEllipse
10
21.691982
20
3.077758
30
0
11
-0.0484339713662949
21
0.0874880015641513
31
0
210
0
220
0
230
1
40
0.158308
41
-2.02160408854403
42
-1.35924285752788
0
ELLIPSE
5
232
100
AcDbEntity
8
1
62
256
6
ByLayer
370
18
48
1
60
0
100
AcDbEllipse
10
12.004537
20
7.351024
30
0
11
0.282937595419736
21
-0.16984203572172
31
0
210
0
220
0
230
1
40
0.699307
41
-1.77208171567265
42
-1.42837221303518
0
ELLIPSE
5
233
100
AcDbEntity
8
1
62
256
6
ByLayer
370
18
48
1
60
0
100
AcDbEllipse
10
16.916627
20
11.005163
30
0
11
0.0710457241211574
21
0.0703740370030056
31
0
210
0
220
0
230
1
40
0.163559
41
0.665190757199157
42
1.36332245799687
0
ELLIPSE
5
234
100
AcDbEntity
8
1
62
256
6
ByLayer
370
18
48
1
60
0
100
AcDbEllipse
10
16.226627
20
6.282907
30
0
11
0.189559674859682
21
0.0780520958532933
31
0
210
0
220
0
230
1
40
0.228281
41
-1.70082223414431
42
-0.777022374570432
0
ELLIPSE
5
235
100
AcDbEntity
8
1
62
256
6
ByLayer
370
18
48
1
60
0
100
AcDbEllipse
10
25.079881
20
1.841055
30
0
11
0.423451052811352
21
0.215149264170151
31
0
210
0
220
0
230
1
40
0.906288
41
2.51433144901975
42
2.69948547603666
0
ELLIPSE
5
236
100
AcDbEntity
8
1
62
256
6
ByLayer
370
18
48
1
60
0
100
AcDbEllipse
10
24.438566
20
14.674959
30
0
11
-0.284376105461714
21
0.16742231225983
31
0
210
0
220
0
230
1
40
0.016405
41
1.19359364131851
42
1.54265949171745
0
ELLIPSE
5
237
100
AcDbEntity
8
1
62
256
6
ByLayer
370
18
48
1
60
0
100
AcDbEllipse
10
21.691982
20
3.077758
30
0
11
-0.0809189409723027
21
0.058754786970263
31
0
210
0
220
0
230
1
40
0.062178
41
0.796865864699724
42
2.04321996322437
0
ELLIPSE
5
238
100
AcDbEntity
8
1
62
256
6
ByLayer
370
18
48
1
60
0
100
AcDbEllipse
10
27.471454
20
-0.749736
30
0
11
-0.178490561267673
21
0.0232619762348545
31
0
210
0
220
0
230
1
40
0.965377
41
2.74315005139847
42
-3.14158038343558
0
ELLIPSE
5
239
100
AcDbEntity
8
1
62
256
6
ByLayer
370
18
48
1
60
0
100
AcDbEllipse
10
15.28555
20
4.958577
30
0
11
-0.247903557316213
21
0.0323083003261869
31
0
210
0
220
0
230
1
40
0.965377
41
0.648754949005276
42
1.17235372460357
0
ELLIPSE
5
23A
100
AcDbEntity
8
1
62
256
6
ByLayer
370
18
48
1
60
0
100
AcDbEllipse
10
12.837677
20
7.164464
30
0
11
-1.06040026084181
21
0.098451176321881
31
0
210
0
220
0
230
1
40
0.284805
41
-0.139473998912447
42
0.204235503714949
0
ELLIPSE
5
23B
100
AcDbEntity
8
1
62
256
6
ByLayer
370
18
48
1
60
0
100
AcDbEllipse
10
22.543441
20
7.999771
30
0
11
-4.16762613077081
21
-2.3048521369629
31
0
210
0
220
0
230
1
40
0.787687
41
0.862252872941485
42
1.01675298682388
0
ELLIPSE
5
23C
100
AcDbEntity
8
1
62
256
6
ByLayer
370
18
48
1
60
0
100
AcDbEllipse
10
11.869941
20
7.136069
30
0
11
-0.163001787031506
21
0.0802780296978997
31
0
210
0
220
0
230
1
40
0.905973
41
0.947834104653708
42
1.97989131221702
0
ELLIPSE
5
23D
100
AcDbEntity
8
1
62
256
6
ByLayer
370
18
48
1
60
0
100
AcDbEllipse
10
19.29874
20
12.873048
30
0
11
-0.0182096467134118
21
-0.0983280670336437
31
0
210
0
220
0
230
1
40
0.406619
41
-2.75825057300949
42
-1.26113965378339
0
ELLIPSE
5
23E
100
AcDbEntity
8
1
62
256
6
ByLayer
370
18
48
1
60
0
100
AcDbEllipse
10
21.663049
20
8.379076
30
0
11
-4.51893735051296
21
0.588935417692965
31
0
210
0
220
0
230
1
40
0.965377
41
1.76057687972561
42
-3.11596744474644
0
ELLIPSE
5
23F
100
AcDbEntity
8
1
62
256
6
ByLayer
370
18
48
1
60
0
100
AcDbEllipse
10
21.663049
20
8.379076
30
0
11
-4.51893735051296
21
0.588935417692965
31
0
210
0
220
0
230
1
40
0.965377
41
-0.333818222667583
42
1.07282276003995
0
ELLIPSE
5
240
100
AcDbEntity
8
1
62
256
6
ByLayer
370
18
48
1
60
0
100
AcDbEllipse
10
11.684129
20
5.710329
30
0
11
-0.178490561267673
21
0.0232619762348545
31
0
210
0
220
0
230
1
40
0.965377
41
0.648754949005264
42
1.68081215656667
0
ELLIPSE
5
241
100
AcDbEntity
8
1
62
256
6
ByLayer
370
18
48
1
60
0
100
AcDbEllipse
10
14.549556
20
8.704287
30
0
11
-0.532211092176586
21
-0.846611689834369
31
0
210
0
220
0
230
1
40
0.021035
41
-1.59643525511262
42
-1.10150112877171
0
ELLIPSE
5
242
100
AcDbEntity
8
1
62
256
6
ByLayer
370
18
48
1
60
0
100
AcDbEllipse
10
17.576479
20
10.339012
30
0
11
0.0710457241211574
21
0.0703740370030056
31
0
210
0
220
0
230
1
40
0.163559
41
0.665190757199157
42
1.3633224579969
0
ELLIPSE
5
243
100
AcDbEntity
8
1
62
256
6
ByLayer
370
18
48
1
60
0
100
AcDbEllipse
10
19.785606
20
12.381536
30
0
11
0.0693129226190679
21
-0.0720813343245192
31
0
210
0
220
0
230
1
40
0.477816
41
-1.70849123175285
42
-0.557510339063803
0
ELLIPSE
5
244
100
AcDbEntity
8
1
62
256
6
ByLayer
370
18
48
1
60
0
100
AcDbEllipse
10
25.021504
20
16.145458
30
0
11
-0.556792915774639
21
-0.945842903764438
31
0
210
0
220
0
230
1
40
0.300548
41
2.9695853621252
42
-2.9698904424039
0
ELLIPSE
5
245
100
AcDbEntity
8
1
62
256
6
ByLayer
370
18
48
1
60
0
100
AcDbEllipse
10
18.808542
20
4.152401
30
0
11
0.0979430055712067
21
0.0201783958648498
31
0
210
0
220
0
230
1
40
0.140557
41
-2.38055871060895
42
-0.883447791382886
0
ELLIPSE
5
246
100
AcDbEntity
8
1
62
256
6
ByLayer
370
18
48
1
60
0
100
AcDbEllipse
10
27.295811
20
3.309153
30
0
11
-0.272112542255602
21
-0.0813008471508459
31
0
210
0
220
0
230
1
40
0.912025
41
-1.72869584500161
42
-0.785147526390354
0
ELLIPSE
5
247
100
AcDbEntity
8
1
62
256
6
ByLayer
370
18
48
1
60
0
100
AcDbEllipse
10
18.170301
20
10.703383
30
0
11
0.000997647478522485
21
0.099995023373709
31
0
210
0
220
0
230
1
40
0.620415
41
-1.80951440782679
42
-0.888908647408981
0
ELLIPSE
5
248
100
AcDbEntity
8
1
62
256
6
ByLayer
370
18
48
1
60
0
100
AcDbEllipse
10
25.570846
20
17.069203
30
0
11
-0.00161411562590095
21
-0.186342719950094
31
0
210
0
220
0
230
1
40
0.965414
41
2.1094696947923
42
3.14152690235744
0
ELLIPSE
5
249
100
AcDbEntity
8
1
62
256
6
ByLayer
370
18
48
1
60
0
100
AcDbEllipse
10
26.87175
20
8.034179
30
0
11
-0.0857299184551948
21
0.051481851964218
31
0
210
0
220
0
230
1
40
0.240425
41
-2.42626890175565
42
-1.46633837771719
0
ELLIPSE
5
24A
100
AcDbEntity
8
1
62
256
6
ByLayer
370
18
48
1
60
0
100
AcDbEllipse
10
21.691982
20
3.077758
30
0
11
-0.0958493115396499
21
0.028511567431047
31
0
210
0
220
0
230
1
40
0.257768
41
-1.52934546830636
42
-0.831213767508563
0
ELLIPSE
5
24B
100
AcDbEntity
8
1
62
256
6
ByLayer
370
18
48
1
60
0
100
AcDbEllipse
10
25.961883
20
16.137248
30
0
11
-0.540203768405313
21
0.955419643558091
31
0
210
0
220
0
230
1
40
0.300546
41
-0.171703742230646
42
0.172005760397844
0
ELLIPSE
5
24C
100
AcDbEntity
8
1
62
256
6
ByLayer
370
18
48
1
60
0
100
AcDbEllipse
10
21.872617
20
7.379538
30
0
11
-4.35821835792641
21
-0.135118804568325
31
0
210
0
220
0
230
1
40
0.767733
41
-3.00881237340778
42
-2.85431225950977
0
ELLIPSE
5
24D
100
AcDbEntity
8
1
62
256
6
ByLayer
370
18
48
1
60
0
100
AcDbEllipse
10
25.50149
20
16.480396
30
0
11
0.287254667490144
21
0.162433851167566
31
0
210
0
220
0
230
1
40
0.016158
41
1.25000937400398
42
1.59907522440315
0
ELLIPSE
5
24E
100
AcDbEntity
8
1
62
256
6
ByLayer
370
18
48
1
60
0
100
AcDbEllipse
10
22.648261
20
13.561283
30
0
11
-0.0301121114533164
21
-0.202776381129122
31
0
210
0
220
0
230
1
40
0.004817
41
0.383127039644286
42
1.30692689921591
0
ELLIPSE
5
24F
100
AcDbEntity
8
1
62
256
6
ByLayer
370
18
48
1
60
0
100
AcDbEllipse
10
25.448745
20
10.762656
30
0
11
0.0960061990074335
21
0.0279787375009145
31
0
210
0
220
0
230
1
40
0.440961
41
-2.66123226009799
42
-1.51025136740902
0
ELLIPSE
5
250
100
AcDbEntity
8
1
62
256
6
ByLayer
370
18
48
1
60
0
100
AcDbEllipse
10
25.473541
20
14.060988
30
0
11
-0.00207269667713276
21
-0.474969161028887
31
0
210
0
220
0
230
1
40
0.99947
41
-0.52796260316947
42
-0.342808576152572
0
ELLIPSE
5
251
100
AcDbEntity
8
1
62
256
6
ByLayer
370
18
48
1
60
0
100
AcDbEllipse
10
21.62728
20
8.104622
30
0
11
-3.85816542788974
21
0.502819599290279
31
0
210
0
220
0
230
1
40
0.965377
41
-1.44564013272685
42
-9.45856310161229E-16
0
ELLIPSE
5
252
100
AcDbEntity
8
1
62
256
6
ByLayer
370
18
48
1
60
0
100
AcDbEllipse
10
21.62728
20
8.104622
30
0
11
-3.85816542788974
21
0.502819599290279
31
0
210
0
220
0
230
1
40
0.965377
41
0
42
1.39236334941412
0
ELLIPSE
5
253
100
AcDbEntity
8
1
62
256
6
ByLayer
370
18
48
1
60
0
100
AcDbEllipse
10
21.62728
20
8.104622
30
0
11
-3.85816542788974
21
0.502819599290279
31
0
210
0
220
0
230
1
40
0.965377
41
1.70357739924416
42
-1.44564013272685
0
ELLIPSE
5
254
100
AcDbEntity
8
1
62
256
6
ByLayer
370
18
48
1
60
0
100
AcDbEllipse
10
26.370424
20
10.976706
30
0
11
-0.0490194509068989
21
-0.0871613069703876
31
0
210
0
220
0
230
1
40
0.1004
41
-2.47757088229444
42
-1.81520965127816
0
ELLIPSE
5
255
100
AcDbEntity
8
1
62
256
6
ByLayer
370
18
48
1
60
0
100
AcDbEllipse
10
21.953808
20
3.957958
30
0
11
-0.00537370035299155
21
0.0998555123391606
31
0
210
0
220
0
230
1
40
0.049209
41
-1.31141086757913
42
-0.00241392858384129
0
ELLIPSE
5
256
100
AcDbEntity
8
1
62
256
6
ByLayer
370
18
48
1
60
0
100
AcDbEllipse
10
13.353674
20
9.09815
30
0
11
0.28123916394654
21
-0.17263989302201
31
0
210
0
220
0
230
1
40
0.452158
41
-1.94344739394888
42
-1.59438154355002
0
ELLIPSE
5
257
100
AcDbEntity
8
1
62
256
6
ByLayer
370
18
48
1
60
0
100
AcDbEllipse
10
26.009584
20
4.489862
30
0
11
-0.158449504281931
21
0.130072113048149
31
0
210
0
220
0
230
1
40
0.223464
41
0.785509211485583
42
1.70930907105936
0
ELLIPSE
5
258
100
AcDbEntity
8
1
62
256
6
ByLayer
370
18
48
1
60
0
100
AcDbEllipse
10
23.429327
20
0.252828
30
0
11
-0.582352470640858
21
-0.00755013532884037
31
0
210
0
220
0
230
1
40
0.221792
41
1.53897248975131
42
1.80077187751627
0
ELLIPSE
5
259
100
AcDbEntity
8
1
62
256
6
ByLayer
370
18
48
1
60
0
100
AcDbEllipse
10
11.79889
20
7.255626
30
0
11
-0.163001787032532
21
0.0802780296972498
31
0
210
0
220
0
230
1
40
0.905973
41
-0.0842231029119434
42
0.947834104648412
0
ELLIPSE
5
25A
100
AcDbEntity
8
1
62
256
6
ByLayer
370
18
48
1
60
0
100
AcDbEllipse
10
25.611183
20
9.785097
30
0
11
0.0951478959622834
21
-0.0307713810861731
31
0
210
0
220
0
230
1
40
0.345826
41
-2.18957080759256
42
-1.26896504717475
0
ELLIPSE
5
25B
100
AcDbEntity
8
1
62
256
6
ByLayer
370
18
48
1
60
0
100
AcDbEllipse
10
21.636079
20
8.172139
30
0
11
3.97514197230614
21
-0.518064694475845
31
0
210
0
220
0
230
1
40
0.965377
41
0
42
6.28318530717959
0
ELLIPSE
5
25C
100
AcDbEntity
8
1
62
256
6
ByLayer
370
18
48
1
60
0
100
AcDbEllipse
10
27.259307
20
2.432703
30
0
11
-0.148742134389729
21
0.0193849801957123
31
0
210
0
220
0
230
1
40
0.965377
41
1.79960173278822
42
2.74315005139845
0
ELLIPSE
5
25D
100
AcDbEntity
8
1
62
256
6
ByLayer
370
18
48
1
60
0
100
AcDbEllipse
10
22.767837
20
15.666472
30
0
11
-1.56248848217784
21
0.935776669078825
31
0
210
0
220
0
230
1
40
0.367815
41
2.59068451332833
42
-3.13882819591401
0
ELLIPSE
5
25E
100
AcDbEntity
8
1
62
256
6
ByLayer
370
18
48
1
60
0
100
AcDbEllipse
10
12.004537
20
7.351024
30
0
11
-0.0721091613496182
21
-0.322025261197712
31
0
210
0
220
0
230
1
40
0.50106
41
-1.28669031534258
42
-0.942980812705103
0
ELLIPSE
5
25F
100
AcDbEntity
8
1
62
256
6
ByLayer
370
18
48
1
60
0
100
AcDbEllipse
10
26.370424
20
10.976706
30
0
11
-0.0204799194834116
21
-0.0978804009899478
31
0
210
0
220
0
230
1
40
0.279186
41
1.20260470714911
42
2.44895880567384
0
ELLIPSE
5
260
100
AcDbEntity
8
1
62
256
6
ByLayer
370
18
48
1
60
0
100
AcDbEllipse
10
25.508461
20
16.956135
30
0
11
-0.288698377001562
21
-0.159853830472292
31
0
210
0
220
0
230
1
40
0.315878
41
-1.71284961397153
42
-1.36914011133405
0
ELLIPSE
5
261
100
AcDbEntity
8
1
62
256
6
ByLayer
370
18
48
1
60
0
100
AcDbEllipse
10
18.808542
20
4.152401
30
0
11
0.0859656572363115
21
0.0510872369181286
31
0
210
0
220
0
230
1
40
0.207863
41
1.40896200744619
42
2.36889253148456
0
ELLIPSE
5
262
100
AcDbEntity
8
1
62
256
6
ByLayer
370
18
48
1
60
0
100
AcDbEllipse
10
27.428134
20
3.728123
30
0
11
0.148742134389729
21
-0.0193849801957125
31
0
210
0
220
0
230
1
40
0.965377
41
-1.34199092080155
42
-0.398442602191297
0
ELLIPSE
5
263
100
AcDbEntity
8
1
62
256
6
ByLayer
370
18
48
1
60
0
100
AcDbEllipse
10
25.508461
20
16.956135
30
0
11
-0.282887868121118
21
0.169924848300326
31
0
210
0
220
0
230
1
40
0.284821
41
-1.71330208459105
42
-1.36959258195356
0
ELLIPSE
5
264
100
AcDbEntity
8
1
62
256
6
ByLayer
370
18
48
1
60
0
100
AcDbEllipse
10
19.29874
20
12.873048
30
0
11
0.0710457241211574
21
0.0703740370030056
31
0
210
0
220
0
230
1
40
0.163559
41
1.36332245799687
42
2.06145415879464
0
ELLIPSE
5
265
100
AcDbEntity
8
1
62
256
6
ByLayer
370
18
48
1
60
0
100
AcDbEllipse
10
27.46895
20
0.774841
30
0
11
-0.0641383178714597
21
0.323707083920973
31
0
210
0
220
0
230
1
40
0.444923
41
-2.1833491545423
42
-1.83963965190479
0
ELLIPSE
5
266
100
AcDbEntity
8
1
62
256
6
ByLayer
370
18
48
1
60
0
100
AcDbEllipse
10
14.607849
20
5.884483
30
0
11
-0.608463876802419
21
1.27434235262715
31
0
210
0
220
0
230
1
40
0.632025
41
-0.848707197997851
42
-0.353773071657532
0
ELLIPSE
5
267
100
AcDbEntity
8
1
62
256
6
ByLayer
370
18
48
1
60
0
100
AcDbEllipse
10
21.887916
20
15.106436
30
0
11
-0.247903557316213
21
0.0323083003261869
31
0
210
0
220
0
230
1
40
0.965377
41
-1.44564015338792
42
-0.922041377789613
0
ELLIPSE
5
268
100
AcDbEntity
8
1
62
256
6
ByLayer
370
18
48
1
60
0
100
AcDbEllipse
10
21.636079
20
8.172139
30
0
11
4.07430339523262
21
-0.530988014606319
31
0
210
0
220
0
230
1
40
0.965377
41
-1.61823373186523
42
0.2628431668444
0
ELLIPSE
5
269
100
AcDbEntity
8
1
62
256
6
ByLayer
370
18
48
1
60
0
100
AcDbEllipse
10
12.367488
20
7.955659
30
0
11
-0.511073803584382
21
-0.835121937623922
31
0
210
0
220
0
230
1
40
0.33695
41
-0.175909083181448
42
0.167800419456433
0
ELLIPSE
5
26A
100
AcDbEntity
8
1
62
256
6
ByLayer
370
18
48
1
60
0
100
AcDbEllipse
10
22.317835
20
8.876259
30
0
11
-2.5814602249049
21
-4.47739767218046
31
0
210
0
220
0
230
1
40
0.815376
41
-1.91217351974177
42
-1.7576734058499
0
ELLIPSE
5
26B
100
AcDbEntity
8
1
62
256
6
ByLayer
370
18
48
1
60
0
100
AcDbEllipse
10
27.46895
20
0.774841
30
0
11
-0.127183466692523
21
-0.304506758217403
31
0
210
0
220
0
230
1
40
0.504267
41
0.987942314128478
42
1.58936171043934
0
ELLIPSE
5
26C
100
AcDbEntity
8
1
62
256
6
ByLayer
370
18
48
1
60
0
100
AcDbEllipse
10
19.001728
20
4.801848
30
0
11
0.0575262807909878
21
0.0817968643552822
31
0
210
0
220
0
230
1
40
0.124599
41
0.028716009483031
42
1.3377129484789
0
ELLIPSE
5
26D
100
AcDbEntity
8
1
62
256
6
ByLayer
370
18
48
1
60
0
100
AcDbEllipse
10
24.911402
20
2.172651
30
0
11
-0.517544676722474
21
0.855656185390037
31
0
210
0
220
0
230
1
40
0.034405
41
1.51097050109067
42
2.00590462743158
0
ELLIPSE
5
26E
100
AcDbEntity
8
1
62
256
6
ByLayer
370
18
48
1
60
0
100
AcDbEllipse
10
27.717779
20
13.161382
30
0
11
-0.247903557316213
21
0.0323083003261869
31
0
210
0
220
0
230
1
40
0.965377
41
-3.01643648018279
42
-2.4776973609493
0
ELLIPSE
5
26F
100
AcDbEntity
8
1
62
256
6
ByLayer
370
18
48
1
60
0
100
AcDbEllipse
10
18.201536
20
3.052742
30
0
11
-0.863605810408505
21
0.496375853363857
31
0
210
0
220
0
230
1
40
0.121157
41
1.3590503310447
42
1.51105168912179
0
ELLIPSE
5
270
100
AcDbEntity
8
1
62
256
6
ByLayer
370
18
48
1
60
0
100
AcDbEllipse
10
19.631316
20
4.438013
30
0
11
0.0440775781340834
21
0.0897617240578286
31
0
210
0
220
0
230
1
40
0.595974
41
-1.26297017151952
42
-0.0162758223619974
0
ELLIPSE
5
271
100
AcDbEntity
8
1
62
256
6
ByLayer
370
18
48
1
60
0
100
AcDbEllipse
10
24.937924
20
-0.867516
30
0
11
-0.20786858753467
21
-1.44631439627231
31
0
210
0
220
0
230
1
40
0.443212
41
-3.04851197654007
42
-2.49483937860167
0
ELLIPSE
5
272
100
AcDbEntity
8
1
62
256
6
ByLayer
370
18
48
1
60
0
100
AcDbEllipse
10
19.001728
20
4.801848
30
0
11
0.0556263102572341
21
0.0831006233861452
31
0
210
0
220
0
230
1
40
0.563956
41
-1.18548539085854
42
-0.0345044981695137
0
ELLIPSE
5
273
100
AcDbEntity
8
1
62
256
6
ByLayer
370
18
48
1
60
0
100
AcDbEllipse
10
21.269148
20
3.969818
30
0
11
-0.00884938480955067
21
-0.0996076723374886
31
0
210
0
220
0
230
1
40
0.657299
41
3.13906598488087
42
-1.89742497314115
0
ELLIPSE
5
274
100
AcDbEntity
8
1
62
256
6
ByLayer
370
18
48
1
60
0
100
AcDbEllipse
10
19.29874
20
12.873048
30
0
11
-0.000873198050908553
21
-0.0999961875531457
31
0
210
0
220
0
230
1
40
0.032562
41
1.83273795928282
42
2.79266848332062
0
ELLIPSE
5
275
100
AcDbEntity
8
1
62
256
6
ByLayer
370
18
48
1
60
0
100
AcDbEllipse
10
21.66055
20
8.359904
30
0
11
4.4231547711367
21
-0.576452449017545
31
0
210
0
220
0
230
1
40
0.965377
41
0.713379328529014
42
2.12002031123655
0
ELLIPSE
5
276
100
AcDbEntity
8
1
62
256
6
ByLayer
370
18
48
1
60
0
100
AcDbEllipse
10
26.191699
20
7.876244
30
0
11
0.0226218689952112
21
-0.0974076539249535
31
0
210
0
220
0
230
1
40
0.09421
41
1.81763537583633
42
2.51576707663388
0
ELLIPSE
5
277
100
AcDbEntity
8
1
62
256
6
ByLayer
370
18
48
1
60
0
100
AcDbEllipse
10
17.784502
20
13.153473
30
0
11
-0.119693117989784
21
-0.0782872709114762
31
0
210
0
220
0
230
1
40
0.150921
41
-2.60150427542561
42
-1.1043920871302
0
ELLIPSE
5
278
100
AcDbEntity
8
1
62
256
6
ByLayer
370
18
48
1
60
0
100
AcDbEllipse
10
23.848301
20
15.300401
30
0
11
-0.00251084655340522
21
-0.289866453256043
31
0
210
0
220
0
230
1
40
0.965414
41
-6.57511521796303E-05
42
1.03199145641173
0
ELLIPSE
5
279
100
AcDbEntity
8
1
62
256
6
ByLayer
370
18
48
1
60
0
100
AcDbEllipse
10
20.750583
20
8.512282
30
0
11
-2.99116484485975
21
3.88693242195076
31
0
210
0
220
0
230
1
40
0.796258
41
1.97113705113964
42
2.12563716501654
0
ELLIPSE
5
27A
100
AcDbEntity
8
1
62
256
6
ByLayer
370
18
48
1
60
0
100
AcDbEllipse
10
21.66055
20
8.359904
30
0
11
4.4231547711367
21
-0.576452449017545
31
0
210
0
220
0
230
1
40
0.965377
41
2.80777443092221
42
-2.06876989354984
0
ELLIPSE
5
27B
100
AcDbEntity
8
1
62
256
6
ByLayer
370
18
48
1
60
0
100
AcDbEllipse
10
18.808542
20
4.152401
30
0
11
-0.0958493115396499
21
0.028511567431047
31
0
210
0
220
0
230
1
40
0.257768
41
-2.2274771691041
42
-1.52934546830626
0
ELLIPSE
5
27C
100
AcDbEntity
8
1
62
256
6
ByLayer
370
18
48
1
60
0
100
AcDbEllipse
10
21.641201
20
8.211442
30
0
11
4.27065768295397
21
-0.556578100390946
31
0
210
0
220
0
230
1
40
0.965377
41
0.564311816031093
42
2.26908782373447
0
ELLIPSE
5
27D
100
AcDbEntity
8
1
62
256
6
ByLayer
370
18
48
1
60
0
100
AcDbEllipse
10
21.636079
20
8.172139
30
0
11
4.07430339523262
21
-0.530988014606319
31
0
210
0
220
0
230
1
40
0.965377
41
2.57055647292117
42
-1.8315519355488
0
ELLIPSE
5
27E
100
AcDbEntity
8
1
62
256
6
ByLayer
370
18
48
1
60
0
100
AcDbEllipse
10
14.400765
20
7.336195
30
0
11
-0.0274746039317437
21
-0.32885429317373
31
0
210
0
220
0
230
1
40
0.244295
41
-1.16693775660929
42
-0.81787190621042
0
ELLIPSE
5
27F
100
AcDbEntity
8
1
62
256
6
ByLayer
370
18
48
1
60
0
100
AcDbEllipse
10
21.641201
20
8.211442
30
0
11
4.27065768295397
21
-0.556578100390946
31
0
210
0
220
0
230
1
40
0.965377
41
-1.4411950933359
42
0.174692721341285
0
ELLIPSE
5
280
100
AcDbEntity
8
1
62
256
6
ByLayer
370
18
48
1
60
0
100
AcDbEllipse
10
20.233517
20
1.967834
30
0
11
-0.265224991356317
21
0.158713247775136
31
0
210
0
220
0
230
1
40
0.233432
41
1.67181196390575
42
2.36994366469678
0
ELLIPSE
5
281
100
AcDbEntity
8
1
62
256
6
ByLayer
370
18
48
1
60
0
100
AcDbEllipse
10
21.953808
20
3.957958
30
0
11
0.0051690485366737
21
-0.0998663153281702
31
0
210
0
220
0
230
1
40
0.625045
41
-3.13850395305835
42
-1.98752306036934
0
ELLIPSE
5
282
100
AcDbEntity
8
1
62
256
6
ByLayer
370
18
48
1
60
0
100
AcDbEllipse
10
27.083612
20
0.935786
30
0
11
-0.127183466692523
21
-0.304506758217403
31
0
210
0
220
0
230
1
40
0.504267
41
0.987942314128466
42
1.58936171043932
0
ELLIPSE
5
283
100
AcDbEntity
8
1
62
256
6
ByLayer
370
18
48
1
60
0
100
AcDbEllipse
10
25.428744
20
17.070444
30
0
11
-0.00161411563762645
21
-0.186342719950749
31
0
210
0
220
0
230
1
40
0.965414
41
3.14152690241779
42
-2.10960119719926
0
ELLIPSE
5
284
100
AcDbEntity
8
1
62
256
6
ByLayer
370
18
48
1
60
0
100
AcDbEllipse
10
12.375934
20
7.505362
30
0
11
-0.28123916394654
21
0.17263989302201
31
0
210
0
220
0
230
1
40
0.452158
41
1.1981452596409
42
1.54721111003977
0
ELLIPSE
5
285
100
AcDbEntity
8
1
62
256
6
ByLayer
370
18
48
1
60
0
100
AcDbEllipse
10
27.586215
20
0.557687
30
0
11
-0.174929491450113
21
-0.0522648303109646
31
0
210
0
220
0
230
1
40
0.912025
41
1.32438791963873
42
2.35644512720141
0
ELLIPSE
5
286
100
AcDbEntity
8
1
62
256
6
ByLayer
370
18
48
1
60
0
100
AcDbEllipse
10
27.675987
20
3.692054
30
0
11
-1.42864914099929
21
-1.22802631768359
31
0
210
0
220
0
230
1
40
0.319296
41
-0.601909895768975
42
-0.0482372978289305
0
ELLIPSE
5
287
100
AcDbEntity
8
1
62
256
6
ByLayer
370
18
48
1
60
0
100
AcDbEllipse
10
25.50149
20
16.480396
30
0
11
0.284376105461715
21
-0.167422312259829
31
0
210
0
220
0
230
1
40
0.016405
41
-1.94799901227111
42
-1.59893316187237
0
ELLIPSE
5
288
100
AcDbEntity
8
1
62
256
6
ByLayer
370
18
48
1
60
0
100
AcDbEllipse
10
11.613079
20
5.829886
30
0
11
-0.178490561267673
21
0.0232619762348545
31
0
210
0
220
0
230
1
40
0.965377
41
7.37471367963298E-06
42
0.64875494900526
0
ELLIPSE
5
289
100
AcDbEntity
8
1
62
256
6
ByLayer
370
18
48
1
60
0
100
AcDbEllipse
10
25.473541
20
14.060988
30
0
11
-0.00207269667713276
21
-0.474969161028887
31
0
210
0
220
0
230
1
40
0.99947
41
0.33408092101023
42
0.519234948027126
0
ELLIPSE
5
28A
100
AcDbEntity
8
1
62
256
6
ByLayer
370
18
48
1
60
0
100
AcDbEllipse
10
13.646371
20
10.717784
30
0
11
-0.280651562127271
21
-0.50525824283515
31
0
210
0
220
0
230
1
40
0.085059
41
1.09764262890762
42
1.35944201646226
0
ELLIPSE
5
28B
100
AcDbEntity
8
1
62
256
6
ByLayer
370
18
48
1
60
0
100
AcDbEllipse
10
26.532749
20
14.656676
30
0
11
-0.287254667490144
21
-0.162433851167566
31
0
210
0
220
0
230
1
40
0.016158
41
-1.89158327958554
42
-1.54251742918666
0
ELLIPSE
5
28C
100
AcDbEntity
8
1
62
256
6
ByLayer
370
18
48
1
60
0
100
AcDbEllipse
10
25.502197
20
14.060863
30
0
11
-0.507738149214011
21
-0.861511446141449
31
0
210
0
220
0
230
1
40
0.028129
41
-1.55438453259976
42
-1.05945040625895
0
ELLIPSE
5
28D
100
AcDbEntity
8
1
62
256
6
ByLayer
370
18
48
1
60
0
100
AcDbEllipse
10
25.623598
20
9.978381
30
0
11
0.0987909012751309
21
0.0155034778436112
31
0
210
0
220
0
230
1
40
0.431762
41
-2.70106761340424
42
-1.45437326424669
0
ELLIPSE
5
28E
100
AcDbEntity
8
1
62
256
6
ByLayer
370
18
48
1
60
0
100
AcDbEllipse
10
21.953808
20
3.957958
30
0
11
-0.0958493115396499
21
0.028511567431047
31
0
210
0
220
0
230
1
40
0.257768
41
-1.52934546830629
42
-0.831213767508575
0
ELLIPSE
5
28F
100
AcDbEntity
8
1
62
256
6
ByLayer
370
18
48
1
60
0
100
AcDbEllipse
10
27.984493
20
7.838335
30
0
11
-0.00223766652047927
21
-0.974546396344182
31
0
210
0
220
0
230
1
40
0.017143
41
-1.32785216916666
42
-1.17585082492577
0
ELLIPSE
5
290
100
AcDbEntity
8
1
62
256
6
ByLayer
370
18
48
1
60
0
100
AcDbEllipse
10
19.001728
20
4.801848
30
0
11
-0.0958493115396499
21
0.028511567431047
31
0
210
0
220
0
230
1
40
0.257768
41
-2.22747716910405
42
-1.52934546830636
0
ELLIPSE
5
291
100
AcDbEntity
8
1
62
256
6
ByLayer
370
18
48
1
60
0
100
AcDbEllipse
10
25.079881
20
1.841055
30
0
11
0.423451052811352
21
0.215149264170151
31
0
210
0
220
0
230
1
40
0.906288
41
1.65228792484006
42
1.83744195185694
0
ELLIPSE
5
292
100
AcDbEntity
8
1
62
256
6
ByLayer
370
18
48
1
60
0
100
AcDbEllipse
10
27.5201
20
3.750524
30
0
11
-1.31388551697921
21
-1.4125196701149
31
0
210
0
220
0
230
1
40
0.457532
41
-0.616819571943196
42
-0.121885445603591
0
ELLIPSE
5
293
100
AcDbEntity
8
1
62
256
6
ByLayer
370
18
48
1
60
0
100
AcDbEllipse
10
25.50149
20
16.480396
30
0
11
0.329964582601559
21
-0.00483469012229919
31
0
210
0
220
0
230
1
40
0.17881
41
1.30318906781626
42
1.90460846412712
0
ELLIPSE
5
294
100
AcDbEntity
8
1
62
256
6
ByLayer
370
18
48
1
60
0
100
AcDbEllipse
10
13.957876
20
5.212828
30
0
11
0.277651984194159
21
-0.0361852963653298
31
0
210
0
220
0
230
1
40
0.965377
41
0.648754949005279
42
1.68081215656667
0
ELLIPSE
5
295
100
AcDbEntity
8
1
62
256
6
ByLayer
370
18
48
1
60
0
100
AcDbEllipse
10
19.253877
20
11.799246
30
0
11
0.0780099956695134
21
-0.0625654902933119
31
0
210
0
220
0
230
1
40
0.460732
41
-1.76910077789151
42
-0.522406428733948
0
ELLIPSE
5
296
100
AcDbEntity
8
1
62
256
6
ByLayer
370
18
48
1
60
0
100
AcDbEllipse
10
18.728277
20
13.6719
30
0
11
-0.864177153094124
21
-0.484107234287677
31
0
210
0
220
0
230
1
40
0.105927
41
1.60185228097546
42
1.75385363736374
0
ELLIPSE
5
297
100
AcDbEntity
8
1
62
256
6
ByLayer
370
18
48
1
60
0
100
AcDbEllipse
10
25.508461
20
16.956135
30
0
11
0.329964582601559
21
-0.00483469012229919
31
0
210
0
220
0
230
1
40
0.17881
41
1.3031890678163
42
1.90460846412714
0
ELLIPSE
5
298
100
AcDbEntity
8
1
62
256
6
ByLayer
370
18
48
1
60
0
100
AcDbEllipse
10
22.875132
20
15.609143
30
0
11
-1.54881367678733
21
0.940616774146325
31
0
210
0
220
0
230
1
40
0.551746
41
2.65420935387003
42
-3.1340418269694
0
ELLIPSE
5
299
100
AcDbEntity
8
1
62
256
6
ByLayer
370
18
48
1
60
0
100
AcDbEllipse
10
26.370424
20
10.976706
30
0
11
0.0226218689952112
21
-0.0974076539249535
31
0
210
0
220
0
230
1
40
0.09421
41
1.11950367503862
42
1.81763537583626
0
ELLIPSE
5
29A
100
AcDbEntity
8
1
62
256
6
ByLayer
370
18
48
1
60
0
100
AcDbEllipse
10
11.967476
20
10.327477
30
0
11
-1.21743257247796
21
1.45058321516087
31
0
210
0
220
0
230
1
40
0.451825
41
-2.99197551898273
42
-2.49704139264141
0
ELLIPSE
5
29B
100
AcDbEntity
8
1
62
256
6
ByLayer
370
18
48
1
60
0
100
AcDbEllipse
10
22.667819
20
15.19622
30
0
11
0.148742134389729
21
-0.0193849801957125
31
0
210
0
220
0
230
1
40
0.965377
41
0.752404181591617
42
1.69595250020189
0
ELLIPSE
5
29C
100
AcDbEntity
8
1
62
256
6
ByLayer
370
18
48
1
60
0
100
AcDbEllipse
10
19.785606
20
12.381536
30
0
11
0.0710457241211574
21
0.0703740370030056
31
0
210
0
220
0
230
1
40
0.163559
41
1.36332245799687
42
2.06145415879457
0
ELLIPSE
5
29D
100
AcDbEntity
8
1
62
256
6
ByLayer
370
18
48
1
60
0
100
AcDbEllipse
10
27.838608
20
13.592365
30
0
11
-0.290884144544497
21
0.500857953599316
31
0
210
0
220
0
230
1
40
0.139552
41
1.48844065865644
42
1.75024004702299
0
ELLIPSE
5
29E
100
AcDbEntity
8
1
62
256
6
ByLayer
370
18
48
1
60
0
100
AcDbEllipse
10
25.502197
20
14.060863
30
0
11
-0.492621600450354
21
0.870243620355663
31
0
210
0
220
0
230
1
40
0.028271
41
1.55463072267836
42
2.04956484901926
0
ELLIPSE
5
29F
100
AcDbEntity
8
1
62
256
6
ByLayer
370
18
48
1
60
0
100
AcDbEllipse
10
27.400404
20
-0.868053
30
0
11
-0.178490561267673
21
0.0232619762348545
31
0
210
0
220
0
230
1
40
0.965377
41
1.71109284383709
42
2.74315005139848
0
ELLIPSE
5
2A0
100
AcDbEntity
8
1
62
256
6
ByLayer
370
18
48
1
60
0
100
AcDbEllipse
10
12.004537
20
7.351024
30
0
11
-0.126635808899249
21
0.30473492071706
31
0
210
0
220
0
230
1
40
0.555252
41
1.52269464233225
42
2.1241140386431
0
ELLIPSE
5
2A1
100
AcDbEntity
8
1
62
256
6
ByLayer
370
18
48
1
60
0
100
AcDbEllipse
10
26.035793
20
8.376983
30
0
11
-0.0921697752640126
21
-0.0387908820186061
31
0
210
0
220
0
230
1
40
0.804336
41
-1.76362985842251
42
-0.516935509264974
0
ELLIPSE
5
2A2
100
AcDbEntity
8
1
62
256
6
ByLayer
370
18
48
1
60
0
100
AcDbEllipse
10
26.191699
20
7.876244
30
0
11
-0.0994694858039677
21
0.0102869526048418
31
0
210
0
220
0
230
1
40
0.260774
41
-1.57771977815727
42
-0.268722839161483
0
ELLIPSE
5
2A3
100
AcDbEntity
8
1
62
256
6
ByLayer
370
18
48
1
60
0
100
AcDbEllipse
10
17.576479
20
10.339012
30
0
11
-0.065809728545724
21
0.0752932907285777
31
0
210
0
220
0
230
1
40
0.787867
41
-2.57142491310822
42
-1.42044402041928
0
ELLIPSE
5
2A4
100
AcDbEntity
8
1
62
256
6
ByLayer
370
18
48
1
60
0
100
AcDbEllipse
10
26.602275
20
0.603121
30
0
11
-1.07712839152216
21
-0.0770464007730033
31
0
210
0
220
0
230
1
40
0.281524
41
2.94642280844297
42
-2.99305299610954
0
ELLIPSE
5
2A5
100
AcDbEntity
8
1
62
256
6
ByLayer
370
18
48
1
60
0
100
AcDbEllipse
10
16.712478
20
12.62233
30
0
11
-0.265908567711473
21
-0.157297654500761
31
0
210
0
220
0
230
1
40
0.201994
41
0.715965162922496
42
1.41409686374958
0
ELLIPSE
5
2A6
100
AcDbEntity
8
1
62
256
6
ByLayer
370
18
48
1
60
0
100
AcDbEllipse
10
19.791631
20
4.404432
30
0
11
-0.0102718297157457
21
0.099471048623661
31
0
210
0
220
0
230
1
40
0.642818
41
-1.61538653546064
42
-0.694780775042826
0
ELLIPSE
5
2A7
100
AcDbEntity
8
1
62
256
6
ByLayer
370
18
48
1
60
0
100
AcDbEllipse
10
27.125564
20
2.002835
30
0
11
0.277651984194159
21
-0.0361852963653298
31
0
210
0
220
0
230
1
40
0.965377
41
1.79960173278826
42
2.50988856400625
0
ELLIPSE
5
2A8
100
AcDbEntity
8
1
62
256
6
ByLayer
370
18
48
1
60
0
100
AcDbEllipse
10
13.952611
20
10.64988
30
0
11
-0.247903557316213
21
0.0323083003261869
31
0
210
0
220
0
230
1
40
0.965377
41
-0.922041377789628
42
-0.383302258556129
0
ELLIPSE
5
2A9
100
AcDbEntity
8
1
62
256
6
ByLayer
370
18
48
1
60
0
100
AcDbEllipse
10
14.549556
20
8.704287
30
0
11
0.999786389681427
21
0.0206682124959729
31
0
210
0
220
0
230
1
40
0.381063
41
-1.83820373685132
42
-1.34326961051043
0
ELLIPSE
5
2AA
100
AcDbEntity
8
1
62
256
6
ByLayer
370
18
48
1
60
0
100
AcDbEllipse
10
14.128124
20
6.519145
30
0
11
-0.253558335382999
21
0.124876935085233
31
0
210
0
220
0
230
1
40
0.905973
41
-2.19375854893757
42
-1.16170134137591
0
ELLIPSE
5
2AB
100
AcDbEntity
8
1
62
256
6
ByLayer
370
18
48
1
60
0
100
AcDbEllipse
10
16.916627
20
11.005163
30
0
11
0.0999993945307662
21
0.000347984884978382
31
0
210
0
220
0
230
1
40
0.258708
41
1.53617777689864
42
2.19853900791493
0
ELLIPSE
5
2AC
100
AcDbEntity
8
1
62
256
6
ByLayer
370
18
48
1
60
0
100
AcDbEllipse
10
25.448745
20
10.762656
30
0
11
-0.0824623377524213
21
-0.0565682141525221
31
0
210
0
220
0
230
1
40
0.19725
41
-1.74581400809881
42
-0.436817069102959
0
ELLIPSE
5
2AD
100
AcDbEntity
8
1
62
256
6
ByLayer
370
18
48
1
60
0
100
AcDbEllipse
10
14.323766
20
8.376133
30
0
11
0.391295714359
21
-0.269235331864672
31
0
210
0
220
0
230
1
40
0.89169
41
1.43212927734626
42
1.61728330436317
0
ELLIPSE
5
2AE
100
AcDbEntity
8
1
62
256
6
ByLayer
370
18
48
1
60
0
100
AcDbEllipse
10
14.491101
20
5.908359
30
0
11
-0.253558335382511
21
0.124876935085685
31
0
210
0
220
0
230
1
40
0.905973
41
-3.13730686754554
42
-2.19375854893479
0
ELLIPSE
5
2AF
100
AcDbEntity
8
1
62
256
6
ByLayer
370
18
48
1
60
0
100
AcDbEllipse
10
17.576479
20
10.339012
30
0
11
0.088953342698936
21
-0.0456870093427624
31
0
210
0
220
0
230
1
40
0.24646
41
0.350105898020657
42
1.65910283701622
0
ELLIPSE
5
2B0
100
AcDbEntity
8
1
62
256
6
ByLayer
370
18
48
1
60
0
100
AcDbEllipse
10
21.641201
20
8.211442
30
0
11
4.27065768295397
21
-0.556578100390946
31
0
210
0
220
0
230
1
40
0.965377
41
2.65870691842429
42
-1.91970238105192
0
ELLIPSE
5
2B1
100
AcDbEntity
8
1
62
256
6
ByLayer
370
18
48
1
60
0
100
AcDbEllipse
10
17.492836
20
13.050954
30
0
11
-0.265908567707907
21
-0.157297654503359
31
0
210
0
220
0
230
1
40
0.201994
41
1.41409686367865
42
2.11222856451628
0
ELLIPSE
5
2B2
100
AcDbEntity
8
1
62
256
6
ByLayer
370
18
48
1
60
0
100
AcDbEllipse
10
18.028241
20
10.666042
30
0
11
-0.0512433440436645
21
0.0858726946777766
31
0
210
0
220
0
230
1
40
0.771982
41
-2.52636745404929
42
-1.27967310489177
0
ELLIPSE
5
2B3
100
AcDbEntity
8
1
62
256
6
ByLayer
370
18
48
1
60
0
100
AcDbEllipse
10
26.074206
20
2.545922
30
0
11
0.279599485899561
21
0.17528299257116
31
0
210
0
220
0
230
1
40
0.421259
41
-1.60874096781758
42
-1.2596751174187
0
ELLIPSE
5
2B4
100
AcDbEntity
8
1
62
256
6
ByLayer
370
18
48
1
60
0
100
AcDbEllipse
10
24.911402
20
2.172651
30
0
11
0.999936876948704
21
-0.0112357517804743
31
0
210
0
220
0
230
1
40
0.382024
41
-1.86878457986124
42
-1.37385045352034
0
ELLIPSE
5
2B5
100
AcDbEntity
8
1
62
256
6
ByLayer
370
18
48
1
60
0
100
AcDbEllipse
10
19.145299
20
2.517836
30
0
11
-0.11680502747344
21
0.0796023685462171
31
0
210
0
220
0
230
1
40
0.178717
41
-2.07567485298997
42
-0.57856266469375
0
ELLIPSE
5
2B6
100
AcDbEntity
8
1
62
256
6
ByLayer
370
18
48
1
60
0
100
AcDbEllipse
10
19.168926
20
11.626696
30
0
11
0.0977027712434972
21
-0.0213112292311087
31
0
210
0
220
0
230
1
40
0.342138
41
-1.95783243662735
42
-1.03722667620955
0
ELLIPSE
5
2B7
100
AcDbEntity
8
1
62
256
6
ByLayer
370
18
48
1
60
0
100
AcDbEllipse
10
14.809045
20
5.567214
30
0
11
0.148742134389729
21
-0.0193849801957125
31
0
210
0
220
0
230
1
40
0.965377
41
2.84679928398483
42
-2.49283770458453
0
ELLIPSE
5
2B8
100
AcDbEntity
8
1
62
256
6
ByLayer
370
18
48
1
60
0
100
AcDbEllipse
10
21.421407
20
9.132514
30
0
11
-0.457022822795803
21
5.20779046983447
31
0
210
0
220
0
230
1
40
0.820481
41
-1.48782265902534
42
-1.33332254516999
0
ELLIPSE
5
2B9
100
AcDbEntity
8
1
62
256
6
ByLayer
370
18
48
1
60
0
100
AcDbEllipse
10
21.126105
20
4.022956
30
0
11
-0.0634745046573588
21
-0.0772721635422675
31
0
210
0
220
0
230
1
40
0.697645
41
-2.40523658058142
42
-1.48463082016366
0
ELLIPSE
5
2BA
100
AcDbEntity
8
1
62
256
6
ByLayer
370
18
48
1
60
0
100
AcDbEllipse
10
27.657265
20
0.676004
30
0
11
-0.174929491448187
21
-0.052264830312585
31
0
210
0
220
0
230
1
40
0.912025
41
2.35644512718677
42
-2.89468297242664
0
ELLIPSE
5
2BB
100
AcDbEntity
8
1
62
256
6
ByLayer
370
18
48
1
60
0
100
AcDbEllipse
10
27.731532
20
4.426543
30
0
11
-0.247903557316213
21
0.0323083003261869
31
0
210
0
220
0
230
1
40
0.965377
41
2.74315005139847
42
-3.01643648018281
0
ELLIPSE
5
2BC
100
AcDbEntity
8
1
62
256
6
ByLayer
370
18
48
1
60
0
100
AcDbEllipse
10
19.453158
20
2.410083
30
0
11
-0.265224991352746
21
0.158713247772502
31
0
210
0
220
0
230
1
40
0.233432
41
0.973680263101154
42
1.67181196390034
0
ELLIPSE
5
2BD
100
AcDbEntity
8
1
62
256
6
ByLayer
370
18
48
1
60
0
100
AcDbEllipse
10
19.785606
20
12.381536
30
0
11
0.0393160811069761
21
-0.0919469725787079
31
0
210
0
220
0
230
1
40
0.136175
41
0.488318464334566
42
1.79731540333031
0
ELLIPSE
5
2BE
100
AcDbEntity
8
1
62
256
6
ByLayer
370
18
48
1
60
0
100
AcDbEllipse
10
27.984486
20
8.891523
30
0
11
-0.000462075797396948
21
0.125849166794734
31
0
210
0
220
0
230
1
40
0.030535
41
-2.24885968561844
42
-0.75174749725925
0
ELLIPSE
5
2BF
100
AcDbEntity
8
1
62
256
6
ByLayer
370
18
48
1
60
0
100
AcDbEllipse
10
25.947032
20
8.480308
30
0
11
-0.0536013420567964
21
-0.084420946036575
31
0
210
0
220
0
230
1
40
0.678931
41
-2.22377349089559
42
-1.30316773047778
0
ELLIPSE
5
2C0
100
AcDbEntity
8
1
62
256
6
ByLayer
370
18
48
1
60
0
100
AcDbEllipse
10
21.66055
20
8.359904
30
0
11
4.4231547711367
21
-0.576452449017545
31
0
210
0
220
0
230
1
40
0.965377
41
-1.38101577386419
42
0.025625208843358
0
ELLIPSE
5
2C1
100
AcDbEntity
8
1
62
256
6
ByLayer
370
18
48
1
60
0
100
AcDbEllipse
10
27.083612
20
0.935786
30
0
11
0.0213831913664041
21
-0.329306482060387
31
0
210
0
220
0
230
1
40
0.180834
41
0.822806078782343
42
1.17187192918118
0
ELLIPSE
5
2C2
100
AcDbEntity
8
1
62
256
6
ByLayer
370
18
48
1
60
0
100
AcDbEllipse
10
27.46895
20
0.774841
30
0
11
0.276859395390382
21
0.179579718186861
31
0
210
0
220
0
230
1
40
0.674227
41
-1.78925443632677
42
-1.4455449336893
0
ELLIPSE
5
2C3
100
AcDbEntity
8
1
62
256
6
ByLayer
370
18
48
1
60
0
100
AcDbEllipse
10
23.193348
20
0.363708
30
0
11
-0.247903557316213
21
0.0323083003261869
31
0
210
0
220
0
230
1
40
0.965377
41
1.17235372460358
42
1.71109284383706
0
ELLIPSE
5
2C4
100
AcDbEntity
8
1
62
256
6
ByLayer
370
18
48
1
60
0
100
AcDbEllipse
10
27.562705
20
3.131123
30
0
11
0.247903557316213
21
-0.0323083003261872
31
0
210
0
220
0
230
1
40
0.965377
41
-0.398442602191311
42
-2.00176309849219E-06
0
ELLIPSE
5
2C5
100
AcDbEntity
8
1
62
256
6
ByLayer
370
18
48
1
60
0
100
AcDbEllipse
10
28.243963
20
15.618664
30
0
11
-1.62385906159933
21
-0.905066264507633
31
0
210
0
220
0
230
1
40
0.360346
41
0.0022233533588911
42
0.555895951298417
0
ELLIPSE
5
2C6
100
AcDbEntity
8
1
62
256
6
ByLayer
370
18
48
1
60
0
100
AcDbEllipse
10
26.932834
20
2.704704
30
0
11
-0.272112542255129
21
-0.0813008471507862
31
0
210
0
220
0
230
1
40
0.912025
41
-0.785147526391796
42
0.246909681171142
0
ELLIPSE
5
2C7
100
AcDbEntity
8
1
62
256
6
ByLayer
370
18
48
1
60
0
100
AcDbEllipse
10
11.792378
20
10.271896
30
0
11
-1.36403056547832
21
1.25866584263506
31
0
210
0
220
0
230
1
40
0.316509
41
-3.0792580955496
42
-2.52558549760797
0
ELLIPSE
5
2C8
100
AcDbEntity
8
1
62
256
6
ByLayer
370
18
48
1
60
0
100
AcDbEllipse
10
27.083612
20
0.935786
30
0
11
-0.279599485899561
21
-0.17528299257116
31
0
210
0
220
0
230
1
40
0.421259
41
1.53285168577224
42
1.88191753617109
0
ELLIPSE
5
2C9
100
AcDbEntity
8
1
62
256
6
ByLayer
370
18
48
1
60
0
100
AcDbEllipse
10
26.87175
20
8.034179
30
0
11
-0.0610333306184208
21
0.0792144718698707
31
0
210
0
220
0
230
1
40
0.552749
41
-2.27220254073178
42
-0.775091621505792
0
ELLIPSE
5
2CA
100
AcDbEntity
8
1
62
256
6
ByLayer
370
18
48
1
60
0
100
AcDbEllipse
10
12.375934
20
7.505362
30
0
11
0.0274746039317434
21
0.328854293173731
31
0
210
0
220
0
230
1
40
0.244295
41
1.97465489698051
42
2.32372074737939
0
ELLIPSE
5
2CB
100
AcDbEntity
8
1
62
256
6
ByLayer
370
18
48
1
60
0
100
AcDbEllipse
10
14.323766
20
8.376133
30
0
11
0.391295714359
21
-0.269235331864672
31
0
210
0
220
0
230
1
40
0.89169
41
0.570085753166576
42
0.755239780183457
0
ELLIPSE
5
2CC
100
AcDbEntity
8
1
62
256
6
ByLayer
370
18
48
1
60
0
100
AcDbEllipse
10
27.072465
20
1.386106
30
0
11
-0.530469299910021
21
0.84247460915815
31
0
210
0
220
0
230
1
40
0.331224
41
2.96378801155417
42
-2.97568779298822
0
ELLIPSE
5
2CD
100
AcDbEntity
8
1
62
256
6
ByLayer
370
18
48
1
60
0
100
AcDbEllipse
10
24.879726
20
-0.646368
30
0
11
-0.496100408633359
21
-1.28208199966785
31
0
210
0
220
0
230
1
40
0.680625
41
-2.83598610185772
42
-2.34105197551755
0
ELLIPSE
5
2CE
100
AcDbEntity
8
1
62
256
6
ByLayer
370
18
48
1
60
0
100
AcDbEllipse
10
14.530441
20
5.664519
30
0
11
-0.283484718441731
21
1.44767212114138
31
0
210
0
220
0
230
1
40
0.426769
41
-0.674292625743001
42
-0.120620027802887
0
ELLIPSE
5
2CF
100
AcDbEntity
8
1
62
256
6
ByLayer
370
18
48
1
60
0
100
AcDbEllipse
10
23.122346
20
15.306738
30
0
11
-0.00251084654370272
21
-0.289866453257154
31
0
210
0
220
0
230
1
40
0.965414
41
-0.943614069794867
42
-6.57511843485022E-05
0
ELLIPSE
5
2D0
100
AcDbEntity
8
1
62
256
6
ByLayer
370
18
48
1
60
0
100
AcDbEllipse
10
21.636079
20
8.172139
30
0
11
4.07430339523262
21
-0.530988014606319
31
0
210
0
220
0
230
1
40
0.965377
41
0.476161370527978
42
2.35723826923759
0
ELLIPSE
5
2D1
100
AcDbEntity
8
1
62
256
6
ByLayer
370
18
48
1
60
0
100
AcDbEllipse
10
27.992583
20
9.288184
30
0
11
-0.00254601628581235
21
-0.308566300841104
31
0
210
0
220
0
230
1
40
0.03172
41
-1.31631437561066
42
-0.618182674874959
0
ELLIPSE
5
2D2
100
AcDbEntity
8
1
62
256
6
ByLayer
370
18
48
1
60
0
100
AcDbEllipse
10
12.375934
20
7.505362
30
0
11
-0.126635808899249
21
0.30473492071706
31
0
210
0
220
0
230
1
40
0.555252
41
1.52269464233223
42
2.12411403864308
0
ELLIPSE
5
2D3
100
AcDbEntity
8
1
62
256
6
ByLayer
370
18
48
1
60
0
100
AcDbEllipse
10
16.916627
20
11.005163
30
0
11
0.0897829722859676
21
0.0440342808218457
31
0
210
0
220
0
230
1
40
0.49476
41
0.776327423632363
42
2.0226815221571
0
ELLIPSE
5
2D4
100
AcDbEntity
8
1
62
256
6
ByLayer
370
18
48
1
60
0
100
AcDbEllipse
10
25.027114
20
0.802249
30
0
11
-0.021383191366405
21
0.329306482060387
31
0
210
0
220
0
230
1
40
0.180834
41
-2.31878657480748
42
-1.96972072440858
0
ELLIPSE
5
2D5
100
AcDbEntity
8
1
62
256
6
ByLayer
370
18
48
1
60
0
100
AcDbEllipse
10
28.155878
20
15.563042
30
0
11
-1.63686909779335
21
-0.900952860469063
31
0
210
0
220
0
230
1
40
0.535112
41
0.00614484231396495
42
0.50107896865687
0
ELLIPSE
5
2D6
100
AcDbEntity
8
1
62
256
6
ByLayer
370
18
48
1
60
0
100
AcDbEllipse
10
26.191699
20
7.876244
30
0
11
-0.0979416939428773
21
-0.0201847612718048
31
0
210
0
220
0
230
1
40
0.8121
41
-1.60575182680186
42
-0.454770934112947
0
ELLIPSE
5
2D7
100
AcDbEntity
8
1
62
256
6
ByLayer
370
18
48
1
60
0
100
AcDbEllipse
10
20.976189
20
7.635794
30
0
11
-4.04803370706823
21
1.83525057176246
31
0
210
0
220
0
230
1
40
0.77149
41
-0.491967355391882
42
-0.337467241516851
0
POINT
5
6C
100
AcDbEntity
8
1
62
256
6
ByLayer
370
18
48
1
60
0
100
AcDbPoint
10
28.015343
20
18.992726
30
0
39
0
210
0
220
0
230
1
50
360
0
POINT
5
6E
100
AcDbEntity
8
1
62
256
6
ByLayer
370
18
48
1
60
0
100
AcDbPoint
10
25.501421
20
17.256166
30
0
39
0
210
0
220
0
230
1
50
360
0
POINT
5
6F
100
AcDbEntity
8
80
62
256
6
ByLayer
370
18
48
1
60
0
100
AcDbPoint
10
0
20
0
30
0
39
0
210
0
220
0
230
1
50
360
0
POINT
5
71
100
AcDbEntity
8
81
62
256
6
ByLayer
370
18
48
1
60
0
100
AcDbPoint
10
28
20
18.875
30
0
39
0
210
0
220
0
230
1
50
360
0
POINT
5
73
100
AcDbEntity
8
2
62
256
6
ByLayer
370
18
48
1
60
0
100
AcDbPoint
10
28
20
18.875
30
0
39
0
210
0
220
0
230
1
50
360
0
SPLINE
5
2D8
100
AcDbEntity
8
1
62
256
6
ByLayer
370
18
48
1
60
0
100
AcDbSpline
70
4
71
3
72
8
73
4
40
0
40
0
40
0
40
0
40
1
40
1
40
1
40
1
41
1
10
0
20
-10.4842192326163
30
0
41
1
10
0.114269838928095
20
-10.652904136356
30
0
41
1
10
0.229729664239528
20
-10.8205218195503
30
0
41
1
10
0.346265877365255
20
-10.987126560104
30
0
0
SPLINE
5
2D9
100
AcDbEntity
8
1
62
256
6
ByLayer
370
18
48
1
60
0
100
AcDbSpline
70
4
71
3
72
8
73
4
40
0
40
0
40
0
40
0
40
1
40
1
40
1
40
1
41
1
10
0
20
9.6701914623011
30
0
41
1
10
0.113739105797208
20
9.8607150529516
30
0
41
1
10
0.229219722500602
20
10.0498655286572
30
0
41
1
10
0.346265877365283
20
10.2376995361025
30
0
0
SPLINE
5
2DA
100
AcDbEntity
8
1
62
256
6
ByLayer
370
18
48
1
60
0
100
AcDbSpline
70
4
71
3
72
22
73
18
40
0
40
0
40
0
40
0
40
0.12909646557881
40
0.12909646557881
40
0.23309286199016
40
0.23309286199016
40
0.338165588650447
40
0.338165588650447
40
0.428832221516919
40
0.428832221516919
40
0.545043792869115
40
0.545043792869115
40
0.709173541959672
40
0.709173541959672
40
0.953399099907675
40
0.953399099907675
40
1
40
1
40
1
40
1
41
1
10
0.346265877365283
20
-11.6390985947187
30
0
41
1
10
0.355948425049377
20
-11.6473627770103
30
0
41
1
10
0.365557239060536
20
-11.6549464285523
30
0
41
1
10
0.38135902531468
20
-11.6658316067365
30
0
41
1
10
0.387994066200008
20
-11.6697594578585
30
0
41
1
10
0.399070997344353
20
-11.6745666840586
30
0
41
1
10
0.403626772714347
20
-11.6754483057535
30
0
41
1
10
0.409197431365612
20
-11.6738631837349
30
0
41
1
10
0.410690880175849
20
-11.6718321804927
30
0
41
1
10
0.411679255294416
20
-11.6649547943326
30
0
41
1
10
0.410547474357997
20
-11.6594064821056
30
0
41
1
10
0.405005776545721
20
-11.6439370302391
30
0
41
1
10
0.399407852916312
20
-11.6329253302104
30
0
41
1
10
0.382437205879938
20
-11.6040063758033
30
0
41
1
10
0.369287916310981
20
-11.5847824383228
30
0
41
1
10
0.352022862222526
20
-11.5616751241132
30
0
41
1
10
0.349170470757855
20
-11.5579184378699
30
0
41
1
10
0.346265877365255
20
-11.5541511286625
30
0
0
SPLINE
5
2DB
100
AcDbEntity
8
1
62
256
6
ByLayer
370
18
48
1
60
0
100
AcDbSpline
70
4
71
3
72
8
73
4
40
0
40
0
40
0
40
0
40
1
40
1
40
1
40
1
41
1
10
0.346265877365283
20
-11.6390985947187
30
0
41
1
10
0.230798820375043
20
-11.5405459370123
30
0
41
1
10
0.115375688133611
20
-11.4419246184803
30
0
41
1
10
0
20
-11.3432293866236
30
0
0
SPLINE
5
2DC
100
AcDbEntity
8
1
62
256
6
ByLayer
370
18
48
1
60
0
100
AcDbSpline
70
4
71
3
72
16
73
12
40
0
40
0
40
0
40
0
40
0.220361901976607
40
0.220361901976607
40
0.44086973829952
40
0.44086973829952
40
0.659542249199944
40
0.659542249199944
40
0.881817221113467
40
0.881817221113467
40
1
40
1
40
1
40
1
41
1
10
12.7940520324423
20
4.29848101372399
30
0
41
1
10
12.6000887003432
20
4.19703776795295
30
0
41
1
10
12.3849162923228
20
4.12655279502751
30
0
41
1
10
11.9468546149908
20
4.05588251623752
30
0
41
1
10
11.7179461738963
20
4.05476403874987
30
0
41
1
10
11.2806327411856
20
4.12057237691262
30
0
41
1
10
11.0661646763077
20
4.18779064566729
30
0
41
1
10
10.6747142509902
20
4.38483828964259
30
0
41
1
10
10.4927623676615
20
4.51865164740269
30
0
41
1
10
10.2604118965019
20
4.76450247974262
30
0
41
1
10
10.1869857797625
20
4.85886805817373
30
0
41
1
10
10.1234001604903
20
4.95941345298802
30
0
0
SPLINE
5
2DD
100
AcDbEntity
8
1
62
256
6
ByLayer
370
18
48
1
60
0
100
AcDbSpline
70
4
71
3
72
14
73
10
40
0
40
0
40
0
40
0
40
0.288291360152199
40
0.288291360152199
40
0.585491471828915
40
0.585491471828915
40
0.848936339666221
40
0.848936339666221
40
1
40
1
40
1
40
1
41
1
10
6.14158522373612
20
-2.1899045992776
30
0
41
1
10
6.18235662931093
20
-2.1367892145243
30
0
41
1
10
6.24297813895217
20
-2.09257841700305
30
0
41
1
10
6.40682663184072
20
-2.02373758736613
30
0
41
1
10
6.5140919779758
20
-1.99860773652789
30
0
41
1
10
6.74591717884937
20
-1.96677773750173
30
0
41
1
10
6.87039968646547
20
-1.957635985998
30
0
41
1
10
7.0734985216186
20
-1.94968480092527
30
0
41
1
10
7.15040756684834
20
-1.9480916315137
30
0
41
1
10
7.22720044817225
20
-1.94767611751385
30
0
0
SPLINE
5
2DE
100
AcDbEntity
8
1
62
256
6
ByLayer
370
18
48
1
60
0
100
AcDbSpline
70
4
71
3
72
8
73
4
40
0
40
0
40
0
40
0
40
1
40
1
40
1
40
1
41
1
10
0.346265877365255
20
12.023400427556
30
0
41
1
10
0.230759121535556
20
11.9210318587676
30
0
41
1
10
0.11533495691981
20
11.8185388964186
30
0
41
1
10
0
20
11.7159123809271
30
0
0
SPLINE
5
2DF
100
AcDbEntity
8
1
62
256
6
ByLayer
370
18
48
1
60
0
100
AcDbSpline
70
4
71
3
72
22
73
18
40
0
40
0
40
0
40
0
40
0.14712764913231
40
0.14712764913231
40
0.260485434751287
40
0.260485434751287
40
0.375168964926516
40
0.375168964926516
40
0.47256630673283
40
0.47256630673283
40
0.570229196564232
40
0.570229196564232
40
0.722117072447015
40
0.722117072447015
40
0.940988336750846
40
0.940988336750846
40
1
40
1
40
1
40
1
41
1
10
0.346265877365255
20
12.023400427556
30
0
41
1
10
0.356868283759098
20
12.0327968750664
30
0
41
1
10
0.367297545093294
20
12.0415328318058
30
0
41
1
10
0.383811426077585
20
12.0540717641356
30
0
41
1
10
0.390486692564679
20
12.0586421363153
30
0
41
1
10
0.401383430943582
20
12.0647065742613
30
0
41
1
10
0.40570927072099
20
12.0662154735187
30
0
41
1
10
0.410454269801903
20
12.065541083902
30
0
41
1
10
0.411429459743687
20
12.063878295389
30
0
41
1
10
0.411054614865179
20
12.0583608575975
30
0
41
1
10
0.40971409884412
20
12.054457413458
30
0
41
1
10
0.404123992963207
20
12.0427133159693
30
0
41
1
10
0.398626833027038
20
12.0337262881214
30
0
41
1
10
0.382505397514137
20
12.0100824394028
30
0
41
1
10
0.370426840784205
20
11.9942400498638
30
0
41
1
10
0.353703980384722
20
11.9736684794656
30
0
41
1
10
0.350024309849346
20
11.9692150573354
30
0
41
1
10
0.346265877365255
20
11.9647342870706
30
0
0
SPLINE
5
2E0
100
AcDbEntity
8
1
62
256
6
ByLayer
370
18
48
1
60
0
100
AcDbSpline
70
4
71
3
72
22
73
18
40
0
40
0
40
0
40
0
40
0.111422414433504
40
0.111422414433504
40
0.205111172273924
40
0.205111172273924
40
0.299657140499009
40
0.299657140499009
40
0.382486320635791
40
0.382486320635791
40
0.495613585904334
40
0.495613585904334
40
0.662349487041781
40
0.662349487041781
40
0.921512922257098
40
0.921512922257098
40
1
40
1
40
1
40
1
41
1
10
0.346265877365255
20
11.1018050043141
30
0
41
1
10
0.355023063017256
20
11.1090718421502
30
0
41
1
10
0.363788987443428
20
11.1156611768721
30
0
41
1
10
0.378747405177222
20
11.1251291664588
30
0
41
1
10
0.385265192512691
20
11.128498750246
30
0
41
1
10
0.396385436677235
20
11.1322419855247
30
0
41
1
10
0.401108130389133
20
11.1326092035909
30
0
41
1
10
0.407391363284773
20
11.1302941327085
30
0
41
1
10
0.409359911166717
20
11.1279738226419
30
0
41
1
10
0.411758588645455
20
11.120376774234
30
0
41
1
10
0.411446700103113
20
11.1142498565473
30
0
41
1
10
0.407766825470617
20
11.0970475640183
30
0
41
1
10
0.403038219661454
20
11.0847336117631
30
0
41
1
10
0.387560797644795
20
11.0518258049637
30
0
41
1
10
0.374663188185224
20
11.0297313270701
30
0
41
1
10
0.355680213817067
20
11.0007934437107
30
0
41
1
10
0.351049668056788
20
10.9939656548854
30
0
41
1
10
0.346265877365255
20
10.987126560104
30
0
0
SPLINE
5
2E1
100
AcDbEntity
8
1
62
256
6
ByLayer
370
18
48
1
60
0
100
AcDbSpline
70
4
71
3
72
8
73
4
40
0
40
0
40
0
40
0
40
1
40
1
40
1
40
1
41
1
10
0.346265877365255
20
-7.97637607432431
30
0
41
1
10
0.226551674694605
20
-7.70813209030852
30
0
41
1
10
0.110951948162125
20
-7.4373750159376
30
0
41
1
10
0
20
-7.1641540266497
30
0
0
SPLINE
5
2E2
100
AcDbEntity
8
1
62
256
6
ByLayer
370
18
48
1
60
0
100
AcDbSpline
70
4
71
3
72
12
73
8
40
0
40
0
40
0
40
0
40
0.25
40
0.25
40
0.5
40
0.5
40
1
40
1
40
1
40
1
41
1
10
9.94498569320939
20
-2.51702622286996
30
0
41
1
10
9.45025150035534
20
-2.51702622286996
30
0
41
1
10
9.02721801126657
20
-2.69225976743951
30
0
41
1
10
8.28476074823971
20
-3.11628472348239
30
0
41
1
10
7.95042085768122
20
-3.38423932346913
30
0
41
1
10
7.03275372084806
20
-4.35617132752097
30
0
41
1
10
6.53943554036823
20
-5.25834892387935
30
0
41
1
10
6.46551299752178
20
-6.22754495214318
30
0
0
SPLINE
5
2E3
100
AcDbEntity
8
1
62
256
6
ByLayer
370
18
48
1
60
0
100
AcDbSpline
70
4
71
3
72
8
73
4
40
0
40
0
40
0
40
0
40
1
40
1
40
1
40
1
41
1
10
0.346265877365255
20
-11.5541511286625
30
0
41
1
10
0.23005558511332
20
-11.4034243160505
30
0
41
1
10
0.114608295288491
20
-11.2519077114624
30
0
41
1
10
0
20
-11.0995541765226
30
0
0
SPLINE
5
2E4
100
AcDbEntity
8
1
62
256
6
ByLayer
370
18
48
1
60
0
100
AcDbSpline
70
4
71
3
72
8
73
4
40
0
40
0
40
0
40
0
40
1
40
1
40
1
40
1
41
1
10
0
20
7.1641540266497
30
0
41
1
10
0.110951948162125
20
7.4373750159376
30
0
41
1
10
0.226551674694605
20
7.70813209030852
30
0
41
1
10
0.346265877365255
20
7.97637607432429
30
0
0
SPLINE
5
2E5
100
AcDbEntity
8
1
62
256
6
ByLayer
370
18
48
1
60
0
100
AcDbSpline
70
4
71
3
72
8
73
4
40
0
40
0
40
0
40
0
40
1
40
1
40
1
40
1
41
1
10
0
20
-8.60124135910399
30
0
41
1
10
0.112822336155318
20
-8.82318279305082
30
0
41
1
10
0.228340842567064
20
-9.04332109595022
30
0
41
1
10
0.346265877365255
20
-9.26169711960411
30
0
0
SPLINE
5
2E6
100
AcDbEntity
8
1
62
256
6
ByLayer
370
18
48
1
60
0
100
AcDbSpline
70
4
71
3
72
8
73
4
40
0
40
0
40
0
40
0
40
1
40
1
40
1
40
1
41
1
10
0
20
-10.8143470869749
30
0
41
1
10
0.115404887590415
20
-10.9101938054917
30
0
41
1
10
0.230827288584976
20
-11.0060124131739
30
0
41
1
10
0.346265877365255
20
-11.1018050043141
30
0
0
SPLINE
5
2E7
100
AcDbEntity
8
1
62
256
6
ByLayer
370
18
48
1
60
0
100
AcDbSpline
70
4
71
3
72
8
73
4
40
0
40
0
40
0
40
0
40
1
40
1
40
1
40
1
41
1
10
6.12695387450438
20
-8.77837730740808
30
0
41
1
10
6.0837374654453
20
-8.66792374367095
30
0
41
1
10
6.06500494129492
20
-8.5493009803605
30
0
41
1
10
6.06956519818158
20
-8.43043448528691
30
0
0
SPLINE
5
2E8
100
AcDbEntity
8
1
62
256
6
ByLayer
370
18
48
1
60
0
100
AcDbSpline
70
4
71
3
72
22
73
18
40
0
40
0
40
0
40
0
40
0.0579606326123945
40
0.0579606326123945
40
0.11743246651474
40
0.11743246651474
40
0.172080770318652
40
0.172080770318652
40
0.220598143404019
40
0.220598143404019
40
0.302231310800994
40
0.302231310800994
40
0.448314356305543
40
0.448314356305543
40
0.747292843339461
40
0.747292843339461
40
1
40
1
40
1
40
1
41
1
10
0.346265877365283
20
-8.23677419397318
30
0
41
1
10
0.352019173101127
20
-8.24169670610792
30
0
41
1
10
0.357947364008595
20
-8.24610240699562
30
0
41
1
10
0.369720177768698
20
-8.2529455053141
30
0
41
1
10
0.37571043926647
20
-8.25537996936694
30
0
41
1
10
0.386027517323043
20
-8.25699584944564
30
0
41
1
10
0.390575063632582
20
-8.25642441872694
30
0
41
1
10
0.397632369509523
20
-8.25304927563009
30
0
41
1
10
0.400408629689281
20
-8.25049190255417
30
0
41
1
10
0.406315233496571
20
-8.24201972579006
30
0
41
1
10
0.408563769937984
20
-8.23491945047896
30
0
41
1
10
0.412108036421842
20
-8.21332516813919
30
0
41
1
10
0.411488905987056
20
-8.19701959008833
30
0
41
1
10
0.405446007553678
20
-8.14614702573405
30
0
41
1
10
0.39565344119643
20
-8.1088736568162
30
0
41
1
10
0.37296577993385
20
-8.04019375421305
30
0
41
1
10
0.360448762908305
20
-8.00815570980639
30
0
41
1
10
0.346265877365255
20
-7.97637607432429
30
0
0
SPLINE
5
2E9
100
AcDbEntity
8
1
62
256
6
ByLayer
370
18
48
1
60
0
100
AcDbSpline
70
4
71
3
72
22
73
18
40
0
40
0
40
0
40
0
40
0.347878771885175
40
0.347878771885175
40
0.504265863018444
40
0.504265863018444
40
0.662888634847354
40
0.662888634847354
40
0.739143923400673
40
0.739143923400673
40
0.816554116248826
40
0.816554116248826
40
0.883605498439367
40
0.883605498439367
40
0.946498597364854
40
0.946498597364854
40
1
40
1
40
1
40
1
41
1
10
0.346265877365255
20
-9.26169711960411
30
0
41
1
10
0.366274728170595
20
-9.29874992424587
30
0
41
1
10
0.383456169467706
20
-9.33647187791232
30
0
41
1
10
0.401032009849274
20
-9.38812676386114
30
0
41
1
10
0.405505721737598
20
-9.40396107155432
30
0
41
1
10
0.411112145227037
20
-9.43369559580425
30
0
41
1
10
0.412305279142686
20
-9.44799507894705
30
0
41
1
10
0.409211398904347
20
-9.46472902496856
30
0
41
1
10
0.407379241288908
20
-9.46954009071654
30
0
41
1
10
0.401608330623134
20
-9.47662233853595
30
0
41
1
10
0.397514162786933
20
-9.47890660004865
30
0
41
1
10
0.388054262423196
20
-9.47976443409331
30
0
41
1
10
0.382811073308034
20
-9.47879812069075
30
0
41
1
10
0.372026875593377
20
-9.47467286669202
30
0
41
1
10
0.366413193063693
20
-9.47163297005365
30
0
41
1
10
0.355977234112487
20
-9.46479165097011
30
0
41
1
10
0.351096993348449
20
-9.46113487300111
30
0
41
1
10
0.346265877365255
20
-9.45716611180497
30
0
0
SPLINE
5
2EA
100
AcDbEntity
8
1
62
256
6
ByLayer
370
18
48
1
60
0
100
AcDbSpline
70
4
71
3
72
8
73
4
40
0
40
0
40
0
40
0
40
1
40
1
40
1
40
1
41
1
10
0.346265877365255
20
6.56703185455439
30
0
41
1
10
0.23048637372662
20
6.45550739381842
30
0
41
1
10
0.115045831014498
20
6.34351153311646
30
0
41
1
10
0
20
6.2309792904134
30
0
0
SPLINE
5
2EB
100
AcDbEntity
8
1
62
256
6
ByLayer
370
18
48
1
60
0
100
AcDbSpline
70
4
71
3
72
8
73
4
40
0
40
0
40
0
40
0
40
1
40
1
40
1
40
1
41
1
10
0.346265877365255
20
-10.2376995361025
30
0
41
1
10
0.229219722500602
20
-10.0498655286572
30
0
41
1
10
0.113739105797208
20
-9.8607150529516
30
0
41
1
10
0
20
-9.6701914623011
30
0
0
SPLINE
5
2EC
100
AcDbEntity
8
1
62
256
6
ByLayer
370
18
48
1
60
0
100
AcDbSpline
70
4
71
3
72
8
73
4
40
0
40
0
40
0
40
0
40
1
40
1
40
1
40
1
41
1
10
6.33367451616829
20
12.5271683548021
30
0
41
1
10
6.33274681904518
20
12.5266956695084
30
0
41
1
10
6.22788678063645
20
12.4732668113042
30
0
41
1
10
6.12695387450455
20
12.4218389269386
30
0
0
SPLINE
5
2ED
100
AcDbEntity
8
1
62
256
6
ByLayer
370
18
48
1
60
0
100
AcDbSpline
70
4
71
3
72
8
73
4
40
0
40
0
40
0
40
0
40
1
40
1
40
1
40
1
41
1
10
10.6669115460271
20
8.79200162167072
30
0
41
1
10
10.6914724003728
20
8.79362512170931
30
0
41
1
10
10.7159761172999
20
8.79485710810425
30
0
41
1
10
10.7404050703752
20
8.79570002942111
30
0
0
SPLINE
5
2EE
100
AcDbEntity
8
1
62
256
6
ByLayer
370
18
48
1
60
0
100
AcDbSpline
70
4
71
3
72
8
73
4
40
0
40
0
40
0
40
0
40
1
40
1
40
1
40
1
41
1
10
0.346265877365255
20
9.45716611180497
30
0
41
1
10
0.230836614090947
20
9.36234098597943
30
0
41
1
10
0.115414428426249
20
9.26750437160226
30
0
41
1
10
0
20
9.1726551727164
30
0
0
SPLINE
5
2EF
100
AcDbEntity
8
1
62
256
6
ByLayer
370
18
48
1
60
0
100
AcDbSpline
70
4
71
3
72
8
73
4
40
0
40
0
40
0
40
0
40
1
40
1
40
1
40
1
41
1
10
0.346265877365255
20
9.26169711960412
30
0
41
1
10
0.228340842567064
20
9.04332109595022
30
0
41
1
10
0.112822336155318
20
8.82318279305082
30
0
41
1
10
0
20
8.60124135910399
30
0
0
SPLINE
5
2F0
100
AcDbEntity
8
1
62
256
6
ByLayer
370
18
48
1
60
0
100
AcDbSpline
70
4
71
3
72
8
73
4
40
0
40
0
40
0
40
0
40
1
40
1
40
1
40
1
41
1
10
0
20
-5.05409268984661
30
0
41
1
10
0.10545472559312
20
-5.43725176603041
30
0
41
1
10
0.221303491542955
20
-5.81676361351229
30
0
41
1
10
0.346265877365198
20
-6.19202043139583
30
0
0
SPLINE
5
2F1
100
AcDbEntity
8
1
62
256
6
ByLayer
370
18
48
1
60
0
100
AcDbSpline
70
4
71
3
72
10
73
6
40
0
40
0
40
0
40
0
40
0.563735151037545
40
0.563735151037545
40
1
40
1
40
1
40
1
41
1
10
9.39975586605306
20
-6.70060791371498
30
0
41
1
10
9.03261661611995
20
-6.70060791371498
30
0
41
1
10
8.66039263644882
20
-6.75582422850518
30
0
41
1
10
8.04418608136714
20
-6.94273460481031
30
0
41
1
10
7.78479827377623
20
-7.05593115468363
30
0
41
1
10
7.54887453999999
20
-7.19329030220842
30
0
0
SPLINE
5
2F2
100
AcDbEntity
8
1
62
256
6
ByLayer
370
18
48
1
60
0
100
AcDbSpline
70
4
71
3
72
8
73
4
40
0
40
0
40
0
40
0
40
1
40
1
40
1
40
1
41
1
10
7.54887454000001
20
-7.19329030220841
30
0
41
1
10
7.24502211996747
20
-7.27984718678499
30
0
41
1
10
6.96775882048348
20
-7.42468737094843
30
0
41
1
10
6.73978942899953
20
-7.62397975639499
30
0
0
SPLINE
5
2F3
100
AcDbEntity
8
1
62
256
6
ByLayer
370
18
48
1
60
0
100
AcDbSpline
70
4
71
3
72
22
73
18
40
0
40
0
40
0
40
0
40
0.278994554121862
40
0.278994554121862
40
0.431992036032686
40
0.431992036032686
40
0.552666573772419
40
0.552666573772419
40
0.648553314219654
40
0.648553314219654
40
0.744960055493873
40
0.744960055493873
40
0.834535819088658
40
0.834535819088658
40
0.961189644705772
40
0.961189644705772
40
1
40
1
40
1
40
1
41
1
10
0.346265877365255
20
11.5541511286625
30
0
41
1
10
0.363411421661198
20
11.57638920407
30
0
41
1
10
0.379066550646996
20
11.5986681115014
30
0
41
1
10
0.397538236924703
20
11.6295557843882
30
0
41
1
10
0.403071023539496
20
11.6400215441734
30
0
41
1
10
0.409569583288032
20
11.6560087830561
30
0
41
1
10
0.411286714963666
20
11.6622372072947
30
0
41
1
10
0.411248946879653
20
11.6703928249904
30
0
41
1
10
0.410105628114792
20
11.6729948760845
30
0
41
1
10
0.405335505900212
20
11.675354983723
30
0
41
1
10
0.401617619872496
20
11.6751126740786
30
0
41
1
10
0.392577979999487
20
11.6719915696825
30
0
41
1
10
0.387296366402552
20
11.6692825034614
30
0
41
1
10
0.373500436120253
20
11.660738655423
30
0
41
1
10
0.364347430904871
20
11.6539747618803
30
0
41
1
10
0.352129910353142
20
11.6440472880504
30
0
41
1
10
0.349206449933632
20
11.6416084122315
30
0
41
1
10
0.346265877365283
20
11.6390985947187
30
0
0
SPLINE
5
2F4
100
AcDbEntity
8
1
62
256
6
ByLayer
370
18
48
1
60
0
100
AcDbSpline
70
4
71
3
72
12
73
8
40
0
40
0
40
0
40
0
40
0.182949035238906
40
0.182949035238906
40
0.64794917780761
40
0.64794917780761
40
1
40
1
40
1
40
1
41
1
10
6.39072997501074
20
-8.30899644838686
30
0
41
1
10
6.35742889940479
20
-8.27981674354815
30
0
41
1
10
6.32673810305192
20
-8.24856815612554
30
0
41
1
10
6.22824290743262
20
-8.13205687441112
30
0
41
1
10
6.17497503250806
20
-8.03596215214867
30
0
41
1
10
6.1109783055669
20
-7.85592692901278
30
0
41
1
10
6.09249340175828
20
-7.77379405171287
30
0
41
1
10
6.08149881466915
20
-7.6887182640246
30
0
0
SPLINE
5
2F5
100
AcDbEntity
8
1
62
256
6
ByLayer
370
18
48
1
60
0
100
AcDbSpline
70
4
71
3
72
10
73
6
40
0
40
0
40
0
40
0
40
0.512855138613058
40
0.512855138613058
40
1
40
1
40
1
40
1
41
1
10
6.33165342816372
20
-9.11321498918096
30
0
41
1
10
6.28619211817147
20
-9.0556950584681
30
0
41
1
10
6.24488910843274
20
-8.99904673279835
30
0
41
1
10
6.17654155051258
20
-8.88828015205627
30
0
41
1
10
6.14864639633481
20
-8.83381958951296
30
0
41
1
10
6.12695387450438
20
-8.77837730740808
30
0
0
SPLINE
5
2F6
100
AcDbEntity
8
1
62
256
6
ByLayer
370
18
48
1
60
0
100
AcDbSpline
70
4
71
3
72
8
73
4
40
0
40
0
40
0
40
0
40
1
40
1
40
1
40
1
41
1
10
6.06589098818279
20
11.915516272114
30
0
41
1
10
6.06117106161088
20
11.9655415947511
30
0
41
1
10
6.08110185409956
20
12.0131473583844
30
0
41
1
10
6.12695387450438
20
12.055217351592
30
0
0
SPLINE
5
2F7
100
AcDbEntity
8
1
62
256
6
ByLayer
370
18
48
1
60
0
100
AcDbSpline
70
4
71
3
72
12
73
8
40
0
40
0
40
0
40
0
40
0.442375492562522
40
0.442375492562522
40
0.889183282161012
40
0.889183282161012
40
1
40
1
40
1
40
1
41
1
10
6.12695387450438
20
12.055217351592
30
0
41
1
10
6.17544048253413
20
12.0997046228716
30
0
41
1
10
6.25504284070436
20
12.1428755040036
30
0
41
1
10
6.44838636893684
20
12.263453725565
30
0
41
1
10
6.56511733757881
20
12.3455981665438
30
0
41
1
10
6.69186648850081
20
12.486490582924
30
0
41
1
10
6.71657291875803
20
12.5168800842963
30
0
41
1
10
6.73978942899993
20
12.5490359709133
30
0
0
SPLINE
5
2F8
100
AcDbEntity
8
1
62
256
6
ByLayer
370
18
48
1
60
0
100
AcDbSpline
70
4
71
3
72
8
73
4
40
0
40
0
40
0
40
0
40
1
40
1
40
1
40
1
41
1
10
0.346265877365255
20
10.987126560104
30
0
41
1
10
0.229729664239528
20
10.8205218195503
30
0
41
1
10
0.114269838928095
20
10.652904136356
30
0
41
1
10
0
20
10.4842192326163
30
0
0
SPLINE
5
2F9
100
AcDbEntity
8
1
62
256
6
ByLayer
370
18
48
1
60
0
100
AcDbSpline
70
4
71
3
72
8
73
4
40
0
40
0
40
0
40
0
40
1
40
1
40
1
40
1
41
1
10
0
20
-6.2309792904134
30
0
41
1
10
0.115045831014498
20
-6.34351153311646
30
0
41
1
10
0.23048637372662
20
-6.45550739381842
30
0
41
1
10
0.346265877365255
20
-6.56703185455439
30
0
0
SPLINE
5
2FA
100
AcDbEntity
8
1
62
256
6
ByLayer
370
18
48
1
60
0
100
AcDbSpline
70
4
71
3
72
8
73
4
40
0
40
0
40
0
40
0
40
1
40
1
40
1
40
1
41
1
10
0
20
-9.1726551727164
30
0
41
1
10
0.115414428426249
20
-9.26750437160226
30
0
41
1
10
0.230836614090947
20
-9.36234098597943
30
0
41
1
10
0.346265877365255
20
-9.45716611180497
30
0
0
SPLINE
5
2FB
100
AcDbEntity
8
1
62
256
6
ByLayer
370
18
48
1
60
0
100
AcDbSpline
70
4
71
3
72
14
73
10
40
0
40
0
40
0
40
0
40
0.248727467037527
40
0.248727467037527
40
0.526675085735188
40
0.526675085735188
40
0.812291994891929
40
0.812291994891929
40
1
40
1
40
1
40
1
41
1
10
6.12639954968745
20
9.07186351210623
30
0
41
1
10
6.16445209532426
20
9.02372998005487
30
0
41
1
10
6.22028347701595
20
8.9724095289795
30
0
41
1
10
6.36780890972642
20
8.8678704845108
30
0
41
1
10
6.46502631246662
20
8.81371888812365
30
0
41
1
10
6.68696048105897
20
8.72144217756576
30
0
41
1
10
6.81581270204094
20
8.68262186866984
30
0
41
1
10
7.03939131744593
20
8.64329974230228
30
0
41
1
10
7.13246638511515
20
8.63395318631302
30
0
41
1
10
7.22528991824828
20
8.63189003880608
30
0
0
SPLINE
5
2FC
100
AcDbEntity
8
1
62
256
6
ByLayer
370
18
48
1
60
0
100
AcDbSpline
70
4
71
3
72
22
73
18
40
0
40
0
40
0
40
0
40
0.207675188636617
40
0.207675188636617
40
0.370644281583627
40
0.370644281583627
40
0.494997184196364
40
0.494997184196364
40
0.596186530762269
40
0.596186530762269
40
0.697879528049507
40
0.697879528049507
40
0.792807826306802
40
0.792807826306802
40
0.925276789612654
40
0.925276789612654
40
1
40
1
40
1
40
1
41
1
10
0.346265877365255
20
-11.9647342870706
30
0
41
1
10
0.359372209632937
20
-11.9803595415229
30
0
41
1
10
0.371647363562147
20
-11.995802080732
30
0
41
1
10
0.390236131413815
20
-12.0211362171773
30
0
41
1
10
0.39741732413583
20
-12.0317253186461
30
0
41
1
10
0.40660963514938
20
-12.0475379397915
30
0
41
1
10
0.409501414892276
20
-12.0535649594317
30
0
41
1
10
0.411627869726516
20
-12.061536775635
30
0
41
1
10
0.411437888994186
20
-12.0640888370587
30
0
41
1
10
0.40840132201302
20
-12.0663483395009
30
0
41
1
10
0.405487448283196
20
-12.0660570999757
30
0
41
1
10
0.39771825370812
20
-12.0628501293161
30
0
41
1
10
0.392928021107508
20
-12.0600898295608
30
0
41
1
10
0.38010492766972
20
-12.0514703650392
30
0
41
1
10
0.371354499046873
20
-12.044714471476
30
0
41
1
10
0.357058756644648
20
-12.0328337851015
30
0
41
1
10
0.35169804073729
20
-12.0282147155673
30
0
41
1
10
0.346265877365255
20
-12.023400427556
30
0
0
SPLINE
5
2FD
100
AcDbEntity
8
1
62
256
6
ByLayer
370
18
48
1
60
0
100
AcDbSpline
70
4
71
3
72
26
73
22
40
0
40
0
40
0
40
0
40
0.0215505198331114
40
0.0215505198331114
40
0.525005642187974
40
0.525005642187974
40
0.824449194733949
40
0.824449194733949
40
0.89910280771347
40
0.89910280771347
40
0.924036687229077
40
0.924036687229077
40
0.938625375606082
40
0.938625375606082
40
0.950365640115396
40
0.950365640115396
40
0.962059698270156
40
0.962059698270156
40
0.976523903036288
40
0.976523903036288
40
1
40
1
40
1
40
1
41
1
10
0.346265877365255
20
3.15192937208194
30
0
41
1
10
0.347275169430787
20
3.15811464784565
30
0
41
1
10
0.348276170534746
20
3.16430004271616
30
0
41
1
10
0.372416928601155
20
3.31471564910016
30
0
41
1
10
0.391926820896885
20
3.45946915233969
30
0
41
1
10
0.410147811892642
20
3.68731393541643
30
0
41
1
10
0.415844835011228
20
3.77346988155709
30
0
41
1
10
0.405949554049187
20
3.87324528234981
30
0
41
1
10
0.403093935091135
20
3.89331024655675
30
0
41
1
10
0.394583001608851
20
3.91592721724609
30
0
41
1
10
0.391958926544533
20
3.92132124998828
30
0
41
1
10
0.386527065070652
20
3.92796446499253
30
0
41
1
10
0.384187574617414
20
3.93002639738688
30
0
41
1
10
0.37943632959616
20
3.93228311844915
30
0
41
1
10
0.377073515010522
20
3.93276482232845
30
0
41
1
10
0.372244691055101
20
3.93245325859232
30
0
41
1
10
0.36972408127238
20
3.93166606170212
30
0
41
1
10
0.364293496737702
20
3.92887545085794
30
0
41
1
10
0.361354553333001
20
3.92661858176517
30
0
41
1
10
0.354145003402834
20
3.91982820961208
30
0
41
1
10
0.350044980277261
20
3.91468404195408
30
0
41
1
10
0.346265877371167
20
3.90926663647136
30
0
0
SPLINE
5
2FE
100
AcDbEntity
8
1
62
256
6
ByLayer
370
18
48
1
60
0
100
AcDbSpline
70
4
71
3
72
8
73
4
40
0
40
0
40
0
40
0
40
1
40
1
40
1
40
1
41
1
10
7.54887454000001
20
13.5990702373851
30
0
41
1
10
7.44052502667103
20
13.4624779353557
30
0
41
1
10
7.33238230978182
20
13.3257313831707
30
0
41
1
10
7.22446699745905
20
13.1888167957983
30
0
0
SPLINE
5
2FF
100
AcDbEntity
8
1
62
256
6
ByLayer
370
18
48
1
60
0
100
AcDbSpline
70
4
71
3
72
8
73
4
40
0
40
0
40
0
40
0
40
1
40
1
40
1
40
1
41
1
10
0
20
-11.5480021180099
30
0
41
1
10
0.114838291584874
20
-11.6875563471868
30
0
41
1
10
0.2302775415329
20
-11.826454009731
30
0
41
1
10
0.346265877365255
20
-11.9647342870706
30
0
0
SPLINE
5
300
100
AcDbEntity
8
1
62
256
6
ByLayer
370
18
48
1
60
0
100
AcDbSpline
70
4
71
3
72
8
73
4
40
0
40
0
40
0
40
0
40
1
40
1
40
1
40
1
41
1
10
0
20
11.0995541765226
30
0
41
1
10
0.114608295288491
20
11.2519077114624
30
0
41
1
10
0.23005558511332
20
11.4034243160505
30
0
41
1
10
0.346265877365255
20
11.5541511286625
30
0
0
SPLINE
5
301
100
AcDbEntity
8
1
62
256
6
ByLayer
370
18
48
1
60
0
100
AcDbSpline
70
4
71
3
72
8
73
4
40
0
40
0
40
0
40
0
40
1
40
1
40
1
40
1
41
1
10
0
20
7.94001592678256
30
0
41
1
10
0.115351215931071
20
8.03904531451656
30
0
41
1
10
0.230775716236821
20
8.13796096661621
30
0
41
1
10
0.346265877365283
20
8.23677419397316
30
0
0
SPLINE
5
302
100
AcDbEntity
8
1
62
256
6
ByLayer
370
18
48
1
60
0
100
AcDbSpline
70
4
71
3
72
8
73
4
40
0
40
0
40
0
40
0
40
1
40
1
40
1
40
1
41
1
10
0
20
-11.7159123809271
30
0
41
1
10
0.11533495691981
20
-11.8185388964186
30
0
41
1
10
0.230759121535556
20
-11.9210318587676
30
0
41
1
10
0.346265877365255
20
-12.023400427556
30
0
0
SPLINE
5
303
100
AcDbEntity
8
1
62
256
6
ByLayer
370
18
48
1
60
0
100
AcDbSpline
70
4
71
3
72
8
73
4
40
0
40
0
40
0
40
0
40
1
40
1
40
1
40
1
41
1
10
-4.263E-13
20
3.38841451383432
30
0
41
1
10
0.11157892342294
20
3.56534997086926
30
0
41
1
10
0.227359890228371
20
3.738812969881
30
0
41
1
10
0.346265877371906
20
3.90926663647245
30
0
0
SPLINE
5
304
100
AcDbEntity
8
1
62
256
6
ByLayer
370
18
48
1
60
0
100
AcDbSpline
70
4
71
3
72
8
73
4
40
0
40
0
40
0
40
0
40
1
40
1
40
1
40
1
41
1
10
0
20
-11.8272041991149
30
0
41
1
10
0.150359373092527
20
-11.9803802881855
30
0
41
1
10
0.300772657547782
20
-12.1335030118228
30
0
41
1
10
0.45123412263473
20
-12.2865780427261
30
0
0
SPLINE
5
305
100
AcDbEntity
8
1
62
256
6
ByLayer
370
18
48
1
60
0
100
AcDbSpline
70
4
71
3
72
8
73
4
40
0
40
0
40
0
40
0
40
1
40
1
40
1
40
1
41
1
10
0
20
11.3432293866236
30
0
41
1
10
0.115375688133611
20
11.4419246184803
30
0
41
1
10
0.230798820375043
20
11.5405459370123
30
0
41
1
10
0.346265877365283
20
11.6390985947187
30
0
0
SPLINE
5
306
100
AcDbEntity
8
1
62
256
6
ByLayer
370
18
48
1
60
0
100
AcDbSpline
70
4
71
3
72
22
73
18
40
0
40
0
40
0
40
0
40
0.50859174063716
40
0.50859174063716
40
0.647845461867348
40
0.647845461867348
40
0.788896273306472
40
0.788896273306472
40
0.846386804156538
40
0.846386804156538
40
0.882332196000897
40
0.882332196000897
40
0.918719530208233
40
0.918719530208233
40
0.950428846197531
40
0.950428846197531
40
1
40
1
40
1
40
1
41
1
10
0.346265877365255
20
-6.1920204313958
30
0
41
1
10
0.373388420424675
20
-6.27346829376182
30
0
41
1
10
0.394971184528174
20
-6.35664104750249
30
0
41
1
10
0.408625851331067
20
-6.45763251998042
30
0
41
1
10
0.410693645492358
20
-6.47931010629291
30
0
41
1
10
0.411644943802145
20
-6.5211304545538
30
0
41
1
10
0.41069000362296
20
-6.54189457324303
30
0
41
1
10
0.403655776404833
20
-6.56610129268437
30
0
41
1
10
0.400831866990586
20
-6.5726185213137
30
0
41
1
10
0.394339150576769
20
-6.58058665555734
30
0
41
1
10
0.391310697182973
20
-6.58304786763237
30
0
41
1
10
0.38428147256144
20
-6.58588133170814
30
0
41
1
10
0.380158396257542
20
-6.58622995625581
30
0
41
1
10
0.372090265079009
20
-6.58470056389605
30
0
41
1
10
0.368104510284752
20
-6.58310502244856
30
0
41
1
10
0.358092830509463
20
-6.57748204639391
30
0
41
1
10
0.351999194687295
20
-6.5725544652279
30
0
41
1
10
0.346265877365255
20
-6.56703185455439
30
0
0
SPLINE
5
307
100
AcDbEntity
8
1
62
256
6
ByLayer
370
18
48
1
60
0
100
AcDbSpline
70
4
71
3
72
10
73
6
40
0
40
0
40
0
40
0
40
0.625318976794604
40
0.625318976794604
40
1
40
1
40
1
40
1
41
1
10
9.534976874189
20
9.83543220095157
30
0
41
1
10
9.79604611543809
20
9.91180186839152
30
0
41
1
10
10.0764129557461
20
9.91328793935759
30
0
41
1
10
10.5104551703003
20
9.822571530639
30
0
41
1
10
10.6722957536348
20
9.76709994000993
30
0
41
1
10
10.8287625432746
20
9.69344157955415
30
0
0
SPLINE
5
308
100
AcDbEntity
8
1
62
256
6
ByLayer
370
18
48
1
60
0
100
AcDbSpline
70
4
71
3
72
22
73
18
40
0
40
0
40
0
40
0
40
0.076003412125595
40
0.076003412125595
40
0.15387019842922
40
0.15387019842922
40
0.223455688856948
40
0.223455688856948
40
0.285796807149923
40
0.285796807149923
40
0.386327790897015
40
0.386327790897015
40
0.554663739773593
40
0.554663739773593
40
0.858182253120758
40
0.858182253120758
40
1
40
1
40
1
40
1
41
1
10
0.346265877365255
20
9.45716611180497
30
0
41
1
10
0.353080398826194
20
9.46276424036131
30
0
41
1
10
0.36002674908471
20
9.46776433143455
30
0
41
1
10
0.373516527129453
20
9.47547667452697
30
0
41
1
10
0.380224615466545
20
9.47819364590518
30
0
41
1
10
0.39121288921217
20
9.47991266801968
30
0
41
1
10
0.395808338589916
20
9.47928157766455
30
0
41
1
10
0.402625282773812
20
9.4756007962355
30
0
41
1
10
0.405139438569961
20
9.47279367063128
30
0
41
1
10
0.409875329987244
20
9.46369612926208
30
0
41
1
10
0.411120970949412
20
9.45622582342217
30
0
41
1
10
0.411475421061681
20
9.43435359058292
30
0
41
1
10
0.40871843436426
20
9.41827884048826
30
0
41
1
10
0.396869003968817
20
9.37199306815334
30
0
41
1
10
0.384269477335408
20
9.33961147704819
30
0
41
1
10
0.362194018163137
20
9.29222705574227
30
0
41
1
10
0.354496231725022
20
9.27693826039686
30
0
41
1
10
0.346265877365255
20
9.26169711960411
30
0
0
SPLINE
5
309
100
AcDbEntity
8
1
62
256
6
ByLayer
370
18
48
1
60
0
100
AcDbSpline
70
4
71
3
72
24
73
20
40
0
40
0
40
0
40
0
40
0.0121424287760735
40
0.0121424287760735
40
0.172302154517543
40
0.172302154517543
40
0.305272267344068
40
0.305272267344068
40
0.43933734727237
40
0.43933734727237
40
0.557121298994179
40
0.557121298994179
40
0.668381283442753
40
0.668381283442753
40
0.78370253252783
40
0.78370253252783
40
0.91213677010939
40
0.91213677010939
40
1
40
1
40
1
40
1
41
1
10
18.3513759045254
20
-4.08665026850844
30
0
41
1
10
18.3473574840452
20
-4.07623082042812
30
0
41
1
10
18.3432187735222
20
-4.06587091780519
30
0
41
1
10
18.2833788167406
20
-3.92122578077772
30
0
41
1
10
18.2058483009042
20
-3.79585956036409
30
0
41
1
10
18.0246693587235
20
-3.60247334325159
30
0
41
1
10
17.9253879615747
20
-3.526313885235
30
0
41
1
10
17.7026368488231
20
-3.41055706462153
30
0
41
1
10
17.575382058682
20
-3.36957162167988
30
0
41
1
10
17.3302679749625
20
-3.33333012507573
30
0
41
1
10
17.209738991752
20
-3.33263391498238
30
0
41
1
10
16.9855832420649
20
-3.36311002331608
30
0
41
1
10
16.8785146062903
20
-3.3929089047559
30
0
41
1
10
16.6801521875215
20
-3.47915511315766
30
0
41
1
10
16.5871216603081
20
-3.53754479788287
30
0
41
1
10
16.4171453261813
20
-3.68246628888892
30
0
41
1
10
16.3410781669105
20
-3.77306330334659
30
0
41
1
10
16.2383030656103
20
-3.93948307741432
30
0
41
1
10
16.2030129982419
20
-4.01164246316331
30
0
41
1
10
16.174085083937
20
-4.08665026850842
30
0
0
SPLINE
5
30A
100
AcDbEntity
8
1
62
256
6
ByLayer
370
18
48
1
60
0
100
AcDbSpline
70
4
71
3
72
8
73
4
40
0
40
0
40
0
40
0
40
1
40
1
40
1
40
1
41
1
10
6.33165342816375
20
-9.11321498918082
30
0
41
1
10
6.254270221632
20
-9.93937799435767
30
0
41
1
10
6.1852370057527
20
-10.6399032085257
30
0
41
1
10
6.12695387450438
20
-11.1880391050238
30
0
0
SPLINE
5
30B
100
AcDbEntity
8
1
62
256
6
ByLayer
370
18
48
1
60
0
100
AcDbSpline
70
4
71
3
72
12
73
8
40
0
40
0
40
0
40
0
40
0.323965934626574
40
0.323965934626574
40
0.926674933598008
40
0.926674933598008
40
1
40
1
40
1
40
1
41
1
10
16.1428781047474
20
13.0318274275751
30
0
41
1
10
16.1181572900586
20
13.0247430925366
30
0
41
1
10
16.0913090327721
20
13.0182981588221
30
0
41
1
10
16.0104601333711
20
13.0022622291119
30
0
41
1
10
15.9516281981648
20
12.9945311131919
30
0
41
1
10
15.8839825914882
20
12.9897480073535
30
0
41
1
10
15.876546860306
20
12.9892750798197
30
0
41
1
10
15.8690794136316
20
12.9888524871466
30
0
0
SPLINE
5
30C
100
AcDbEntity
8
1
62
256
6
ByLayer
370
18
48
1
60
0
100
AcDbSpline
70
4
71
3
72
8
73
4
40
0
40
0
40
0
40
0
40
1
40
1
40
1
40
1
41
1
10
0.346265877365283
20
-3.15192937208195
30
0
41
1
10
0.0033852009711381
20
-1.05064312402732
30
0
41
1
10
0.0033852009711381
20
1.0506431240273
30
0
41
1
10
0.346265877365255
20
3.15192937208194
30
0
0
SPLINE
5
30D
100
AcDbEntity
8
1
62
256
6
ByLayer
370
18
48
1
60
0
100
AcDbSpline
70
4
71
3
72
8
73
4
40
0
40
0
40
0
40
0
40
1
40
1
40
1
40
1
41
1
10
0.346265877365255
20
-3.90926663646293
30
0
41
1
10
0.227359890227632
20
-3.73881296987965
30
0
41
1
10
0.1115789234278
20
-3.56534997087638
30
0
41
1
10
9.635E-12
20
-3.38841451385028
30
0
0
SPLINE
5
30E
100
AcDbEntity
8
1
62
256
6
ByLayer
370
18
48
1
60
0
100
AcDbSpline
70
4
71
3
72
8
73
4
40
0
40
0
40
0
40
0
40
1
40
1
40
1
40
1
41
1
10
0.45123412263473
20
12.2865780427262
30
0
41
1
10
0.300772657547782
20
12.1335030118228
30
0
41
1
10
0.150359373092499
20
11.9803802881855
30
0
41
1
10
0
20
11.8272041991149
30
0
0
SPLINE
5
30F
100
AcDbEntity
8
1
62
256
6
ByLayer
370
18
48
1
60
0
100
AcDbSpline
70
4
71
3
72
10
73
6
40
0
40
0
40
0
40
0
40
0.642109050119893
40
0.642109050119893
40
1
40
1
40
1
40
1
41
1
10
6.73978942899953
20
-7.62397975639499
30
0
41
1
10
6.64592390322301
20
-7.70603763452253
30
0
41
1
10
6.54135195531953
20
-7.82992666952951
30
0
41
1
10
6.40156388911842
20
-8.04861945550159
30
0
41
1
10
6.355736458298
20
-8.13250991766044
30
0
41
1
10
6.31480440072781
20
-8.21992791592449
30
0
0
SPLINE
5
310
100
AcDbEntity
8
1
62
256
6
ByLayer
370
18
48
1
60
0
100
AcDbSpline
70
4
71
3
72
8
73
4
40
0
40
0
40
0
40
0
40
1
40
1
40
1
40
1
41
1
10
0.346265877365198
20
6.19202043139583
30
0
41
1
10
0.221303491542955
20
5.81676361351229
30
0
41
1
10
0.10545472559312
20
5.43725176603041
30
0
41
1
10
0
20
5.05409268984661
30
0
0
SPLINE
5
311
100
AcDbEntity
8
1
62
256
6
ByLayer
370
18
48
1
60
0
100
AcDbSpline
70
4
71
3
72
22
73
18
40
0
40
0
40
0
40
0
40
0.477178642487609
40
0.477178642487609
40
0.659175456068532
40
0.659175456068532
40
0.736104569890872
40
0.736104569890872
40
0.814382117909337
40
0.814382117909337
40
0.863913762798868
40
0.863913762798868
40
0.913546342599439
40
0.913546342599439
40
0.975074166835151
40
0.975074166835151
40
1
40
1
40
1
40
1
41
1
10
0.346265877365255
20
7.97637607432429
30
0
41
1
10
0.372778154651485
20
8.03578221600117
30
0
41
1
10
0.394400157228034
20
8.09707740388515
30
0
41
1
10
0.409434752644927
20
8.17508192335136
30
0
41
1
10
0.412041066221491
20
8.19648428882579
30
0
41
1
10
0.410659271015419
20
8.22320983200302
30
0
41
1
10
0.409565154625028
20
8.23077165946216
30
0
41
1
10
0.405274018447045
20
8.24387335831761
30
0
41
1
10
0.401947400514729
20
8.24953857106073
30
0
41
1
10
0.394108553840425
20
8.25513076380884
30
0
41
1
10
0.390382910386563
20
8.25641347658166
30
0
41
1
10
0.382017011442088
20
8.25669809163008
30
0
41
1
10
0.377275238983202
20
8.25569635864159
30
0
41
1
10
0.366386136226794
20
8.25135011345853
30
0
41
1
10
0.360018907213913
20
8.2474803602076
30
0
41
1
10
0.351293317230301
20
8.24095059115768
30
0
41
1
10
0.348767421550036
20
8.23891451183106
30
0
41
1
10
0.346265877365283
20
8.23677419397318
30
0
0
SPLINE
5
312
100
AcDbEntity
8
1
62
256
6
ByLayer
370
18
48
1
60
0
100
AcDbSpline
70
4
71
3
72
14
73
10
40
0
40
0
40
0
40
0
40
0.272286973372738
40
0.272286973372738
40
0.543683171296348
40
0.543683171296348
40
0.828189482106015
40
0.828189482106015
40
1
40
1
40
1
40
1
41
1
10
7.22649857479095
20
1.93895019359589
30
0
41
1
10
7.09739815374996
20
1.93833482081965
30
0
41
1
10
6.96739765026891
20
1.93450030545762
30
0
41
1
10
6.72776398349291
20
1.92402779322062
30
0
41
1
10
6.61479256197543
20
1.91740816521762
30
0
41
1
10
6.41303941164529
20
1.90786360838641
30
0
41
1
10
6.32284463213881
20
1.90512945500699
30
0
41
1
10
6.20960080064228
20
1.90991536312028
30
0
41
1
10
6.17344299849108
20
1.91388229336215
30
0
41
1
10
6.14478002259986
20
1.92037192984617
30
0
0
SPLINE
5
313
100
AcDbEntity
8
1
62
256
6
ByLayer
370
18
48
1
60
0
100
AcDbSpline
70
4
71
3
72
22
73
18
40
0
40
0
40
0
40
0
40
0.047912519068037
40
0.047912519068037
40
0.0820624641789726
40
0.0820624641789726
40
0.116468624686352
40
0.116468624686352
40
0.148035618421806
40
0.148035618421806
40
0.201848864027685
40
0.201848864027685
40
0.304248920768651
40
0.304248920768651
40
0.606177712089761
40
0.606177712089761
40
1
40
1
40
1
40
1
41
1
10
0.346265877365255
20
6.56703185455439
30
0
41
1
10
0.351809765583283
20
6.57237199788257
30
0
41
1
10
0.357684033582075
20
6.57715094112274
30
0
41
1
10
0.367781181833124
20
6.58298730596937
30
0
41
1
10
0.372080053091963
20
6.58473778906733
30
0
41
1
10
0.380182470440417
20
6.58619255022232
30
0
41
1
10
0.384078551334085
20
6.58588028144888
30
0
41
1
10
0.390561356880767
20
6.58341828742329
30
0
41
1
10
0.393310642457749
20
6.58141760162407
30
0
41
1
10
0.399600857145344
20
6.57461945814664
30
0
41
1
10
0.40250077969057
20
6.56878804925816
30
0
41
1
10
0.408739250414726
20
6.55029393553887
30
0
41
1
10
0.410422260473837
20
6.53588369251834
30
0
41
1
10
0.412775529623787
20
6.47787911164299
30
0
41
1
10
0.405949963550654
20
6.42958064468257
30
0
41
1
10
0.384682204571817
20
6.31927000907072
30
0
41
1
10
0.367332524316083
20
6.25528269104478
30
0
41
1
10
0.346265877365283
20
6.1920204313958
30
0
0
SPLINE
5
314
100
AcDbEntity
8
1
62
256
6
ByLayer
370
18
48
1
60
0
100
AcDbSpline
70
4
71
3
72
8
73
4
40
0
40
0
40
0
40
0
40
1
40
1
40
1
40
1
41
1
10
0.346265877365283
20
-10.3878069201368
30
0
41
1
10
0.230842757174344
20
-10.293462780903
30
0
41
1
10
0.115420765530558
20
-10.1991168007114
30
0
41
1
10
-1.137E-13
20
-10.1047688205899
30
0
0
SPLINE
5
315
100
AcDbEntity
8
1
62
256
6
ByLayer
370
18
48
1
60
0
100
AcDbSpline
70
4
71
3
72
8
73
4
40
0
40
0
40
0
40
0
40
1
40
1
40
1
40
1
41
1
10
-1.137E-13
20
10.1047688205899
30
0
41
1
10
0.115420765530558
20
10.1991168007114
30
0
41
1
10
0.230842757174344
20
10.293462780903
30
0
41
1
10
0.346265877365283
20
10.3878069201368
30
0
0
SPLINE
5
316
100
AcDbEntity
8
1
62
256
6
ByLayer
370
18
48
1
60
0
100
AcDbSpline
70
4
71
3
72
26
73
22
40
0
40
0
40
0
40
0
40
0.0234760969784365
40
0.0234760969784365
40
0.0379403017443504
40
0.0379403017443504
40
0.0496343598989342
40
0.0496343598989342
40
0.0613746244080723
40
0.0613746244080723
40
0.0759633127848567
40
0.0759633127848567
40
0.100897192300089
40
0.100897192300089
40
0.175550805278485
40
0.175550805278485
40
0.474994357819951
40
0.474994357819951
40
0.978449480167231
40
0.978449480167231
40
1
40
1
40
1
40
1
41
1
10
0.346265877365283
20
-3.90926663646292
30
0
41
1
10
0.350044980273054
20
-3.91468404194882
30
0
41
1
10
0.354145003400532
20
-3.91982820960992
30
0
41
1
10
0.361354553333001
20
-3.92661858176517
30
0
41
1
10
0.364293496737702
20
-3.92887545085794
30
0
41
1
10
0.36972408127238
20
-3.93166606170212
30
0
41
1
10
0.372244691055101
20
-3.93245325859232
30
0
41
1
10
0.377073515010522
20
-3.93276482232845
30
0
41
1
10
0.37943632959616
20
-3.93228311844915
30
0
41
1
10
0.384187574617414
20
-3.93002639738688
30
0
41
1
10
0.386527065070652
20
-3.92796446499253
30
0
41
1
10
0.391958926544533
20
-3.92132124998828
30
0
41
1
10
0.394583001608851
20
-3.91592721724609
30
0
41
1
10
0.403093935091135
20
-3.89331024655675
30
0
41
1
10
0.405949554049187
20
-3.87324528234981
30
0
41
1
10
0.415844835011228
20
-3.77346988155709
30
0
41
1
10
0.410147811892642
20
-3.68731393541643
30
0
41
1
10
0.391926820896885
20
-3.45946915233969
30
0
41
1
10
0.372416928601155
20
-3.31471564910016
30
0
41
1
10
0.348276170534746
20
-3.16430004271618
30
0
41
1
10
0.347275169430787
20
-3.15811464784567
30
0
41
1
10
0.346265877365255
20
-3.15192937208195
30
0
0
SPLINE
5
317
100
AcDbEntity
8
1
62
256
6
ByLayer
370
18
48
1
60
0
100
AcDbSpline
70
4
71
3
72
19
73
15
40
0
40
0
40
0
40
0
40
0.0530881303181649
40
0.0530881303181649
40
0.264873467292241
40
0.264873467292241
40
0.466569065873174
40
0.466569065873174
40
0.683103727018341
40
0.683103727018341
40
0.924982607299767
40
0.924982607299767
40
0.924982607299767
40
1
40
1
40
1
40
1
41
1
10
6.42261971167468
20
-6.70505073335313
30
0
41
1
10
6.44086707581636
20
-6.62870579063434
30
0
41
1
10
6.46143132946207
20
-6.55230769774069
30
0
41
1
10
6.57640535994275
20
-6.17359586705417
30
0
41
1
10
6.71138977756891
20
-5.86966701626929
30
0
41
1
10
7.05181878047725
20
-5.33662996599956
30
0
41
1
10
7.25747519123072
20
-5.09801427043641
30
0
41
1
10
7.73769176349089
20
-4.68260394400765
30
0
41
1
10
8.0219309389494
20
-4.50592376550169
30
0
41
1
10
8.65899680873645
20
-4.22999311838699
30
0
41
1
10
9.02491779614755
20
-4.13796584956637
30
0
41
1
10
9.39264311565282
20
-4.10308515453191
30
0
41
1
10
9.50810078883757
20
-4.09213338245061
30
0
41
1
10
9.62433968550798
20
-4.08665026850845
30
0
41
1
10
9.74042273487714
20
-4.08665026850845
30
0
0
SPLINE
5
318
100
AcDbEntity
8
1
62
256
6
ByLayer
370
18
48
1
60
0
100
AcDbSpline
70
4
71
3
72
8
73
4
40
0
40
0
40
0
40
0
40
1
40
1
40
1
40
1
41
1
10
9.23411781500519
20
-1.93757520475144
30
0
41
1
10
9.47028299341054
20
-1.91803803315985
30
0
41
1
10
9.73872818078459
20
-1.91250294748856
30
0
41
1
10
10.0237708455752
20
-1.91250294748856
30
0
0
SPLINE
5
319
100
AcDbEntity
8
1
62
256
6
ByLayer
370
18
48
1
60
0
100
AcDbSpline
70
4
71
3
72
22
73
18
40
0
40
0
40
0
40
0
40
0.0937899592824883
40
0.0937899592824883
40
0.189854034426562
40
0.189854034426562
40
0.272605725624804
40
0.272605725624804
40
0.346148559318351
40
0.346148559318351
40
0.459236172195494
40
0.459236172195494
40
0.637860101421922
40
0.637860101421922
40
0.93102931569287
40
0.93102931569287
40
1
40
1
40
1
40
1
41
1
10
0.346265877365283
20
-10.3878069201368
30
0
41
1
10
0.354074084013234
20
-10.3941891643003
30
0
41
1
10
0.361959053222535
20
-10.3999207606532
30
0
41
1
10
0.376978434313315
20
-10.4088208375763
30
0
41
1
10
0.38430014974017
20
-10.4120085908662
30
0
41
1
10
0.395632421950808
20
-10.4141125277954
30
0
41
1
10
0.400098122400749
20
-10.4135650107224
30
0
41
1
10
0.406284689033498
20
-10.4098610546666
30
0
41
1
10
0.408346128861012
20
-10.4069832633312
30
0
41
1
10
0.411528330630574
20
-10.3978083856368
30
0
41
1
10
0.411660331481983
20
-10.390400372159
30
0
41
1
10
0.408950615759494
20
-10.3693495326977
30
0
41
1
10
0.404396282509708
20
-10.3542127341877
30
0
41
1
10
0.388508267453517
20
-10.3129918015878
30
0
41
1
10
0.374404158784216
20
-10.2851494179618
30
0
41
1
10
0.35436625391759
20
-10.2508990114363
30
0
41
1
10
0.350378224558852
20
-10.2442989724896
30
0
41
1
10
0.346265877365255
20
-10.2376995361025
30
0
0
SPLINE
5
31A
100
AcDbEntity
8
1
62
256
6
ByLayer
370
18
48
1
60
0
100
AcDbSpline
70
4
71
3
72
8
73
4
40
0
40
0
40
0
40
0
40
1
40
1
40
1
40
1
41
1
10
0.346265877365255
20
11.1018050043141
30
0
41
1
10
0.230827288584976
20
11.0060124131739
30
0
41
1
10
0.115404887590415
20
10.9101938054917
30
0
41
1
10
0
20
10.8143470869749
30
0
0
SPLINE
5
31B
100
AcDbEntity
8
1
62
256
6
ByLayer
370
18
48
1
60
0
100
AcDbSpline
70
4
71
3
72
14
73
10
40
0
40
0
40
0
40
0
40
0.278372980627984
40
0.278372980627984
40
0.556750202962767
40
0.556750202962767
40
0.832406894783014
40
0.832406894783014
40
1
40
1
40
1
40
1
41
1
10
9.49109813059704
20
-5.99973315134254
30
0
41
1
10
9.11039937219374
20
-5.99973315134254
30
0
41
1
10
8.72455234240113
20
-6.06646294317118
30
0
41
1
10
8.0064076924271
20
-6.31673051260096
30
0
41
1
10
7.66354784427787
20
-6.50375219942175
30
0
41
1
10
7.07259773947405
20
-6.95625553204029
30
0
41
1
10
6.81438614259125
20
-7.22907255148729
30
0
41
1
10
6.50119111193811
20
-7.67914376348647
30
0
41
1
10
6.40381323811701
20
-7.85541335579428
30
0
41
1
10
6.32911773068886
20
-8.02488722298789
30
0
0
SPLINE
5
31C
100
AcDbEntity
8
1
62
256
6
ByLayer
370
18
48
1
60
0
100
AcDbSpline
70
4
71
3
72
18
73
14
40
0
40
0
40
0
40
0
40
0.0533740859494412
40
0.0533740859494412
40
0.234112399163731
40
0.234112399163731
40
0.407493188738789
40
0.407493188738789
40
0.583657283355227
40
0.583657283355227
40
0.844730009428459
40
0.844730009428459
40
1
40
1
40
1
40
1
41
1
10
9.64594394785519
20
5.73885861133634
30
0
41
1
10
9.586754273661
20
5.7691636944361
30
0
41
1
10
9.52901294846961
20
5.80247869246767
30
0
41
1
10
9.28554879136721
20
5.95976232319148
30
0
41
1
10
9.11654714176208
20
6.1156864127981
30
0
41
1
10
8.84961170981038
20
6.45813373676039
30
0
41
1
10
8.74563463300365
20
6.64738378298803
30
0
41
1
10
8.59611898112516
20
7.0333084742374
30
0
41
1
10
8.549324510704
20
7.23424154213484
30
0
41
1
10
8.48829960887934
20
7.70814593703327
30
0
41
1
10
8.49799916560966
20
7.9774061576255
30
0
41
1
10
8.54085431667846
20
8.35278496408669
30
0
41
1
10
8.56311228463272
20
8.48303143695236
30
0
41
1
10
8.58646275454652
20
8.60128964290563
30
0
0
SPLINE
5
31D
100
AcDbEntity
8
1
62
256
6
ByLayer
370
18
48
1
60
0
100
AcDbSpline
70
4
71
3
72
22
73
18
40
0
40
0
40
0
40
0
40
0.311884300959237
40
0.311884300959237
40
0.465968148306108
40
0.465968148306108
40
0.589165383849381
40
0.589165383849381
40
0.680901708381323
40
0.680901708381323
40
0.773412121124607
40
0.773412121124607
40
0.856097586472542
40
0.856097586472542
40
0.969121184006609
40
0.969121184006609
40
1
40
1
40
1
40
1
41
1
10
0.346265877365255
20
-10.987126560104
30
0
41
1
10
0.365019408399974
20
-11.0139373435395
30
0
41
1
10
0.381793635901658
20
-11.0410587782309
30
0
41
1
10
0.399968420371351
20
-11.0777206053032
30
0
41
1
10
0.40494274191704
20
-11.089462603473
30
0
41
1
10
0.410460359423951
20
-11.1079756222918
30
0
41
1
10
0.411718151073131
20
-11.1154260796129
30
0
41
1
10
0.410665704232173
20
-11.1252907388565
30
0
41
1
10
0.409142432182591
20
-11.1285670491561
30
0
41
1
10
0.403660684510641
20
-11.1322193505593
30
0
41
1
10
0.39958209753766
20
-11.1325928358937
30
0
41
1
10
0.390041844068889
20
-11.1303972088145
30
0
41
1
10
0.384671726153471
20
-11.12812744597
30
0
41
1
10
0.371096742201047
20
-11.1206555724069
30
0
41
1
10
0.362374426103088
20
-11.1146056412353
30
0
41
1
10
0.351161946283071
20
-11.1058147907816
30
0
41
1
10
0.34871742353738
20
-11.103839332372
30
0
41
1
10
0.346265877365255
20
-11.1018050043141
30
0
0
SPLINE
5
31E
100
AcDbEntity
8
1
62
256
6
ByLayer
370
18
48
1
60
0
100
AcDbSpline
70
4
71
3
72
10
73
6
40
0
40
0
40
0
40
0
40
0.5
40
0.5
40
1
40
1
40
1
40
1
41
1
10
6.12695387450438
20
-4.17885060799446
30
0
41
1
10
6.1495251684444
20
-1.8351827462203
30
0
41
1
10
6.16158158310134
20
0.734939267979783
30
0
41
1
10
6.16154324054176
20
5.48807512288981
30
0
41
1
10
6.14952670199628
20
7.67878321166927
30
0
41
1
10
6.12695387450438
20
9.33312195834378
30
0
0
SPLINE
5
31F
100
AcDbEntity
8
1
62
256
6
ByLayer
370
18
48
1
60
0
100
AcDbSpline
70
4
71
3
72
8
73
4
40
0
40
0
40
0
40
0
40
1
40
1
40
1
40
1
41
1
10
0.346265877365283
20
-8.23677419397316
30
0
41
1
10
0.230775716236821
20
-8.13796096661621
30
0
41
1
10
0.115351215931071
20
-8.03904531451656
30
0
41
1
10
0
20
-7.94001592678256
30
0
0
SPLINE
5
320
100
AcDbEntity
8
1
62
256
6
ByLayer
370
18
48
1
60
0
100
AcDbSpline
70
4
71
3
72
8
73
4
40
0
40
0
40
0
40
0
40
1
40
1
40
1
40
1
41
1
10
6.73978942899956
20
12.5490359709138
30
0
41
1
10
6.88835370210916
20
12.7548040157955
30
0
41
1
10
7.05251122124972
20
12.9706526294789
30
0
41
1
10
7.22446699745905
20
13.1888167957983
30
0
0
SPLINE
5
321
100
AcDbEntity
8
1
62
256
6
ByLayer
370
18
48
1
60
0
100
AcDbSpline
70
4
71
3
72
8
73
4
40
0
40
0
40
0
40
0
40
1
40
1
40
1
40
1
41
1
10
0.346265877365255
20
11.9647342870706
30
0
41
1
10
0.2302775415329
20
11.826454009731
30
0
41
1
10
0.114838291584874
20
11.6875563471868
30
0
41
1
10
0
20
11.5480021180099
30
0
0
SPLINE
5
322
100
AcDbEntity
8
1
62
256
6
ByLayer
370
18
48
1
60
0
100
AcDbSpline
70
4
71
3
72
20
73
16
40
0
40
0
40
0
40
0
40
0.353208827241179
40
0.353208827241179
40
0.501260849719145
40
0.501260849719145
40
0.652000542139395
40
0.652000542139395
40
0.732433063749092
40
0.732433063749092
40
0.813569072455397
40
0.813569072455397
40
0.886953367887478
40
0.886953367887478
40
1
40
1
40
1
40
1
41
1
10
0.346265877365255
20
10.2376995361025
30
0
41
1
10
0.367024394813001
20
10.2710125101625
30
0
41
1
10
0.385125926464383
20
10.3050003885362
30
0
41
1
10
0.402490572695484
20
10.3489824587486
30
0
41
1
10
0.406644118009922
20
10.3617025373474
30
0
41
1
10
0.411488599477963
20
10.3847639906631
30
0
41
1
10
0.412177663029439
20
10.3954310328708
30
0
41
1
10
0.408445488673806
20
10.4069467225303
30
0
41
1
10
0.406175720657586
20
10.4101051689533
30
0
41
1
10
0.399557977012137
20
10.413679442094
30
0
41
1
10
0.395081463021853
20
10.4140899161444
30
0
41
1
10
0.385114609086685
20
10.4120793834186
30
0
41
1
10
0.379655484006946
20
10.4099187424723
30
0
41
1
10
0.365215379560397
20
10.40225185236
30
0
41
1
10
0.355659448274849
20
10.3954850036987
30
0
41
1
10
0.346265877365283
20
10.3878069201368
30
0
0
SPLINE
5
323
100
AcDbEntity
8
SK1
62
256
6
ByLayer
370
18
48
1
60
0
100
AcDbSpline
70
4
71
3
72
8
73
4
40
0
40
0
40
0
40
0
40
1
40
1
40
1
40
1
41
1
10
-0.238765877365267
20
-10.1274974017296
30
0
41
1
10
-0.159789338391789
20
-10.2469475923676
30
0
41
1
10
-0.0801862240620892
20
-10.3658484917975
30
0
41
1
10
0
20
-10.4842192326163
30
0
0
SPLINE
5
324
100
AcDbEntity
8
SK1
62
256
6
ByLayer
370
18
48
1
60
0
100
AcDbSpline
70
4
71
3
72
8
73
4
40
0
40
0
40
0
40
0
40
1
40
1
40
1
40
1
41
1
10
-1.137E-13
20
-10.1047688205899
30
0
41
1
10
-0.0795892207059126
20
-10.0397104909339
30
0
41
1
10
-0.159177858211592
20
-9.97465120998778
30
0
41
1
10
-0.238765877365267
20
-9.90959092048166
30
0
0
SPLINE
5
325
100
AcDbEntity
8
SK1
62
256
6
ByLayer
370
18
48
1
60
0
100
AcDbSpline
70
4
71
3
72
12
73
8
40
0
40
0
40
0
40
0
40
0.334159016265323
40
0.334159016265323
40
0.785142639537227
40
0.785142639537227
40
1
40
1
40
1
40
1
41
1
10
-0.298765877365298
20
-9.9939514465682
30
0
41
1
10
-0.29876587736527
20
-10.0046742975357
30
0
41
1
10
-0.295057916091821
20
-10.0185740298973
30
0
41
1
10
-0.282130682144668
20
-10.05271997426
30
0
41
1
10
-0.271156331256407
20
-10.074343234747
30
0
41
1
10
-0.252315399761443
20
-10.106434498115
30
0
41
1
10
-0.245726673726779
20
-10.1169693580449
30
0
41
1
10
-0.238765877365267
20
-10.1274974017296
30
0
0
SPLINE
5
326
100
AcDbEntity
8
SK1
62
256
6
ByLayer
370
18
48
1
60
0
100
AcDbSpline
70
4
71
3
72
16
73
12
40
0
40
0
40
0
40
0
40
0.228549310179964
40
0.228549310179964
40
0.462777162604809
40
0.462777162604809
40
0.664452649220864
40
0.664452649220864
40
0.844763102553302
40
0.844763102553302
40
1
40
1
40
1
40
1
41
1
10
-0.238765877365267
20
-9.90959092048166
30
0
41
1
10
-0.246008246130742
20
-9.90367054938056
30
0
41
1
10
-0.253321397934627
20
-9.89835531107175
30
0
41
1
10
-0.267244857910583
20
-9.89010267447617
30
0
41
1
10
-0.274027522908966
20
-9.8871494368497
30
0
41
1
10
-0.284502863770939
20
-9.88518313170719
30
0
41
1
10
-0.288620246190476
20
-9.88567189364898
30
0
41
1
10
-0.294323386407029
20
-9.88904418677446
30
0
41
1
10
-0.296214446551943
20
-9.8916848989353
30
0
41
1
10
-0.298326684128796
20
-9.89789820701846
30
0
41
1
10
-0.29876587736527
20
-9.90132602671501
30
0
41
1
10
-0.29876587736527
20
-9.90509617908728
30
0
0
SPLINE
5
327
100
AcDbEntity
8
SK1
62
256
6
ByLayer
370
18
48
1
60
0
100
AcDbSpline
70
4
71
3
72
8
73
4
40
0
40
0
40
0
40
0
40
1
40
1
40
1
40
1
41
1
10
0
20
-7.1641540266497
30
0
41
1
10
-0.0821982891991127
20
-6.96173939342538
30
0
41
1
10
-0.161864666216957
20
-6.75792418630598
30
0
41
1
10
-0.238765877365296
20
-6.55275263116677
30
0
0
SPLINE
5
328
100
AcDbEntity
8
SK1
62
256
6
ByLayer
370
18
48
1
60
0
100
AcDbSpline
70
4
71
3
72
10
73
6
40
0
40
0
40
0
40
0
40
0.530419996776523
40
0.530419996776523
40
1
40
1
40
1
40
1
41
1
10
-0.29876587736527
20
6.28267507326142
30
0
41
1
10
-0.29876587736527
20
6.32700950789096
30
0
41
1
10
-0.29020998218445
20
6.37573892309631
30
0
41
1
10
-0.268219532290971
20
6.46660789749895
30
0
41
1
10
-0.25481659894939
20
6.50992948886065
30
0
41
1
10
-0.238765877365267
20
6.55275263116677
30
0
0
SPLINE
5
329
100
AcDbEntity
8
SK1
62
256
6
ByLayer
370
18
48
1
60
0
100
AcDbSpline
70
4
71
3
72
20
73
16
40
0
40
0
40
0
40
0
40
0.137921400070282
40
0.137921400070282
40
0.235836963560455
40
0.235836963560455
40
0.334552114107333
40
0.334552114107333
40
0.424407727099833
40
0.424407727099833
40
0.578099622764308
40
0.578099622764308
40
0.873815550805934
40
0.873815550805934
40
1
40
1
40
1
40
1
41
1
10
-0.238765877365267
20
5.99605109952111
30
0
41
1
10
-0.243677414243194
20
5.99118902746351
30
0
41
1
10
-0.248892622815816
20
5.98681268459779
30
0
41
1
10
-0.257906474560826
20
5.98141021194542
30
0
41
1
10
-0.261754067843839
20
5.97976375138758
30
0
41
1
10
-0.269058185841516
20
5.9783098270895
30
0
41
1
10
-0.272598628226689
20
5.97851856163167
30
0
41
1
10
-0.27850492948312
20
5.98060936605074
30
0
41
1
10
-0.281020959805176
20
5.98234184140836
30
0
41
1
10
-0.286836328686718
20
5.9882834782829
30
0
41
1
10
-0.289574712930801
20
5.99342361840961
30
0
41
1
10
-0.295631057684289
20
6.00986238258204
30
0
41
1
10
-0.297443395295431
20
6.02275721056145
30
0
41
1
10
-0.298611388991873
20
6.04167041093768
30
0
41
1
10
-0.29876587736527
20
6.04747194175164
30
0
41
1
10
-0.29876587736527
20
6.05334533602297
30
0
0
SPLINE
5
32A
100
AcDbEntity
8
SK1
62
256
6
ByLayer
370
18
48
1
60
0
100
AcDbSpline
70
4
71
3
72
8
73
4
40
0
40
0
40
0
40
0
40
1
40
1
40
1
40
1
41
1
10
0
20
6.2309792904134
30
0
41
1
10
-0.0797852962249692
20
6.15293718980229
30
0
41
1
10
-0.159381307385502
20
6.07463617565884
30
0
41
1
10
-0.238765877365267
20
5.99605109952111
30
0
0
SPLINE
5
32B
100
AcDbEntity
8
SK1
62
256
6
ByLayer
370
18
48
1
60
0
100
AcDbSpline
70
4
71
3
72
10
73
6
40
0
40
0
40
0
40
0
40
0.819455868218799
40
0.819455868218799
40
1
40
1
40
1
40
1
41
1
10
-0.238765877365267
20
-6.55275263116677
30
0
41
1
10
-0.266587606639973
20
-6.47852457445978
30
0
41
1
10
-0.287582546423039
20
-6.40182222649028
30
0
41
1
10
-0.29763016643679
20
-6.31387340961508
30
0
41
1
10
-0.29876587736527
20
-6.29797221549207
30
0
41
1
10
-0.29876587736527
20
-6.28267507326142
30
0
0
SPLINE
5
32C
100
AcDbEntity
8
SK1
62
256
6
ByLayer
370
18
48
1
60
0
100
AcDbSpline
70
4
71
3
72
8
73
4
40
0
40
0
40
0
40
0
40
1
40
1
40
1
40
1
41
1
10
-0.238765877365267
20
-5.99605109952111
30
0
41
1
10
-0.159381307385502
20
-6.07463617565884
30
0
41
1
10
-0.0797852962249692
20
-6.15293718980229
30
0
41
1
10
0
20
-6.2309792904134
30
0
0
SPLINE
5
32D
100
AcDbEntity
8
SK1
62
256
6
ByLayer
370
18
48
1
60
0
100
AcDbSpline
70
4
71
3
72
20
73
16
40
0
40
0
40
0
40
0
40
0.371557089871401
40
0.371557089871401
40
0.54796745611351
40
0.54796745611351
40
0.651761826966437
40
0.651761826966437
40
0.756978995077812
40
0.756978995077812
40
0.847809177992069
40
0.847809177992069
40
0.983214186629639
40
0.983214186629639
40
1
40
1
40
1
40
1
41
1
10
-0.29876587736527
20
-6.05334533602297
30
0
41
1
10
-0.298765877365298
20
-6.03618474628615
30
0
41
1
10
-0.297586840943779
20
-6.01928195538794
30
0
41
1
10
-0.291587129137326
20
-5.99799381625228
30
0
41
1
10
-0.288918731985348
20
-5.99158924089926
30
0
41
1
10
-0.282851335326825
20
-5.98388507734103
30
0
41
1
10
-0.2801396360382
20
-5.9815454505343
30
0
41
1
10
-0.273836631334916
20
-5.97871974620087
30
0
41
1
10
-0.270131204618537
20
-5.97825755441345
30
0
41
1
10
-0.26289799927315
20
-5.97942600754415
30
0
41
1
10
-0.259337776708946
20
-5.98077647349039
30
0
41
1
10
-0.250654077105821
20
-5.98553157239985
30
0
41
1
10
-0.24547132300691
20
-5.98964617933623
30
0
41
1
10
-0.239978694875276
20
-5.99486240648923
30
0
41
1
10
-0.239370582162792
20
-5.99545248474796
30
0
41
1
10
-0.238765877352563
20
-5.99605109948619
30
0
0
SPLINE
5
32E
100
AcDbEntity
8
SK1
62
256
6
ByLayer
370
18
48
1
60
0
100
AcDbSpline
70
4
71
3
72
8
73
4
40
0
40
0
40
0
40
0
40
1
40
1
40
1
40
1
41
1
10
-0.238765877365296
20
6.55275263116677
30
0
41
1
10
-0.161864666216957
20
6.75792418630598
30
0
41
1
10
-0.0821982891991127
20
6.96173939342538
30
0
41
1
10
0
20
7.1641540266497
30
0
0
SPLINE
5
32F
100
AcDbEntity
8
SK1
62
256
6
ByLayer
370
18
48
1
60
0
100
AcDbSpline
70
4
71
3
72
8
73
4
40
0
40
0
40
0
40
0
40
1
40
1
40
1
40
1
41
1
10
6.1391E-12
20
-3.38841451384471
30
0
41
1
10
-0.0820185112520164
20
-3.25835426295225
30
0
41
1
10
-0.16179934083101
20
-3.12635532268042
30
0
41
1
10
-0.238765877365324
20
-2.99224124144324
30
0
0
SPLINE
5
330
100
AcDbEntity
8
SK1
62
256
6
ByLayer
370
18
48
1
60
0
100
AcDbSpline
70
4
71
3
72
24
73
20
40
0
40
0
40
0
40
0
40
0.479739039551829
40
0.479739039551829
40
0.723737062054127
40
0.723737062054127
40
0.764376308822537
40
0.764376308822537
40
0.805646615986497
40
0.805646615986497
40
0.834501279787415
40
0.834501279787415
40
0.863334099815487
40
0.863334099815487
40
0.904654852561973
40
0.904654852561973
40
0.982024721761678
40
0.982024721761678
40
1
40
1
40
1
40
1
41
1
10
-0.29876587736527
20
3.14701068272913
30
0
41
1
10
-0.29876587736527
20
3.10821797927608
30
0
41
1
10
-0.29769332659879
20
3.06937700377377
30
0
41
1
10
-0.290273440450051
20
3.01356780666677
30
0
41
1
10
-0.287129412531044
20
2.99425411358236
30
0
41
1
10
-0.278263063775142
20
2.97683901158274
30
0
41
1
10
-0.276801392134587
20
2.97445264062415
30
0
41
1
10
-0.273410374353887
20
2.97037971092668
30
0
41
1
10
-0.27142485806084
20
2.96866530566342
30
0
41
1
10
-0.267645721871503
20
2.96702024202355
30
0
41
1
10
-0.265935523645538
20
2.96670953496111
30
0
41
1
10
-0.262474891376485
20
2.96696639244001
30
0
41
1
10
-0.260686982208199
20
2.96753276948952
30
0
41
1
10
-0.256525856462758
20
2.96968656220989
30
0
41
1
10
-0.254161631987387
20
2.97161482624802
30
0
41
1
10
-0.247908877898794
20
2.97793518037429
30
0
41
1
10
-0.244301250766569
20
2.98308443845151
30
0
41
1
10
-0.24025416758758
20
2.98968703294486
30
0
41
1
10
-0.239502827138551
20
2.99095710750392
30
0
41
1
10
-0.238765877367683
20
2.99224124143902
30
0
0
SPLINE
5
331
100
AcDbEntity
8
SK1
62
256
6
ByLayer
370
18
48
1
60
0
100
AcDbSpline
70
4
71
3
72
24
73
20
40
0
40
0
40
0
40
0
40
0.0832000397086008
40
0.0832000397086008
40
0.122087539725297
40
0.122087539725297
40
0.1552386845278
40
0.1552386845278
40
0.188798997941688
40
0.188798997941688
40
0.217237575740967
40
0.217237575740967
40
0.268128981657875
40
0.268128981657875
40
0.403293075744324
40
0.403293075744324
40
0.918571691058269
40
0.918571691058269
40
1
40
1
40
1
40
1
41
1
10
-0.238765877365267
20
-2.99224124144321
30
0
41
1
10
-0.242146788682021
20
-2.98635000824751
30
0
41
1
10
-0.245848049758962
20
-2.98064306655441
30
0
41
1
10
-0.252027155238437
20
-2.97365129659056
30
0
41
1
10
-0.254141759385078
20
-2.97161274048884
30
0
41
1
10
-0.258256997942595
20
-2.96867919350304
30
0
41
1
10
-0.260269750215002
20
-2.96764656465935
30
0
41
1
10
-0.26427534757741
20
-2.96665412864262
30
0
41
1
10
-0.266321163784312
20
-2.96671271228836
30
0
41
1
10
-0.269760042284929
20
-2.96781969976833
30
0
41
1
10
-0.271246670612584
20
-2.96871400675425
30
0
41
1
10
-0.274971164976137
20
-2.97186653350602
30
0
41
1
10
-0.276968524148287
20
-2.97466198029585
30
0
41
1
10
-0.283145482671983
20
-2.9857430719323
30
0
41
1
10
-0.28594001102735
20
-2.9956772992598
30
0
41
1
10
-0.296640081252008
20
-3.04364744914943
30
0
41
1
10
-0.298070396750262
20
-3.08575482779807
30
0
41
1
10
-0.298723871153499
20
-3.13381259169323
30
0
41
1
10
-0.29876587736527
20
-3.14040695431841
30
0
41
1
10
-0.29876587736527
20
-3.14701068272913
30
0
0
SPLINE
5
332
100
AcDbEntity
8
SK1
62
256
6
ByLayer
370
18
48
1
60
0
100
AcDbSpline
70
4
71
3
72
10
73
6
40
0
40
0
40
0
40
0
40
0.518916447624164
40
0.518916447624164
40
1
40
1
40
1
40
1
41
1
10
-0.238765877365267
20
4.10032781449698
30
0
41
1
10
-0.257531566578876
20
4.01701318090893
30
0
41
1
10
-0.271987947971837
20
3.93308169944626
30
0
41
1
10
-0.292130917382622
20
3.77176695180694
30
0
41
1
10
-0.29876587736527
20
3.69371940226705
30
0
41
1
10
-0.29876587736527
20
3.61750184466014
30
0
0
SPLINE
5
333
100
AcDbEntity
8
SK1
62
256
6
ByLayer
370
18
48
1
60
0
100
AcDbSpline
70
4
71
3
72
8
73
4
40
0
40
0
40
0
40
0
40
1
40
1
40
1
40
1
41
1
10
0
20
5.05409268984661
30
0
41
1
10
-0.0868041138065507
20
4.73869872463547
30
0
41
1
10
-0.166625773327553
20
4.42061055319698
30
0
41
1
10
-0.238765877365495
20
4.10032781449706
30
0
0
SPLINE
5
334
100
AcDbEntity
8
SK1
62
256
6
ByLayer
370
18
48
1
60
0
100
AcDbSpline
70
4
71
3
72
8
73
4
40
0
40
0
40
0
40
0
40
1
40
1
40
1
40
1
41
1
10
-0.238765877367655
20
2.99224124143915
30
0
41
1
10
-0.161799340834676
20
3.12635532267417
30
0
41
1
10
-0.0820185112570755
20
3.2583542629439
30
0
41
1
10
-4.263E-13
20
3.38841451383432
30
0
0
SPLINE
5
335
100
AcDbEntity
8
SK1
62
256
6
ByLayer
370
18
48
1
60
0
100
AcDbSpline
70
4
71
3
72
8
73
4
40
0
40
0
40
0
40
0
40
1
40
1
40
1
40
1
41
1
10
-0.238765877365495
20
-4.10032781449706
30
0
41
1
10
-0.166625773327553
20
-4.42061055319698
30
0
41
1
10
-0.0868041138065507
20
-4.73869872463547
30
0
41
1
10
0
20
-5.05409268984661
30
0
0
SPLINE
5
336
100
AcDbEntity
8
SK1
62
256
6
ByLayer
370
18
48
1
60
0
100
AcDbSpline
70
4
71
3
72
10
73
6
40
0
40
0
40
0
40
0
40
0.481083552375838
40
0.481083552375838
40
1
40
1
40
1
40
1
41
1
10
-0.29876587736527
20
-3.61750184466014
30
0
41
1
10
-0.29876587736527
20
-3.69371940226704
30
0
41
1
10
-0.292130917382622
20
-3.77176695180694
30
0
41
1
10
-0.271987947971837
20
-3.93308169944626
30
0
41
1
10
-0.257531566578876
20
-4.01701318090893
30
0
41
1
10
-0.238765877365267
20
-4.10032781449698
30
0
0
SPLINE
5
337
100
AcDbEntity
8
SK1
62
256
6
ByLayer
370
18
48
1
60
0
100
AcDbSpline
70
4
71
3
72
14
73
10
40
0
40
0
40
0
40
0
40
0.24205030254307
40
0.24205030254307
40
0.536389825503336
40
0.536389825503336
40
0.949282256315957
40
0.949282256315957
40
1
40
1
40
1
40
1
41
1
10
-0.29876587736527
20
11.4961352182612
30
0
41
1
10
-0.29876587736527
20
11.498666489242
30
0
41
1
10
-0.296910420715108
20
11.5030232937529
30
0
41
1
10
-0.28995594190755
20
11.5149862169268
30
0
41
1
10
-0.284176055445983
20
11.5232580950904
30
0
41
1
10
-0.26788309470976
20
11.5447002958532
30
0
41
1
10
-0.256130001342797
20
11.5588906375721
30
0
41
1
10
-0.241949322257568
20
11.5751837517705
30
0
41
1
10
-0.240365079560121
20
11.576993407165
30
0
41
1
10
-0.238765877365267
20
11.5788099647078
30
0
0
SPLINE
5
338
100
AcDbEntity
8
SK1
62
256
6
ByLayer
370
18
48
1
60
0
100
AcDbSpline
70
4
71
3
72
8
73
4
40
0
40
0
40
0
40
0
40
1
40
1
40
1
40
1
41
1
10
0
20
11.8272041991149
30
0
41
1
10
-0.0649624797159163
20
11.7610247626452
30
0
41
1
10
-0.129914736600142
20
11.6948355053591
30
0
41
1
10
-0.194855715851418
20
11.6286364685307
30
0
0
SPLINE
5
339
100
AcDbEntity
8
SK1
62
256
6
ByLayer
370
18
48
1
60
0
100
AcDbSpline
70
4
71
3
72
8
73
4
40
0
40
0
40
0
40
0
40
1
40
1
40
1
40
1
41
1
10
0
20
11.7159123809271
30
0
41
1
10
-0.0796319116662971
20
11.64505489041
30
0
41
1
10
-0.159221330323163
20
11.5741336759854
30
0
41
1
10
-0.238765877365267
20
11.5031454669806
30
0
0
SPLINE
5
33A
100
AcDbEntity
8
SK1
62
256
6
ByLayer
370
18
48
1
60
0
100
AcDbSpline
70
4
71
3
72
8
73
4
40
0
40
0
40
0
40
0
40
1
40
1
40
1
40
1
41
1
10
-0.238765877365267
20
11.5788099647078
30
0
41
1
10
-0.224136616329929
20
11.5954275597587
30
0
41
1
10
-0.209499867507873
20
11.612036370151
30
0
41
1
10
-0.194855715851418
20
11.6286364685307
30
0
0
SPLINE
5
33B
100
AcDbEntity
8
SK1
62
256
6
ByLayer
370
18
48
1
60
0
100
AcDbSpline
70
4
71
3
72
14
73
10
40
0
40
0
40
0
40
0
40
0.322986443618753
40
0.322986443618753
40
0.570965853381241
40
0.570965853381241
40
0.821832336284767
40
0.821832336284767
40
1
40
1
40
1
40
1
41
1
10
-0.238765877365267
20
11.5031454669806
30
0
41
1
10
-0.248738130945043
20
11.4942458950088
30
0
41
1
10
-0.258530665092337
20
11.4859559893804
30
0
41
1
10
-0.273942062548628
20
11.4740242858109
30
0
41
1
10
-0.28013509697189
20
11.4696579187186
30
0
41
1
10
-0.290168207869527
20
11.4637651762911
30
0
41
1
10
-0.294102839154249
20
11.4622189878207
30
0
41
1
10
-0.297964519279333
20
11.4625513755992
30
0
41
1
10
-0.29876587736527
20
11.4635650918897
30
0
41
1
10
-0.29876587736527
20
11.4653334394072
30
0
0
SPLINE
5
33C
100
AcDbEntity
8
SK1
62
256
6
ByLayer
370
18
48
1
60
0
100
AcDbSpline
70
4
71
3
72
12
73
8
40
0
40
0
40
0
40
0
40
0.484332075892093
40
0.484332075892093
40
0.759599113932283
40
0.759599113932283
40
1
40
1
40
1
40
1
41
1
10
-0.238765877365267
20
11.2557967883171
30
0
41
1
10
-0.253947320922464
20
11.2370836890777
30
0
41
1
10
-0.267914047667574
20
11.2184369514559
30
0
41
1
10
-0.284918456751626
20
11.1923133728769
30
0
41
1
10
-0.290177835347833
20
11.1832967108164
30
0
41
1
10
-0.296877828596564
20
11.1689238453736
30
0
41
1
10
-0.29876587736527
20
11.1631048086578
30
0
41
1
10
-0.29876587736527
20
11.1590966693763
30
0
0
SPLINE
5
33D
100
AcDbEntity
8
SK1
62
256
6
ByLayer
370
18
48
1
60
0
100
AcDbSpline
70
4
71
3
72
8
73
4
40
0
40
0
40
0
40
0
40
1
40
1
40
1
40
1
41
1
10
-0.238765877365267
20
11.1388165661098
30
0
41
1
10
-0.159200675789634
20
11.2069906389168
30
0
41
1
10
-0.0796116290942734
20
11.2751276199598
30
0
41
1
10
0
20
11.3432293866236
30
0
0
SPLINE
5
33E
100
AcDbEntity
8
SK1
62
256
6
ByLayer
370
18
48
1
60
0
100
AcDbSpline
70
4
71
3
72
8
73
4
40
0
40
0
40
0
40
0
40
1
40
1
40
1
40
1
41
1
10
0
20
11.5480021180099
30
0
41
1
10
-0.0798848200118982
20
11.4509241806265
30
0
41
1
10
-0.159479868968901
20
11.3535270823981
30
0
41
1
10
-0.238765877365267
20
11.2557967883171
30
0
0
SPLINE
5
33F
100
AcDbEntity
8
SK1
62
256
6
ByLayer
370
18
48
1
60
0
100
AcDbSpline
70
4
71
3
72
16
73
12
40
0
40
0
40
0
40
0
40
0.210039912463107
40
0.210039912463107
40
0.422600373301738
40
0.422600373301738
40
0.625709443917088
40
0.625709443917088
40
0.912004007402002
40
0.912004007402002
40
1
40
1
40
1
40
1
41
1
10
-0.29876587736527
20
11.1114606311163
30
0
41
1
10
-0.29876587736527
20
11.1084130121703
30
0
41
1
10
-0.297746293284973
20
11.1062733994642
30
0
41
1
10
-0.293484377719807
20
11.1044554474082
30
0
41
1
10
-0.290149978961608
20
11.1047962449267
30
0
41
1
10
-0.281919625731803
20
11.1078100000203
30
0
41
1
10
-0.277015883809611
20
11.1103984677619
30
0
41
1
10
-0.264189867832783
20
11.1184878603832
30
0
41
1
10
-0.255663847027563
20
11.1248436274716
30
0
41
1
10
-0.244257279562163
20
11.1341627417141
30
0
41
1
10
-0.241520089959209
20
11.136456666478
30
0
41
1
10
-0.238765877365267
20
11.1388165661098
30
0
0
SPLINE
5
340
100
AcDbEntity
8
SK1
62
256
6
ByLayer
370
18
48
1
60
0
100
AcDbSpline
70
4
71
3
72
8
73
4
40
0
40
0
40
0
40
0
40
1
40
1
40
1
40
1
41
1
10
0
20
-9.6701914623011
30
0
41
1
10
-0.080478593082205
20
-9.53538232680586
30
0
41
1
10
-0.160090205844057
20
-9.3998768746837
30
0
41
1
10
-0.238765877365267
20
-9.26365612288765
30
0
0
SPLINE
5
341
100
AcDbEntity
8
SK1
62
256
6
ByLayer
370
18
48
1
60
0
100
AcDbSpline
70
4
71
3
72
18
73
14
40
0
40
0
40
0
40
0
40
0.231364130267331
40
0.231364130267331
40
0.423018276302015
40
0.423018276302015
40
0.58448612678702
40
0.58448612678702
40
0.745846932488442
40
0.745846932488442
40
0.957614777614412
40
0.957614777614412
40
1
40
1
40
1
40
1
41
1
10
-0.298765877365298
20
-8.98591212938508
30
0
41
1
10
-0.298765877365298
20
-8.97907505018273
30
0
41
1
10
-0.297941575861017
20
-8.97277039413969
30
0
41
1
10
-0.294256705909334
20
-8.96351033998559
30
0
41
1
10
-0.291709473078186
20
-8.96010446225606
30
0
41
1
10
-0.285251518735805
20
-8.95636911104307
30
0
41
1
10
-0.281536242470622
20
-8.95562459102784
30
0
41
1
10
-0.273099041772014
20
-8.95635498020697
30
0
41
1
10
-0.268282440295934
20
-8.95783135453568
30
0
41
1
10
-0.256765136198936
20
-8.96321412954866
30
0
41
1
10
-0.249776689926478
20
-8.96777615161204
30
0
41
1
10
-0.241536840072371
20
-8.97416001024369
30
0
41
1
10
-0.240149961705953
20
-8.97526857193252
30
0
41
1
10
-0.238765877365267
20
-8.97640635612147
30
0
0
SPLINE
5
342
100
AcDbEntity
8
SK1
62
256
6
ByLayer
370
18
48
1
60
0
100
AcDbSpline
70
4
71
3
72
8
73
4
40
0
40
0
40
0
40
0
40
1
40
1
40
1
40
1
41
1
10
-0.238765877365267
20
-8.97640635612147
30
0
41
1
10
-0.159181106889804
20
-9.04182888195162
30
0
41
1
10
-0.0795923986217701
20
-9.10724502123347
30
0
41
1
10
0
20
-9.1726551727164
30
0
0
SPLINE
5
343
100
AcDbEntity
8
SK1
62
256
6
ByLayer
370
18
48
1
60
0
100
AcDbSpline
70
4
71
3
72
10
73
6
40
0
40
0
40
0
40
0
40
0.596087017044984
40
0.596087017044984
40
1
40
1
40
1
40
1
41
1
10
-0.238765877365267
20
-9.26365612288765
30
0
41
1
10
-0.258177986783465
20
-9.23004557863979
30
0
41
1
10
-0.274733722240171
20
-9.19569141208963
30
0
41
1
10
-0.293406206355655
20
-9.14199387211549
30
0
41
1
10
-0.29876587736527
20
-9.1205304502254
30
0
41
1
10
-0.29876587736527
20
-9.10320707422949
30
0
0
SPLINE
5
344
100
AcDbEntity
8
SK1
62
256
6
ByLayer
370
18
48
1
60
0
100
AcDbSpline
70
4
71
3
72
12
73
8
40
0
40
0
40
0
40
0
40
0.52543165796393
40
0.52543165796393
40
0.815757207557959
40
0.815757207557959
40
1
40
1
40
1
40
1
41
1
10
-0.238765877365267
20
-10.7792431311741
30
0
41
1
10
-0.255379109730001
20
-10.7567475464128
30
0
41
1
10
-0.27034588896646
20
-10.7340820414756
30
0
41
1
10
-0.287573524473885
20
-10.7022379463445
30
0
41
1
10
-0.292629687149542
20
-10.6913138956421
30
0
41
1
10
-0.297621894307184
20
-10.6759163113556
30
0
41
1
10
-0.29876587736527
20
-10.6704607773984
30
0
41
1
10
-0.29876587736527
20
-10.6660560656891
30
0
0
SPLINE
5
345
100
AcDbEntity
8
SK1
62
256
6
ByLayer
370
18
48
1
60
0
100
AcDbSpline
70
4
71
3
72
16
73
12
40
0
40
0
40
0
40
0
40
0.193433579471105
40
0.193433579471105
40
0.391767673980788
40
0.391767673980788
40
0.569013280049542
40
0.569013280049542
40
0.72883115361672
40
0.72883115361672
40
1
40
1
40
1
40
1
41
1
10
-0.238765877365267
20
8.97640635612146
30
0
41
1
10
-0.245038393437568
20
8.97125004490378
30
0
41
1
10
-0.251435042692265
20
8.96664634074146
30
0
41
1
10
-0.263867371760171
20
8.95954936784649
30
0
41
1
10
-0.270054134436663
20
8.95705473683877
30
0
41
1
10
-0.280192124794951
20
8.95547795116543
30
0
41
1
10
-0.284433212958589
20
8.95605705346573
30
0
41
1
10
-0.290753716088574
20
8.95942545428665
30
0
41
1
10
-0.293092798719158
20
8.96200588568568
30
0
41
1
10
-0.297634717199315
20
8.97062575318351
30
0
41
1
10
-0.29876587736527
20
8.97792240770085
30
0
41
1
10
-0.29876587736527
20
8.98591212938508
30
0
0
SPLINE
5
346
100
AcDbEntity
8
SK1
62
256
6
ByLayer
370
18
48
1
60
0
100
AcDbSpline
70
4
71
3
72
12
73
8
40
0
40
0
40
0
40
0
40
0.297414859166425
40
0.297414859166425
40
0.799854936467184
40
0.799854936467184
40
1
40
1
40
1
40
1
41
1
10
-0.29876587736527
20
9.10320707422949
30
0
41
1
10
-0.29876587736527
20
9.11599358348202
30
0
41
1
10
-0.295784951491669
20
9.13110530495071
30
0
41
1
10
-0.28374599238083
20
9.17283777111275
30
0
41
1
10
-0.271680716458263
20
9.20126910941364
30
0
41
1
10
-0.251545879823823
20
9.24085646295391
30
0
41
1
10
-0.245340818838969
20
9.2522721276418
30
0
41
1
10
-0.238765877365267
20
9.26365612288765
30
0
0
SPLINE
5
347
100
AcDbEntity
8
SK1
62
256
6
ByLayer
370
18
48
1
60
0
100
AcDbSpline
70
4
71
3
72
8
73
4
40
0
40
0
40
0
40
0
40
1
40
1
40
1
40
1
41
1
10
0
20
9.1726551727164
30
0
41
1
10
-0.0795923986217701
20
9.10724502123347
30
0
41
1
10
-0.159181106889804
20
9.04182888195162
30
0
41
1
10
-0.238765877365267
20
8.97640635612147
30
0
0
SPLINE
5
348
100
AcDbEntity
8
SK1
62
256
6
ByLayer
370
18
48
1
60
0
100
AcDbSpline
70
4
71
3
72
8
73
4
40
0
40
0
40
0
40
0
40
1
40
1
40
1
40
1
41
1
10
-0.238765877365267
20
9.26365612288765
30
0
41
1
10
-0.160090205844057
20
9.3998768746837
30
0
41
1
10
-0.080478593082205
20
9.53538232680586
30
0
41
1
10
0
20
9.6701914623011
30
0
0
SPLINE
5
349
100
AcDbEntity
8
SK1
62
256
6
ByLayer
370
18
48
1
60
0
100
AcDbSpline
70
4
71
3
72
8
73
4
40
0
40
0
40
0
40
0
40
1
40
1
40
1
40
1
41
1
10
-0.238765877365267
20
-11.2557967883171
30
0
41
1
10
-0.159479868968901
20
-11.3535270823981
30
0
41
1
10
-0.0798848200118982
20
-11.4509241806265
30
0
41
1
10
0
20
-11.5480021180099
30
0
0
SPLINE
5
34A
100
AcDbEntity
8
SK1
62
256
6
ByLayer
370
18
48
1
60
0
100
AcDbSpline
70
4
71
3
72
12
73
8
40
0
40
0
40
0
40
0
40
0.253957747132074
40
0.253957747132074
40
0.582089054619914
40
0.582089054619914
40
1
40
1
40
1
40
1
41
1
10
-0.298765877365298
20
-11.1590966693763
30
0
41
1
10
-0.29876587736527
20
-11.1633235063876
30
0
41
1
10
-0.296663419366013
20
-11.1695667994603
30
0
41
1
10
-0.288791107664821
20
-11.1859990663606
30
0
41
1
10
-0.282045506154418
20
-11.1970807629067
30
0
41
1
10
-0.264101945293163
20
-11.2234935642837
30
0
41
1
10
-0.251913376698269
20
-11.2395907892735
30
0
41
1
10
-0.238765877365267
20
-11.2557967883171
30
0
0
SPLINE
5
34B
100
AcDbEntity
8
SK1
62
256
6
ByLayer
370
18
48
1
60
0
100
AcDbSpline
70
4
71
3
72
8
73
4
40
0
40
0
40
0
40
0
40
1
40
1
40
1
40
1
41
1
10
0
20
-11.3432293866236
30
0
41
1
10
-0.0796116290942734
20
-11.2751276199598
30
0
41
1
10
-0.159200675789634
20
-11.2069906389168
30
0
41
1
10
-0.238765877365267
20
-11.1388165661098
30
0
0
SPLINE
5
34C
100
AcDbEntity
8
SK1
62
256
6
ByLayer
370
18
48
1
60
0
100
AcDbSpline
70
4
71
3
72
16
73
12
40
0
40
0
40
0
40
0
40
0.292491579582493
40
0.292491579582493
40
0.527631995282122
40
0.527631995282122
40
0.765166109719466
40
0.765166109719466
40
0.97059714519833
40
0.97059714519833
40
1
40
1
40
1
40
1
41
1
10
-0.238765877365267
20
-11.1388165661098
30
0
41
1
10
-0.247837214062542
20
-11.1310439474749
30
0
41
1
10
-0.256829760825184
20
-11.1239037323205
30
0
41
1
10
-0.271558256549156
20
-11.1136371742293
30
0
41
1
10
-0.277718386787626
20
-11.1099214964727
30
0
41
1
10
-0.287948077838706
20
-11.1053063028291
30
0
41
1
10
-0.292121988616742
20
-11.1044002778149
30
0
41
1
10
-0.297140012927798
20
-11.1056941402468
30
0
41
1
10
-0.298428795335383
20
-11.1074954259506
30
0
41
1
10
-0.298746081603156
20
-11.1106138309926
30
0
41
1
10
-0.298765877368936
20
-11.1110280281527
30
0
41
1
10
-0.298765877368936
20
-11.1114606311129
30
0
0
SPLINE
5
34D
100
AcDbEntity
8
SK1
62
256
6
ByLayer
370
18
48
1
60
0
100
AcDbSpline
70
4
71
3
72
8
73
4
40
0
40
0
40
0
40
0
40
1
40
1
40
1
40
1
41
1
10
-0.194855715851474
20
-11.6286364685306
30
0
41
1
10
-0.209499867507901
20
-11.612036370151
30
0
41
1
10
-0.224136616329929
20
-11.5954275597587
30
0
41
1
10
-0.238765877365267
20
-11.5788099647078
30
0
0
SPLINE
5
34E
100
AcDbEntity
8
SK1
62
256
6
ByLayer
370
18
48
1
60
0
100
AcDbSpline
70
4
71
3
72
8
73
4
40
0
40
0
40
0
40
0
40
1
40
1
40
1
40
1
41
1
10
-0.194855715851474
20
-11.6286364685306
30
0
41
1
10
-0.129914460732976
20
-11.6948357865705
30
0
41
1
10
-0.0649623014419944
20
-11.7610249442588
30
0
41
1
10
0
20
-11.8272041991149
30
0
0
SPLINE
5
34F
100
AcDbEntity
8
SK1
62
256
6
ByLayer
370
18
48
1
60
0
100
AcDbSpline
70
4
71
3
72
14
73
10
40
0
40
0
40
0
40
0
40
0.398059746195393
40
0.398059746195393
40
0.69332369379723
40
0.69332369379723
40
0.922806602741038
40
0.922806602741038
40
1
40
1
40
1
40
1
41
1
10
-0.238765877365267
20
-11.5788099647078
30
0
41
1
10
-0.251174659992955
20
-11.564714644084
30
0
41
1
10
-0.262840240377841
20
-11.5508559119363
30
0
41
1
10
-0.279922046802881
20
-11.5290447140746
30
0
41
1
10
-0.286311380066678
20
-11.5203057387915
30
0
41
1
10
-0.294552822892086
20
-11.5073910162738
30
0
41
1
10
-0.297152754621379
20
-11.502528709658
30
0
41
1
10
-0.298577488330949
20
-11.4979555647165
30
0
41
1
10
-0.29876587736527
20
-11.4969534311447
30
0
41
1
10
-0.29876587736527
20
-11.4961352182612
30
0
0
SPLINE
5
350
100
AcDbEntity
8
SK1
62
256
6
ByLayer
370
18
48
1
60
0
100
AcDbSpline
70
4
71
3
72
8
73
4
40
0
40
0
40
0
40
0
40
1
40
1
40
1
40
1
41
1
10
-0.238765877365267
20
-11.5031454669806
30
0
41
1
10
-0.159221330323163
20
-11.5741336759854
30
0
41
1
10
-0.0796319116662971
20
-11.64505489041
30
0
41
1
10
0
20
-11.7159123809271
30
0
0
SPLINE
5
351
100
AcDbEntity
8
SK1
62
256
6
ByLayer
370
18
48
1
60
0
100
AcDbSpline
70
4
71
3
72
14
73
10
40
0
40
0
40
0
40
0
40
0.212950562836663
40
0.212950562836663
40
0.427428050810884
40
0.427428050810884
40
0.640050359310837
40
0.640050359310837
40
1
40
1
40
1
40
1
41
1
10
-0.298765877365298
20
-11.4653334394072
30
0
41
1
10
-0.298765877365298
20
-11.4632300242237
30
0
41
1
10
-0.297616838400671
20
-11.4622038288371
30
0
41
1
10
-0.293036027323183
20
-11.4626507621602
30
0
41
1
10
-0.289531278889285
20
-11.4641459722421
30
0
41
1
10
-0.280923527143187
20
-11.4691883037869
30
0
41
1
10
-0.275751144194516
20
-11.4727574768906
30
0
41
1
10
-0.260733018879335
20
-11.4840987776231
30
0
41
1
10
-0.24984315026856
20
-11.4932597388786
30
0
41
1
10
-0.238765877365267
20
-11.5031454669806
30
0
0
SPLINE
5
352
100
AcDbEntity
8
SK1
62
256
6
ByLayer
370
18
48
1
60
0
100
AcDbSpline
70
4
71
3
72
18
73
14
40
0
40
0
40
0
40
0
40
0.155962719707662
40
0.155962719707662
40
0.316191253865889
40
0.316191253865889
40
0.463249051640795
40
0.463249051640795
40
0.59433326381777
40
0.59433326381777
40
0.817301503146326
40
0.817301503146326
40
1
40
1
40
1
40
1
41
1
10
-0.238765877365267
20
-7.73477536384498
30
0
41
1
10
-0.244000003617089
20
-7.73027033063538
30
0
41
1
10
-0.24939895328933
20
-7.72623582217695
30
0
41
1
10
-0.260148081082662
20
-7.71996293203006
30
0
41
1
10
-0.265631979707933
20
-7.71773050220112
30
0
41
1
10
-0.275094048606803
20
-7.71624772580867
30
0
41
1
10
-0.27927304236556
20
-7.71676691016663
30
0
41
1
10
-0.285796989435369
20
-7.71983448026506
30
0
41
1
10
-0.288379389627295
20
-7.72216561169233
30
0
41
1
10
-0.293940532646417
20
-7.72993371369112
30
0
41
1
10
-0.296088840058417
20
-7.73647927933082
30
0
41
1
10
-0.298344174071161
20
-7.74951880175571
30
0
41
1
10
-0.29876587736527
20
-7.75591705973871
30
0
41
1
10
-0.29876587736527
20
-7.76255777930768
30
0
0
SPLINE
5
353
100
AcDbEntity
8
SK1
62
256
6
ByLayer
370
18
48
1
60
0
100
AcDbSpline
70
4
71
3
72
12
73
8
40
0
40
0
40
0
40
0
40
0.573995963408261
40
0.573995963408261
40
0.883237318344663
40
0.883237318344663
40
1
40
1
40
1
40
1
41
1
10
-0.238765877365267
20
10.1274974017296
30
0
41
1
10
-0.257126354705463
20
10.0997276039264
30
0
41
1
10
-0.273233723682324
20
10.0714721889067
30
0
41
1
10
-0.290502439897068
20
10.0317043742365
30
0
41
1
10
-0.295238975170918
20
10.0181423168519
30
0
41
1
10
-0.298291467288749
20
10.0019764534974
30
0
41
1
10
-0.29876587736527
20
9.99776023823972
30
0
41
1
10
-0.29876587736527
20
9.9939514465682
30
0
0
SPLINE
5
354
100
AcDbEntity
8
SK1
62
256
6
ByLayer
370
18
48
1
60
0
100
AcDbSpline
70
4
71
3
72
8
73
4
40
0
40
0
40
0
40
0
40
1
40
1
40
1
40
1
41
1
10
-0.238765877365267
20
10.7792431311741
30
0
41
1
10
-0.159603446789845
20
10.8864351048867
30
0
41
1
10
-0.0800052910088596
20
10.9931998426727
30
0
41
1
10
0
20
11.0995541765226
30
0
0
SPLINE
5
355
100
AcDbEntity
8
SK1
62
256
6
ByLayer
370
18
48
1
60
0
100
AcDbSpline
70
4
71
3
72
8
73
4
40
0
40
0
40
0
40
0
40
1
40
1
40
1
40
1
41
1
10
0
20
-11.0995541765226
30
0
41
1
10
-0.080005291008888
20
-10.9931998426727
30
0
41
1
10
-0.159603446789845
20
-10.8864351048867
30
0
41
1
10
-0.238765877365267
20
-10.7792431311741
30
0
0
SPLINE
5
356
100
AcDbEntity
8
SK1
62
256
6
ByLayer
370
18
48
1
60
0
100
AcDbSpline
70
4
71
3
72
16
73
12
40
0
40
0
40
0
40
0
40
0.2096782408889
40
0.2096782408889
40
0.422880221604212
40
0.422880221604212
40
0.619995482772675
40
0.619995482772675
40
0.869457005193572
40
0.869457005193572
40
1
40
1
40
1
40
1
41
1
10
-0.298765877365298
20
-10.5995397936377
30
0
41
1
10
-0.298765877365298
20
-10.5955120372414
30
0
41
1
10
-0.29785402330657
20
-10.5922399845028
30
0
41
1
10
-0.293849319830144
20
-10.58807856899
30
0
41
1
10
-0.290643767309604
20
-10.5872022240513
30
0
41
1
10
-0.282622200099581
20
-10.5882078098061
30
0
41
1
10
-0.277855489883962
20
-10.5898910548946
30
0
41
1
10
-0.266055538090001
20
-10.5958109717813
30
0
41
1
10
-0.258592672110865
20
-10.6006630651702
30
0
41
1
10
-0.246975821648618
20
-10.6093199070543
30
0
41
1
10
-0.242879346175925
20
-10.6125653627193
30
0
41
1
10
-0.238765877365267
20
-10.6159838617232
30
0
0
SPLINE
5
357
100
AcDbEntity
8
SK1
62
256
6
ByLayer
370
18
48
1
60
0
100
AcDbSpline
70
4
71
3
72
8
73
4
40
0
40
0
40
0
40
0
40
1
40
1
40
1
40
1
41
1
10
-0.238765877365267
20
-10.6159838617232
30
0
41
1
10
-0.159185900775327
20
-10.6821188157543
30
0
41
1
10
-0.0795971164004925
20
-10.748239640664
30
0
41
1
10
0
20
-10.8143470869749
30
0
0
SPLINE
5
358
100
AcDbEntity
8
SK1
62
256
6
ByLayer
370
18
48
1
60
0
100
AcDbSpline
70
4
71
3
72
8
73
4
40
0
40
0
40
0
40
0
40
1
40
1
40
1
40
1
41
1
10
0
20
10.4842192326163
30
0
41
1
10
-0.0801862240620608
20
10.3658484917975
30
0
41
1
10
-0.159789338391789
20
10.2469475923676
30
0
41
1
10
-0.238765877365267
20
10.1274974017296
30
0
0
SPLINE
5
359
100
AcDbEntity
8
SK1
62
256
6
ByLayer
370
18
48
1
60
0
100
AcDbSpline
70
4
71
3
72
8
73
4
40
0
40
0
40
0
40
0
40
1
40
1
40
1
40
1
41
1
10
-0.238765877365267
20
9.90959092048166
30
0
41
1
10
-0.159177858211592
20
9.9746512099878
30
0
41
1
10
-0.0795892207059126
20
10.0397104909339
30
0
41
1
10
-1.137E-13
20
10.1047688205899
30
0
0
SPLINE
5
35A
100
AcDbEntity
8
SK1
62
256
6
ByLayer
370
18
48
1
60
0
100
AcDbSpline
70
4
71
3
72
16
73
12
40
0
40
0
40
0
40
0
40
0.21465801150329
40
0.21465801150329
40
0.433974712539642
40
0.433974712539642
40
0.628894734527343
40
0.628894734527343
40
0.810218601981051
40
0.810218601981051
40
1
40
1
40
1
40
1
41
1
10
-0.29876587736527
20
9.90509617908728
30
0
41
1
10
-0.29876587736527
20
9.89991843015498
30
0
41
1
10
-0.297928870707324
20
9.89536820681532
30
0
41
1
10
-0.294052756620886
20
9.88857909029605
30
0
41
1
10
-0.290875331874162
20
9.88633662419321
30
0
41
1
10
-0.282770923805742
20
9.8852826702057
30
0
41
1
10
-0.27796878789357
20
9.8861133087654
30
0
41
1
10
-0.267751432123589
20
9.88997157391211
30
0
41
1
10
-0.26229731401645
20
9.89286375870753
30
0
41
1
10
-0.250878967960631
20
9.9001472912572
30
0
41
1
10
-0.244805851873764
20
9.90465346262921
30
0
41
1
10
-0.238765877365267
20
9.90959092048168
30
0
0
SPLINE
5
35B
100
AcDbEntity
8
SK1
62
256
6
ByLayer
370
18
48
1
60
0
100
AcDbSpline
70
4
71
3
72
18
73
14
40
0
40
0
40
0
40
0
40
0.279852181851577
40
0.279852181851577
40
0.45609182131848
40
0.45609182131848
40
0.596962647630669
40
0.596962647630669
40
0.738728013213223
40
0.738728013213223
40
0.869502521555015
40
0.869502521555015
40
1
40
1
40
1
40
1
41
1
10
-0.29876587736527
20
7.76255777930768
30
0
41
1
10
-0.29876587736527
20
7.75245201904451
30
0
41
1
10
-0.297804401213938
20
7.74281601282981
30
0
41
1
10
-0.293524517674939
20
7.72973859458529
30
0
41
1
10
-0.29115326171754
20
7.725258901564
30
0
41
1
10
-0.285267993870264
20
7.71944942576489
30
0
41
1
10
-0.282003561316145
20
7.71764254724292
30
0
41
1
10
-0.27442588039159
20
7.71627318222055
30
0
41
1
10
-0.270002541715684
20
7.71672439308087
30
0
41
1
10
-0.261125761033867
20
7.71959297042625
30
0
41
1
10
-0.256609053618263
20
7.72186433602899
30
0
41
1
10
-0.24766221663856
20
7.72754832307889
30
0
41
1
10
-0.243161121055039
20
7.73099236018138
30
0
41
1
10
-0.238765877365836
20
7.73477536384449
30
0
0
SPLINE
5
35C
100
AcDbEntity
8
SK1
62
256
6
ByLayer
370
18
48
1
60
0
100
AcDbSpline
70
4
71
3
72
8
73
4
40
0
40
0
40
0
40
0
40
1
40
1
40
1
40
1
41
1
10
0
20
8.60124135910399
30
0
41
1
10
-0.0810089209749663
20
8.44188252382055
30
0
41
1
10
-0.160636834672829
20
8.28157539894052
30
0
41
1
10
-0.238765877365267
20
8.12031070244164
30
0
0
SPLINE
5
35D
100
AcDbEntity
8
SK1
62
256
6
ByLayer
370
18
48
1
60
0
100
AcDbSpline
70
4
71
3
72
10
73
6
40
0
40
0
40
0
40
0
40
0.358354645666515
40
0.358354645666515
40
1
40
1
40
1
40
1
41
1
10
-0.29876587736527
20
-7.92039724737597
30
0
41
1
10
-0.29876587736527
20
-7.94125551722694
30
0
41
1
10
-0.294515007603536
20
-7.96496351192648
30
0
41
1
10
-0.277470018670925
20
-8.03140495798044
30
0
41
1
10
-0.260038212961973
20
-8.07640287219567
30
0
41
1
10
-0.238765877365267
20
-8.12031070244164
30
0
0
SPLINE
5
35E
100
AcDbEntity
8
SK1
62
256
6
ByLayer
370
18
48
1
60
0
100
AcDbSpline
70
4
71
3
72
10
73
6
40
0
40
0
40
0
40
0
40
0.699816394681511
40
0.699816394681511
40
1
40
1
40
1
40
1
41
1
10
-0.238765877365267
20
8.12031070244164
30
0
41
1
10
-0.261922899786072
20
8.07251272535385
30
0
41
1
10
-0.280673182390814
20
8.02326065273671
30
0
41
1
10
-0.295715024309288
20
7.9575344759666
30
0
41
1
10
-0.29876587736527
20
7.93793733713127
30
0
41
1
10
-0.29876587736527
20
7.92039724737599
30
0
0
SPLINE
5
35F
100
AcDbEntity
8
SK1
62
256
6
ByLayer
370
18
48
1
60
0
100
AcDbSpline
70
4
71
3
72
8
73
4
40
0
40
0
40
0
40
0
40
1
40
1
40
1
40
1
41
1
10
-0.238765877365267
20
-8.12031070244164
30
0
41
1
10
-0.160636834672829
20
-8.28157539894052
30
0
41
1
10
-0.0810089209749663
20
-8.44188252382055
30
0
41
1
10
0
20
-8.60124135910399
30
0
0
SPLINE
5
360
100
AcDbEntity
8
SK1
62
256
6
ByLayer
370
18
48
1
60
0
100
AcDbSpline
70
4
71
3
72
8
73
4
40
0
40
0
40
0
40
0
40
1
40
1
40
1
40
1
41
1
10
-0.238765877365864
20
7.73477536384448
30
0
41
1
10
-0.159214054156536
20
7.8032459333722
30
0
41
1
10
-0.0796244802622823
20
7.87165805586316
30
0
41
1
10
0
20
7.94001592678256
30
0
0
SPLINE
5
361
100
AcDbEntity
8
SK1
62
256
6
ByLayer
370
18
48
1
60
0
100
AcDbSpline
70
4
71
3
72
8
73
4
40
0
40
0
40
0
40
0
40
1
40
1
40
1
40
1
41
1
10
0
20
-7.94001592678256
30
0
41
1
10
-0.0796244802621118
20
-7.87165805586334
30
0
41
1
10
-0.159214054156138
20
-7.80324593337252
30
0
41
1
10
-0.238765877365267
20
-7.73477536384498
30
0
0
SPLINE
5
362
100
AcDbEntity
8
SK1
62
256
6
ByLayer
370
18
48
1
60
0
100
AcDbSpline
70
4
71
3
72
8
73
4
40
0
40
0
40
0
40
0
40
1
40
1
40
1
40
1
41
1
10
0
20
10.8143470869749
30
0
41
1
10
-0.0795971164004925
20
10.748239640664
30
0
41
1
10
-0.159185900775327
20
10.6821188157543
30
0
41
1
10
-0.238765877365267
20
10.6159838617232
30
0
0
SPLINE
5
363
100
AcDbEntity
8
SK1
62
256
6
ByLayer
370
18
48
1
60
0
100
AcDbSpline
70
4
71
3
72
16
73
12
40
0
40
0
40
0
40
0
40
0.261334481281272
40
0.261334481281272
40
0.480926293513676
40
0.480926293513676
40
0.702467905700653
40
0.702467905700653
40
0.897306639604516
40
0.897306639604516
40
1
40
1
40
1
40
1
41
1
10
-0.238765877365267
20
10.6159838617232
30
0
41
1
10
-0.246933690799978
20
10.6091959988815
30
0
41
1
10
-0.255105225208354
20
10.6030392244446
30
0
41
1
10
-0.269018448199176
20
10.5941866909431
30
0
41
1
10
-0.275067758048976
20
10.5910318483189
30
0
41
1
10
-0.285353755871881
20
10.5874900519906
30
0
41
1
10
-0.289701245004579
20
10.5871056806544
30
0
41
1
10
-0.295447130297049
20
10.5891482342205
30
0
41
1
10
-0.297219003298949
20
10.5912502493987
30
0
41
1
10
-0.298548138973644
20
10.5957450822788
30
0
41
1
10
-0.29876587736527
20
10.5975482439017
30
0
41
1
10
-0.29876587736527
20
10.5995397936377
30
0
0
SPLINE
5
364
100
AcDbEntity
8
SK1
62
256
6
ByLayer
370
18
48
1
60
0
100
AcDbSpline
70
4
71
3
72
12
73
8
40
0
40
0
40
0
40
0
40
0.269166044990058
40
0.269166044990058
40
0.640990785123442
40
0.640990785123442
40
1
40
1
40
1
40
1
41
1
10
-0.29876587736527
20
10.6660560656891
30
0
41
1
10
-0.29876587736527
20
10.6724375981006
30
0
41
1
10
-0.296360985002479
20
10.6810273129771
30
0
41
1
10
-0.287309657354115
20
10.7033515105428
30
0
41
1
10
-0.27927917237156
20
10.7182345266058
30
0
41
1
10
-0.260787526217712
20
10.7482809922032
30
0
41
1
10
-0.250205346169054
20
10.7637532172037
30
0
41
1
10
-0.238765877365267
20
10.7792431311741
30
0
0
SPLINE
5
365
100
AcDbEntity
8
1
62
256
6
ByLayer
370
18
48
1
60
0
100
AcDbSpline
70
4
71
3
72
8
73
4
40
0
40
0
40
0
40
0
40
1
40
1
40
1
40
1
41
1
10
19.9084649447374
20
8.47105533731535
30
0
41
1
10
19.9026732611913
20
8.4750758826078
30
0
41
1
10
19.8968821858845
20
8.47909643173227
30
0
41
1
10
19.891091699317
20
8.48311698420521
30
0
0
SPLINE
5
366
100
AcDbEntity
8
1
62
256
6
ByLayer
370
18
48
1
60
0
100
AcDbSpline
70
4
71
3
72
26
73
22
40
0
40
0
40
0
40
0
40
0.0170746249387791
40
0.0170746249387791
40
0.141599210042993
40
0.141599210042993
40
0.266150341378663
40
0.266150341378663
40
0.390769835182937
40
0.390769835182937
40
0.51555265706876
40
0.51555265706876
40
0.604150785299454
40
0.604150785299454
40
0.745634149818308
40
0.745634149818308
40
0.831675976625502
40
0.831675976625502
40
0.918910852363038
40
0.918910852363038
40
1
40
1
40
1
40
1
41
1
10
23.2843683516729
20
9.12575243631551
30
0
41
1
10
23.2824986323291
20
9.12863030489014
30
0
41
1
10
23.2806130122618
20
9.13149735518402
30
0
41
1
10
23.2648536876252
20
9.15516888269917
30
0
41
1
10
23.2501491773501
20
9.17541847713306
30
0
41
1
10
23.2191263315448
20
9.21452782360885
30
0
41
1
10
23.2027792988093
20
9.23342519440919
30
0
41
1
10
23.1684260452206
20
9.26950600773453
30
0
41
1
10
23.1503788156574
20
9.28673563269018
30
0
41
1
10
23.1125070726178
20
9.31890766346119
30
0
41
1
10
23.0926105347734
20
9.33391677069089
30
0
41
1
10
23.0569536651716
20
9.35668481527401
30
0
41
1
10
23.0416079699045
20
9.36531645834677
30
0
41
1
10
23.0007034143166
20
9.38446782597219
30
0
41
1
10
22.9738894893095
20
9.39340419436792
30
0
41
1
10
22.930179726329
20
9.39832860909266
30
0
41
1
10
22.9131815146877
20
9.39794973024993
30
0
41
1
10
22.8807130981608
20
9.3909809610841
30
0
41
1
10
22.8648362706174
20
9.38409277069584
30
0
41
1
10
22.83869132871
20
9.36506939706234
30
0
41
1
10
22.8277440570292
20
9.35312027966442
30
0
41
1
10
22.8190700813834
20
9.33984029732622
30
0
0
SPLINE
5
367
100
AcDbEntity
8
1
62
256
6
ByLayer
370
18
48
1
60
0
100
AcDbSpline
70
4
71
3
72
24
73
20
40
0
40
0
40
0
40
0
40
0.0851555271654082
40
0.0851555271654082
40
0.163612364450106
40
0.163612364450106
40
0.254644292677763
40
0.254644292677763
40
0.393401379190573
40
0.393401379190573
40
0.518585862263997
40
0.518585862263997
40
0.643361325476514
40
0.643361325476514
40
0.767983813909943
40
0.767983813909943
40
0.892542095293587
40
0.892542095293587
40
1
40
1
40
1
40
1
41
1
10
23.306821776376
20
8.58909378565343
30
0
41
1
10
23.3218385149931
20
8.59390213115259
30
0
41
1
10
23.3365247528281
20
8.60164297987448
30
0
41
1
10
23.3609518160381
20
8.62173903492643
30
0
41
1
10
23.3712804310003
20
8.63394622013885
30
0
41
1
10
23.3888697958575
20
8.66305452965005
30
0
41
1
10
23.3957119793314
20
8.68076627156239
30
0
41
1
10
23.4070895263219
20
8.72616794426898
30
0
41
1
10
23.4089971840152
20
8.75504734793115
30
0
41
1
10
23.4069516813371
20
8.80877076860136
30
0
41
1
10
23.4035184841341
20
8.8342165725891
30
0
41
1
10
23.3933895285849
20
8.88398685466845
30
0
41
1
10
23.3866598096695
20
8.90846978644753
30
0
41
1
10
23.3707494085955
20
8.95636568553471
30
0
41
1
10
23.3615393477723
20
8.9798582481009
30
0
41
1
10
23.3411081802405
20
9.02578073426736
30
0
41
1
10
23.329862817513
20
9.0482615693543
30
0
41
1
10
23.3072676243023
20
9.08911389068358
30
0
41
1
10
23.2961273651887
20
9.1076529843438
30
0
41
1
10
23.2843683516729
20
9.12575243631551
30
0
0
SPLINE
5
368
100
AcDbEntity
8
1
62
256
6
ByLayer
370
18
48
1
60
0
100
AcDbSpline
70
4
71
3
72
26
73
22
40
0
40
0
40
0
40
0
40
0.0711136831773166
40
0.0711136831773166
40
0.188710448836655
40
0.188710448836655
40
0.379860843284311
40
0.379860843284311
40
0.50049656533727
40
0.50049656533727
40
0.614177931917552
40
0.614177931917552
40
0.720277744795673
40
0.720277744795673
40
0.809073047389365
40
0.809073047389365
40
0.877604810864513
40
0.877604810864513
40
0.929457212981133
40
0.929457212981133
40
1
40
1
40
1
40
1
41
1
10
19.9433772640629
20
7.60438359257576
30
0
41
1
10
19.9610858954192
20
7.61225006021445
30
0
41
1
10
19.9766125614027
20
7.62440022293583
30
0
41
1
10
20.0118027275555
20
7.66186859921515
30
0
41
1
10
20.0285641360943
20
7.6912353972876
30
0
41
1
10
20.0627130180981
20
7.77359958061821
30
0
41
1
10
20.0748765026986
20
7.83187409197011
30
0
41
1
10
20.0840577873822
20
7.9303365037314
30
0
41
1
10
20.0849631271143
20
7.96993545347382
30
0
41
1
10
20.08183239859
20
8.04765340533035
30
0
41
1
10
20.0780642686412
20
8.08599927664977
30
0
41
1
10
20.0663245869745
20
8.15983796711978
30
0
41
1
10
20.0586158442665
20
8.19559445768535
30
0
41
1
10
20.0403051089118
20
8.26001366931371
30
0
41
1
10
20.0303283151105
20
8.2890742291289
30
0
41
1
10
20.0092653664306
20
8.33873992304551
30
0
41
1
10
19.9988945259153
20
8.35989202018679
30
0
41
1
10
19.9782179746958
20
8.39509990532319
30
0
41
1
10
19.9684555271653
20
8.40971563566161
30
0
41
1
10
19.9432774711641
20
8.44159800223281
30
0
41
1
10
19.9267684023127
20
8.45834920798265
30
0
41
1
10
19.9084649447374
20
8.47105533731535
30
0
0
SPLINE
5
369
100
AcDbEntity
8
1
62
256
6
ByLayer
370
18
48
1
60
0
100
AcDbSpline
70
4
71
3
72
8
73
4
40
0
40
0
40
0
40
0
40
1
40
1
40
1
40
1
41
1
10
20.3172162455746
20
9.26221751647751
30
0
41
1
10
20.3230292517086
20
9.25823813742755
30
0
41
1
10
20.3288428487237
20
9.25425876564236
30
0
41
1
10
20.334657056191
20
9.25027940173491
30
0
0
SPLINE
5
36A
100
AcDbEntity
8
1
62
256
6
ByLayer
370
18
48
1
60
0
100
AcDbSpline
70
4
71
3
72
26
73
22
40
0
40
0
40
0
40
0
40
0.0170746249391523
40
0.0170746249391523
40
0.141599210043427
40
0.141599210043427
40
0.266150341379157
40
0.266150341379157
40
0.390769835183494
40
0.390769835183494
40
0.515552657069375
40
0.515552657069375
40
0.60415078529997
40
0.60415078529997
40
0.745634149818629
40
0.745634149818629
40
0.831675976625768
40
0.831675976625768
40
0.918910852363238
40
0.918910852363238
40
1
40
1
40
1
40
1
41
1
10
19.8785123789892
20
9.02008198987056
30
0
41
1
10
19.8801458603594
20
9.0230685491199
30
0
41
1
10
19.8817956909747
20
9.02604529067942
30
0
41
1
10
19.8956045815111
20
9.05063420475561
30
0
41
1
10
19.9086172628091
20
9.07174375569713
30
0
41
1
10
19.9363207470018
20
9.11267515147821
30
0
41
1
10
19.9510371106171
20
9.13253629848838
30
0
41
1
10
19.9822100284044
20
9.17065013371443
30
0
41
1
10
19.9987036644038
20
9.18895142720631
30
0
41
1
10
20.0335768395961
20
9.22338044947898
30
0
41
1
10
20.0520225094352
20
9.23957916608609
30
0
41
1
10
20.0853380638981
20
9.2644871563691
30
0
41
1
10
20.099749233994
20
9.27404203908347
30
0
41
1
10
20.1383945088567
20
9.29566152813433
30
0
41
1
10
20.1639460678037
20
9.30622259355542
30
0
41
1
10
20.2061391607558
20
9.31381223934392
30
0
41
1
10
20.2226758537861
20
9.31447381798868
30
0
41
1
10
20.2545991468147
20
9.30950287279148
30
0
41
1
10
20.270396447633
20
9.30359740724877
30
0
41
1
10
20.2968145797323
20
9.28620486109048
30
0
41
1
10
20.3080857156904
20
9.2749450943502
30
0
41
1
10
20.3172162455746
20
9.26221751647751
30
0
0
SPLINE
5
36B
100
AcDbEntity
8
1
62
256
6
ByLayer
370
18
48
1
60
0
100
AcDbSpline
70
4
71
3
72
24
73
20
40
0
40
0
40
0
40
0
40
0.0851555271654328
40
0.0851555271654328
40
0.163612364450145
40
0.163612364450145
40
0.254644292677807
40
0.254644292677807
40
0.393401379190702
40
0.393401379190702
40
0.518585862264173
40
0.518585862264173
40
0.643361325476739
40
0.643361325476739
40
0.767983813910219
40
0.767983813910219
40
0.892542095293909
40
0.892542095293909
40
1
40
1
40
1
40
1
41
1
10
19.891091699317
20
8.48311698420522
30
0
41
1
10
19.8763445417317
20
8.48700187192317
30
0
41
1
10
19.861713681946
20
8.49383312528374
30
0
41
1
10
19.8368853811503
20
8.51240097821969
30
0
41
1
10
19.8261338551133
20
8.52395412875525
30
0
41
1
10
19.8072631375743
20
8.55193122390651
30
0
41
1
10
19.7994920814236
20
8.56918957390569
30
0
41
1
10
19.7855096199725
20
8.61380442431701
30
0
41
1
10
19.7817524195338
20
8.64250806949367
30
0
41
1
10
19.780182649872
20
8.69624625030664
30
0
41
1
10
19.7818258572832
20
8.72184955535909
30
0
41
1
10
19.7883611731437
20
8.77213686487993
30
0
41
1
10
19.7932754610514
20
8.79698106484209
30
0
41
1
10
19.8055696013269
20
8.84575204100247
30
0
41
1
10
19.8129726123622
20
8.86976004248753
30
0
41
1
10
19.8298204726813
20
8.91683915170196
30
0
41
1
10
19.8392855064563
20
8.93996254973405
30
0
41
1
10
19.8586034104942
20
8.98211527123688
30
0
41
1
10
19.8682391101308
20
9.00129896198338
30
0
41
1
10
19.8785123789892
20
9.02008198987056
30
0
0
SPLINE
5
36C
100
AcDbEntity
8
1
62
256
6
ByLayer
370
18
48
1
60
0
100
AcDbSpline
70
4
71
3
72
26
73
22
40
0
40
0
40
0
40
0
40
0.0714333342599989
40
0.0714333342599989
40
0.129317520910067
40
0.129317520910067
40
0.208471251040804
40
0.208471251040804
40
0.287424722558809
40
0.287424722558809
40
0.366300492862951
40
0.366300492862951
40
0.49926136018804
40
0.49926136018804
40
0.73159232877105
40
0.73159232877105
40
0.866040551605323
40
0.866040551605323
40
0.956449586676368
40
0.956449586676368
40
1
40
1
40
1
40
1
41
1
10
20.334657056191
20
9.25027940173491
30
0
41
1
10
20.3532732650929
20
9.23753808312625
30
0
41
1
10
20.3745154915235
20
9.22881522973907
30
0
41
1
10
20.4138630401718
20
9.21846334791418
30
0
41
1
10
20.432120045924
20
9.21572213472477
30
0
41
1
10
20.4755567392668
20
9.2126739832383
30
0
41
1
10
20.5010550293141
20
9.21360112732644
30
0
41
1
10
20.5517205736796
20
9.2194109420833
30
0
41
1
10
20.5770621334532
20
9.22431606033872
30
0
41
1
10
20.6271762180463
20
9.23732415579157
30
0
41
1
10
20.6520628424348
20
9.24545902702845
30
0
41
1
10
20.7177299159032
20
9.27096674228187
30
0
41
1
10
20.7581267292426
20
9.29098580617777
30
0
41
1
10
20.8635441074644
20
9.35450796436646
30
0
41
1
10
20.9267739546771
20
9.40544979963812
30
0
41
1
10
21.0098271877839
20
9.49896348439053
30
0
41
1
10
21.0373806687173
20
9.53684109166674
30
0
41
1
10
21.0724628703497
20
9.60487015790908
30
0
41
1
10
21.083832510995
20
9.63403668186655
30
0
41
1
10
21.0925196674417
20
9.67833572045475
30
0
41
1
10
21.0940568157526
20
9.69310590217853
30
0
41
1
10
21.0937792344888
20
9.70770947548313
30
0
0
SPLINE
5
36D
100
AcDbEntity
8
1
62
256
6
ByLayer
370
18
48
1
60
0
100
AcDbSpline
70
4
71
3
72
8
73
4
40
0
40
0
40
0
40
0
40
1
40
1
40
1
40
1
41
1
10
20.4145384286371
20
6.84626842383385
30
0
41
1
10
20.4200938116913
20
6.84868434158342
30
0
41
1
10
20.4256497611225
20
6.85110087489616
30
0
41
1
10
20.4312062956914
20
6.8535180444952
30
0
0
SPLINE
5
36E
100
AcDbEntity
8
1
62
256
6
ByLayer
370
18
48
1
60
0
100
AcDbSpline
70
4
71
3
72
8
73
4
40
0
40
0
40
0
40
0
40
1
40
1
40
1
40
1
41
1
10
23.2896639068228
20
8.57596077275022
30
0
41
1
10
23.2953837137832
20
8.58033847476065
30
0
41
1
10
23.3011029980707
20
8.58471614551527
30
0
41
1
10
23.306821776376
20
8.58909378565345
30
0
0
SPLINE
5
36F
100
AcDbEntity
8
1
62
256
6
ByLayer
370
18
48
1
60
0
100
AcDbSpline
70
4
71
3
72
26
73
22
40
0
40
0
40
0
40
0
40
0.0170746249388166
40
0.0170746249388166
40
0.141599210043039
40
0.141599210043039
40
0.26615034137871
40
0.26615034137871
40
0.390769835182984
40
0.390769835182984
40
0.515552657068816
40
0.515552657068816
40
0.604150785299498
40
0.604150785299498
40
0.745634149818331
40
0.745634149818331
40
0.831675976625521
40
0.831675976625521
40
0.918910852363057
40
0.918910852363057
40
1
40
1
40
1
40
1
41
1
10
19.9550702260747
20
7.11959172772279
30
0
41
1
10
19.9569399454187
20
7.11671385914815
30
0
41
1
10
19.9588252938873
20
7.11384404932119
30
0
41
1
10
19.974580113685
20
7.09012675113193
30
0
41
1
10
19.9892663524553
20
7.06969151208368
30
0
41
1
10
20.020221743319
20
7.02989680078358
30
0
41
1
10
20.0365195657511
20
7.01049943680135
30
0
41
1
10
20.0707369089754
20
6.97303772860435
30
0
41
1
10
20.0886973614679
20
6.95492641951478
30
0
41
1
10
20.1263451169106
20
6.92047859965786
30
0
41
1
10
20.1461041978941
20
6.90407288463261
30
0
41
1
10
20.1814624978807
20
6.87827127265175
30
0
41
1
10
20.1966649199998
20
6.86818392635672
30
0
41
1
10
20.2371317378824
20
6.84458499687606
30
0
41
1
10
20.2636072325147
20
6.83221006240072
30
0
41
1
10
20.306598504019
20
6.81998553337289
30
0
41
1
10
20.3232773135046
20
6.81711917922146
30
0
41
1
10
20.3550176379807
20
6.81669028902816
30
0
41
1
10
20.3704723410078
20
6.81928955279639
30
0
41
1
10
20.3957702186809
20
6.82970646979697
30
0
41
1
10
20.40628389354
20
6.83725009810505
30
0
41
1
10
20.4145384286371
20
6.84626842383386
30
0
0
SPLINE
5
370
100
AcDbEntity
8
1
62
256
6
ByLayer
370
18
48
1
60
0
100
AcDbSpline
70
4
71
3
72
24
73
20
40
0
40
0
40
0
40
0
40
0.0851555271654162
40
0.0851555271654162
40
0.163612364450108
40
0.163612364450108
40
0.254644292677765
40
0.254644292677765
40
0.393401379190582
40
0.393401379190582
40
0.518585862264009
40
0.518585862264009
40
0.643361325476532
40
0.643361325476532
40
0.767983813909969
40
0.767983813909969
40
0.892542095293618
40
0.892542095293618
40
1
40
1
40
1
40
1
41
1
10
19.9267867336445
20
7.59701493550665
30
0
41
1
10
19.9122097710591
20
7.59667486194171
30
0
41
1
10
19.8979793575552
20
7.5935653412577
30
0
41
1
10
19.874372755687
20
7.58180544853235
30
0
41
1
10
19.8644232189542
20
7.5734498252321
30
0
41
1
10
19.8475563668265
20
7.55168248730483
30
0
41
1
10
19.8410546629883
20
7.53743013265068
30
0
41
1
10
19.830401764099
20
7.49939112762067
30
0
41
1
10
19.8288276693775
20
7.47390083559259
30
0
41
1
10
19.8313795443328
20
7.42532232704032
30
0
41
1
10
19.8350017955855
20
7.40179737558614
30
0
41
1
10
19.8454408370197
20
7.35517767006749
30
0
41
1
10
19.8522923364463
20
7.33193206911423
30
0
41
1
10
19.8683998516654
20
7.28603891583215
30
0
41
1
10
19.8776854294563
20
7.26331363097805
30
0
41
1
10
19.8982323257719
20
7.21856698805667
30
0
41
1
10
19.9095179611759
20
7.19649533686636
30
0
41
1
10
19.9321602847154
20
7.1561218754801
30
0
41
1
10
19.943311212559
20
7.1376911796945
30
0
41
1
10
19.9550702260747
20
7.11959172772279
30
0
0
SPLINE
5
371
100
AcDbEntity
8
1
62
256
6
ByLayer
370
18
48
1
60
0
100
AcDbSpline
70
4
71
3
72
8
73
4
40
0
40
0
40
0
40
0
40
1
40
1
40
1
40
1
41
1
10
21.2252407933147
20
6.44427637350383
30
0
41
1
10
21.2256187744854
20
6.43880058221379
30
0
41
1
10
21.225996757775
20
6.43332572769528
30
0
41
1
10
21.2263747430802
20
6.42785177960918
30
0
0
SPLINE
5
372
100
AcDbEntity
8
1
62
256
6
ByLayer
370
18
48
1
60
0
100
AcDbSpline
70
4
71
3
72
8
73
4
40
0
40
0
40
0
40
0
40
1
40
1
40
1
40
1
41
1
10
22.1402509843304
20
6.45620580020868
30
0
41
1
10
22.1399212949915
20
6.46168124673052
30
0
41
1
10
22.139591612262
20
6.46715759982729
30
0
41
1
10
22.1392619363969
20
6.47263488984285
30
0
0
SPLINE
5
373
100
AcDbEntity
8
1
62
256
6
ByLayer
370
18
48
1
60
0
100
AcDbSpline
70
4
71
3
72
8
73
4
40
0
40
0
40
0
40
0
40
1
40
1
40
1
40
1
41
1
10
19.9433772640629
20
7.60438359257576
30
0
41
1
10
19.9378465108784
20
7.60192674031721
30
0
41
1
10
19.9323163402988
20
7.59947052824346
30
0
41
1
10
19.9267867336445
20
7.59701493550664
30
0
0
SPLINE
5
374
100
AcDbEntity
8
1
62
256
6
ByLayer
370
18
48
1
60
0
100
AcDbSpline
70
4
71
3
72
24
73
20
40
0
40
0
40
0
40
0
40
0.0851555271654138
40
0.0851555271654138
40
0.163612364450108
40
0.163612364450108
40
0.254644292677777
40
0.254644292677777
40
0.393401379190597
40
0.393401379190597
40
0.518585862264034
40
0.518585862264034
40
0.643361325476569
40
0.643361325476569
40
0.767983813910018
40
0.767983813910018
40
0.892542095293679
40
0.892542095293679
40
1
40
1
40
1
40
1
41
1
10
22.9163922644459
20
6.92389120468258
30
0
41
1
10
22.9264052403306
20
6.91501483526932
30
0
41
1
10
22.9388102629644
20
6.90791192112053
30
0
41
1
10
22.9656468303633
20
6.89985194232531
30
0
41
1
10
22.9801808870088
20
6.89837302165999
30
0
41
1
10
23.0120575350897
20
6.90019516162114
30
0
41
1
10
23.0299276384232
20
6.90423817779711
30
0
41
1
10
23.073255967627
20
6.91931531441431
30
0
41
1
10
23.0986688382008
20
6.93298484124966
30
0
41
1
10
23.1436049244944
20
6.96275412114082
30
0
41
1
10
23.163860613226
20
6.97876464026305
30
0
41
1
10
23.2020093230328
20
7.01275855421602
30
0
41
1
10
23.2200239587901
20
7.03085089609151
30
0
41
1
10
23.2540542835811
20
7.06841914428634
30
0
41
1
10
23.2701256602133
20
7.08795951063352
30
0
41
1
10
23.3004506118945
20
7.12809258991395
30
0
41
1
10
23.3147372847077
20
7.14873093770845
30
0
41
1
10
23.3397185253734
20
7.18796480196785
30
0
41
1
10
23.3506529299001
20
7.20647914628053
30
0
41
1
10
23.3609261987585
20
7.22526217416774
30
0
0
SPLINE
5
375
100
AcDbEntity
8
1
62
256
6
ByLayer
370
18
48
1
60
0
100
AcDbSpline
70
4
71
3
72
32
73
28
40
0
40
0
40
0
40
0
40
0.0715553880374796
40
0.0715553880374796
40
0.129538477863642
40
0.129538477863642
40
0.187361157691771
40
0.187361157691771
40
0.2800584368329
40
0.2800584368329
40
0.372589609809257
40
0.372589609809257
40
0.500049575239967
40
0.500049575239967
40
0.571802987703601
40
0.571802987703601
40
0.643564197244382
40
0.643564197244382
40
0.715346075445565
40
0.715346075445565
40
0.787174006639789
40
0.787174006639789
40
0.859107940416644
40
0.859107940416644
40
0.915809143553886
40
0.915809143553886
40
1
40
1
40
1
40
1
41
1
10
20.4312062956914
20
6.8535180444952
30
0
41
1
10
20.4489974751236
20
6.86125745428753
30
0
41
1
10
20.4697211009523
20
6.86540846597529
30
0
41
1
10
20.508526535864
20
6.86851414489301
30
0
41
1
10
20.5266806270141
20
6.86832770833973
30
0
41
1
10
20.5633632815607
20
6.86570364526864
30
0
41
1
10
20.5820106177501
20
6.86325966746259
30
0
41
1
10
20.630645227433
20
6.85471141030531
30
0
41
1
10
20.6609331776842
20
6.84726274382267
30
0
41
1
10
20.72099855434
20
6.82939888786636
30
0
41
1
10
20.7509758099372
20
6.81891925523689
30
0
41
1
10
20.8211281160188
20
6.79130652612673
30
0
41
1
10
20.8612402216039
20
6.77302496440822
30
0
41
1
10
20.9217417354759
20
6.74184276677248
30
0
41
1
10
20.9431969488522
20
6.73001852311684
30
0
41
1
10
20.9849899573708
20
6.70538130279527
30
0
41
1
10
21.0053862436126
20
6.69253422249599
30
0
41
1
10
21.044758279158
20
6.66589687686458
30
0
41
1
10
21.0637952676526
20
6.65206612458508
30
0
41
1
10
21.1000358581438
20
6.62346041413964
30
0
41
1
10
21.1173090153229
20
6.60863255803349
30
0
41
1
10
21.149387935773
20
6.57799147754531
30
0
41
1
10
21.1642824313391
20
6.56209711434718
30
0
41
1
10
21.1876970362599
20
6.53278189297851
30
0
41
1
10
21.1969571199528
20
6.51947344108349
30
0
41
1
10
21.2158254656163
20
6.48593171552487
30
0
41
1
10
21.2238212847541
20
6.46484071165862
30
0
41
1
10
21.2252407933147
20
6.44427637350384
30
0
0
SPLINE
5
376
100
AcDbEntity
8
1
62
256
6
ByLayer
370
18
48
1
60
0
100
AcDbSpline
70
4
71
3
72
8
73
4
40
0
40
0
40
0
40
0
40
1
40
1
40
1
40
1
41
1
10
22.007800377571
20
9.73606799182215
30
0
41
1
10
22.0076114501762
20
9.74346463286408
30
0
41
1
10
22.0074225805946
20
9.75086094606345
30
0
41
1
10
22.0072337669404
20
9.75825694155091
30
0
0
SPLINE
5
377
100
AcDbEntity
8
1
62
256
6
ByLayer
370
18
48
1
60
0
100
AcDbSpline
70
4
71
3
72
8
73
4
40
0
40
0
40
0
40
0
40
1
40
1
40
1
40
1
41
1
10
23.3425168107036
20
7.70299173695487
30
0
41
1
10
23.336537152485
20
7.70509024202647
30
0
41
1
10
23.3305569634703
20
7.70718933247005
30
0
41
1
10
23.3245762261483
20
7.70928902801063
30
0
0
SPLINE
5
378
100
AcDbEntity
8
1
62
256
6
ByLayer
370
18
48
1
60
0
100
AcDbSpline
70
4
71
3
72
26
73
22
40
0
40
0
40
0
40
0
40
0.0170746249388888
40
0.0170746249388888
40
0.141599210043125
40
0.141599210043125
40
0.266150341378814
40
0.266150341378814
40
0.390769835183106
40
0.390769835183106
40
0.515552657068951
40
0.515552657068951
40
0.604150785299611
40
0.604150785299611
40
0.745634149818406
40
0.745634149818406
40
0.831675976625587
40
0.831675976625587
40
0.918910852363105
40
0.918910852363105
40
1
40
1
40
1
40
1
41
1
10
23.3609261987585
20
7.22526217416774
30
0
41
1
10
23.3625596801288
20
7.22824873341705
30
0
41
1
10
23.3641765904831
20
7.2312424419252
30
0
41
1
10
23.3774396300991
20
7.25611268501596
30
0
41
1
10
23.3882285661401
20
7.2783683438754
30
0
41
1
10
23.4078774085688
20
7.32345106439688
30
0
41
1
10
23.4167566295871
20
7.34632064743511
30
0
41
1
10
23.4323009448921
20
7.39248939137644
30
0
41
1
10
23.4389870167225
20
7.41584545762828
30
0
41
1
10
23.449627194613
20
7.46276405351341
30
0
41
1
10
23.4536057071138
20
7.48641907543366
30
0
41
1
10
23.4572589281892
20
7.52661489378632
30
0
41
1
10
23.457848776521
20
7.54329322117594
30
0
41
1
10
23.4562048625361
20
7.58567756996058
30
0
41
1
10
23.4521063404648
20
7.61152014863742
30
0
41
1
10
23.4375008363422
20
7.64838352604141
30
0
41
1
10
23.4299371205169
20
7.66146634283284
30
0
41
1
10
23.410400380542
20
7.68301765826625
30
0
41
1
10
23.398012133034
20
7.69163889267099
30
0
41
1
10
23.3713824611294
20
7.70158693690006
30
0
41
1
10
23.3570014922489
20
7.70354814516784
30
0
41
1
10
23.3425168107036
20
7.70299173695486
30
0
0
SPLINE
5
379
100
AcDbEntity
8
1
62
256
6
ByLayer
370
18
48
1
60
0
100
AcDbSpline
70
4
71
3
72
8
73
4
40
0
40
0
40
0
40
0
40
1
40
1
40
1
40
1
41
1
10
22.8983841146946
20
6.93006496359106
30
0
41
1
10
22.9043873759379
20
6.92800644943551
30
0
41
1
10
22.910390086661
20
6.92594853633119
30
0
41
1
10
22.9163922644459
20
6.92389120468259
30
0
0
SPLINE
5
37A
100
AcDbEntity
8
1
62
256
6
ByLayer
370
18
48
1
60
0
100
AcDbSpline
70
4
71
3
72
32
73
28
40
0
40
0
40
0
40
0
40
0.0715553880374858
40
0.0715553880374858
40
0.12953847786365
40
0.12953847786365
40
0.187361157691788
40
0.187361157691788
40
0.28005843683292
40
0.28005843683292
40
0.372589609809283
40
0.372589609809283
40
0.500049575239968
40
0.500049575239968
40
0.571802987703594
40
0.571802987703594
40
0.643564197244365
40
0.643564197244365
40
0.715346075445542
40
0.715346075445542
40
0.787174006639761
40
0.787174006639761
40
0.859107940416609
40
0.859107940416609
40
0.915809143553864
40
0.915809143553864
40
1
40
1
40
1
40
1
41
1
10
23.3245762261483
20
7.70928902801063
30
0
41
1
10
23.305426813954
20
7.71601193410464
30
0
41
1
10
23.2881450250901
20
7.72714417824736
30
0
41
1
10
23.2606632863051
20
7.75123579899353
30
0
41
1
10
23.2495206275354
20
7.76364703556739
30
0
41
1
10
23.2293990412079
20
7.79034858927403
30
0
41
1
10
23.2203524939935
20
7.80472356344943
30
0
41
1
10
23.1991294001152
20
7.84386104180119
30
0
41
1
10
23.1882320179617
20
7.86984530823587
30
0
41
1
10
23.1701453856832
20
7.92392146141373
30
0
41
1
10
23.1629004354473
20
7.95219570019941
30
0
41
1
10
23.149596544413
20
8.0210813734007
30
0
41
1
10
23.1449402496957
20
8.06266907812559
30
0
41
1
10
23.1422801030921
20
8.12870519210276
30
0
41
1
10
23.1422610869208
20
8.15282271696098
30
0
41
1
10
23.1441465472215
20
8.20124914505882
30
0
41
1
10
23.1460532752972
20
8.22562557042421
30
0
41
1
10
23.1518973870455
20
8.2742863874887
30
0
41
1
10
23.1558429129054
20
8.29864586285936
30
0
41
1
10
23.1659699121191
20
8.34692173561974
30
0
41
1
10
23.1721688461032
20
8.370929554111
30
0
41
1
10
23.1871615161695
20
8.4179935338089
30
0
41
1
10
23.1959932173792
20
8.44117773293397
30
0
41
1
10
23.214635278647
20
8.48095022256373
30
0
41
1
10
23.2238926920776
20
8.49799699875894
30
0
41
1
10
23.2497452721604
20
8.53757031620721
30
0
41
1
10
23.268183167641
20
8.55952030968004
30
0
41
1
10
23.2896639068228
20
8.57596077275022
30
0
0
SPLINE
5
37B
100
AcDbEntity
8
1
62
256
6
ByLayer
370
18
48
1
60
0
100
AcDbSpline
70
4
71
3
72
26
73
22
40
0
40
0
40
0
40
0
40
0.0170746249388029
40
0.0170746249388029
40
0.141599210043039
40
0.141599210043039
40
0.266150341378739
40
0.266150341378739
40
0.390769835183037
40
0.390769835183037
40
0.515552657068877
40
0.515552657068877
40
0.604150785299551
40
0.604150785299551
40
0.745634149818363
40
0.745634149818363
40
0.831675976625553
40
0.831675976625553
40
0.918910852363081
40
0.918910852363081
40
1
40
1
40
1
40
1
41
1
10
21.5431614417882
20
10.0231623441669
30
0
41
1
10
21.5396582410741
20
10.0230536534923
30
0
41
1
10
21.5361555748532
20
10.0229256155115
30
0
41
1
10
21.5071309581812
20
10.0217040145988
30
0
41
1
10
21.4816283761127
20
10.0196051278661
30
0
41
1
10
21.4309229604079
20
10.0132890714083
30
0
41
1
10
21.4056721015024
20
10.0090668625795
30
0
41
1
10
21.3557065774265
20
9.99828848452762
30
0
41
1
10
21.3309298874975
20
9.99172120116447
30
0
41
1
10
21.282305972769
20
9.97583674150741
30
0
41
1
10
21.2583621939932
20
9.96649252291907
30
0
41
1
10
21.2189028185085
20
9.94754796545064
30
0
41
1
10
21.2028956383356
20
9.93877342952263
30
0
41
1
10
21.1634161278799
20
9.91331666743578
30
0
41
1
10
21.1405315097567
20
9.89469117411484
30
0
41
1
10
21.1110680051608
20
9.85910215428403
30
0
41
1
10
21.1014738082669
20
9.84401784215278
30
0
41
1
10
21.0881780856895
20
9.81179892787397
30
0
41
1
10
21.084478443396
20
9.79414503977095
30
0
41
1
10
21.084539641276
20
9.76087039359193
30
0
41
1
10
21.0877565400649
20
9.74475732338131
30
0
41
1
10
21.0933575256901
20
9.7299029209514
30
0
0
SPLINE
5
37C
100
AcDbEntity
8
1
62
256
6
ByLayer
370
18
48
1
60
0
100
AcDbSpline
70
4
71
3
72
32
73
28
40
0
40
0
40
0
40
0
40
0.0715553880374791
40
0.0715553880374791
40
0.12953847786364
40
0.12953847786364
40
0.187361157691771
40
0.187361157691771
40
0.280058436832908
40
0.280058436832908
40
0.372589609809277
40
0.372589609809277
40
0.500049575239971
40
0.500049575239971
40
0.571802987703597
40
0.571802987703597
40
0.643564197244371
40
0.643564197244371
40
0.715346075445554
40
0.715346075445554
40
0.78717400663978
40
0.78717400663978
40
0.859107940416632
40
0.859107940416632
40
0.915809143553884
40
0.915809143553884
40
1
40
1
40
1
40
1
41
1
10
22.8018348751942
20
9.32682632083078
30
0
41
1
10
22.7834383742962
20
9.31293664198608
30
0
41
1
10
22.762134859104
20
9.30289375993424
30
0
41
1
10
22.7223746714608
20
9.29008747314384
30
0
41
1
10
22.7038200254259
20
9.28620413776551
30
0
41
1
10
22.6663994835724
20
9.28133101839116
30
0
41
1
10
22.6474123228026
20
9.28032226452032
30
0
41
1
10
22.5979711013578
20
9.28067507572707
30
0
41
1
10
22.5672590167987
20
9.28381439543291
30
0
41
1
10
22.5064944423154
20
9.29457416702635
30
0
41
1
10
22.4762397930898
20
9.30223538738503
30
0
41
1
10
22.4056046472268
20
9.32494230242369
30
0
41
1
10
22.3653514443296
20
9.34179026814134
30
0
41
1
10
22.3048499304576
20
9.37297246577708
30
0
41
1
10
22.2834394729982
20
9.38525144455501
30
0
41
1
10
22.2418249272355
20
9.41170190631351
30
0
41
1
10
22.221562588347
20
9.42590993663444
30
0
41
1
10
22.1825463876116
20
9.45616268324281
30
0
41
1
10
22.1637318210068
20
9.47225331649919
30
0
41
1
10
22.1280231686987
20
9.50626369723906
30
0
41
1
10
22.1110605148831
20
9.52424637162751
30
0
41
1
10
22.0796899238209
20
9.56208431619365
30
0
41
1
10
22.0651951637574
20
9.58204012612615
30
0
41
1
10
22.0425745198733
20
9.61942225783579
30
0
41
1
10
22.0336939924034
20
9.6365871282175
30
0
41
1
10
22.0158311276188
20
9.68034487663498
30
0
41
1
10
22.008509894539
20
9.7082899010333
30
0
41
1
10
22.007800377571
20
9.73606799182215
30
0
0
SPLINE
5
37D
100
AcDbEntity
8
1
62
256
6
ByLayer
370
18
48
1
60
0
100
AcDbSpline
70
4
71
3
72
8
73
4
40
0
40
0
40
0
40
0
40
1
40
1
40
1
40
1
41
1
10
22.8190700813834
20
9.33984029732623
30
0
41
1
10
22.8133255266783
20
9.33550233217532
30
0
41
1
10
22.8075804635392
20
9.33116434018169
30
0
41
1
10
22.8018348751942
20
9.32682632083078
30
0
0
SPLINE
5
37E
100
AcDbEntity
8
1
62
256
6
ByLayer
370
18
48
1
60
0
100
AcDbSpline
70
4
71
3
72
26
73
22
40
0
40
0
40
0
40
0
40
0.0170746249388393
40
0.0170746249388393
40
0.14159921004307
40
0.14159921004307
40
0.266150341378747
40
0.266150341378747
40
0.390769835183041
40
0.390769835183041
40
0.51555265706888
40
0.51555265706888
40
0.604150785299549
40
0.604150785299549
40
0.745634149818363
40
0.745634149818363
40
0.831675976625552
40
0.831675976625552
40
0.91891085236308
40
0.91891085236308
40
1
40
1
40
1
40
1
41
1
10
21.6962771359595
20
6.22218181987138
30
0
41
1
10
21.6997803366736
20
6.22229051054603
30
0
41
1
10
21.7032827312959
20
6.22241578899374
30
0
41
1
10
21.732302843129
20
6.22359161923228
30
0
41
1
10
21.7577871536927
20
6.22550486135064
30
0
41
1
10
21.8084251144559
20
6.23113555298417
30
0
41
1
10
21.833626763058
20
6.23485776863112
30
0
41
1
10
21.8834563767695
20
6.24425525181128
30
0
41
1
10
21.9081462896278
20
6.24994085104051
30
0
41
1
10
21.9565462167594
20
6.26354952161168
30
0
41
1
10
21.9803525386742
20
6.27149713240445
30
0
41
1
10
22.0195133445438
20
6.28740812247513
30
0
41
1
10
22.0353772515687
20
6.29472695518086
30
0
41
1
10
22.0744190243191
20
6.31573615541247
30
0
41
1
10
22.0969652120675
20
6.33092308265378
30
0
41
1
10
22.1257102251872
20
6.35921198818151
30
0
41
1
10
22.1349850199254
20
6.3710510673186
30
0
41
1
10
22.1475526504519
20
6.39587232223829
30
0
41
1
10
22.1508301682292
20
6.40923728372128
30
0
41
1
10
22.1499219061149
20
6.43390547326737
30
0
41
1
10
22.1462714105043
20
6.44561305438816
30
0
41
1
10
22.1402509843304
20
6.45620580020868
30
0
0
SPLINE
5
37F
100
AcDbEntity
8
1
62
256
6
ByLayer
370
18
48
1
60
0
100
AcDbSpline
70
4
71
3
72
32
73
28
40
0
40
0
40
0
40
0
40
0.0715553880374804
40
0.0715553880374804
40
0.129538477863641
40
0.129538477863641
40
0.187361157691773
40
0.187361157691773
40
0.280058436832903
40
0.280058436832903
40
0.372589609809265
40
0.372589609809265
40
0.500049575239971
40
0.500049575239971
40
0.5718029877036
40
0.5718029877036
40
0.643564197244384
40
0.643564197244384
40
0.715346075445562
40
0.715346075445562
40
0.787174006639783
40
0.787174006639783
40
0.859107940416636
40
0.859107940416636
40
0.915809143553877
40
0.915809143553877
40
1
40
1
40
1
40
1
41
1
10
22.1392619363969
20
6.47263488984285
30
0
41
1
10
22.1382063643677
20
6.49017234025536
30
0
41
1
10
22.1419381460142
20
6.50840153126788
30
0
41
1
10
22.1537392185067
20
6.54044913486813
30
0
41
1
10
22.1609509283295
20
6.55470882085449
30
0
41
1
10
22.1778809402021
20
6.58253490271277
30
0
41
1
10
22.1876516414673
20
6.59619226492055
30
0
41
1
10
22.2154664631528
20
6.63087920909029
30
0
41
1
10
22.2350690984045
20
6.65156948243073
30
0
41
1
10
22.2773974416955
20
6.69133382183372
30
0
41
1
10
22.300268443871
20
6.71053763412533
30
0
41
1
10
22.3573582788091
20
6.75426348525222
30
0
41
1
10
22.3928846383329
20
6.77828642625904
30
0
41
1
10
22.4507260056013
20
6.81314034260045
30
0
41
1
10
22.4721398248478
20
6.8252062562419
30
0
41
1
10
22.5157290622891
20
6.84808884329971
30
0
41
1
10
22.5379651029301
20
6.858937713355
30
0
41
1
10
22.5830033328187
20
6.87915348429959
30
0
41
1
10
22.6058746362283
20
6.88855226690232
30
0
41
1
10
22.6519762568417
20
6.90552009407006
30
0
41
1
10
22.6752930963231
20
6.91312264731401
30
0
41
1
10
22.7220105221455
20
6.92594711448474
30
0
41
1
10
22.74553685117
20
6.93120622704451
30
0
41
1
10
22.7871965368403
20
6.93763004013511
30
0
41
1
10
22.8055242558523
20
6.93944015519195
30
0
41
1
10
22.8497424411592
20
6.94036373565217
30
0
41
1
10
22.8758388627486
20
6.93779571499272
30
0
41
1
10
22.8983841146946
20
6.93006496359106
30
0
0
SPLINE
5
380
100
AcDbEntity
8
1
62
256
6
ByLayer
370
18
48
1
60
0
100
AcDbSpline
70
4
71
3
72
24
73
20
40
0
40
0
40
0
40
0
40
0.0851555271654078
40
0.0851555271654078
40
0.163612364450103
40
0.163612364450103
40
0.254644292677753
40
0.254644292677753
40
0.393401379190579
40
0.393401379190579
40
0.518585862263998
40
0.518585862263998
40
0.643361325476523
40
0.643361325476523
40
0.767983813909958
40
0.767983813909958
40
0.892542095293608
40
0.892542095293608
40
1
40
1
40
1
40
1
41
1
10
22.0072337669404
20
9.7582569415509
30
0
41
1
10
22.0124574176886
20
9.77417579243043
30
0
41
1
10
22.0149665450553
20
9.79133521932005
30
0
41
1
10
22.0129672715374
20
9.8236593343305
30
0
41
1
10
22.0089513689688
20
9.83927122116435
30
0
41
1
10
21.9950253421097
20
9.87022787650636
30
0
41
1
10
21.9841676620681
20
9.88562629587182
30
0
41
1
10
21.9525792039053
20
9.91963216579951
30
0
41
1
10
21.9292407725107
20
9.93653659844338
30
0
41
1
10
21.8825123696776
20
9.96306319528142
30
0
41
1
10
21.858918010768
20
9.9734589064137
30
0
41
1
10
21.8107953883545
20
9.99081056282043
30
0
41
1
10
21.7861119239373
20
9.99781981813693
30
0
41
1
10
21.7362697551449
20
10.0091488419319
30
0
41
1
10
21.7110260761733
20
10.0134846770069
30
0
41
1
10
21.6603278213522
20
10.0198620055155
30
0
41
1
10
21.6348159221496
20
10.0219090847562
30
0
41
1
10
21.5872630534376
20
10.0237669717976
30
0
41
1
10
21.5651937241624
20
10.0238459200825
30
0
41
1
10
21.5431614417882
20
10.0231623441669
30
0
0
SPLINE
5
381
100
AcDbEntity
8
1
62
256
6
ByLayer
370
18
48
1
60
0
100
AcDbSpline
70
4
71
3
72
8
73
4
40
0
40
0
40
0
40
0
40
1
40
1
40
1
40
1
41
1
10
21.0933575256901
20
9.72990292095142
30
0
41
1
10
21.093498043378
20
9.72250542702822
30
0
41
1
10
21.0936386123996
20
9.71510761525056
30
0
41
1
10
21.0937792344888
20
9.70770947548313
30
0
0
SPLINE
5
382
100
AcDbEntity
8
1
62
256
6
ByLayer
370
18
48
1
60
0
100
AcDbSpline
70
4
71
3
72
24
73
20
40
0
40
0
40
0
40
0
40
0.085155527165411
40
0.085155527165411
40
0.163612364450105
40
0.163612364450105
40
0.254644292677765
40
0.254644292677765
40
0.393401379190583
40
0.393401379190583
40
0.51858586226402
40
0.51858586226402
40
0.643361325476545
40
0.643361325476545
40
0.767983813909983
40
0.767983813909983
40
0.892542095293637
40
0.892542095293637
40
1
40
1
40
1
40
1
41
1
10
21.2263747430801
20
6.42785177960918
30
0
41
1
10
21.2215908683636
20
6.41640120066387
30
0
41
1
10
21.219537565328
20
6.40387310181214
30
0
41
1
10
21.2223573001877
20
6.37988514912827
30
0
41
1
10
21.2267522809857
20
6.36812482420662
30
0
41
1
10
21.2414008205743
20
6.34450914044852
30
0
41
1
10
21.2525989802516
20
6.33257010834126
30
0
41
1
10
21.2849120865156
20
6.30592690609014
30
0
41
1
10
21.308584080882
20
6.29241158508036
30
0
41
1
10
21.3558188559922
20
6.27102990036028
30
0
41
1
10
21.3796022689516
20
6.26255504176156
30
0
41
1
10
21.4280349772501
20
6.24835396191551
30
0
41
1
10
21.4528402221785
20
6.24258203742482
30
0
41
1
10
21.502879505116
20
6.23325575943502
30
0
41
1
10
21.5281987010553
20
6.22968720207206
30
0
41
1
10
21.5790126846602
20
6.22448571680856
30
0
41
1
10
21.6045648565392
20
6.22284782146444
30
0
41
1
10
21.65216485558
20
6.22146879436607
30
0
41
1
10
21.6742448535853
20
6.22149824395585
30
0
41
1
10
21.6962771359595
20
6.22218181987138
30
0
0
SPLINE
5
383
100
AcDbEntity
8
1
62
256
6
ByLayer
370
18
48
1
60
0
100
AcDbSpline
70
4
71
3
72
12
73
8
40
0
40
0
40
0
40
0
40
0.452209010901508
40
0.452209010901508
40
0.985658768919412
40
0.985658768919412
40
1
40
1
40
1
40
1
41
1
10
25.5473250995198
20
9.77614151708666
30
0
41
1
10
25.5409743839656
20
9.73551298694655
30
0
41
1
10
25.533077242036
20
9.69329509384069
30
0
41
1
10
25.5147603535498
20
9.6028542864299
30
0
41
1
10
25.5039276843314
20
9.55396784890087
30
0
41
1
10
25.4927111005161
20
9.50562606157982
30
0
41
1
10
25.4924172056198
20
9.50436219870733
30
0
41
1
10
25.4921237002288
20
9.50309928180612
30
0
0
SPLINE
5
384
100
AcDbEntity
8
1
62
256
6
ByLayer
370
18
48
1
60
0
100
AcDbSpline
70
4
71
3
72
12
73
8
40
0
40
0
40
0
40
0
40
0.0125097154214791
40
0.0125097154214791
40
0.545812023971045
40
0.545812023971045
40
1
40
1
40
1
40
1
41
1
10
18.4852635809602
20
10.7448122475507
30
0
41
1
10
18.4840957764428
20
10.7448575909553
30
0
41
1
10
18.4829280870805
20
10.7449040398331
30
0
41
1
10
18.4319542419926
20
10.746947946434
30
0
41
1
10
18.3818645192954
20
10.7500740638149
30
0
41
1
10
18.2937167746083
20
10.7574111792088
30
0
41
1
10
18.2541442260828
20
10.7614812623773
30
0
41
1
10
18.2190949919883
20
10.7659255220339
30
0
0
SPLINE
5
385
100
AcDbEntity
8
1
62
256
6
ByLayer
370
18
48
1
60
0
100
AcDbSpline
70
4
71
3
72
14
73
10
40
0
40
0
40
0
40
0
40
0.327529474127691
40
0.327529474127691
40
0.665666599581705
40
0.665666599581705
40
0.915673055310719
40
0.915673055310719
40
1
40
1
40
1
40
1
41
1
10
27.2818911421089
20
8.26872420681752
30
0
41
1
10
27.2674018302568
20
8.27369631404179
30
0
41
1
10
27.2491672437573
20
8.27800903330649
30
0
41
1
10
27.2087776316042
20
8.28514921404364
30
0
41
1
10
27.1858853154573
20
8.28803314203648
30
0
41
1
10
27.1443708076351
20
8.29118975200882
30
0
41
1
10
27.1257541004004
20
8.2919751276637
30
0
41
1
10
27.1010587587742
20
8.29182908257222
30
0
41
1
10
27.0947677523052
20
8.29168615875581
30
0
41
1
10
27.0885720316336
20
8.29141657517758
30
0
0
SPLINE
5
386
100
AcDbEntity
8
1
62
256
6
ByLayer
370
18
48
1
60
0
100
AcDbSpline
70
4
71
3
72
12
73
8
40
0
40
0
40
0
40
0
40
0.25
40
0.25
40
0.499999999999999
40
0.499999999999999
40
1
40
1
40
1
40
1
41
1
10
25.8769998596867
20
4.55678719139951
30
0
41
1
10
25.5803283098762
20
4.18967222956728
30
0
41
1
10
25.1839282329786
20
3.93143312301311
30
0
41
1
10
24.4312564946908
20
3.37000574142682
30
0
41
1
10
24.0544757941948
20
3.08741844453199
30
0
41
1
10
22.9225160653244
20
2.24070503163144
30
0
41
1
10
22.168492331119
20
1.67589662749336
30
0
41
1
10
21.4147382584281
20
1.11106340631172
30
0
0
SPLINE
5
387
100
AcDbEntity
8
1
62
256
6
ByLayer
370
18
48
1
60
0
100
AcDbSpline
70
4
71
3
72
12
73
8
40
0
40
0
40
0
40
0
40
0.133148321068526
40
0.133148321068526
40
0.702614877346734
40
0.702614877346734
40
1
40
1
40
1
40
1
41
1
10
18.4796934830043
20
13.4367046541928
30
0
41
1
10
18.6635213418562
20
13.4350999094141
30
0
41
1
10
18.8473492019919
20
13.433495655627
30
0
41
1
10
19.8173966565973
20
13.425030748595
30
0
41
1
10
20.6036162227982
20
13.4181598594982
30
0
41
1
10
21.800311670589
20
13.4077045814494
30
0
41
1
10
22.2142115449389
20
13.4318688730504
30
0
41
1
10
22.6206969006012
20
13.3731538089164
30
0
0
SPLINE
5
388
100
AcDbEntity
8
1
62
256
6
ByLayer
370
18
48
1
60
0
100
AcDbSpline
70
4
71
3
72
10
73
6
40
0
40
0
40
0
40
0
40
0.478255409340385
40
0.478255409340385
40
1
40
1
40
1
40
1
41
1
10
27.9927311089599
20
10.7412615263348
30
0
41
1
10
27.738490511144
20
10.7872558248926
30
0
41
1
10
27.4846168161833
20
10.8344954526487
30
0
41
1
10
26.9547506212187
20
10.9363713054592
30
0
41
1
10
26.6788316479527
20
10.9912877188418
30
0
41
1
10
26.4036345538713
20
11.0483807242144
30
0
0
SPLINE
5
389
100
AcDbEntity
8
1
62
256
6
ByLayer
370
18
48
1
60
0
100
AcDbSpline
70
4
71
3
72
12
73
8
40
0
40
0
40
0
40
0
40
0.467747243448216
40
0.467747243448216
40
0.914074073580957
40
0.914074073580957
40
1
40
1
40
1
40
1
41
1
10
15.3429909817127
20
11.6924050870366
30
0
41
1
10
15.3670865803506
20
11.7056399441711
30
0
41
1
10
15.3917265583139
20
11.7203706156781
30
0
41
1
10
15.4365348900769
20
11.7495138057948
30
0
41
1
10
15.4575194020131
20
11.7643466751402
30
0
41
1
10
15.4790515679961
20
11.7811530707205
30
0
41
1
10
15.4824748746953
20
11.7838826761298
30
0
41
1
10
15.4857837858502
20
11.7865813769085
30
0
0
SPLINE
5
38A
100
AcDbEntity
8
1
62
256
6
ByLayer
370
18
48
1
60
0
100
AcDbSpline
70
4
71
3
72
14
73
10
40
0
40
0
40
0
40
0
40
0.25
40
0.25
40
0.5
40
0.5
40
0.75
40
0.75
40
1
40
1
40
1
40
1
41
1
10
21.7255506073408
20
3.04654185300131
30
0
41
1
10
22.2705959355801
20
3.3443590805722
30
0
41
1
10
22.8156083992975
20
3.64206426068459
30
0
41
1
10
23.9052822755044
20
4.23751367770826
30
0
41
1
10
24.4876379834361
20
4.48212402691173
30
0
41
1
10
25.4051290439061
20
5.33315077151946
30
0
41
1
10
25.6765146450022
20
5.89717410624951
30
0
41
1
10
26.310555210864
20
6.95300032207457
30
0
41
1
10
26.6275648006498
20
7.48092034076207
30
0
41
1
10
26.9445838022364
20
8.00883442519378
30
0
0
SPLINE
5
38B
100
AcDbEntity
8
1
62
256
6
ByLayer
370
18
48
1
60
0
100
AcDbSpline
70
4
71
3
72
10
73
6
40
0
40
0
40
0
40
0
40
0.266814892217285
40
0.266814892217285
40
1
40
1
40
1
40
1
41
1
10
19.2123406769641
20
11.5870759274404
30
0
41
1
10
19.2180681818068
20
11.6013353188477
30
0
41
1
10
19.2248176261903
20
11.6151339409041
30
0
41
1
10
19.2526719011249
20
11.6646797394116
30
0
41
1
10
19.278547204529
20
11.6976148448799
30
0
41
1
10
19.3070991963835
20
11.7270913199506
30
0
0
SPLINE
5
38C
100
AcDbEntity
8
1
62
256
6
ByLayer
370
18
48
1
60
0
100
AcDbSpline
70
4
71
3
72
12
73
8
40
0
40
0
40
0
40
0
40
0.261466805566835
40
0.261466805566835
40
0.727154521522356
40
0.727154521522356
40
1
40
1
40
1
40
1
41
1
10
25.6272434667171
20
13.6116000228711
30
0
41
1
10
25.600722057133
20
13.6025192933795
30
0
41
1
10
25.5734451477881
20
13.5953187744302
30
0
41
1
10
25.4967884218849
20
13.5824280723097
30
0
41
1
10
25.4456097605515
20
13.5826437961572
30
0
41
1
10
25.3678671800714
20
13.5964837532526
30
0
41
1
10
25.3395025650227
20
13.6044030902048
30
0
41
1
10
25.3120207712943
20
13.6143519776424
30
0
0
SPLINE
5
38D
100
AcDbEntity
8
1
62
256
6
ByLayer
370
18
48
1
60
0
100
AcDbSpline
70
4
71
3
72
16
73
12
40
0
40
0
40
0
40
0
40
0.343443954228583
40
0.343443954228583
40
0.535083245610721
40
0.535083245610721
40
0.693553557835167
40
0.693553557835167
40
0.853171508912958
40
0.853171508912958
40
1
40
1
40
1
40
1
41
1
10
24.0005566694769
20
14.3778510087045
30
0
41
1
10
23.9777170445876
20
14.3913117107323
30
0
41
1
10
23.9560210806206
20
14.4076543435247
30
0
41
1
10
23.9284618914913
20
14.4385383148262
30
0
41
1
10
23.9197073014903
20
14.4509445127954
30
0
41
1
10
23.9080502473367
20
14.4754881726793
30
0
41
1
10
23.9043432056581
20
14.4875604351593
30
0
41
1
10
23.9015544490787
20
14.5120469092396
30
0
41
1
10
23.9025172162641
20
14.5247782229916
30
0
41
1
10
23.9084919868145
20
14.5477952399128
30
0
41
1
10
23.913184928868
20
14.5584589313266
30
0
41
1
10
23.9189825623767
20
14.568306534169
30
0
0
SPLINE
5
38E
100
AcDbEntity
8
1
62
256
6
ByLayer
370
18
48
1
60
0
100
AcDbSpline
70
4
71
3
72
10
73
6
40
0
40
0
40
0
40
0
40
0.410984291904104
40
0.410984291904104
40
1
40
1
40
1
40
1
41
1
10
16.1919467351479
20
12.3374733312079
30
0
41
1
10
16.0895345534135
20
12.2609275176998
30
0
41
1
10
15.9893074790863
20
12.1846800588209
30
0
41
1
10
15.7513747550392
20
12.0004297575547
30
0
41
1
10
15.6160269523235
20
11.8928058472372
30
0
41
1
10
15.4857837858532
20
11.786581376911
30
0
0
SPLINE
5
38F
100
AcDbEntity
8
1
62
256
6
ByLayer
370
18
48
1
60
0
100
AcDbSpline
70
4
71
3
72
12
73
8
40
0
40
0
40
0
40
0
40
0.133148321068526
40
0.133148321068526
40
0.702614877346736
40
0.702614877346736
40
1
40
1
40
1
40
1
41
1
10
27.9706436208272
20
7.99403235820893
30
0
41
1
10
27.8787298035549
20
7.84097223731351
30
0
41
1
10
27.786816418698
20
7.68791188193937
30
0
41
1
10
27.3017961147806
20
6.88022224244827
30
0
41
1
10
26.9086801899087
20
6.225597829062
30
0
41
1
10
26.3103250104028
20
5.22920182804461
30
0
41
1
10
26.1290439218553
20
4.86867805630455
30
0
41
1
10
25.8769998596867
20
4.55678719139949
30
0
0
SPLINE
5
390
100
AcDbEntity
8
1
62
256
6
ByLayer
370
18
48
1
60
0
100
AcDbSpline
70
4
71
3
72
14
73
10
40
0
40
0
40
0
40
0
40
0.25
40
0.25
40
0.5
40
0.5
40
0.75
40
0.75
40
1
40
1
40
1
40
1
41
1
10
18.8119132681408
20
4.1782679855958
30
0
41
1
10
18.496550381995
20
4.70893629750526
30
0
41
1
10
18.1811796413144
20
5.23960029776072
30
0
41
1
10
17.5504547384666
20
6.30093739885052
30
0
41
1
10
17.1878423105484
20
6.81233102683382
30
0
41
1
10
16.8723202228465
20
8.00591557194207
30
0
41
1
10
16.9304630687989
20
8.61525135726208
30
0
41
1
10
16.9245351357944
20
9.82312927696223
30
0
41
1
10
16.9220994093128
20
10.4270768539945
30
0
41
1
10
16.9199977313436
20
11.0310298803619
30
0
0
SPLINE
5
391
100
AcDbEntity
8
1
62
256
6
ByLayer
370
18
48
1
60
0
100
AcDbSpline
70
4
71
3
72
10
73
6
40
0
40
0
40
0
40
0
40
0.410984291904104
40
0.410984291904104
40
1
40
1
40
1
40
1
41
1
10
20.7543435201816
20
1.67388567212007
30
0
41
1
10
20.8510580554239
20
1.59560144406609
30
0
41
1
10
20.9453342903676
20
1.51765593388282
30
0
41
1
10
21.1682294424904
20
1.3293825166069
30
0
41
1
10
21.2942333044179
20
1.21947695598007
30
0
41
1
10
21.4147382584393
20
1.1110634063248
30
0
0
SPLINE
5
392
100
AcDbEntity
8
1
62
256
6
ByLayer
370
18
48
1
60
0
100
AcDbSpline
70
4
71
3
72
12
73
8
40
0
40
0
40
0
40
0
40
0.5
40
0.5
40
0.75
40
0.75
40
1
40
1
40
1
40
1
41
1
10
15.3429909817127
20
11.6924050870366
30
0
41
1
10
15.4708072686749
20
10.7773667764548
30
0
41
1
10
15.5979173382453
20
9.86224263550633
30
0
41
1
10
15.7870937769332
20
8.48937549860419
30
0
41
1
10
15.8523102338427
20
8.03217446845655
30
0
41
1
10
15.9927296400712
20
7.12031600438222
30
0
41
1
10
16.0428520511379
20
6.65941600090876
30
0
41
1
10
16.2197158537473
20
6.22987923382303
30
0
0
SPLINE
5
393
100
AcDbEntity
8
1
62
256
6
ByLayer
370
18
48
1
60
0
100
AcDbSpline
70
4
71
3
72
10
73
6
40
0
40
0
40
0
40
0
40
0.517866865973608
40
0.517866865973608
40
1
40
1
40
1
40
1
41
1
10
16.9654210165837
20
11.0677049740769
30
0
41
1
10
16.8531658310356
20
11.2965858374614
30
0
41
1
10
16.7389617838362
20
11.5254927722053
30
0
41
1
10
16.5154385925524
20
11.9674773252416
30
0
41
1
10
16.4063181444344
20
12.1805669105428
30
0
41
1
10
16.2960775785614
20
12.3936339337417
30
0
0
SPLINE
5
394
100
AcDbEntity
8
1
62
256
6
ByLayer
370
18
48
1
60
0
100
AcDbSpline
70
4
71
3
72
10
73
6
40
0
40
0
40
0
40
0
40
0.517866865973608
40
0.517866865973608
40
1
40
1
40
1
40
1
41
1
10
26.3885479606215
20
10.9361418688145
30
0
41
1
10
26.664259592709
20
10.8784535883346
30
0
41
1
10
26.9406955473247
20
10.8229784923438
30
0
41
1
10
27.4755295943832
20
10.7193184114769
30
0
41
1
10
27.7338688889538
20
10.6708958715188
30
0
41
1
10
27.9925858529907
20
10.6237759467382
30
0
0
SPLINE
5
395
100
AcDbEntity
8
1
62
256
6
ByLayer
370
18
48
1
60
0
100
AcDbSpline
70
4
71
3
72
12
73
8
40
0
40
0
40
0
40
0
40
0.133148321068526
40
0.133148321068526
40
0.702614877346734
40
0.702614877346734
40
1
40
1
40
1
40
1
41
1
10
18.4224217960279
20
2.81344758954872
30
0
41
1
10
18.3305077457749
20
2.96811238867059
30
0
41
1
10
18.2385932656751
20
3.12277696084061
30
0
41
1
10
17.7535661017026
20
3.93893140542905
30
0
41
1
10
17.3604623670522
20
4.60042599185478
30
0
41
1
10
16.7621223103945
20
5.60727889474737
30
0
41
1
10
16.5290698659175
20
5.94031088544908
30
0
41
1
10
16.3742767596402
20
6.3082173335589
30
0
0
SPLINE
5
396
100
AcDbEntity
8
1
62
256
6
ByLayer
370
18
48
1
60
0
100
AcDbSpline
70
4
71
3
72
8
73
4
40
0
40
0
40
0
40
0
40
1
40
1
40
1
40
1
41
1
10
18.4224217960282
20
2.81344758956359
30
0
41
1
10
18.4322325567302
20
2.81007506922543
30
0
41
1
10
18.4420433159875
20
2.80670255039279
30
0
41
1
10
18.4518540738102
20
2.80333003305523
30
0
0
SPLINE
5
397
100
AcDbEntity
8
1
62
256
6
ByLayer
370
18
48
1
60
0
100
AcDbSpline
70
4
71
3
72
12
73
8
40
0
40
0
40
0
40
0
40
0.0143412310805827
40
0.0143412310805827
40
0.547790989098479
40
0.547790989098479
40
1
40
1
40
1
40
1
41
1
10
25.7036396102736
20
8.68134931434859
30
0
41
1
10
25.7045134748836
20
8.68035750644312
30
0
41
1
10
25.705387674048
20
8.67936685799654
30
0
41
1
10
25.7387852312257
20
8.64153444624711
30
0
41
1
10
25.7714599721077
20
8.60556333488096
30
0
41
1
10
25.828977818041
20
8.54370644752413
30
0
41
1
10
25.8547023337452
20
8.51666409530839
30
0
41
1
10
25.8775814666787
20
8.49307889116832
30
0
0
SPLINE
5
398
100
AcDbEntity
8
1
62
256
6
ByLayer
370
18
48
1
60
0
100
AcDbSpline
70
4
71
3
72
14
73
10
40
0
40
0
40
0
40
0
40
0.25
40
0.25
40
0.5
40
0.5
40
0.75
40
0.75
40
1
40
1
40
1
40
1
41
1
10
19.3021114580398
20
12.898914991932
30
0
41
1
10
19.932839627857
20
12.8934072758679
30
0
41
1
10
20.5635677999709
20
12.8879083240797
30
0
41
1
10
21.8250241393511
20
12.8768919218056
30
0
41
1
10
22.4617360688613
20
12.9207230479926
30
0
41
1
10
23.6865591972344
20
12.5787045974201
30
0
41
1
10
24.2039476088935
20
12.2206009054076
30
0
41
1
10
25.2892033664939
20
11.6121749628199
30
0
41
1
10
25.8315789791771
20
11.30751544675
30
0
41
1
10
26.3737950637709
20
11.0025735446201
30
0
0
SPLINE
5
399
100
AcDbEntity
8
1
62
256
6
ByLayer
370
18
48
1
60
0
100
AcDbSpline
70
4
71
3
72
8
73
4
40
0
40
0
40
0
40
0
40
1
40
1
40
1
40
1
41
1
10
27.1960982700777
20
8.37426385847611
30
0
41
1
10
27.1602561971718
20
8.34664809459197
30
0
41
1
10
27.1244141194782
20
8.31903233273538
30
0
41
1
10
27.0885720316336
20
8.29141657517759
30
0
0
SPLINE
5
39A
100
AcDbEntity
8
1
62
256
6
ByLayer
370
18
48
1
60
0
100
AcDbSpline
70
4
71
3
72
12
73
8
40
0
40
0
40
0
40
0
40
0.330584430932533
40
0.330584430932533
40
0.914285519682807
40
0.914285519682807
40
1
40
1
40
1
40
1
41
1
10
27.9706436208259
20
7.99403235820678
30
0
41
1
10
27.9697880059477
20
7.95313521021698
30
0
41
1
10
27.9691888033548
20
7.90880364173663
30
0
41
1
10
27.9679761733355
20
7.78845176693918
30
0
41
1
10
27.96766508615
20
7.71054866513958
30
0
41
1
10
27.96770406777
20
7.6256748181009
30
0
41
1
10
27.9677171193104
20
7.61476572074857
30
0
41
1
10
27.9677382692745
20
7.60393394710891
30
0
0
SPLINE
5
39B
100
AcDbEntity
8
1
62
256
6
ByLayer
370
18
48
1
60
0
100
AcDbSpline
70
4
71
3
72
12
73
8
40
0
40
0
40
0
40
0
40
0.0143412310805936
40
0.0143412310805936
40
0.547790989098489
40
0.547790989098489
40
1
40
1
40
1
40
1
41
1
10
19.1141930630267
20
11.3263104039416
30
0
41
1
10
19.1146380198314
20
11.3275300265649
30
0
41
1
10
19.1150828591304
20
11.3287507400948
30
0
41
1
10
19.132106651109
20
11.3754324644403
30
0
41
1
10
19.1493298131891
20
11.4224920997784
30
0
41
1
10
19.181729795664
20
11.5089070788987
30
0
41
1
10
19.197048292331
20
11.5490034850728
30
0
41
1
10
19.2123406769641
20
11.5870759274404
30
0
0
SPLINE
5
39C
100
AcDbEntity
8
1
62
256
6
ByLayer
370
18
48
1
60
0
100
AcDbSpline
70
4
71
3
72
8
73
4
40
0
40
0
40
0
40
0
40
1
40
1
40
1
40
1
41
1
10
18.4518540738102
20
2.80333003305525
30
0
41
1
10
18.5817886451391
20
3.07982121696676
30
0
41
1
10
18.711723216468
20
3.35631240087827
30
0
41
1
10
18.841657787797
20
3.63280358478978
30
0
0
SPLINE
5
39D
100
AcDbEntity
8
1
62
256
6
ByLayer
370
18
48
1
60
0
100
AcDbSpline
70
4
71
3
72
8
73
4
40
0
40
0
40
0
40
0
40
1
40
1
40
1
40
1
41
1
10
18.4796934830159
20
13.4367046541888
30
0
41
1
10
18.4704136783396
20
13.4334987981589
30
0
41
1
10
18.4611338752748
20
13.4302929436079
30
0
41
1
10
18.4518540738102
20
13.4270870905254
30
0
0
SPLINE
5
39E
100
AcDbEntity
8
1
62
256
6
ByLayer
370
18
48
1
60
0
100
AcDbSpline
70
4
71
3
72
10
73
6
40
0
40
0
40
0
40
0
40
0.517866865973608
40
0.517866865973608
40
1
40
1
40
1
40
1
41
1
10
21.6328107767016
20
3.11522672075574
30
0
41
1
10
21.4607891716604
20
2.87831315469468
30
0
41
1
10
21.2901360063188
20
2.64026449067642
30
0
41
1
10
20.9627904049671
20
2.17890443851547
30
0
41
1
10
20.805942315448
20
1.95569774618579
30
0
41
1
10
20.6499221648313
20
1.73186697547153
30
0
0
SPLINE
5
39F
100
AcDbEntity
8
1
62
256
6
ByLayer
370
18
48
1
60
0
100
AcDbSpline
70
4
71
3
72
16
73
12
40
0
40
0
40
0
40
0
40
0.343443954228571
40
0.343443954228571
40
0.535083245610716
40
0.535083245610716
40
0.693553557835154
40
0.693553557835154
40
0.853171508912943
40
0.853171508912943
40
1
40
1
40
1
40
1
41
1
10
26.0745015988431
20
2.9460289298591
30
0
41
1
10
26.0971815389148
20
2.95974691899183
30
0
41
1
10
26.1217451630441
20
2.97135712578721
30
0
41
1
10
26.1615439340643
20
2.98205929744894
30
0
41
1
10
26.1763903903561
20
2.98442192735453
30
0
41
1
10
26.2029724377074
20
2.98436151547432
30
0
41
1
10
26.215048992778
20
2.9826372454099
30
0
41
1
10
26.2372140737744
20
2.97518476405526
30
0
41
1
10
26.2475499386643
20
2.96929265425186
30
0
41
1
10
26.264150507472
20
2.95510001311216
30
0
41
1
10
26.2708933253452
20
2.94691521885832
30
0
41
1
10
26.2763990485131
20
2.93813286442284
30
0
0
SPLINE
5
3A0
100
AcDbEntity
8
1
62
256
6
ByLayer
370
18
48
1
60
0
100
AcDbSpline
70
4
71
3
72
12
73
8
40
0
40
0
40
0
40
0
40
0.261466805566861
40
0.261466805566861
40
0.727154521522377
40
0.727154521522377
40
1
40
1
40
1
40
1
41
1
10
14.6156223539733
20
8.68448377644286
30
0
41
1
10
14.6365463242996
20
8.66589083296888
30
0
41
1
10
14.6563762789918
20
8.64600228236989
30
0
41
1
10
14.7060237412617
20
8.58712790448912
30
0
41
1
10
14.7318088479412
20
8.54416781902857
30
0
41
1
10
14.7596894164576
20
8.47329691646206
30
0
41
1
10
14.7674825230303
20
8.44627046122039
30
0
41
1
10
14.7732337016847
20
8.41926890876144
30
0
0
SPLINE
5
3A1
100
AcDbEntity
8
1
62
256
6
ByLayer
370
18
48
1
60
0
100
AcDbSpline
70
4
71
3
72
10
73
6
40
0
40
0
40
0
40
0
40
0.391412264300147
40
0.391412264300147
40
1
40
1
40
1
40
1
41
1
10
18.7395753362846
20
4.12829475112629
30
0
41
1
10
18.7528940510346
20
4.06364762669551
30
0
41
1
10
18.7662127943232
20
3.99900051075494
30
0
41
1
10
18.8002402585071
20
3.83383678258299
30
0
41
1
10
18.8209490132556
20
3.73332018061485
30
0
41
1
10
18.841657787797
20
3.63280358478978
30
0
0
SPLINE
5
3A2
100
AcDbEntity
8
1
62
256
6
ByLayer
370
18
48
1
60
0
100
AcDbSpline
70
4
71
3
72
10
73
6
40
0
40
0
40
0
40
0
40
0.732128243131976
40
0.732128243131976
40
1
40
1
40
1
40
1
41
1
10
21.0669341450954
20
4.06042445195934
30
0
41
1
10
21.09554704497
20
4.03692064977375
30
0
41
1
10
21.1306834049092
20
4.02189487862184
30
0
41
1
10
21.1815066995762
20
4.01068191246851
30
0
41
1
10
21.1956175622519
20
4.00856225368716
30
0
41
1
10
21.2099766753257
20
4.00728655559953
30
0
0
SPLINE
5
3A3
100
AcDbEntity
8
1
62
256
6
ByLayer
370
18
48
1
60
0
100
AcDbSpline
70
4
71
3
72
12
73
8
40
0
40
0
40
0
40
0
40
0.454187976028949
40
0.454187976028949
40
0.987490284578529
40
0.987490284578529
40
1
40
1
40
1
40
1
41
1
10
19.8559672128529
20
4.40659447245542
30
0
41
1
10
19.8876666577619
20
4.41516431255893
30
0
41
1
10
19.9228061897246
20
4.42831672208835
30
0
41
1
10
20.0004222224306
20
4.46189583836632
30
0
41
1
10
20.0441113476833
20
4.48363636454283
30
0
41
1
10
20.0883772723992
20
4.50765306655602
30
0
41
1
10
20.0893910746832
20
4.50820447673088
30
0
41
1
10
20.0904051113828
20
4.50875652904573
30
0
0
SPLINE
5
3A4
100
AcDbEntity
8
1
62
256
6
ByLayer
370
18
48
1
60
0
100
AcDbSpline
70
4
71
3
72
14
73
10
40
0
40
0
40
0
40
0
40
0.25
40
0.25
40
0.5
40
0.5
40
0.75
40
0.75
40
1
40
1
40
1
40
1
41
1
10
26.875121139623
20
8.0600459068979
30
0
41
1
10
26.5597558559516
20
7.53488531105252
30
0
41
1
10
26.2443984245182
20
7.00972026258526
30
0
41
1
10
25.6136669879859
20
5.95939956376959
30
0
41
1
10
25.3395674863939
20
5.40417480959927
30
0
41
1
10
24.4302664457227
20
4.55260871506347
30
0
41
1
10
23.8547351881112
20
4.30137662175606
30
0
41
1
10
22.7754073635153
20
3.7019246446436
30
0
41
1
10
22.2354674773138
20
3.40263658368117
30
0
41
1
10
21.695353070689
20
3.10362545944372
30
0
0
SPLINE
5
3A5
100
AcDbEntity
8
1
62
256
6
ByLayer
370
18
48
1
60
0
100
AcDbSpline
70
4
71
3
72
10
73
6
40
0
40
0
40
0
40
0
40
0.274190864391853
40
0.274190864391853
40
1
40
1
40
1
40
1
41
1
10
25.5370936238325
20
9.94616961084427
30
0
41
1
10
25.5407300904676
20
9.93095253618625
30
0
41
1
10
25.5437578433534
20
9.91556421927888
30
0
41
1
10
25.5521939772211
20
9.85937525563604
30
0
41
1
10
25.5537438354538
20
9.81720520575826
30
0
41
1
10
25.5473250995198
20
9.77614151708666
30
0
0
SPLINE
5
3A6
100
AcDbEntity
8
1
62
256
6
ByLayer
370
18
48
1
60
0
100
AcDbSpline
70
4
71
3
72
16
73
12
40
0
40
0
40
0
40
0
40
0.164710736630282
40
0.164710736630282
40
0.331370362656757
40
0.331370362656757
40
0.476446336500482
40
0.476446336500482
40
0.702801041235996
40
0.702801041235996
40
1
40
1
40
1
40
1
41
1
10
24.7175324437116
20
0.34222415686348
30
0
41
1
10
24.7049909718527
20
0.34140978876755
30
0
41
1
10
24.6922625776244
20
0.342177075783241
30
0
41
1
10
24.6684232060302
20
0.348007829133309
30
0
41
1
10
24.6570450132149
20
0.3532629869201
30
0
41
1
10
24.6390948530702
20
0.366489140466427
30
0
41
1
10
24.6318575178499
20
0.374129704404396
30
0
41
1
10
24.6167389657059
20
0.39547075446022
30
0
41
1
10
24.6103844669917
20
0.410472809878201
30
0
41
1
10
24.6006647466336
20
0.446053528325137
30
0
41
1
10
24.5986254678815
20
0.467437493381041
30
0
41
1
10
24.5988645926196
20
0.488718636691232
30
0
0
SPLINE
5
3A7
100
AcDbEntity
8
1
62
256
6
ByLayer
370
18
48
1
60
0
100
AcDbSpline
70
4
71
3
72
12
73
8
40
0
40
0
40
0
40
0
40
0.467747243448215
40
0.467747243448215
40
0.914074073580958
40
0.914074073580958
40
1
40
1
40
1
40
1
41
1
10
27.9676367675518
20
11.4681317191799
30
0
41
1
10
27.9676367675518
20
11.441241286488
30
0
41
1
10
27.9678047687211
20
11.4152199029731
30
0
41
1
10
27.9684408851307
20
11.3708051387946
30
0
41
1
10
27.9689050788719
20
11.3514664680479
30
0
41
1
10
27.9696040798988
20
11.3335803542442
30
0
41
1
10
27.9697233006748
20
11.3308078176535
30
0
41
1
10
27.9698470034405
20
11.3282023377105
30
0
0
SPLINE
5
3A8
100
AcDbEntity
8
1
62
256
6
ByLayer
370
18
48
1
60
0
100
AcDbSpline
70
4
71
3
72
10
73
6
40
0
40
0
40
0
40
0
40
0.274190864391849
40
0.274190864391849
40
1
40
1
40
1
40
1
41
1
10
18.1083482583879
20
10.6187453443003
30
0
41
1
10
18.1178136763018
20
10.6263375958846
30
0
41
1
10
18.1277317579301
20
10.6334920672926
30
0
41
1
10
18.1653450807249
20
10.6575096586626
30
0
41
1
10
18.1961273467594
20
10.6716909989663
30
0
41
1
10
18.2303437865054
20
10.6791372830204
30
0
0
SPLINE
5
3A9
100
AcDbEntity
8
1
62
256
6
ByLayer
370
18
48
1
60
0
100
AcDbSpline
70
4
71
3
72
12
73
8
40
0
40
0
40
0
40
0
40
0.330584430932538
40
0.330584430932538
40
0.914285519682815
40
0.914285519682815
40
1
40
1
40
1
40
1
41
1
10
18.4224217960266
20
2.81344758955089
30
0
41
1
10
18.3908024813725
20
2.82431695890853
30
0
41
1
10
18.3545991319206
20
2.83989699730455
30
0
41
1
10
18.2538808160444
20
2.88698476242685
30
0
41
1
10
18.1859023201932
20
2.92294657642316
30
0
41
1
10
18.1096207244808
20
2.96649845578358
30
0
41
1
10
18.0997687695911
20
2.97218934576114
30
0
41
1
10
18.0899385190016
20
2.97793466464839
30
0
0
SPLINE
5
3AA
100
AcDbEntity
8
1
62
256
6
ByLayer
370
18
48
1
60
0
100
AcDbSpline
70
4
71
3
72
8
73
4
40
0
40
0
40
0
40
0
40
1
40
1
40
1
40
1
41
1
10
27.0885720316336
20
8.29141657517758
30
0
41
1
10
27.0119783582809
20
8.23240237034284
30
0
41
1
10
26.9353846359149
20
8.17338818626449
30
0
41
1
10
26.8587908348412
20
8.11437403551777
30
0
0
SPLINE
5
3AB
100
AcDbEntity
8
1
62
256
6
ByLayer
370
18
48
1
60
0
100
AcDbSpline
70
4
71
3
72
10
73
6
40
0
40
0
40
0
40
0
40
0.226375763220905
40
0.226375763220905
40
1
40
1
40
1
40
1
41
1
10
21.9484465611596
20
4.05781435542106
30
0
41
1
10
21.8969182829839
20
4.05514946332005
30
0
41
1
10
21.8455712606041
20
4.05329065520247
30
0
41
1
10
21.6198187422762
20
4.04862934955653
30
0
41
1
10
21.4473950554861
20
4.0543821082979
30
0
41
1
10
21.2781625817238
20
4.06941075862889
30
0
0
SPLINE
5
3AC
100
AcDbEntity
8
1
62
256
6
ByLayer
370
18
48
1
60
0
100
AcDbSpline
70
4
71
3
72
8
73
4
40
0
40
0
40
0
40
0
40
1
40
1
40
1
40
1
41
1
10
18.97496060952
20
3.65907187835384
30
0
41
1
10
18.9641133525195
20
3.7117225030965
30
0
41
1
10
18.9532661003012
20
3.76437312941364
30
0
41
1
10
18.9424188582224
20
3.81702375906897
30
0
0
SPLINE
5
3AD
100
AcDbEntity
8
1
62
256
6
ByLayer
370
18
48
1
60
0
100
AcDbSpline
70
4
71
3
72
10
73
6
40
0
40
0
40
0
40
0
40
0.22637557540842
40
0.22637557540842
40
1
40
1
40
1
40
1
41
1
10
19.6762585036751
20
4.52733504439283
30
0
41
1
10
19.628592810144
20
4.55072799417768
30
0
41
1
10
19.5811403209123
20
4.57493164076196
30
0
41
1
10
19.3727139396045
20
4.68529852225832
30
0
41
1
10
19.214060843335
20
4.78008016715607
30
0
41
1
10
19.0589380243045
20
4.88381645572153
30
0
0
SPLINE
5
3AE
100
AcDbEntity
8
1
62
256
6
ByLayer
370
18
48
1
60
0
100
AcDbSpline
70
4
71
3
72
12
73
8
40
0
40
0
40
0
40
0
40
0.467747243448202
40
0.467747243448202
40
0.914074073580958
40
0.914074073580958
40
1
40
1
40
1
40
1
41
1
10
21.5531105908024
20
1.01443249072015
30
0
41
1
10
21.5290149921644
20
1.02808806627752
30
0
41
1
10
21.5047110165396
20
1.04324602791486
30
0
41
1
10
21.4611749175958
20
1.07316048190668
30
0
41
1
10
21.441118793142
20
1.08835164390291
30
0
41
1
10
21.4209846292129
20
1.10552179455884
30
0
41
1
10
21.4177997640656
20
1.10830909057955
30
0
41
1
10
21.4147382584421
20
1.11106340632225
30
0
0
SPLINE
5
3AF
100
AcDbEntity
8
1
62
256
6
ByLayer
370
18
48
1
60
0
100
AcDbSpline
70
4
71
3
72
10
73
6
40
0
40
0
40
0
40
0
40
0.391412264300148
40
0.391412264300148
40
1
40
1
40
1
40
1
41
1
10
19.3006740929248
20
12.9670086018599
30
0
41
1
10
19.2407858967978
20
12.9780994642931
30
0
41
1
10
19.1808976968147
20
12.9891902925749
30
0
41
1
10
19.0278922639896
20
13.0175256330038
30
0
41
1
10
18.9347750269684
20
13.0347701040285
30
0
41
1
10
18.841657787797
20
13.0520145505565
30
0
0
SPLINE
5
3B0
100
AcDbEntity
8
1
62
256
6
ByLayer
370
18
48
1
60
0
100
AcDbSpline
70
4
71
3
72
10
73
6
40
0
40
0
40
0
40
0
40
0.732128243131975
40
0.732128243131975
40
1
40
1
40
1
40
1
41
1
10
25.62930698329
20
9.74453223567866
30
0
41
1
10
25.6442296069906
20
9.79067433906292
30
0
41
1
10
25.6491857629364
20
9.83929823244098
30
0
41
1
10
25.6461892969652
20
9.9035185955281
30
0
41
1
10
25.6443973747088
20
9.92077189783308
30
0
41
1
10
25.6417224818096
20
9.93781678821119
30
0
0
SPLINE
5
3B1
100
AcDbEntity
8
1
62
256
6
ByLayer
370
18
48
1
60
0
100
AcDbSpline
70
4
71
3
72
12
73
8
40
0
40
0
40
0
40
0
40
0.0125097154214869
40
0.0125097154214869
40
0.545812023971055
40
0.545812023971055
40
1
40
1
40
1
40
1
41
1
10
20.9308505034942
20
4.26850471797913
30
0
41
1
10
20.9314029106092
20
4.26750487813764
30
0
41
1
10
20.9319552074315
20
4.26650577897531
30
0
41
1
10
20.9560914400211
20
4.2229354660698
30
0
41
1
10
20.9805097376841
20
4.18172558250726
30
0
41
1
10
21.0256022464102
20
4.11306869724018
30
0
41
1
10
21.0467091215533
20
4.08383754981777
30
0
41
1
10
21.0669341450954
20
4.06042445195934
30
0
0
SPLINE
5
3B2
100
AcDbEntity
8
1
62
256
6
ByLayer
370
18
48
1
60
0
100
AcDbSpline
70
4
71
3
72
10
73
6
40
0
40
0
40
0
40
0
40
0.726371168591117
40
0.726371168591117
40
1
40
1
40
1
40
1
41
1
10
19.6956521718089
20
4.4401751262638
30
0
41
1
10
19.7326559778971
20
4.42200437284713
30
0
41
1
10
19.7718713743437
20
4.40971553493793
30
0
41
1
10
19.8260619562369
20
4.40505335498733
30
0
41
1
10
19.8410875944163
20
4.40505793585578
30
0
41
1
10
19.8559672128529
20
4.40659447245542
30
0
0
SPLINE
5
3B3
100
AcDbEntity
8
1
62
256
6
ByLayer
370
18
48
1
60
0
100
AcDbSpline
70
4
71
1
72
4
73
2
40
0
40
0
40
1
40
1
41
1
10
18.841657787797
20
13.0520145505565
30
0
41
1
10
18.4518540738102
20
13.4270870905254
30
0
0
SPLINE
5
3B4
100
AcDbEntity
8
1
62
256
6
ByLayer
370
18
48
1
60
0
100
AcDbSpline
70
4
71
3
72
12
73
8
40
0
40
0
40
0
40
0
40
0.25
40
0.25
40
0.5
40
0.5
40
1
40
1
40
1
40
1
41
1
10
16.3742767596402
20
6.30821733355889
30
0
41
1
10
16.1920756383594
20
6.74126612354765
30
0
41
1
10
16.1541333703243
20
7.20800101899223
30
0
41
1
10
16.0198803383177
20
8.12688326917991
30
0
41
1
10
15.9527169336274
20
8.5843686137775
30
0
41
1
10
15.7535014810233
20
9.95640384382926
30
0
41
1
10
15.619817564408
20
10.871374581731
30
0
41
1
10
15.4857837858476
20
11.7865813769256
30
0
0
SPLINE
5
3B5
100
AcDbEntity
8
1
62
256
6
ByLayer
370
18
48
1
60
0
100
AcDbSpline
70
4
71
3
72
12
73
8
40
0
40
0
40
0
40
0
40
0.327536934741046
40
0.327536934741046
40
0.689545574034048
40
0.689545574034048
40
1
40
1
40
1
40
1
41
1
10
26.0026726021947
20
4.43683464521467
30
0
41
1
10
26.2922396903953
20
4.72642234000736
30
0
41
1
10
26.4681545913445
20
5.10677964436746
30
0
41
1
10
26.9089818979823
20
5.84085294493119
30
0
41
1
10
27.1405284349886
20
6.22640817116236
30
0
41
1
10
27.5706224736965
20
6.94262393104319
30
0
41
1
10
27.7691794415493
20
7.27327943331382
30
0
41
1
10
27.9677382692748
20
7.60393394708588
30
0
0
SPLINE
5
3B6
100
AcDbEntity
8
1
62
256
6
ByLayer
370
18
48
1
60
0
100
AcDbSpline
70
4
71
3
72
14
73
10
40
0
40
0
40
0
40
0
40
0.327529474127723
40
0.327529474127723
40
0.665666599581732
40
0.665666599581732
40
0.915673055310746
40
0.915673055310746
40
1
40
1
40
1
40
1
41
1
10
18.841657787797
20
3.6328035847898
30
0
41
1
10
18.8498486317917
20
3.65023309666006
30
0
41
1
10
18.8597769717904
20
3.67001471189579
30
0
41
1
10
18.8812971663476
20
3.71115975216539
30
0
41
1
10
18.8932674353261
20
3.73319246082994
30
0
41
1
10
18.9145703003358
20
3.77085242419409
30
0
41
1
10
18.9240002756313
20
3.78704284713415
30
0
41
1
10
18.936277330067
20
3.80720442698076
30
0
41
1
10
18.9393842006096
20
3.81222342345878
30
0
41
1
10
18.9424188582224
20
3.81702375906896
30
0
0
SPLINE
5
3B7
100
AcDbEntity
8
1
62
256
6
ByLayer
370
18
48
1
60
0
100
AcDbSpline
70
4
71
3
72
14
73
10
40
0
40
0
40
0
40
0
40
0.230106848183428
40
0.230106848183428
40
0.557861158783463
40
0.557861158783463
40
0.896229002650402
40
0.896229002650402
40
1
40
1
40
1
40
1
41
1
10
18.9424188582224
20
12.9080443598928
30
0
41
1
10
18.9342335253242
20
12.9228812246747
30
0
41
1
10
18.92551682956
20
12.9375114925896
30
0
41
1
10
18.9050188156099
20
12.9702350285905
30
0
41
1
10
18.8930348914512
20
12.987938699349
30
0
41
1
10
18.8704083682928
20
13.0191246603893
30
0
41
1
10
18.8594721872142
20
13.0329312189789
30
0
41
1
10
18.8470864196903
20
13.046572530469
30
0
41
1
10
18.8442835414062
20
13.0494880274881
30
0
41
1
10
18.841657787797
20
13.0520145505565
30
0
0
SPLINE
5
3B8
100
AcDbEntity
8
1
62
256
6
ByLayer
370
18
48
1
60
0
100
AcDbSpline
70
4
71
3
72
12
73
8
40
0
40
0
40
0
40
0
40
0.261466805566812
40
0.261466805566812
40
0.727154521522322
40
0.727154521522322
40
1
40
1
40
1
40
1
41
1
10
24.6225955668832
20
1.89210654614651
30
0
41
1
10
24.6279492604224
20
1.91790994335993
30
0
41
1
10
24.6352265861979
20
1.94369744019492
30
0
41
1
10
24.6619383003949
20
2.01317940523874
30
0
41
1
10
24.6873278174071
20
2.05589278578103
30
0
41
1
10
24.7374770489019
20
2.11512758421779
30
0
41
1
10
24.758222170312
20
2.13556684513065
30
0
41
1
10
24.7802069145946
20
2.15456945905656
30
0
0
SPLINE
5
3B9
100
AcDbEntity
8
1
62
256
6
ByLayer
370
18
48
1
60
0
100
AcDbSpline
70
4
71
3
72
12
73
8
40
0
40
0
40
0
40
0
40
0.5
40
0.5
40
0.75
40
0.75
40
1
40
1
40
1
40
1
41
1
10
21.5531105908024
20
1.01443249072014
30
0
41
1
10
22.3081371513172
20
1.57178340465248
30
0
41
1
10
23.0635992548058
20
2.12858541575793
30
0
41
1
10
24.197710509592
20
2.96263137680881
30
0
41
1
10
24.5742743373459
20
3.24224539713188
30
0
41
1
10
25.3200513943134
20
3.80858083456886
30
0
41
1
10
25.7075948468091
20
4.077380777896
30
0
41
1
10
26.0026726021947
20
4.43683464521467
30
0
0
SPLINE
5
3BA
100
AcDbEntity
8
1
62
256
6
ByLayer
370
18
48
1
60
0
100
AcDbSpline
70
4
71
3
72
10
73
6
40
0
40
0
40
0
40
0
40
0.410984291904105
40
0.410984291904105
40
1
40
1
40
1
40
1
41
1
10
27.9927311089615
20
10.7412615263345
30
0
41
1
10
27.9898822857154
20
10.8305139847617
30
0
41
1
10
27.9869068660213
20
10.9162152239417
30
0
41
1
10
27.9793880800591
20
11.1156626338047
30
0
41
1
10
27.974716109665
20
11.2256471640981
30
0
41
1
10
27.9698470034406
20
11.3282023377081
30
0
0
SPLINE
5
3BB
100
AcDbEntity
8
1
62
256
6
ByLayer
370
18
48
1
60
0
100
AcDbSpline
70
4
71
3
72
10
73
6
40
0
40
0
40
0
40
0
40
0.478255409340384
40
0.478255409340384
40
1
40
1
40
1
40
1
41
1
10
20.7543435201827
20
1.67388567212137
30
0
41
1
10
20.9073191302082
20
1.89415560213463
30
0
41
1
10
21.0610794692704
20
2.11383305110125
30
0
41
1
10
21.3845115042129
20
2.57164053042244
30
0
41
1
10
21.5543639372476
20
2.80964541248348
30
0
41
1
10
21.7255506073408
20
3.04654185300131
30
0
0
SPLINE
5
3BC
100
AcDbEntity
8
1
62
256
6
ByLayer
370
18
48
1
60
0
100
AcDbSpline
70
4
71
3
72
10
73
6
40
0
40
0
40
0
40
0
40
0.478255409340384
40
0.478255409340384
40
1
40
1
40
1
40
1
41
1
10
16.1919467351485
20
12.3374733312065
30
0
41
1
10
16.3006622665308
20
12.1283775776632
30
0
41
1
10
16.4083100834275
20
11.9192728793401
30
0
41
1
10
16.6307063863649
20
11.4820680425529
30
0
41
1
10
16.7452196347329
20
11.2539588533963
30
0
41
1
10
16.8578221252011
20
11.0258968572197
30
0
0
SPLINE
5
3BD
100
AcDbEntity
8
1
62
256
6
ByLayer
370
18
48
1
60
0
100
AcDbSpline
70
4
71
3
72
8
73
4
40
0
40
0
40
0
40
0
40
1
40
1
40
1
40
1
41
1
10
18.9424188582224
20
12.9080443598928
30
0
41
1
10
19.0466494978793
20
12.8887417666362
30
0
41
1
10
19.1508801341183
20
12.8694391098461
30
0
41
1
10
19.2551107648685
20
12.8501363510313
30
0
0
SPLINE
5
3BE
100
AcDbEntity
8
1
62
256
6
ByLayer
370
18
48
1
60
0
100
AcDbSpline
70
4
71
3
72
12
73
8
40
0
40
0
40
0
40
0
40
0.452209010901525
40
0.452209010901525
40
0.985658768919419
40
0.985658768919419
40
1
40
1
40
1
40
1
41
1
10
18.2303437865054
20
10.6791372830204
30
0
41
1
10
18.2641976291211
20
10.6865046576015
30
0
41
1
10
18.3018877262393
20
10.6954191508014
30
0
41
1
10
18.3860493672306
20
10.7167751874853
30
0
41
1
10
18.4337722549101
20
10.7297636326976
30
0
41
1
10
18.4827022159401
20
10.744061695237
30
0
41
1
10
18.4839828755062
20
10.7444363504049
30
0
41
1
10
18.4852635809602
20
10.7448122475507
30
0
0
SPLINE
5
3BF
100
AcDbEntity
8
1
62
256
6
ByLayer
370
18
48
1
60
0
100
AcDbSpline
70
4
71
3
72
10
73
6
40
0
40
0
40
0
40
0
40
0.226375763220908
40
0.226375763220908
40
1
40
1
40
1
40
1
41
1
10
25.369305185774
20
10.7182811694554
30
0
41
1
10
25.3856542429581
20
10.6610088325352
30
0
41
1
10
25.4011729432837
20
10.6034712187011
30
0
41
1
10
25.4659962509763
20
10.3484438108969
30
0
41
1
10
25.5064716957784
20
10.1482038662516
30
0
41
1
10
25.5370936238325
20
9.94616961084427
30
0
0
SPLINE
5
3C0
100
AcDbEntity
8
1
62
256
6
ByLayer
370
18
48
1
60
0
100
AcDbSpline
70
4
71
3
72
14
73
10
40
0
40
0
40
0
40
0
40
0.264919990892554
40
0.264919990892554
40
0.530416812891267
40
0.530416812891267
40
0.787654584874259
40
0.787654584874259
40
1
40
1
40
1
40
1
41
1
10
16.2960775785617
20
12.3936339337411
30
0
41
1
10
16.2886653298827
20
12.3912919521808
30
0
41
1
10
16.2800574587705
20
12.3879627364329
30
0
41
1
10
16.2617614875413
20
12.3797915165682
30
0
41
1
10
16.2518106635344
20
12.3748280996336
30
0
41
1
10
16.2323471287571
20
12.3641439939173
30
0
41
1
10
16.222557626267
20
12.3583007511012
30
0
41
1
10
16.2058372400413
20
12.3474682796945
30
0
41
1
10
16.1985340034012
20
12.3423968451739
30
0
41
1
10
16.1919467351485
20
12.3374733312065
30
0
0
SPLINE
5
3C1
100
AcDbEntity
8
1
62
256
6
ByLayer
370
18
48
1
60
0
100
AcDbSpline
70
4
71
3
72
10
73
6
40
0
40
0
40
0
40
0
40
0.391412264300148
40
0.391412264300148
40
1
40
1
40
1
40
1
41
1
10
26.9445838022364
20
8.00883442519378
30
0
41
1
10
26.9885926006967
20
8.04274241111925
30
0
41
1
10
27.0326013730352
20
8.07665041166406
30
0
41
1
10
27.1450371715576
20
8.16328032939643
30
0
41
1
10
27.213464166236
20
8.21600226339169
30
0
41
1
10
27.2818911421089
20
8.26872420681751
30
0
0
SPLINE
5
3C2
100
AcDbEntity
8
1
62
256
6
ByLayer
370
18
48
1
60
0
100
AcDbSpline
70
4
71
3
72
12
73
8
40
0
40
0
40
0
40
0
40
0.327536934741045
40
0.327536934741045
40
0.689545574034048
40
0.689545574034048
40
1
40
1
40
1
40
1
41
1
10
16.2197158537473
20
6.22987923382304
30
0
41
1
10
16.3366871891321
20
5.84043486498155
30
0
41
1
10
16.5903850099619
20
5.50128785112501
30
0
41
1
10
17.0311977257408
20
4.75951000308643
30
0
41
1
10
17.262718381231
20
4.3698985230982
30
0
41
1
10
17.6928124023523
20
3.6461731467451
30
0
41
1
10
17.891376382647
20
3.31205438378916
30
0
41
1
10
18.0899385189807
20
2.97793466466001
30
0
0
SPLINE
5
3C3
100
AcDbEntity
8
1
62
256
6
ByLayer
370
18
48
1
60
0
100
AcDbSpline
70
4
71
3
72
12
73
8
40
0
40
0
40
0
40
0
40
0.45220901090151
40
0.45220901090151
40
0.985658768919413
40
0.985658768919413
40
1
40
1
40
1
40
1
41
1
10
21.1369302486757
20
4.10994847358461
30
0
41
1
10
21.1073598073533
20
4.12734700083489
30
0
41
1
10
21.0760816782495
20
4.14925457078138
30
0
41
1
10
21.0080250476536
20
4.20136746612209
30
0
41
1
10
20.9705681169908
20
4.23291704117881
30
0
41
1
10
20.9328248587635
20
4.26673148712985
30
0
41
1
10
20.9318377035571
20
4.26761769822369
30
0
41
1
10
20.9308505034942
20
4.26850471797913
30
0
0
SPLINE
5
3C4
100
AcDbEntity
8
1
62
256
6
ByLayer
370
18
48
1
60
0
100
AcDbSpline
70
4
71
3
72
12
73
8
40
0
40
0
40
0
40
0
40
0.500000000000001
40
0.500000000000001
40
0.75
40
0.75
40
1
40
1
40
1
40
1
41
1
10
27.9676367675518
20
11.4681317191799
30
0
41
1
10
27.0847939200748
20
11.8258191158293
30
0
41
1
10
26.2022217470157
20
12.1841412456724
30
0
41
1
10
24.8789340535417
20
12.7229624215236
30
0
41
1
10
24.4371537688783
20
12.9005494313482
30
0
41
1
10
23.5509573056823
20
13.2460724579855
30
0
41
1
10
23.1132914421199
20
13.4381725181318
30
0
41
1
10
22.6413498841249
20
13.5082554178988
30
0
0
SPLINE
5
3C5
100
AcDbEntity
8
1
62
256
6
ByLayer
370
18
48
1
60
0
100
AcDbSpline
70
4
71
3
72
8
73
4
40
0
40
0
40
0
40
0
40
1
40
1
40
1
40
1
41
1
10
27.9714400551045
20
8.03210074486292
30
0
41
1
10
27.7415904174393
20
8.11097523218112
30
0
41
1
10
27.5117407797741
20
8.18984971949931
30
0
41
1
10
27.2818911421089
20
8.26872420681751
30
0
0
SPLINE
5
3C6
100
AcDbEntity
8
1
62
256
6
ByLayer
370
18
48
1
60
0
100
AcDbSpline
70
4
71
3
72
14
73
10
40
0
40
0
40
0
40
0
40
0.25
40
0.25
40
0.5
40
0.5
40
0.75
40
0.75
40
1
40
1
40
1
40
1
41
1
10
26.4036345538713
20
11.0483807242144
30
0
41
1
10
25.8593213932308
20
11.3571986124668
30
0
41
1
10
25.31498283945
20
11.6658637678162
30
0
41
1
10
24.2259947701993
20
12.2823059887042
30
0
41
1
10
23.7078946230965
20
12.6453561299315
30
0
41
1
10
22.4765356160602
20
12.9908749953342
30
0
41
1
10
21.8368154313294
20
12.9448694010605
30
0
41
1
10
20.5687446953205
20
12.9559452450713
30
0
41
1
10
19.9347094305463
20
12.9614719105977
30
0
41
1
10
19.3006740929247
20
12.9670086018599
30
0
0
SPLINE
5
3C7
100
AcDbEntity
8
1
62
256
6
ByLayer
370
18
48
1
60
0
100
AcDbSpline
70
4
71
3
72
10
73
6
40
0
40
0
40
0
40
0
40
0.274190864391843
40
0.274190864391843
40
1
40
1
40
1
40
1
41
1
10
21.2781625817238
20
4.06941075862889
30
0
41
1
10
21.2642292666327
20
4.07065596448422
30
0
41
1
10
21.2504484590877
20
4.0724830110331
30
0
41
1
10
21.2013745837856
20
4.08144783477239
30
0
41
1
10
21.1668174090568
20
4.09236359655641
30
0
41
1
10
21.1369302486757
20
4.10994847358461
30
0
0
SPLINE
5
3C8
100
AcDbEntity
8
1
62
256
6
ByLayer
370
18
48
1
60
0
100
AcDbSpline
70
4
71
3
72
10
73
6
40
0
40
0
40
0
40
0
40
0.266814892217277
40
0.266814892217277
40
1
40
1
40
1
40
1
41
1
10
19.824676991058
20
4.48507245508289
30
0
41
1
10
19.8111547704079
20
4.48558758424943
30
0
41
1
10
19.7975796278804
20
4.48725221707659
30
0
41
1
10
19.7473672813107
20
4.49672625347643
30
0
41
1
10
19.71100257228
20
4.51013471525229
30
0
41
1
10
19.6762585036751
20
4.52733504439284
30
0
0
SPLINE
5
3C9
100
AcDbEntity
8
1
62
256
6
ByLayer
370
18
48
1
60
0
100
AcDbSpline
70
4
71
3
72
14
73
10
40
0
40
0
40
0
40
0
40
0.25
40
0.25
40
0.5
40
0.5
40
0.75
40
0.75
40
1
40
1
40
1
40
1
41
1
10
16.8578221252011
20
11.0258968572197
30
0
41
1
10
16.8568527558958
20
10.4174416782467
30
0
41
1
10
16.8558906561498
20
9.80886004481526
30
0
41
1
10
16.8544659210078
20
8.59129856590164
30
0
41
1
10
16.7890725237036
20
7.97490738685572
30
0
41
1
10
17.1019169848605
20
6.77050851092528
30
0
41
1
10
17.4715032118551
20
6.26209470624615
30
0
41
1
10
18.1055331531945
20
5.19519089075514
30
0
41
1
10
18.4225590235046
20
4.661745705256
30
0
41
1
10
18.7395753362846
20
4.12829475112628
30
0
0
SPLINE
5
3CA
100
AcDbEntity
8
1
62
256
6
ByLayer
370
18
48
1
60
0
100
AcDbSpline
70
4
71
3
72
12
73
8
40
0
40
0
40
0
40
0
40
0.0125097154214824
40
0.0125097154214824
40
0.545812023971051
40
0.545812023971051
40
1
40
1
40
1
40
1
41
1
10
25.4921237002288
20
9.50309928180612
30
0
41
1
10
25.4927390976311
20
9.50405377824306
30
0
41
1
10
25.4933548261077
20
9.50500900618914
30
0
41
1
10
25.5202217914235
20
9.5467606384512
30
0
41
1
10
25.5465311922481
20
9.58973963175147
30
0
41
1
10
25.5920568881672
20
9.67001539143671
30
0
41
1
10
25.6121894625797
20
9.70796668887846
30
0
41
1
10
25.62930698329
20
9.74453223567866
30
0
0
SPLINE
5
3CB
100
AcDbEntity
8
1
62
256
6
ByLayer
370
18
48
1
60
0
100
AcDbSpline
70
4
71
3
72
16
73
12
40
0
40
0
40
0
40
0
40
0.164710736630281
40
0.164710736630281
40
0.33137036265676
40
0.33137036265676
40
0.476446336500487
40
0.476446336500487
40
0.702801041235988
40
0.702801041235988
40
1
40
1
40
1
40
1
41
1
10
13.1358643164039
20
9.49402779929619
30
0
41
1
10
13.1418270257843
20
9.50374135606239
30
0
41
1
10
13.1493480269593
20
9.5126951918286
30
0
41
1
10
13.1674851440441
20
9.52697162327419
30
0
41
1
10
13.1784210349197
20
9.53238254716422
30
0
41
1
10
13.2002239223335
20
9.53811774650313
30
0
41
1
10
13.2111424478104
20
9.53912036371655
30
0
41
1
10
13.238911210452
20
9.53816149311552
30
0
41
1
10
13.2561441874802
20
9.53433514495708
30
0
41
1
10
13.2941514013187
20
9.52131257915863
30
0
41
1
10
13.3149583130888
20
9.51068124313778
30
0
41
1
10
13.334450783114
20
9.49842756310251
30
0
0
SPLINE
5
3CC
100
AcDbEntity
8
1
62
256
6
ByLayer
370
18
48
1
60
0
100
AcDbSpline
70
4
71
3
72
8
73
4
40
0
40
0
40
0
40
0
40
1
40
1
40
1
40
1
41
1
10
18.97496060952
20
3.65907187835384
30
0
41
1
10
18.9380799598467
20
3.64692972288886
30
0
41
1
10
18.876391859079
20
3.63477361094196
30
0
41
1
10
18.8416577877971
20
3.63280358478983
30
0
0
SPLINE
5
3CD
100
AcDbEntity
8
1
62
256
6
ByLayer
370
18
48
1
60
0
100
AcDbSpline
70
4
71
3
72
10
73
6
40
0
40
0
40
0
40
0
40
0.226375575408415
40
0.226375575408415
40
1
40
1
40
1
40
1
41
1
10
19.3070991963834
20
11.7270913199506
30
0
41
1
10
19.3436496638518
20
11.7732508640109
30
0
41
1
10
19.3808188977113
20
11.8188265607127
30
0
41
1
10
19.5475448153331
20
12.0173372019539
30
0
41
1
10
19.6836604048447
20
12.1640024577314
30
0
41
1
10
19.8262006004691
20
12.3028468391005
30
0
0
SPLINE
5
3CE
100
AcDbEntity
8
1
62
256
6
ByLayer
370
18
48
1
60
0
100
AcDbSpline
70
4
71
3
72
8
73
4
40
0
40
0
40
0
40
0
40
1
40
1
40
1
40
1
41
1
10
18.7960943529273
20
12.9351423321862
30
0
41
1
10
18.8448691884842
20
12.9261096832786
30
0
41
1
10
18.8936440237073
20
12.9170770281648
30
0
41
1
10
18.9424188582224
20
12.9080443598928
30
0
0
SPLINE
5
3CF
100
AcDbEntity
8
1
62
256
6
ByLayer
370
18
48
1
60
0
100
AcDbSpline
70
4
71
3
72
10
73
6
40
0
40
0
40
0
40
0
40
0.72637116859111
40
0.72637116859111
40
1
40
1
40
1
40
1
41
1
10
26.0228343642363
20
8.45717792319357
30
0
41
1
10
26.0110017347726
20
8.48529305596963
30
0
41
1
10
25.9926738694368
20
8.51223591921858
30
0
41
1
10
25.9571137894322
20
8.54442398512441
30
0
41
1
10
25.9461762915252
20
8.55281780052434
30
0
41
1
10
25.934072498232
20
8.56050285494457
30
0
0
SPLINE
5
3D0
100
AcDbEntity
8
1
62
256
6
ByLayer
370
18
48
1
60
0
100
AcDbSpline
70
4
71
3
72
8
73
4
40
0
40
0
40
0
40
0
40
1
40
1
40
1
40
1
41
1
10
18.9424188582224
20
3.81702375906897
30
0
41
1
10
18.9192385647036
20
3.92953687903881
30
0
41
1
10
18.8960583201418
20
4.04205001512686
30
0
41
1
10
18.8728781541971
20
4.154563177098
30
0
0
SPLINE
5
3D1
100
AcDbEntity
8
1
62
256
6
ByLayer
370
18
48
1
60
0
100
AcDbSpline
70
4
71
3
72
12
73
8
40
0
40
0
40
0
40
0
40
0.45418797602896
40
0.45418797602896
40
0.987490284578532
40
0.987490284578532
40
1
40
1
40
1
40
1
41
1
10
25.934072498232
20
8.56050285494457
30
0
41
1
10
25.9038870836393
20
8.57470673428492
30
0
41
1
10
25.8695989078071
20
8.59175066156872
30
0
41
1
10
25.7931910046025
20
8.63145383314442
30
0
41
1
10
25.7497409261395
20
8.65506723607817
30
0
41
1
10
25.7056591070245
20
8.68019617817276
30
0
41
1
10
25.7046492364885
20
8.68077221198593
30
0
41
1
10
25.7036396102736
20
8.68134931434859
30
0
0
SPLINE
5
3D2
100
AcDbEntity
8
1
62
256
6
ByLayer
370
18
48
1
60
0
100
AcDbSpline
70
4
71
3
72
10
73
6
40
0
40
0
40
0
40
0
40
0.226375763220907
40
0.226375763220907
40
1
40
1
40
1
40
1
41
1
10
17.663898177767
20
10.3036165466529
30
0
41
1
10
17.694709441485
20
10.3300381733239
30
0
41
1
10
17.726164078264
20
10.3558750416204
30
0
41
1
10
17.8677708645438
20
10.4673016154555
30
0
41
1
10
17.9847142988782
20
10.5466559978187
30
0
41
1
10
18.1083482583879
20
10.6187453443003
30
0
0
SPLINE
5
3D3
100
AcDbEntity
8
1
62
256
6
ByLayer
370
18
48
1
60
0
100
AcDbSpline
70
4
71
3
72
8
73
4
40
0
40
0
40
0
40
0
40
1
40
1
40
1
40
1
41
1
10
27.1960982700777
20
8.37426385847611
30
0
41
1
10
27.2330213019914
20
8.35862742060979
30
0
41
1
10
27.2727233992183
20
8.30978719666714
30
0
41
1
10
27.2818911421088
20
8.26872420681755
30
0
0
SPLINE
5
3D4
100
AcDbEntity
8
1
62
256
6
ByLayer
370
18
48
1
60
0
100
AcDbSpline
70
4
71
3
72
14
73
10
40
0
40
0
40
0
40
0
40
0.264919990892518
40
0.264919990892518
40
0.530416812891252
40
0.530416812891252
40
0.787654584874255
40
0.787654584874255
40
1
40
1
40
1
40
1
41
1
10
27.99258585299
20
10.6237759467383
30
0
41
1
10
27.992828603268
20
10.6341814821161
30
0
41
1
10
27.9930249567661
20
10.6455135358155
30
0
41
1
10
27.9932885953738
20
10.6682487787849
30
0
41
1
10
27.9933590939519
20
10.6799734084603
30
0
41
1
10
27.993360009635
20
10.7017025549637
30
0
41
1
10
27.9932945646788
20
10.712052336969
30
0
41
1
10
27.9930631492101
20
10.7286781885741
30
0
41
1
10
27.992914348518
20
10.7355207064839
30
0
41
1
10
27.9927311089599
20
10.7412615263348
30
0
0
SPLINE
5
3D5
100
AcDbEntity
8
1
62
256
6
ByLayer
370
18
48
1
60
0
100
AcDbSpline
70
4
71
3
72
12
73
8
40
0
40
0
40
0
40
0
40
0.454187976028944
40
0.454187976028944
40
0.987490284578526
40
0.987490284578526
40
1
40
1
40
1
40
1
41
1
10
19.1252964092888
20
11.6037848822719
30
0
41
1
10
19.1214890688146
20
11.5634144542297
30
0
41
1
10
19.118970811654
20
11.5204278842287
30
0
41
1
10
19.1152922221944
20
11.4281896065629
30
0
41
1
10
19.1144151996137
20
11.3779404503344
30
0
41
1
10
19.114201741196
20
11.3285695802688
30
0
41
1
10
19.1141974735115
20
11.3274395586191
30
0
41
1
10
19.1141930630267
20
11.3263104039416
30
0
0
SPLINE
5
3D6
100
AcDbEntity
8
1
62
256
6
ByLayer
370
18
48
1
60
0
100
AcDbSpline
70
4
71
3
72
16
73
12
40
0
40
0
40
0
40
0
40
0.164710736630263
40
0.164710736630263
40
0.331370362656754
40
0.331370362656754
40
0.476446336500483
40
0.476446336500483
40
0.702801041235978
40
0.702801041235978
40
1
40
1
40
1
40
1
41
1
10
27.0367157719784
20
14.5410881234809
30
0
41
1
10
27.0430048597766
20
14.5299662433352
30
0
41
1
10
27.0478952576024
20
14.517812796855
30
0
41
1
10
27.0529403889578
20
14.492663466052
30
0
41
1
10
27.0530333738984
20
14.4793170537537
30
0
41
1
10
27.0485583304514
20
14.4555806309106
30
0
41
1
10
27.0445929183167
20
14.444756597968
30
0
41
1
10
27.0312713260898
20
14.4192228655887
30
0
41
1
10
27.0200235963937
20
14.4052138699723
30
0
41
1
10
26.9909889591069
20
14.3769228373646
30
0
41
1
10
26.9718636791955
20
14.3634259619204
30
0
41
1
10
26.9518306819237
20
14.3520858188306
30
0
0
SPLINE
5
3D7
100
AcDbEntity
8
1
62
256
6
ByLayer
370
18
48
1
60
0
100
AcDbSpline
70
4
71
3
72
8
73
4
40
0
40
0
40
0
40
0
40
1
40
1
40
1
40
1
41
1
10
18.7960943529273
20
12.9351423321862
30
0
41
1
10
18.7986692977486
20
12.9830038355664
30
0
41
1
10
18.8197545182525
20
13.0370884083191
30
0
41
1
10
18.841657787797
20
13.0520145505564
30
0
0
SPLINE
5
3D8
100
AcDbEntity
8
1
62
256
6
ByLayer
370
18
48
1
60
0
100
AcDbSpline
70
4
71
3
72
12
73
8
40
0
40
0
40
0
40
0
40
0.327536934741045
40
0.327536934741045
40
0.689545574034048
40
0.689545574034048
40
1
40
1
40
1
40
1
41
1
10
22.6413498841249
20
13.5082554178989
30
0
41
1
10
22.2348114605395
20
13.6081120919477
30
0
41
1
10
21.8055030496496
20
13.5692367974406
30
0
41
1
10
20.9238631211848
20
13.5769420658149
30
0
41
1
10
20.4607960953808
20
13.5809995986125
30
0
41
1
10
19.6006080356647
20
13.588509215954
30
0
41
1
10
19.2034870423485
20
13.5919721300565
30
0
41
1
10
18.8063660569795
20
13.5954371719026
30
0
0
SPLINE
5
3D9
100
AcDbEntity
8
1
62
256
6
ByLayer
370
18
48
1
60
0
100
AcDbSpline
70
4
71
3
72
10
73
6
40
0
40
0
40
0
40
0
40
0.732128243131979
40
0.732128243131979
40
1
40
1
40
1
40
1
41
1
10
18.2190949919883
20
10.7659255220339
30
0
41
1
10
18.1785625323222
20
10.7663299132208
30
0
41
1
10
18.14181059354
20
10.758364242684
30
0
41
1
10
18.0985517997053
20
10.7404076556213
30
0
41
1
10
18.0874762256604
20
10.7348144380614
30
0
41
1
10
18.0770351360151
20
10.7285838620804
30
0
0
SPLINE
5
3DA
100
AcDbEntity
8
1
62
256
6
ByLayer
370
18
48
1
60
0
100
AcDbSpline
70
4
71
3
72
10
73
6
40
0
40
0
40
0
40
0
40
0.266814892217284
40
0.266814892217284
40
1
40
1
40
1
40
1
41
1
10
25.8775814666787
20
8.49307889116832
30
0
41
1
10
25.8861504601887
20
8.48424545059194
30
0
41
1
10
25.8937694603183
20
8.47486925018795
30
0
41
1
10
25.9191080640886
20
8.43871921999229
30
0
41
1
10
25.9318474128761
20
8.40963960373561
30
0
41
1
10
25.9402467638857
20
8.37989934943002
30
0
0
SPLINE
5
3DB
100
AcDbEntity
8
1
62
256
6
ByLayer
370
18
48
1
60
0
100
AcDbSpline
70
4
71
3
72
16
73
12
40
0
40
0
40
0
40
0
40
0.343443954228568
40
0.343443954228568
40
0.535083245610713
40
0.535083245610713
40
0.693553557835157
40
0.693553557835157
40
0.853171508912945
40
0.853171508912945
40
1
40
1
40
1
40
1
41
1
10
14.8100877893374
20
7.01535208006074
30
0
41
1
10
14.8105945848154
20
6.99083679015185
30
0
41
1
10
14.8081497303052
20
6.96612816409929
30
0
41
1
10
14.7967122293343
20
6.9306964369146
30
0
41
1
10
14.7909430909566
20
6.91840391998493
30
0
41
1
10
14.7766578567714
20
6.89882958187144
30
0
41
1
10
14.7686034840494
20
6.89089968302171
30
0
41
1
10
14.7498674483196
20
6.87877866441301
30
0
41
1
10
14.7389022744777
20
6.87449810581026
30
0
41
1
10
14.716930763771
20
6.87030694406927
30
0
41
1
10
14.7057751950799
20
6.86997797133589
30
0
41
1
10
14.6947309212041
20
6.87090068104887
30
0
0
SPLINE
5
3DC
100
AcDbEntity
8
1
62
256
6
ByLayer
370
18
48
1
60
0
100
AcDbSpline
70
4
71
3
72
12
73
8
40
0
40
0
40
0
40
0
40
0.330584430932533
40
0.330584430932533
40
0.91428551968281
40
0.91428551968281
40
1
40
1
40
1
40
1
41
1
10
18.4796934830069
20
13.4367046541927
30
0
41
1
10
18.5096015679046
20
13.4470368775161
30
0
41
1
10
18.5446065122003
20
13.4619952537926
30
0
41
1
10
18.6428995680379
20
13.5073456113554
30
0
41
1
10
18.7102558895181
20
13.5421259263617
30
0
41
1
10
18.7866154484705
20
13.5843452190778
30
0
41
1
10
18.7964935064411
20
13.5898638622476
30
0
41
1
10
18.8063660569589
20
13.5954371718909
30
0
0
SPLINE
5
3DD
100
AcDbEntity
8
1
62
256
6
ByLayer
370
18
48
1
60
0
100
AcDbSpline
70
4
71
3
72
12
73
8
40
0
40
0
40
0
40
0
40
0.0143412310805856
40
0.0143412310805856
40
0.54779098909849
40
0.54779098909849
40
1
40
1
40
1
40
1
41
1
10
20.0904051113828
20
4.50875652904573
30
0
41
1
10
20.0890862899681
20
4.50852871432798
30
0
41
1
10
20.0877676420413
20
4.50830164585528
30
0
41
1
10
20.0373761738972
20
4.49968161209027
30
0
41
1
10
19.9880449831372
20
4.49294150537796
30
0
41
1
10
19.9003390328198
20
4.48535528900068
30
0
41
1
10
19.8607811943638
20
4.48369706500173
30
0
41
1
10
19.824676991058
20
4.48507245508289
30
0
0
SPLINE
5
3DE
100
AcDbEntity
8
1
62
256
6
ByLayer
370
18
48
1
60
0
100
AcDbSpline
70
4
71
3
72
14
73
10
40
0
40
0
40
0
40
0
40
0.264919990892546
40
0.264919990892546
40
0.53041681289129
40
0.53041681289129
40
0.787654584874288
40
0.787654584874288
40
1
40
1
40
1
40
1
41
1
10
20.6499221648318
20
1.73186697547213
30
0
41
1
10
20.6578199140669
20
1.72939133468478
30
0
41
1
10
20.666820492173
20
1.7259083937866
30
0
41
1
10
20.6856437406177
20
1.71741311599345
30
0
41
1
10
20.6957355617808
20
1.71227472291088
30
0
41
1
10
20.7152009279244
20
1.7012507604007
30
0
41
1
10
20.724859540502
20
1.69523773179873
30
0
41
1
10
20.7411170957903
20
1.68411735661857
30
0
41
1
10
20.7481227310462
20
1.67892100289367
30
0
41
1
10
20.7543435201827
20
1.67388567212136
30
0
0
SPLINE
5
3DF
100
AcDbEntity
8
1
62
256
6
ByLayer
370
18
48
1
60
0
100
AcDbSpline
70
4
71
3
72
12
73
8
40
0
40
0
40
0
40
0
40
0.25
40
0.25
40
0.5
40
0.5
40
1
40
1
40
1
40
1
41
1
10
22.6206969006012
20
13.3731538089164
30
0
41
1
10
23.0991554661472
20
13.3040425236753
30
0
41
1
10
23.5344128982403
20
13.1025682543337
30
0
41
1
10
24.422243215922
20
12.7520617060201
30
0
41
1
10
24.8658470723388
20
12.5745529087724
30
0
41
1
10
26.1957010851078
20
12.0390936836307
30
0
41
1
10
27.0826796373095
20
11.683336931732
30
0
41
1
10
27.969847003457
20
11.3282023377039
30
0
0
SPLINE
5
3E0
100
AcDbEntity
8
1
62
256
6
ByLayer
370
18
48
1
60
0
100
AcDbSpline
70
4
71
3
72
10
73
6
40
0
40
0
40
0
40
0
40
0.226375575408416
40
0.226375575408416
40
1
40
1
40
1
40
1
41
1
10
25.9402467638857
20
8.37989934943002
30
0
41
1
10
25.955748327169
20
8.34400348838805
30
0
41
1
10
25.9704194450325
20
8.30789248139992
30
0
41
1
10
26.0314865785319
20
8.14761659637298
30
0
41
1
10
26.0690148819718
20
8.02119499219847
30
0
41
1
10
26.096511299927
20
7.89304877670732
30
0
0
SPLINE
5
3E1
100
AcDbEntity
8
1
62
256
6
ByLayer
370
18
48
1
60
0
100
AcDbSpline
70
4
71
3
72
8
73
4
40
0
40
0
40
0
40
0
40
1
40
1
40
1
40
1
41
1
10
27.9706436208163
20
7.99403235820506
30
0
41
1
10
27.9709090988292
20
8.00672182148764
30
0
41
1
10
27.9711745769254
20
8.01941128370447
30
0
41
1
10
27.9714400551045
20
8.03210074486292
30
0
0
SPLINE
5
3E2
100
AcDbEntity
8
1
62
256
6
ByLayer
370
18
48
1
60
0
100
AcDbSpline
70
4
71
3
72
10
73
6
40
0
40
0
40
0
40
0
40
0.726371168591112
40
0.726371168591112
40
1
40
1
40
1
40
1
41
1
10
19.2102477571051
20
11.7763341564338
30
0
41
1
10
19.1817401821018
20
11.7407893889888
30
0
41
1
10
19.1574799107043
20
11.7002561218893
30
0
41
1
10
19.1344770184129
20
11.6391806179134
30
0
41
1
10
19.1292068870422
20
11.6217127319161
30
0
41
1
10
19.1252964092888
20
11.6037848822719
30
0
0
LINE
5
75
100
AcDbEntity
8
1
62
256
6
ByLayer
370
18
48
1
60
0
100
AcDbLine
10
27.967637
20
13.1592
30
0
11
27.967637
21
11.468132
31
0
39
0
210
0
220
0
230
1
0
LINE
5
76
100
AcDbEntity
8
1
62
256
6
ByLayer
370
18
48
1
60
0
100
AcDbLine
10
25.43037
20
17.256786
30
0
11
25.572472
21
17.255546
31
0
39
0
210
0
220
0
230
1
0
LINE
5
77
100
AcDbEntity
8
1
62
256
6
ByLayer
370
18
48
1
60
0
100
AcDbLine
10
14.660303
20
5.586599
30
0
11
14.555612
21
4.783297
31
0
39
0
210
0
220
0
230
1
0
LINE
5
78
100
AcDbEntity
8
1
62
256
6
ByLayer
370
18
48
1
60
0
100
AcDbLine
10
27.810609
20
3.098815
30
0
11
27.979436
21
4.394235
31
0
39
0
210
0
220
0
230
1
0
LINE
5
79
100
AcDbEntity
8
1
62
256
6
ByLayer
370
18
48
1
60
0
100
AcDbLine
10
7.548875
20
13.75
30
0
11
6.739789
21
12.78577
31
0
39
0
210
0
220
0
230
1
0
LINE
5
7A
100
AcDbEntity
8
1
62
256
6
ByLayer
370
18
48
1
60
0
100
AcDbLine
10
18.0597
20
8.450391
30
0
11
18.030078
21
8.14942
31
0
39
0
210
0
220
0
230
1
0
LINE
5
7B
100
AcDbEntity
8
1
62
256
6
ByLayer
370
18
48
1
60
0
100
AcDbLine
10
25.145697
20
7.449087
30
0
11
25.175319
21
7.750058
31
0
39
0
210
0
220
0
230
1
0
LINE
5
7C
100
AcDbEntity
8
1
62
256
6
ByLayer
370
18
48
1
60
0
100
AcDbLine
10
22.139641
20
6.489532
30
0
11
22.127396
21
6.365114
31
0
39
0
210
0
220
0
230
1
0
LINE
5
7D
100
AcDbEntity
8
1
62
256
6
ByLayer
370
18
48
1
60
0
100
AcDbLine
10
20.040485
20
7.4855
30
0
11
20.080111
21
7.888121
31
0
39
0
210
0
220
0
230
1
0
LINE
5
7E
100
AcDbEntity
8
1
62
256
6
ByLayer
370
18
48
1
60
0
100
AcDbLine
10
23.146908
20
8.231045
30
0
11
23.107279
21
7.828398
31
0
39
0
210
0
220
0
230
1
0
LINE
5
7F
100
AcDbEntity
8
1
62
256
6
ByLayer
370
18
48
1
60
0
100
AcDbLine
10
15.726458
20
13.75
30
0
11
7.548875
21
13.75
31
0
39
0
210
0
220
0
230
1
0
LINE
5
80
100
AcDbEntity
8
1
62
256
6
ByLayer
370
18
48
1
60
0
100
AcDbLine
10
27.649945
20
-0.772998
30
0
11
27.837254
21
0.664241
31
0
39
0
210
0
220
0
230
1
0
LINE
5
81
100
AcDbEntity
8
1
62
256
6
ByLayer
370
18
48
1
60
0
100
AcDbLine
10
11.621695
20
7.28883
30
0
11
11.434588
21
5.853148
31
0
39
0
210
0
220
0
230
1
0
LINE
5
82
100
AcDbEntity
8
4
62
256
6
ByLayer
370
18
48
0.05
60
0
100
AcDbLine
10
0
20
0
30
0
11
28
21
0
31
0
39
0
210
0
220
0
230
1
0
LINE
5
84
100
AcDbEntity
8
SK4
62
256
6
ByLayer
370
18
48
0.05
60
0
100
AcDbLine
10
-5
20
0
30
0
11
33
21
0
31
0
39
0
210
0
220
0
230
1
0
LINE
5
86
100
AcDbEntity
8
80
62
256
6
ByLayer
370
18
48
1
60
0
100
AcDbLine
10
0
20
0
30
0
11
-5
21
0
31
0
39
0
210
0
220
0
230
1
0
LINE
5
87
100
AcDbEntity
8
81
62
256
6
ByLayer
370
18
48
1
60
0
100
AcDbLine
10
28
20
18.875
30
0
11
33
21
18.875
31
0
39
0
210
0
220
0
230
1
0
LINE
5
88
100
AcDbEntity
8
1
62
256
6
ByLayer
370
18
48
1
60
0
100
AcDbLine
10
5.861489
20
12.286578
30
0
11
0.451234
21
12.286578
31
0
39
0
210
0
220
0
230
1
0
LINE
5
89
100
AcDbEntity
8
1
62
256
6
ByLayer
370
18
48
1
60
0
100
AcDbLine
10
26.641128
20
-4.08665
30
0
11
26.711958
21
-3.54317
31
0
39
0
210
0
220
0
230
1
0
LINE
5
8A
100
AcDbEntity
8
1
62
256
6
ByLayer
370
18
48
1
60
0
100
AcDbLine
10
15.032929
20
13.196262
30
0
11
15.869152
21
12.133147
31
0
39
0
210
0
220
0
230
1
0
LINE
5
8B
100
AcDbEntity
8
1
62
256
6
ByLayer
370
18
48
1
60
0
100
AcDbLine
10
9.944986
20
-2.517026
30
0
11
9.740423
21
-4.08665
31
0
39
0
210
0
220
0
230
1
0
LINE
5
8C
100
AcDbEntity
8
1
62
256
6
ByLayer
370
18
48
1
60
0
100
AcDbLine
10
26.711958
20
-3.54317
30
0
11
24.512671
21
-3.52867
31
0
39
0
210
0
220
0
230
1
0
LINE
5
8D
100
AcDbEntity
8
1
62
256
6
ByLayer
370
18
48
1
60
0
100
AcDbLine
10
6.126954
20
12.055217
30
0
11
6.126954
21
12.421839
31
0
39
0
210
0
220
0
230
1
0
LINE
5
8E
100
AcDbEntity
8
1
62
256
6
ByLayer
370
18
48
1
60
0
100
AcDbLine
10
0.451234
20
-12.286578
30
0
11
0.451234
21
12.286578
31
0
39
0
210
0
220
0
230
1
0
LINE
5
8F
100
AcDbEntity
8
1
62
256
6
ByLayer
370
18
48
1
60
0
100
AcDbLine
10
24.512671
20
-3.52867
30
0
11
24.512671
21
-3.250941
31
0
39
0
210
0
220
0
230
1
0
LINE
5
90
100
AcDbEntity
8
1
62
256
6
ByLayer
370
18
48
1
60
0
100
AcDbLine
10
24.41525
20
-3.502137
30
0
11
24.512671
21
-3.52867
31
0
39
0
210
0
220
0
230
1
0
LINE
5
91
100
AcDbEntity
8
1
62
256
6
ByLayer
370
18
48
1
60
0
100
AcDbLine
10
0
20
11.715912
30
0
11
0
21
11.827204
31
0
39
0
210
0
220
0
230
1
0
LINE
5
92
100
AcDbEntity
8
1
62
256
6
ByLayer
370
18
48
1
60
0
100
AcDbLine
10
9.491098
20
-5.999733
30
0
11
9.399756
21
-6.700608
31
0
39
0
210
0
220
0
230
1
0
LINE
5
93
100
AcDbEntity
8
1
62
256
6
ByLayer
370
18
48
1
60
0
100
AcDbLine
10
26.300461
20
-6.700608
30
0
11
26.391804
21
-5.999733
31
0
39
0
210
0
220
0
230
1
0
LINE
5
94
100
AcDbEntity
8
1
62
256
6
ByLayer
370
18
48
1
60
0
100
AcDbLine
10
0
20
-8.601222
30
0
11
0
21
-9.172655
31
0
39
0
210
0
220
0
230
1
0
LINE
5
95
100
AcDbEntity
8
1
62
256
6
ByLayer
370
18
48
1
60
0
100
AcDbLine
10
0
20
10.104769
30
0
11
0
21
10.484219
31
0
39
0
210
0
220
0
230
1
0
LINE
5
96
100
AcDbEntity
8
1
62
256
6
ByLayer
370
18
48
1
60
0
100
AcDbLine
10
0
20
-10.484191
30
0
11
0
21
-10.814347
31
0
39
0
210
0
220
0
230
1
0
LINE
5
97
100
AcDbEntity
8
1
62
256
6
ByLayer
370
18
48
1
60
0
100
AcDbLine
10
16.867244
20
-1.912503
30
0
11
10.023771
21
-1.912503
31
0
39
0
210
0
220
0
230
1
0
LINE
5
98
100
AcDbEntity
8
1
62
256
6
ByLayer
370
18
48
1
60
0
100
AcDbLine
10
24.759559
20
-2.517026
30
0
11
24.643097
21
-3.218872
31
0
39
0
210
0
220
0
230
1
0
LINE
5
99
100
AcDbEntity
8
1
62
256
6
ByLayer
370
18
48
1
60
0
100
AcDbLine
10
10.031548
20
-1.852826
30
0
11
10.023771
21
-1.912503
31
0
39
0
210
0
220
0
230
1
0
LINE
5
9A
100
AcDbEntity
8
1
62
256
6
ByLayer
370
18
48
1
60
0
100
AcDbLine
10
0.346266
20
11.639099
30
0
11
0.346266
21
11.55409
31
0
39
0
210
0
220
0
230
1
0
LINE
5
9B
100
AcDbEntity
8
1
62
256
6
ByLayer
370
18
48
1
60
0
100
AcDbLine
10
24.766266
20
-0.959977
30
0
11
19.453771
21
2.038669
31
0
39
0
210
0
220
0
230
1
0
LINE
5
9C
100
AcDbEntity
8
1
62
256
6
ByLayer
370
18
48
1
60
0
100
AcDbLine
10
10.715013
20
8.79442
30
0
11
10.694701
21
8.588043
31
0
39
0
210
0
220
0
230
1
0
LINE
5
9D
100
AcDbEntity
8
1
62
256
6
ByLayer
370
18
48
1
60
0
100
AcDbLine
10
0
20
-11.099554
30
0
11
0
21
-10.814347
31
0
39
0
210
0
220
0
230
1
0
LINE
5
9E
100
AcDbEntity
8
1
62
256
6
ByLayer
370
18
48
1
60
0
100
AcDbLine
10
9.944986
20
-2.517026
30
0
11
24.759559
21
-2.517026
31
0
39
0
210
0
220
0
230
1
0
LINE
5
9F
100
AcDbEntity
8
1
62
256
6
ByLayer
370
18
48
1
60
0
100
AcDbLine
10
0
20
9.670166
30
0
11
0
21
10.104769
31
0
39
0
210
0
220
0
230
1
0
LINE
5
A0
100
AcDbEntity
8
1
62
256
6
ByLayer
370
18
48
1
60
0
100
AcDbLine
10
23.960968
20
-0.979427
30
0
11
18.630069
21
2.018738
31
0
39
0
210
0
220
0
230
1
0
LINE
5
A1
100
AcDbEntity
8
1
62
256
6
ByLayer
370
18
48
1
60
0
100
AcDbLine
10
26.641128
20
-4.08665
30
0
11
18.351376
21
-4.08665
31
0
39
0
210
0
220
0
230
1
0
LINE
5
A2
100
AcDbEntity
8
1
62
256
6
ByLayer
370
18
48
1
60
0
100
AcDbLine
10
15.869152
20
13.745424
30
0
11
15.869152
21
12.133147
31
0
39
0
210
0
220
0
230
1
0
LINE
5
A3
100
AcDbEntity
8
1
62
256
6
ByLayer
370
18
48
1
60
0
100
AcDbLine
10
0
20
7.940016
30
0
11
0
21
8.601241
31
0
39
0
210
0
220
0
230
1
0
LINE
5
A4
100
AcDbEntity
8
1
62
256
6
ByLayer
370
18
48
1
60
0
100
AcDbLine
10
0
20
10.814347
30
0
11
0
21
10.484191
31
0
39
0
210
0
220
0
230
1
0
LINE
5
A5
100
AcDbEntity
8
1
62
256
6
ByLayer
370
18
48
1
60
0
100
AcDbLine
10
0
20
11.715912
30
0
11
0
21
11.547978
31
0
39
0
210
0
220
0
230
1
0
LINE
5
A6
100
AcDbEntity
8
1
62
256
6
ByLayer
370
18
48
1
60
0
100
AcDbLine
10
24.766266
20
-2.430781
30
0
11
24.766266
21
-0.959977
31
0
39
0
210
0
220
0
230
1
0
LINE
5
A7
100
AcDbEntity
8
1
62
256
6
ByLayer
370
18
48
1
60
0
100
AcDbLine
10
24.438169
20
-3.269276
30
0
11
24.41525
21
-3.502137
31
0
39
0
210
0
220
0
230
1
0
LINE
5
A8
100
AcDbEntity
8
1
62
256
6
ByLayer
370
18
48
1
60
0
100
AcDbLine
10
0.346266
20
3.909267
30
0
11
0.346266
21
3.151846
31
0
39
0
210
0
220
0
230
1
0
LINE
5
A9
100
AcDbEntity
8
1
62
256
6
ByLayer
370
18
48
1
60
0
100
AcDbLine
10
0.346266
20
-3.151846
30
0
11
0.346266
21
-3.909267
31
0
39
0
210
0
220
0
230
1
0
LINE
5
AA
100
AcDbEntity
8
1
62
256
6
ByLayer
370
18
48
1
60
0
100
AcDbLine
10
0.346266
20
8.236774
30
0
11
0.346266
21
7.976286
31
0
39
0
210
0
220
0
230
1
0
LINE
5
AB
100
AcDbEntity
8
1
62
256
6
ByLayer
370
18
48
1
60
0
100
AcDbLine
10
0.346266
20
-7.976286
30
0
11
0.346266
21
-8.236774
31
0
39
0
210
0
220
0
230
1
0
LINE
5
AC
100
AcDbEntity
8
1
62
256
6
ByLayer
370
18
48
1
60
0
100
AcDbLine
10
6.126954
20
-11.188039
30
0
11
6.126954
21
-8.778377
31
0
39
0
210
0
220
0
230
1
0
LINE
5
AD
100
AcDbEntity
8
1
62
256
6
ByLayer
370
18
48
1
60
0
100
AcDbLine
10
10.983577
20
8.792685
30
0
11
13.320088
21
10.080723
31
0
39
0
210
0
220
0
230
1
0
LINE
5
AE
100
AcDbEntity
8
1
62
256
6
ByLayer
370
18
48
1
60
0
100
AcDbLine
10
13.27786
20
10.012049
30
0
11
10.694701
21
8.588043
31
0
39
0
210
0
220
0
230
1
0
LINE
5
AF
100
AcDbEntity
8
1
62
256
6
ByLayer
370
18
48
1
60
0
100
AcDbLine
10
10.804882
20
8.512777
30
0
11
13.151725
21
9.80651
31
0
39
0
210
0
220
0
230
1
0
LINE
5
B0
100
AcDbEntity
8
1
62
256
6
ByLayer
370
18
48
1
60
0
100
AcDbLine
10
16.174085
20
-4.08665
30
0
11
9.740423
21
-4.08665
31
0
39
0
210
0
220
0
230
1
0
LINE
5
B1
100
AcDbEntity
8
1
62
256
6
ByLayer
370
18
48
1
60
0
100
AcDbLine
10
24.643097
20
-3.218872
30
0
11
24.438169
21
-3.269276
31
0
39
0
210
0
220
0
230
1
0
LINE
5
B2
100
AcDbEntity
8
1
62
256
6
ByLayer
370
18
48
1
60
0
100
AcDbLine
10
0.346266
20
-11.55409
30
0
11
0.346266
21
-11.639099
31
0
39
0
210
0
220
0
230
1
0
LINE
5
B3
100
AcDbEntity
8
1
62
256
6
ByLayer
370
18
48
1
60
0
100
AcDbLine
10
6.126954
20
-4.178851
30
0
11
6.126954
21
9.333122
31
0
39
0
210
0
220
0
230
1
0
LINE
5
B4
100
AcDbEntity
8
1
62
256
6
ByLayer
370
18
48
1
60
0
100
AcDbLine
10
0.346266
20
11.101805
30
0
11
0.346266
21
10.987118
31
0
39
0
210
0
220
0
230
1
0
LINE
5
B5
100
AcDbEntity
8
1
62
256
6
ByLayer
370
18
48
1
60
0
100
AcDbLine
10
0.346266
20
9.457166
30
0
11
0.346266
21
9.261521
31
0
39
0
210
0
220
0
230
1
0
LINE
5
B6
100
AcDbEntity
8
1
62
256
6
ByLayer
370
18
48
1
60
0
100
AcDbLine
10
0.346266
20
-9.261521
30
0
11
0.346266
21
-9.457166
31
0
39
0
210
0
220
0
230
1
0
LINE
5
B7
100
AcDbEntity
8
1
62
256
6
ByLayer
370
18
48
1
60
0
100
AcDbLine
10
0.346266
20
-11.964691
30
0
11
0.346266
21
-12.0234
31
0
39
0
210
0
220
0
230
1
0
LINE
5
B8
100
AcDbEntity
8
1
62
256
6
ByLayer
370
18
48
1
60
0
100
AcDbLine
10
0
20
11.343229
30
0
11
0
21
11.548002
31
0
39
0
210
0
220
0
230
1
0
LINE
5
B9
100
AcDbEntity
8
1
62
256
6
ByLayer
370
18
48
1
60
0
100
AcDbLine
10
0
20
-7.940016
30
0
11
0
21
-7.164127
31
0
39
0
210
0
220
0
230
1
0
LINE
5
BA
100
AcDbEntity
8
1
62
256
6
ByLayer
370
18
48
1
60
0
100
AcDbLine
10
0
20
7.164127
30
0
11
0
21
7.940016
31
0
39
0
210
0
220
0
230
1
0
LINE
5
BB
100
AcDbEntity
8
1
62
256
6
ByLayer
370
18
48
1
60
0
100
AcDbLine
10
0.346266
20
-10.987118
30
0
11
0.346266
21
-11.101805
31
0
39
0
210
0
220
0
230
1
0
LINE
5
BC
100
AcDbEntity
8
1
62
256
6
ByLayer
370
18
48
1
60
0
100
AcDbLine
10
7.548875
20
13.75
30
0
11
7.548875
21
13.59907
31
0
39
0
210
0
220
0
230
1
0
LINE
5
BD
100
AcDbEntity
8
1
62
256
6
ByLayer
370
18
48
1
60
0
100
AcDbLine
10
15.032929
20
13.636866
30
0
11
15.032929
21
13.196262
31
0
39
0
210
0
220
0
230
1
0
LINE
5
BE
100
AcDbEntity
8
1
62
256
6
ByLayer
370
18
48
1
60
0
100
AcDbLine
10
7.22529
20
8.63189
30
0
11
7.224467
21
13.188817
31
0
39
0
210
0
220
0
230
1
0
LINE
5
BF
100
AcDbEntity
8
1
62
256
6
ByLayer
370
18
48
1
60
0
100
AcDbLine
10
0
20
-9.670191
30
0
11
0
21
-9.172655
31
0
39
0
210
0
220
0
230
1
0
LINE
5
C0
100
AcDbEntity
8
1
62
256
6
ByLayer
370
18
48
1
60
0
100
AcDbLine
10
0.346266
20
-10.237659
30
0
11
0.346266
21
-10.387807
31
0
39
0
210
0
220
0
230
1
0
LINE
5
C1
100
AcDbEntity
8
1
62
256
6
ByLayer
370
18
48
1
60
0
100
AcDbLine
10
0
20
9.172655
30
0
11
0
21
8.601222
31
0
39
0
210
0
220
0
230
1
0
LINE
5
C2
100
AcDbEntity
8
1
62
256
6
ByLayer
370
18
48
1
60
0
100
AcDbLine
10
0
20
10.814347
30
0
11
0
21
11.099554
31
0
39
0
210
0
220
0
230
1
0
LINE
5
C3
100
AcDbEntity
8
1
62
256
6
ByLayer
370
18
48
1
60
0
100
AcDbLine
10
0
20
3.388415
30
0
11
0
21
5.054093
31
0
39
0
210
0
220
0
230
1
0
LINE
5
C4
100
AcDbEntity
8
1
62
256
6
ByLayer
370
18
48
1
60
0
100
AcDbLine
10
0
20
-8.601241
30
0
11
0
21
-7.940016
31
0
39
0
210
0
220
0
230
1
0
LINE
5
C5
100
AcDbEntity
8
1
62
256
6
ByLayer
370
18
48
1
60
0
100
AcDbLine
10
0
20
6.230979
30
0
11
0
21
5.053908
31
0
39
0
210
0
220
0
230
1
0
LINE
5
C6
100
AcDbEntity
8
1
62
256
6
ByLayer
370
18
48
1
60
0
100
AcDbLine
10
0
20
-5.053908
30
0
11
0
21
-6.230979
31
0
39
0
210
0
220
0
230
1
0
LINE
5
C7
100
AcDbEntity
8
1
62
256
6
ByLayer
370
18
48
1
60
0
100
AcDbLine
10
26.896154
20
-6.156567
30
0
11
26.997356
21
-5.380035
31
0
39
0
210
0
220
0
230
1
0
LINE
5
C8
100
AcDbEntity
8
1
62
256
6
ByLayer
370
18
48
1
60
0
100
AcDbLine
10
0
20
-7.164154
30
0
11
0
21
-6.230979
31
0
39
0
210
0
220
0
230
1
0
LINE
5
C9
100
AcDbEntity
8
1
62
256
6
ByLayer
370
18
48
1
60
0
100
AcDbLine
10
0
20
11.099518
30
0
11
0
21
11.343229
31
0
39
0
210
0
220
0
230
1
0
LINE
5
CA
100
AcDbEntity
8
1
62
256
6
ByLayer
370
18
48
1
60
0
100
AcDbLine
10
24.766266
20
-0.959977
30
0
11
23.960968
21
-0.979427
31
0
39
0
210
0
220
0
230
1
0
LINE
5
CB
100
AcDbEntity
8
1
62
256
6
ByLayer
370
18
48
1
60
0
100
AcDbLine
10
10.643971
20
8.55892
30
0
11
10.666912
21
8.792002
31
0
39
0
210
0
220
0
230
1
0
LINE
5
CC
100
AcDbEntity
8
1
62
256
6
ByLayer
370
18
48
1
60
0
100
AcDbLine
10
16.142878
20
13.031827
30
0
11
16.142878
21
12.300146
31
0
39
0
210
0
220
0
230
1
0
LINE
5
CD
100
AcDbEntity
8
1
62
256
6
ByLayer
370
18
48
1
60
0
100
AcDbLine
10
0
20
9.172655
30
0
11
0
21
9.670191
31
0
39
0
210
0
220
0
230
1
0
LINE
5
CE
100
AcDbEntity
8
1
62
256
6
ByLayer
370
18
48
1
60
0
100
AcDbLine
10
26.711958
20
-3.54317
30
0
11
27.311763
21
-2.967569
31
0
39
0
210
0
220
0
230
1
0
LINE
5
CF
100
AcDbEntity
8
1
62
256
6
ByLayer
370
18
48
1
60
0
100
AcDbLine
10
0
20
-11.547978
30
0
11
0
21
-11.715912
31
0
39
0
210
0
220
0
230
1
0
LINE
5
D0
100
AcDbEntity
8
1
62
256
6
ByLayer
370
18
48
1
60
0
100
AcDbLine
10
0
20
-10.484219
30
0
11
0
21
-10.104769
31
0
39
0
210
0
220
0
230
1
0
LINE
5
D1
100
AcDbEntity
8
1
62
256
6
ByLayer
370
18
48
1
60
0
100
AcDbLine
10
10.499254
20
10.725625
30
0
11
15.032929
21
13.196262
31
0
39
0
210
0
220
0
230
1
0
LINE
5
D2
100
AcDbEntity
8
1
62
256
6
ByLayer
370
18
48
1
60
0
100
AcDbLine
10
0
20
-11.343229
30
0
11
0
21
-11.099518
31
0
39
0
210
0
220
0
230
1
0
LINE
5
D3
100
AcDbEntity
8
1
62
256
6
ByLayer
370
18
48
1
60
0
100
AcDbLine
10
0
20
-10.104769
30
0
11
0
21
-9.670166
31
0
39
0
210
0
220
0
230
1
0
LINE
5
D4
100
AcDbEntity
8
1
62
256
6
ByLayer
370
18
48
1
60
0
100
AcDbLine
10
0
20
-11.827204
30
0
11
0
21
-11.715912
31
0
39
0
210
0
220
0
230
1
0
LINE
5
D5
100
AcDbEntity
8
1
62
256
6
ByLayer
370
18
48
1
60
0
100
AcDbLine
10
0
20
-3.388415
30
0
11
0
21
3.388415
31
0
39
0
210
0
220
0
230
1
0
LINE
5
D6
100
AcDbEntity
8
1
62
256
6
ByLayer
370
18
48
1
60
0
100
AcDbLine
10
27.236217
20
-3.547237
30
0
11
27.311763
21
-2.967569
31
0
39
0
210
0
220
0
230
1
0
LINE
5
D7
100
AcDbEntity
8
1
62
256
6
ByLayer
370
18
48
1
60
0
100
AcDbLine
10
0
20
-11.548002
30
0
11
0
21
-11.343229
31
0
39
0
210
0
220
0
230
1
0
LINE
5
D8
100
AcDbEntity
8
1
62
256
6
ByLayer
370
18
48
1
60
0
100
AcDbLine
10
23.960968
20
-0.979427
30
0
11
23.960968
21
-1.907106
31
0
39
0
210
0
220
0
230
1
0
LINE
5
D9
100
AcDbEntity
8
1
62
256
6
ByLayer
370
18
48
1
60
0
100
AcDbLine
10
11.126229
20
9.518538
30
0
11
15.869152
21
12.133147
31
0
39
0
210
0
220
0
230
1
0
LINE
5
DA
100
AcDbEntity
8
1
62
256
6
ByLayer
370
18
48
1
60
0
100
AcDbLine
10
9.399756
20
-6.700608
30
0
11
26.300461
21
-6.700608
31
0
39
0
210
0
220
0
230
1
0
LINE
5
DB
100
AcDbEntity
8
1
62
256
6
ByLayer
370
18
48
1
60
0
100
AcDbLine
10
15.860767
20
12.084517
30
0
11
15.869152
21
12.133147
31
0
39
0
210
0
220
0
230
1
0
LINE
5
DC
100
AcDbEntity
8
1
62
256
6
ByLayer
370
18
48
1
60
0
100
AcDbLine
10
7.2272
20
-1.947676
30
0
11
7.226499
21
1.93895
31
0
39
0
210
0
220
0
230
1
0
LINE
5
DD
100
AcDbEntity
8
1
62
256
6
ByLayer
370
18
48
1
60
0
100
AcDbLine
10
0.346266
20
10.387807
30
0
11
0.346266
21
10.237659
31
0
39
0
210
0
220
0
230
1
0
LINE
5
DE
100
AcDbEntity
8
1
62
256
6
ByLayer
370
18
48
1
60
0
100
AcDbLine
10
5.861489
20
-12.286578
30
0
11
5.985215
21
-12.349619
31
0
39
0
210
0
220
0
230
1
0
LINE
5
DF
100
AcDbEntity
8
1
62
256
6
ByLayer
370
18
48
1
60
0
100
AcDbLine
10
27.311763
20
-2.967569
30
0
11
27.311763
21
-1.042236
31
0
39
0
210
0
220
0
230
1
0
LINE
5
E0
100
AcDbEntity
8
1
62
256
6
ByLayer
370
18
48
1
60
0
100
AcDbLine
10
27.311763
20
1.568928
30
0
11
27.311763
21
2.296645
31
0
39
0
210
0
220
0
230
1
0
LINE
5
E1
100
AcDbEntity
8
1
62
256
6
ByLayer
370
18
48
1
60
0
100
AcDbLine
10
9.491098
20
-5.999733
30
0
11
26.391804
21
-5.999733
31
0
39
0
210
0
220
0
230
1
0
LINE
5
E2
100
AcDbEntity
8
1
62
256
6
ByLayer
370
18
48
1
60
0
100
AcDbLine
10
0.346266
20
12.0234
30
0
11
0.346266
21
11.964691
31
0
39
0
210
0
220
0
230
1
0
LINE
5
E3
100
AcDbEntity
8
1
62
256
6
ByLayer
370
18
48
1
60
0
100
AcDbLine
10
0
20
6.230979
30
0
11
0
21
7.164154
31
0
39
0
210
0
220
0
230
1
0
LINE
5
E4
100
AcDbEntity
8
1
62
256
6
ByLayer
370
18
48
1
60
0
100
AcDbLine
10
6.739789
20
12.78577
30
0
11
6.739789
21
12.549036
31
0
39
0
210
0
220
0
230
1
0
LINE
5
E5
100
AcDbEntity
8
1
62
256
6
ByLayer
370
18
48
1
60
0
100
AcDbLine
10
0.451234
20
-12.286578
30
0
11
5.861489
21
-12.286578
31
0
39
0
210
0
220
0
230
1
0
LINE
5
E6
100
AcDbEntity
8
1
62
256
6
ByLayer
370
18
48
1
60
0
100
AcDbLine
10
0.346266
20
6.567032
30
0
11
0.346266
21
6.19189
31
0
39
0
210
0
220
0
230
1
0
LINE
5
E7
100
AcDbEntity
8
1
62
256
6
ByLayer
370
18
48
1
60
0
100
AcDbLine
10
0.346266
20
-6.19189
30
0
11
0.346266
21
-6.567032
31
0
39
0
210
0
220
0
230
1
0
LINE
5
E8
100
AcDbEntity
8
1
62
256
6
ByLayer
370
18
48
1
60
0
100
AcDbLine
10
10.499254
20
10.725625
30
0
11
10.828763
21
9.693442
31
0
39
0
210
0
220
0
230
1
0
LINE
5
E9
100
AcDbEntity
8
1
62
256
6
ByLayer
370
18
48
1
60
0
100
AcDbLine
10
6.126954
20
12.421839
30
0
11
5.861489
21
12.286578
31
0
39
0
210
0
220
0
230
1
0
LINE
5
EA
100
AcDbEntity
8
1
62
256
6
ByLayer
370
18
48
1
60
0
100
AcDbLine
10
0
20
-5.054093
30
0
11
0
21
-3.388415
31
0
39
0
210
0
220
0
230
1
0
LINE
5
EB
100
AcDbEntity
8
1
62
256
6
ByLayer
370
18
48
1
60
0
100
AcDbLine
10
10.031548
20
-1.852826
30
0
11
16.867244
21
-1.912503
31
0
39
0
210
0
220
0
230
1
0
LINE
5
EC
100
AcDbEntity
8
SK1
62
256
6
ByLayer
370
18
48
1
60
0
100
AcDbLine
10
-0.298766
20
-9.103218
30
0
11
-0.298766
21
-9.905096
31
0
39
0
210
0
220
0
230
1
0
LINE
5
EE
100
AcDbEntity
8
SK1
62
256
6
ByLayer
370
18
48
1
60
0
100
AcDbLine
10
0
20
-10.484219
30
0
11
0
21
-10.104769
31
0
39
0
210
0
220
0
230
1
0
LINE
5
EF
100
AcDbEntity
8
SK1
62
256
6
ByLayer
370
18
48
1
60
0
100
AcDbLine
10
-0.238766
20
-9.263641
30
0
11
-0.238766
21
-9.909591
31
0
39
0
210
0
220
0
230
1
0
LINE
5
F0
100
AcDbEntity
8
SK1
62
256
6
ByLayer
370
18
48
1
60
0
100
AcDbLine
10
-0.298766
20
-9.993951
30
0
11
-0.298766
21
-9.905096
31
0
39
0
210
0
220
0
230
1
0
LINE
5
F1
100
AcDbEntity
8
SK1
62
256
6
ByLayer
370
18
48
1
60
0
100
AcDbLine
10
0
20
-10.104769
30
0
11
0
21
-9.670166
31
0
39
0
210
0
220
0
230
1
0
LINE
5
F2
100
AcDbEntity
8
SK1
62
256
6
ByLayer
370
18
48
1
60
0
100
AcDbLine
10
-0.298766
20
6.053345
30
0
11
-0.298766
21
6.282675
31
0
39
0
210
0
220
0
230
1
0
LINE
5
F3
100
AcDbEntity
8
SK1
62
256
6
ByLayer
370
18
48
1
60
0
100
AcDbLine
10
0
20
6.230979
30
0
11
0
21
7.164154
31
0
39
0
210
0
220
0
230
1
0
LINE
5
F4
100
AcDbEntity
8
SK1
62
256
6
ByLayer
370
18
48
1
60
0
100
AcDbLine
10
-0.238766
20
5.996051
30
0
11
-0.238766
21
4.100175
31
0
39
0
210
0
220
0
230
1
0
LINE
5
F5
100
AcDbEntity
8
SK1
62
256
6
ByLayer
370
18
48
1
60
0
100
AcDbLine
10
-0.238766
20
-4.100175
30
0
11
-0.238766
21
-5.996051
31
0
39
0
210
0
220
0
230
1
0
LINE
5
F6
100
AcDbEntity
8
SK1
62
256
6
ByLayer
370
18
48
1
60
0
100
AcDbLine
10
-0.298766
20
-6.282675
30
0
11
-0.298766
21
-6.053345
31
0
39
0
210
0
220
0
230
1
0
LINE
5
F7
100
AcDbEntity
8
SK1
62
256
6
ByLayer
370
18
48
1
60
0
100
AcDbLine
10
0
20
6.230979
30
0
11
0
21
5.053908
31
0
39
0
210
0
220
0
230
1
0
LINE
5
F8
100
AcDbEntity
8
SK1
62
256
6
ByLayer
370
18
48
1
60
0
100
AcDbLine
10
0
20
-5.053908
30
0
11
0
21
-6.230979
31
0
39
0
210
0
220
0
230
1
0
LINE
5
F9
100
AcDbEntity
8
SK1
62
256
6
ByLayer
370
18
48
1
60
0
100
AcDbLine
10
0
20
-7.164154
30
0
11
0
21
-6.230979
31
0
39
0
210
0
220
0
230
1
0
LINE
5
FA
100
AcDbEntity
8
SK1
62
256
6
ByLayer
370
18
48
1
60
0
100
AcDbLine
10
-0.298766
20
6.053345
30
0
11
-0.298766
21
3.617441
31
0
39
0
210
0
220
0
230
1
0
LINE
5
FB
100
AcDbEntity
8
SK1
62
256
6
ByLayer
370
18
48
1
60
0
100
AcDbLine
10
-0.298766
20
-3.617441
30
0
11
-0.298766
21
-6.053345
31
0
39
0
210
0
220
0
230
1
0
LINE
5
FC
100
AcDbEntity
8
SK1
62
256
6
ByLayer
370
18
48
1
60
0
100
AcDbLine
10
-0.298766
20
3.147011
30
0
11
-0.298766
21
-3.147011
31
0
39
0
210
0
220
0
230
1
0
LINE
5
FD
100
AcDbEntity
8
SK1
62
256
6
ByLayer
370
18
48
1
60
0
100
AcDbLine
10
0
20
-3.388415
30
0
11
0
21
3.388415
31
0
39
0
210
0
220
0
230
1
0
LINE
5
FE
100
AcDbEntity
8
SK1
62
256
6
ByLayer
370
18
48
1
60
0
100
AcDbLine
10
0
20
3.388415
30
0
11
0
21
5.054093
31
0
39
0
210
0
220
0
230
1
0
LINE
5
FF
100
AcDbEntity
8
SK1
62
256
6
ByLayer
370
18
48
1
60
0
100
AcDbLine
10
0
20
-5.054093
30
0
11
0
21
-3.388415
31
0
39
0
210
0
220
0
230
1
0
LINE
5
100
100
AcDbEntity
8
SK1
62
256
6
ByLayer
370
18
48
1
60
0
100
AcDbLine
10
-0.298766
20
-3.617502
30
0
11
-0.298766
21
-3.147011
31
0
39
0
210
0
220
0
230
1
0
LINE
5
101
100
AcDbEntity
8
SK1
62
256
6
ByLayer
370
18
48
1
60
0
100
AcDbLine
10
-0.238766
20
2.992241
30
0
11
-0.238766
21
-2.992241
31
0
39
0
210
0
220
0
230
1
0
LINE
5
102
100
AcDbEntity
8
SK1
62
256
6
ByLayer
370
18
48
1
60
0
100
AcDbLine
10
-0.298766
20
3.147011
30
0
11
-0.298766
21
3.617502
31
0
39
0
210
0
220
0
230
1
0
LINE
5
103
100
AcDbEntity
8
SK1
62
256
6
ByLayer
370
18
48
1
60
0
100
AcDbLine
10
-0.298766
20
11.465333
30
0
11
-0.298766
21
11.159033
31
0
39
0
210
0
220
0
230
1
0
LINE
5
104
100
AcDbEntity
8
SK1
62
256
6
ByLayer
370
18
48
1
60
0
100
AcDbLine
10
0
20
11.715912
30
0
11
0
21
11.547978
31
0
39
0
210
0
220
0
230
1
0
LINE
5
105
100
AcDbEntity
8
SK1
62
256
6
ByLayer
370
18
48
1
60
0
100
AcDbLine
10
-0.238766
20
11.503145
30
0
11
-0.238766
21
11.255741
31
0
39
0
210
0
220
0
230
1
0
LINE
5
106
100
AcDbEntity
8
SK1
62
256
6
ByLayer
370
18
48
1
60
0
100
AcDbLine
10
-0.298766
20
11.465333
30
0
11
-0.298766
21
11.496135
31
0
39
0
210
0
220
0
230
1
0
LINE
5
107
100
AcDbEntity
8
SK1
62
256
6
ByLayer
370
18
48
1
60
0
100
AcDbLine
10
0
20
11.715912
30
0
11
0
21
11.827204
31
0
39
0
210
0
220
0
230
1
0
LINE
5
108
100
AcDbEntity
8
SK1
62
256
6
ByLayer
370
18
48
1
60
0
100
AcDbLine
10
-0.298766
20
11.111461
30
0
11
-0.298766
21
11.159097
31
0
39
0
210
0
220
0
230
1
0
LINE
5
109
100
AcDbEntity
8
SK1
62
256
6
ByLayer
370
18
48
1
60
0
100
AcDbLine
10
-0.238766
20
11.138817
30
0
11
-0.238766
21
10.779197
31
0
39
0
210
0
220
0
230
1
0
LINE
5
10A
100
AcDbEntity
8
SK1
62
256
6
ByLayer
370
18
48
1
60
0
100
AcDbLine
10
-0.298766
20
11.111461
30
0
11
-0.298766
21
10.666044
31
0
39
0
210
0
220
0
230
1
0
LINE
5
10B
100
AcDbEntity
8
SK1
62
256
6
ByLayer
370
18
48
1
60
0
100
AcDbLine
10
0
20
11.343229
30
0
11
0
21
11.548002
31
0
39
0
210
0
220
0
230
1
0
LINE
5
10C
100
AcDbEntity
8
SK1
62
256
6
ByLayer
370
18
48
1
60
0
100
AcDbLine
10
0
20
11.099518
30
0
11
0
21
11.343229
31
0
39
0
210
0
220
0
230
1
0
LINE
5
10D
100
AcDbEntity
8
SK1
62
256
6
ByLayer
370
18
48
1
60
0
100
AcDbLine
10
0
20
-9.670191
30
0
11
0
21
-9.172655
31
0
39
0
210
0
220
0
230
1
0
LINE
5
10E
100
AcDbEntity
8
SK1
62
256
6
ByLayer
370
18
48
1
60
0
100
AcDbLine
10
-0.298766
20
-9.103207
30
0
11
-0.298766
21
-8.985912
31
0
39
0
210
0
220
0
230
1
0
LINE
5
10F
100
AcDbEntity
8
SK1
62
256
6
ByLayer
370
18
48
1
60
0
100
AcDbLine
10
-0.298766
20
-7.96707
30
0
11
-0.298766
21
-8.985912
31
0
39
0
210
0
220
0
230
1
0
LINE
5
110
100
AcDbEntity
8
SK1
62
256
6
ByLayer
370
18
48
1
60
0
100
AcDbLine
10
-0.238766
20
-8.120312
30
0
11
-0.238766
21
-8.976406
31
0
39
0
210
0
220
0
230
1
0
LINE
5
111
100
AcDbEntity
8
SK1
62
256
6
ByLayer
370
18
48
1
60
0
100
AcDbLine
10
0
20
-8.601222
30
0
11
0
21
-9.172655
31
0
39
0
210
0
220
0
230
1
0
LINE
5
112
100
AcDbEntity
8
SK1
62
256
6
ByLayer
370
18
48
1
60
0
100
AcDbLine
10
0
20
9.172655
30
0
11
0
21
9.670191
31
0
39
0
210
0
220
0
230
1
0
LINE
5
113
100
AcDbEntity
8
SK1
62
256
6
ByLayer
370
18
48
1
60
0
100
AcDbLine
10
-0.298766
20
8.985912
30
0
11
-0.298766
21
9.103207
31
0
39
0
210
0
220
0
230
1
0
LINE
5
114
100
AcDbEntity
8
SK1
62
256
6
ByLayer
370
18
48
1
60
0
100
AcDbLine
10
-0.298766
20
8.985912
30
0
11
-0.298766
21
7.96707
31
0
39
0
210
0
220
0
230
1
0
LINE
5
115
100
AcDbEntity
8
SK1
62
256
6
ByLayer
370
18
48
1
60
0
100
AcDbLine
10
-0.238766
20
8.976406
30
0
11
-0.238766
21
8.120312
31
0
39
0
210
0
220
0
230
1
0
LINE
5
116
100
AcDbEntity
8
SK1
62
256
6
ByLayer
370
18
48
1
60
0
100
AcDbLine
10
0
20
9.172655
30
0
11
0
21
8.601222
31
0
39
0
210
0
220
0
230
1
0
LINE
5
117
100
AcDbEntity
8
SK1
62
256
6
ByLayer
370
18
48
1
60
0
100
AcDbLine
10
-0.298766
20
9.905096
30
0
11
-0.298766
21
9.993951
31
0
39
0
210
0
220
0
230
1
0
LINE
5
118
100
AcDbEntity
8
SK1
62
256
6
ByLayer
370
18
48
1
60
0
100
AcDbLine
10
0
20
-11.343229
30
0
11
0
21
-11.099518
31
0
39
0
210
0
220
0
230
1
0
LINE
5
119
100
AcDbEntity
8
SK1
62
256
6
ByLayer
370
18
48
1
60
0
100
AcDbLine
10
-0.298766
20
-10.666044
30
0
11
-0.298766
21
-11.111461
31
0
39
0
210
0
220
0
230
1
0
LINE
5
11A
100
AcDbEntity
8
SK1
62
256
6
ByLayer
370
18
48
1
60
0
100
AcDbLine
10
-0.298766
20
-11.159097
30
0
11
-0.298766
21
-11.111461
31
0
39
0
210
0
220
0
230
1
0
LINE
5
11B
100
AcDbEntity
8
SK1
62
256
6
ByLayer
370
18
48
1
60
0
100
AcDbLine
10
0
20
-11.548002
30
0
11
0
21
-11.343229
31
0
39
0
210
0
220
0
230
1
0
LINE
5
11C
100
AcDbEntity
8
SK1
62
256
6
ByLayer
370
18
48
1
60
0
100
AcDbLine
10
-0.238766
20
-10.779197
30
0
11
-0.238766
21
-11.138817
31
0
39
0
210
0
220
0
230
1
0
LINE
5
11D
100
AcDbEntity
8
SK1
62
256
6
ByLayer
370
18
48
1
60
0
100
AcDbLine
10
-0.298766
20
-11.159033
30
0
11
-0.298766
21
-11.465333
31
0
39
0
210
0
220
0
230
1
0
LINE
5
11E
100
AcDbEntity
8
SK1
62
256
6
ByLayer
370
18
48
1
60
0
100
AcDbLine
10
0
20
-11.827204
30
0
11
0
21
-11.715912
31
0
39
0
210
0
220
0
230
1
0
LINE
5
11F
100
AcDbEntity
8
SK1
62
256
6
ByLayer
370
18
48
1
60
0
100
AcDbLine
10
0
20
-11.547978
30
0
11
0
21
-11.715912
31
0
39
0
210
0
220
0
230
1
0
LINE
5
120
100
AcDbEntity
8
SK1
62
256
6
ByLayer
370
18
48
1
60
0
100
AcDbLine
10
-0.298766
20
-11.496135
30
0
11
-0.298766
21
-11.465333
31
0
39
0
210
0
220
0
230
1
0
LINE
5
121
100
AcDbEntity
8
SK1
62
256
6
ByLayer
370
18
48
1
60
0
100
AcDbLine
10
-0.238766
20
-11.255741
30
0
11
-0.238766
21
-11.503145
31
0
39
0
210
0
220
0
230
1
0
LINE
5
122
100
AcDbEntity
8
SK1
62
256
6
ByLayer
370
18
48
1
60
0
100
AcDbLine
10
-0.298766
20
7.762558
30
0
11
-0.298766
21
7.920397
31
0
39
0
210
0
220
0
230
1
0
LINE
5
123
100
AcDbEntity
8
SK1
62
256
6
ByLayer
370
18
48
1
60
0
100
AcDbLine
10
-0.298766
20
-10.666056
30
0
11
-0.298766
21
-10.59954
31
0
39
0
210
0
220
0
230
1
0
LINE
5
124
100
AcDbEntity
8
SK1
62
256
6
ByLayer
370
18
48
1
60
0
100
AcDbLine
10
-0.238766
20
7.734775
30
0
11
-0.238766
21
6.552563
31
0
39
0
210
0
220
0
230
1
0
LINE
5
125
100
AcDbEntity
8
SK1
62
256
6
ByLayer
370
18
48
1
60
0
100
AcDbLine
10
-0.238766
20
-6.552563
30
0
11
-0.238766
21
-7.734775
31
0
39
0
210
0
220
0
230
1
0
LINE
5
126
100
AcDbEntity
8
SK1
62
256
6
ByLayer
370
18
48
1
60
0
100
AcDbLine
10
-0.238766
20
-10.127467
30
0
11
-0.238766
21
-10.615984
31
0
39
0
210
0
220
0
230
1
0
LINE
5
127
100
AcDbEntity
8
SK1
62
256
6
ByLayer
370
18
48
1
60
0
100
AcDbLine
10
-0.298766
20
-9.993951
30
0
11
-0.298766
21
-10.59954
31
0
39
0
210
0
220
0
230
1
0
LINE
5
128
100
AcDbEntity
8
SK1
62
256
6
ByLayer
370
18
48
1
60
0
100
AcDbLine
10
0
20
-10.484191
30
0
11
0
21
-10.814347
31
0
39
0
210
0
220
0
230
1
0
LINE
5
129
100
AcDbEntity
8
SK1
62
256
6
ByLayer
370
18
48
1
60
0
100
AcDbLine
10
0
20
-11.099554
30
0
11
0
21
-10.814347
31
0
39
0
210
0
220
0
230
1
0
LINE
5
12A
100
AcDbEntity
8
SK1
62
256
6
ByLayer
370
18
48
1
60
0
100
AcDbLine
10
-0.298766
20
9.905096
30
0
11
-0.298766
21
9.103218
31
0
39
0
210
0
220
0
230
1
0
LINE
5
12B
100
AcDbEntity
8
SK1
62
256
6
ByLayer
370
18
48
1
60
0
100
AcDbLine
10
0
20
9.670166
30
0
11
0
21
10.104769
31
0
39
0
210
0
220
0
230
1
0
LINE
5
12C
100
AcDbEntity
8
SK1
62
256
6
ByLayer
370
18
48
1
60
0
100
AcDbLine
10
-0.238766
20
9.909591
30
0
11
-0.238766
21
9.263641
31
0
39
0
210
0
220
0
230
1
0
LINE
5
12D
100
AcDbEntity
8
SK1
62
256
6
ByLayer
370
18
48
1
60
0
100
AcDbLine
10
0
20
10.104769
30
0
11
0
21
10.484219
31
0
39
0
210
0
220
0
230
1
0
LINE
5
12E
100
AcDbEntity
8
SK1
62
256
6
ByLayer
370
18
48
1
60
0
100
AcDbLine
10
-0.298766
20
-7.920397
30
0
11
-0.298766
21
-7.762558
31
0
39
0
210
0
220
0
230
1
0
LINE
5
12F
100
AcDbEntity
8
SK1
62
256
6
ByLayer
370
18
48
1
60
0
100
AcDbLine
10
0
20
-7.940016
30
0
11
0
21
-7.164127
31
0
39
0
210
0
220
0
230
1
0
LINE
5
130
100
AcDbEntity
8
SK1
62
256
6
ByLayer
370
18
48
1
60
0
100
AcDbLine
10
0
20
7.164127
30
0
11
0
21
7.940016
31
0
39
0
210
0
220
0
230
1
0
LINE
5
131
100
AcDbEntity
8
SK1
62
256
6
ByLayer
370
18
48
1
60
0
100
AcDbLine
10
0
20
-8.601241
30
0
11
0
21
-7.940016
31
0
39
0
210
0
220
0
230
1
0
LINE
5
132
100
AcDbEntity
8
SK1
62
256
6
ByLayer
370
18
48
1
60
0
100
AcDbLine
10
-0.298766
20
7.762558
30
0
11
-0.298766
21
6.282578
31
0
39
0
210
0
220
0
230
1
0
LINE
5
133
100
AcDbEntity
8
SK1
62
256
6
ByLayer
370
18
48
1
60
0
100
AcDbLine
10
-0.298766
20
-6.282578
30
0
11
-0.298766
21
-7.762558
31
0
39
0
210
0
220
0
230
1
0
LINE
5
134
100
AcDbEntity
8
SK1
62
256
6
ByLayer
370
18
48
1
60
0
100
AcDbLine
10
0
20
7.940016
30
0
11
0
21
8.601241
31
0
39
0
210
0
220
0
230
1
0
LINE
5
135
100
AcDbEntity
8
SK1
62
256
6
ByLayer
370
18
48
1
60
0
100
AcDbLine
10
0
20
10.814347
30
0
11
0
21
11.099554
31
0
39
0
210
0
220
0
230
1
0
LINE
5
136
100
AcDbEntity
8
SK1
62
256
6
ByLayer
370
18
48
1
60
0
100
AcDbLine
10
-0.238766
20
10.615984
30
0
11
-0.238766
21
10.127467
31
0
39
0
210
0
220
0
230
1
0
LINE
5
137
100
AcDbEntity
8
SK1
62
256
6
ByLayer
370
18
48
1
60
0
100
AcDbLine
10
-0.298766
20
10.59954
30
0
11
-0.298766
21
10.666056
31
0
39
0
210
0
220
0
230
1
0
LINE
5
138
100
AcDbEntity
8
SK1
62
256
6
ByLayer
370
18
48
1
60
0
100
AcDbLine
10
-0.298766
20
10.59954
30
0
11
-0.298766
21
9.993951
31
0
39
0
210
0
220
0
230
1
0
LINE
5
139
100
AcDbEntity
8
SK1
62
256
6
ByLayer
370
18
48
1
60
0
100
AcDbLine
10
0
20
10.814347
30
0
11
0
21
10.484191
31
0
39
0
210
0
220
0
230
1
0
LINE
5
13A
100
AcDbEntity
8
1
62
256
6
ByLayer
370
18
48
1
60
0
100
AcDbLine
10
20.274294
20
8.826112
30
0
11
20.292018
21
8.817056
31
0
39
0
210
0
220
0
230
1
0
LINE
5
13B
100
AcDbEntity
8
1
62
256
6
ByLayer
370
18
48
1
60
0
100
AcDbLine
10
20.292018
20
8.817056
30
0
11
20.334657
21
9.250279
31
0
39
0
210
0
220
0
230
1
0
LINE
5
13C
100
AcDbEntity
8
1
62
256
6
ByLayer
370
18
48
1
60
0
100
AcDbLine
10
20.274294
20
8.826112
30
0
11
20.317216
21
9.262218
31
0
39
0
210
0
220
0
230
1
0
LINE
5
13D
100
AcDbEntity
8
1
62
256
6
ByLayer
370
18
48
1
60
0
100
AcDbLine
10
21.964311
20
9.322151
30
0
11
21.965162
21
9.302845
31
0
39
0
210
0
220
0
230
1
0
LINE
5
13E
100
AcDbEntity
8
1
62
256
6
ByLayer
370
18
48
1
60
0
100
AcDbLine
10
19.904428
20
7.208648
30
0
11
19.943377
21
7.604384
31
0
39
0
210
0
220
0
230
1
0
LINE
5
13F
100
AcDbEntity
8
1
62
256
6
ByLayer
370
18
48
1
60
0
100
AcDbLine
10
22.776148
20
8.903735
30
0
11
22.81907
21
9.33984
31
0
39
0
210
0
220
0
230
1
0
LINE
5
140
100
AcDbEntity
8
1
62
256
6
ByLayer
370
18
48
1
60
0
100
AcDbLine
10
22.131867
20
6.371022
30
0
11
22.140251
21
6.456206
31
0
39
0
210
0
220
0
230
1
0
LINE
5
141
100
AcDbEntity
8
1
62
256
6
ByLayer
370
18
48
1
60
0
100
AcDbLine
10
22.759196
20
8.893603
30
0
11
22.801835
21
9.326826
31
0
39
0
210
0
220
0
230
1
0
LINE
5
142
100
AcDbEntity
8
1
62
256
6
ByLayer
370
18
48
1
60
0
100
AcDbLine
10
21.965162
20
9.302845
30
0
11
22.0078
21
9.736068
31
0
39
0
210
0
220
0
230
1
0
LINE
5
143
100
AcDbEntity
8
1
62
256
6
ByLayer
370
18
48
1
60
0
100
AcDbLine
10
22.128871
20
6.367064
30
0
11
22.139262
21
6.472635
31
0
39
0
210
0
220
0
230
1
0
LINE
5
144
100
AcDbEntity
8
1
62
256
6
ByLayer
370
18
48
1
60
0
100
AcDbLine
10
21.964311
20
9.322151
30
0
11
22.007234
21
9.758257
31
0
39
0
210
0
220
0
230
1
0
LINE
5
145
100
AcDbEntity
8
1
62
256
6
ByLayer
370
18
48
1
60
0
100
AcDbLine
10
23.281938
20
7.276066
30
0
11
23.324576
21
7.709289
31
0
39
0
210
0
220
0
230
1
0
LINE
5
146
100
AcDbEntity
8
1
62
256
6
ByLayer
370
18
48
1
60
0
100
AcDbLine
10
23.281938
20
7.276066
30
0
11
23.299594
21
7.266886
31
0
39
0
210
0
220
0
230
1
0
LINE
5
147
100
AcDbEntity
8
1
62
256
6
ByLayer
370
18
48
1
60
0
100
AcDbLine
10
22.759196
20
8.893603
30
0
11
22.776148
21
8.903735
31
0
39
0
210
0
220
0
230
1
0
LINE
5
148
100
AcDbEntity
8
1
62
256
6
ByLayer
370
18
48
1
60
0
100
AcDbLine
10
21.051141
20
9.274486
30
0
11
21.093779
21
9.707709
31
0
39
0
210
0
220
0
230
1
0
LINE
5
149
100
AcDbEntity
8
1
62
256
6
ByLayer
370
18
48
1
60
0
100
AcDbLine
10
19.89113
20
7.234727
30
0
11
19.926787
21
7.597015
31
0
39
0
210
0
220
0
230
1
0
LINE
5
14A
100
AcDbEntity
8
1
62
256
6
ByLayer
370
18
48
1
60
0
100
AcDbLine
10
21.222409
20
6.38756
30
0
11
21.226375
21
6.427852
31
0
39
0
210
0
220
0
230
1
0
LINE
5
14B
100
AcDbEntity
8
1
62
256
6
ByLayer
370
18
48
1
60
0
100
AcDbLine
10
23.299594
20
7.266886
30
0
11
23.342517
21
7.702992
31
0
39
0
210
0
220
0
230
1
0
LINE
5
14C
100
AcDbEntity
8
1
62
256
6
ByLayer
370
18
48
1
60
0
100
AcDbLine
10
24.087206
20
15.149586
30
0
11
25.275162
21
17.167396
31
0
39
0
210
0
220
0
230
1
0
LINE
5
14D
100
AcDbEntity
8
1
62
256
6
ByLayer
370
18
48
1
60
0
100
AcDbLine
10
27.98247
20
10.081455
30
0
11
27.98247
21
9.210583
31
0
39
0
210
0
220
0
230
1
0
LINE
5
14E
100
AcDbEntity
8
1
62
256
6
ByLayer
370
18
48
1
60
0
100
AcDbLine
10
18.936012
20
13.670016
30
0
11
21.474753
21
15.15834
31
0
39
0
210
0
220
0
230
1
0
LINE
5
14F
100
AcDbEntity
8
1
62
256
6
ByLayer
370
18
48
1
60
0
100
AcDbLine
10
27.556199
20
-0.956347
30
0
11
27.62725
21
-0.838029
31
0
39
0
210
0
220
0
230
1
0
LINE
5
150
100
AcDbEntity
8
1
62
256
6
ByLayer
370
18
48
1
60
0
100
AcDbLine
10
17.881083
20
13.229906
30
0
11
18.451854
21
13.427087
31
0
39
0
210
0
220
0
230
1
0
LINE
5
151
100
AcDbEntity
8
1
62
256
6
ByLayer
370
18
48
1
60
0
100
AcDbLine
10
26.620833
20
14.712299
30
0
11
25.589575
21
16.536018
31
0
39
0
210
0
220
0
230
1
0
LINE
5
152
100
AcDbEntity
8
1
62
256
6
ByLayer
370
18
48
1
60
0
100
AcDbLine
10
24.766315
20
-1.057491
30
0
11
27.403127
21
-1.041924
31
0
39
0
210
0
220
0
230
1
0
LINE
5
153
100
AcDbEntity
8
1
62
256
6
ByLayer
370
18
48
1
60
0
100
AcDbLine
10
22.64135
20
13.508255
30
0
11
27.821752
21
13.46303
31
0
39
0
210
0
220
0
230
1
0
LINE
5
154
100
AcDbEntity
8
1
62
256
6
ByLayer
370
18
48
1
60
0
100
AcDbLine
10
14.730921
20
6.022065
30
0
11
14.682364
21
5.649485
31
0
39
0
210
0
220
0
230
1
0
LINE
5
155
100
AcDbEntity
8
1
62
256
6
ByLayer
370
18
48
1
60
0
100
AcDbLine
10
23.119817
20
15.016872
30
0
11
23.845772
21
15.010534
31
0
39
0
210
0
220
0
230
1
0
LINE
5
156
100
AcDbEntity
8
1
62
256
6
ByLayer
370
18
48
1
60
0
100
AcDbLine
10
25.521539
20
17.105985
30
0
11
25.478685
21
17.106359
31
0
39
0
210
0
220
0
230
1
0
LINE
5
157
100
AcDbEntity
8
1
62
256
6
ByLayer
370
18
48
1
60
0
100
AcDbLine
10
14.131063
20
6.77958
30
0
11
11.868051
21
6.968646
31
0
39
0
210
0
220
0
230
1
0
LINE
5
158
100
AcDbEntity
8
1
62
256
6
ByLayer
370
18
48
1
60
0
100
AcDbLine
10
27.814687
20
0.600187
30
0
11
27.62725
21
-0.838029
31
0
39
0
210
0
220
0
230
1
0
LINE
5
159
100
AcDbEntity
8
1
62
256
6
ByLayer
370
18
48
1
60
0
100
AcDbLine
10
16.702364
20
12.544729
30
0
11
17.482723
21
12.973352
31
0
39
0
210
0
220
0
230
1
0
LINE
5
15A
100
AcDbEntity
8
1
62
256
6
ByLayer
370
18
48
1
60
0
100
AcDbLine
10
20.397786
20
1.810902
30
0
11
21.066934
21
4.060424
31
0
39
0
210
0
220
0
230
1
0
LINE
5
15B
100
AcDbEntity
8
1
62
256
6
ByLayer
370
18
48
1
60
0
100
AcDbLine
10
26.002673
20
4.436835
30
0
11
23.412472
21
0.123492
31
0
39
0
210
0
220
0
230
1
0
LINE
5
15C
100
AcDbEntity
8
1
62
256
6
ByLayer
370
18
48
1
60
0
100
AcDbLine
10
19.443045
20
2.332481
30
0
11
20.090405
21
4.508757
31
0
39
0
210
0
220
0
230
1
0
LINE
5
15D
100
AcDbEntity
8
1
62
256
6
ByLayer
370
18
48
1
60
0
100
AcDbLine
10
11.831596
20
7.191115
30
0
11
11.815056
21
7.163561
31
0
39
0
210
0
220
0
230
1
0
LINE
5
15E
100
AcDbEntity
8
1
62
256
6
ByLayer
370
18
48
1
60
0
100
AcDbLine
10
16.296078
20
12.393634
30
0
11
16.532714
21
12.468402
31
0
39
0
210
0
220
0
230
1
0
LINE
5
15F
100
AcDbEntity
8
1
62
256
6
ByLayer
370
18
48
1
60
0
100
AcDbLine
10
27.096611
20
2.272096
30
0
11
27.274817
21
2.288456
31
0
39
0
210
0
220
0
230
1
0
LINE
5
160
100
AcDbEntity
8
1
62
256
6
ByLayer
370
18
48
1
60
0
100
AcDbLine
10
27.239499
20
0.877315
30
0
11
26.230093
21
2.487452
31
0
39
0
210
0
220
0
230
1
0
LINE
5
161
100
AcDbEntity
8
1
62
256
6
ByLayer
370
18
48
1
60
0
100
AcDbLine
10
16.219716
20
6.229879
30
0
11
13.629515
21
10.588448
31
0
39
0
210
0
220
0
230
1
0
LINE
5
162
100
AcDbEntity
8
1
62
256
6
ByLayer
370
18
48
1
60
0
100
AcDbLine
10
22.889205
20
15.145991
30
0
11
21.474753
21
15.15834
31
0
39
0
210
0
220
0
230
1
0
LINE
5
163
100
AcDbEntity
8
1
62
256
6
ByLayer
370
18
48
1
60
0
100
AcDbLine
10
22.889205
20
15.145991
30
0
11
22.89429
21
15.138588
31
0
39
0
210
0
220
0
230
1
0
LINE
5
164
100
AcDbEntity
8
1
62
256
6
ByLayer
370
18
48
1
60
0
100
AcDbLine
10
11.791472
20
7.303945
30
0
11
13.135864
21
9.494028
31
0
39
0
210
0
220
0
230
1
0
LINE
5
165
100
AcDbEntity
8
1
62
256
6
ByLayer
370
18
48
1
60
0
100
AcDbLine
10
23.563707
20
0.128789
30
0
11
24.622596
21
1.892107
31
0
39
0
210
0
220
0
230
1
0
LINE
5
166
100
AcDbEntity
8
1
62
256
6
ByLayer
370
18
48
1
60
0
100
AcDbLine
10
27.265374
20
3.567023
30
0
11
27.096611
21
2.272096
31
0
39
0
210
0
220
0
230
1
0
LINE
5
167
100
AcDbEntity
8
1
62
256
6
ByLayer
370
18
48
1
60
0
100
AcDbLine
10
13.334451
20
9.498428
30
0
11
14.545398
21
8.737182
31
0
39
0
210
0
220
0
230
1
0
LINE
5
168
100
AcDbEntity
8
1
62
256
6
ByLayer
370
18
48
1
60
0
100
AcDbLine
10
19.214249
20
2.497603
30
0
11
18.974961
21
3.659072
31
0
39
0
210
0
220
0
230
1
0
LINE
5
169
100
AcDbEntity
8
1
62
256
6
ByLayer
370
18
48
1
60
0
100
AcDbLine
10
27.947915
20
4.303913
30
0
11
27.557964
21
3.654545
31
0
39
0
210
0
220
0
230
1
0
LINE
5
16A
100
AcDbEntity
8
1
62
256
6
ByLayer
370
18
48
1
60
0
100
AcDbLine
10
15.027646
20
4.521133
30
0
11
15.069167
21
4.839726
31
0
39
0
210
0
220
0
230
1
0
LINE
5
16B
100
AcDbEntity
8
1
62
256
6
ByLayer
370
18
48
1
60
0
100
AcDbLine
10
11.681406
20
5.536506
30
0
11
13.962113
21
5.483219
31
0
39
0
210
0
220
0
230
1
0
LINE
5
16C
100
AcDbEntity
8
1
62
256
6
ByLayer
370
18
48
1
60
0
100
AcDbLine
10
19.855967
20
4.406594
30
0
11
19.273395
21
2.448122
31
0
39
0
210
0
220
0
230
1
0
LINE
5
16D
100
AcDbEntity
8
1
62
256
6
ByLayer
370
18
48
1
60
0
100
AcDbLine
10
27.986773
20
8.983465
30
0
11
27.196098
21
8.374264
31
0
39
0
210
0
220
0
230
1
0
LINE
5
16E
100
AcDbEntity
8
1
62
256
6
ByLayer
370
18
48
1
60
0
100
AcDbLine
10
11.642584
20
7.348043
30
0
11
13.556734
21
10.46629
31
0
39
0
210
0
220
0
230
1
0
LINE
5
16F
100
AcDbEntity
8
1
62
256
6
ByLayer
370
18
48
1
60
0
100
AcDbLine
10
27.443644
20
3.583876
30
0
11
27.274817
21
2.288456
31
0
39
0
210
0
220
0
230
1
0
LINE
5
170
100
AcDbEntity
8
1
62
256
6
ByLayer
370
18
48
1
60
0
100
AcDbLine
10
17.720125
20
13.134404
30
0
11
18.796094
21
12.935142
31
0
39
0
210
0
220
0
230
1
0
LINE
5
171
100
AcDbEntity
8
1
62
256
6
ByLayer
370
18
48
1
60
0
100
AcDbLine
10
27.624837
20
0.716371
30
0
11
27.239499
21
0.877315
31
0
39
0
210
0
220
0
230
1
0
LINE
5
172
100
AcDbEntity
8
1
62
256
6
ByLayer
370
18
48
1
60
0
100
AcDbLine
10
27.274164
20
3.568317
30
0
11
27.265374
21
3.567023
31
0
39
0
210
0
220
0
230
1
0
LINE
5
173
100
AcDbEntity
8
1
62
256
6
ByLayer
370
18
48
1
60
0
100
AcDbLine
10
16.919998
20
11.03103
30
0
11
17.57985
21
10.36488
31
0
39
0
210
0
220
0
230
1
0
LINE
5
174
100
AcDbEntity
8
1
62
256
6
ByLayer
370
18
48
1
60
0
100
AcDbLine
10
27.545216
20
0.525837
30
0
11
24.717532
21
0.342224
31
0
39
0
210
0
220
0
230
1
0
LINE
5
175
100
AcDbEntity
8
1
62
256
6
ByLayer
370
18
48
1
60
0
100
AcDbLine
10
25.589575
20
16.536018
30
0
11
25.596546
21
17.011758
31
0
39
0
210
0
220
0
230
1
0
LINE
5
176
100
AcDbEntity
8
1
62
256
6
ByLayer
370
18
48
1
60
0
100
AcDbLine
10
19.005099
20
4.827715
30
0
11
18.811913
21
4.178268
31
0
39
0
210
0
220
0
230
1
0
LINE
5
177
100
AcDbEntity
8
1
62
256
6
ByLayer
370
18
48
1
60
0
100
AcDbLine
10
11.64472
20
7.182529
30
0
11
11.457283
21
5.744313
31
0
39
0
210
0
220
0
230
1
0
LINE
5
178
100
AcDbEntity
8
1
62
256
6
ByLayer
370
18
48
1
60
0
100
AcDbLine
10
27.389137
20
2.359125
30
0
11
27.779088
21
3.008493
31
0
39
0
210
0
220
0
230
1
0
LINE
5
179
100
AcDbEntity
8
1
62
256
6
ByLayer
370
18
48
1
60
0
100
AcDbLine
10
14.773234
20
8.419269
30
0
11
17.961238
21
3.054769
31
0
39
0
210
0
220
0
230
1
0
LINE
5
17A
100
AcDbEntity
8
1
62
256
6
ByLayer
370
18
48
1
60
0
100
AcDbLine
10
11.457283
20
5.744313
30
0
11
11.528333
21
5.624755
31
0
39
0
210
0
220
0
230
1
0
LINE
5
17B
100
AcDbEntity
8
1
62
256
6
ByLayer
370
18
48
1
60
0
100
AcDbLine
10
25.380503
20
17.050781
30
0
11
23.918983
21
14.568307
31
0
39
0
210
0
220
0
230
1
0
LINE
5
17C
100
AcDbEntity
8
1
62
256
6
ByLayer
370
18
48
1
60
0
100
AcDbLine
10
14.292977
20
8.331385
30
0
11
14.316094
21
7.213137
31
0
39
0
210
0
220
0
230
1
0
LINE
5
17D
100
AcDbEntity
8
1
62
256
6
ByLayer
370
18
48
1
60
0
100
AcDbLine
10
25.934072
20
8.560503
30
0
11
27.984836
21
9.03677
31
0
39
0
210
0
220
0
230
1
0
LINE
5
17E
100
AcDbEntity
8
1
62
256
6
ByLayer
370
18
48
1
60
0
100
AcDbLine
10
27.589772
20
0.390217
30
0
11
23.563707
21
0.128789
31
0
39
0
210
0
220
0
230
1
0
LINE
5
17F
100
AcDbEntity
8
1
62
256
6
ByLayer
370
18
48
1
60
0
100
AcDbLine
10
18.841658
20
3.632803
30
0
11
19.055283
21
2.595898
31
0
39
0
210
0
220
0
230
1
0
LINE
5
180
100
AcDbEntity
8
1
62
256
6
ByLayer
370
18
48
1
60
0
100
AcDbLine
10
27.641734
20
0.584216
30
0
11
27.66316
21
0.619897
31
0
39
0
210
0
220
0
230
1
0
LINE
5
181
100
AcDbEntity
8
1
62
256
6
ByLayer
370
18
48
1
60
0
100
AcDbLine
10
27.968211
20
7.463406
30
0
11
27.98139
21
4.746027
31
0
39
0
210
0
220
0
230
1
0
LINE
5
182
100
AcDbEntity
8
1
62
256
6
ByLayer
370
18
48
1
60
0
100
AcDbLine
10
21.695353
20
3.103625
30
0
11
21.95718
21
3.983826
31
0
39
0
210
0
220
0
230
1
0
LINE
5
183
100
AcDbEntity
8
1
62
256
6
ByLayer
370
18
48
1
60
0
100
AcDbLine
10
25.469634
20
14.061005
30
0
11
24.42782
21
14.675006
31
0
39
0
210
0
220
0
230
1
0
LINE
5
184
100
AcDbEntity
8
1
62
256
6
ByLayer
370
18
48
1
60
0
100
AcDbLine
10
26.137385
20
2.421573
30
0
11
27.146792
21
0.811437
31
0
39
0
210
0
220
0
230
1
0
LINE
5
185
100
AcDbEntity
8
1
62
256
6
ByLayer
370
18
48
1
60
0
100
AcDbLine
10
14.672156
20
5.627482
30
0
11
14.741629
21
5.777249
31
0
39
0
210
0
220
0
230
1
0
LINE
5
186
100
AcDbEntity
8
1
62
256
6
ByLayer
370
18
48
1
60
0
100
AcDbLine
10
19.255111
20
12.850136
30
0
11
19.741976
21
12.358624
31
0
39
0
210
0
220
0
230
1
0
LINE
5
187
100
AcDbEntity
8
1
62
256
6
ByLayer
370
18
48
1
60
0
100
AcDbLine
10
18.841658
20
13.052015
30
0
11
17.881083
21
13.229906
31
0
39
0
210
0
220
0
230
1
0
LINE
5
188
100
AcDbEntity
8
1
62
256
6
ByLayer
370
18
48
1
60
0
100
AcDbLine
10
27.664332
20
0.724196
30
0
11
27.624837
21
0.716371
31
0
39
0
210
0
220
0
230
1
0
LINE
5
189
100
AcDbEntity
8
1
62
256
6
ByLayer
370
18
48
1
60
0
100
AcDbLine
10
23.412472
20
0.123492
30
0
11
23.197131
21
0.122221
31
0
39
0
210
0
220
0
230
1
0
LINE
5
18A
100
AcDbEntity
8
1
62
256
6
ByLayer
370
18
48
1
60
0
100
AcDbLine
10
19.273395
20
2.448122
30
0
11
19.214249
21
2.497603
31
0
39
0
210
0
220
0
230
1
0
LINE
5
18B
100
AcDbEntity
8
1
62
256
6
ByLayer
370
18
48
1
60
0
100
AcDbLine
10
19.125296
20
11.603785
30
0
11
17.657105
21
13.08599
31
0
39
0
210
0
220
0
230
1
0
LINE
5
18C
100
AcDbEntity
8
1
62
256
6
ByLayer
370
18
48
1
60
0
100
AcDbLine
10
23.049324
20
0.009145
30
0
11
23.068419
21
0.155669
31
0
39
0
210
0
220
0
230
1
0
LINE
5
18D
100
AcDbEntity
8
1
62
256
6
ByLayer
370
18
48
1
60
0
100
AcDbLine
10
25.394195
20
16.537724
30
0
11
24.331271
21
14.732287
31
0
39
0
210
0
220
0
230
1
0
LINE
5
18E
100
AcDbEntity
8
1
62
256
6
ByLayer
370
18
48
1
60
0
100
AcDbLine
10
27.146792
20
0.811437
30
0
11
25.090294
21
0.677901
31
0
39
0
210
0
220
0
230
1
0
LINE
5
18F
100
AcDbEntity
8
1
62
256
6
ByLayer
370
18
48
1
60
0
100
AcDbLine
10
25.618736
20
17.048701
30
0
11
27.036716
21
14.541088
31
0
39
0
210
0
220
0
230
1
0
LINE
5
190
100
AcDbEntity
8
1
62
256
6
ByLayer
370
18
48
1
60
0
100
AcDbLine
10
25.521539
20
17.105985
30
0
11
25.499348
21
17.069042
31
0
39
0
210
0
220
0
230
1
0
LINE
5
191
100
AcDbEntity
8
1
62
256
6
ByLayer
370
18
48
1
60
0
100
AcDbLine
10
25.102856
20
1.795837
30
0
11
26.137385
21
2.421573
31
0
39
0
210
0
220
0
230
1
0
LINE
5
192
100
AcDbEntity
8
1
62
256
6
ByLayer
370
18
48
1
60
0
100
AcDbLine
10
11.910589
20
7.103506
30
0
11
14.694731
21
6.870901
31
0
39
0
210
0
220
0
230
1
0
LINE
5
193
100
AcDbEntity
8
1
62
256
6
ByLayer
370
18
48
1
60
0
100
AcDbLine
10
27.98139
20
4.746027
30
0
11
27.98139
21
4.424362
31
0
39
0
210
0
220
0
230
1
0
LINE
5
194
100
AcDbEntity
8
1
62
256
6
ByLayer
370
18
48
1
60
0
100
AcDbLine
10
27.527148
20
0.553693
30
0
11
27.545216
21
0.525837
31
0
39
0
210
0
220
0
230
1
0
LINE
5
195
100
AcDbEntity
8
1
62
256
6
ByLayer
370
18
48
1
60
0
100
AcDbLine
10
27.74502
20
13.593111
30
0
11
25.627243
21
13.6116
31
0
39
0
210
0
220
0
230
1
0
LINE
5
196
100
AcDbEntity
8
1
62
256
6
ByLayer
370
18
48
1
60
0
100
AcDbLine
10
14.730921
20
6.022065
30
0
11
14.367944
21
6.632852
31
0
39
0
210
0
220
0
230
1
0
LINE
5
197
100
AcDbEntity
8
1
62
256
6
ByLayer
370
18
48
1
60
0
100
AcDbLine
10
21.474753
20
15.15834
30
0
11
21.762987
21
15.316656
31
0
39
0
210
0
220
0
230
1
0
LINE
5
198
100
AcDbEntity
8
1
62
256
6
ByLayer
370
18
48
1
60
0
100
AcDbLine
10
25.380503
20
17.050781
30
0
11
25.401166
21
17.013464
31
0
39
0
210
0
220
0
230
1
0
LINE
5
199
100
AcDbEntity
8
1
62
256
6
ByLayer
370
18
48
1
60
0
100
AcDbLine
10
11.71577
20
7.062971
30
0
11
11.528333
21
5.624755
31
0
39
0
210
0
220
0
230
1
0
LINE
5
19A
100
AcDbEntity
8
1
62
256
6
ByLayer
370
18
48
1
60
0
100
AcDbLine
10
11.793629
20
7.199617
30
0
11
11.815056
21
7.163561
31
0
39
0
210
0
220
0
230
1
0
LINE
5
19B
100
AcDbEntity
8
1
62
256
6
ByLayer
370
18
48
1
60
0
100
AcDbLine
10
15.069167
20
4.839726
30
0
11
14.679215
21
5.495903
31
0
39
0
210
0
220
0
230
1
0
LINE
5
19C
100
AcDbEntity
8
1
62
256
6
ByLayer
370
18
48
1
60
0
100
AcDbLine
10
27.664332
20
0.724196
30
0
11
26.276399
21
2.938133
31
0
39
0
210
0
220
0
230
1
0
LINE
5
19D
100
AcDbEntity
8
1
62
256
6
ByLayer
370
18
48
1
60
0
100
AcDbLine
10
27.281891
20
8.268724
30
0
11
27.987769
21
8.81259
31
0
39
0
210
0
220
0
230
1
0
LINE
5
19E
100
AcDbEntity
8
1
62
256
6
ByLayer
370
18
48
1
60
0
100
AcDbLine
10
14.131063
20
6.77958
30
0
11
13.962113
21
5.483219
31
0
39
0
210
0
220
0
230
1
0
LINE
5
19F
100
AcDbEntity
8
1
62
256
6
ByLayer
370
18
48
1
60
0
100
AcDbLine
10
23.197131
20
0.122221
30
0
11
23.173276
21
-0.060818
31
0
39
0
210
0
220
0
230
1
0
LINE
5
1A0
100
AcDbEntity
8
1
62
256
6
ByLayer
370
18
48
1
60
0
100
AcDbLine
10
14.200226
20
5.345942
30
0
11
14.524052
21
4.801034
31
0
39
0
210
0
220
0
230
1
0
LINE
5
1A1
100
AcDbEntity
8
1
62
256
6
ByLayer
370
18
48
1
60
0
100
AcDbLine
10
27.623666
20
0.612072
30
0
11
27.66316
21
0.619897
31
0
39
0
210
0
220
0
230
1
0
LINE
5
1A2
100
AcDbEntity
8
1
62
256
6
ByLayer
370
18
48
1
60
0
100
AcDbLine
10
20.223404
20
1.890232
30
0
11
19.443045
21
2.332481
31
0
39
0
210
0
220
0
230
1
0
LINE
5
1A3
100
AcDbEntity
8
1
62
256
6
ByLayer
370
18
48
1
60
0
100
AcDbLine
10
24.42782
20
14.675006
30
0
11
25.490745
21
16.480442
31
0
39
0
210
0
220
0
230
1
0
LINE
5
1A4
100
AcDbEntity
8
1
62
256
6
ByLayer
370
18
48
1
60
0
100
AcDbLine
10
13.827682
20
10.8601
30
0
11
15.342991
21
11.692405
31
0
39
0
210
0
220
0
230
1
0
LINE
5
1A5
100
AcDbEntity
8
1
62
256
6
ByLayer
370
18
48
1
60
0
100
AcDbLine
10
27.050933
20
3.427091
30
0
11
26.687956
21
2.822642
31
0
39
0
210
0
220
0
230
1
0
LINE
5
1A6
100
AcDbEntity
8
1
62
256
6
ByLayer
370
18
48
1
60
0
100
AcDbLine
10
23.068419
20
0.155669
30
0
11
21.553111
21
1.014432
31
0
39
0
210
0
220
0
230
1
0
LINE
5
1A7
100
AcDbEntity
8
1
62
256
6
ByLayer
370
18
48
1
60
0
100
AcDbLine
10
27.14181
20
0.714637
30
0
11
27.527148
21
0.553693
31
0
39
0
210
0
220
0
230
1
0
LINE
5
1A8
100
AcDbEntity
8
1
62
256
6
ByLayer
370
18
48
1
60
0
100
AcDbLine
10
11.829439
20
7.295443
30
0
11
11.791472
21
7.303945
31
0
39
0
210
0
220
0
230
1
0
LINE
5
1A9
100
AcDbEntity
8
1
62
256
6
ByLayer
370
18
48
1
60
0
100
AcDbLine
10
26.951831
20
14.352086
30
0
11
25.707304
21
13.647593
31
0
39
0
210
0
220
0
230
1
0
LINE
5
1AA
100
AcDbEntity
8
1
62
256
6
ByLayer
370
18
48
1
60
0
100
AcDbLine
10
27.98247
20
9.210583
30
0
11
25.70364
21
8.681349
31
0
39
0
210
0
220
0
230
1
0
LINE
5
1AB
100
AcDbEntity
8
1
62
256
6
ByLayer
370
18
48
1
60
0
100
AcDbLine
10
27.557964
20
3.654545
30
0
11
27.389137
21
2.359125
31
0
39
0
210
0
220
0
230
1
0
LINE
5
1AC
100
AcDbEntity
8
1
62
256
6
ByLayer
370
18
48
1
60
0
100
AcDbLine
10
14.741629
20
5.777249
30
0
11
15.448855
21
4.58719
31
0
39
0
210
0
220
0
230
1
0
LINE
5
1AD
100
AcDbEntity
8
1
62
256
6
ByLayer
370
18
48
1
60
0
100
AcDbLine
10
27.984836
20
10.291578
30
0
11
25.629307
21
9.744532
31
0
39
0
210
0
220
0
230
1
0
LINE
5
1AE
100
AcDbEntity
8
1
62
256
6
ByLayer
370
18
48
1
60
0
100
AcDbLine
10
17.625273
20
10.401555
30
0
11
16.965421
21
11.067705
31
0
39
0
210
0
220
0
230
1
0
LINE
5
1AF
100
AcDbEntity
8
1
62
256
6
ByLayer
370
18
48
1
60
0
100
AcDbLine
10
26.522003
20
14.656723
30
0
11
25.469634
21
14.061005
31
0
39
0
210
0
220
0
230
1
0
LINE
5
1B0
100
AcDbEntity
8
1
62
256
6
ByLayer
370
18
48
1
60
0
100
AcDbLine
10
26.373795
20
11.002574
30
0
11
25.452116
21
10.788524
31
0
39
0
210
0
220
0
230
1
0
LINE
5
1B1
100
AcDbEntity
8
1
62
256
6
ByLayer
370
18
48
1
60
0
100
AcDbLine
10
11.910589
20
7.103506
30
0
11
11.927129
21
7.131059
31
0
39
0
210
0
220
0
230
1
0
LINE
5
1B2
100
AcDbEntity
8
1
62
256
6
ByLayer
370
18
48
1
60
0
100
AcDbLine
10
25.085312
20
0.5811
30
0
11
27.14181
21
0.714637
31
0
39
0
210
0
220
0
230
1
0
LINE
5
1B3
100
AcDbEntity
8
1
62
256
6
ByLayer
370
18
48
1
60
0
100
AcDbLine
10
18.485264
20
10.744812
30
0
11
16.702364
21
12.544729
31
0
39
0
210
0
220
0
230
1
0
LINE
5
1B4
100
AcDbEntity
8
1
62
256
6
ByLayer
370
18
48
1
60
0
100
AcDbLine
10
13.269003
20
8.975092
30
0
11
14.292977
21
8.331385
31
0
39
0
210
0
220
0
230
1
0
LINE
5
1B5
100
AcDbEntity
8
1
62
256
6
ByLayer
370
18
48
1
60
0
100
AcDbLine
10
14.679215
20
5.495903
30
0
11
14.58425
21
4.767229
31
0
39
0
210
0
220
0
230
1
0
LINE
5
1B6
100
AcDbEntity
8
1
62
256
6
ByLayer
370
18
48
1
60
0
100
AcDbLine
10
27.814687
20
0.600187
30
0
11
27.743637
21
0.481869
31
0
39
0
210
0
220
0
230
1
0
LINE
5
1B7
100
AcDbEntity
8
1
62
256
6
ByLayer
370
18
48
1
60
0
100
AcDbLine
10
25.312021
20
13.614352
30
0
11
18.936012
21
13.670016
31
0
39
0
210
0
220
0
230
1
0
LINE
5
1B8
100
AcDbEntity
8
1
62
256
6
ByLayer
370
18
48
1
60
0
100
AcDbLine
10
25.726096
20
17.163459
30
0
11
27.74502
21
13.593111
31
0
39
0
210
0
220
0
230
1
0
LINE
5
1B9
100
AcDbEntity
8
1
62
256
6
ByLayer
370
18
48
1
60
0
100
AcDbLine
10
12.298526
20
7.285397
30
0
11
14.323357
21
7.11623
31
0
39
0
210
0
220
0
230
1
0
LINE
5
1BA
100
AcDbEntity
8
1
62
256
6
ByLayer
370
18
48
1
60
0
100
AcDbLine
10
13.178576
20
9.042569
30
0
11
12.200836
21
7.449781
31
0
39
0
210
0
220
0
230
1
0
LINE
5
1BB
100
AcDbEntity
8
1
62
256
6
ByLayer
370
18
48
1
60
0
100
AcDbLine
10
25.2326
20
13.651737
30
0
11
24.000557
21
14.377851
31
0
39
0
210
0
220
0
230
1
0
LINE
5
1BC
100
AcDbEntity
8
1
62
256
6
ByLayer
370
18
48
1
60
0
100
AcDbLine
10
11.927129
20
7.131059
30
0
11
12.298526
21
7.285397
31
0
39
0
210
0
220
0
230
1
0
LINE
5
1BD
100
AcDbEntity
8
1
62
256
6
ByLayer
370
18
48
1
60
0
100
AcDbLine
10
21.894637
20
3.995427
30
0
11
21.632811
21
3.115227
31
0
39
0
210
0
220
0
230
1
0
LINE
5
1BE
100
AcDbEntity
8
1
62
256
6
ByLayer
370
18
48
1
60
0
100
AcDbLine
10
25.466869
20
10.722092
30
0
11
26.388548
21
10.936142
31
0
39
0
210
0
220
0
230
1
0
LINE
5
1BF
100
AcDbEntity
8
1
62
256
6
ByLayer
370
18
48
1
60
0
100
AcDbLine
10
25.499348
20
17.069042
30
0
11
25.478685
21
17.106359
31
0
39
0
210
0
220
0
230
1
0
LINE
5
1C0
100
AcDbEntity
8
1
62
256
6
ByLayer
370
18
48
1
60
0
100
AcDbLine
10
20.649922
20
1.731867
30
0
11
20.397786
21
1.810902
31
0
39
0
210
0
220
0
230
1
0
LINE
5
1C1
100
AcDbEntity
8
1
62
256
6
ByLayer
370
18
48
1
60
0
100
AcDbLine
10
27.992586
20
10.623776
30
0
11
27.984836
21
10.291578
31
0
39
0
210
0
220
0
230
1
0
LINE
5
1C2
100
AcDbEntity
8
1
62
256
6
ByLayer
370
18
48
1
60
0
100
AcDbLine
10
12.291263
20
7.382304
30
0
11
13.269003
21
8.975092
31
0
39
0
210
0
220
0
230
1
0
LINE
5
1C3
100
AcDbEntity
8
1
62
256
6
ByLayer
370
18
48
1
60
0
100
AcDbLine
10
27.589772
20
0.390217
30
0
11
27.403127
21
-1.041924
31
0
39
0
210
0
220
0
230
1
0
LINE
5
1C4
100
AcDbEntity
8
1
62
256
6
ByLayer
370
18
48
1
60
0
100
AcDbLine
10
26.687956
20
2.822642
30
0
11
26.661608
21
2.620477
31
0
39
0
210
0
220
0
230
1
0
LINE
5
1C5
100
AcDbEntity
8
1
62
256
6
ByLayer
370
18
48
1
60
0
100
AcDbLine
10
21.887916
20
15.347918
30
0
11
22.667819
21
15.341109
31
0
39
0
210
0
220
0
230
1
0
LINE
5
1C6
100
AcDbEntity
8
1
62
256
6
ByLayer
370
18
48
1
60
0
100
AcDbLine
10
25.090294
20
0.677901
30
0
11
25.102856
21
1.795837
31
0
39
0
210
0
220
0
230
1
0
LINE
5
1C7
100
AcDbEntity
8
1
62
256
6
ByLayer
370
18
48
1
60
0
100
AcDbLine
10
25.492124
20
9.503099
30
0
11
27.98247
21
10.081455
31
0
39
0
210
0
220
0
230
1
0
LINE
5
1C8
100
AcDbEntity
8
1
62
256
6
ByLayer
370
18
48
1
60
0
100
AcDbLine
10
19.055283
20
2.595898
30
0
11
18.451854
21
2.80333
31
0
39
0
210
0
220
0
230
1
0
LINE
5
1C9
100
AcDbEntity
8
1
62
256
6
ByLayer
370
18
48
1
60
0
100
AcDbLine
10
15.448855
20
4.58719
30
0
11
15.160621
21
4.750539
31
0
39
0
210
0
220
0
230
1
0
LINE
5
1CA
100
AcDbEntity
8
1
62
256
6
ByLayer
370
18
48
1
60
0
100
AcDbLine
10
13.629515
20
10.588448
30
0
11
13.734361
21
10.769346
31
0
39
0
210
0
220
0
230
1
0
LINE
5
1CB
100
AcDbEntity
8
1
62
256
6
ByLayer
370
18
48
1
60
0
100
AcDbLine
10
22.789197
20
15.280198
30
0
11
22.889205
21
15.145991
31
0
39
0
210
0
220
0
230
1
0
LINE
5
1CC
100
AcDbEntity
8
1
62
256
6
ByLayer
370
18
48
1
60
0
100
AcDbLine
10
27.984836
20
9.03677
30
0
11
27.986773
21
8.983465
31
0
39
0
210
0
220
0
230
1
0
LINE
5
1CD
100
AcDbEntity
8
1
62
256
6
ByLayer
370
18
48
1
60
0
100
AcDbLine
10
27.641734
20
0.584216
30
0
11
27.623666
21
0.612072
31
0
39
0
210
0
220
0
230
1
0
LINE
5
1CE
100
AcDbEntity
8
1
62
256
6
ByLayer
370
18
48
1
60
0
100
AcDbLine
10
18.872878
20
4.154563
30
0
11
19.066064
21
4.80401
31
0
39
0
210
0
220
0
230
1
0
LINE
5
1CF
100
AcDbEntity
8
1
62
256
6
ByLayer
370
18
48
1
60
0
100
AcDbLine
10
26.19507
20
7.902111
30
0
11
26.875121
21
8.060046
31
0
39
0
210
0
220
0
230
1
0
LINE
5
1D0
100
AcDbEntity
8
1
62
256
6
ByLayer
370
18
48
1
60
0
100
AcDbLine
10
14.367944
20
6.632852
30
0
11
14.200226
21
5.345942
31
0
39
0
210
0
220
0
230
1
0
LINE
5
1D1
100
AcDbEntity
8
1
62
256
6
ByLayer
370
18
48
1
60
0
100
AcDbLine
10
15.160621
20
4.750539
30
0
11
15.123851
21
4.4684
31
0
39
0
210
0
220
0
230
1
0
LINE
5
1D2
100
AcDbEntity
8
1
62
256
6
ByLayer
370
18
48
1
60
0
100
AcDbLine
10
27.987769
20
8.81259
30
0
11
27.97144
21
8.032101
31
0
39
0
210
0
220
0
230
1
0
LINE
5
1D3
100
AcDbEntity
8
1
62
256
6
ByLayer
370
18
48
1
60
0
100
AcDbLine
10
13.556734
20
10.46629
30
0
11
14.615622
21
8.684484
31
0
39
0
210
0
220
0
230
1
0
LINE
5
1D4
100
AcDbEntity
8
1
62
256
6
ByLayer
370
18
48
1
60
0
100
AcDbLine
10
27.050933
20
3.427091
30
0
11
26.895322
21
2.23308
31
0
39
0
210
0
220
0
230
1
0
LINE
5
1D5
100
AcDbEntity
8
1
62
256
6
ByLayer
370
18
48
1
60
0
100
AcDbLine
10
14.741629
20
5.777249
30
0
11
14.745142
21
5.784467
31
0
39
0
210
0
220
0
230
1
0
LINE
5
1D6
100
AcDbEntity
8
1
62
256
6
ByLayer
370
18
48
1
60
0
100
AcDbLine
10
27.743637
20
0.481869
30
0
11
27.556199
21
-0.956347
31
0
39
0
210
0
220
0
230
1
0
LINE
5
1D7
100
AcDbEntity
8
1
62
256
6
ByLayer
370
18
48
1
60
0
100
AcDbLine
10
27.443644
20
3.583876
30
0
11
27.274164
21
3.568317
31
0
39
0
210
0
220
0
230
1
0
LINE
5
1D8
100
AcDbEntity
8
1
62
256
6
ByLayer
370
18
48
1
60
0
100
AcDbLine
10
14.78275
20
8.337787
30
0
11
14.810088
21
7.015352
31
0
39
0
210
0
220
0
230
1
0
LINE
5
1D9
100
AcDbEntity
8
1
62
256
6
ByLayer
370
18
48
1
60
0
100
AcDbLine
10
24.780207
20
2.154569
30
0
11
27.968211
21
7.463406
31
0
39
0
210
0
220
0
230
1
0
LINE
5
1DA
100
AcDbEntity
8
1
62
256
6
ByLayer
370
18
48
1
60
0
100
AcDbLine
10
17.657105
20
13.08599
30
0
11
17.720125
21
13.134404
31
0
39
0
210
0
220
0
230
1
0
LINE
5
1DB
100
AcDbEntity
8
1
62
256
6
ByLayer
370
18
48
1
60
0
100
AcDbLine
10
27.821752
20
13.46303
30
0
11
27.932246
21
13.283402
31
0
39
0
210
0
220
0
230
1
0
LINE
5
1DC
100
AcDbEntity
8
1
62
256
6
ByLayer
370
18
48
1
60
0
100
AcDbLine
10
12.200836
20
7.449781
30
0
11
11.829439
21
7.295443
31
0
39
0
210
0
220
0
230
1
0
LINE
5
1DD
100
AcDbEntity
8
1
62
256
6
ByLayer
370
18
48
1
60
0
100
AcDbLine
10
20.930851
20
4.268505
30
0
11
20.223404
21
1.890232
31
0
39
0
210
0
220
0
230
1
0
LINE
5
1DE
100
AcDbEntity
8
1
62
256
6
ByLayer
370
18
48
1
60
0
100
AcDbLine
10
17.482723
20
12.973352
30
0
11
19.114193
21
11.32631
31
0
39
0
210
0
220
0
230
1
0
LINE
5
1DF
100
AcDbEntity
8
1
62
256
6
ByLayer
370
18
48
1
60
0
100
AcDbLine
10
17.961238
20
3.054769
30
0
11
15.448855
21
4.58719
31
0
39
0
210
0
220
0
230
1
0
LINE
5
1E0
100
AcDbEntity
8
1
62
256
6
ByLayer
370
18
48
1
60
0
100
AcDbLine
10
25.490745
20
16.480442
30
0
11
26.522003
21
14.656723
31
0
39
0
210
0
220
0
230
1
0
LINE
5
1E1
100
AcDbEntity
8
1
62
256
6
ByLayer
370
18
48
1
60
0
100
AcDbLine
10
19.788977
20
12.407403
30
0
11
19.302111
21
12.898915
31
0
39
0
210
0
220
0
230
1
0
LINE
5
1E2
100
AcDbEntity
8
1
62
256
6
ByLayer
370
18
48
1
60
0
100
AcDbLine
10
11.868051
20
6.968646
30
0
11
11.681406
21
5.536506
31
0
39
0
210
0
220
0
230
1
0
LINE
5
1E3
100
AcDbEntity
8
1
62
256
6
ByLayer
370
18
48
1
60
0
100
AcDbLine
10
11.71577
20
7.062971
30
0
11
11.64472
21
7.182529
31
0
39
0
210
0
220
0
230
1
0
LINE
5
1E4
100
AcDbEntity
8
1
62
256
6
ByLayer
370
18
48
1
60
0
100
AcDbLine
10
25.596546
20
17.011758
30
0
11
25.618736
21
17.048701
31
0
39
0
210
0
220
0
230
1
0
LINE
5
1E5
100
AcDbEntity
8
1
62
256
6
ByLayer
370
18
48
1
60
0
100
AcDbLine
10
27.779088
20
3.008493
30
0
11
27.947915
21
4.303913
31
0
39
0
210
0
220
0
230
1
0
LINE
5
1E6
100
AcDbEntity
8
1
62
256
6
ByLayer
370
18
48
1
60
0
100
AcDbLine
10
14.316094
20
7.213137
30
0
11
12.291263
21
7.382304
31
0
39
0
210
0
220
0
230
1
0
LINE
5
1E7
100
AcDbEntity
8
1
62
256
6
ByLayer
370
18
48
1
60
0
100
AcDbLine
10
27.274164
20
3.568317
30
0
11
27.98139
21
4.746027
31
0
39
0
210
0
220
0
230
1
0
LINE
5
1E8
100
AcDbEntity
8
1
62
256
6
ByLayer
370
18
48
1
60
0
100
AcDbLine
10
25.401166
20
17.013464
30
0
11
25.394195
21
16.537724
31
0
39
0
210
0
220
0
230
1
0
LINE
5
1E9
100
AcDbEntity
8
1
62
256
6
ByLayer
370
18
48
1
60
0
100
AcDbLine
10
11.793629
20
7.199617
30
0
11
11.831596
21
7.191115
31
0
39
0
210
0
220
0
230
1
0
LINE
5
1EA
100
AcDbEntity
8
1
62
256
6
ByLayer
370
18
48
1
60
0
100
AcDbLine
10
24.851072
20
2.206036
30
0
11
26.074502
21
2.946029
31
0
39
0
210
0
220
0
230
1
0
LINE
5
1EB
100
AcDbEntity
8
1
62
256
6
ByLayer
370
18
48
1
60
0
100
AcDbLine
10
16.532714
20
12.468402
30
0
11
18.219095
21
10.765926
31
0
39
0
210
0
220
0
230
1
0
LINE
5
1EC
100
AcDbEntity
8
1
62
256
6
ByLayer
370
18
48
1
60
0
100
AcDbLine
10
26.687097
20
2.565213
30
0
11
27.815239
21
0.765677
31
0
39
0
210
0
220
0
230
1
0
LINE
5
1ED
100
AcDbEntity
8
1
62
256
6
ByLayer
370
18
48
1
60
0
100
AcDbLine
10
26.858791
20
8.114374
30
0
11
26.17874
21
7.95644
31
0
39
0
210
0
220
0
230
1
0
LINE
5
1EE
100
AcDbEntity
8
1
62
256
6
ByLayer
370
18
48
1
60
0
100
AcDbLine
10
24.598865
20
0.488719
30
0
11
24.61372
21
1.810785
31
0
39
0
210
0
220
0
230
1
0
MTEXT
5
3E3
100
AcDbEntity
8
SK6
62
256
6
ByLayer
370
18
48
1
60
0
100
AcDbMText
10
14.875
20
-26.428447
30
0
210
0
220
0
230
1
1
\W0.7475;SL-266RKF-252819-22
40
3.5
41
0
44
1.084337
50
0
71
7
72
5
7
iso_b_vert
0
DIMENSION
5
3F4
100
AcDbEntity
8
2
62
256
6
ByLayer
370
13
48
1
60
0
100
AcDbDimension
2
DimnDraft3D1
10
42.25
20
18.875
30
0
11
42.25
21
7.311842
31
0
70
32
71
5
72
1
41
1
210
0
220
0
230
1
3
Standard
100
AcDbAlignedDimension
13
34.5
23
0
33
0
14
29.5
24
18.875
34
0
50
90
100
AcDbRotatedDimension
1001
ACAD
1000
DSTYLE
1002
{
1070
    74
1070
     0
1070
   279
1070
     0
1070
   172
1070
     1
1070
   173
1070
     1
1070
   340
1005
3E4
1070
   271
1070
     3
1070
   272
1070
     3
1070
    77
1070
     1
1070
    73
1070
     0
1070
   171
1070
     4
1070
   274
1070
     4
1070
   177
1070
     2
1070
   176
1070
     2
1070
   178
1070
     7
1070
    78
1070
     8
1070
    41
1041
3.0
1070
   147
1041
2.25
1070
    42
1041
1.5
1070
    44
1041
3.0
1070
   140
1041
4.5
1070
   343
1005
3F5
1070
   344
1005
3F5
1002
}
0
DIMENSION
5
40A
100
AcDbEntity
8
SK2
62
256
6
ByLayer
370
13
48
1
60
0
100
AcDbDimension
2
DimnDraft3D2
10
-9.75
20
-12.5
30
0
11
-9.75
21
-4.873026
31
0
70
32
71
5
72
1
41
1
210
0
220
0
230
1
3
Standard
100
AcDbAlignedDimension
13
-1.5
23
12.5
33
0
14
-1.5
24
-12.5
34
0
50
90
100
AcDbRotatedDimension
1001
ACAD
1000
DSTYLE
1002
{
1070
    74
1070
     0
1070
   279
1070
     0
1070
   172
1070
     1
1070
   173
1070
     1
1070
   340
1005
3E4
1070
   271
1070
     3
1070
   272
1070
     3
1070
    77
1070
     1
1070
    73
1070
     0
1070
   171
1070
     4
1070
   274
1070
     4
1070
   177
1070
     2
1070
   176
1070
     2
1070
   178
1070
     7
1070
    78
1070
     8
1070
    41
1041
3.0
1070
   147
1041
2.25
1070
    42
1041
1.5
1070
    44
1041
3.0
1070
   140
1041
4.5
1070
   343
1005
3F5
1070
   344
1005
3F5
1002
}
0
DIMENSION
5
418
100
AcDbEntity
8
2
62
256
6
ByLayer
370
13
48
1
60
0
100
AcDbDimension
2
DimnDraft3D3
10
0
20
38.625
30
0
11
11.311842
21
38.625
31
0
70
32
71
5
72
1
41
1
210
0
220
0
230
1
3
Standard
100
AcDbAlignedDimension
13
28
23
20.375
33
0
14
0
24
1.5
34
0
50
0
100
AcDbRotatedDimension
1001
ACAD
1000
DSTYLE
1002
{
1070
   279
1070
     0
1070
   172
1070
     1
1070
   173
1070
     1
1070
   340
1005
3E4
1070
   271
1070
     3
1070
   272
1070
     3
1070
    77
1070
     1
1070
    73
1070
     0
1070
   171
1070
     4
1070
   274
1070
     4
1070
   177
1070
     2
1070
   176
1070
     2
1070
   178
1070
     7
1070
    78
1070
     8
1070
    41
1041
3.0
1070
   147
1041
2.25
1070
    42
1041
1.5
1070
    44
1041
3.0
1070
   140
1041
4.5
1070
   343
1005
3F5
1070
   344
1005
3F5
1002
}
0
ENDSEC
0
SECTION
2
OBJECTS
0
DICTIONARY
5
483
330
0
100
AcDbDictionary
280
0
281
1
3
ACAD_GROUP
350
484
3
ACAD_MLINESTYLE
350
485
0
DICTIONARY
5
484
330
0
100
AcDbDictionary
280
0
281
1
0
DICTIONARY
5
485
330
0
100
AcDbDictionary
280
0
281
1
3
Standard
350
18
0
MLINESTYLE
5
18
330
485
100
AcDbMlineStyle
2
Standard
70
0
3

62
256
51
90
52
90
71
2
49
-0.5
62
256
6
ByLayer
49
0.5
62
256
6
ByLayer
0
RASTERVARIABLES
5
471
330

100
AcDbRasterVariables
90
0
70
1
71
1
72
1
0
ENDSEC
0
EOF
