0
SECTION
2
HEADER
9
$ACADVER
1
AC1015
9
$DWGCODEPAGE
3
ANSI_1252
9
$HANDSEED
5
3d5
9
$ANGBASE
50
0
9
$ANGDIR
70
0
9
$ATTMODE
70
1
9
$AUNITS
70
0
9
$AUPREC
70
0
9
$CECOLOR
62
256
9
$CELTSCALE
40
1
9
$CELTYPE
6
ByLayer
9
$CELWEIGHT
370
-1
9
$CLAYER
8
0
9
$CMLJUST
70
0
9
$CMLSCALE
40
1
9
$CMLSTYLE
2
Standard
9
$DIMSTYLE
2
Standard
9
$TEXTSIZE
40
0.2
9
$TEXTSTYLE
7
Standard
9
$LUNITS
70
2
9
$LUPREC
70
4
9
$EXTNAMES
290
1
9
$INSUNITS
70
4
9
$LTSCALE
40
1
9
$LWDISPLAY
290
0
9
$PDMODE
70
0
9
$PDSIZE
40
0
9
$PLINEGEN
70
0
0
ENDSEC
0
SECTION
2
CLASSES
0
CLASS
1
RASTERVARIABLES
2
AcDbRasterVariables
3
ISM
90
0
280
0
281
0
0
ENDSEC
0
SECTION
2
TABLES
0
TABLE
2
VPORT
5
3cb
100
AcDbSymbolTable
0
VPORT
5
1
100
AcDbSymbolTableRecord
100
AcDbViewportTableRecord
2
*Active
70
0
10
0
20
0
11
1
21
1
12
-1
22
1
13
0
23
0
14
0.5
24
0.5
15
10
25
10
16
0
26
0
36
1
17
0
27
0
37
0
0
ENDTAB
0
TABLE
2
LTYPE
5
3cc
100
AcDbSymbolTable
0
LTYPE
5
14
100
AcDbSymbolTableRecord
100
AcDbLinetypeTableRecord
70
0
2
ByBlock
3

72
65
73
0
40
0
0
LTYPE
5
15
100
AcDbSymbolTableRecord
100
AcDbLinetypeTableRecord
70
0
2
ByLayer
3

72
65
73
0
40
0
0
LTYPE
5
16
100
AcDbSymbolTableRecord
100
AcDbLinetypeTableRecord
70
0
2
CONTINUOUS
3
Solid line
72
65
73
0
40
0
0
LTYPE
5
3B
100
AcDbSymbolTableRecord
100
AcDbLinetypeTableRecord
70
0
2
DASHED
3
__ __ __ __ __ __ __ __ __
72
65
73
2
40
25.72
49
12.86
74
0
49
-12.86
74
0
0
LTYPE
5
3C
100
AcDbSymbolTableRecord
100
AcDbLinetypeTableRecord
70
0
2
HIDDEN
3
_ _ _ _ _ _ _ _ _ _ _ _ _ _ _
72
65
73
2
40
0.5
49
0.25
74
0
49
-0.25
74
0
0
LTYPE
5
3D
100
AcDbSymbolTableRecord
100
AcDbLinetypeTableRecord
70
0
2
PHANTOM
3
____ _ _ ____ _ _ _____ _ _ ____
72
65
73
6
40
50.5
49
18
74
0
49
-6.5
74
0
49
6.5
74
0
49
-6.5
74
0
49
6.5
74
0
49
-6.5
74
0
0
LTYPE
5
3E
100
AcDbSymbolTableRecord
100
AcDbLinetypeTableRecord
70
0
2
CENTER
3
____ _ ____ _ ____ _ ____
72
65
73
4
40
47.5
49
22
74
0
49
-8.5
74
0
49
8.5
74
0
49
-8.5
74
0
0
LTYPE
5
3F
100
AcDbSymbolTableRecord
100
AcDbLinetypeTableRecord
70
0
2
DOT
3
.........................
72
65
73
2
40
10
49
0
74
0
49
-10
74
0
0
LTYPE
5
40
100
AcDbSymbolTableRecord
100
AcDbLinetypeTableRecord
70
0
2
DASHDOT
3
_._._._._._._._._._._._._._._._.
72
65
73
4
40
70
49
31
74
0
49
-13
74
0
49
13
74
0
49
-13
74
0
0
ENDTAB
0
TABLE
2
LAYER
5
3cd
100
AcDbSymbolTable
0
LAYER
5
10
100
AcDbSymbolTableRecord
100
AcDbLayerTableRecord
2
0
70
0
62
7
6
CONTINUOUS
290
1
370
-3
390
0
0
LAYER
5
42
100
AcDbSymbolTableRecord
100
AcDbLayerTableRecord
2
80
70
0
62
-6
6
CONTINUOUS
290
1
370
-3
390
0
0
LAYER
5
44
100
AcDbSymbolTableRecord
100
AcDbLayerTableRecord
2
81
70
0
62
-3
6
CONTINUOUS
290
1
370
-3
390
0
0
LAYER
5
46
100
AcDbSymbolTableRecord
100
AcDbLayerTableRecord
2
2
70
0
62
7
6
CONTINUOUS
290
1
370
-3
390
0
0
LAYER
5
48
100
AcDbSymbolTableRecord
100
AcDbLayerTableRecord
2
1
70
0
62
4
6
CONTINUOUS
290
1
370
-3
390
0
0
LAYER
5
58
100
AcDbSymbolTableRecord
100
AcDbLayerTableRecord
2
4
70
0
62
-2
6
CENTER
290
1
370
-3
390
0
0
LAYER
5
3b7
100
AcDbSymbolTableRecord
100
AcDbLayerTableRecord
2
SK4
70
0
62
2
6
CENTER
290
1
370
-3
390
0
0
LAYER
5
3b8
100
AcDbSymbolTableRecord
100
AcDbLayerTableRecord
2
SK1
70
0
62
4
6
CONTINUOUS
290
1
370
-3
390
0
0
LAYER
5
3b9
100
AcDbSymbolTableRecord
100
AcDbLayerTableRecord
2
SK6
70
0
62
5
6
CONTINUOUS
290
1
370
-3
390
0
0
LAYER
5
3ba
100
AcDbSymbolTableRecord
100
AcDbLayerTableRecord
2
SK2
70
0
62
7
6
CONTINUOUS
290
1
370
-3
390
0
0
ENDTAB
0
TABLE
2
STYLE
5
3ce
100
AcDbSymbolTable
0
STYLE
5
11
100
AcDbSymbolTableRecord
100
AcDbTextStyleTableRecord
2
Standard
3
txt
70
0
71
0
40
0
41
1
42
0
50
0
0
STYLE
5
341
100
AcDbSymbolTableRecord
100
AcDbTextStyleTableRecord
2
DEFAULT
3
simplex.shx
70
0
71
0
40
0
41
1
42
0
50
0
0
STYLE
5
364
100
AcDbSymbolTableRecord
100
AcDbTextStyleTableRecord
2
DWGDirectTextStyle
3
SIMPLEX
70
0
71
0
40
0
41
1
42
0
50
0
0
ENDTAB
0
TABLE
2
DIMSTYLE
5
3cf
100
AcDbSymbolTable
100
AcDbDimStyleTable
0
DIMSTYLE
105
27
100
AcDbSymbolTableRecord
100
AcDbDimStyleTableRecord
2
Standard
70
0
3
<>
41
0.18
42
0.0625
44
0.18
140
0.18
147
0.09
73
0
74
0
77
1
271
2
275
0
278
52
280
0
340
11
0
ENDTAB
0
TABLE
2
VIEW
5
3d0
100
AcDbSymbolTable
0
ENDTAB
0
TABLE
2
UCS
5
3d1
100
AcDbSymbolTable
0
ENDTAB
0
TABLE
2
APPID
5
3d2
100
AcDbSymbolTable
0
APPID
5
12
100
AcDbSymbolTableRecord
100
AcDbRegAppTableRecord
2
ACAD
70
0
0
ENDTAB
0
TABLE
2
BLOCK_RECORD
5
3d3
100
AcDbSymbolTable
0
BLOCK_RECORD
5
1F
100
AcDbSymbolTableRecord
100
AcDbBlockTableRecord
2
*Model_Space
340
0
70
0
0
BLOCK_RECORD
5
1B
100
AcDbSymbolTableRecord
100
AcDbBlockTableRecord
2
*Paper_Space
340
0
70
0
0
BLOCK_RECORD
5
23
100
AcDbSymbolTableRecord
100
AcDbBlockTableRecord
2
*Paper_Space0
340
0
70
0
0
BLOCK_RECORD
5
366
100
AcDbSymbolTableRecord
100
AcDbBlockTableRecord
2
DimnDraft3D1
340
0
70
0
0
BLOCK_RECORD
5
374
100
AcDbSymbolTableRecord
100
AcDbBlockTableRecord
2
_CLOSED
340
0
70
0
0
BLOCK_RECORD
5
37B
100
AcDbSymbolTableRecord
100
AcDbBlockTableRecord
2
DimnDraft3D2
340
0
70
0
0
BLOCK_RECORD
5
38A
100
AcDbSymbolTableRecord
100
AcDbBlockTableRecord
2
DimnDraft3D3
340
0
70
0
0
ENDTAB
0
ENDSEC
0
SECTION
2
BLOCKS
0
BLOCK
5
20
100
AcDbEntity
8
0
100
AcDbBlockBegin
2
*Model_Space
70
0
10
0
20
0
30
0
3
*Model_Space
0
ENDBLK
5
21
100
AcDbEntity
8
0
100
AcDbBlockEnd
0
BLOCK
5
1C
100
AcDbEntity
8
0
100
AcDbBlockBegin
2
*Paper_Space
70
0
10
0
20
0
30
0
3
*Paper_Space
0
ENDBLK
5
1D
100
AcDbEntity
8
0
100
AcDbBlockEnd
0
BLOCK
5
24
100
AcDbEntity
8
0
100
AcDbBlockBegin
2
*Paper_Space0
70
0
10
0
20
0
30
0
3
*Paper_Space0
0
ENDBLK
5
25
100
AcDbEntity
8
0
100
AcDbBlockEnd
0
BLOCK
5
371
100
AcDbEntity
8
0
100
AcDbBlockBegin
2
DimnDraft3D1
70
0
10
0
20
0
30
0
3
DimnDraft3D1
0
MTEXT
5
367
100
AcDbEntity
8
2
62
256
6
ByLayer
370
-1
48
1
60
0
100
AcDbMText
10
38.125
20
5.759211
30
0
210
0
220
0
230
1
1
\W01.000;\fsimplex.shx,bigfont.shx;14 
40
4.5
41
0
44
1.084337
50
90
71
7
72
5
7
DEFAULT
0
LINE
5
368
100
AcDbEntity
8
2
62
256
6
ByLayer
370
-1
48
1
60
0
100
AcDbLine
10
31.5
20
0
30
0
11
42.25
21
0
31
0
39
0
210
0
220
0
230
1
0
LINE
5
369
100
AcDbEntity
8
2
62
256
6
ByLayer
370
-1
48
1
60
0
100
AcDbLine
10
26.5
20
13.875
30
0
11
42.25
21
13.875
31
0
39
0
210
0
220
0
230
1
0
LINE
5
36A
100
AcDbEntity
8
2
62
256
6
ByLayer
370
-1
48
1
60
0
100
AcDbLine
10
39.25
20
0
30
0
11
39.25
21
13.875
31
0
39
0
210
0
220
0
230
1
0
LINE
5
36B
100
AcDbEntity
8
2
62
256
6
ByLayer
370
-1
48
1
60
0
100
AcDbLine
10
39.25
20
0
30
0
11
38.855043
21
2.999999
31
0
39
0
210
0
220
0
230
1
0
LINE
5
36C
100
AcDbEntity
8
2
62
256
6
ByLayer
370
-1
48
1
60
0
100
AcDbLine
10
39.25
20
0
30
0
11
39.644957
21
3.000001
31
0
39
0
210
0
220
0
230
1
0
LINE
5
36D
100
AcDbEntity
8
2
62
256
6
ByLayer
370
-1
48
1
60
0
100
AcDbLine
10
38.855043
20
2.999999
30
0
11
39.644957
21
3.000001
31
0
39
0
210
0
220
0
230
1
0
LINE
5
36E
100
AcDbEntity
8
2
62
256
6
ByLayer
370
-1
48
1
60
0
100
AcDbLine
10
39.25
20
13.875
30
0
11
39.644957
21
10.875001
31
0
39
0
210
0
220
0
230
1
0
LINE
5
36F
100
AcDbEntity
8
2
62
256
6
ByLayer
370
-1
48
1
60
0
100
AcDbLine
10
39.25
20
13.875
30
0
11
38.855043
21
10.874999
31
0
39
0
210
0
220
0
230
1
0
LINE
5
370
100
AcDbEntity
8
2
62
256
6
ByLayer
370
-1
48
1
60
0
100
AcDbLine
10
39.644957
20
10.875001
30
0
11
38.855043
21
10.874999
31
0
39
0
210
0
220
0
230
1
0
ENDBLK
5
372
100
AcDbEntity
8
0
100
AcDbBlockEnd
0
BLOCK
5
375
100
AcDbEntity
8
0
100
AcDbBlockBegin
2
_CLOSED
70
0
10
0
20
0
30
0
3
_CLOSED
0
LINE
5
377
100
AcDbEntity
8
0
62
256
6
ByLayer
370
-2
48
1
60
0
100
AcDbLine
10
-1
20
0.166667
30
0
11
0
21
0
31
0
39
0
210
0
220
0
230
1
0
LINE
5
378
100
AcDbEntity
8
0
62
256
6
ByLayer
370
-2
48
1
60
0
100
AcDbLine
10
0
20
0
30
0
11
-1
21
-0.166667
31
0
39
0
210
0
220
0
230
1
0
LINE
5
379
100
AcDbEntity
8
0
62
256
6
ByLayer
370
-2
48
1
60
0
100
AcDbLine
10
-1
20
0.166667
30
0
11
-1
21
-0.166667
31
0
39
0
210
0
220
0
230
1
0
LINE
5
37A
100
AcDbEntity
8
0
62
256
6
ByLayer
370
-2
48
1
60
0
100
AcDbLine
10
0
20
0
30
0
11
-1
21
0
31
0
39
0
210
0
220
0
230
1
0
ENDBLK
5
376
100
AcDbEntity
8
0
100
AcDbBlockEnd
0
BLOCK
5
387
100
AcDbEntity
8
0
100
AcDbBlockBegin
2
DimnDraft3D2
70
0
10
0
20
0
30
0
3
DimnDraft3D2
0
MTEXT
5
37C
100
AcDbEntity
8
SK2
62
256
6
ByLayer
370
-1
48
1
60
0
100
AcDbMText
10
-10.875
20
-3.659211
30
0
210
0
220
0
230
1
1
\W01.000;\fsimplex.shx,bigfont.shx;%%c20 
40
4.5
41
0
44
1.084337
50
90
71
7
72
5
7
DEFAULT
0
LINE
5
37E
100
AcDbEntity
8
SK2
62
256
6
ByLayer
370
-1
48
1
60
0
100
AcDbLine
10
-1.5
20
10
30
0
11
-12.75
21
10
31
0
39
0
210
0
220
0
230
1
0
LINE
5
37F
100
AcDbEntity
8
SK2
62
256
6
ByLayer
370
-1
48
1
60
0
100
AcDbLine
10
-1.5
20
-10
30
0
11
-12.75
21
-10
31
0
39
0
210
0
220
0
230
1
0
LINE
5
380
100
AcDbEntity
8
SK2
62
256
6
ByLayer
370
-1
48
1
60
0
100
AcDbLine
10
-9.75
20
10
30
0
11
-9.75
21
-10
31
0
39
0
210
0
220
0
230
1
0
LINE
5
381
100
AcDbEntity
8
SK2
62
256
6
ByLayer
370
-1
48
1
60
0
100
AcDbLine
10
-9.75
20
10
30
0
11
-9.355043
21
7.000001
31
0
39
0
210
0
220
0
230
1
0
LINE
5
382
100
AcDbEntity
8
SK2
62
256
6
ByLayer
370
-1
48
1
60
0
100
AcDbLine
10
-9.75
20
10
30
0
11
-10.144957
21
6.999999
31
0
39
0
210
0
220
0
230
1
0
LINE
5
383
100
AcDbEntity
8
SK2
62
256
6
ByLayer
370
-1
48
1
60
0
100
AcDbLine
10
-9.355043
20
7.000001
30
0
11
-10.144957
21
6.999999
31
0
39
0
210
0
220
0
230
1
0
LINE
5
384
100
AcDbEntity
8
SK2
62
256
6
ByLayer
370
-1
48
1
60
0
100
AcDbLine
10
-9.75
20
-10
30
0
11
-10.144957
21
-7.000001
31
0
39
0
210
0
220
0
230
1
0
LINE
5
385
100
AcDbEntity
8
SK2
62
256
6
ByLayer
370
-1
48
1
60
0
100
AcDbLine
10
-9.75
20
-10
30
0
11
-9.355043
21
-6.999999
31
0
39
0
210
0
220
0
230
1
0
LINE
5
386
100
AcDbEntity
8
SK2
62
256
6
ByLayer
370
-1
48
1
60
0
100
AcDbLine
10
-10.144957
20
-7.000001
30
0
11
-9.355043
21
-6.999999
31
0
39
0
210
0
220
0
230
1
0
ENDBLK
5
388
100
AcDbEntity
8
0
100
AcDbBlockEnd
0
BLOCK
5
395
100
AcDbEntity
8
0
100
AcDbBlockBegin
2
DimnDraft3D3
70
0
10
0
20
0
30
0
3
DimnDraft3D3
0
MTEXT
5
38B
100
AcDbEntity
8
2
62
256
6
ByLayer
370
-1
48
1
60
0
100
AcDbMText
10
10.996053
20
34.75
30
0
210
0
220
0
230
1
1
\W01.000;\fsimplex.shx,bigfont.shx;25 
40
4.5
41
0
44
1.084337
50
0
71
7
72
5
7
DEFAULT
0
LINE
5
38C
100
AcDbEntity
8
2
62
256
6
ByLayer
370
-1
48
1
60
0
100
AcDbLine
10
25
20
15.375
30
0
11
25
21
36.625
31
0
39
0
210
0
220
0
230
1
0
LINE
5
38D
100
AcDbEntity
8
2
62
256
6
ByLayer
370
-1
48
1
60
0
100
AcDbLine
10
0
20
1.5
30
0
11
0
21
36.625
31
0
39
0
210
0
220
0
230
1
0
LINE
5
38E
100
AcDbEntity
8
2
62
256
6
ByLayer
370
-1
48
1
60
0
100
AcDbLine
10
25
20
33.625
30
0
11
0
21
33.625
31
0
39
0
210
0
220
0
230
1
0
LINE
5
38F
100
AcDbEntity
8
2
62
256
6
ByLayer
370
-1
48
1
60
0
100
AcDbLine
10
25
20
33.625
30
0
11
22.000001
21
33.230043
31
0
39
0
210
0
220
0
230
1
0
LINE
5
390
100
AcDbEntity
8
2
62
256
6
ByLayer
370
-1
48
1
60
0
100
AcDbLine
10
25
20
33.625
30
0
11
21.999999
21
34.019957
31
0
39
0
210
0
220
0
230
1
0
LINE
5
391
100
AcDbEntity
8
2
62
256
6
ByLayer
370
-1
48
1
60
0
100
AcDbLine
10
22.000001
20
33.230043
30
0
11
21.999999
21
34.019957
31
0
39
0
210
0
220
0
230
1
0
LINE
5
392
100
AcDbEntity
8
2
62
256
6
ByLayer
370
-1
48
1
60
0
100
AcDbLine
10
0
20
33.625
30
0
11
2.999999
21
34.019957
31
0
39
0
210
0
220
0
230
1
0
LINE
5
393
100
AcDbEntity
8
2
62
256
6
ByLayer
370
-1
48
1
60
0
100
AcDbLine
10
0
20
33.625
30
0
11
3.000001
21
33.230043
31
0
39
0
210
0
220
0
230
1
0
LINE
5
394
100
AcDbEntity
8
2
62
256
6
ByLayer
370
-1
48
1
60
0
100
AcDbLine
10
2.999999
20
34.019957
30
0
11
3.000001
21
33.230043
31
0
39
0
210
0
220
0
230
1
0
ENDBLK
5
396
100
AcDbEntity
8
0
100
AcDbBlockEnd
0
ENDSEC
0
SECTION
2
ENTITIES
0
ARC
5
1C0
100
AcDbEntity
8
1
62
256
6
ByLayer
370
-1
48
1
60
0
100
AcDbCircle
39
0
10
-9.784327
20
10.8
30
0
40
0.8
210
0
220
0
230
-1
100
AcDbArc
50
228.034788
51
270
0
ELLIPSE
5
1C1
100
AcDbEntity
8
1
62
256
6
ByLayer
370
-1
48
1
60
0
100
AcDbEllipse
10
16.803073
20
-2.41391
30
0
11
-2.5
21
3.06151588455594E-16
31
0
210
0
220
0
230
1
40
0.258819
41
0.862369957379011
42
1.04771129117954
0
ELLIPSE
5
1C2
100
AcDbEntity
8
1
62
256
6
ByLayer
370
-1
48
1
60
0
100
AcDbEllipse
10
16.803073
20
-2.41391
30
0
11
-2.5
21
3.06151588455594E-16
31
0
210
0
220
0
230
1
40
0.258819
41
2.09388136241025
42
2.27873168079246
0
ELLIPSE
5
1C3
100
AcDbEntity
8
1
62
256
6
ByLayer
370
-1
48
1
60
0
100
AcDbEllipse
10
12.106332
20
4.542255
30
0
11
-1.74257041965985
21
0.161084861257977
31
0
210
0
220
0
230
1
40
0.965649
41
2.35647844186864
42
2.73649407418685
0
ELLIPSE
5
1C4
100
AcDbEntity
8
1
62
256
6
ByLayer
370
-1
48
1
60
0
100
AcDbEllipse
10
12.106332
20
4.542255
30
0
11
-1.74257041965985
21
0.161084861257977
31
0
210
0
220
0
230
1
40
0.965649
41
-1.73574788151875
42
-1.38638694454964
0
ELLIPSE
5
1C5
100
AcDbEntity
8
1
62
256
6
ByLayer
370
-1
48
1
60
0
100
AcDbEllipse
10
12.099156
20
4.464631
30
0
11
-1.74257041965985
21
0.161084861257977
31
0
210
0
220
0
230
1
40
0.965649
41
-1.48176674900914
42
-0.254582207521114
0
ELLIPSE
5
1C6
100
AcDbEntity
8
1
62
256
6
ByLayer
370
-1
48
1
60
0
100
AcDbEllipse
10
12.099156
20
4.464631
30
0
11
-1.74257041965985
21
0.161084861257977
31
0
210
0
220
0
230
1
40
0.965649
41
-1.71503002615182
42
-1.48176674900914
0
ELLIPSE
5
1C7
100
AcDbEntity
8
1
62
256
6
ByLayer
370
-1
48
1
60
0
100
AcDbEllipse
10
16.803073
20
-2.41391
30
0
11
-0.550000000000001
21
6.73533494602309E-17
31
0
210
0
220
0
230
1
40
0.258819
41
0
42
1.57079666826395
0
ELLIPSE
5
1C8
100
AcDbEntity
8
1
62
256
6
ByLayer
370
-1
48
1
60
0
100
AcDbEllipse
10
16.803073
20
-2.41391
30
0
11
-0.550000000000001
21
6.73533494602309E-17
31
0
210
0
220
0
230
1
40
0.258819
41
1.57079712056953
42
-3.14158826734501
0
ELLIPSE
5
1C9
100
AcDbEntity
8
1
62
256
6
ByLayer
370
-1
48
1
60
0
100
AcDbEllipse
10
24.386884
20
-4.596194
30
0
11
-0.026218406228303
21
-2.99999987839881
31
0
210
0
220
0
230
1
40
0.032579
41
-1.80677098472239
42
-1.34647900373001
0
ELLIPSE
5
1CA
100
AcDbEntity
8
1
62
256
6
ByLayer
370
-1
48
1
60
0
100
AcDbEllipse
10
15.215012
20
9.504488
30
0
11
0.550000000000002
21
0
31
0
210
0
220
0
230
1
40
0.258819
41
-1.46273676928101
42
-0.83826085633178
0
ELLIPSE
5
1CB
100
AcDbEntity
8
1
62
256
6
ByLayer
370
-1
48
1
60
0
100
AcDbEllipse
10
20.184357
20
5.506432
30
0
11
2.71343108204176
21
-0.250832141101703
31
0
210
0
220
0
230
1
40
0.965649
41
3.14157772875103
42
-2.45850770825449
0
ELLIPSE
5
1CC
100
AcDbEntity
8
1
62
256
6
ByLayer
370
-1
48
1
60
0
100
AcDbEllipse
10
20.184357
20
5.506432
30
0
11
2.71343108204176
21
-0.250832141101703
31
0
210
0
220
0
230
1
40
0.965649
41
-0.772356010362426
42
-3.37531582130091E-16
0
ELLIPSE
5
1CD
100
AcDbEntity
8
1
62
256
6
ByLayer
370
-1
48
1
60
0
100
AcDbEllipse
10
21.885954
20
4.688211
30
0
11
-0.68308760450666
21
0.063145265613127
31
0
210
0
220
0
230
1
40
0.965649
41
7.90819873787851E-06
42
0.305084221559823
0
ELLIPSE
5
1CE
100
AcDbEntity
8
1
62
256
6
ByLayer
370
-1
48
1
60
0
100
AcDbEllipse
10
18.802427
20
5.367213
30
0
11
-0.290760321451815
21
0.0268781597070453
31
0
210
0
220
0
230
1
40
0.965649
41
-1.14221105037674
42
-0.706408371968754
0
ELLIPSE
5
1CF
100
AcDbEntity
8
1
62
256
6
ByLayer
370
-1
48
1
60
0
100
AcDbEllipse
10
21.560307
20
5.580964
30
0
11
-0.290760321451815
21
0.0268781597070453
31
0
210
0
220
0
230
1
40
0.965649
41
-2.45158099496427
42
-1.65995890038722
0
ELLIPSE
5
1D0
100
AcDbEntity
8
1
62
256
6
ByLayer
370
-1
48
1
60
0
100
AcDbEllipse
10
21.733608
20
6.509608
30
0
11
-0.68308760450666
21
0.063145265613127
31
0
210
0
220
0
230
1
40
0.965649
41
2.33267826590203E-06
42
0.697643109581789
0
ELLIPSE
5
1D1
100
AcDbEntity
8
1
62
256
6
ByLayer
370
-1
48
1
60
0
100
AcDbEllipse
10
19.394793
20
6.579347
30
0
11
-0.290760321451815
21
0.0268781597070453
31
0
210
0
220
0
230
1
40
0.965649
41
-2.18353318411354
42
-0.590655893284005
0
ELLIPSE
5
1D2
100
AcDbEntity
8
1
62
256
6
ByLayer
370
-1
48
1
60
0
100
AcDbEllipse
10
18.47678
20
6.259967
30
0
11
-0.68308760450666
21
0.063145265613127
31
0
210
0
220
0
230
1
40
0.965649
41
2.9122569793512
42
-3.14158430336882
0
ELLIPSE
5
1D3
100
AcDbEntity
8
1
62
256
6
ByLayer
370
-1
48
1
60
0
100
AcDbEllipse
10
20.770885
20
6.680396
30
0
11
-0.290760321451815
21
0.0268781597070453
31
0
210
0
220
0
230
1
40
0.965649
41
-2.98343750540897
42
-0.615551896871945
0
ELLIPSE
5
1D4
100
AcDbEntity
8
1
62
256
6
ByLayer
370
-1
48
1
60
0
100
AcDbEllipse
10
20.202482
20
5.65927
30
0
11
-2.896552527557
21
0.37749635375954
31
0
210
0
220
0
230
1
40
0.965377
41
-1.44563999298635
42
-3.1496667856851E-16
0
ELLIPSE
5
1D5
100
AcDbEntity
8
1
62
256
6
ByLayer
370
-1
48
1
60
0
100
AcDbEllipse
10
20.202482
20
5.65927
30
0
11
-2.896552527557
21
0.37749635375954
31
0
210
0
220
0
230
1
40
0.965377
41
0
42
0.436664795980119
0
ELLIPSE
5
1D6
100
AcDbEntity
8
1
62
256
6
ByLayer
370
-1
48
1
60
0
100
AcDbEllipse
10
20.202482
20
5.65927
30
0
11
-2.896552527557
21
0.37749635375954
31
0
210
0
220
0
230
1
40
0.965377
41
2.70479635144039
42
-1.44564033551091
0
ELLIPSE
5
1D7
100
AcDbEntity
8
1
62
256
6
ByLayer
370
-1
48
1
60
0
100
AcDbEllipse
10
20.181367
20
5.474089
30
0
11
-1.20137783503978
21
0.111056505775857
31
0
210
0
220
0
230
1
40
0.965649
41
2.21955467924655
42
2.68646811560156
0
ELLIPSE
5
1D8
100
AcDbEntity
8
1
62
256
6
ByLayer
370
-1
48
1
60
0
100
AcDbEllipse
10
20.181367
20
5.474089
30
0
11
-1.20137783503978
21
0.111056505775857
31
0
210
0
220
0
230
1
40
0.965649
41
-3.11941791882735
42
-2.44394954400801
0
ELLIPSE
5
1D9
100
AcDbEntity
8
1
62
256
6
ByLayer
370
-1
48
1
60
0
100
AcDbEllipse
10
20.181367
20
5.474089
30
0
11
1.20137783503978
21
-0.111056505775855
31
0
210
0
220
0
230
1
40
0.965649
41
2.85967557154621
42
-2.91571454107
0
ELLIPSE
5
1DA
100
AcDbEntity
8
1
62
256
6
ByLayer
370
-1
48
1
60
0
100
AcDbEllipse
10
24.123222
20
-1.54889
30
0
11
-0.0872620521753069
21
0.011372521714818
31
0
210
0
220
0
230
1
40
0.965377
41
2.74315005139841
42
-3.14158326083832
0
ELLIPSE
5
1DB
100
AcDbEntity
8
1
62
256
6
ByLayer
370
-1
48
1
60
0
100
AcDbEllipse
10
20.21096
20
5.724324
30
0
11
-2.98471991924173
21
0.388986864829106
31
0
210
0
220
0
230
1
40
0.965377
41
-1.44563999607125
42
-3.05662693180145E-16
0
ELLIPSE
5
1DC
100
AcDbEntity
8
1
62
256
6
ByLayer
370
-1
48
1
60
0
100
AcDbEllipse
10
20.21096
20
5.724324
30
0
11
-2.98471991924173
21
0.388986864829106
31
0
210
0
220
0
230
1
40
0.965377
41
0
42
0.218225930250342
0
ELLIPSE
5
1DD
100
AcDbEntity
8
1
62
256
6
ByLayer
370
-1
48
1
60
0
100
AcDbEllipse
10
20.21096
20
5.724324
30
0
11
-2.98471991924173
21
0.388986864829106
31
0
210
0
220
0
230
1
40
0.965377
41
2.92323542868345
42
-1.44563999607125
0
ELLIPSE
5
1DE
100
AcDbEntity
8
1
62
256
6
ByLayer
370
-1
48
1
60
0
100
AcDbEllipse
10
24.379646
20
0.32475
30
0
11
-0.178490561267673
21
0.0232619762348551
31
0
210
0
220
0
230
1
40
0.965377
41
2.99144818856524
42
3.14159034932427
0
ELLIPSE
5
1DF
100
AcDbEntity
8
1
62
256
6
ByLayer
370
-1
48
1
60
0
100
AcDbEllipse
10
24.616307
20
1.581829
30
0
11
0.247903557316213
21
-0.0323083003261875
31
0
210
0
220
0
230
1
40
0.965377
41
-0.39844260219133
42
-2.00176310861255E-06
0
ELLIPSE
5
1E0
100
AcDbEntity
8
1
62
256
6
ByLayer
370
-1
48
1
60
0
100
AcDbEllipse
10
12.32916
20
4.84886
30
0
11
-0.087262052175304
21
0.0113725217148177
31
0
210
0
220
0
230
1
40
0.965377
41
1.39142652547862E-05
42
0.648754949005321
0
ELLIPSE
5
1E1
100
AcDbEntity
8
1
62
256
6
ByLayer
370
-1
48
1
60
0
100
AcDbEllipse
10
13.559604
20
4.225002
30
0
11
-0.178490561267673
21
0.0232619762348551
31
0
210
0
220
0
230
1
40
0.965377
41
7.37471370518944E-06
42
0.648754949005278
0
ELLIPSE
5
1E2
100
AcDbEntity
8
1
62
256
6
ByLayer
370
-1
48
1
60
0
100
AcDbEllipse
10
20.181367
20
5.474089
30
0
11
-1.20137783503978
21
0.111056505775857
31
0
210
0
220
0
230
1
40
0.965649
41
0.880398163215478
42
1.33171247475732
0
ELLIPSE
5
1E3
100
AcDbEntity
8
1
62
256
6
ByLayer
370
-1
48
1
60
0
100
AcDbEllipse
10
20.20896
20
5.772589
30
0
11
1.20137783503978
21
-0.111056505775855
31
0
210
0
220
0
230
1
40
0.965649
41
-0.419982348867389
42
-0.281917082043573
0
ELLIPSE
5
1E4
100
AcDbEntity
8
1
62
256
6
ByLayer
370
-1
48
1
60
0
100
AcDbEllipse
10
20.181367
20
5.474089
30
0
11
-1.20137783503978
21
0.111056505775857
31
0
210
0
220
0
230
1
40
0.965649
41
-2.44394954400801
42
-1.39954254049275
0
ELLIPSE
5
1E5
100
AcDbEntity
8
1
62
256
6
ByLayer
370
-1
48
1
60
0
100
AcDbEllipse
10
14.379158
20
4.495221
30
0
11
-0.352818355805768
21
0.579522284501171
31
0
210
0
220
0
230
1
40
0.077955
41
1.74179175246327
42
2.60472539840898
0
ELLIPSE
5
1E6
100
AcDbEntity
8
1
62
256
6
ByLayer
370
-1
48
1
60
0
100
AcDbEllipse
10
22.932391
20
0.167121
30
0
11
-0.162905930262453
21
0.286987208574398
31
0
210
0
220
0
230
1
40
0.02153
41
1.12565786182335
42
2.00667918783271
0
ELLIPSE
5
1E7
100
AcDbEntity
8
1
62
256
6
ByLayer
370
-1
48
1
60
0
100
AcDbEllipse
10
13.462595
20
6.725545
30
0
11
-0.212269097715289
21
-0.252669408823342
31
0
210
0
220
0
230
1
40
0.337579
41
-1.89765887867862
42
-1.08120929264124
0
ELLIPSE
5
1E8
100
AcDbEntity
8
1
62
256
6
ByLayer
370
-1
48
1
60
0
100
AcDbEllipse
10
22.784685
20
-0.018676
30
0
11
-0.8397572043987
21
-0.47549838520842
31
0
210
0
220
0
230
1
40
0.309981
41
-3.12771293651761
42
-2.31126335048141
0
ELLIPSE
5
1E9
100
AcDbEntity
8
1
62
256
6
ByLayer
370
-1
48
1
60
0
100
AcDbEllipse
10
22.968364
20
0.287196
30
0
11
-0.00905888302364207
21
0.890201608184009
31
0
210
0
220
0
230
1
40
0.36425
41
2.34507277122602
42
-3.12166294991625
0
ELLIPSE
5
1EA
100
AcDbEntity
8
1
62
256
6
ByLayer
370
-1
48
1
60
0
100
AcDbEllipse
10
13.182672
20
4.614941
30
0
11
0.128909849804431
21
-0.0168003161696175
31
0
210
0
220
0
230
1
40
0.965377
41
0.648754949005289
42
1.68081215656667
0
ELLIPSE
5
1EB
100
AcDbEntity
8
1
62
256
6
ByLayer
370
-1
48
1
60
0
100
AcDbEllipse
10
24.121184
20
-1.552283
30
0
11
-0.087262052175304
21
0.0113725217148177
31
0
210
0
220
0
230
1
40
0.965377
41
1.71109284383705
42
2.74315005139849
0
ELLIPSE
5
1EC
100
AcDbEntity
8
1
62
256
6
ByLayer
370
-1
48
1
60
0
100
AcDbEllipse
10
23.246364
20
0.345346
30
0
11
0.279599485899568
21
0.175282992571149
31
0
210
0
220
0
230
1
40
0.421259
41
-1.60874096781754
42
-1.25967511741867
0
ELLIPSE
5
1ED
100
AcDbEntity
8
1
62
256
6
ByLayer
370
-1
48
1
60
0
100
AcDbEllipse
10
13.408713
20
6.647235
30
0
11
0.209711886300684
21
-0.144294576281328
31
0
210
0
220
0
230
1
40
0.89169
41
1.64781454596461
42
1.9526331962415
0
ELLIPSE
5
1EE
100
AcDbEntity
8
1
62
256
6
ByLayer
370
-1
48
1
60
0
100
AcDbEllipse
10
22.509907
20
-0.49379
30
0
11
-0.242957627013745
21
-0.0725900421201153
31
0
210
0
220
0
230
1
40
0.912025
41
0.785648800328304
42
1.32438791955215
0
ELLIPSE
5
1EF
100
AcDbEntity
8
1
62
256
6
ByLayer
370
-1
48
1
60
0
100
AcDbEllipse
10
18.748253
20
8.94149
30
0
11
0.105643713396575
21
-0.10648664620403
31
0
210
0
220
0
230
1
40
0.208799
41
1.73137674251017
42
1.90590966770959
0
ELLIPSE
5
1F0
100
AcDbEntity
8
1
62
256
6
ByLayer
370
-1
48
1
60
0
100
AcDbEllipse
10
23.999662
20
11.693242
30
0
11
-0.284376105461714
21
0.16742231225983
31
0
210
0
220
0
230
1
40
0.016405
41
1.1935936413185
42
1.54265949171742
0
ELLIPSE
5
1F1
100
AcDbEntity
8
1
62
256
6
ByLayer
370
-1
48
1
60
0
100
AcDbEllipse
10
24.754862
20
2.644971
30
0
11
0.247903557316213
21
-0.0323083003261875
31
0
210
0
220
0
230
1
40
0.965377
41
0.0290203956826865
42
0.12515617340698
0
ELLIPSE
5
1F2
100
AcDbEntity
8
1
62
256
6
ByLayer
370
-1
48
1
60
0
100
AcDbEllipse
10
13.773253
20
6.541867
30
0
11
-0.167953352766752
21
-0.284062794632467
31
0
210
0
220
0
230
1
40
0.034828
41
-1.98328355128133
42
-1.10226222527193
0
ELLIPSE
5
1F3
100
AcDbEntity
8
1
62
256
6
ByLayer
370
-1
48
1
60
0
100
AcDbEllipse
10
14.010173
20
4.648237
30
0
11
-0.163001787031744
21
0.0802780296977999
31
0
210
0
220
0
230
1
40
0.905973
41
0.947834104653164
42
1.89138242326419
0
ELLIPSE
5
1F4
100
AcDbEntity
8
1
62
256
6
ByLayer
370
-1
48
1
60
0
100
AcDbEllipse
10
24.146722
20
0.458051
30
0
11
-0.126337966047955
21
-0.0377468218902436
31
0
210
0
220
0
230
1
40
0.912025
41
-1.72869584498978
42
-0.785147526380668
0
ELLIPSE
5
1F5
100
AcDbEntity
8
1
62
256
6
ByLayer
370
-1
48
1
60
0
100
AcDbEllipse
10
22.830433
20
11.724628
30
0
11
-0.00161411562841797
21
-0.186342719950227
31
0
210
0
220
0
230
1
40
0.965414
41
2.19797858375729
42
3.14152690237036
0
ELLIPSE
5
1F6
100
AcDbEntity
8
1
62
256
6
ByLayer
370
-1
48
1
60
0
100
AcDbEllipse
10
23.982756
20
10.539376
30
0
11
-0.0160813469145535
21
-1.84304788194664
31
0
210
0
220
0
230
1
40
0.178949
41
2.84088209955097
42
-2.84088381131902
0
ELLIPSE
5
1F7
100
AcDbEntity
8
1
62
256
6
ByLayer
370
-1
48
1
60
0
100
AcDbEllipse
10
20.6665
20
0.392489
30
0
11
-0.152071064516682
21
0.0898102043897334
31
0
210
0
220
0
230
1
40
0.204506
41
-2.4260976421153
42
-1.48361984604675
0
ELLIPSE
5
1F8
100
AcDbEntity
8
1
62
256
6
ByLayer
370
-1
48
1
60
0
100
AcDbEllipse
10
21.485064
20
-0.159961
30
0
11
-0.335345611859989
21
0.202133482165553
31
0
210
0
220
0
230
1
40
0.196502
41
0.716045183830345
42
1.70665050981342
0
ELLIPSE
5
1F9
100
AcDbEntity
8
1
62
256
6
ByLayer
370
-1
48
1
60
0
100
AcDbEllipse
10
21.738477
20
-0.052792
30
0
11
0.31247006841398
21
-0.0690105524203536
31
0
210
0
220
0
230
1
40
0.339082
41
-1.57490434696749
42
-1.29926058602078
0
ELLIPSE
5
1FA
100
AcDbEntity
8
1
62
256
6
ByLayer
370
-1
48
1
60
0
100
AcDbEllipse
10
24.758513
20
10.031874
30
0
11
-0.176362263404766
21
-0.267013767522853
31
0
210
0
220
0
230
1
40
0.190428
41
0.392943113970743
42
1.38354843995788
0
ELLIPSE
5
1FB
100
AcDbEntity
8
1
62
256
6
ByLayer
370
-1
48
1
60
0
100
AcDbEllipse
10
20.802902
20
11.607799
30
0
11
-0.282946175590627
21
0.00181004968649605
31
0
210
0
220
0
230
1
40
0.13726
41
-2.53026878689924
42
-2.10369367161229
0
ELLIPSE
5
1FC
100
AcDbEntity
8
1
62
256
6
ByLayer
370
-1
48
1
60
0
100
AcDbEllipse
10
23.993364
20
10.971376
30
0
11
-0.176156251761359
21
-0.279050129842989
31
0
210
0
220
0
230
1
40
0.027615
41
-1.55353327751211
42
-0.672511951502629
0
ELLIPSE
5
1FD
100
AcDbEntity
8
1
62
256
6
ByLayer
370
-1
48
1
60
0
100
AcDbEllipse
10
23.688119
20
11.164069
30
0
11
-0.284376105461714
21
0.16742231225983
31
0
210
0
220
0
230
1
40
0.016405
41
1.19359364131844
42
1.5426594917174
0
ELLIPSE
5
1FE
100
AcDbEntity
8
1
62
256
6
ByLayer
370
-1
48
1
60
0
100
AcDbEllipse
10
13.176019
20
6.258698
30
0
11
0.126635808899252
21
-0.304734920717059
31
0
210
0
220
0
230
1
40
0.555252
41
-1.61889801125755
42
-1.01747861494671
0
ELLIPSE
5
1FF
100
AcDbEntity
8
1
62
256
6
ByLayer
370
-1
48
1
60
0
100
AcDbEllipse
10
13.462595
20
6.725545
30
0
11
0.167953352766752
21
0.284062794632467
31
0
210
0
220
0
230
1
40
0.034828
41
1.15830910230845
42
2.03933042831781
0
ELLIPSE
5
200
100
AcDbEntity
8
1
62
256
6
ByLayer
370
-1
48
1
60
0
100
AcDbEllipse
10
18.313324
20
3.223337
30
0
11
0.036339184813286
21
0.145531658573335
31
0
210
0
220
0
230
1
40
0.031018
41
1.30867147361027
42
1.4832043988098
0
ELLIPSE
5
201
100
AcDbEntity
8
1
62
256
6
ByLayer
370
-1
48
1
60
0
100
AcDbEllipse
10
15.032398
20
3.90598
30
0
11
0.247903557316213
21
-0.0323083003261875
31
0
210
0
220
0
230
1
40
0.965377
41
-2.06537470671051
42
-1.96923892898623
0
ELLIPSE
5
202
100
AcDbEntity
8
1
62
256
6
ByLayer
370
-1
48
1
60
0
100
AcDbEllipse
10
15.053447
20
8.40931
30
0
11
-0.152366796109717
21
-0.0885689546725187
31
0
210
0
220
0
230
1
40
0.177556
41
-1.70666189349822
42
-0.764184097435618
0
ELLIPSE
5
203
100
AcDbEntity
8
1
62
256
6
ByLayer
370
-1
48
1
60
0
100
AcDbEllipse
10
21.738477
20
-0.052792
30
0
11
-0.124641651684533
21
0.294727770434602
31
0
210
0
220
0
230
1
40
0.207616
41
0.857834935771352
42
1.84844026175847
0
ELLIPSE
5
204
100
AcDbEntity
8
1
62
256
6
ByLayer
370
-1
48
1
60
0
100
AcDbEllipse
10
24.758513
20
10.031874
30
0
11
0.151526441011298
21
0.281850559116794
31
0
210
0
220
0
230
1
40
0.028752
41
1.58609100057049
42
2.75605480880323
0
ELLIPSE
5
205
100
AcDbEntity
8
1
62
256
6
ByLayer
370
-1
48
1
60
0
100
AcDbEllipse
10
23.246364
20
0.345346
30
0
11
0.162905930262453
21
-0.286987208574398
31
0
210
0
220
0
230
1
40
0.02153
41
-2.01593479176644
42
-1.1349134657571
0
ELLIPSE
5
206
100
AcDbEntity
8
1
62
256
6
ByLayer
370
-1
48
1
60
0
100
AcDbEllipse
10
24.988916
20
9.879693
30
0
11
-0.00182133632051989
21
-0.382233948169132
31
0
210
0
220
0
230
1
40
0.027927
41
-1.40180170227736
42
-0.411196376254769
0
ELLIPSE
5
207
100
AcDbEntity
8
1
62
256
6
ByLayer
370
-1
48
1
60
0
100
AcDbEllipse
10
24.534388
20
1.777517
30
0
11
-0.354581940745125
21
-0.613012806373663
31
0
210
0
220
0
230
1
40
0.045947
41
1.53517135824874
42
2.39810500422953
0
ELLIPSE
5
208
100
AcDbEntity
8
1
62
256
6
ByLayer
370
-1
48
1
60
0
100
AcDbEllipse
10
22.607617
20
0.263771
30
0
11
-1.55966722542027
21
0.744929034926851
31
0
210
0
220
0
230
1
40
0.184513
41
2.82326408472159
42
-2.85850182614638
0
ELLIPSE
5
209
100
AcDbEntity
8
1
62
256
6
ByLayer
370
-1
48
1
60
0
100
AcDbEllipse
10
14.188346
20
7.596384
30
0
11
-0.319395980548361
21
-0.0196521655181065
31
0
210
0
220
0
230
1
40
0.37118
41
1.28804767707353
42
2.4580114853061
0
ELLIPSE
5
20A
100
AcDbEntity
8
1
62
256
6
ByLayer
370
-1
48
1
60
0
100
AcDbEllipse
10
23.542222
20
-0.126586
30
0
11
0.0213831913664018
21
-0.329306482060387
31
0
210
0
220
0
230
1
40
0.180834
41
0.822806078782328
42
1.17187192918116
0
ELLIPSE
5
20B
100
AcDbEntity
8
1
62
256
6
ByLayer
370
-1
48
1
60
0
100
AcDbEllipse
10
18.428852
20
2.599679
30
0
11
-0.149596261873752
21
0.0109981104467947
31
0
210
0
220
0
230
1
40
0.260475
41
-1.58545179736179
42
-0.879865607663462
0
ELLIPSE
5
20C
100
AcDbEntity
8
1
62
256
6
ByLayer
370
-1
48
1
60
0
100
AcDbEllipse
10
23.999662
20
11.693242
30
0
11
-0.329964582601559
21
0.00483469012230867
31
0
210
0
220
0
230
1
40
0.17881
41
-1.8384035857735
42
-1.23698418946265
0
ELLIPSE
5
20D
100
AcDbEntity
8
1
62
256
6
ByLayer
370
-1
48
1
60
0
100
AcDbEllipse
10
24.999663
20
4.96956
30
0
11
-0.00130855130838323
21
-0.150100407789869
31
0
210
0
220
0
230
1
40
0.032542
41
1.83254796943414
42
2.54507254790528
0
ELLIPSE
5
20E
100
AcDbEntity
8
1
62
256
6
ByLayer
370
-1
48
1
60
0
100
AcDbEllipse
10
24.254224
20
-0.531455
30
0
11
-0.0855210847088924
21
-0.0255516948186365
31
0
210
0
220
0
230
1
40
0.912025
41
1.32438791963908
42
2.35644512720274
0
ELLIPSE
5
20F
100
AcDbEntity
8
1
62
256
6
ByLayer
370
-1
48
1
60
0
100
AcDbEllipse
10
22.972596
20
0.08799
30
0
11
0.226945289156953
21
0.115307570130787
31
0
210
0
220
0
230
1
40
0.906288
41
1.62175668323861
42
2.73001671763811
0
ELLIPSE
5
210
100
AcDbEntity
8
1
62
256
6
ByLayer
370
-1
48
1
60
0
100
AcDbEllipse
10
12.331198
20
4.845431
30
0
11
-0.0872620521753069
21
0.011372521714818
31
0
210
0
220
0
230
1
40
0.965377
41
0.648754949005276
42
1.68081215656667
0
ELLIPSE
5
211
100
AcDbEntity
8
1
62
256
6
ByLayer
370
-1
48
1
60
0
100
AcDbEllipse
10
14.157136
20
3.348402
30
0
11
0.128909849804431
21
-0.0168003161696175
31
0
210
0
220
0
230
1
40
0.965377
41
0.648754949005292
42
1.59230326761554
0
ELLIPSE
5
212
100
AcDbEntity
8
1
62
256
6
ByLayer
370
-1
48
1
60
0
100
AcDbEllipse
10
13.715616
20
6.130806
30
0
11
0.209711886300684
21
-0.144294576281328
31
0
210
0
220
0
230
1
40
0.89169
41
0.234735861288246
42
0.539554511565145
0
ELLIPSE
5
213
100
AcDbEntity
8
1
62
256
6
ByLayer
370
-1
48
1
60
0
100
AcDbEllipse
10
13.43067
20
7.135033
30
0
11
-0.226391370877795
21
0.1114972634713
31
0
210
0
220
0
230
1
40
0.905973
41
-0.622962222133717
42
-0.0842231029014632
0
ELLIPSE
5
214
100
AcDbEntity
8
1
62
256
6
ByLayer
370
-1
48
1
60
0
100
AcDbEllipse
10
24.001811
20
12.489677
30
0
11
-0.000789123189784794
21
-0.0911008853081624
31
0
210
0
220
0
230
1
40
0.965414
41
2.10946969473331
42
3.14152690230356
0
ELLIPSE
5
215
100
AcDbEntity
8
1
62
256
6
ByLayer
370
-1
48
1
60
0
100
AcDbEllipse
10
24.487577
20
4.954754
30
0
11
0.00433519637841395
21
-0.149937340487153
31
0
210
0
220
0
230
1
40
0.042612
41
1.83132307955784
42
2.54384765808384
0
ELLIPSE
5
216
100
AcDbEntity
8
1
62
256
6
ByLayer
370
-1
48
1
60
0
100
AcDbEllipse
10
23.993364
20
10.971376
30
0
11
-0.171258174322715
21
0.282082678886263
31
0
210
0
220
0
230
1
40
0.027765
41
1.55377500698522
42
2.43479633299415
0
ELLIPSE
5
217
100
AcDbEntity
8
1
62
256
6
ByLayer
370
-1
48
1
60
0
100
AcDbEllipse
10
23.542222
20
-0.126586
30
0
11
0.127183466692521
21
0.304506758217404
31
0
210
0
220
0
230
1
40
0.504267
41
-2.1536503394613
42
-1.55223094315045
0
ELLIPSE
5
218
100
AcDbEntity
8
1
62
256
6
ByLayer
370
-1
48
1
60
0
100
AcDbEllipse
10
24.18163
20
0.753647
30
0
11
-0.174929491449987
21
-0.0522648303112654
31
0
210
0
220
0
230
1
40
0.912025
41
1.412896808588
42
2.35644512719951
0
ELLIPSE
5
219
100
AcDbEntity
8
1
62
256
6
ByLayer
370
-1
48
1
60
0
100
AcDbEllipse
10
23.997736
20
12.489713
30
0
11
-0.000789123195493354
21
-0.0911008853100757
31
0
210
0
220
0
230
1
40
0.965414
41
3.14152690236353
42
-2.1096011972585
0
ELLIPSE
5
21A
100
AcDbEntity
8
1
62
256
6
ByLayer
370
-1
48
1
60
0
100
AcDbEllipse
10
24.295086
20
11.15874
30
0
11
-0.00111084561865465
21
-0.25455601745394
31
0
210
0
220
0
230
1
40
0.99947
41
0.54976618962861
42
0.854584839905498
0
ELLIPSE
5
21B
100
AcDbEntity
8
1
62
256
6
ByLayer
370
-1
48
1
60
0
100
AcDbEllipse
10
21.738477
20
-0.052792
30
0
11
0.175268193866227
21
-0.267733188489718
31
0
210
0
220
0
230
1
40
0.050915
41
-2.3071729032047
42
-1.13720909497192
0
ELLIPSE
5
21C
100
AcDbEntity
8
1
62
256
6
ByLayer
370
-1
48
1
60
0
100
AcDbEllipse
10
13.310091
20
5.592633
30
0
11
-0.117723512856364
21
0.0579785770039245
31
0
210
0
220
0
230
1
40
0.905973
41
-2.19375854893694
42
-1.16170134137532
0
ELLIPSE
5
21D
100
AcDbEntity
8
1
62
256
6
ByLayer
370
-1
48
1
60
0
100
AcDbEllipse
10
22.939462
20
-0.165725
30
0
11
-0.329925556072602
21
-0.0070090976726298
31
0
210
0
220
0
230
1
40
0.387366
41
0.874225995497505
42
1.7552473215069
0
ELLIPSE
5
21E
100
AcDbEntity
8
1
62
256
6
ByLayer
370
-1
48
1
60
0
100
AcDbEllipse
10
24.301924
20
11.15871
30
0
11
0.171258174322715
21
-0.282082678886263
31
0
210
0
220
0
230
1
40
0.027765
41
-1.58781764660457
42
-0.706796320595389
0
ELLIPSE
5
21F
100
AcDbEntity
8
1
62
256
6
ByLayer
370
-1
48
1
60
0
100
AcDbEllipse
10
13.769498
20
6.209115
30
0
11
0.328176800678816
21
0.0346408356743358
31
0
210
0
220
0
230
1
40
0.669793
41
-1.87889207700213
42
-1.06244249096474
0
ELLIPSE
5
220
100
AcDbEntity
8
1
62
256
6
ByLayer
370
-1
48
1
60
0
100
AcDbEllipse
10
13.462595
20
6.725545
30
0
11
-0.281239163946545
21
0.172639893022003
31
0
210
0
220
0
230
1
40
0.452158
41
1.19814525964089
42
1.54721111003975
0
ELLIPSE
5
221
100
AcDbEntity
8
1
62
256
6
ByLayer
370
-1
48
1
60
0
100
AcDbEllipse
10
17.02212
20
2.45785
30
0
11
-0.128694594752045
21
0.0772752475921884
31
0
210
0
220
0
230
1
40
0.240247
41
-2.17895169570933
42
-1.46642711717986
0
ELLIPSE
5
222
100
AcDbEntity
8
1
62
256
6
ByLayer
370
-1
48
1
60
0
100
AcDbEllipse
10
13.68588
20
5.193928
30
0
11
-0.163001787031129
21
0.0802780296983438
31
0
210
0
220
0
230
1
40
0.905973
41
0.00428578604710347
42
0.947834104658577
0
ELLIPSE
5
223
100
AcDbEntity
8
1
62
256
6
ByLayer
370
-1
48
1
60
0
100
AcDbEllipse
10
23.688119
20
11.164069
30
0
11
-0.177923566733259
21
-0.277926616934966
31
0
210
0
220
0
230
1
40
0.36765
41
-1.541799267303
42
-0.725349681265621
0
ELLIPSE
5
224
100
AcDbEntity
8
1
62
256
6
ByLayer
370
-1
48
1
60
0
100
AcDbEllipse
10
24.301924
20
11.15871
30
0
11
0.28725466749014
21
0.162433851167573
31
0
210
0
220
0
230
1
40
0.016158
41
1.25000937400424
42
1.59907522440312
0
ELLIPSE
5
225
100
AcDbEntity
8
1
62
256
6
ByLayer
370
-1
48
1
60
0
100
AcDbEllipse
10
23.688119
20
11.164069
30
0
11
0.176156251761358
21
0.279050129842989
31
0
210
0
220
0
230
1
40
0.027615
41
1.5880593760777
42
2.4690807020869
0
ELLIPSE
5
226
100
AcDbEntity
8
1
62
256
6
ByLayer
370
-1
48
1
60
0
100
AcDbEllipse
10
23.999662
20
11.693242
30
0
11
0.28725466749014
21
0.162433851167573
31
0
210
0
220
0
230
1
40
0.016158
41
1.25000937400425
42
1.59907522440312
0
ELLIPSE
5
227
100
AcDbEntity
8
1
62
256
6
ByLayer
370
-1
48
1
60
0
100
AcDbEllipse
10
19.1844
20
9.374185
30
0
11
0.105643713396575
21
-0.10648664620403
31
0
210
0
220
0
230
1
40
0.208799
41
1.73137674251014
42
1.90590966770959
0
ELLIPSE
5
228
100
AcDbEntity
8
1
62
256
6
ByLayer
370
-1
48
1
60
0
100
AcDbEllipse
10
13.773253
20
6.541867
30
0
11
0.329978987874474
21
-0.00372391747194987
31
0
210
0
220
0
230
1
40
0.388343
41
-1.82590966257629
42
-0.9448883365669
0
ELLIPSE
5
229
100
AcDbEntity
8
1
62
256
6
ByLayer
370
-1
48
1
60
0
100
AcDbEllipse
10
13.719371
20
6.463558
30
0
11
0.209711886300684
21
-0.144294576281328
31
0
210
0
220
0
230
1
40
0.89169
41
0.539554511565145
42
1.6478145459646
0
ELLIPSE
5
22A
100
AcDbEntity
8
1
62
256
6
ByLayer
370
-1
48
1
60
0
100
AcDbEllipse
10
23.542222
20
-0.126586
30
0
11
0.279599485899568
21
0.175282992571149
31
0
210
0
220
0
230
1
40
0.421259
41
-1.60874096781756
42
-1.2596751174187
0
ELLIPSE
5
22B
100
AcDbEntity
8
1
62
256
6
ByLayer
370
-1
48
1
60
0
100
AcDbEllipse
10
14.188346
20
7.596384
30
0
11
-0.215215761079822
21
-0.236816756549939
31
0
210
0
220
0
230
1
40
0.068153
41
1.10567697417567
42
1.38132073512239
0
ELLIPSE
5
22C
100
AcDbEntity
8
1
62
256
6
ByLayer
370
-1
48
1
60
0
100
AcDbEllipse
10
23.681281
20
11.164098
30
0
11
-0.00111084561865465
21
-0.25455601745394
31
0
210
0
220
0
230
1
40
0.99947
41
-0.863312495047759
42
-0.558493844770849
0
ELLIPSE
5
22D
100
AcDbEntity
8
1
62
256
6
ByLayer
370
-1
48
1
60
0
100
AcDbEllipse
10
17.704116
20
3.375456
30
0
11
0.036339184813286
21
0.145531658573335
31
0
210
0
220
0
230
1
40
0.031018
41
1.30867147361068
42
1.4832043988098
0
ELLIPSE
5
22E
100
AcDbEntity
8
1
62
256
6
ByLayer
370
-1
48
1
60
0
100
AcDbEllipse
10
22.932391
20
0.167121
30
0
11
0.329925556072602
21
0.00700909767262981
31
0
210
0
220
0
230
1
40
0.387366
41
-2.26736665809226
42
-1.38634533208288
0
ELLIPSE
5
22F
100
AcDbEntity
8
1
62
256
6
ByLayer
370
-1
48
1
60
0
100
AcDbEllipse
10
13.432037
20
5.387433
30
0
11
-0.117723512855958
21
0.0579785770043362
31
0
210
0
220
0
230
1
40
0.905973
41
-3.13730686754331
42
-2.19375854893224
0
ELLIPSE
5
230
100
AcDbEntity
8
1
62
256
6
ByLayer
370
-1
48
1
60
0
100
AcDbEllipse
10
23.122611
20
11.853018
30
0
11
-0.00116575018513096
21
-0.134580853298523
31
0
210
0
220
0
230
1
40
0.965414
41
-0.943614069763049
42
-6.57511549480795E-05
0
ELLIPSE
5
231
100
AcDbEntity
8
1
62
256
6
ByLayer
370
-1
48
1
60
0
100
AcDbEllipse
10
23.986526
20
10.971406
30
0
11
-0.00111084561865465
21
-0.25455601745394
31
0
210
0
220
0
230
1
40
0.99947
41
-0.558493844770849
42
0.549766189628604
0
ELLIPSE
5
232
100
AcDbEntity
8
1
62
256
6
ByLayer
370
-1
48
1
60
0
100
AcDbEllipse
10
21.689251
20
-0.275679
30
0
11
-0.289198812897797
21
0.170212775521123
31
0
210
0
220
0
230
1
40
0.230783
41
1.64164718013467
42
1.91729094088406
0
ELLIPSE
5
233
100
AcDbEntity
8
1
62
256
6
ByLayer
370
-1
48
1
60
0
100
AcDbEllipse
10
25.035969
20
2.599742
30
0
11
-0.140909608570766
21
-0.238595094209551
31
0
210
0
220
0
230
1
40
0.055966
41
-1.18511046578927
42
-0.758535350354848
0
ELLIPSE
5
234
100
AcDbEntity
8
1
62
256
6
ByLayer
370
-1
48
1
60
0
100
AcDbEllipse
10
24.758513
20
10.031874
30
0
11
-0.0998721853702723
21
0.304015701221772
31
0
210
0
220
0
230
1
40
0.030894
41
1.56049821075757
42
1.83614197170432
0
ELLIPSE
5
235
100
AcDbEntity
8
1
62
256
6
ByLayer
370
-1
48
1
60
0
100
AcDbEllipse
10
20.244927
20
5.98495
30
0
11
3.05458417278442
21
-0.398091999543419
31
0
210
0
220
0
230
1
40
0.965377
41
0
42
6.28318530717959
0
ELLIPSE
5
236
100
AcDbEntity
8
1
62
256
6
ByLayer
370
-1
48
1
60
0
100
AcDbEllipse
10
24.158204
20
6.077275
30
0
11
0.0628391801251482
21
-0.13620292743256
31
0
210
0
220
0
230
1
40
0.142491
41
1.08780006448589
42
1.79338625418419
0
ELLIPSE
5
237
100
AcDbEntity
8
1
62
256
6
ByLayer
370
-1
48
1
60
0
100
AcDbEllipse
10
12.462201
20
5.869688
30
0
11
-0.0796897625486348
21
0.0392470367414606
31
0
210
0
220
0
230
1
40
0.905973
41
-0.0842231029041537
42
0.947834104658137
0
ELLIPSE
5
238
100
AcDbEntity
8
1
62
256
6
ByLayer
370
-1
48
1
60
0
100
AcDbEllipse
10
18.697826
20
10.411038
30
0
11
-0.129047565285192
21
-0.0766809847360276
31
0
210
0
220
0
230
1
40
0.207713
41
-1.73249974775827
42
-1.01997516924263
0
ELLIPSE
5
239
100
AcDbEntity
8
1
62
256
6
ByLayer
370
-1
48
1
60
0
100
AcDbEllipse
10
17.26089
20
2.894015
30
0
11
-0.13157497754103
21
0.0720279479443749
31
0
210
0
220
0
230
1
40
0.244182
41
-2.18853910739832
42
-1.47601452887179
0
ELLIPSE
5
23A
100
AcDbEntity
8
1
62
256
6
ByLayer
370
-1
48
1
60
0
100
AcDbEllipse
10
24.999663
20
9.03665
30
0
11
-0.00112078330439033
21
-0.175200356916741
31
0
210
0
220
0
230
1
40
0.028145
41
1.79429313990622
42
2.73677093596812
0
ELLIPSE
5
23B
100
AcDbEntity
8
1
62
256
6
ByLayer
370
-1
48
1
60
0
100
AcDbEllipse
10
12.464239
20
5.866259
30
0
11
-0.079689762548496
21
0.0392470367412335
31
0
210
0
220
0
230
1
40
0.905973
41
0.947834104653928
42
1.97989131221978
0
ELLIPSE
5
23C
100
AcDbEntity
8
1
62
256
6
ByLayer
370
-1
48
1
60
0
100
AcDbEllipse
10
21.812572
20
11.615649
30
0
11
-0.703412698147461
21
0.0249980102932251
31
0
210
0
220
0
230
1
40
0.118947
41
0.622440647753655
42
1.485374293702
0
ELLIPSE
5
23D
100
AcDbEntity
8
1
62
256
6
ByLayer
370
-1
48
1
60
0
100
AcDbEllipse
10
23.658033
20
5.67362
30
0
11
-0.143834238271018
21
-0.0425642091550633
31
0
210
0
220
0
230
1
40
0.239817
41
-1.85125430936079
42
-1.67672138416134
0
ELLIPSE
5
23E
100
AcDbEntity
8
1
62
256
6
ByLayer
370
-1
48
1
60
0
100
AcDbEllipse
10
23.28657
20
0.266215
30
0
11
0.226945289156953
21
0.115307570130787
31
0
210
0
220
0
230
1
40
0.906288
41
1.31693803296175
42
1.62175668323862
0
ELLIPSE
5
23F
100
AcDbEntity
8
1
62
256
6
ByLayer
370
-1
48
1
60
0
100
AcDbEllipse
10
14.009202
20
7.759187
30
0
11
-0.289302537400574
21
-0.168627450683187
31
0
210
0
220
0
230
1
40
0.200375
41
1.16876729739034
42
1.44441105827318
0
ELLIPSE
5
240
100
AcDbEntity
8
1
62
256
6
ByLayer
370
-1
48
1
60
0
100
AcDbEllipse
10
13.883896
20
3.679311
30
0
11
-0.178490561267673
21
0.0232619762348551
31
0
210
0
220
0
230
1
40
0.965377
41
0.64875494900528
42
1.5923032676155
0
ELLIPSE
5
241
100
AcDbEntity
8
1
62
256
6
ByLayer
370
-1
48
1
60
0
100
AcDbEllipse
10
18.971143
20
9.989678
30
0
11
0.12584393714589
21
0.0816290602887308
31
0
210
0
220
0
230
1
40
0.201571
41
1.40093020518962
42
2.11345478371611
0
ELLIPSE
5
242
100
AcDbEntity
8
1
62
256
6
ByLayer
370
-1
48
1
60
0
100
AcDbEllipse
10
14.076811
20
6.633032
30
0
11
-1.52763275143293
21
-0.71771551778625
31
0
210
0
220
0
230
1
40
0.19038
41
-0.282189388540552
42
0.319230007769993
0
ELLIPSE
5
243
100
AcDbEntity
8
1
62
256
6
ByLayer
370
-1
48
1
60
0
100
AcDbEllipse
10
18.132553
20
9.161494
30
0
11
0.0828127045743269
21
0.125068205236524
31
0
210
0
220
0
230
1
40
0.117984
41
0.62872270555042
42
1.33430889524873
0
ELLIPSE
5
244
100
AcDbEntity
8
1
62
256
6
ByLayer
370
-1
48
1
60
0
100
AcDbEllipse
10
17.357371
20
9.674774
30
0
11
-0.143596299226436
21
-0.0840609519289663
31
0
210
0
220
0
230
1
40
0.187849
41
-2.42091986255487
42
-1.71533367289827
0
ELLIPSE
5
245
100
AcDbEntity
8
1
62
256
6
ByLayer
370
-1
48
1
60
0
100
AcDbEllipse
10
13.721619
20
6.662707
30
0
11
-0.00326779054640898
21
0.890163367019984
31
0
210
0
220
0
230
1
40
0.358446
41
3.11033052360167
42
-2.35640519754116
0
ELLIPSE
5
246
100
AcDbEntity
8
1
62
256
6
ByLayer
370
-1
48
1
60
0
100
AcDbEllipse
10
24.256262
20
-0.528061
30
0
11
-0.085521084707744
21
-0.0255516948195271
31
0
210
0
220
0
230
1
40
0.912025
41
2.35644512718446
42
-2.89468297242735
0
ELLIPSE
5
247
100
AcDbEntity
8
1
62
256
6
ByLayer
370
-1
48
1
60
0
100
AcDbEllipse
10
22.181848
20
11.730291
30
0
11
-0.00161411562197484
21
-0.186342719953264
31
0
210
0
220
0
230
1
40
0.965414
41
3.14152690233691
42
-2.19811008623824
0
ELLIPSE
5
248
100
AcDbEntity
8
1
62
256
6
ByLayer
370
-1
48
1
60
0
100
AcDbEllipse
10
20.94752
20
11.4039
30
0
11
0.247903557316213
21
-0.0323083003261875
31
0
210
0
220
0
230
1
40
0.965377
41
2.1234154980759
42
2.2195512758002
0
ELLIPSE
5
249
100
AcDbEntity
8
1
62
256
6
ByLayer
370
-1
48
1
60
0
100
AcDbEllipse
10
14.188346
20
7.596384
30
0
11
0.318680845545932
21
-0.0290261723644354
31
0
210
0
220
0
230
1
40
0.190982
41
-1.6309247382956
42
-0.640319412308503
0
ELLIPSE
5
24A
100
AcDbEntity
8
1
62
256
6
ByLayer
370
-1
48
1
60
0
100
AcDbEllipse
10
24.735191
20
10.860812
30
0
11
-0.00224182731751026
21
-0.258809333272509
31
0
210
0
220
0
230
1
40
0.965414
41
1.57073057579555
42
2.10946969501389
0
ELLIPSE
5
24B
100
AcDbEntity
8
1
62
256
6
ByLayer
370
-1
48
1
60
0
100
AcDbEllipse
10
18.362576
20
1.69818
30
0
11
-0.14328148201944
21
0.0850670080509088
31
0
210
0
220
0
230
1
40
0.216652
41
-1.47788269046697
42
-0.772296500774866
0
ELLIPSE
5
24C
100
AcDbEntity
8
1
62
256
6
ByLayer
370
-1
48
1
60
0
100
AcDbEllipse
10
13.176019
20
6.258698
30
0
11
-0.0274746039317452
21
-0.32885429317373
31
0
210
0
220
0
230
1
40
0.244295
41
-1.16693775660928
42
-0.81787190621042
0
ELLIPSE
5
24D
100
AcDbEntity
8
1
62
256
6
ByLayer
370
-1
48
1
60
0
100
AcDbEllipse
10
23.246364
20
0.345346
30
0
11
-0.20432276702833
21
0.259137428546875
31
0
210
0
220
0
230
1
40
0.289609
41
-2.0170819981938
42
-1.20063241215644
0
ELLIPSE
5
24E
100
AcDbEntity
8
1
62
256
6
ByLayer
370
-1
48
1
60
0
100
AcDbEllipse
10
24.999663
20
6.465494
30
0
11
-0.00118496601827615
21
-0.165725331562561
31
0
210
0
220
0
230
1
40
0.029663
41
1.10174283606906
42
1.80732902609215
0
ELLIPSE
5
24F
100
AcDbEntity
8
1
62
256
6
ByLayer
370
-1
48
1
60
0
100
AcDbEllipse
10
24.024776
20
0.25498
30
0
11
-0.126337966048616
21
-0.0377468218899443
31
0
210
0
220
0
230
1
40
0.912025
41
-0.785147526375294
42
0.246909681183021
0
ELLIPSE
5
250
100
AcDbEntity
8
1
62
256
6
ByLayer
370
-1
48
1
60
0
100
AcDbEllipse
10
14.880739
20
3.630907
30
0
11
-0.140009176910295
21
0.240860353289497
31
0
210
0
220
0
230
1
40
0.086219
41
-0.943376980867318
42
-0.516801865792769
0
ELLIPSE
5
251
100
AcDbEntity
8
1
62
256
6
ByLayer
370
-1
48
1
60
0
100
AcDbEllipse
10
24.301924
20
11.15871
30
0
11
-0.16952511551803
21
0.283127595279229
31
0
210
0
220
0
230
1
40
0.315606
41
-2.37975546800553
42
-1.56330588196814
0
ELLIPSE
5
252
100
AcDbEntity
8
1
62
256
6
ByLayer
370
-1
48
1
60
0
100
AcDbEllipse
10
13.769498
20
6.209115
30
0
11
-0.329978987874474
21
0.00372391747194968
31
0
210
0
220
0
230
1
40
0.388343
41
1.31568299101351
42
2.19670431702288
0
ELLIPSE
5
253
100
AcDbEntity
8
1
62
256
6
ByLayer
370
-1
48
1
60
0
100
AcDbEllipse
10
13.176019
20
6.258698
30
0
11
-0.281239163946545
21
0.172639893022003
31
0
210
0
220
0
230
1
40
0.452158
41
1.19814525964091
42
1.54721111003977
0
ELLIPSE
5
254
100
AcDbEntity
8
1
62
256
6
ByLayer
370
-1
48
1
60
0
100
AcDbEllipse
10
24.505923
20
1.293677
30
0
11
-0.174929491449213
21
-0.052264830311572
31
0
210
0
220
0
230
1
40
0.912025
41
2.35644512719469
42
-2.98319186137213
0
ELLIPSE
5
255
100
AcDbEntity
8
1
62
256
6
ByLayer
370
-1
48
1
60
0
100
AcDbEllipse
10
23.366503
20
11.850889
30
0
11
-0.00116575018072192
21
-0.134580853298148
31
0
210
0
220
0
230
1
40
0.965414
41
-6.57511863381103E-05
42
1.03199145637459
0
ELLIPSE
5
256
100
AcDbEntity
8
1
62
256
6
ByLayer
370
-1
48
1
60
0
100
AcDbEllipse
10
24.169212
20
10.856082
30
0
11
-0.815880123383483
21
0.515113493590838
31
0
210
0
220
0
230
1
40
0.341959
41
0.0106254937595309
42
0.827075079797849
0
ELLIPSE
5
257
100
AcDbEntity
8
1
62
256
6
ByLayer
370
-1
48
1
60
0
100
AcDbEllipse
10
23.801855
20
10.859289
30
0
11
-0.824744730917431
21
-0.500790074693754
31
0
210
0
220
0
230
1
40
0.341962
41
2.31451917183592
42
3.13096875787313
0
ELLIPSE
5
258
100
AcDbEntity
8
1
62
256
6
ByLayer
370
-1
48
1
60
0
100
AcDbEllipse
10
22.939462
20
-0.165725
30
0
11
0.329330157514379
21
-0.0210154074800879
31
0
210
0
220
0
230
1
40
0.673866
41
-2.16678940147008
42
-1.35033981543269
0
ELLIPSE
5
259
100
AcDbEntity
8
1
62
256
6
ByLayer
370
-1
48
1
60
0
100
AcDbEllipse
10
22.979667
20
-0.244856
30
0
11
0.226945289156953
21
0.115307570130787
31
0
210
0
220
0
230
1
40
0.906288
41
2.73001671763811
42
3.03483536791499
0
ELLIPSE
5
25A
100
AcDbEntity
8
1
62
256
6
ByLayer
370
-1
48
1
60
0
100
AcDbEllipse
10
20.215451
20
5.8428
30
0
11
1.66938246203413
21
-0.154319297085139
31
0
210
0
220
0
230
1
40
0.965649
41
1.21984661133941
42
2.26425361485467
0
ELLIPSE
5
25B
100
AcDbEntity
8
1
62
256
6
ByLayer
370
-1
48
1
60
0
100
AcDbEllipse
10
20.181367
20
5.474089
30
0
11
-1.20137783503978
21
0.111056505775857
31
0
210
0
220
0
230
1
40
0.965649
41
-1.39954254049275
42
-0.419982348867382
0
ELLIPSE
5
25C
100
AcDbEntity
8
1
62
256
6
ByLayer
370
-1
48
1
60
0
100
AcDbEllipse
10
21.733608
20
6.509608
30
0
11
-0.68308760450666
21
0.063145265613127
31
0
210
0
220
0
230
1
40
0.965649
41
0.697643109581789
42
1.48163375320258
0
ELLIPSE
5
25D
100
AcDbEntity
8
1
62
256
6
ByLayer
370
-1
48
1
60
0
100
AcDbEllipse
10
20.215451
20
5.8428
30
0
11
1.66938246203413
21
-0.154319297085139
31
0
210
0
220
0
230
1
40
0.965649
41
2.26425361485467
42
-2.96615304576564
0
ELLIPSE
5
25E
100
AcDbEntity
8
1
62
256
6
ByLayer
370
-1
48
1
60
0
100
AcDbEllipse
10
20.025977
20
7.29689
30
0
11
-0.68308760450666
21
0.063145265613127
31
0
210
0
220
0
230
1
40
0.965649
41
1.74205011309705
42
2.52604075671785
0
ELLIPSE
5
25F
100
AcDbEntity
8
1
62
256
6
ByLayer
370
-1
48
1
60
0
100
AcDbEllipse
10
20.215451
20
5.8428
30
0
11
1.66938246203413
21
-0.154319297085139
31
0
210
0
220
0
230
1
40
0.965649
41
-0.877339038735125
42
0.175439607824155
0
ELLIPSE
5
260
100
AcDbEntity
8
1
62
256
6
ByLayer
370
-1
48
1
60
0
100
AcDbEllipse
10
20.181367
20
5.474089
30
0
11
1.20137783503978
21
-0.111056505775855
31
0
210
0
220
0
230
1
40
0.965649
41
2.72161030472241
42
2.85967557154621
0
ELLIPSE
5
261
100
AcDbEntity
8
1
62
256
6
ByLayer
370
-1
48
1
60
0
100
AcDbEllipse
10
20.215451
20
5.8428
30
0
11
1.66938246203413
21
-0.154319297085139
31
0
210
0
220
0
230
1
40
0.965649
41
0.175439607824156
42
1.21984661133941
0
ELLIPSE
5
262
100
AcDbEntity
8
1
62
256
6
ByLayer
370
-1
48
1
60
0
100
AcDbEllipse
10
20.20896
20
5.772589
30
0
11
1.20137783503978
21
-0.111056505775855
31
0
210
0
220
0
230
1
40
0.965649
41
2.72161030472241
42
2.85967557154621
0
ELLIPSE
5
263
100
AcDbEntity
8
1
62
256
6
ByLayer
370
-1
48
1
60
0
100
AcDbEllipse
10
20.215451
20
5.8428
30
0
11
1.66938246203413
21
-0.154319297085139
31
0
210
0
220
0
230
1
40
0.965649
41
-1.92174604225038
42
-0.877339038735125
0
ELLIPSE
5
264
100
AcDbEntity
8
1
62
256
6
ByLayer
370
-1
48
1
60
0
100
AcDbEllipse
10
20.025977
20
7.29689
30
0
11
-0.68308760450666
21
0.063145265613127
31
0
210
0
220
0
230
1
40
0.965649
41
0.958059469476253
42
1.74205011309705
0
ELLIPSE
5
265
100
AcDbEntity
8
1
62
256
6
ByLayer
370
-1
48
1
60
0
100
AcDbEllipse
10
18.47678
20
6.259967
30
0
11
-0.68308760450666
21
0.063145265613127
31
0
210
0
220
0
230
1
40
0.965649
41
1.99938160321307
42
2.66902889691742
0
ELLIPSE
5
266
100
AcDbEntity
8
1
62
256
6
ByLayer
370
-1
48
1
60
0
100
AcDbEllipse
10
20.215451
20
5.8428
30
0
11
1.66938246203413
21
-0.154319297085139
31
0
210
0
220
0
230
1
40
0.965649
41
-2.96615304576564
42
-1.92174604225038
0
ELLIPSE
5
267
100
AcDbEntity
8
1
62
256
6
ByLayer
370
-1
48
1
60
0
100
AcDbEllipse
10
23.015289
20
-4.596194
30
0
11
-0.0321951119821594
21
-2.99999972373183
31
0
210
0
220
0
230
1
40
0.039983
41
-2.52442472672222
42
-2.03491902544748
0
ELLIPSE
5
268
100
AcDbEntity
8
1
62
256
6
ByLayer
370
-1
48
1
60
0
100
AcDbEllipse
10
133.026074
20
-0.000252
30
0
11
-296.468754547783
21
2.59107367500766
31
0
210
0
220
0
230
1
40
0.032579
41
-1.1418004540338
42
-1.13383829922806
0
ELLIPSE
5
269
100
AcDbEntity
8
1
62
256
6
ByLayer
370
-1
48
1
60
0
100
AcDbEllipse
10
11.356528
20
0
30
0
11
-5.24424961570972
21
-9.99072781485753
31
0
210
0
220
0
230
1
40
0.082096
41
0.218972271082565
42
0.776166308110447
0
ELLIPSE
5
26A
100
AcDbEntity
8
1
62
256
6
ByLayer
370
-1
48
1
60
0
100
AcDbEllipse
10
16.320644
20
1.5E-05
30
0
11
-1.45410918553734
21
10.5834734331325
31
0
210
0
220
0
230
1
40
0.41612
41
0.056302851393901
42
0.0675374970792354
0
ELLIPSE
5
26B
100
AcDbEntity
8
1
62
256
6
ByLayer
370
-1
48
1
60
0
100
AcDbEllipse
10
11.283185
20
4.596194
30
0
11
-5.73477415725247
21
2.95444631986016
31
0
210
0
220
0
230
1
40
0.090817
41
-2.96938277073132
42
-2.12323984086969
0
ELLIPSE
5
26C
100
AcDbEntity
8
1
62
256
6
ByLayer
370
-1
48
1
60
0
100
AcDbEllipse
10
22.515988
20
-4.596194
30
0
11
-0.411511107367661
21
2.99510894207791
31
0
210
0
220
0
230
1
40
0.41612
41
-0.673849191493929
42
-0.156649809980474
0
ELLIPSE
5
26D
100
AcDbEntity
8
1
62
256
6
ByLayer
370
-1
48
1
60
0
100
AcDbEllipse
10
13.50051
20
5.862488
30
0
11
-2.72193567735247
21
0.354171761611856
31
0
210
0
220
0
230
1
40
0.965322
41
-0.926207607501692
42
-0.26795128798754
0
ELLIPSE
5
26E
100
AcDbEntity
8
1
62
256
6
ByLayer
370
-1
48
1
60
0
100
AcDbEllipse
10
12.21372
20
5.703952
30
0
11
-1.73544496037065
21
0.225876484265685
31
0
210
0
220
0
230
1
40
0.965332
41
-0.651718202828978
42
-0.505039823705441
0
ELLIPSE
5
26F
100
AcDbEntity
8
1
62
256
6
ByLayer
370
-1
48
1
60
0
100
AcDbEllipse
10
13.474845
20
5.449163
30
0
11
1.99150905103983
21
-0.184096984294828
31
0
210
0
220
0
230
1
40
0.965649
41
2.1834246836558
42
2.32546972911174
0
ELLIPSE
5
270
100
AcDbEntity
8
1
62
256
6
ByLayer
370
-1
48
1
60
0
100
AcDbEllipse
10
16.803073
20
-3.669614
30
0
11
-2.5
21
3.06151588455594E-16
31
0
210
0
220
0
230
1
40
0.258819
41
2.18133694573091
42
-2.44028557972698
0
ELLIPSE
5
271
100
AcDbEntity
8
1
62
256
6
ByLayer
370
-1
48
1
60
0
100
AcDbEllipse
10
16.803073
20
-3.669614
30
0
11
-2.5
21
3.06151588455594E-16
31
0
210
0
220
0
230
1
40
0.258819
41
-0.701307073862821
42
0.960255707858867
0
ELLIPSE
5
272
100
AcDbEntity
8
1
62
256
6
ByLayer
370
-1
48
1
60
0
100
AcDbEllipse
10
24.273551
20
-4.596194
30
0
11
-2.98379957304941
21
-2.98046708267457
31
0
210
0
220
0
230
1
40
0.114546
41
1.29390412572175
42
1.46093948954585
0
ELLIPSE
5
273
100
AcDbEntity
8
1
62
256
6
ByLayer
370
-1
48
1
60
0
100
AcDbEllipse
10
27.715121
20
0
30
0
11
-10.5435262212414
21
-10.5317506027943
31
0
210
0
220
0
230
1
40
0.114546
41
1.07299743357455
42
1.12277924453471
0
ELLIPSE
5
274
100
AcDbEntity
8
1
62
256
6
ByLayer
370
-1
48
1
60
0
100
AcDbEllipse
10
-33.861758
20
4.596194
30
0
11
-88.9392891557774
21
0.777282169106189
31
0
210
0
220
0
230
1
40
0.032579
41
2.05128209840047
42
2.17957897322666
0
ELLIPSE
5
275
100
AcDbEntity
8
1
62
256
6
ByLayer
370
-1
48
1
60
0
100
AcDbEllipse
10
5.976465
20
0
30
0
11
-0.0404243149759448
21
-9.99999997971385
31
0
210
0
220
0
230
1
40
0.015757
41
0.842194582403172
42
2.82311247145034
0
ELLIPSE
5
276
100
AcDbEntity
8
1
62
256
6
ByLayer
370
-1
48
1
60
0
100
AcDbEllipse
10
133.022814
20
7E-06
30
0
11
-314.274909165561
21
2.74659337122793
31
0
210
0
220
0
230
1
40
0.032579
41
-1.18406456325134
42
-1.17059135482077
0
ELLIPSE
5
277
100
AcDbEntity
8
1
62
256
6
ByLayer
370
-1
48
1
60
0
100
AcDbEllipse
10
36.671996
20
-4.596194
30
0
11
-88.9392891540832
21
0.777282169060652
31
0
210
0
220
0
230
1
40
0.032579
41
-1.40825167904184
42
-1.23305215394458
0
ELLIPSE
5
278
100
AcDbEntity
8
1
62
256
6
ByLayer
370
-1
48
1
60
0
100
AcDbEllipse
10
9.445038
20
-4.596194
30
0
11
-1.57327488471536
21
-2.99721834446244
31
0
210
0
220
0
230
1
40
0.082096
41
-0.968337778305175
42
0.530872008544185
0
ELLIPSE
5
279
100
AcDbEntity
8
1
62
256
6
ByLayer
370
-1
48
1
60
0
100
AcDbEllipse
10
24.273551
20
-4.596194
30
0
11
-2.98379956440422
21
-2.98046707338508
31
0
210
0
220
0
230
1
40
0.114546
41
-1.7561867398696
42
-1.58915137555625
0
ELLIPSE
5
27A
100
AcDbEntity
8
1
62
256
6
ByLayer
370
-1
48
1
60
0
100
AcDbEllipse
10
11.356528
20
0
30
0
11
-5.24424961571056
21
-9.99072781486198
31
0
210
0
220
0
230
1
40
0.082096
41
-0.670469578351083
42
-0.132839265245118
0
ELLIPSE
5
27B
100
AcDbEntity
8
1
62
256
6
ByLayer
370
-1
48
1
60
0
100
AcDbEllipse
10
7.266379
20
-6.384255
30
0
11
-1.19545576301711
21
-2.1995229267259
31
0
210
0
220
0
230
1
40
0.045323
41
1.03136549939878
42
1.28376253715037
0
ELLIPSE
5
27C
100
AcDbEntity
8
1
62
256
6
ByLayer
370
-1
48
1
60
0
100
AcDbEllipse
10
8.484231
20
-4.596194
30
0
11
-1.57327488471555
21
-2.99721834446277
31
0
210
0
220
0
230
1
40
0.082096
41
-0.564727744713949
42
1.41319842648188
0
ELLIPSE
5
27D
100
AcDbEntity
8
1
62
256
6
ByLayer
370
-1
48
1
60
0
100
AcDbEllipse
10
-33.86176
20
4.596194
30
0
11
-88.939290899399
21
0.777282145286999
31
0
210
0
220
0
230
1
40
0.032579
41
-2.09661205085241
42
-2.05070089099204
0
ELLIPSE
5
27E
100
AcDbEntity
8
1
62
256
6
ByLayer
370
-1
48
1
60
0
100
AcDbEllipse
10
13.905297
20
6.353628
30
0
11
-0.829504793136525
21
0.492477579213332
31
0
210
0
220
0
230
1
40
0.305211
41
-0.820957702252775
42
-0.00450811621337214
0
ELLIPSE
5
27F
100
AcDbEntity
8
1
62
256
6
ByLayer
370
-1
48
1
60
0
100
AcDbEllipse
10
23.831094
20
5.088807
30
0
11
-0.143834238271018
21
-0.0425642091550633
31
0
210
0
220
0
230
1
40
0.239817
41
-1.85125430936079
42
-1.67672138416136
0
ELLIPSE
5
280
100
AcDbEntity
8
1
62
256
6
ByLayer
370
-1
48
1
60
0
100
AcDbEllipse
10
13.769498
20
6.209115
30
0
11
-0.0274746039317452
21
-0.32885429317373
31
0
210
0
220
0
230
1
40
0.244295
41
-1.16693775660925
42
-0.817871906210374
0
ELLIPSE
5
281
100
AcDbEntity
8
1
62
256
6
ByLayer
370
-1
48
1
60
0
100
AcDbEllipse
10
22.939462
20
-0.165725
30
0
11
0.0213831913664018
21
-0.329306482060387
31
0
210
0
220
0
230
1
40
0.180834
41
0.822806078782357
42
1.17187192918119
0
ELLIPSE
5
282
100
AcDbEntity
8
1
62
256
6
ByLayer
370
-1
48
1
60
0
100
AcDbEllipse
10
14.213389
20
7.87134
30
0
11
-0.33707737375198
21
-0.199105137783542
31
0
210
0
220
0
230
1
40
0.169944
41
1.3888251754435
42
2.3794305014276
0
ELLIPSE
5
283
100
AcDbEntity
8
1
62
256
6
ByLayer
370
-1
48
1
60
0
100
AcDbEllipse
10
24.988916
20
10.107563
30
0
11
-0.00294868067883753
21
-0.337775052031779
31
0
210
0
220
0
230
1
40
0.030848
41
-1.57066165066096
42
-1.29501789193457
0
ELLIPSE
5
284
100
AcDbEntity
8
1
62
256
6
ByLayer
370
-1
48
1
60
0
100
AcDbEllipse
10
20.215451
20
5.8428
30
0
11
1.79235814593585
21
-0.165687285865346
31
0
210
0
220
0
230
1
40
0.965649
41
0
42
6.28318530717959
0
ELLIPSE
5
285
100
AcDbEntity
8
1
62
256
6
ByLayer
370
-1
48
1
60
0
100
AcDbEllipse
10
20.207874
20
5.760831
30
0
11
2.71343108204176
21
-0.250832141101703
31
0
210
0
220
0
230
1
40
0.965649
41
0
42
6.28318530717959
0
POINT
5
41
100
AcDbEntity
8
80
62
256
6
ByLayer
370
-1
48
1
60
0
100
AcDbPoint
10
0
20
0
30
0
39
0
210
0
220
0
230
1
50
360
0
POINT
5
43
100
AcDbEntity
8
81
62
256
6
ByLayer
370
-1
48
1
60
0
100
AcDbPoint
10
25
20
13.875
30
0
39
0
210
0
220
0
230
1
50
360
0
POINT
5
45
100
AcDbEntity
8
2
62
256
6
ByLayer
370
-1
48
1
60
0
100
AcDbPoint
10
25
20
13.875
30
0
39
0
210
0
220
0
230
1
50
360
0
POINT
5
47
100
AcDbEntity
8
1
62
256
6
ByLayer
370
-1
48
1
60
0
100
AcDbPoint
10
25.011685
20
13.911184
30
0
39
0
210
0
220
0
230
1
50
360
0
POINT
5
49
100
AcDbEntity
8
1
62
256
6
ByLayer
370
-1
48
1
60
0
100
AcDbPoint
10
25.011685
20
13.911184
30
0
39
0
210
0
220
0
230
1
50
360
0
POINT
5
4A
100
AcDbEntity
8
1
62
256
6
ByLayer
370
-1
48
1
60
0
100
AcDbPoint
10
24.000569
20
12.58083
30
0
39
0
210
0
220
0
230
1
50
360
0
SPLINE
5
286
100
AcDbEntity
8
1
62
256
6
ByLayer
370
-1
48
1
60
0
100
AcDbSpline
70
4
71
3
72
14
73
10
40
0
40
0
40
0
40
0
40
0.22860568051164
40
0.22860568051164
40
0.507871301034313
40
0.507871301034313
40
0.801305090060455
40
0.801305090060455
40
1
40
1
40
1
40
1
41
1
10
6.13163505578055
20
1.60291416446667
30
0
41
1
10
6.16791315941262
20
1.59587000466021
30
0
41
1
10
6.21860179059411
20
1.5947633177498
30
0
41
1
10
6.35635624030098
20
1.60167265986834
30
0
41
1
10
6.45094145178325
20
1.61174351654624
30
0
41
1
10
6.67021191302504
20
1.63486362441515
30
0
41
1
10
6.79978339605864
20
1.64818770758389
30
0
41
1
10
7.02903183136661
20
1.66279981882148
30
0
41
1
10
7.12687532088515
20
1.6666552910132
30
0
41
1
10
7.2244143878693
20
1.66745905464946
30
0
0
SPLINE
5
287
100
AcDbEntity
8
1
62
256
6
ByLayer
370
-1
48
1
60
0
100
AcDbSpline
70
4
71
3
72
14
73
10
40
0
40
0
40
0
40
0
40
0.246228848858855
40
0.246228848858855
40
0.491241946410028
40
0.491241946410028
40
0.75394983514738
40
0.75394983514738
40
1
40
1
40
1
40
1
41
1
10
7.22348615125352
20
6.80757257076672
30
0
41
1
10
7.0966807704956
20
6.81083151027586
30
0
41
1
10
6.96906310048655
20
6.83018647292893
30
0
41
1
10
6.73433403630526
20
6.89282308597519
30
0
41
1
10
6.62389986897892
20
6.93650279593773
30
0
41
1
10
6.42325049631074
20
7.03844805317173
30
0
41
1
10
6.33221268433411
20
7.09877589464769
30
0
41
1
10
6.19268610852151
20
7.2142252067605
30
0
41
1
10
6.14018080765817
20
7.27079757873277
30
0
41
1
10
6.10685954312569
20
7.32203417836114
30
0
0
SPLINE
5
288
100
AcDbEntity
8
1
62
256
6
ByLayer
370
-1
48
1
60
0
100
AcDbSpline
70
4
71
3
72
16
73
12
40
0
40
0
40
0
40
0
40
0.235106974890363
40
0.235106974890363
40
0.484078505531619
40
0.484078505531619
40
0.734647291832033
40
0.734647291832033
40
0.963152133691291
40
0.963152133691291
40
1
40
1
40
1
40
1
41
1
10
6.07116953086825
20
-6.13858265989208
30
0
41
1
10
6.07980095861478
20
-6.25306368173173
30
0
41
1
10
6.10049511278501
20
-6.3626275924445
30
0
41
1
10
6.17674161627457
20
-6.56875839931801
30
0
41
1
10
6.23570905215578
20
-6.66635564969441
30
0
41
1
10
6.39343047035743
20
-6.83032746020969
30
0
41
1
10
6.49490277471824
20
-6.89887186993184
30
0
41
1
10
6.71636563922709
20
-6.99645854525133
30
0
41
1
10
6.83692583372183
20
-7.03002409534471
30
0
41
1
10
6.98229234518709
20
-7.05339063202666
30
0
41
1
10
7.00285843854417
20
-7.05632752448116
30
0
41
1
10
7.02354412990141
20
-7.05892295764271
30
0
0
SPLINE
5
289
100
AcDbEntity
8
1
62
256
6
ByLayer
370
-1
48
1
60
0
100
AcDbSpline
70
4
71
3
72
16
73
12
40
0
40
0
40
0
40
0
40
0.24240089129335
40
0.24240089129335
40
0.484813534079627
40
0.484813534079627
40
0.72700375021523
40
0.72700375021523
40
0.976870900735698
40
0.976870900735698
40
1
40
1
40
1
40
1
41
1
10
7.22500531042127
20
-1.60477664971353
30
0
41
1
10
7.09848757058975
20
-1.60511850622876
30
0
41
1
10
6.97100009593595
20
-1.606919919588
30
0
41
1
10
6.73521874260618
20
-1.61625816705013
30
0
41
1
10
6.62373278537316
20
-1.62406830281323
30
0
41
1
10
6.43151895093632
20
-1.65139243935161
30
0
41
1
10
6.34829743322979
20
-1.67145272709128
30
0
41
1
10
6.21493834932093
20
-1.72873139128787
30
0
41
1
10
6.16419320047569
20
-1.76723382912402
30
0
41
1
10
6.12667067185276
20
-1.81880681929556
30
0
41
1
10
6.12364110310489
20
-1.82323336439431
30
0
41
1
10
6.12073968728504
20
-1.82774034335637
30
0
0
SPLINE
5
28A
100
AcDbEntity
8
SK1
62
256
6
ByLayer
370
-1
48
1
60
0
100
AcDbSpline
70
4
71
3
72
8
73
4
40
0
40
0
40
0
40
0
40
1
40
1
40
1
40
1
41
1
10
-0.220132959512711
20
-5.78093397590081
30
0
41
1
10
-0.226214475615024
20
-5.80094971436418
30
0
41
1
10
-0.232426512113648
20
-5.82089386766663
30
0
41
1
10
-0.238765877365267
20
-5.84076208671027
30
0
0
SPLINE
5
28B
100
AcDbEntity
8
SK1
62
256
6
ByLayer
370
-1
48
1
60
0
100
AcDbSpline
70
4
71
3
72
14
73
10
40
0
40
0
40
0
40
0
40
0.283492499998285
40
0.283492499998285
40
0.663642774473266
40
0.663642774473266
40
0.95761426704399
40
0.95761426704399
40
1
40
1
40
1
40
1
41
1
10
-0.261839128619016
20
7.00837853020303
30
0
41
1
10
-0.267525158376998
20
7.01680619514255
30
0
41
1
10
-0.272803078412437
20
7.02503701918099
30
0
41
1
10
-0.283941509885466
20
7.0435770517943
30
0
41
1
10
-0.289448586756691
20
7.05377444724692
30
0
41
1
10
-0.296227962689386
20
7.06939664781103
30
0
41
1
10
-0.298214163311656
20
7.07549899099166
30
0
41
1
10
-0.298732109292956
20
7.0807638216436
30
0
41
1
10
-0.29876587736527
20
7.08140337619527
30
0
41
1
10
-0.29876587736527
20
7.08200940189492
30
0
0
SPLINE
5
28C
100
AcDbEntity
8
1
62
256
6
ByLayer
370
-1
48
1
60
0
100
AcDbSpline
70
4
71
3
72
8
73
4
40
0
40
0
40
0
40
0
40
1
40
1
40
1
40
1
41
1
10
10.3252244149556
20
10.2102757877863
30
0
41
1
10
10.3511630554071
20
10.2341718974666
30
0
41
1
10
10.3749803042811
20
10.2582228945677
30
0
41
1
10
10.397162752862
20
10.28234361228
30
0
0
SPLINE
5
28D
100
AcDbEntity
8
SK1
62
256
6
ByLayer
370
-1
48
1
60
0
100
AcDbSpline
70
4
71
3
72
8
73
4
40
0
40
0
40
0
40
0
40
1
40
1
40
1
40
1
41
1
10
-0.238765877365267
20
5.84076208671027
30
0
41
1
10
-0.232428368510853
20
5.82089968580536
30
0
41
1
10
-0.226218637203573
20
5.80096038930461
30
0
41
1
10
-0.220139793550686
20
5.78094861053053
30
0
0
SPLINE
5
28E
100
AcDbEntity
8
SK1
62
256
6
ByLayer
370
-1
48
1
60
0
100
AcDbSpline
70
4
71
3
72
8
73
4
40
0
40
0
40
0
40
0
40
1
40
1
40
1
40
1
41
1
10
-0.238765877365267
20
6.4298870533332
30
0
41
1
10
-0.182536160386121
20
6.31810823694302
30
0
41
1
10
-0.129801927239043
20
6.20484635822952
30
0
41
1
10
-0.081270776114593
20
6.08980119774755
30
0
0
SPLINE
5
28F
100
AcDbEntity
8
SK1
62
256
6
ByLayer
370
-1
48
1
60
0
100
AcDbSpline
70
4
71
3
72
8
73
4
40
0
40
0
40
0
40
0
40
1
40
1
40
1
40
1
41
1
10
-0.0813849518348491
20
-6.09007655988752
30
0
41
1
10
-0.12994670841789
20
-6.20517770626584
30
0
41
1
10
-0.182649680103111
20
-6.31833390230796
30
0
41
1
10
-0.238765877365267
20
-6.42988705333319
30
0
0
SPLINE
5
290
100
AcDbEntity
8
SK1
62
256
6
ByLayer
370
-1
48
1
60
0
100
AcDbSpline
70
4
71
3
72
12
73
8
40
0
40
0
40
0
40
0
40
0.217978451290598
40
0.217978451290598
40
0.609348705281735
40
0.609348705281735
40
1
40
1
40
1
40
1
41
1
10
-0.298765877366094
20
-7.08200940189514
30
0
41
1
10
-0.298765877365952
20
-7.0789356703408
30
0
41
1
10
-0.297887441356153
20
-7.07497679777445
30
0
41
1
10
-0.293621579770786
20
-7.06243370590981
30
0
41
1
10
-0.288761918218313
20
-7.05250314449756
30
0
41
1
10
-0.276887158542024
20
-7.03146451400991
30
0
41
1
10
-0.269771662262968
20
-7.02013958111674
30
0
41
1
10
-0.26190919441143
20
-7.00848463496548
30
0
0
SPLINE
5
291
100
AcDbEntity
8
SK1
62
256
6
ByLayer
370
-1
48
1
60
0
100
AcDbSpline
70
4
71
3
72
8
73
4
40
0
40
0
40
0
40
0
40
1
40
1
40
1
40
1
41
1
10
0
20
8.31956812200946
30
0
41
1
10
-0.0803448669348086
20
8.2012120252644
30
0
41
1
10
-0.159956775239181
20
8.08218682456659
30
0
41
1
10
-0.238765877365267
20
7.96246187705553
30
0
0
SPLINE
5
292
100
AcDbEntity
8
SK1
62
256
6
ByLayer
370
-1
48
1
60
0
100
AcDbSpline
70
4
71
3
72
14
73
10
40
0
40
0
40
0
40
0
40
0.174801596463547
40
0.174801596463547
40
0.491348170782947
40
0.491348170782947
40
0.956689897429324
40
0.956689897429324
40
1
40
1
40
1
40
1
41
1
10
-0.298765877366947
20
8.48729043713946
30
0
41
1
10
-0.298765877366691
20
8.49117362417837
30
0
41
1
10
-0.29775415975277
20
8.49599226493861
30
0
41
1
10
-0.292860434362467
20
8.51096613802855
30
0
41
1
10
-0.287277803653808
20
8.52249834773458
30
0
41
1
10
-0.270389497464095
20
8.55224735129023
30
0
41
1
10
-0.25732231407801
20
8.57167070367349
30
0
41
1
10
-0.241526823609945
20
8.59293957387196
30
0
41
1
10
-0.240153136964437
20
8.59477294947301
30
0
41
1
10
-0.238765877365267
20
8.59660851746129
30
0
0
SPLINE
5
293
100
AcDbEntity
8
SK1
62
256
6
ByLayer
370
-1
48
1
60
0
100
AcDbSpline
70
4
71
3
72
16
73
12
40
0
40
0
40
0
40
0
40
0.264755750877586
40
0.264755750877586
40
0.512699483843804
40
0.512699483843804
40
0.763673918710425
40
0.763673918710425
40
0.975762286159949
40
0.975762286159949
40
1
40
1
40
1
40
1
41
1
10
-0.238765877365211
20
-8.91801952773797
30
0
41
1
10
-0.246960184721814
20
-8.91088351351281
30
0
41
1
10
-0.255043915911273
20
-8.90423371932359
30
0
41
1
10
-0.269521479385645
20
-8.89333669694038
30
0
41
1
10
-0.276126860600726
20
-8.88887406157039
30
0
41
1
10
-0.287179723791354
20
-8.88279752071375
30
0
41
1
10
-0.2917399449843
20
-8.88116463343987
30
0
41
1
10
-0.297118819666366
20
-8.88141837357422
30
0
41
1
10
-0.298479302868742
20
-8.88279708106218
30
0
41
1
10
-0.298751882303975
20
-8.88548750287059
30
0
41
1
10
-0.29876587736527
20
-8.88578034541639
30
0
41
1
10
-0.29876587736527
20
-8.8860863919202
30
0
0
SPLINE
5
294
100
AcDbEntity
8
SK1
62
256
6
ByLayer
370
-1
48
1
60
0
100
AcDbSpline
70
4
71
3
72
16
73
12
40
0
40
0
40
0
40
0
40
0.135196003763402
40
0.135196003763402
40
0.361224110243483
40
0.361224110243483
40
0.565737079423227
40
0.565737079423227
40
0.765265864981514
40
0.765265864981514
40
1
40
1
40
1
40
1
41
1
10
-0.298765877365327
20
-8.42456039474637
30
0
41
1
10
-0.298765877365327
20
-8.42206905786857
30
0
41
1
10
-0.298384728985326
20
-8.41990640776024
30
0
41
1
10
-0.29621764462118
20
-8.41534125166842
30
0
41
1
10
-0.29358064711829
20
-8.41370968344648
30
0
41
1
10
-0.286319695580517
20
-8.41357367749497
30
0
41
1
10
-0.281818531969037
20
-8.41478506031773
30
0
41
1
10
-0.271755112165493
20
-8.41929627535033
30
0
41
1
10
-0.266119811248871
20
-8.42257594210808
30
0
41
1
10
-0.253392867765683
20
-8.43114351866912
30
0
41
1
10
-0.246090518708968
20
-8.43675237226708
30
0
41
1
10
-0.238765877365125
20
-8.44286391907639
30
0
0
SPLINE
5
295
100
AcDbEntity
8
1
62
256
6
ByLayer
370
-1
48
1
60
0
100
AcDbSpline
70
4
71
3
72
12
73
8
40
0
40
0
40
0
40
0
40
0.288397152495785
40
0.288397152495785
40
0.747888205370374
40
0.747888205370374
40
1
40
1
40
1
40
1
41
1
10
19.1557142047965
20
6.34702227590213
30
0
41
1
10
19.1704321229654
20
6.39104224190372
30
0
41
1
10
19.1806028073663
20
6.43753156515533
30
0
41
1
10
19.1949944705408
20
6.55811958741488
30
0
41
1
10
19.1924357218832
20
6.63414688779638
30
0
41
1
10
19.1738022460008
20
6.74652337159483
30
0
41
1
10
19.1642579232665
20
6.78590527268076
30
0
41
1
10
19.1521395612727
20
6.82406290260846
30
0
0
SPLINE
5
296
100
AcDbEntity
8
1
62
256
6
ByLayer
370
-1
48
1
60
0
100
AcDbSpline
70
4
71
3
72
18
73
14
40
0
40
0
40
0
40
0
40
0.193074235867571
40
0.193074235867571
40
0.37070300232634
40
0.37070300232634
40
0.550239146903973
40
0.550239146903973
40
0.704018777510535
40
0.704018777510535
40
0.903544112173346
40
0.903544112173346
40
1
40
1
40
1
40
1
41
1
10
21.0898023822237
20
6.96992749992434
30
0
41
1
10
21.0777540216718
20
6.90000998140714
30
0
41
1
10
21.0744799334402
20
6.8271621751083
30
0
41
1
10
21.08803997588
20
6.68919337919286
30
0
41
1
10
21.103622856748
20
6.62236743082622
30
0
41
1
10
21.1538288723644
20
6.49804389241524
30
0
41
1
10
21.1896363184454
20
6.43891470919269
30
0
41
1
10
21.2694606206962
20
6.34769557046987
30
0
41
1
10
21.31245739095
20
6.31176711344391
30
0
41
1
10
21.4168310822113
20
6.24755386300843
30
0
41
1
10
21.4815029637505
20
6.22334977412587
30
0
41
1
10
21.5787296244213
20
6.20396181612493
30
0
41
1
10
21.6110978712814
20
6.20015502156933
30
0
41
1
10
21.6435272943044
20
6.19875120433854
30
0
0
SPLINE
5
297
100
AcDbEntity
8
1
62
256
6
ByLayer
370
-1
48
1
60
0
100
AcDbSpline
70
4
71
3
72
8
73
4
40
0
40
0
40
0
40
0
40
1
40
1
40
1
40
1
41
1
10
-5.68E-14
20
7.93506230200856
30
0
41
1
10
0.115421323614868
20
8.02934864743166
30
0
41
1
10
0.230843304610431
20
8.12363391987898
30
0
41
1
10
0.346265877365255
20
8.21791822641056
30
0
0
SPLINE
5
298
100
AcDbEntity
8
SK1
62
256
6
ByLayer
370
-1
48
1
60
0
100
AcDbSpline
70
4
71
3
72
8
73
4
40
0
40
0
40
0
40
0
40
1
40
1
40
1
40
1
41
1
10
0
20
-4.47174057127154
30
0
41
1
10
-0.0865616324753944
20
-4.19259356227896
30
0
41
1
10
-0.16643175209191
20
-3.91053434249547
30
0
41
1
10
-0.23876587736558
20
-3.62603951533728
30
0
0
SPLINE
5
299
100
AcDbEntity
8
1
62
256
6
ByLayer
370
-1
48
1
60
0
100
AcDbSpline
70
4
71
3
72
8
73
4
40
0
40
0
40
0
40
0
40
1
40
1
40
1
40
1
41
1
10
-7.105E-13
20
-3.00981124603523
30
0
41
1
10
0.112090786510606
20
-3.17058398901833
30
0
41
1
10
0.227861665413172
20
-3.32798666638269
30
0
41
1
10
0.346265877378357
20
-3.48260746349341
30
0
0
SPLINE
5
29A
100
AcDbEntity
8
1
62
256
6
ByLayer
370
-1
48
1
60
0
100
AcDbSpline
70
4
71
3
72
8
73
4
40
0
40
0
40
0
40
0
40
1
40
1
40
1
40
1
41
1
10
0
20
4.47174057127154
30
0
41
1
10
0.10582149797159
20
4.81299747460315
30
0
41
1
10
0.221746548789582
20
5.15024953921953
30
0
41
1
10
0.34626587736517
20
5.48298633569715
30
0
0
SPLINE
5
29B
100
AcDbEntity
8
SK1
62
256
6
ByLayer
370
-1
48
1
60
0
100
AcDbSpline
70
4
71
3
72
8
73
4
40
0
40
0
40
0
40
0
40
1
40
1
40
1
40
1
41
1
10
-7.105E-13
20
3.00981124603525
30
0
41
1
10
-0.0817074584294346
20
2.89261756203487
30
0
41
1
10
-0.161489137001951
20
2.77357994534344
30
0
41
1
10
-0.238765877365296
20
2.65244539844681
30
0
0
SPLINE
5
29C
100
AcDbEntity
8
SK1
62
256
6
ByLayer
370
-1
48
1
60
0
100
AcDbSpline
70
4
71
3
72
8
73
4
40
0
40
0
40
0
40
0
40
1
40
1
40
1
40
1
41
1
10
0
20
-9.12566237249418
30
0
41
1
10
-0.0796274640853198
20
-9.05650767730756
30
0
41
1
10
-0.159216989515528
20
-8.98729469287241
30
0
41
1
10
-0.238765877365211
20
-8.91801952773797
30
0
0
SPLINE
5
29D
100
AcDbEntity
8
1
62
256
6
ByLayer
370
-1
48
1
60
0
100
AcDbSpline
70
4
71
3
72
8
73
4
40
0
40
0
40
0
40
0
40
1
40
1
40
1
40
1
41
1
10
0
20
7.47890123860155
30
0
41
1
10
0.113114188983815
20
7.67517488903941
30
0
41
1
10
0.228638070256039
20
7.86961954854873
30
0
41
1
10
0.346265877365255
20
8.06232321790073
30
0
0
SPLINE
5
29E
100
AcDbEntity
8
1
62
256
6
ByLayer
370
-1
48
1
60
0
100
AcDbSpline
70
4
71
3
72
8
73
4
40
0
40
0
40
0
40
0
40
1
40
1
40
1
40
1
41
1
10
0
20
-6.28710694491161
30
0
41
1
10
0.111283755722639
20
-6.52958244299808
30
0
41
1
10
0.226903980166355
20
-6.7694561733003
30
0
41
1
10
0.346265877365255
20
-7.00675370008618
30
0
0
SPLINE
5
29F
100
AcDbEntity
8
1
62
256
6
ByLayer
370
-1
48
1
60
0
100
AcDbSpline
70
4
71
3
72
8
73
4
40
0
40
0
40
0
40
0
40
1
40
1
40
1
40
1
41
1
10
0
20
-9.29530600554689
30
0
41
1
10
0.114811070065287
20
-9.42885285601457
30
0
41
1
10
0.230255110667741
20
-9.56167740753047
30
0
41
1
10
0.346265877365283
20
-9.69383466119528
30
0
0
SPLINE
5
2A0
100
AcDbEntity
8
SK1
62
256
6
ByLayer
370
-1
48
1
60
0
100
AcDbSpline
70
4
71
3
72
8
73
4
40
0
40
0
40
0
40
0
40
1
40
1
40
1
40
1
41
1
10
0
20
-7.47890123860155
30
0
41
1
10
-0.0808531342800336
20
-7.33860637411948
30
0
41
1
10
-0.16048398755774
20
-7.197360252813
30
0
41
1
10
-0.238765877365267
20
-7.0551343208076
30
0
0
SPLINE
5
2A1
100
AcDbEntity
8
SK1
62
256
6
ByLayer
370
-1
48
1
60
0
100
AcDbSpline
70
4
71
3
72
8
73
4
40
0
40
0
40
0
40
0
40
1
40
1
40
1
40
1
41
1
10
0
20
9.29530600554689
30
0
41
1
10
-0.0799024031312001
20
9.20236449496866
30
0
41
1
10
-0.159499442168965
20
9.10907142803693
30
0
41
1
10
-0.238765877365267
20
9.0154066387165
30
0
0
SPLINE
5
2A2
100
AcDbEntity
8
SK1
62
256
6
ByLayer
370
-1
48
1
60
0
100
AcDbSpline
70
4
71
3
72
8
73
4
40
0
40
0
40
0
40
0
40
1
40
1
40
1
40
1
41
1
10
0
20
8.64198841336622
30
0
41
1
10
-0.0796016624640004
20
8.5756344295786
30
0
41
1
10
-0.159190595538178
20
8.50926007923205
30
0
41
1
10
-0.238765877365125
20
8.4428639190764
30
0
0
SPLINE
5
2A3
100
AcDbEntity
8
1
62
256
6
ByLayer
370
-1
48
1
60
0
100
AcDbSpline
70
4
71
3
72
10
73
6
40
0
40
0
40
0
40
0
40
0.709495622816769
40
0.709495622816769
40
1
40
1
40
1
40
1
41
1
10
25.0035659227192
20
2.61962041822486
30
0
41
1
10
25.0011145026336
20
2.59507309705158
30
0
41
1
10
24.9944169761341
20
2.56948704788773
30
0
41
1
10
24.9804458782154
20
2.53612195633755
30
0
41
1
10
24.9757719483377
20
2.52654459278186
30
0
41
1
10
24.970586878864
20
2.5172911130659
30
0
0
SPLINE
5
2A4
100
AcDbEntity
8
1
62
256
6
ByLayer
370
-1
48
1
60
0
100
AcDbSpline
70
4
71
3
72
24
73
20
40
0
40
0
40
0
40
0
40
0.0154450745970666
40
0.0154450745970666
40
0.0417985895668799
40
0.0417985895668799
40
0.048397259787726
40
0.048397259787726
40
0.102103855500583
40
0.102103855500583
40
0.185330321122071
40
0.185330321122071
40
0.354377449491641
40
0.354377449491641
40
0.535348727399448
40
0.535348727399448
40
0.666091500997336
40
0.666091500997336
40
1
40
1
40
1
40
1
41
1
10
23.6880365239124
20
5.71854806547199
30
0
41
1
10
23.6870776901503
20
5.72159960097562
30
0
41
1
10
23.6865584734966
20
5.72479836439807
30
0
41
1
10
23.6863421032359
20
5.73331887261601
30
0
41
1
10
23.6874498048996
20
5.73871361100787
30
0
41
1
10
23.6897319312864
20
5.74499436034039
30
0
41
1
10
23.6902406413938
20
5.74624927610432
30
0
41
1
10
23.6951797755601
20
5.75739642108511
30
0
41
1
10
23.7019631807958
20
5.76626372348112
30
0
41
1
10
23.7207394457863
20
5.78685097983889
30
0
41
1
10
23.7339719464049
20
5.79782788275445
30
0
41
1
10
23.7754320405133
20
5.82875845435107
30
0
41
1
10
23.8055710438703
20
5.84655074688862
30
0
41
1
10
23.8690191835406
20
5.88104754744352
30
0
41
1
10
23.9026943699397
20
5.8974814254484
30
0
41
1
10
23.9613285807016
20
5.92444880033403
30
0
41
1
10
23.9861438034398
20
5.93534109021853
30
0
41
1
10
24.074825988319
20
5.97294160316187
30
0
41
1
10
24.13948606298
20
5.99800458837544
30
0
41
1
10
24.20457615692
20
6.02194727951982
30
0
0
SPLINE
5
2A5
100
AcDbEntity
8
1
62
256
6
ByLayer
370
-1
48
1
60
0
100
AcDbSpline
70
4
71
3
72
18
73
14
40
0
40
0
40
0
40
0
40
0.439677344605707
40
0.439677344605707
40
0.819840138515275
40
0.819840138515275
40
0.920758376963033
40
0.920758376963033
40
0.968467673881576
40
0.968467673881576
40
0.990240013274127
40
0.990240013274127
40
1
40
1
40
1
40
1
41
1
10
24.4875889090045
20
5.07879745440958
30
0
41
1
10
24.3936187919258
20
5.071447015527
30
0
41
1
10
24.2993321876423
20
5.06601190364397
30
0
41
1
10
24.1234004328388
20
5.06438235695181
30
0
41
1
10
24.0407462917563
20
5.0650627647607
30
0
41
1
10
23.9390935314366
20
5.08512970960926
30
0
41
1
10
23.9175559370354
20
5.09052236618234
30
0
41
1
10
23.8884564338567
20
5.1041150871319
30
0
41
1
10
23.8792796642461
20
5.10950270555853
30
0
41
1
10
23.8686481724582
20
5.12000389991312
30
0
41
1
10
23.8656750779553
20
5.12378545028479
30
0
41
1
10
23.8625430405809
20
5.12978352599707
30
0
41
1
10
23.8617252984108
20
5.13173725878345
30
0
41
1
10
23.861097617335
20
5.13373488461129
30
0
0
SPLINE
5
2A6
100
AcDbEntity
8
1
62
256
6
ByLayer
370
-1
48
1
60
0
100
AcDbSpline
70
4
71
3
72
16
73
12
40
0
40
0
40
0
40
0
40
0.0426292751499101
40
0.0426292751499101
40
0.0996436166287518
40
0.0996436166287518
40
0.207156078099352
40
0.207156078099352
40
0.580806890299257
40
0.580806890299257
40
1
40
1
40
1
40
1
41
1
10
17.7091730813518
20
3.41425712978463
30
0
41
1
10
17.6995012649841
20
3.41667217765745
30
0
41
1
10
17.6892384303935
20
3.41725609594978
30
0
41
1
10
17.6660788768523
20
3.41505903467028
30
0
41
1
10
17.6530556094385
20
3.41118054906103
30
0
41
1
10
17.6180457121939
20
3.39629864317166
30
0
41
1
10
17.5973036634181
20
3.38200763393199
30
0
41
1
10
17.5124218902365
20
3.31302198183458
30
0
41
1
10
17.4608665816626
20
3.24412476388211
30
0
41
1
10
17.3593558763774
20
3.09715186520802
30
0
41
1
10
17.3112587309581
20
3.0155882449005
30
0
41
1
10
17.26594695737
20
2.93281626871146
30
0
0
SPLINE
5
2A7
100
AcDbEntity
8
1
62
256
6
ByLayer
370
-1
48
1
60
0
100
AcDbSpline
70
4
71
3
72
20
73
16
40
0
40
0
40
0
40
0
40
0.511365204366875
40
0.511365204366875
40
0.617167309555274
40
0.617167309555274
40
0.785488434327014
40
0.785488434327014
40
0.873398812153805
40
0.873398812153805
40
0.935684402254193
40
0.935684402254193
40
0.978722765374123
40
0.978722765374123
40
1
40
1
40
1
40
1
41
1
10
18.4339092105871
20
2.63847968991188
30
0
41
1
10
18.44215804969
20
2.75068037207193
30
0
41
1
10
18.4464237017812
20
2.86374670209611
30
0
41
1
10
18.4363437881281
20
2.99940033902287
30
0
41
1
10
18.4340054628799
20
3.02269357828037
30
0
41
1
10
18.425689324242
20
3.08265946889067
30
0
41
1
10
18.4185677248253
20
3.11948092082089
30
0
41
1
10
18.4004227985258
20
3.17329844346867
30
0
41
1
10
18.3928003727882
20
3.19153781926968
30
0
41
1
10
18.3755386186722
20
3.22026699887537
30
0
41
1
10
18.3669779703934
20
3.23164948347203
30
0
41
1
10
18.3494132082816
20
3.24761096382319
30
0
41
1
10
18.3411792488117
20
3.25328333011912
30
0
41
1
10
18.3277994876771
20
3.25932409063942
30
0
41
1
10
18.3231365624852
20
3.26095074526162
30
0
41
1
10
18.3183809256038
20
3.26213822549259
30
0
0
SPLINE
5
2A8
100
AcDbEntity
8
1
62
256
6
ByLayer
370
-1
48
1
60
0
100
AcDbSpline
70
4
71
3
72
12
73
8
40
0
40
0
40
0
40
0
40
0.347623173836857
40
0.347623173836857
40
0.696503371294858
40
0.696503371294858
40
1
40
1
40
1
40
1
41
1
10
24.5499071485165
20
1.73940080123369
30
0
41
1
10
24.5428015596064
20
1.72716271069785
30
0
41
1
10
24.5376225628729
20
1.71362471068564
30
0
41
1
10
24.5320155543581
20
1.6861799361656
30
0
41
1
10
24.5315412369111
20
1.67187435972024
30
0
41
1
10
24.5351548392352
20
1.64668524627758
30
0
41
1
10
24.5387053001365
20
1.6353081300674
30
0
41
1
10
24.5437527197048
20
1.62518848717238
30
0
0
SPLINE
5
2A9
100
AcDbEntity
8
1
62
256
6
ByLayer
370
-1
48
1
60
0
100
AcDbSpline
70
4
71
3
72
18
73
14
40
0
40
0
40
0
40
0
40
0.439677344605707
40
0.439677344605707
40
0.819840138515274
40
0.819840138515274
40
0.920758376963031
40
0.920758376963031
40
0.968467673881575
40
0.968467673881575
40
0.990240013274125
40
0.990240013274125
40
1
40
1
40
1
40
1
41
1
10
18.8920648574207
20
9.96924630114849
30
0
41
1
10
18.9478920300526
20
9.89613018786925
30
0
41
1
10
19.0021572514862
20
9.82179835918453
30
0
41
1
10
19.0957442429196
20
9.67885996733092
30
0
41
1
10
19.1384080056415
20
9.61098398620659
30
0
41
1
10
19.1735675708878
20
9.51794124727694
30
0
41
1
10
19.1799898868529
20
9.49766039280679
30
0
41
1
10
19.1829904060973
20
9.46712260911951
30
0
41
1
10
19.1829455951091
20
9.4569447325829
30
0
41
1
10
19.1790596427609
20
9.44303518860828
30
0
41
1
10
19.1772124386649
20
9.43872522324175
30
0
41
1
10
19.1734533160151
20
9.43318308603936
30
0
41
1
10
19.17212287378
20
9.43154328629645
30
0
41
1
10
19.1706534093519
20
9.4300369583347
30
0
0
SPLINE
5
2AA
100
AcDbEntity
8
1
62
256
6
ByLayer
370
-1
48
1
60
0
100
AcDbSpline
70
4
71
3
72
14
73
10
40
0
40
0
40
0
40
0
40
0.249606055014988
40
0.249606055014988
40
0.499158243446869
40
0.499158243446869
40
0.746144217743595
40
0.746144217743595
40
1
40
1
40
1
40
1
41
1
10
24.9976374470035
20
5.34555821616196
30
0
41
1
10
24.9976670977015
20
5.32830573716548
30
0
41
1
10
24.9977490918392
20
5.3114674324914
30
0
41
1
10
24.9980121230749
20
5.27930784322341
30
0
41
1
10
24.9981940370749
20
5.26387426859992
30
0
41
1
10
24.9986476750532
20
5.23505361723072
30
0
41
1
10
24.9989199561898
20
5.22155134891869
30
0
41
1
10
24.9995553877217
20
5.19639633104266
30
0
41
1
10
24.9999230666552
20
5.18471783690208
30
0
41
1
10
25.0003289888339
20
5.17435971196873
30
0
0
SPLINE
5
2AB
100
AcDbEntity
8
1
62
256
6
ByLayer
370
-1
48
1
60
0
100
AcDbSpline
70
4
71
3
72
12
73
8
40
0
40
0
40
0
40
0
40
0.474376698371053
40
0.474376698371053
40
0.706219783413745
40
0.706219783413745
40
1
40
1
40
1
40
1
41
1
10
17.6139802378709
20
9.80827608262673
30
0
41
1
10
17.6361357485638
20
9.81559116425711
30
0
41
1
10
17.6618881732663
20
9.82595410514938
30
0
41
1
10
17.7022893137059
20
9.84448790391909
30
0
41
1
10
17.7160967591471
20
9.85116783560562
30
0
41
1
10
17.7477492741589
20
9.86721851250429
30
0
41
1
10
17.7658537340909
20
9.87691516415703
30
0
41
1
10
17.7838505691344
20
9.88704242368603
30
0
0
SPLINE
5
2AC
100
AcDbEntity
8
1
62
256
6
ByLayer
370
-1
48
1
60
0
100
AcDbSpline
70
4
71
2
72
6
73
3
40
0
40
0
40
0
40
1
40
1
40
1
41
0.500001284172858
10
24.5437527197048
20
1.62518848717239
30
0
41
0.499998715827142
10
24.5441722384597
20
1.62434738808593
30
0
41
0.500001284172858
10
24.5445913581957
20
1.62350930645326
30
0
0
SPLINE
5
2AD
100
AcDbEntity
8
1
62
256
6
ByLayer
370
-1
48
1
60
0
100
AcDbSpline
70
4
71
3
72
16
73
12
40
0
40
0
40
0
40
0
40
0.0426292751499102
40
0.0426292751499102
40
0.0996436166287494
40
0.0996436166287494
40
0.20715607809935
40
0.20715607809935
40
0.58080689029926
40
0.58080689029926
40
1
40
1
40
1
40
1
41
1
10
23.8361504712794
20
5.12760786973314
30
0
41
1
10
23.8388979984686
20
5.11832334434814
30
0
41
1
10
23.8435864709012
20
5.109445341225
30
0
41
1
10
23.85731613246
20
5.09114074074331
30
0
41
1
10
23.8674050234736
20
5.08214838210283
30
0
41
1
10
23.8985190162437
20
5.06016751978164
30
0
41
1
10
23.9218579875513
20
5.04983888178779
30
0
41
1
10
24.0267785771221
20
5.01274087860061
30
0
41
1
10
24.1146959843935
20
5.00349561212718
30
0
41
1
10
24.2979428342856
20
4.99086173181223
30
0
41
1
10
24.3954540380585
20
4.99074527068322
30
0
41
1
10
24.4926335328826
20
4.99355505904315
30
0
0
SPLINE
5
2AE
100
AcDbEntity
8
1
62
256
6
ByLayer
370
-1
48
1
60
0
100
AcDbSpline
70
4
71
3
72
20
73
16
40
0
40
0
40
0
40
0
40
0.511365204367433
40
0.511365204367433
40
0.617167309555448
40
0.617167309555448
40
0.785488434327109
40
0.785488434327109
40
0.873398812153862
40
0.873398812153862
40
0.935684402254221
40
0.935684402254221
40
0.978722765374132
40
0.978722765374132
40
1
40
1
40
1
40
1
41
1
10
18.1376101334355
20
9.20029517615563
30
0
41
1
10
18.234089443639
20
9.13641233240401
30
0
41
1
10
18.3333048650609
20
9.07542406080415
30
0
41
1
10
18.459820561007
20
9.01497354337019
30
0
41
1
10
18.4818437077331
20
9.00510202409203
30
0
41
1
10
18.5396701085469
20
8.98161108586173
30
0
41
1
10
18.5761696431239
20
8.9688735205054
30
0
41
1
10
18.6333242062473
20
8.95673215227377
30
0
41
1
10
18.6534194721196
20
8.95385021120796
30
0
41
1
10
18.6876585504247
20
8.95371000785964
30
0
41
1
10
18.7020713619154
20
8.95509550155644
30
0
41
1
10
18.7250188744538
20
8.96169266331952
30
0
41
1
10
18.7341542551167
20
8.96570442718885
30
0
41
1
10
18.7461523873808
20
8.9738364585812
30
0
41
1
10
18.7499049623877
20
8.97691355600446
30
0
41
1
10
18.7533096387941
20
8.9802912814875
30
0
0
SPLINE
5
2AF
100
AcDbEntity
8
1
62
256
6
ByLayer
370
-1
48
1
60
0
100
AcDbSpline
70
4
71
3
72
24
73
20
40
0
40
0
40
0
40
0
40
0.015445074597045
40
0.015445074597045
40
0.0417985895668259
40
0.0417985895668259
40
0.0483972597876628
40
0.0483972597876628
40
0.102103855500444
40
0.102103855500444
40
0.185330321121814
40
0.185330321121814
40
0.354377449491148
40
0.354377449491148
40
0.535348727398701
40
0.535348727398701
40
0.666091501001305
40
0.666091501001305
40
1
40
1
40
1
40
1
41
1
10
18.3120062894039
20
3.23719139678914
30
0
41
1
10
18.3152108272866
20
3.236448403701
30
0
41
1
10
18.3183357547567
20
3.23525152021303
30
0
41
1
10
18.3260972020187
20
3.23105959211281
30
0
41
1
10
18.330411342745
20
3.22733453459982
30
0
41
1
10
18.3349556102458
20
3.22214368677203
30
0
41
1
10
18.3358381519903
20
3.22106116270936
30
0
41
1
10
18.343474950497
20
3.21108362029413
30
0
41
1
10
18.3481739618903
20
3.20069054535874
30
0
41
1
10
18.3576246667997
20
3.17395571254293
30
0
41
1
10
18.3611111524731
20
3.15692889225178
30
0
41
1
10
18.3689240348857
20
3.10535835800565
30
0
41
1
10
18.370387226227
20
3.07027935955669
30
0
41
1
10
18.3708092853197
20
2.99794948902134
30
0
41
1
10
18.3693485910036
20
2.96052249467866
30
0
41
1
10
18.3653263112902
20
2.89619969793793
30
0
41
1
10
18.3631561983478
20
2.86924391940617
30
0
41
1
10
18.3542108303052
20
2.77359079629289
30
0
41
1
10
18.3455763157346
20
2.70505276544162
30
0
41
1
10
18.3357292508761
20
2.63671688861551
30
0
0
SPLINE
5
2B0
100
AcDbEntity
8
1
62
256
6
ByLayer
370
-1
48
1
60
0
100
AcDbSpline
70
4
71
3
72
12
73
8
40
0
40
0
40
0
40
0
40
0.474376698371047
40
0.474376698371047
40
0.706219783413744
40
0.706219783413744
40
1
40
1
40
1
40
1
41
1
10
24.9986179552388
20
6.16993732326463
30
0
41
1
10
24.9979365553562
20
6.13922315028506
30
0
41
1
10
24.9974056653974
20
6.10581769869057
30
0
41
1
10
24.9968922995543
20
6.05621845593015
30
0
41
1
10
24.9967653997962
20
6.03969416480207
30
0
41
1
10
24.9965780100802
20
6.00272331588418
30
0
41
1
10
24.9965432693868
20
5.98221359278597
30
0
41
1
10
24.9965772732755
20
5.96242817751413
30
0
0
SPLINE
5
2B1
100
AcDbEntity
8
1
62
256
6
ByLayer
370
-1
48
1
60
0
100
AcDbSpline
70
4
71
3
72
14
73
10
40
0
40
0
40
0
40
0
40
0.249606055014985
40
0.249606055014985
40
0.499158243446868
40
0.499158243446868
40
0.746144217743603
40
0.746144217743603
40
1
40
1
40
1
40
1
41
1
10
18.3449561504532
20
10.2027902666516
30
0
41
1
10
18.3606490239322
20
10.2116210306217
30
0
41
1
10
18.3763830042558
20
10.2208472571306
30
0
41
1
10
18.4072716345668
20
10.2396870664442
30
0
41
1
10
18.4225338099168
20
10.2493659559855
30
0
41
1
10
18.4519316683258
20
10.2687447808372
30
0
41
1
10
18.4661749585527
20
10.2785077900281
30
0
41
1
10
18.4937198954224
20
10.2981639311104
30
0
41
1
10
18.5070802757116
20
10.3081215836934
30
0
41
1
10
18.5195587055103
20
10.3178672492682
30
0
0
SPLINE
5
2B2
100
AcDbEntity
8
1
62
256
6
ByLayer
370
-1
48
1
60
0
100
AcDbSpline
70
4
71
3
72
12
73
8
40
0
40
0
40
0
40
0
40
0.474376698371051
40
0.474376698371051
40
0.70621978341373
40
0.70621978341373
40
1
40
1
40
1
40
1
41
1
10
18.1038767006652
20
1.83618139916109
30
0
41
1
10
18.080358390207
20
1.84389522203654
30
0
41
1
10
18.0535441855865
20
1.85471707971492
30
0
41
1
10
18.0121163134606
20
1.87396526150601
30
0
41
1
10
17.9980550685038
20
1.88088849222116
30
0
41
1
10
17.9660277740599
20
1.89749510610666
30
0
41
1
10
17.9478538327413
20
1.90750847518129
30
0
41
1
10
17.929925005475
20
1.91794937265338
30
0
0
SPLINE
5
2B3
100
AcDbEntity
8
1
62
256
6
ByLayer
370
-1
48
1
60
0
100
AcDbSpline
70
4
71
3
72
14
73
10
40
0
40
0
40
0
40
0
40
0.249606055014982
40
0.249606055014982
40
0.499158243446865
40
0.499158243446865
40
0.746144217743593
40
0.746144217743593
40
1
40
1
40
1
40
1
41
1
10
17.3709397716123
20
2.24347582391067
30
0
41
1
10
17.3553061995295
20
2.25258007377688
30
0
41
1
10
17.3397362074811
20
2.26207958998656
30
0
41
1
10
17.3093736396414
20
2.28145413404316
30
0
41
1
10
17.2944752922915
20
2.29139633074965
30
0
41
1
10
17.265984709839
20
2.31128053282626
30
0
41
1
10
17.2522859818854
20
2.32128748121123
30
0
41
1
10
17.2260119080795
20
2.34141347260999
30
0
41
1
10
17.2133868856573
20
2.35159798275754
30
0
41
1
10
17.2017203002159
20
2.36155443896023
30
0
0
SPLINE
5
2B4
100
AcDbEntity
8
1
62
256
6
ByLayer
370
-1
48
1
60
0
100
AcDbSpline
70
4
71
3
72
18
73
14
40
0
40
0
40
0
40
0
40
0.439677344605705
40
0.439677344605705
40
0.819840138515276
40
0.819840138515276
40
0.920758376963035
40
0.920758376963035
40
0.968467673881575
40
0.968467673881575
40
0.990240013274131
40
0.990240013274131
40
1
40
1
40
1
40
1
41
1
10
17.3514354604953
20
2.87848771833949
30
0
41
1
10
17.3901225253871
20
2.96312933983528
30
0
41
1
10
17.4306857343259
20
3.04705374500307
30
0
41
1
10
17.5140269855915
20
3.19926779589919
30
0
41
1
10
17.5544824955505
20
3.27003235231415
30
0
41
1
10
17.6215193646418
20
3.34717979026628
30
0
41
1
10
17.6367481565701
20
3.36293898410756
30
0
41
1
10
17.6629913901654
20
3.38099088328382
30
0
41
1
10
17.6722568707277
20
3.38611798848973
30
0
41
1
10
17.6868190086512
20
3.38986927626364
30
0
41
1
10
17.6916505826968
20
3.39048420844894
30
0
41
1
10
17.6985506990496
20
3.39009699239365
30
0
41
1
10
17.7007006594197
20
3.38979668643738
30
0
41
1
10
17.7027984451519
20
3.38931030108121
30
0
0
SPLINE
5
2B5
100
AcDbEntity
8
1
62
256
6
ByLayer
370
-1
48
1
60
0
100
AcDbSpline
70
4
71
3
72
20
73
16
40
0
40
0
40
0
40
0
40
0.511365204367439
40
0.511365204367439
40
0.617167309555449
40
0.617167309555449
40
0.785488434327114
40
0.785488434327114
40
0.873398812153862
40
0.873398812153862
40
0.93568440225422
40
0.93568440225422
40
0.978722765374129
40
0.978722765374129
40
1
40
1
40
1
40
1
41
1
10
24.1632605982321
20
6.11607569150641
30
0
41
1
10
24.0585324489256
20
6.06775785309796
30
0
41
1
10
23.9550513754138
20
6.01567979467353
30
0
41
1
10
23.8386155931212
20
5.94047667518082
30
0
41
1
10
23.8189307716417
20
5.92705495520143
30
0
41
1
10
23.7694205094657
20
5.89058000282151
30
0
41
1
10
23.7400425743054
20
5.86649611624762
30
0
41
1
10
23.7010329374816
20
5.82481996183147
30
0
41
1
10
23.6885600973468
20
5.80946252709627
30
0
41
1
10
23.6715827731578
20
5.7808735508389
30
0
41
1
10
23.6657306099459
20
5.76810557254545
30
0
41
1
10
23.6603478595192
20
5.74554693043119
30
0
41
1
10
23.6594464383262
20
5.73586280026593
30
0
41
1
10
23.6608280671967
20
5.72169000835328
30
0
41
1
10
23.6617384173818
20
5.71698625630782
30
0
41
1
10
23.6630893778567
20
5.71242105059382
30
0
0
SPLINE
5
2B6
100
AcDbEntity
8
1
62
256
6
ByLayer
370
-1
48
1
60
0
100
AcDbSpline
70
4
71
3
72
12
73
8
40
0
40
0
40
0
40
0
40
0.347623173836861
40
0.347623173836861
40
0.696503371294836
40
0.696503371294836
40
1
40
1
40
1
40
1
41
1
10
14.394676991207
20
4.36950467741798
30
0
41
1
10
14.3875714022968
20
4.38082991048152
30
0
41
1
10
14.3783286585814
20
4.39125819374185
30
0
41
1
10
14.3569167232727
20
4.40891901524235
30
0
41
1
10
14.3444135791779
20
4.41639142970197
30
0
41
1
10
14.3198103096323
20
4.42674275997629
30
0
41
1
10
14.3075799316437
20
4.4302127380718
30
0
41
1
10
14.2955633492321
20
4.43219720532659
30
0
0
SPLINE
5
2B7
100
AcDbEntity
8
1
62
256
6
ByLayer
370
-1
48
1
60
0
100
AcDbSpline
70
4
71
3
72
12
73
8
40
0
40
0
40
0
40
0
40
0.347623173836863
40
0.347623173836863
40
0.696503371294836
40
0.696503371294836
40
1
40
1
40
1
40
1
41
1
10
21.7495957440164
20
11.5344183557137
30
0
41
1
10
21.7636044448811
20
11.533777595166
30
0
41
1
10
21.7778371528458
20
11.5354368541476
30
0
41
1
10
21.8046216263129
20
11.5434217018329
30
0
41
1
10
21.8175533102109
20
11.5499036091686
30
0
41
1
10
21.8386843190717
20
11.5658259153485
30
0
41
1
10
21.8475248840461
20
11.5749657144908
30
0
41
1
10
21.8547528937285
20
11.5850870377014
30
0
0
SPLINE
5
2B8
100
AcDbEntity
8
1
62
256
6
ByLayer
370
-1
48
1
60
0
100
AcDbSpline
70
4
71
2
72
6
73
3
40
0
40
0
40
0
40
1
40
1
40
1
41
0.500001284303093
10
14.2955633492321
20
4.43219720532659
30
0
41
0.499998715696907
10
14.2945645850864
20
4.43236214529654
30
0
41
0.500001284303093
10
14.2935675455083
20
4.43252859638427
30
0
0
SPLINE
5
2B9
100
AcDbEntity
8
1
62
256
6
ByLayer
370
-1
48
1
60
0
100
AcDbSpline
70
4
71
3
72
16
73
12
40
0
40
0
40
0
40
0
40
0.0426292751499095
40
0.0426292751499095
40
0.0996436166287506
40
0.0996436166287506
40
0.207156078099351
40
0.207156078099351
40
0.580806890299258
40
0.580806890299258
40
1
40
1
40
1
40
1
41
1
10
19.1894563896235
20
9.41298555805615
30
0
41
1
10
19.196380678802
20
9.41985503556832
30
0
41
1
10
19.20195504096
20
9.42814912039913
30
0
41
1
10
19.2113849329423
20
9.44865078216031
30
0
41
1
10
19.2143193093425
20
9.46152162641005
30
0
41
1
10
19.2182152138171
20
9.49838439462062
30
0
41
1
10
19.2156182912853
20
9.52300404185412
30
0
41
1
10
19.195579474896
20
9.62908769713871
30
0
41
1
10
19.1592173761986
20
9.70723018156461
30
0
41
1
10
19.0774812315917
20
9.86683696055366
30
0
41
1
10
19.028067173238
20
9.94851704199019
30
0
41
1
10
18.976199452002
20
10.0284792298193
30
0
0
SPLINE
5
2BA
100
AcDbEntity
8
1
62
256
6
ByLayer
370
-1
48
1
60
0
100
AcDbSpline
70
4
71
3
72
24
73
20
40
0
40
0
40
0
40
0
40
0.0154450745970622
40
0.0154450745970622
40
0.0417985895668816
40
0.0417985895668816
40
0.0483972597877263
40
0.0483972597877263
40
0.102103855500583
40
0.102103855500583
40
0.185330321122071
40
0.185330321122071
40
0.354377449491645
40
0.354377449491645
40
0.535348727399452
40
0.535348727399452
40
0.666091500997341
40
0.666091500997341
40
1
40
1
40
1
40
1
41
1
10
18.7345066585224
20
8.99734268176606
30
0
41
1
10
18.7322619324024
20
8.995041643608
30
0
41
1
10
18.7296545062012
20
8.99302660142237
30
0
41
1
10
18.7220982736359
20
8.9886124239829
30
0
41
1
10
18.7166623405091
20
8.9868346240211
30
0
41
1
10
18.7098139272418
20
8.98557576647444
30
0
41
1
10
18.7084179775647
20
8.98536732807392
30
0
41
1
10
18.6957979361302
20
8.98385927629336
30
0
41
1
10
18.6842642720556
20
8.98499182405959
30
0
41
1
10
18.6559010963288
20
8.99009428490665
30
0
41
1
10
18.6390911678247
20
8.99544639714775
30
0
41
1
10
18.5895380155778
20
9.01393655437717
30
0
41
1
10
18.5577386282879
20
9.02971018951625
30
0
41
1
10
18.4934569528527
20
9.06438597391528
30
0
41
1
10
18.461026448182
20
9.08372161250348
30
0
41
1
10
18.4060402568501
20
9.11820531239424
30
0
41
1
10
18.3832373482475
20
9.13305800136507
30
0
41
1
10
18.3029379994713
20
9.18679426965355
30
0
41
1
10
18.2465047338339
20
9.22714096562713
30
0
41
1
10
18.1908523537509
20
9.26839317612824
30
0
0
SPLINE
5
2BB
100
AcDbEntity
8
1
62
256
6
ByLayer
370
-1
48
1
60
0
100
AcDbSpline
70
4
71
2
72
6
73
3
40
0
40
0
40
0
40
1
40
1
40
1
41
0.500001284156282
10
21.8547528937285
20
11.5850870377014
30
0
41
0.499998715843718
10
21.8553536533011
20
11.5859282764482
30
0
41
0.500001284156282
10
21.855953742484
20
11.5867700136946
30
0
0
SPLINE
5
2BC
100
AcDbEntity
8
1
62
256
6
ByLayer
370
-1
48
1
60
0
100
AcDbSpline
70
4
71
3
72
10
73
6
40
0
40
0
40
0
40
0
40
0.709495622816772
40
0.709495622816772
40
1
40
1
40
1
40
1
41
1
10
20.8439381016321
20
11.62455691227
30
0
41
1
10
20.867179005116
20
11.634586556858
30
0
41
1
10
20.8922019164473
20
11.639921158517
30
0
41
1
10
20.9266737714081
20
11.6414575949442
30
0
41
1
10
20.9368008680335
20
11.6412103496693
30
0
41
1
10
20.946861897932
20
11.6403310112262
30
0
0
SPLINE
5
2BD
100
AcDbEntity
8
1
62
256
6
ByLayer
370
-1
48
1
60
0
100
AcDbSpline
70
4
71
3
72
18
73
14
40
0
40
0
40
0
40
0
40
0.000394935460766
40
0.000394935460766
40
0.224892743043077
40
0.224892743043077
40
0.448534607133773
40
0.448534607133773
40
0.683663168903608
40
0.683663168903608
40
0.940146663975065
40
0.940146663975065
40
1
40
1
40
1
40
1
41
1
10
19.5015990944794
20
4.38207467545435
30
0
41
1
10
19.5016472353381
20
4.38205248073072
30
0
41
1
10
19.5016953822292
20
4.38203029688978
30
0
41
1
10
19.5287238467317
20
4.3695845101812
30
0
41
1
10
19.5580198841406
20
4.36052729895327
30
0
41
1
10
19.6162225152322
20
4.35041994302162
30
0
41
1
10
19.6458744389238
20
4.34919166618975
30
0
41
1
10
19.7034078436461
20
4.35403356202541
30
0
41
1
10
19.7318476290262
20
4.3605156667393
30
0
41
1
10
19.7852993528232
20
4.38057134509223
30
0
41
1
10
19.8104516804991
20
4.39495795590916
30
0
41
1
10
19.8364467391768
20
4.41583788801552
30
0
41
1
10
19.8411993866152
20
4.41997220516795
30
0
41
1
10
19.8457326825584
20
4.42423862653499
30
0
0
SPLINE
5
2BE
100
AcDbEntity
8
1
62
256
6
ByLayer
370
-1
48
1
60
0
100
AcDbSpline
70
4
71
3
72
12
73
8
40
0
40
0
40
0
40
0
40
0.437085561807764
40
0.437085561807764
40
0.852488469801546
40
0.852488469801546
40
1
40
1
40
1
40
1
41
1
10
18.7366356645278
20
5.97383429637964
30
0
41
1
10
18.7952004268458
20
5.9852319422578
30
0
41
1
10
18.8525145478162
20
6.00559642045765
30
0
41
1
10
18.9558540656185
20
6.06404281164345
30
0
41
1
10
19.0034213832481
20
6.10206822584659
30
0
41
1
10
19.058481969495
20
6.16537711736865
30
0
41
1
10
19.0721635979143
20
6.18319010841199
30
0
41
1
10
19.0848427601661
20
6.20200094141774
30
0
0
SPLINE
5
2BF
100
AcDbEntity
8
1
62
256
6
ByLayer
370
-1
48
1
60
0
100
AcDbSpline
70
4
71
3
72
18
73
14
40
0
40
0
40
0
40
0
40
0.0234665480132211
40
0.0234665480132211
40
0.247226260572619
40
0.247226260572619
40
0.471497900203319
40
0.471497900203319
40
0.708371043968176
40
0.708371043968176
40
0.967445226253377
40
0.967445226253377
40
1
40
1
40
1
40
1
41
1
10
20.9293027437332
20
7.3035261788436
30
0
41
1
10
20.9264507766088
20
7.30484104160011
30
0
41
1
10
20.9235760135579
20
7.30610529783188
30
0
41
1
10
20.8933868753134
20
7.31874969590655
30
0
41
1
10
20.863853099051
20
7.32559786997324
30
0
41
1
10
20.8051380496013
20
7.3293274279909
30
0
41
1
10
20.7752090636205
20
7.32625595515754
30
0
41
1
10
20.717091788977
20
7.31098823235106
30
0
41
1
10
20.6883610960562
20
7.29812863943259
30
0
41
1
10
20.6343704364613
20
7.26351549674894
30
0
41
1
10
20.6089934525265
20
7.24063851146961
30
0
41
1
10
20.5851407304303
20
7.21165710959657
30
0
41
1
10
20.5825172985846
20
7.20834423036366
30
0
41
1
10
20.5799575808586
20
7.20498488722669
30
0
0
SPLINE
5
2C0
100
AcDbEntity
8
1
62
256
6
ByLayer
370
-1
48
1
60
0
100
AcDbSpline
70
4
71
3
72
14
73
10
40
0
40
0
40
0
40
0
40
0.195364289315725
40
0.195364289315725
40
0.492714238387391
40
0.492714238387391
40
0.761276334579676
40
0.761276334579676
40
1
40
1
40
1
40
1
41
1
10
19.33588788119
20
4.65929601383411
30
0
41
1
10
19.3321453019779
20
4.64045094280074
30
0
41
1
10
19.3310477307002
20
4.6206161824129
30
0
41
1
10
19.3355913471968
20
4.57007919753521
30
0
41
1
10
19.345247952409
20
4.53818393606552
30
0
41
1
10
19.3766634861355
20
4.48130199121532
30
0
41
1
10
19.3977069624754
20
4.45509486728027
30
0
41
1
10
19.445921776222
20
4.41279769218926
30
0
41
1
10
19.4728627630806
20
4.39532319139674
30
0
41
1
10
19.5015990944794
20
4.38207467545435
30
0
0
SPLINE
5
2C1
100
AcDbEntity
8
1
62
256
6
ByLayer
370
-1
48
1
60
0
100
AcDbSpline
70
4
71
3
72
16
73
12
40
0
40
0
40
0
40
0
40
0.193107886882254
40
0.193107886882254
40
0.416052070570366
40
0.416052070570366
40
0.648855494404487
40
0.648855494404487
40
0.901755104733825
40
0.901755104733825
40
1
40
1
40
1
40
1
41
1
10
18.5456838235045
20
5.71338410634783
30
0
41
1
10
18.5478971766752
20
5.68868320129057
30
0
41
1
10
18.5535439837692
20
5.66357320280855
30
0
41
1
10
18.5722009294848
20
5.61189930322242
30
0
41
1
10
18.5864707006527
20
5.58505652987667
30
0
41
1
10
18.6216012658036
20
5.53579396504897
30
0
41
1
10
18.6431444796044
20
5.51298759010146
30
0
41
1
10
18.691768488835
20
5.47300463833317
30
0
41
1
10
18.7197556959691
20
5.45595758727338
30
0
41
1
10
18.7594579066931
20
5.43841860253481
30
0
41
1
10
18.7707914004067
20
5.43411829970103
30
0
41
1
10
18.7821629691128
20
5.43047230942332
30
0
0
SPLINE
5
2C2
100
AcDbEntity
8
1
62
256
6
ByLayer
370
-1
48
1
60
0
100
AcDbSpline
70
4
71
3
72
18
73
14
40
0
40
0
40
0
40
0
40
0.209924360555914
40
0.209924360555914
40
0.384465818849776
40
0.384465818849776
40
0.560718190081129
40
0.560718190081129
40
0.713743773314909
40
0.713743773314909
40
0.916120716083118
40
0.916120716083118
40
1
40
1
40
1
40
1
41
1
10
20.8109674528367
20
4.49511809967525
30
0
41
1
10
20.7565567173024
20
4.52976945372727
30
0
41
1
10
20.6933775575141
20
4.55839129299662
30
0
41
1
10
20.5666360701876
20
4.59535223065853
30
0
41
1
10
20.5034387204991
20
4.60662101036003
30
0
41
1
10
20.3736735761873
20
4.6153190967392
30
0
41
1
10
20.305133271
20
4.61263599221762
30
0
41
1
10
20.1840533818325
20
4.59470729041655
30
0
41
1
10
20.1291316837469
20
4.58099196477687
30
0
41
1
10
20.0132805065897
20
4.53970291385698
30
0
41
1
10
19.9540091201459
20
4.50850016081203
30
0
41
1
10
19.8831499581424
20
4.45722140641858
30
0
41
1
10
19.8636832246884
20
4.44113242245177
30
0
41
1
10
19.8457326825581
20
4.42423862653519
30
0
0
SPLINE
5
2C3
100
AcDbEntity
8
1
62
256
6
ByLayer
370
-1
48
1
60
0
100
AcDbSpline
70
4
71
3
72
20
73
16
40
0
40
0
40
0
40
0
40
0.107233627294127
40
0.107233627294127
40
0.302419289169715
40
0.302419289169715
40
0.462343507930028
40
0.462343507930028
40
0.622893589417226
40
0.622893589417226
40
0.775828883159915
40
0.775828883159915
40
0.995908765001185
40
0.995908765001185
40
1
40
1
40
1
40
1
41
1
10
19.3358878811922
20
4.65929601383277
30
0
41
1
10
19.3417063357431
20
4.68859377431075
30
0
41
1
10
19.3448358430317
20
4.71898218096206
30
0
41
1
10
19.3453997056278
20
4.80671225101335
30
0
41
1
10
19.3359242102072
20
4.86701680024171
30
0
41
1
10
19.2987706546102
20
4.9775714856618
30
0
41
1
10
19.2741305879523
20
5.02890960071552
30
0
41
1
10
19.2113962580328
20
5.12701164218147
30
0
41
1
10
19.1724093575054
20
5.17499768357892
30
0
41
1
10
19.0885814490756
20
5.25835716503876
30
0
41
1
10
19.0431976938981
20
5.2952312115513
30
0
41
1
10
18.9293608594992
20
5.37127427195432
30
0
41
1
10
18.8575424187573
20
5.40588092194183
30
0
41
1
10
18.7848499765481
20
5.42960692318338
30
0
41
1
10
18.7835065720691
20
5.43004151896317
30
0
41
1
10
18.7821629691128
20
5.43047230942332
30
0
0
SPLINE
5
2C4
100
AcDbEntity
8
1
62
256
6
ByLayer
370
-1
48
1
60
0
100
AcDbSpline
70
4
71
3
72
12
73
8
40
0
40
0
40
0
40
0
40
0.318843621614531
40
0.318843621614531
40
0.786729030551965
40
0.786729030551965
40
1
40
1
40
1
40
1
41
1
10
21.2622067699821
20
5.19815527315644
30
0
41
1
10
21.2461895174947
20
5.15236348336494
30
0
41
1
10
21.2360054329782
20
5.10624350297928
30
0
41
1
10
21.2251719760293
20
4.99754268047286
30
0
41
1
10
21.2308503297275
20
4.93545548754263
30
0
41
1
10
21.2533456379896
20
4.85307899608395
30
0
41
1
10
21.2624790259283
20
4.82812636661359
30
0
41
1
10
21.2734675050711
20
4.80426060876775
30
0
0
SPLINE
5
2C5
100
AcDbEntity
8
1
62
256
6
ByLayer
370
-1
48
1
60
0
100
AcDbSpline
70
4
71
3
72
14
73
10
40
0
40
0
40
0
40
0
40
0.27515514505411
40
0.27515514505411
40
0.562584571426052
40
0.562584571426052
40
0.822642906836959
40
0.822642906836959
40
1
40
1
40
1
40
1
41
1
10
19.6147228105805
20
7.1341054140866
30
0
41
1
10
19.590320447657
20
7.15887793173198
30
0
41
1
10
19.561573063797
20
7.1799872643916
30
0
41
1
10
19.497778441751
20
7.21133132094485
30
0
41
1
10
19.4614808821917
20
7.22146348646419
30
0
41
1
10
19.3918670564606
20
7.22607637759626
30
0
41
1
10
19.3575432083822
20
7.2219621519711
30
0
41
1
10
19.3036639944799
20
7.20428156267072
30
0
41
1
10
19.2824238614211
20
7.19401704909707
30
0
41
1
10
19.2629831744714
20
7.18116438999272
30
0
0
SPLINE
5
2C6
100
AcDbEntity
8
1
62
256
6
ByLayer
370
-1
48
1
60
0
100
AcDbSpline
70
4
71
3
72
16
73
12
40
0
40
0
40
0
40
0
40
0.155969714281507
40
0.155969714281507
40
0.456068661957242
40
0.456068661957242
40
0.72732557753693
40
0.72732557753693
40
0.967741962601904
40
0.967741962601904
40
1
40
1
40
1
40
1
41
1
10
18.7366356645262
20
5.97383429638579
30
0
41
1
10
18.7193206725952
20
5.97046452011419
30
0
41
1
10
18.7023651975789
20
5.96530876006443
30
0
41
1
10
18.655336346907
20
5.94517809899226
30
0
41
1
10
18.626692895257
20
5.92500247436638
30
0
41
1
10
18.5831836576553
20
5.87591543898672
30
0
41
1
10
18.5666416469145
20
5.84721922197654
30
0
41
1
10
18.5476061220352
20
5.78790938178941
30
0
41
1
10
18.5434908648602
20
5.75701224089026
30
0
41
1
10
18.5450241129743
20
5.72182900806503
30
0
41
1
10
18.5453053201703
20
5.71760818366396
30
0
41
1
10
18.5456838235045
20
5.71338410634783
30
0
0
SPLINE
5
2C7
100
AcDbEntity
8
1
62
256
6
ByLayer
370
-1
48
1
60
0
100
AcDbSpline
70
4
71
3
72
16
73
12
40
0
40
0
40
0
40
0
40
0.208885931401919
40
0.208885931401919
40
0.430059582832817
40
0.430059582832817
40
0.661905004958717
40
0.661905004958717
40
0.91435908400003
40
0.91435908400003
40
1
40
1
40
1
40
1
41
1
10
21.1679186637412
20
4.50443646430521
30
0
41
1
10
21.1909623373091
20
4.51967113588066
30
0
41
1
10
21.2118767334876
20
4.5378901553878
30
0
41
1
10
21.2475543759041
20
4.57865730041544
30
0
41
1
10
21.262340027885
20
4.60191672432714
30
0
41
1
10
21.2836353201172
20
4.6503601477465
30
0
41
1
10
21.2900065616564
20
4.67618254402335
30
0
41
1
10
21.2938998008606
20
4.7282980639982
30
0
41
1
10
21.2906687401957
20
4.75508078662671
30
0
41
1
10
21.2802971036413
20
4.78810598728369
30
0
41
1
10
21.2771271735093
20
4.79631221485408
30
0
41
1
10
21.2734675050712
20
4.80426060876782
30
0
0
SPLINE
5
2C8
100
AcDbEntity
8
1
62
256
6
ByLayer
370
-1
48
1
60
0
100
AcDbSpline
70
4
71
3
72
14
73
10
40
0
40
0
40
0
40
0
40
0.22060708202363
40
0.22060708202363
40
0.521405208892058
40
0.521405208892058
40
0.786696551790836
40
0.786696551790836
40
1
40
1
40
1
40
1
41
1
10
21.0898023822289
20
6.96992749992451
30
0
41
1
10
21.0946651158448
20
6.99814629916419
30
0
41
1
10
21.0961376998346
20
7.02737273886811
30
0
41
1
10
21.0907029614755
20
7.09551658691319
30
0
41
1
10
21.080310729607
20
7.1352868447127
30
0
41
1
10
21.0473773709247
20
7.2026609948754
30
0
41
1
10
21.0258487853509
20
7.2321420400263
30
0
41
1
10
20.9791660687874
20
7.2754246235081
30
0
41
1
10
20.9550110156404
20
7.29167371077847
30
0
41
1
10
20.9293027437332
20
7.3035261788436
30
0
0
SPLINE
5
2C9
100
AcDbEntity
8
1
62
256
6
ByLayer
370
-1
48
1
60
0
100
AcDbSpline
70
4
71
3
72
12
73
8
40
0
40
0
40
0
40
0
40
0.490787175648171
40
0.490787175648171
40
0.8965289911391
40
0.8965289911391
40
1
40
1
40
1
40
1
41
1
10
21.6889714018164
20
5.65448921499507
30
0
41
1
10
21.6214877290378
20
5.62264174050421
30
0
41
1
10
21.5555486661116
20
5.58045428388796
30
0
41
1
10
21.4465365212858
20
5.48739694580804
30
0
41
1
10
21.4003500179212
20
5.43816944440698
30
0
41
1
10
21.3515983394183
20
5.37131547503077
30
0
41
1
10
21.3420799675874
20
5.35735358200294
30
0
41
1
10
21.3330782146125
20
5.34317660764086
30
0
0
SPLINE
5
2CA
100
AcDbEntity
8
1
62
256
6
ByLayer
370
-1
48
1
60
0
100
AcDbSpline
70
4
71
3
72
16
73
12
40
0
40
0
40
0
40
0
40
0.174528471009438
40
0.174528471009438
40
0.474386392499038
40
0.474386392499038
40
0.74525993382777
40
0.74525993382777
40
0.985919484389281
40
0.985919484389281
40
1
40
1
40
1
40
1
41
1
10
20.8109674528341
20
4.49511809967288
30
0
41
1
10
20.8269867016073
20
4.48491627726713
30
0
41
1
10
20.844665024415
20
4.47604543937287
30
0
41
1
10
20.8958742291758
20
4.45667487355598
30
0
41
1
10
20.932726450675
20
4.44929452167577
30
0
41
1
10
21.0049319706429
20
4.44756594116571
30
0
41
1
10
21.0412089189942
20
4.45206585476912
30
0
41
1
10
21.1063406355722
20
4.47090131693618
30
0
41
1
10
21.1364997274053
20
4.48438541698697
30
0
41
1
10
21.164779673275
20
4.50238086282238
30
0
41
1
10
21.1663545964628
20
4.50340242555967
30
0
41
1
10
21.1679186637412
20
4.50443646430521
30
0
0
SPLINE
5
2CB
100
AcDbEntity
8
1
62
256
6
ByLayer
370
-1
48
1
60
0
100
AcDbSpline
70
4
71
3
72
18
73
14
40
0
40
0
40
0
40
0
40
0.0561848879349017
40
0.0561848879349017
40
0.277050979500539
40
0.277050979500539
40
0.500334478296741
40
0.500334478296741
40
0.737651830052864
40
0.737651830052864
40
0.998111856583261
40
0.998111856583261
40
1
40
1
40
1
40
1
41
1
10
19.2629831744714
20
7.18116438999272
30
0
41
1
10
19.2567370460831
20
7.17703493926369
30
0
41
1
10
19.2506503694418
20
7.17262806956731
30
0
41
1
10
19.2217573528844
20
7.149786732858
30
0
41
1
10
19.2014026812737
20
7.1273483737212
30
0
41
1
10
19.1687819836006
20
7.07755760493775
30
0
41
1
10
19.1561720655363
20
7.04953408026935
30
0
41
1
10
19.1391665459986
20
6.99013004380916
30
0
41
1
10
19.135093689433
20
6.95791582581485
30
0
41
1
10
19.1359178727235
20
6.89177666071302
30
0
41
1
10
19.1417028474084
20
6.85716006547928
30
0
41
1
10
19.1519891530831
20
6.82453734978307
30
0
41
1
10
19.1520642375679
20
6.82430007773593
30
0
41
1
10
19.1521395612726
20
6.82406290260843
30
0
0
SPLINE
5
2CC
100
AcDbEntity
8
1
62
256
6
ByLayer
370
-1
48
1
60
0
100
AcDbSpline
70
4
71
3
72
16
73
12
40
0
40
0
40
0
40
0
40
0.0856128173193142
40
0.0856128173193142
40
0.393132353245591
40
0.393132353245591
40
0.672172529937418
40
0.672172529937418
40
0.918309377350121
40
0.918309377350121
40
1
40
1
40
1
40
1
41
1
10
21.6889714018168
20
5.65448921499292
30
0
41
1
10
21.6987671685941
20
5.65911211738862
30
0
41
1
10
21.708439697638
20
5.6642256878953
30
0
41
1
10
21.7516145185196
20
5.68967400269283
30
0
41
1
10
21.7835021275742
20
5.7161425219311
30
0
41
1
10
21.8335849873045
20
5.77561018636582
30
0
41
1
10
21.8535022584845
20
5.80876033258566
30
0
41
1
10
21.8784283801369
20
5.87449925939767
30
0
41
1
10
21.8852393847512
20
5.90767379350818
30
0
41
1
10
21.8864920222912
20
5.95078298292201
30
0
41
1
10
21.8861717138279
20
5.96157351589791
30
0
41
1
10
21.8852180147082
20
5.9722167479501
30
0
0
SPLINE
5
2CD
100
AcDbEntity
8
1
62
256
6
ByLayer
370
-1
48
1
60
0
100
AcDbSpline
70
4
71
3
72
18
73
14
40
0
40
0
40
0
40
0
40
0.180072176690366
40
0.180072176690366
40
0.360150021032623
40
0.360150021032623
40
0.542283515089095
40
0.542283515089095
40
0.696761270862223
40
0.696761270862223
40
0.894183387266437
40
0.894183387266437
40
1
40
1
40
1
40
1
41
1
10
19.6147228105805
20
7.1341054140866
30
0
41
1
10
19.6599022154024
20
7.08824069161429
30
0
41
1
10
19.7114740288903
20
7.04765708918828
30
0
41
1
10
19.8244530304295
20
6.98293451966909
30
0
41
1
10
19.8872925348239
20
6.95821767758288
30
0
41
1
10
20.0185564445072
20
6.93139781217128
30
0
41
1
10
20.0891459542803
20
6.92945842327774
30
0
41
1
10
20.2142040582978
20
6.94903699007391
30
0
41
1
10
20.2710051642713
20
6.96717563587659
30
0
41
1
10
20.3894999839453
20
7.02391895300043
30
0
41
1
10
20.45025274201
20
7.06747012444288
30
0
41
1
10
20.5304369166688
20
7.14474114998896
30
0
41
1
10
20.5564010872781
20
7.17406962487672
30
0
41
1
10
20.5799575808586
20
7.20498488722669
30
0
0
SPLINE
5
2CE
100
AcDbEntity
8
1
62
256
6
ByLayer
370
-1
48
1
60
0
100
AcDbSpline
70
4
71
3
72
16
73
12
40
0
40
0
40
0
40
0
40
0.145457764402324
40
0.145457764402324
40
0.36774887121554
40
0.36774887121554
40
0.597390748780892
40
0.597390748780892
40
0.845144964192673
40
0.845144964192673
40
1
40
1
40
1
40
1
41
1
10
21.8852180147082
20
5.9722167479501
30
0
41
1
10
21.8835478696514
20
5.99085547900576
30
0
41
1
10
21.8799011827203
20
6.00921284572506
30
0
41
1
10
21.8660823820355
20
6.05325011305497
30
0
41
1
10
21.8532413202881
20
6.07822617577948
30
0
41
1
10
21.8205278231447
20
6.12202139655902
30
0
41
1
10
21.8000469271821
20
6.14117872889109
30
0
41
1
10
21.7531531680291
20
6.17234496975442
30
0
41
1
10
21.7258346341482
20
6.18408779585904
30
0
41
1
10
21.6799948934594
20
6.19540223908511
30
0
41
1
10
21.6618008540663
20
6.19796017151556
30
0
41
1
10
21.6435272943045
20
6.19875120433916
30
0
0
SPLINE
5
2CF
100
AcDbEntity
8
1
62
256
6
ByLayer
370
-1
48
1
60
0
100
AcDbSpline
70
4
71
3
72
8
73
4
40
0
40
0
40
0
40
0
40
1
40
1
40
1
40
1
41
1
10
0.346265877365283
20
-8.21791822641056
30
0
41
1
10
0.230843304610431
20
-8.12363391987898
30
0
41
1
10
0.115421323614868
20
-8.02934864743166
30
0
41
1
10
-2.84E-14
20
-7.93506230200856
30
0
0
SPLINE
5
2D0
100
AcDbEntity
8
SK1
62
256
6
ByLayer
370
-1
48
1
60
0
100
AcDbSpline
70
4
71
3
72
22
73
18
40
0
40
0
40
0
40
0
40
0.0759828693635215
40
0.0759828693635215
40
0.121223705355062
40
0.121223705355062
40
0.167233024447567
40
0.167233024447567
40
0.202596545059259
40
0.202596545059259
40
0.237729529685037
40
0.237729529685037
40
0.298491096168791
40
0.298491096168791
40
0.454923679576784
40
0.454923679576784
40
1
40
1
40
1
40
1
41
1
10
-0.238765877365267
20
2.65244539844679
30
0
41
1
10
-0.241789490175535
20
2.64770575795418
30
0
41
1
10
-0.245043696047048
20
2.64315531716969
30
0
41
1
10
-0.250741064202089
20
2.63685587388407
30
0
41
1
10
-0.253015350996577
20
2.63469515346657
30
0
41
1
10
-0.25779587146684
20
2.63124918553196
30
0
41
1
10
-0.260374117217083
20
2.62995472752891
30
0
41
1
10
-0.264838960486088
20
2.62905403861279
30
0
41
1
10
-0.266790762146286
20
2.62912794990417
30
0
41
1
10
-0.270374659482996
20
2.63017103921895
30
0
41
1
10
-0.272049822705981
20
2.63113445761969
30
0
41
1
10
-0.276136535514752
20
2.63451941912756
30
0
41
1
10
-0.278293869503216
20
2.63751018514263
30
0
41
1
10
-0.28477591212615
20
2.64916176492829
30
0
41
1
10
-0.287648154874006
20
2.65955805064652
30
0
41
1
10
-0.297669314094207
20
2.70646350108015
30
0
41
1
10
-0.298765877366066
20
2.74686598167421
30
0
41
1
10
-0.298765877366009
20
2.78674788328097
30
0
0
SPLINE
5
2D1
100
AcDbEntity
8
SK1
62
256
6
ByLayer
370
-1
48
1
60
0
100
AcDbSpline
70
4
71
3
72
24
73
20
40
0
40
0
40
0
40
0
40
0.445882906655524
40
0.445882906655524
40
0.605967913324823
40
0.605967913324823
40
0.698516663337794
40
0.698516663337794
40
0.754557261090368
40
0.754557261090368
40
0.795238009742228
40
0.795238009742228
40
0.836445912266916
40
0.836445912266916
40
0.871651629362513
40
0.871651629362513
40
0.931904147095912
40
0.931904147095912
40
1
40
1
40
1
40
1
41
1
10
-0.29876587736527
20
-2.78674788328128
30
0
41
1
10
-0.29876587736527
20
-2.75399909458231
30
0
41
1
10
-0.297710491478625
20
-2.72126984028004
30
0
41
1
10
-0.29181347552381
20
-2.67898420055849
30
0
41
1
10
-0.289800895396752
20
-2.66792800504909
30
0
41
1
10
-0.28505115907484
20
-2.6516992639218
30
0
41
1
10
-0.282960771003843
20
-2.64594788295418
30
0
41
1
10
-0.278549532813912
20
-2.63794149248892
30
0
41
1
10
-0.276611592374707
20
-2.63516750719874
30
0
41
1
10
-0.272656833922014
20
-2.63151515173675
30
0
41
1
10
-0.270766522710858
20
-2.63031321586408
30
0
41
1
10
-0.266663646061204
20
-2.6290644395168
30
0
41
1
10
-0.26438653372918
20
-2.62903755343271
30
0
41
1
10
-0.260209474775422
20
-2.63012122972866
30
0
41
1
10
-0.25825749835758
20
-2.6310644372486
30
0
41
1
10
-0.253221903405546
20
-2.6343785829207
30
0
41
1
10
-0.250218056688425
20
-2.6373054621392
30
0
41
1
10
-0.244342749276342
20
-2.64414769018489
30
0
41
1
10
-0.241463892208344
20
-2.6482161464882
30
0
41
1
10
-0.238765877365267
20
-2.65244539844679
30
0
0
SPLINE
5
2D2
100
AcDbEntity
8
1
62
256
6
ByLayer
370
-1
48
1
60
0
100
AcDbSpline
70
4
71
3
72
8
73
4
40
0
40
0
40
0
40
0
40
1
40
1
40
1
40
1
41
1
10
11.9397178413244
20
6.2259706539289
30
0
41
1
10
12.0578653519003
20
6.33481840008308
30
0
41
1
10
12.1879563581002
20
6.42971828456456
30
0
41
1
10
12.3311914507563
20
6.50926823252202
30
0
0
SPLINE
5
2D3
100
AcDbEntity
8
1
62
256
6
ByLayer
370
-1
48
1
60
0
100
AcDbSpline
70
4
71
3
72
8
73
4
40
0
40
0
40
0
40
0
40
1
40
1
40
1
40
1
41
1
10
11.7790347022472
20
6.23025528080447
30
0
41
1
10
11.8329630065091
20
6.23103237823483
30
0
41
1
10
11.8866744589374
20
6.229645823487
30
0
41
1
10
11.9397187117241
20
6.22597435596477
30
0
0
SPLINE
5
2D4
100
AcDbEntity
8
1
62
256
6
ByLayer
370
-1
48
1
60
0
100
AcDbSpline
70
4
71
3
72
12
73
8
40
0
40
0
40
0
40
0
40
0.379913249930001
40
0.379913249930001
40
0.690136527032457
40
0.690136527032457
40
1
40
1
40
1
40
1
41
1
10
11.800561471923
20
6.46312578007851
30
0
41
1
10
11.8453402163161
20
6.47808630627546
30
0
41
1
10
11.8902940980088
20
6.49145584390028
30
0
41
1
10
11.9719914476146
20
6.51284450343921
30
0
41
1
10
12.0087594633137
20
6.52140321285962
30
0
41
1
10
12.0821597212275
20
6.53640260820296
30
0
41
1
10
12.118817957499
20
6.54285089674865
30
0
41
1
10
12.1553665019762
20
6.54825998758905
30
0
0
SPLINE
5
2D5
100
AcDbEntity
8
1
62
256
6
ByLayer
370
-1
48
1
60
0
100
AcDbSpline
70
4
71
1
72
4
73
2
40
0
40
0
40
1
40
1
41
1
10
12.3317132435624
20
6.5094552366623
30
0
41
1
10
12.2831268082616
20
6.61874405879514
30
0
0
SPLINE
5
2D6
100
AcDbEntity
8
1
62
256
6
ByLayer
370
-1
48
1
60
0
100
AcDbSpline
70
4
71
3
72
8
73
4
40
0
40
0
40
0
40
0
40
1
40
1
40
1
40
1
41
1
10
12.283592934487
20
6.61911185805525
30
0
41
1
10
12.0958090600526
20
6.51493819722101
30
0
41
1
10
11.9260601485588
20
6.38288358097357
30
0
41
1
10
11.7790347022472
20
6.23025528080447
30
0
0
SPLINE
5
2D7
100
AcDbEntity
8
1
62
256
6
ByLayer
370
-1
48
1
60
0
100
AcDbSpline
70
4
71
3
72
8
73
4
40
0
40
0
40
0
40
0
40
1
40
1
40
1
40
1
41
1
10
0.324759526434974
20
-9.71767709692239
30
0
41
1
10
0.331927758907767
20
-9.72421534302171
30
0
41
1
10
0.339096543644587
20
-9.7307527818985
30
0
41
1
10
0.346265877365283
20
-9.7372894178658
30
0
0
SPLINE
5
2D8
100
AcDbEntity
8
1
62
256
6
ByLayer
370
-1
48
1
60
0
100
AcDbSpline
70
4
71
3
72
8
73
4
40
0
40
0
40
0
40
0
40
1
40
1
40
1
40
1
41
1
10
10.3971627528614
20
10.28234361228
30
0
41
1
10
10.4745038986704
20
10.3664427115655
30
0
41
1
10
10.5630894217547
20
10.4498549814238
30
0
41
1
10
10.66148062
20
10.5326683007051
30
0
0
SPLINE
5
2D9
100
AcDbEntity
8
1
62
256
6
ByLayer
370
-1
48
1
60
0
100
AcDbSpline
70
4
71
3
72
8
73
4
40
0
40
0
40
0
40
0
40
1
40
1
40
1
40
1
41
1
10
0.324759526432473
20
9.71767709692138
30
0
41
1
10
0.366757338188904
20
9.76035047629706
30
0
41
1
10
0.408759551667799
20
9.80301950020392
30
0
41
1
10
0.450765999999987
20
9.8456843337576
30
0
0
SPLINE
5
2DA
100
AcDbEntity
8
1
62
256
6
ByLayer
370
-1
48
1
60
0
100
AcDbSpline
70
4
71
3
72
8
73
4
40
0
40
0
40
0
40
0
40
1
40
1
40
1
40
1
41
1
10
0.450766000000016
20
-9.8456843337576
30
0
41
1
10
0.408759553838138
20
-9.80301950240828
30
0
41
1
10
0.366757340388404
20
-9.76035047853196
30
0
41
1
10
0.324759526436964
20
-9.71767709692595
30
0
0
SPLINE
5
2DB
100
AcDbEntity
8
1
62
256
6
ByLayer
370
-1
48
1
60
0
100
AcDbSpline
70
4
71
3
72
22
73
18
40
0
40
0
40
0
40
0
40
0.133551535384595
40
0.133551535384595
40
0.301145067042104
40
0.301145067042104
40
0.436806760863532
40
0.436806760863532
40
0.573627022327064
40
0.573627022327064
40
0.694409400479001
40
0.694409400479001
40
0.816353829493282
40
0.816353829493282
40
0.946757302781579
40
0.946757302781579
40
1
40
1
40
1
40
1
41
1
10
10.8004360361127
20
6.7122009548861
30
0
41
1
10
10.7302587419055
20
6.58364018813341
30
0
41
1
10
10.6626745096499
20
6.44199561112804
30
0
41
1
10
10.5331973767632
20
6.09567139415115
30
0
41
1
10
10.4759593567034
20
5.8799560625614
30
0
41
1
10
10.4320579507411
20
5.46778613344571
30
0
41
1
10
10.4341708210147
20
5.27118617034029
30
0
41
1
10
10.4991790435181
20
4.8845291903841
30
0
41
1
10
10.5641947533891
20
4.68905728637236
30
0
41
1
10
10.7447952694006
20
4.35986997204441
30
0
41
1
10
10.8558053667875
20
4.21731131257016
30
0
41
1
10
11.1143496933626
20
3.9775879192443
30
0
41
1
10
11.2654159768201
20
3.87756409816092
30
0
41
1
10
11.5984793630867
20
3.72463385009256
30
0
41
1
10
11.7864422689783
20
3.67322269170538
30
0
41
1
10
12.0532439653873
20
3.64352971294868
30
0
41
1
10
12.1316201680818
20
3.63983917584672
30
0
41
1
10
12.2097300042053
20
3.64113013453769
30
0
0
SPLINE
5
2DC
100
AcDbEntity
8
1
62
256
6
ByLayer
370
-1
48
1
60
0
100
AcDbSpline
70
4
71
3
72
14
73
10
40
0
40
0
40
0
40
0
40
0.220218702202127
40
0.220218702202127
40
0.49305084920426
40
0.49305084920426
40
0.760576362021317
40
0.760576362021317
40
1
40
1
40
1
40
1
41
1
10
14.5210156820196
20
3.48913273525169
30
0
41
1
10
14.3669410435538
20
3.401163934992
30
0
41
1
10
14.1986568031626
20
3.3333792968641
30
0
41
1
10
13.8099305121757
20
3.23236030077099
30
0
41
1
10
13.5809557658845
20
3.21004758612672
30
0
41
1
10
13.1384253656969
20
3.23473125004996
30
0
41
1
10
12.918776449067
20
3.28066709782367
30
0
41
1
10
12.5343601695957
20
3.42686856170373
30
0
41
1
10
12.3618953835903
20
3.52257044348107
30
0
41
1
10
12.2097300042053
20
3.64113013453779
30
0
0
SPLINE
5
2DD
100
AcDbEntity
8
1
62
256
6
ByLayer
370
-1
48
1
60
0
100
AcDbSpline
70
4
71
3
72
8
73
4
40
0
40
0
40
0
40
0
40
1
40
1
40
1
40
1
41
1
10
0.346265877365283
20
2.81188209233805
30
0
41
1
10
0.0057392588708467
20
0.950150497946566
30
0
41
1
10
0.0055448888441276
20
-0.949087835587875
30
0
41
1
10
0.346265877365198
20
-2.81188209233807
30
0
0
SPLINE
5
2DE
100
AcDbEntity
8
SK1
62
256
6
ByLayer
370
-1
48
1
60
0
100
AcDbSpline
70
4
71
3
72
14
73
10
40
0
40
0
40
0
40
0
40
0.332977916990778
40
0.332977916990778
40
0.638581505593529
40
0.638581505593529
40
0.872695371282695
40
0.872695371282695
40
1
40
1
40
1
40
1
41
1
10
-0.238765877365296
20
7.12029111935611
30
0
41
1
10
-0.24908070331594
20
7.13223813276159
30
0
41
1
10
-0.25886074162301
20
7.14399247793907
30
0
41
1
10
-0.275464805697908
20
7.16494260089993
30
0
41
1
10
-0.28261284558522
20
7.17445983796618
30
0
41
1
10
-0.292272887534466
20
7.18863859485897
30
0
41
1
10
-0.295545264938795
20
7.1940274331641
30
0
41
1
10
-0.298251294703618
20
7.20003008627823
30
0
41
1
10
-0.29876587736527
20
7.20172566482087
30
0
41
1
10
-0.29876587736527
20
7.20288531101455
30
0
0
SPLINE
5
2DF
100
AcDbEntity
8
SK1
62
256
6
ByLayer
370
-1
48
1
60
0
100
AcDbSpline
70
4
71
3
72
8
73
4
40
0
40
0
40
0
40
0
40
1
40
1
40
1
40
1
41
1
10
-0.238765877365267
20
8.59660851746129
30
0
41
1
10
-0.159672005306817
20
8.70126245512968
30
0
41
1
10
-0.080069616158454
20
8.80540647197556
30
0
41
1
10
0
20
8.90906637851329
30
0
0
SPLINE
5
2E0
100
AcDbEntity
8
SK1
62
256
6
ByLayer
370
-1
48
1
60
0
100
AcDbSpline
70
4
71
3
72
14
73
10
40
0
40
0
40
0
40
0
40
0.422099059559703
40
0.422099059559703
40
0.716928453461414
40
0.716928453461414
40
0.947201917137804
40
0.947201917137804
40
1
40
1
40
1
40
1
41
1
10
-0.238765877365267
20
9.0154066387165
30
0
41
1
10
-0.251947934587378
20
8.99983012629404
30
0
41
1
10
-0.264236098319032
20
8.98442725123348
30
0
41
1
10
-0.281456757597652
20
8.9606622488826
30
0
41
1
10
-0.287621058970132
20
8.9513763070205
30
0
41
1
10
-0.295392207488078
20
8.93742226668951
30
0
41
1
10
-0.297750530928937
20
8.93207375433342
30
0
41
1
10
-0.298676089823175
20
8.92733654049061
30
0
41
1
10
-0.29876587736527
20
8.92652185630655
30
0
41
1
10
-0.29876587736527
20
8.92579326695557
30
0
0
SPLINE
5
2E1
100
AcDbEntity
8
1
62
256
6
ByLayer
370
-1
48
1
60
0
100
AcDbSpline
70
4
71
3
72
12
73
8
40
0
40
0
40
0
40
0
40
0.190551749569324
40
0.190551749569324
40
0.708111499615539
40
0.708111499615539
40
1
40
1
40
1
40
1
41
1
10
10.9662233510955
20
6.89968086394015
30
0
41
1
10
11.039808380041
20
6.95107176845097
30
0
41
1
10
11.1177814719064
20
6.99174114471026
30
0
41
1
10
11.4133105314271
20
7.1060225928823
30
0
41
1
10
11.6460380697602
20
7.11958919529999
30
0
41
1
10
11.994907460097
20
7.06289978734326
30
0
41
1
10
12.1196707738734
20
7.02618329766655
30
0
41
1
10
12.2400673669409
20
6.9762474439764
30
0
0
SPLINE
5
2E2
100
AcDbEntity
8
1
62
256
6
ByLayer
370
-1
48
1
60
0
100
AcDbSpline
70
4
71
3
72
8
73
4
40
0
40
0
40
0
40
0
40
1
40
1
40
1
40
1
41
1
10
12.1553665019638
20
6.54825998758935
30
0
41
1
10
12.1836815328864
20
6.69110715772324
30
0
41
1
10
12.2119154276253
20
6.83376773905876
30
0
41
1
10
12.2400673669404
20
6.97624744397488
30
0
0
SPLINE
5
2E3
100
AcDbEntity
8
1
62
256
6
ByLayer
370
-1
48
1
60
0
100
AcDbSpline
70
4
71
3
72
8
73
4
40
0
40
0
40
0
40
0
40
1
40
1
40
1
40
1
41
1
10
14.5210156820196
20
3.48913273525167
30
0
41
1
10
14.5565927925128
20
3.48879166709361
30
0
41
1
10
14.5909413981963
20
3.48923041018979
30
0
41
1
10
14.6240933205321
20
3.49041054170867
30
0
0
SPLINE
5
2E4
100
AcDbEntity
8
1
62
256
6
ByLayer
370
-1
48
1
60
0
100
AcDbSpline
70
4
71
3
72
8
73
4
40
0
40
0
40
0
40
0
40
1
40
1
40
1
40
1
41
1
10
12.1553665019632
20
6.54825998758704
30
0
41
1
10
12.2387770651077
20
6.61331822626424
30
0
41
1
10
12.3278752278701
20
6.67209261067102
30
0
41
1
10
12.4209769255121
20
6.72345167422127
30
0
0
SPLINE
5
2E5
100
AcDbEntity
8
1
62
256
6
ByLayer
370
-1
48
1
60
0
100
AcDbSpline
70
4
71
3
72
8
73
4
40
0
40
0
40
0
40
0
40
1
40
1
40
1
40
1
41
1
10
0.346265877365283
20
7.22430884114189
30
0
41
1
10
0.230818979238649
20
7.12856717116598
30
0
41
1
10
0.115395987450626
20
7.03278705081537
30
0
41
1
10
0
20
6.93696358191075
30
0
0
SPLINE
5
2E6
100
AcDbEntity
8
1
62
256
6
ByLayer
370
-1
48
1
60
0
100
AcDbSpline
70
4
71
3
72
22
73
18
40
0
40
0
40
0
40
0
40
0.520365401161653
40
0.520365401161653
40
0.673798309858208
40
0.673798309858208
40
0.765064767860794
40
0.765064767860794
40
0.823718188680003
40
0.823718188680003
40
0.867069774090838
40
0.867069774090838
40
0.910901039671225
40
0.910901039671225
40
0.949011093965261
40
0.949011093965261
40
1
40
1
40
1
40
1
41
1
10
0.346265877365312
20
5.48298633569712
30
0
41
1
10
0.374308885467315
20
5.55792201665682
30
0
41
1
10
0.396859606667505
20
5.63501290145535
30
0
41
1
10
0.409921441382807
20
5.72810907831746
30
0
41
1
10
0.411755364407895
20
5.74928689042359
30
0
41
1
10
0.410802043563621
20
5.78053051980906
30
0
41
1
10
0.409572575216487
20
5.79177468823433
30
0
41
1
10
0.404909805141045
20
5.80775443579475
30
0
41
1
10
0.402367513938344
20
5.81346504422982
30
0
41
1
10
0.396207134594562
20
5.82103231397407
30
0
41
1
10
0.39296747790695
20
5.82353951119848
30
0
41
1
10
0.385360401535962
20
5.82621459384087
30
0
41
1
10
0.380861261823014
20
5.82635849879648
30
0
41
1
10
0.372029466484577
20
5.82432001122183
30
0
41
1
10
0.367658003075263
20
5.8224383389591
30
0
41
1
10
0.357589643325838
20
5.81659101526374
30
0
41
1
10
0.351804083507829
20
5.81209852116082
30
0
41
1
10
0.346265877365227
20
5.80707297082041
30
0
0
SPLINE
5
2E7
100
AcDbEntity
8
1
62
256
6
ByLayer
370
-1
48
1
60
0
100
AcDbSpline
70
4
71
3
72
14
73
10
40
0
40
0
40
0
40
0
40
0.0457457310756914
40
0.0457457310756914
40
0.462444733546943
40
0.462444733546943
40
0.901322514049491
40
0.901322514049491
40
1
40
1
40
1
40
1
41
1
10
15.3697971848204
20
-4.19976453363131
30
0
41
1
10
15.3660389105801
20
-4.17954332446972
30
0
41
1
10
15.36258657646
20
-4.15929039364821
30
0
41
1
10
15.3310594570588
20
-3.95635588598161
30
0
41
1
10
15.3271280662737
20
-3.77036753776926
30
0
41
1
10
15.3688276171165
20
-3.4109754172872
30
0
41
1
10
15.417914361201
20
-3.23336666564352
30
0
41
1
10
15.5138520047923
20
-3.04233545001419
30
0
41
1
10
15.5332441827053
20
-3.00780938110476
30
0
41
1
10
15.5541858634238
20
-2.9744359395507
30
0
0
SPLINE
5
2E8
100
AcDbEntity
8
1
62
256
6
ByLayer
370
-1
48
1
60
0
100
AcDbSpline
70
4
71
3
72
12
73
8
40
0
40
0
40
0
40
0
40
0.425986849208022
40
0.425986849208022
40
0.850454526175534
40
0.850454526175534
40
1
40
1
40
1
40
1
41
1
10
18.0519609742299
20
-2.9744359395507
30
0
41
1
10
18.1411380303103
20
-3.11655181406296
30
0
41
1
10
18.2025529837977
20
-3.28159819839009
30
0
41
1
10
18.2711482917516
20
-3.62878207757296
30
0
41
1
10
18.2798458557327
20
-3.81577857660939
30
0
41
1
10
18.2575763073558
20
-4.06778450347565
30
0
41
1
10
18.248576382567
20
-4.1339792174207
30
0
41
1
10
18.2363496528333
20
-4.19976453363132
30
0
0
SPLINE
5
2E9
100
AcDbEntity
8
1
62
256
6
ByLayer
370
-1
48
1
60
0
100
AcDbSpline
70
4
71
3
72
22
73
18
40
0
40
0
40
0
40
0
40
0.0027735555034376
40
0.0027735555034376
40
0.170216467002477
40
0.170216467002477
40
0.318660092878456
40
0.318660092878456
40
0.470058749394623
40
0.470058749394623
40
0.6293245526578
40
0.6293245526578
40
0.790458692490569
40
0.790458692490569
40
0.945247126372487
40
0.945247126372487
40
1
40
1
40
1
40
1
41
1
10
18.7130721540246
20
-3.25212769321222
30
0
41
1
10
18.7109472351023
20
-3.2487406987217
30
0
41
1
10
18.7088123797107
20
-3.24536188061849
30
0
41
1
10
18.5794026065288
20
-3.04199412407861
30
0
41
1
10
18.4125334937858
20
-2.86934562145832
30
0
41
1
10
18.0422623472565
20
-2.62073078685985
30
0
41
1
10
17.8406402155693
20
-2.53202490599892
30
0
41
1
10
17.4106338429365
20
-2.40964548391247
30
0
41
1
10
17.1762983456146
20
-2.37488808465083
30
0
41
1
10
16.6970746477908
20
-2.35479619313577
30
0
41
1
10
16.4455436071136
20
-2.37167279226507
30
0
41
1
10
15.9690163556785
20
-2.46284402811241
30
0
41
1
10
15.737500563537
20
-2.53971010652047
30
0
41
1
10
15.3408092597974
20
-2.755357288743
30
0
41
1
10
15.1681685569415
20
-2.8954727835518
30
0
41
1
10
14.9802933438635
20
-3.12239282240692
30
0
41
1
10
14.9347244548119
20
-3.18574043295429
30
0
41
1
10
14.8930746836291
20
-3.25212769321223
30
0
0
SPLINE
5
2EA
100
AcDbEntity
8
SK1
62
256
6
ByLayer
370
-1
48
1
60
0
100
AcDbSpline
70
4
71
3
72
16
73
12
40
0
40
0
40
0
40
0
40
0.269820669798825
40
0.269820669798825
40
0.516025557720977
40
0.516025557720977
40
0.723832295143951
40
0.723832295143951
40
0.932230046230304
40
0.932230046230304
40
1
40
1
40
1
40
1
41
1
10
-0.238765877365239
20
-7.09713426540741
30
0
41
1
10
-0.247099545411828
20
-7.10447118373975
30
0
41
1
10
-0.255306357142416
20
-7.11133217019402
30
0
41
1
10
-0.269795426662256
20
-7.12245741015384
30
0
41
1
10
-0.276317546519721
20
-7.12698676369875
30
0
41
1
10
-0.286368272707762
20
-7.13269168121711
30
0
41
1
10
-0.290294585507866
20
-7.13431700770906
30
0
41
1
10
-0.29595811681358
20
-7.13502994939573
30
0
41
1
10
-0.297756206946787
20
-7.13411237197434
30
0
41
1
10
-0.298657395156738
20
-7.13139550209161
30
0
41
1
10
-0.29876587736527
20
-7.13060303902857
30
0
41
1
10
-0.29876587736527
20
-7.12970301028638
30
0
0
SPLINE
5
2EB
100
AcDbEntity
8
SK1
62
256
6
ByLayer
370
-1
48
1
60
0
100
AcDbSpline
70
4
71
3
72
16
73
12
40
0
40
0
40
0
40
0
40
0.127286856531041
40
0.127286856531041
40
0.338847628940971
40
0.338847628940971
40
0.538759136331363
40
0.538759136331363
40
0.810563745320334
40
0.810563745320334
40
1
40
1
40
1
40
1
41
1
10
-0.29876587736527
20
7.12970301028638
30
0
41
1
10
-0.29876587736527
20
7.13138124581651
30
0
41
1
10
-0.298384654221167
20
7.13268597692468
30
0
41
1
10
-0.296286039552115
20
7.13495346091609
30
0
41
1
10
-0.293786378254112
20
7.13512041036445
30
0
41
1
10
-0.287014498482279
20
7.13299171270258
30
0
41
1
10
-0.28277867694004
20
7.13082051552931
30
0
41
1
10
-0.271545381680284
20
7.12377776555047
30
0
41
1
10
-0.263944034663297
20
7.11813873307712
30
0
41
1
10
-0.250449422667287
20
7.10723936126651
30
0
41
1
10
-0.244647828482272
20
7.10231270480992
30
0
41
1
10
-0.238765877365211
20
7.09713426540735
30
0
0
SPLINE
5
2EC
100
AcDbEntity
8
1
62
256
6
ByLayer
370
-1
48
1
60
0
100
AcDbSpline
70
4
71
3
72
22
73
18
40
0
40
0
40
0
40
0
40
0.0522868653684165
40
0.0522868653684165
40
0.129907668764905
40
0.129907668764905
40
0.19778170914881
40
0.19778170914881
40
0.254970474409918
40
0.254970474409918
40
0.345082918211359
40
0.345082918211359
40
0.497390196442806
40
0.497390196442806
40
0.785009256844537
40
0.785009256844537
40
1
40
1
40
1
40
1
41
1
10
0.346265877365227
20
7.2243088411423
30
0
41
1
10
0.351127825297169
20
7.22834092014914
30
0
41
1
10
0.356059319147874
20
7.23203623678832
30
0
41
1
10
0.368097139955779
20
7.23978746212409
30
0
41
1
10
0.37532989621775
20
7.24325804467587
30
0
41
1
10
0.387321095464472
20
7.24600754076566
30
0
41
1
10
0.392424117704252
20
7.24575678518222
30
0
41
1
10
0.399915010898212
20
7.24256064980494
30
0
41
1
10
0.402708099088102
20
7.24003589829317
30
0
41
1
10
0.408171874177867
20
7.2317598745494
30
0
41
1
10
0.409999485704077
20
7.22490467563165
30
0
41
1
10
0.412107914161908
20
7.20456968415458
30
0
41
1
10
0.410634262535552
20
7.18942926012251
30
0
41
1
10
0.402368071874349
20
7.1443750337386
30
0
41
1
10
0.391930777927996
20
7.11211346851042
30
0
41
1
10
0.369625503758016
20
7.05571843931193
30
0
41
1
10
0.35854149292274
20
7.03115824860559
30
0
41
1
10
0.346265877365255
20
7.00675370008618
30
0
0
SPLINE
5
2ED
100
AcDbEntity
8
SK1
62
256
6
ByLayer
370
-1
48
1
60
0
100
AcDbSpline
70
4
71
3
72
10
73
6
40
0
40
0
40
0
40
0
40
0.731940636141082
40
0.731940636141082
40
1
40
1
40
1
40
1
41
1
10
-0.238765877365466
20
5.7466548030756
30
0
41
1
10
-0.263423356110678
20
5.68855902380193
30
0
41
1
10
-0.282677309059238
20
5.62872913815445
30
0
41
1
10
-0.296344486836801
20
5.55142348442267
30
0
41
1
10
-0.298765877364417
20
5.53076728620323
30
0
41
1
10
-0.29876587736527
20
5.51153694755729
30
0
0
SPLINE
5
2EE
100
AcDbEntity
8
1
62
256
6
ByLayer
370
-1
48
1
60
0
100
AcDbSpline
70
4
71
3
72
8
73
4
40
0
40
0
40
0
40
0
40
1
40
1
40
1
40
1
41
1
10
0.346265877365255
20
7.00675370008618
30
0
41
1
10
0.226903980166355
20
6.7694561733003
30
0
41
1
10
0.111283755722639
20
6.52958244299808
30
0
41
1
10
0
20
6.28710694491161
30
0
0
SPLINE
5
2EF
100
AcDbEntity
8
1
62
256
6
ByLayer
370
-1
48
1
60
0
100
AcDbSpline
70
4
71
3
72
8
73
4
40
0
40
0
40
0
40
0
40
1
40
1
40
1
40
1
41
1
10
0.346265877365255
20
-8.06232321790073
30
0
41
1
10
0.228638070256039
20
-7.86961954854873
30
0
41
1
10
0.113114188983815
20
-7.67517488903941
30
0
41
1
10
0
20
-7.47890123860155
30
0
0
SPLINE
5
2F0
100
AcDbEntity
8
SK1
62
256
6
ByLayer
370
-1
48
1
60
0
100
AcDbSpline
70
4
71
3
72
18
73
14
40
0
40
0
40
0
40
0
40
0.270604300132313
40
0.270604300132313
40
0.510312460944905
40
0.510312460944905
40
0.625651945104064
40
0.625651945104064
40
0.74218522098663
40
0.74218522098663
40
0.848054696842956
40
0.848054696842956
40
1
40
1
40
1
40
1
41
1
10
-0.298765877396136
20
5.31556932836955
30
0
41
1
10
-0.298765877397727
20
5.30425747111964
30
0
41
1
10
-0.298011091617497
20
5.29326202084616
30
0
41
1
10
-0.294074726888823
20
5.27462349067061
30
0
41
1
10
-0.291113492730375
20
5.26648237226347
30
0
41
1
10
-0.283948500961856
20
5.25813819040775
30
0
41
1
10
-0.281101189130965
20
5.25599177026471
30
0
41
1
10
-0.274497944687454
20
5.25361039535066
30
0
41
1
10
-0.270636841264491
20
5.25339293560698
30
0
41
1
10
-0.262906047355273
20
5.25495664373227
30
0
41
1
10
-0.258988072339292
20
5.25655714075677
30
0
41
1
10
-0.249598625557127
20
5.26186563878005
30
0
41
1
10
-0.244044793200487
20
5.26622204158915
30
0
41
1
10
-0.238765877365267
20
5.2711087764166
30
0
0
SPLINE
5
2F1
100
AcDbEntity
8
1
62
256
6
ByLayer
370
-1
48
1
60
0
100
AcDbSpline
70
4
71
3
72
22
73
18
40
0
40
0
40
0
40
0
40
0.385887467218598
40
0.385887467218598
40
0.517497598811189
40
0.517497598811189
40
0.686152798064797
40
0.686152798064797
40
0.756321027477076
40
0.756321027477076
40
0.827553887042486
40
0.827553887042486
40
0.890375162635672
40
0.890375162635672
40
0.947790357458872
40
0.947790357458872
40
1
40
1
40
1
40
1
41
1
10
0.346265877365255
20
-7.00675370008618
30
0
41
1
10
0.368106327281168
20
-7.05017362613093
30
0
41
1
10
0.386555974363091
20
-7.09452254472293
30
0
41
1
10
0.402842677510534
20
-7.1504736570845
30
0
41
1
10
0.406269095878883
20
-7.16461986539329
30
0
41
1
10
0.411369834071223
20
-7.19516171581894
30
0
41
1
10
0.412462715799535
20
-7.21169303418037
30
0
41
1
10
0.408458019177658
20
-7.23001457545081
30
0
41
1
10
0.406522219036503
20
-7.23484463259574
30
0
41
1
10
0.400714680162366
20
-7.24213782248526
30
0
41
1
10
0.396694830601007
20
-7.24461972311263
30
0
41
1
10
0.387408997663471
20
-7.24595537664902
30
0
41
1
10
0.382222079067219
20
-7.24520679189133
30
0
41
1
10
0.371719265658953
20
-7.24146508962953
30
0
41
1
10
0.366343594614534
20
-7.23865477706893
30
0
41
1
10
0.356089888498985
20
-7.23205913467019
30
0
41
1
10
0.351142829361066
20
-7.22835336322174
30
0
41
1
10
0.346265877365227
20
-7.22430884114232
30
0
0
SPLINE
5
2F2
100
AcDbEntity
8
SK1
62
256
6
ByLayer
370
-1
48
1
60
0
100
AcDbSpline
70
4
71
3
72
16
73
12
40
0
40
0
40
0
40
0
40
0.133190349063452
40
0.133190349063452
40
0.350367308474245
40
0.350367308474245
40
0.55613190588252
40
0.55613190588252
40
0.832021518222635
40
0.832021518222635
40
1
40
1
40
1
40
1
41
1
10
-0.29876587736527
20
8.88608639192019
30
0
41
1
10
-0.29876587736527
20
8.88442449103728
30
0
41
1
10
-0.298347248148303
20
8.88314964606109
30
0
41
1
10
-0.296079936844848
20
8.88102893250792
30
0
41
1
10
-0.293428828366984
20
8.88095947062396
30
0
41
1
10
-0.286285663373036
20
8.88328369493119
30
0
41
1
10
-0.281823838536297
20
8.88556332766224
30
0
41
1
10
-0.270121536024135
20
8.89284522452715
30
0
41
1
10
-0.262287924642862
20
8.89859355040539
30
0
41
1
10
-0.249157832215133
20
8.90912729787188
30
0
41
1
10
-0.243992477920187
20
8.91346794158353
30
0
41
1
10
-0.238765877365211
20
8.91801952773797
30
0
0
SPLINE
5
2F3
100
AcDbEntity
8
1
62
256
6
ByLayer
370
-1
48
1
60
0
100
AcDbSpline
70
4
71
3
72
22
73
18
40
0
40
0
40
0
40
0
40
0.281404885340831
40
0.281404885340831
40
0.444609845640601
40
0.444609845640601
40
0.571908062227071
40
0.571908062227071
40
0.66616393164013
40
0.66616393164013
40
0.761310749974021
40
0.761310749974021
40
0.845171690266008
40
0.845171690266008
40
0.956886472785664
40
0.956886472785664
40
1
40
1
40
1
40
1
41
1
10
0.346265877365283
20
-8.81943954716688
30
0
41
1
10
0.363219376038558
20
-8.84344201223833
30
0
41
1
10
0.378521901611379
20
-8.8676040794865
30
0
41
1
10
0.397172354124564
20
-8.90281532837017
30
0
41
1
10
0.402952530916764
20
-8.91537094038944
30
0
41
1
10
0.409659439004514
20
-8.93504895732355
30
0
41
1
10
0.411410409611449
20
-8.94292161370036
30
0
41
1
10
0.411142179261901
20
-8.95349591288007
30
0
41
1
10
0.409948272848595
20
-8.95707725357654
30
0
41
1
10
0.405013721701153
20
-8.96129991475392
30
0
41
1
10
0.401151115741072
20
-8.96194037202142
30
0
41
1
10
0.391902455894297
20
-8.96011649753679
30
0
41
1
10
0.386651798210721
20
-8.9580051844015
30
0
41
1
10
0.373441992273115
20
-8.95092453250057
30
0
41
1
10
0.364971803635712
20
-8.94516770131231
30
0
41
1
10
0.353047667152225
20
-8.9359858002356
30
0
41
1
10
0.349663506665507
20
-8.93326646297943
30
0
41
1
10
0.346265877365283
20
-8.93043793549572
30
0
0
SPLINE
5
2F4
100
AcDbEntity
8
1
62
256
6
ByLayer
370
-1
48
1
60
0
100
AcDbSpline
70
4
71
3
72
22
73
18
40
0
40
0
40
0
40
0
40
0.0957858854401958
40
0.0957858854401958
40
0.193822980567434
40
0.193822980567434
40
0.292972686763501
40
0.292972686763501
40
0.377541440927562
40
0.377541440927562
40
0.487005376362619
40
0.487005376362619
40
0.645393143707146
40
0.645393143707146
40
0.891116707220944
40
0.891116707220944
40
1
40
1
40
1
40
1
41
1
10
0.346265877365283
20
8.9304379354958
30
0
41
1
10
0.35374958338187
20
8.9366681231583
30
0
41
1
10
0.361211909560524
20
8.94240236127087
30
0
41
1
10
0.375515454162127
20
8.9520949427252
30
0
41
1
10
0.382482103879767
20
8.95608657251921
30
0
41
1
10
0.394534754686902
20
8.96101522880333
30
0
41
1
10
0.399752880631439
20
8.96194920465635
30
0
41
1
10
0.406684598298284
20
8.96040713879732
30
0
41
1
10
0.408895372606281
20
8.95840692505327
30
0
41
1
10
0.411639731476384
20
8.95158446567343
30
0
41
1
10
0.411572255415081
20
8.94603840458693
30
0
41
1
10
0.408567083168151
20
8.93037532404908
30
0
41
1
10
0.404387275613914
20
8.91909055531218
30
0
41
1
10
0.390427849930177
20
8.88873716652377
30
0
41
1
10
0.378608972100068
20
8.86818540398905
30
0
41
1
10
0.359251422224332
20
8.83821157509573
30
0
41
1
10
0.352902469198057
20
8.828835517092
30
0
41
1
10
0.346265877365255
20
8.81943954716688
30
0
0
SPLINE
5
2F5
100
AcDbEntity
8
SK1
62
256
6
ByLayer
370
-1
48
1
60
0
100
AcDbSpline
70
4
71
3
72
14
73
10
40
0
40
0
40
0
40
0
40
0.161387783822559
40
0.161387783822559
40
0.389071307437911
40
0.389071307437911
40
0.759875824207078
40
0.759875824207078
40
1
40
1
40
1
40
1
41
1
10
-0.29876587736544
20
-8.92579326695532
30
0
41
1
10
-0.298765877365412
20
-8.92798971896875
30
0
41
1
10
-0.297938898734088
20
-8.93098653153565
30
0
41
1
10
-0.294365611123141
20
-8.93952421488792
30
0
41
1
10
-0.290935196705419
20
-8.9456923930984
30
0
41
1
10
-0.27977335938823
20
-8.96333200434322
30
0
41
1
10
-0.27053750310634
20
-8.97600007033287
30
0
41
1
10
-0.25356094567033
20
-8.99763357573343
30
0
41
1
10
-0.246328115637795
20
-9.00647075743417
30
0
41
1
10
-0.238765877365267
20
-9.0154066387165
30
0
0
SPLINE
5
2F6
100
AcDbEntity
8
SK1
62
256
6
ByLayer
370
-1
48
1
60
0
100
AcDbSpline
70
4
71
3
72
12
73
8
40
0
40
0
40
0
40
0
40
0.492218779491339
40
0.492218779491339
40
0.828190816756647
40
0.828190816756647
40
1
40
1
40
1
40
1
41
1
10
-0.238765877365296
20
-6.4298870533332
30
0
41
1
10
-0.254301844978301
20
-6.460770937595
30
0
41
1
10
-0.268055345631069
20
-6.49193510729231
30
0
41
1
10
-0.28623072042609
20
-6.54230010338232
30
0
41
1
10
-0.292351516127923
20
-6.56250417364383
30
0
41
1
10
-0.297653390182688
20
-6.59043364969541
30
0
41
1
10
-0.298765877387325
20
-6.59951814348875
30
0
41
1
10
-0.298765877388689
20
-6.60766390353172
30
0
0
SPLINE
5
2F7
100
AcDbEntity
8
SK1
62
256
6
ByLayer
370
-1
48
1
60
0
100
AcDbSpline
70
4
71
3
72
18
73
14
40
0
40
0
40
0
40
0
40
0.238193175604398
40
0.238193175604398
40
0.410492059492909
40
0.410492059492909
40
0.58585787619024
40
0.58585787619024
40
0.735379913067237
40
0.735379913067237
40
0.866923743695241
40
0.866923743695241
40
1
40
1
40
1
40
1
41
1
10
-0.298765877388576
20
-6.30426194438107
30
0
41
1
10
-0.298765877389599
20
-6.31303927018307
30
0
41
1
10
-0.298096915440766
20
-6.32142173261423
30
0
41
1
10
-0.295019644218144
20
-6.33404083082307
30
0
41
1
10
-0.293101095745243
20
-6.33885041622913
30
0
41
1
10
-0.287570709223416
20
-6.34634524138977
30
0
41
1
10
-0.283807489810585
20
-6.34905521136444
30
0
41
1
10
-0.275296216702003
20
-6.35084696023117
30
0
41
1
10
-0.270655317535358
20
-6.35040796014836
30
0
41
1
10
-0.26150622690605
20
-6.34743476492673
30
0
41
1
10
-0.256952377813718
20
-6.34515006894065
30
0
41
1
10
-0.247867835256954
20
-6.33941802742366
30
0
41
1
10
-0.243265874844013
20
-6.33592785820632
30
0
41
1
10
-0.238765877363022
20
-6.33209089757818
30
0
0
SPLINE
5
2F8
100
AcDbEntity
8
SK1
62
256
6
ByLayer
370
-1
48
1
60
0
100
AcDbSpline
70
4
71
3
72
18
73
14
40
0
40
0
40
0
40
0
40
0.149234550160625
40
0.149234550160625
40
0.35427196023404
40
0.35427196023404
40
0.561414593717225
40
0.561414593717225
40
0.74024996381439
40
0.74024996381439
40
0.990525504624437
40
0.990525504624437
40
1
40
1
40
1
40
1
41
1
10
-0.298765877365725
20
7.73685364504104
30
0
41
1
10
-0.298765877365725
20
7.73317328739159
30
0
41
1
10
-0.298369723957251
20
7.72979879662391
30
0
41
1
10
-0.296278790152911
20
7.72294444357497
30
0
41
1
10
-0.294102122948942
20
7.71983408295007
30
0
41
1
10
-0.287637459962497
20
7.71636511249898
30
0
41
1
10
-0.283209268984734
20
7.71601953656663
30
0
41
1
10
-0.273562892899804
20
7.71814812362949
30
0
41
1
10
-0.268432031353342
20
7.72025072688
30
0
41
1
10
-0.25564647355418
20
7.72719287155697
30
0
41
1
10
-0.247606875218907
20
7.73285859083502
30
0
41
1
10
-0.239373231327676
20
7.73951989287633
30
0
41
1
10
-0.239069566257655
20
7.73976677281513
30
0
41
1
10
-0.238765877365267
20
7.74001485883363
30
0
0
SPLINE
5
2F9
100
AcDbEntity
8
1
62
256
6
ByLayer
370
-1
48
1
60
0
100
AcDbSpline
70
4
71
3
72
22
73
18
40
0
40
0
40
0
40
0
40
0.117554634631114
40
0.117554634631114
40
0.228324476741858
40
0.228324476741858
40
0.340472938993605
40
0.340472938993605
40
0.434992734694581
40
0.434992734694581
40
0.529238231662755
40
0.529238231662755
40
0.677405557613701
40
0.677405557613701
40
0.894914228321958
40
0.894914228321958
40
1
40
1
40
1
40
1
41
1
10
0.346265877365283
20
-9.42582959020115
30
0
41
1
10
0.354940799231826
20
-9.43333610127554
30
0
41
1
10
0.363511236420038
20
-9.44032129851469
30
0
41
1
10
0.3789665940117
20
-9.45177438025236
30
0
41
1
10
0.386066921177445
20
-9.45645772131638
30
0
41
1
10
0.398033327810168
20
-9.46273985735004
30
0
41
1
10
0.403023102915171
20
-9.46435183525999
30
0
41
1
10
0.409048887919994
20
-9.46379149135282
30
0
41
1
10
0.410663773993889
20
-9.46217320433418
30
0
41
1
10
0.411579252484529
20
-9.45673794524957
30
0
41
1
10
0.410917264597089
20
-9.45288634117937
30
0
41
1
10
0.407018941698936
20
-9.4412040732373
30
0
41
1
10
0.402514278841835
20
-9.43219669713854
30
0
41
1
10
0.388510328122322
20
-9.40822815472089
30
0
41
1
10
0.377445429293601
20
-9.39201084047539
30
0
41
1
10
0.359180579028589
20
-9.36738918002447
30
0
41
1
10
0.352848382163785
20
-9.3591625380619
30
0
41
1
10
0.346265877365255
20
-9.35088082387756
30
0
0
SPLINE
5
2FA
100
AcDbEntity
8
SK1
62
256
6
ByLayer
370
-1
48
1
60
0
100
AcDbSpline
70
4
71
3
72
14
73
10
40
0
40
0
40
0
40
0
40
0.148030712520059
40
0.148030712520059
40
0.36334577483943
40
0.36334577483943
40
0.698420927257358
40
0.698420927257358
40
1
40
1
40
1
40
1
41
1
10
-0.298765877365298
20
-7.20288531101458
30
0
41
1
10
-0.298765877365298
20
-7.20154078900649
30
0
41
1
10
-0.298071316672349
20
-7.1994720675626
30
0
41
1
10
-0.294954407394101
20
-7.19305122059228
30
0
41
1
10
-0.29185597937709
20
-7.18801808959786
30
0
41
1
10
-0.281969816423271
20
-7.17352959657731
30
0
41
1
10
-0.273958719403936
20
-7.16294839215024
30
0
41
1
10
-0.257030380123695
20
-7.14179685400556
30
0
41
1
10
-0.248123226889902
20
-7.13112914810668
30
0
41
1
10
-0.238765877365267
20
-7.12029111935611
30
0
0
SPLINE
5
2FB
100
AcDbEntity
8
1
62
256
6
ByLayer
370
-1
48
1
60
0
100
AcDbSpline
70
4
71
3
72
8
73
4
40
0
40
0
40
0
40
0
40
1
40
1
40
1
40
1
41
1
10
0.346265877365283
20
3.48260746347631
30
0
41
1
10
0.227861665404646
20
3.32798666637112
30
0
41
1
10
0.112090786506513
20
3.17058398901246
30
0
41
1
10
-6.821E-13
20
3.0098112460353
30
0
0
SPLINE
5
2FC
100
AcDbEntity
8
1
62
256
6
ByLayer
370
-1
48
1
60
0
100
AcDbSpline
70
4
71
3
72
24
73
20
40
0
40
0
40
0
40
0
40
0.0261725466174372
40
0.0261725466174372
40
0.0420418607292793
40
0.0420418607292793
40
0.0581487411266713
40
0.0581487411266713
40
0.0724210504784483
40
0.0724210504784483
40
0.0919136347390623
40
0.0919136347390623
40
0.127002284808293
40
0.127002284808293
40
0.237075673386115
40
0.237075673386115
40
0.679215515441669
40
0.679215515441669
40
1
40
1
40
1
40
1
41
1
10
0.346265877365283
20
3.4826074634763
30
0
41
1
10
0.350252778104476
20
3.48781384727016
30
0
41
1
10
0.35455854811957
20
3.49270442894792
30
0
41
1
10
0.361981807904044
20
3.49900967398801
30
0
41
1
10
0.364961488404248
20
3.50105728731182
30
0
41
1
10
0.370996768440051
20
3.50383644837525
30
0
41
1
10
0.374133383601134
20
3.50455434089548
30
0
41
1
10
0.379625855244484
20
3.50425342375399
30
0
41
1
10
0.382092694991087
20
3.50342536776203
30
0
41
1
10
0.387262130113925
20
3.50026287388262
30
0
41
1
10
0.389823946049574
20
3.49747922010363
30
0
41
1
10
0.395857478194614
20
3.48852952427703
30
0
41
1
10
0.398636471399641
20
3.48133088484866
30
0
41
1
10
0.407655132396201
20
3.45044843312674
30
0
41
1
10
0.409704349168152
20
3.42327453551049
30
0
41
1
10
0.414729206874227
20
3.28851712566025
30
0
41
1
10
0.401150827036787
20
3.1734560928038
30
0
41
1
10
0.374813893951284
20
2.97758302316051
30
0
41
1
10
0.361409668626891
20
2.89467642652336
30
0
41
1
10
0.346265877365255
20
2.81188209233805
30
0
0
SPLINE
5
2FD
100
AcDbEntity
8
SK1
62
256
6
ByLayer
370
-1
48
1
60
0
100
AcDbSpline
70
4
71
3
72
12
73
8
40
0
40
0
40
0
40
0
40
0.222883735629632
40
0.222883735629632
40
0.701373764485756
40
0.701373764485756
40
1
40
1
40
1
40
1
41
1
10
-0.29876587736527
20
6.88387434548127
30
0
41
1
10
-0.298765877364246
20
6.89442748338347
30
0
41
1
10
-0.297073926756724
20
6.9062458369834
30
0
41
1
10
-0.288632183373807
20
6.94453073809656
30
0
41
1
10
-0.278264684391019
20
6.97301623972979
30
0
41
1
10
-0.257631269437496
20
7.01920695031448
30
0
41
1
10
-0.248622870842553
20
7.03722570762102
30
0
41
1
10
-0.238765877365267
20
7.0551343208076
30
0
0
SPLINE
5
2FE
100
AcDbEntity
8
SK1
62
256
6
ByLayer
370
-1
48
1
60
0
100
AcDbSpline
70
4
71
3
72
12
73
8
40
0
40
0
40
0
40
0
40
0.193747349524881
40
0.193747349524881
40
0.571217238234697
40
0.571217238234697
40
1
40
1
40
1
40
1
41
1
10
-0.298765877375047
20
-7.82773354709104
30
0
41
1
10
-0.298765877373938
20
-7.83409694041856
30
0
41
1
10
-0.297493074892117
20
-7.84154715932689
30
0
41
1
10
-0.291285940341112
20
-7.86484419928834
30
0
41
1
10
-0.28398953009372
20
-7.88233819047856
30
0
41
1
10
-0.265005135426833
20
-7.9203398730088
30
0
41
1
10
-0.252578372964081
20
-7.94147825630679
30
0
41
1
10
-0.238765877365267
20
-7.96246187705553
30
0
0
SPLINE
5
2FF
100
AcDbEntity
8
1
62
256
6
ByLayer
370
-1
48
1
60
0
100
AcDbSpline
70
4
71
3
72
22
73
18
40
0
40
0
40
0
40
0
40
0.244334574021793
40
0.244334574021793
40
0.403041325914133
40
0.403041325914133
40
0.526673785878865
40
0.526673785878865
40
0.625135686707052
40
0.625135686707052
40
0.724158048704945
40
0.724158048704945
40
0.815737396228814
40
0.815737396228814
40
0.943377832436039
40
0.943377832436039
40
1
40
1
40
1
40
1
41
1
10
0.346265877365283
20
9.35088082387756
30
0
41
1
10
0.361394955434207
20
9.36991532583001
30
0
41
1
10
0.375368853216685
20
9.38886392128113
30
0
41
1
10
0.394028378820764
20
9.4173650172085
30
0
41
1
10
0.400383589544418
20
9.42811189213121
30
0
41
1
10
0.408250052675726
20
9.4444629273066
30
0
41
1
10
0.410567949854055
20
9.45081137595045
30
0
41
1
10
0.411579050432863
20
9.45920523712297
30
0
41
1
10
0.410895510331585
20
9.46192070168549
30
0
41
1
10
0.406945266905126
20
9.4644897911384
30
0
41
1
10
0.403595238661438
20
9.46434422004985
30
0
41
1
10
0.395127367704674
20
9.46136733355918
30
0
41
1
10
0.390075440830799
20
9.45872126061525
30
0
41
1
10
0.376794624576689
20
9.45036054106465
30
0
41
1
10
0.367904296533482
20
9.44375093136927
30
0
41
1
10
0.354663455997326
20
9.43299483251332
30
0
41
1
10
0.350483553190429
20
9.42947919428711
30
0
41
1
10
0.346265877365255
20
9.42582959020112
30
0
0
SPLINE
5
300
100
AcDbEntity
8
SK1
62
256
6
ByLayer
370
-1
48
1
60
0
100
AcDbSpline
70
4
71
3
72
18
73
14
40
0
40
0
40
0
40
0
40
0.196104372569541
40
0.196104372569541
40
0.391509340616299
40
0.391509340616299
40
0.550456904247622
40
0.550456904247622
40
0.710178954598913
40
0.710178954598913
40
0.86049824416843
40
0.86049824416843
40
1
40
1
40
1
40
1
41
1
10
-0.298765877369135
20
-6.75422762459267
30
0
41
1
10
-0.298765877369277
20
-6.74800246612905
30
0
41
1
10
-0.298215968569423
20
-6.74212478608619
30
0
41
1
10
-0.295573635836831
20
-6.73183926240444
30
0
41
1
10
-0.293442000797654
20
-6.72734902413764
30
0
41
1
10
-0.287740526051636
20
-6.72160546421217
30
0
41
1
10
-0.284436898398525
20
-6.71987766673439
30
0
41
1
10
-0.27660799930112
20
-6.71877384748676
30
0
41
1
10
-0.271972568257098
20
-6.71940788901675
30
0
41
1
10
-0.26245719303347
20
-6.72269637463022
30
0
41
1
10
-0.257509604861753
20
-6.72524380453503
30
0
41
1
10
-0.247984497324325
20
-6.73132102412875
30
0
41
1
10
-0.243339582514807
20
-6.73479672243535
30
0
41
1
10
-0.238765877364045
20
-6.73859843542414
30
0
0
SPLINE
5
301
100
AcDbEntity
8
1
62
256
6
ByLayer
370
-1
48
1
60
0
100
AcDbSpline
70
4
71
3
72
22
73
18
40
0
40
0
40
0
40
0
40
0.0741271038427016
40
0.0741271038427016
40
0.157753252988999
40
0.157753252988999
40
0.242285190848887
40
0.242285190848887
40
0.314730927239954
40
0.314730927239954
40
0.415508938747247
40
0.415508938747247
40
0.570395660126731
40
0.570395660126731
40
0.830176280435035
40
0.830176280435035
40
1
40
1
40
1
40
1
41
1
10
0.346265877365283
20
-8.21791822641073
30
0
41
1
10
0.352497066966294
20
-8.22300824802761
30
0
41
1
10
0.358765021220961
20
-8.22766309485097
30
0
41
1
10
0.371650577920292
20
-8.23592517676666
30
0
41
1
10
0.378350445802397
20
-8.23938916019894
30
0
41
1
10
0.390259204935006
20
-8.24333141919473
30
0
41
1
10
0.39560466226763
20
-8.24379483398985
30
0
41
1
10
0.403227557277631
20
-8.24161332412888
30
0
41
1
10
0.405937812254479
20
-8.23939641038056
30
0
41
1
10
0.4103514326099
20
-8.23203275590579
30
0
41
1
10
0.411365482103065
20
-8.22600799993337
30
0
41
1
10
0.411093466975416
20
-8.20868984687294
30
0
41
1
10
0.408379415804603
20
-8.19603442645088
30
0
41
1
10
0.397475529874299
20
-8.16064742656421
30
0
41
1
10
0.386672539307426
20
-8.13610324692912
30
0
41
1
10
0.365616005701639
20
-8.09525023407276
30
0
41
1
10
0.356301725509582
20
-8.07876443881608
30
0
41
1
10
0.346265877365255
20
-8.06232321790073
30
0
0
SPLINE
5
302
100
AcDbEntity
8
1
62
256
6
ByLayer
370
-1
48
1
60
0
100
AcDbSpline
70
4
71
3
72
8
73
4
40
0
40
0
40
0
40
0
40
1
40
1
40
1
40
1
41
1
10
0.346265877365255
20
-5.80707297082022
30
0
41
1
10
0.230603518425141
20
-5.70211714354039
30
0
41
1
10
0.115167945231576
20
-5.5968269252575
30
0
41
1
10
2.84E-14
20
-5.49114867188607
30
0
0
SPLINE
5
303
100
AcDbEntity
8
1
62
256
6
ByLayer
370
-1
48
1
60
0
100
AcDbSpline
70
4
71
3
72
22
73
18
40
0
40
0
40
0
40
0
40
0.330352717375715
40
0.330352717375715
40
0.488198779320886
40
0.488198779320886
40
0.622683034897012
40
0.622683034897012
40
0.709006952364878
40
0.709006952364878
40
0.796507204111328
40
0.796507204111328
40
0.87078216231221
40
0.87078216231221
40
0.963684352230719
40
0.963684352230719
40
1
40
1
40
1
40
1
41
1
10
0.346265877365283
20
8.06232321790073
30
0
41
1
10
0.365599890139663
20
8.0939971502513
30
0
41
1
10
0.382531913858656
20
8.12618534584314
30
0
41
1
10
0.400499251085705
20
8.17042800166401
30
0
41
1
10
0.405289225552735
20
8.18449118433912
30
0
41
1
10
0.410731064394071
20
8.20816416205304
30
0
41
1
10
0.411932024046337
20
8.21834999367677
30
0
41
1
10
0.41022214414923
20
8.23164174296134
30
0
41
1
10
0.408578597066281
20
8.23605082635518
30
0
41
1
10
0.402886212510708
20
8.24199192345037
30
0
41
1
10
0.398679678372218
20
8.24352328751947
30
0
41
1
10
0.388989224087226
20
8.2429976186756
30
0
41
1
10
0.38368239683777
20
8.24145052141424
30
0
41
1
10
0.370986149140038
20
8.2356664509222
30
0
41
1
10
0.36322875770432
20
8.23080651169765
30
0
41
1
10
0.35242200316236
20
8.22283404371203
30
0
41
1
10
0.34934299964965
20
8.22043181048491
30
0
41
1
10
0.346265877365255
20
8.21791822641056
30
0
0
SPLINE
5
304
100
AcDbEntity
8
SK1
62
256
6
ByLayer
370
-1
48
1
60
0
100
AcDbSpline
70
4
71
3
72
18
73
14
40
0
40
0
40
0
40
0
40
0.113079528889609
40
0.113079528889609
40
0.290372183526482
40
0.290372183526482
40
0.422297371450216
40
0.422297371450216
40
0.55378239132405
40
0.55378239132405
40
0.745318354177895
40
0.745318354177895
40
1
40
1
40
1
40
1
41
1
10
-0.238765877363136
20
6.33209089757752
30
0
41
1
10
-0.24259109452575
20
6.33535250110259
30
0
41
1
10
-0.246484861870187
20
6.33835967825951
30
0
41
1
10
-0.25640756280464
20
6.34499491912489
30
0
41
1
10
-0.262583749982213
20
6.34810235627761
30
0
41
1
10
-0.272402265986216
20
6.35059078245494
30
0
41
1
10
-0.276382161659313
20
6.35072553197617
30
0
41
1
10
-0.28321557114478
20
6.34905306646031
30
0
41
1
10
-0.286156391883509
20
6.34724562130249
30
0
41
1
10
-0.291976955705707
20
6.34113540803743
30
0
41
1
10
-0.29435334669455
20
6.33601940961283
30
0
41
1
10
-0.298002603741196
20
6.32260615636017
30
0
41
1
10
-0.298765877368652
20
6.3136524641108
30
0
41
1
10
-0.29876587736851
20
6.30426194436697
30
0
0
SPLINE
5
305
100
AcDbEntity
8
SK1
62
256
6
ByLayer
370
-1
48
1
60
0
100
AcDbSpline
70
4
71
3
72
8
73
4
40
0
40
0
40
0
40
0
40
1
40
1
40
1
40
1
41
1
10
-0.238765877365267
20
5.27110877641661
30
0
41
1
10
-0.159316196580761
20
5.34465598463902
30
0
41
1
10
-0.0797221012727505
20
5.41799557012094
30
0
41
1
10
0
20
5.49114867188607
30
0
0
SPLINE
5
306
100
AcDbEntity
8
SK1
62
256
6
ByLayer
370
-1
48
1
60
0
100
AcDbSpline
70
4
71
3
72
12
73
8
40
0
40
0
40
0
40
0
40
0.524283279702734
40
0.524283279702734
40
0.826163592222379
40
0.826163592222379
40
1
40
1
40
1
40
1
41
1
10
-0.238765877365267
20
7.96246187705553
30
0
41
1
10
-0.255586902874796
20
7.93690776792499
30
0
41
1
10
-0.270440147539091
20
7.9110106237481
30
0
41
1
10
-0.287804687824206
20
7.87290439272695
30
0
41
1
10
-0.292981601374095
20
7.85925751303655
30
0
41
1
10
-0.297735446148323
20
7.84005876950428
30
0
41
1
10
-0.298765877370272
20
7.83345632972596
30
0
41
1
10
-0.298765877371068
20
7.82773354709414
30
0
0
SPLINE
5
307
100
AcDbEntity
8
1
62
256
6
ByLayer
370
-1
48
1
60
0
100
AcDbSpline
70
4
71
3
72
8
73
4
40
0
40
0
40
0
40
0
40
1
40
1
40
1
40
1
41
1
10
0
20
5.49114867188607
30
0
41
1
10
0.115167945231576
20
5.5968269252575
30
0
41
1
10
0.230603518425141
20
5.70211714354039
30
0
41
1
10
0.346265877365255
20
5.80707297082022
30
0
0
SPLINE
5
308
100
AcDbEntity
8
SK1
62
256
6
ByLayer
370
-1
48
1
60
0
100
AcDbSpline
70
4
71
3
72
16
73
12
40
0
40
0
40
0
40
0
40
0.22476906486106
40
0.22476906486106
40
0.453956889490732
40
0.453956889490732
40
0.685660161361604
40
0.685660161361604
40
0.884277667696259
40
0.884277667696259
40
1
40
1
40
1
40
1
41
1
10
-0.238765877365125
20
8.44286391907639
30
0
41
1
10
-0.245783867938656
20
8.43700823606285
30
0
41
1
10
-0.252777154706081
20
8.43161704700258
30
0
41
1
10
-0.266127991216052
20
8.42251764702662
30
0
41
1
10
-0.272604471108622
20
8.41877123230221
30
0
41
1
10
-0.283761681345851
20
8.41410127039039
30
0
41
1
10
-0.288563778072415
20
8.41317595984593
30
0
41
1
10
-0.294892941685504
20
8.41446508472826
30
0
41
1
10
-0.296876221920371
20
8.41625323363539
30
0
41
1
10
-0.29848591946174
20
8.42052637504992
30
0
41
1
10
-0.298765877365298
20
8.4224218561408
30
0
41
1
10
-0.298765877365298
20
8.42456039474639
30
0
0
SPLINE
5
309
100
AcDbEntity
8
SK1
62
256
6
ByLayer
370
-1
48
1
60
0
100
AcDbSpline
70
4
71
3
72
8
73
4
40
0
40
0
40
0
40
0
40
1
40
1
40
1
40
1
41
1
10
-0.238765877364074
20
-6.73859843542441
30
0
41
1
10
-0.159190885270192
20
-6.80474202602474
30
0
41
1
10
-0.0796018697740521
20
-6.87086312676009
30
0
41
1
10
0
20
-6.93696358191076
30
0
0
SPLINE
5
30A
100
AcDbEntity
8
SK1
62
256
6
ByLayer
370
-1
48
1
60
0
100
AcDbSpline
70
4
71
3
72
8
73
4
40
0
40
0
40
0
40
0
40
1
40
1
40
1
40
1
41
1
10
-0.238765877365211
20
8.91801952773797
30
0
41
1
10
-0.159216989515528
20
8.98729469287241
30
0
41
1
10
-0.0796274640853198
20
9.05650767730756
30
0
41
1
10
0
20
9.12566237249418
30
0
0
SPLINE
5
30B
100
AcDbEntity
8
1
62
256
6
ByLayer
370
-1
48
1
60
0
100
AcDbSpline
70
4
71
3
72
8
73
4
40
0
40
0
40
0
40
0
40
1
40
1
40
1
40
1
41
1
10
0.346265877365255
20
-9.35088082387756
30
0
41
1
10
0.229954725839207
20
-9.20454508347567
30
0
41
1
10
0.114497294328658
20
-9.05729712318733
30
0
41
1
10
0
20
-8.90906637851329
30
0
0
SPLINE
5
30C
100
AcDbEntity
8
SK1
62
256
6
ByLayer
370
-1
48
1
60
0
100
AcDbSpline
70
4
71
3
72
8
73
4
40
0
40
0
40
0
40
0
40
1
40
1
40
1
40
1
41
1
10
0
20
6.93696358191076
30
0
41
1
10
-0.0796018697740521
20
6.87086312676009
30
0
41
1
10
-0.159190885270192
20
6.80474202602474
30
0
41
1
10
-0.238765877364074
20
6.73859843542441
30
0
0
SPLINE
5
30D
100
AcDbEntity
8
1
62
256
6
ByLayer
370
-1
48
1
60
0
100
AcDbSpline
70
4
71
3
72
16
73
12
40
0
40
0
40
0
40
0
40
0.303009132236078
40
0.303009132236078
40
0.524376740027086
40
0.524376740027086
40
0.747277493365956
40
0.747277493365956
40
0.946258609577517
40
0.946258609577517
40
1
40
1
40
1
40
1
41
1
10
6.06419453926296
20
9.49692458796547
30
0
41
1
10
6.05843261450417
20
9.56068029161526
30
0
41
1
10
6.08979960407706
20
9.61976106312342
30
0
41
1
10
6.21327805559707
20
9.70432886902033
30
0
41
1
10
6.2885921395966
20
9.7356080078056
30
0
41
1
10
6.47929556389551
20
9.78602135911251
30
0
41
1
10
6.59811784990285
20
9.80588674414787
30
0
41
1
10
6.84761866483058
20
9.83192167805259
30
0
41
1
10
6.97934470762996
20
9.83976321668199
30
0
41
1
10
7.14917231545076
20
9.84395719847863
30
0
41
1
10
7.18604362870119
20
9.84452937898409
30
0
41
1
10
7.22293767340281
20
9.84477059311021
30
0
0
SPLINE
5
30E
100
AcDbEntity
8
1
62
256
6
ByLayer
370
-1
48
1
60
0
100
AcDbSpline
70
4
71
2
72
6
73
3
40
0
40
0
40
0
40
1
40
1
40
1
41
0.500000214188068
10
7.22293767340282
20
9.84477059311017
30
0
41
0.499999785811932
10
7.29291897426009
20
9.84522813248997
30
0
41
0.500000214188068
10
7.36291736373991
20
9.8456843337576
30
0
0
SPLINE
5
30F
100
AcDbEntity
8
1
62
256
6
ByLayer
370
-1
48
1
60
0
100
AcDbSpline
70
4
71
3
72
8
73
4
40
0
40
0
40
0
40
0
40
1
40
1
40
1
40
1
41
1
10
10.3971627528614
20
10.1671015104352
30
0
41
1
10
10.48508858941
20
10.2781400117795
30
0
41
1
10
10.5732004468824
20
10.38904043118
30
0
41
1
10
10.66148062
20
10.499814725202
30
0
0
SPLINE
5
310
100
AcDbEntity
8
1
62
256
6
ByLayer
370
-1
48
1
60
0
100
AcDbSpline
70
4
71
3
72
12
73
8
40
0
40
0
40
0
40
0
40
0.454125697955532
40
0.454125697955532
40
0.907059790538104
40
0.907059790538104
40
1
40
1
40
1
40
1
41
1
10
9.78432719836621
20
-6.17663950748411
30
0
41
1
10
9.46007039942498
20
-6.30085262110198
30
0
41
1
10
9.15946851925548
20
-6.46991095874826
30
0
41
1
10
8.65449590016505
20
-6.85354259918722
30
0
41
1
10
8.44323741224613
20
-7.07252489218948
30
0
41
1
10
8.24943355550997
20
-7.33894510918121
30
0
41
1
10
8.21811015552927
20
-7.3849822559889
30
0
41
1
10
8.18879764749073
20
-7.43103659588913
30
0
0
SPLINE
5
311
100
AcDbEntity
8
1
62
256
6
ByLayer
370
-1
48
1
60
0
100
AcDbSpline
70
4
71
3
72
12
73
8
40
0
40
0
40
0
40
0
40
0.434088655313987
40
0.434088655313987
40
0.868134415984049
40
0.868134415984049
40
1
40
1
40
1
40
1
41
1
10
10.3971627528614
20
-6.07703033529864
30
0
41
1
10
10.3319838845785
20
-6.06893992090102
30
0
41
1
10
10.2511916049643
20
-6.0691820012911
30
0
41
1
10
10.0744569404314
20
-6.09056540208844
30
0
41
1
10
9.9761692671143
20
-6.11205072693969
30
0
41
1
10
9.84610347975467
20
-6.1539291181178
30
0
41
1
10
9.81522870813862
20
-6.16480206026053
30
0
41
1
10
9.78432719836624
20
-6.17663950748401
30
0
0
SPLINE
5
312
100
AcDbEntity
8
1
62
256
6
ByLayer
370
-1
48
1
60
0
100
AcDbSpline
70
4
71
3
72
8
73
4
40
0
40
0
40
0
40
0
40
1
40
1
40
1
40
1
41
1
10
11.1423966548928
20
-6.08998282072299
30
0
41
1
10
10.9816318314495
20
-6.08998282072299
30
0
41
1
10
10.8204071101862
20
-6.09997693549771
30
0
41
1
10
10.66148062
20
-6.11977180850638
30
0
0
SPLINE
5
313
100
AcDbEntity
8
1
62
256
6
ByLayer
370
-1
48
1
60
0
100
AcDbSpline
70
4
71
3
72
15
73
11
40
0
40
0
40
0
40
0
40
0.286850423288387
40
0.286850423288387
40
0.574631888641388
40
0.574631888641388
40
0.844982898251761
40
0.844982898251761
40
0.844982898251761
40
1
40
1
40
1
40
1
41
1
10
11.3887414059022
20
-4.19976453363132
30
0
41
1
10
11.016017207214
20
-4.19976453363132
30
0
41
1
10
10.6381337880243
20
-4.26230971350957
30
0
41
1
10
9.93341462941441
20
-4.50669671316771
30
0
41
1
10
9.59614043368026
20
-4.69369789476015
30
0
41
1
10
9.03608817082755
20
-5.14901165419228
30
0
41
1
10
8.79960411215214
20
-5.41983770124099
30
0
41
1
10
8.61841478687015
20
-5.69855359176005
30
0
41
1
10
8.51314154720632
20
-5.86049097242559
30
0
41
1
10
8.42397784652633
20
-6.02730034629096
30
0
41
1
10
8.35077075128811
20
-6.18820709958258
30
0
0
SPLINE
5
314
100
AcDbEntity
8
1
62
256
6
ByLayer
370
-1
48
1
60
0
100
AcDbSpline
70
4
71
3
72
8
73
4
40
0
40
0
40
0
40
0
40
1
40
1
40
1
40
1
41
1
10
10.66148062
20
-6.11977180850637
30
0
41
1
10
10.5722017067573
20
-6.10201416221689
30
0
41
1
10
10.4840072770758
20
-6.0878100282815
30
0
41
1
10
10.3971627528614
20
-6.07703033529864
30
0
0
SPLINE
5
315
100
AcDbEntity
8
1
62
256
6
ByLayer
370
-1
48
1
60
0
100
AcDbSpline
70
4
71
3
72
16
73
12
40
0
40
0
40
0
40
0
40
0.215559579503224
40
0.215559579503224
40
0.430514448234511
40
0.430514448234511
40
0.651162690621425
40
0.651162690621425
40
0.90847552849293
40
0.90847552849293
40
1
40
1
40
1
40
1
41
1
10
8.21287564743943
20
-7.24628463493572
30
0
41
1
10
8.30121077799438
20
-7.12315333337821
30
0
41
1
10
8.42380374104076
20
-6.97142935853671
30
0
41
1
10
8.73400540252894
20
-6.66287294589985
30
0
41
1
10
8.92537928457426
20
-6.50283598035821
30
0
41
1
10
9.35965604418766
20
-6.21508912658329
30
0
41
1
10
9.60849600955365
20
-6.08497185792226
30
0
41
1
10
10.1738938674271
20
-5.86825395360383
30
0
41
1
10
10.5019674832191
20
-5.78949964730879
30
0
41
1
10
10.9498186507168
20
-5.74556437308861
30
0
41
1
10
11.0690153503889
20
-5.73972198017275
30
0
41
1
10
11.1880447793146
20
-5.73972198017275
30
0
0
SPLINE
5
316
100
AcDbEntity
8
1
62
256
6
ByLayer
370
-1
48
1
60
0
100
AcDbSpline
70
4
71
3
72
16
73
12
40
0
40
0
40
0
40
0
40
0.277723467289468
40
0.277723467289468
40
0.552272557479988
40
0.552272557479988
40
0.552272557479988
40
0.879994860689245
40
0.879994860689245
40
0.879994860689245
40
1
40
1
40
1
40
1
41
1
10
8.48032161639429
20
-5.19415541661056
30
0
41
1
10
8.64393590757794
20
-4.89209870226793
30
0
41
1
10
8.85809135743773
20
-4.60245095793198
30
0
41
1
10
9.34070479321417
20
-4.1034319724469
30
0
41
1
10
9.61461021148992
20
-3.88547301004918
30
0
41
1
10
9.90922336843937
20
-3.71131384227923
30
0
41
1
10
10.2586234019521
20
-3.50476767276849
30
0
41
1
10
10.6505961311851
20
-3.35359278143495
30
0
41
1
10
11.0550940187216
20
-3.28876224318671
30
0
41
1
10
11.2057144262131
20
-3.26462169167898
30
0
41
1
10
11.359253303803
20
-3.25212769321225
30
0
41
1
10
11.5122432062469
20
-3.25212769321225
30
0
0
SPLINE
5
317
100
AcDbEntity
8
1
62
256
6
ByLayer
370
-1
48
1
60
0
100
AcDbSpline
70
4
71
3
72
14
73
10
40
0
40
0
40
0
40
0
40
0.15762699809612
40
0.15762699809612
40
0.411799244710276
40
0.411799244710276
40
0.689478803350954
40
0.689478803350954
40
1
40
1
40
1
40
1
41
1
10
6.73786770982821
20
-7.56052202381079
30
0
41
1
10
6.66763765679593
20
-7.53544974498985
30
0
41
1
10
6.60113098806511
20
-7.50519958215924
30
0
41
1
10
6.4420563796418
20
-7.41523326399887
30
0
41
1
10
6.35666136155112
20
-7.34758835372783
30
0
41
1
10
6.21368573240946
20
-7.19070123795004
30
0
41
1
10
6.15751561033912
20
-7.09816095627431
30
0
41
1
10
6.08013371612572
20
-6.89263778396131
30
0
41
1
10
6.06269155021457
20
-6.77605782540034
30
0
41
1
10
6.06711203993513
20
-6.65874561876934
30
0
0
SPLINE
5
318
100
AcDbEntity
8
1
62
256
6
ByLayer
370
-1
48
1
60
0
100
AcDbSpline
70
4
71
3
72
12
73
8
40
0
40
0
40
0
40
0
40
0.356914372747929
40
0.356914372747929
40
0.712953027202224
40
0.712953027202224
40
1
40
1
40
1
40
1
41
1
10
9.78432719836621
20
9.86103360148446
30
0
41
1
10
9.86904691852004
20
9.86155559264711
30
0
41
1
10
9.95468467190781
20
9.87685223488373
30
0
41
1
10
10.1132259258414
20
9.9330540214844
30
0
41
1
10
10.1882855679857
20
9.97455323242404
30
0
41
1
10
10.307402554866
20
10.0666639961267
30
0
41
1
10
10.3556594988297
20
10.1146884847398
30
0
41
1
10
10.3971627528703
20
10.1671015104268
30
0
0
SPLINE
5
319
100
AcDbEntity
8
SK1
62
256
6
ByLayer
370
-1
48
1
60
0
100
AcDbSpline
70
4
71
3
72
12
73
8
40
0
40
0
40
0
40
0
40
0.235696896409468
40
0.235696896409468
40
0.900799905685484
40
0.900799905685484
40
1
40
1
40
1
40
1
41
1
10
-0.29876587736527
20
6.1208183303322
30
0
41
1
10
-0.298765877364104
20
6.10103760106388
30
0
41
1
10
-0.296483784594614
20
6.07971995420002
30
0
41
1
10
-0.283996074784795
20
5.9974942430382
30
0
41
1
10
-0.267066427414477
20
5.93314418819615
30
0
41
1
10
-0.244803758177596
20
5.85990958863117
30
0
41
1
10
-0.241820761042305
20
5.85033640458578
30
0
41
1
10
-0.238765877365267
20
5.84076208671027
30
0
0
SPLINE
5
31A
100
AcDbEntity
8
1
62
256
6
ByLayer
370
-1
48
1
60
0
100
AcDbSpline
70
4
71
3
72
8
73
4
40
0
40
0
40
0
40
0
40
1
40
1
40
1
40
1
41
1
10
0.346265877365283
20
9.69383466119528
30
0
41
1
10
0.230255110667741
20
9.56167740753047
30
0
41
1
10
0.114811070065287
20
9.42885285601457
30
0
41
1
10
0
20
9.29530600554689
30
0
0
SPLINE
5
31B
100
AcDbEntity
8
SK1
62
256
6
ByLayer
370
-1
48
1
60
0
100
AcDbSpline
70
4
71
3
72
12
73
8
40
0
40
0
40
0
40
0
40
0.219886899126166
40
0.219886899126166
40
0.672642023665797
40
0.672642023665797
40
1
40
1
40
1
40
1
41
1
10
-0.29876587736527
20
6.60766390351546
30
0
41
1
10
-0.29876587736527
20
6.59726577320353
30
0
41
1
10
-0.296968628117327
20
6.58535231878335
30
0
41
1
10
-0.288518541869848
20
6.5475879679823
30
0
41
1
10
-0.2786962942819
20
6.5196095563478
30
0
41
1
10
-0.258680502970805
20
6.4712236420834
30
0
41
1
10
-0.249146107090212
20
6.45052186806902
30
0
41
1
10
-0.238765877365267
20
6.4298870533332
30
0
0
SPLINE
5
31C
100
AcDbEntity
8
SK1
62
256
6
ByLayer
370
-1
48
1
60
0
100
AcDbSpline
70
4
71
3
72
8
73
4
40
0
40
0
40
0
40
0
40
1
40
1
40
1
40
1
41
1
10
-0.238765877365267
20
7.0551343208076
30
0
41
1
10
-0.16048398755774
20
7.197360252813
30
0
41
1
10
-0.0808531342800336
20
7.33860637411948
30
0
41
1
10
0
20
7.47890123860155
30
0
0
SPLINE
5
31D
100
AcDbEntity
8
SK1
62
256
6
ByLayer
370
-1
48
1
60
0
100
AcDbSpline
70
4
71
3
72
12
73
8
40
0
40
0
40
0
40
0
40
0.511503755616839
40
0.511503755616839
40
0.867265455256669
40
0.867265455256669
40
1
40
1
40
1
40
1
41
1
10
-0.238765877365267
20
-7.0551343208076
30
0
41
1
10
-0.2555436803639
20
-7.02465168076977
30
0
41
1
10
-0.269998228053623
20
-6.99368265180331
30
0
41
1
10
-0.288351964491795
20
-6.94321113293744
30
0
41
1
10
-0.294274289615743
20
-6.92267118486568
30
0
41
1
10
-0.298151163863736
20
-6.89697381701055
30
0
41
1
10
-0.298765877369249
20
-6.89019428082926
30
0
41
1
10
-0.298765877370101
20
-6.88387434547811
30
0
0
SPLINE
5
31E
100
AcDbEntity
8
1
62
256
6
ByLayer
370
-1
48
1
60
0
100
AcDbSpline
70
4
71
3
72
8
73
4
40
0
40
0
40
0
40
0
40
1
40
1
40
1
40
1
41
1
10
0
20
-6.93696358191075
30
0
41
1
10
0.115395987450626
20
-7.03278705081537
30
0
41
1
10
0.230818979238649
20
-7.12856717116598
30
0
41
1
10
0.346265877365283
20
-7.22430884114189
30
0
0
SPLINE
5
31F
100
AcDbEntity
8
1
62
256
6
ByLayer
370
-1
48
1
60
0
100
AcDbSpline
70
4
71
3
72
8
73
4
40
0
40
0
40
0
40
0
40
1
40
1
40
1
40
1
41
1
10
0
20
8.90906637851329
30
0
41
1
10
0.114497294328658
20
9.05729712318733
30
0
41
1
10
0.229954725839207
20
9.20454508347567
30
0
41
1
10
0.346265877365255
20
9.35088082387756
30
0
0
SPLINE
5
320
100
AcDbEntity
8
SK1
62
256
6
ByLayer
370
-1
48
1
60
0
100
AcDbSpline
70
4
71
3
72
8
73
4
40
0
40
0
40
0
40
0
40
1
40
1
40
1
40
1
41
1
10
0
20
6.28710694491161
30
0
41
1
10
-0.0820120584768631
20
6.1084113698105
30
0
41
1
10
-0.161689228867999
20
5.92825601236886
30
0
41
1
10
-0.238765877365267
20
5.74665480307561
30
0
0
SPLINE
5
321
100
AcDbEntity
8
SK1
62
256
6
ByLayer
370
-1
48
1
60
0
100
AcDbSpline
70
4
71
3
72
8
73
4
40
0
40
0
40
0
40
0
40
1
40
1
40
1
40
1
41
1
10
0
20
-8.90906637851329
30
0
41
1
10
-0.080069616158454
20
-8.80540647197556
30
0
41
1
10
-0.159672005306817
20
-8.70126245512967
30
0
41
1
10
-0.238765877365267
20
-8.59660851746129
30
0
0
SPLINE
5
322
100
AcDbEntity
8
1
62
256
6
ByLayer
370
-1
48
1
60
0
100
AcDbSpline
70
4
71
3
72
8
73
4
40
0
40
0
40
0
40
0
40
1
40
1
40
1
40
1
41
1
10
0
20
9.12566237249418
30
0
41
1
10
0.11534475622372
20
9.22583674762534
30
0
41
1
10
0.230769162777222
20
9.32588893592825
30
0
41
1
10
0.346265877365255
20
9.42582959020112
30
0
0
SPLINE
5
323
100
AcDbEntity
8
1
62
256
6
ByLayer
370
-1
48
1
60
0
100
AcDbSpline
70
4
71
3
72
8
73
4
40
0
40
0
40
0
40
0
40
1
40
1
40
1
40
1
41
1
10
0
20
-8.31956812200946
30
0
41
1
10
0.113995997883222
20
-8.48749573043982
30
0
41
1
10
0.229476442403069
20
-8.65409112042524
30
0
41
1
10
0.346265877365283
20
-8.81943954716688
30
0
0
SPLINE
5
324
100
AcDbEntity
8
SK1
62
256
6
ByLayer
370
-1
48
1
60
0
100
AcDbSpline
70
4
71
3
72
8
73
4
40
0
40
0
40
0
40
0
40
1
40
1
40
1
40
1
41
1
10
2.84E-14
20
-5.49114867188607
30
0
41
1
10
-0.0797221012709031
20
-5.41799557012266
30
0
41
1
10
-0.159316196577038
20
-5.34465598464246
30
0
41
1
10
-0.238765877359697
20
-5.27110877642178
30
0
0
SPLINE
5
325
100
AcDbEntity
8
1
62
256
6
ByLayer
370
-1
48
1
60
0
100
AcDbSpline
70
4
71
3
72
8
73
4
40
0
40
0
40
0
40
0
40
1
40
1
40
1
40
1
41
1
10
0
20
-8.64198841336622
30
0
41
1
10
0.115396047488332
20
-8.73817971424087
30
0
41
1
10
0.230818843109887
20
-8.83432824239777
30
0
41
1
10
0.346265877365283
20
-8.93043793549572
30
0
0
SPLINE
5
326
100
AcDbEntity
8
SK1
62
256
6
ByLayer
370
-1
48
1
60
0
100
AcDbSpline
70
4
71
3
72
8
73
4
40
0
40
0
40
0
40
0
40
1
40
1
40
1
40
1
41
1
10
-2.84E-14
20
-7.93506230200856
30
0
41
1
10
-0.0795889466143649
20
-7.87004701126925
30
0
41
1
10
-0.159177580487381
20
-7.80503121006706
30
0
41
1
10
-0.238765877364898
20
-7.74001485883394
30
0
0
SPLINE
5
327
100
AcDbEntity
8
SK1
62
256
6
ByLayer
370
-1
48
1
60
0
100
AcDbSpline
70
4
71
3
72
16
73
12
40
0
40
0
40
0
40
0
40
0.181918358201287
40
0.181918358201287
40
0.387106725476672
40
0.387106725476672
40
0.594424350172943
40
0.594424350172943
40
0.773251709590365
40
0.773251709590365
40
1
40
1
40
1
40
1
41
1
10
-0.238765877364898
20
-7.74001485883387
30
0
41
1
10
-0.244548424253708
20
-7.73529104749105
30
0
41
1
10
-0.250364935459373
20
-7.73097246720837
30
0
41
1
10
-0.262314829190899
20
-7.72331269912812
30
0
41
1
10
-0.26852367112707
20
-7.72010528315914
30
0
41
1
10
-0.279541413949943
20
-7.7164467712352
30
0
41
1
10
-0.284475847169915
20
-7.71600618738371
30
0
41
1
10
-0.291520133667376
20
-7.71796648256738
30
0
41
1
10
-0.29402053028565
20
-7.71999016836651
30
0
41
1
10
-0.297845327090613
20
-7.72637982222093
30
0
41
1
10
-0.29876587736527
20
-7.73127997947688
30
0
41
1
10
-0.29876587736527
20
-7.73685364504142
30
0
0
SPLINE
5
328
100
AcDbEntity
8
SK1
62
256
6
ByLayer
370
-1
48
1
60
0
100
AcDbSpline
70
4
71
3
72
12
73
8
40
0
40
0
40
0
40
0
40
0.277987060084482
40
0.277987060084482
40
0.96766831192876
40
0.96766831192876
40
1
40
1
40
1
40
1
41
1
10
-0.29876587736527
20
-5.51153694755729
30
0
41
1
10
-0.298765877364389
20
-5.53141685146701
30
0
41
1
10
-0.296184739428327
20
-5.5528154422625
30
0
41
1
10
-0.28262372784107
20
-5.62774006091375
30
0
41
1
10
-0.264763614346407
20
-5.68399074548076
30
0
41
1
10
-0.240958727419184
20
-5.7414568242589
30
0
41
1
10
-0.239868639379097
20
-5.74405657236399
30
0
41
1
10
-0.238765877365267
20
-5.74665480307561
30
0
0
SPLINE
5
329
100
AcDbEntity
8
SK1
62
256
6
ByLayer
370
-1
48
1
60
0
100
AcDbSpline
70
4
71
3
72
8
73
4
40
0
40
0
40
0
40
0
40
1
40
1
40
1
40
1
41
1
10
-0.238765877365125
20
-8.4428639190764
30
0
41
1
10
-0.159190595538178
20
-8.50926007923205
30
0
41
1
10
-0.0796016624639719
20
-8.5756344295786
30
0
41
1
10
0
20
-8.64198841336622
30
0
0
SPLINE
5
32A
100
AcDbEntity
8
1
62
256
6
ByLayer
370
-1
48
1
60
0
100
AcDbSpline
70
4
71
3
72
8
73
4
40
0
40
0
40
0
40
0
40
1
40
1
40
1
40
1
41
1
10
0.346265877365255
20
-9.42582959020112
30
0
41
1
10
0.230769162777222
20
-9.32588893592825
30
0
41
1
10
0.11534475622372
20
-9.22583674762534
30
0
41
1
10
0
20
-9.12566237249418
30
0
0
SPLINE
5
32B
100
AcDbEntity
8
1
62
256
6
ByLayer
370
-1
48
1
60
0
100
AcDbSpline
70
4
71
3
72
8
73
4
40
0
40
0
40
0
40
0
40
1
40
1
40
1
40
1
41
1
10
0.346265877365283
20
8.93043793549572
30
0
41
1
10
0.230818843109887
20
8.83432824239776
30
0
41
1
10
0.115396047488332
20
8.73817971424089
30
0
41
1
10
0
20
8.64198841336622
30
0
0
SPLINE
5
32C
100
AcDbEntity
8
1
62
256
6
ByLayer
370
-1
48
1
60
0
100
AcDbSpline
70
4
71
3
72
22
73
18
40
0
40
0
40
0
40
0
40
0.176642232491071
40
0.176642232491071
40
0.339253608306295
40
0.339253608306295
40
0.464084079537063
40
0.464084079537063
40
0.5667905664359
40
0.5667905664359
40
0.669945476762205
40
0.669945476762205
40
0.767091081713952
40
0.767091081713952
40
0.90312626984667
40
0.90312626984667
40
1
40
1
40
1
40
1
41
1
10
0.346265877365255
20
-9.69383466119528
30
0
41
1
10
0.357561313599632
20
-9.70670220680485
30
0
41
1
10
0.368266603095464
20
-9.71934983178315
30
0
41
1
10
0.386398435044299
20
-9.74189111798246
30
0
41
1
10
0.394181392923059
20
-9.75213346339388
30
0
41
1
10
0.404599269160997
20
-9.76738465521667
30
0
41
1
10
0.408082889914993
20
-9.77317960843163
30
0
41
1
10
0.411350609738889
20
-9.78080003712141
30
0
41
1
10
0.411688773876989
20
-9.78320131263189
30
0
41
1
10
0.409665891237808
20
-9.7851805111473
30
0
41
1
10
0.407254557149429
20
-9.78475998639857
30
0
41
1
10
0.400341651563593
20
-9.78135254172219
30
0
41
1
10
0.395903917502693
20
-9.77849375068847
30
0
41
1
10
0.383748248523716
20
-9.76964720012931
30
0
41
1
10
0.375256677670535
20
-9.76275702836269
30
0
41
1
10
0.359883803653446
20
-9.7495523232068
30
0
41
1
10
0.353138306535783
20
-9.74355535127728
30
0
41
1
10
0.346265877365283
20
-9.7372894178658
30
0
0
SPLINE
5
32D
100
AcDbEntity
8
SK1
62
256
6
ByLayer
370
-1
48
1
60
0
100
AcDbSpline
70
4
71
3
72
8
73
4
40
0
40
0
40
0
40
0
40
1
40
1
40
1
40
1
41
1
10
-0.238765877365267
20
7.74001485883363
30
0
41
1
10
-0.159177580487636
20
7.80503121006686
30
0
41
1
10
-0.0795889466144786
20
7.87004701126915
30
0
41
1
10
-5.68E-14
20
7.93506230200856
30
0
0
SPLINE
5
32E
100
AcDbEntity
8
SK1
62
256
6
ByLayer
370
-1
48
1
60
0
100
AcDbSpline
70
4
71
3
72
8
73
4
40
0
40
0
40
0
40
0
40
1
40
1
40
1
40
1
41
1
10
-0.238765877365267
20
-7.96246187705553
30
0
41
1
10
-0.159956775239181
20
-8.08218682456659
30
0
41
1
10
-0.0803448669348086
20
-8.2012120252644
30
0
41
1
10
0
20
-8.31956812200946
30
0
0
SPLINE
5
32F
100
AcDbEntity
8
1
62
256
6
ByLayer
370
-1
48
1
60
0
100
AcDbSpline
70
4
71
3
72
8
73
4
40
0
40
0
40
0
40
0
40
1
40
1
40
1
40
1
41
1
10
0.34626587736517
20
-5.48298633569715
30
0
41
1
10
0.221746548789582
20
-5.15024953921953
30
0
41
1
10
0.10582149797159
20
-4.81299747460315
30
0
41
1
10
0
20
-4.47174057127154
30
0
0
SPLINE
5
330
100
AcDbEntity
8
SK1
62
256
6
ByLayer
370
-1
48
1
60
0
100
AcDbSpline
70
4
71
3
72
8
73
4
40
0
40
0
40
0
40
0
40
1
40
1
40
1
40
1
41
1
10
-0.23876587736558
20
3.62603951533728
30
0
41
1
10
-0.16643175209191
20
3.91053434249547
30
0
41
1
10
-0.0865616324753944
20
4.19259356227896
30
0
41
1
10
0
20
4.47174057127154
30
0
0
SPLINE
5
331
100
AcDbEntity
8
1
62
256
6
ByLayer
370
-1
48
1
60
0
100
AcDbSpline
70
4
71
3
72
24
73
20
40
0
40
0
40
0
40
0
40
0.0301252144325864
40
0.0301252144325864
40
0.0817265358086304
40
0.0817265358086304
40
0.120177937605665
40
0.120177937605665
40
0.158537855536506
40
0.158537855536506
40
0.21359015695888
40
0.21359015695888
40
0.308145176834583
40
0.308145176834583
40
0.509792904425158
40
0.509792904425158
40
0.968099479248654
40
0.968099479248654
40
1
40
1
40
1
40
1
41
1
10
0.346265877364999
20
-5.80707297082124
30
0
41
1
10
0.349553787262977
20
-5.81005652836348
30
0
41
1
10
0.352913458900247
20
-5.81283998620277
30
0
41
1
10
0.362062030635457
20
-5.8195064644195
30
0
41
1
10
0.368055412117542
20
-5.82286389551076
30
0
41
1
10
0.377917665075103
20
-5.82591199308396
30
0
41
1
10
0.382029692372271
20
-5.82632305865818
30
0
41
1
10
0.389316037184415
20
-5.82518051923962
30
0
41
1
10
0.392578641826788
20
-5.8236294366185
30
0
41
1
10
0.399236981689711
20
-5.81814475555193
30
0
41
1
10
0.402220225701825
20
-5.81343272381734
30
0
41
1
10
0.408250229361443
20
-5.79889348483813
30
0
41
1
10
0.410060945727594
20
-5.78761337403499
30
0
41
1
10
0.412456531941586
20
-5.7508465381672
30
0
41
1
10
0.40961858718191
20
-5.72277214422051
30
0
41
1
10
0.394845131087948
20
-5.63073024183065
30
0
41
1
10
0.375397149010468
20
-5.56318779904311
30
0
41
1
10
0.349719893265359
20
-5.49229152242489
30
0
41
1
10
0.348006581330822
20
-5.48763779236447
30
0
41
1
10
0.346265877365283
20
-5.48298633569712
30
0
0
SPLINE
5
332
100
AcDbEntity
8
SK1
62
256
6
ByLayer
370
-1
48
1
60
0
100
AcDbSpline
70
4
71
3
72
8
73
4
40
0
40
0
40
0
40
0
40
1
40
1
40
1
40
1
41
1
10
-0.238765877365267
20
-5.74665480307563
30
0
41
1
10
-0.161689228867999
20
-5.92825601236886
30
0
41
1
10
-0.0820120584768631
20
-6.1084113698105
30
0
41
1
10
0
20
-6.28710694491161
30
0
0
SPLINE
5
333
100
AcDbEntity
8
SK1
62
256
6
ByLayer
370
-1
48
1
60
0
100
AcDbSpline
70
4
71
3
72
8
73
4
40
0
40
0
40
0
40
0
40
1
40
1
40
1
40
1
41
1
10
-0.238765877365296
20
-2.6524453984468
30
0
41
1
10
-0.161489137001951
20
-2.77357994534343
30
0
41
1
10
-0.081707458429463
20
-2.89261756203484
30
0
41
1
10
-7.105E-13
20
-3.00981124603523
30
0
0
SPLINE
5
334
100
AcDbEntity
8
1
62
256
6
ByLayer
370
-1
48
1
60
0
100
AcDbSpline
70
4
71
3
72
8
73
4
40
0
40
0
40
0
40
0
40
1
40
1
40
1
40
1
41
1
10
0.346265877365283
20
9.7372894178658
30
0
41
1
10
0.339096543643251
20
9.73075278189728
30
0
41
1
10
0.331927758905067
20
9.72421534301927
30
0
41
1
10
0.324759526430967
20
9.71767709691872
30
0
0
SPLINE
5
335
100
AcDbEntity
8
SK1
62
256
6
ByLayer
370
-1
48
1
60
0
100
AcDbSpline
70
4
71
3
72
10
73
6
40
0
40
0
40
0
40
0
40
0.479888211606165
40
0.479888211606165
40
1
40
1
40
1
40
1
41
1
10
-0.29876587736527
20
3.20021140615756
30
0
41
1
10
-0.298765877365526
20
3.26675198010649
30
0
41
1
10
-0.292171752718474
20
3.33533500315141
30
0
41
1
10
-0.27207183427609
20
3.4776901111414
30
0
41
1
10
-0.257539315134352
20
3.55220236153213
30
0
41
1
10
-0.238765877365609
20
3.62603951533716
30
0
0
SPLINE
5
336
100
AcDbEntity
8
1
62
256
6
ByLayer
370
-1
48
1
60
0
100
AcDbSpline
70
4
71
3
72
8
73
4
40
0
40
0
40
0
40
0
40
1
40
1
40
1
40
1
41
1
10
0.346265877365283
20
8.81943954716688
30
0
41
1
10
0.229476442403069
20
8.65409112042524
30
0
41
1
10
0.113995997883222
20
8.48749573043982
30
0
41
1
10
0
20
8.31956812200946
30
0
0
SPLINE
5
337
100
AcDbEntity
8
1
62
256
6
ByLayer
370
-1
48
1
60
0
100
AcDbSpline
70
4
71
3
72
22
73
18
40
0
40
0
40
0
40
0
40
0.139635554438194
40
0.139635554438194
40
0.261673503367313
40
0.261673503367313
40
0.364142113791203
40
0.364142113791203
40
0.467033767184968
40
0.467033767184968
40
0.56419856077555
40
0.56419856077555
40
0.701271004239487
40
0.701271004239487
40
0.894253966468431
40
0.894253966468431
40
1
40
1
40
1
40
1
41
1
10
0.346265877365283
20
9.73728941786581
30
0
41
1
10
0.356110929556564
20
9.74626563863619
30
0
41
1
10
0.365740340849641
20
9.75472962476525
30
0
41
1
10
0.382143636128376
20
9.76832013661651
30
0
41
1
10
0.389272121993628
20
9.77384513949468
30
0
41
1
10
0.399987948023948
20
9.78114314681083
30
0
41
1
10
0.404052508628439
20
9.78342812348458
30
0
41
1
10
0.409576744578686
20
9.78518123571003
30
0
41
1
10
0.411087778861685
20
9.78464905266893
30
0
41
1
10
0.41140449965738
20
9.78104455133663
30
0
41
1
10
0.410376897327154
20
9.7780902842142
30
0
41
1
10
0.405672189241471
20
9.76899374521292
30
0
41
1
10
0.401045088579877
20
9.76192828235504
30
0
41
1
10
0.387371266773897
20
9.74301494751414
30
0
41
1
10
0.377089659711743
20
9.73007701340904
30
0
41
1
10
0.359638982210328
20
9.70923305906551
30
0
41
1
10
0.353068743189283
20
9.70158435624467
30
0
41
1
10
0.346265877365255
20
9.69383466119528
30
0
0
SPLINE
5
338
100
AcDbEntity
8
SK1
62
256
6
ByLayer
370
-1
48
1
60
0
100
AcDbSpline
70
4
71
3
72
18
73
14
40
0
40
0
40
0
40
0
40
0.135036205138348
40
0.135036205138348
40
0.336543779897167
40
0.336543779897167
40
0.51306045024552
40
0.51306045024552
40
0.662670072974622
40
0.662670072974622
40
0.90039300873851
40
0.90039300873851
40
1
40
1
40
1
40
1
41
1
10
-0.238765877364045
20
6.73859843542417
30
0
41
1
10
-0.243193173937186
20
6.73491841882222
30
0
41
1
10
-0.247685916038137
20
6.73154477638487
30
0
41
1
10
-0.25869815300203
20
6.72444018303615
30
0
41
1
10
-0.265337703865868
20
6.72125365184027
30
0
41
1
10
-0.276378364059269
20
6.71871239565039
30
0
41
1
10
-0.281090176042056
20
6.71893065352326
30
0
41
1
10
-0.288050892147879
20
6.72182335361993
30
0
41
1
10
-0.290662169809423
20
6.72412585941423
30
0
41
1
10
-0.295815221613765
20
6.7317131788713
30
0
41
1
10
-0.297554822913923
20
6.73803112730042
30
0
41
1
10
-0.298621314310282
20
6.74795508406206
30
0
41
1
10
-0.298765877365582
20
6.75104198958691
30
0
41
1
10
-0.298765877365582
20
6.75422762459544
30
0
0
SPLINE
5
339
100
AcDbEntity
8
SK1
62
256
6
ByLayer
370
-1
48
1
60
0
100
AcDbSpline
70
4
71
3
72
8
73
4
40
0
40
0
40
0
40
0
40
1
40
1
40
1
40
1
41
1
10
-0.238765877365267
20
-9.0154066387165
30
0
41
1
10
-0.159499442168965
20
-9.10907142803693
30
0
41
1
10
-0.0799024031312001
20
-9.20236449496866
30
0
41
1
10
0
20
-9.29530600554689
30
0
0
SPLINE
5
33A
100
AcDbEntity
8
SK1
62
256
6
ByLayer
370
-1
48
1
60
0
100
AcDbSpline
70
4
71
3
72
10
73
6
40
0
40
0
40
0
40
0
40
0.724775139776392
40
0.724775139776392
40
1
40
1
40
1
40
1
41
1
10
-0.238765877365296
20
-5.84076208671027
30
0
41
1
10
-0.260920202478303
20
-5.91019600740087
30
0
41
1
10
-0.280309853479423
20
-5.98057051320561
30
0
41
1
10
-0.295697519326438
20
-6.07252638537142
30
0
41
1
10
-0.298765877363934
20
-6.09770200278221
30
0
41
1
10
-0.29876587736527
20
-6.12081833033227
30
0
0
SPLINE
5
33B
100
AcDbEntity
8
SK1
62
256
6
ByLayer
370
-1
48
1
60
0
100
AcDbSpline
70
4
71
3
72
20
73
16
40
0
40
0
40
0
40
0
40
0.0819689572370391
40
0.0819689572370391
40
0.22623535007496
40
0.22623535007496
40
0.333301219404816
40
0.333301219404816
40
0.440129314228668
40
0.440129314228668
40
0.593626182284267
40
0.593626182284267
40
0.859550423966263
40
0.859550423966263
40
1
40
1
40
1
40
1
41
1
10
-0.238765877359441
20
-5.27110877642096
30
0
41
1
10
-0.241620562032494
20
-5.26846617186911
30
0
41
1
10
-0.244539362260497
20
-5.26599181614434
30
0
41
1
10
-0.252644777644093
20
-5.25991877046414
30
0
41
1
10
-0.258031505585137
20
-5.25679589697622
30
0
41
1
10
-0.266952232712612
20
-5.25388418076064
30
0
41
1
10
-0.270687289012699
20
-5.25343964224417
30
0
41
1
10
-0.277353181977873
20
-5.25432945164329
30
0
41
1
10
-0.280363762232327
20
-5.25566015676208
30
0
41
1
10
-0.286562573086371
20
-5.26045241724303
30
0
41
1
10
-0.289389760456004
20
-5.2646181575375
30
0
41
1
10
-0.295241012596222
20
-5.2775719392168
30
0
41
1
10
-0.297134697434785
20
-5.28769332578921
30
0
41
1
10
-0.298552880623561
20
-5.30386271490008
30
0
41
1
10
-0.298765877367373
20
-5.30966148734052
30
0
41
1
10
-0.298765877367316
20
-5.31556932838805
30
0
0
SPLINE
5
33C
100
AcDbEntity
8
1
62
256
6
ByLayer
370
-1
48
1
60
0
100
AcDbSpline
70
4
71
3
72
26
73
22
40
0
40
0
40
0
40
0
40
0.282142629997153
40
0.282142629997153
40
0.631927455216965
40
0.631927455216965
40
0.790655196124006
40
0.790655196124006
40
0.870203265949365
40
0.870203265949365
40
0.910178074423197
40
0.910178074423197
40
0.926487098047357
40
0.926487098047357
40
0.94305330475375
40
0.94305330475375
40
0.957722945662878
40
0.957722945662878
40
0.976731271285138
40
0.976731271285138
40
1
40
1
40
1
40
1
41
1
10
0.346265877365255
20
-2.81188209233805
30
0
41
1
10
0.35959801142846
20
-2.88477171052962
30
0
41
1
10
0.371560778813318
20
-2.95773613094085
30
0
41
1
10
0.394531545006714
20
-3.12050591742941
30
0
41
1
10
0.405088735593239
20
-3.21069941516299
30
0
41
1
10
0.411487961202596
20
-3.33912387420786
30
0
41
1
10
0.412328615519556
20
-3.37915248914517
30
0
41
1
10
0.408195488488218
20
-3.43657202761011
30
0
41
1
10
0.405968023402039
20
-3.45559238642674
30
0
41
1
10
0.39878978246071
20
-3.48108983760103
30
0
41
1
10
0.395674608853255
20
-3.48929990814087
30
0
41
1
10
0.38923091433216
20
-3.49807785912469
30
0
41
1
10
0.387062083434216
20
-3.50030877140887
30
0
41
1
10
0.382117222453417
20
-3.50347817218712
30
0
41
1
10
0.379252246218897
20
-3.50440691125378
30
0
41
1
10
0.373588006186821
20
-3.5044278807723
30
0
41
1
10
0.370754537542098
20
-3.50371993294323
30
0
41
1
10
0.364439509380503
20
-3.50082328434496
30
0
41
1
10
0.360912368305264
20
-3.4982535190787
30
0
41
1
10
0.353593876064252
20
-3.49159509964444
30
0
41
1
10
0.349808154533548
20
-3.48723322563984
30
0
41
1
10
0.346265877366363
20
-3.48260746351411
30
0
0
SPLINE
5
33D
100
AcDbEntity
8
SK1
62
256
6
ByLayer
370
-1
48
1
60
0
100
AcDbSpline
70
4
71
3
72
14
73
10
40
0
40
0
40
0
40
0
40
0.46836269424619
40
0.46836269424619
40
0.768008622918121
40
0.768008622918121
40
0.997414611472149
40
0.997414611472149
40
1
40
1
40
1
40
1
41
1
10
-0.238765877365267
20
-8.59660851746129
30
0
41
1
10
-0.25356262428511
20
-8.5770300369856
30
0
41
1
10
-0.267041184763968
20
-8.55741356784736
30
0
41
1
10
-0.284482206619913
20
-8.52775124009882
30
0
41
1
10
-0.290243871982057
20
-8.51656169478289
30
0
41
1
10
-0.296939848480349
20
-8.49936026806627
30
0
41
1
10
-0.298725636617775
20
-8.49260749072208
30
0
41
1
10
-0.298765650801982
20
-8.48740736642822
30
0
41
1
10
-0.29876587736527
20
-8.48734879938146
30
0
41
1
10
-0.29876587736527
20
-8.48729043713878
30
0
0
SPLINE
5
33E
100
AcDbEntity
8
1
62
256
6
ByLayer
370
-1
48
1
60
0
100
AcDbSpline
70
4
71
3
72
10
73
6
40
0
40
0
40
0
40
0
40
0.709495622816783
40
0.709495622816783
40
1
40
1
40
1
40
1
41
1
10
14.8872759179033
20
3.71067322707907
30
0
41
1
10
14.866486434505
20
3.72519090366438
30
0
41
1
10
14.8476940439085
20
3.74185898747624
30
0
41
1
10
14.8262913939669
20
3.76676736341909
30
0
41
1
10
14.8205417910252
20
3.77431739926746
30
0
41
1
10
14.8153567215516
20
3.78207840485815
30
0
0
SPLINE
5
33F
100
AcDbEntity
8
SK1
62
256
6
ByLayer
370
-1
48
1
60
0
100
AcDbSpline
70
4
71
3
72
10
73
6
40
0
40
0
40
0
40
0
40
0.48652359473429
40
0.48652359473429
40
1
40
1
40
1
40
1
41
1
10
-0.238765877365523
20
-3.62603951533716
30
0
41
1
10
-0.256333298047395
20
-3.55694570530491
30
0
41
1
10
-0.270162779004664
20
-3.48727024785454
30
0
41
1
10
-0.291305154788858
20
-3.34486508869229
30
0
41
1
10
-0.298765877365554
20
-3.27138621783024
30
0
41
1
10
-0.29876587736527
20
-3.20021140615756
30
0
0
LINE
5
4B
100
AcDbEntity
8
1
62
256
6
ByLayer
370
-1
48
1
60
0
100
AcDbLine
10
9.784327
20
10
30
0
11
8.210512
21
10
31
0
39
0
210
0
220
0
230
1
0
LINE
5
4C
100
AcDbEntity
8
1
62
256
6
ByLayer
370
-1
48
1
60
0
100
AcDbLine
10
24.210484
20
-1.560262
30
0
11
24.344257
21
-0.533812
31
0
39
0
210
0
220
0
230
1
0
LINE
5
4D
100
AcDbEntity
8
1
62
256
6
ByLayer
370
-1
48
1
60
0
100
AcDbLine
10
24.558137
20
0.301489
30
0
11
24.685912
21
1.281913
31
0
39
0
210
0
220
0
230
1
0
LINE
5
4E
100
AcDbEntity
8
1
62
256
6
ByLayer
370
-1
48
1
60
0
100
AcDbLine
10
24.86421
20
1.549521
30
0
11
25.00273
21
2.612395
31
0
39
0
210
0
220
0
230
1
0
LINE
5
4F
100
AcDbEntity
8
1
62
256
6
ByLayer
370
-1
48
1
60
0
100
AcDbLine
10
12.375572
20
5.885921
30
0
11
12.241898
21
4.860233
31
0
39
0
210
0
220
0
230
1
0
LINE
5
50
100
AcDbEntity
8
1
62
256
6
ByLayer
370
-1
48
1
60
0
100
AcDbLine
10
13.508685
20
5.227132
30
0
11
13.381113
21
4.248264
31
0
39
0
210
0
220
0
230
1
0
LINE
5
51
100
AcDbEntity
8
1
62
256
6
ByLayer
370
-1
48
1
60
0
100
AcDbLine
10
22.897788
20
5.2556
30
0
11
22.921305
21
5.509999
31
0
39
0
210
0
220
0
230
1
0
LINE
5
52
100
AcDbEntity
8
1
62
256
6
ByLayer
370
-1
48
1
60
0
100
AcDbLine
10
17.494443
20
6.011664
30
0
11
17.470926
21
5.757264
31
0
39
0
210
0
220
0
230
1
0
LINE
5
53
100
AcDbEntity
8
1
62
256
6
ByLayer
370
-1
48
1
60
0
100
AcDbLine
10
19.332983
20
4.600109
30
0
11
19.342997
21
4.70843
31
0
39
0
210
0
220
0
230
1
0
LINE
5
54
100
AcDbEntity
8
1
62
256
6
ByLayer
370
-1
48
1
60
0
100
AcDbLine
10
21.231245
20
5.058341
30
0
11
21.202867
21
4.751356
31
0
39
0
210
0
220
0
230
1
0
LINE
5
55
100
AcDbEntity
8
1
62
256
6
ByLayer
370
-1
48
1
60
0
100
AcDbLine
10
21.081347
20
6.906221
30
0
11
21.050521
21
6.572754
31
0
39
0
210
0
220
0
230
1
0
LINE
5
56
100
AcDbEntity
8
1
62
256
6
ByLayer
370
-1
48
1
60
0
100
AcDbLine
10
19.159867
20
6.196822
30
0
11
19.188275
21
6.504131
31
0
39
0
210
0
220
0
230
1
0
LINE
5
57
100
AcDbEntity
8
4
62
256
6
ByLayer
370
-1
48
0.05
60
0
100
AcDbLine
10
0
20
0
30
0
11
25
21
0
31
0
39
0
210
0
220
0
230
1
0
LINE
5
59
100
AcDbEntity
8
SK4
62
256
6
ByLayer
370
-1
48
0.05
60
0
100
AcDbLine
10
-5
20
0
30
0
11
30
21
0
31
0
39
0
210
0
220
0
230
1
0
LINE
5
5B
100
AcDbEntity
8
80
62
256
6
ByLayer
370
-1
48
1
60
0
100
AcDbLine
10
0
20
0
30
0
11
-5
21
0
31
0
39
0
210
0
220
0
230
1
0
LINE
5
5C
100
AcDbEntity
8
81
62
256
6
ByLayer
370
-1
48
1
60
0
100
AcDbLine
10
25
20
13.875
30
0
11
30
21
13.875
31
0
39
0
210
0
220
0
230
1
0
LINE
5
5D
100
AcDbEntity
8
1
62
256
6
ByLayer
370
-1
48
1
60
0
100
AcDbLine
10
20.822591
20
11.614119
30
0
11
18.702883
21
10.449839
31
0
39
0
210
0
220
0
230
1
0
LINE
5
5E
100
AcDbEntity
8
1
62
256
6
ByLayer
370
-1
48
1
60
0
100
AcDbLine
10
24.985049
20
10.85863
30
0
11
24.978496
21
10.107609
31
0
39
0
210
0
220
0
230
1
0
LINE
5
5F
100
AcDbEntity
8
SK1
62
256
6
ByLayer
370
-1
48
1
60
0
100
AcDbLine
10
-0.298766
20
-8.48729
30
0
11
-0.298766
21
-8.42456
31
0
39
0
210
0
220
0
230
1
0
LINE
5
61
100
AcDbEntity
8
1
62
256
6
ByLayer
370
-1
48
1
60
0
100
AcDbLine
10
0.346266
20
3.482607
30
0
11
0.346266
21
2.811879
31
0
39
0
210
0
220
0
230
1
0
LINE
5
62
100
AcDbEntity
8
1
62
256
6
ByLayer
370
-1
48
1
60
0
100
AcDbLine
10
0.346266
20
-2.811879
30
0
11
0.346266
21
-3.482607
31
0
39
0
210
0
220
0
230
1
0
LINE
5
63
100
AcDbEntity
8
1
62
256
6
ByLayer
370
-1
48
1
60
0
100
AcDbLine
10
0.346266
20
5.807073
30
0
11
0.346266
21
5.482966
31
0
39
0
210
0
220
0
230
1
0
LINE
5
64
100
AcDbEntity
8
1
62
256
6
ByLayer
370
-1
48
1
60
0
100
AcDbLine
10
0.346266
20
-5.482966
30
0
11
0.346266
21
-5.807073
31
0
39
0
210
0
220
0
230
1
0
LINE
5
65
100
AcDbEntity
8
SK1
62
256
6
ByLayer
370
-1
48
1
60
0
100
AcDbLine
10
-0.238766
20
5.271109
30
0
11
-0.238766
21
3.626029
31
0
39
0
210
0
220
0
230
1
0
LINE
5
66
100
AcDbEntity
8
SK1
62
256
6
ByLayer
370
-1
48
1
60
0
100
AcDbLine
10
-0.238766
20
-3.626029
30
0
11
-0.238766
21
-5.271109
31
0
39
0
210
0
220
0
230
1
0
LINE
5
67
100
AcDbEntity
8
SK1
62
256
6
ByLayer
370
-1
48
1
60
0
100
AcDbLine
10
-0.298766
20
5.315569
30
0
11
-0.298766
21
3.200139
31
0
39
0
210
0
220
0
230
1
0
LINE
5
68
100
AcDbEntity
8
SK1
62
256
6
ByLayer
370
-1
48
1
60
0
100
AcDbLine
10
-0.298766
20
-3.200139
30
0
11
-0.298766
21
-5.315569
31
0
39
0
210
0
220
0
230
1
0
LINE
5
69
100
AcDbEntity
8
1
62
256
6
ByLayer
370
-1
48
1
60
0
100
AcDbLine
10
0.346266
20
7.224309
30
0
11
0.346266
21
7.006677
31
0
39
0
210
0
220
0
230
1
0
LINE
5
6A
100
AcDbEntity
8
1
62
256
6
ByLayer
370
-1
48
1
60
0
100
AcDbLine
10
0.346266
20
-7.006677
30
0
11
0.346266
21
-7.224309
31
0
39
0
210
0
220
0
230
1
0
LINE
5
6B
100
AcDbEntity
8
SK1
62
256
6
ByLayer
370
-1
48
1
60
0
100
AcDbLine
10
0
20
9.125662
30
0
11
0
21
8.909037
31
0
39
0
210
0
220
0
230
1
0
LINE
5
6C
100
AcDbEntity
8
SK1
62
256
6
ByLayer
370
-1
48
1
60
0
100
AcDbLine
10
0
20
-7.478899
30
0
11
0
21
-7.935062
31
0
39
0
210
0
220
0
230
1
0
LINE
5
6D
100
AcDbEntity
8
1
62
256
6
ByLayer
370
-1
48
1
60
0
100
AcDbLine
10
0.346266
20
8.217918
30
0
11
0.346266
21
8.062304
31
0
39
0
210
0
220
0
230
1
0
LINE
5
6E
100
AcDbEntity
8
1
62
256
6
ByLayer
370
-1
48
1
60
0
100
AcDbLine
10
0.346266
20
-8.062304
30
0
11
0.346266
21
-8.217918
31
0
39
0
210
0
220
0
230
1
0
LINE
5
6F
100
AcDbEntity
8
1
62
256
6
ByLayer
370
-1
48
1
60
0
100
AcDbLine
10
0.346266
20
-8.819404
30
0
11
0.346266
21
-8.930438
31
0
39
0
210
0
220
0
230
1
0
LINE
5
70
100
AcDbEntity
8
1
62
256
6
ByLayer
370
-1
48
1
60
0
100
AcDbLine
10
0.346266
20
8.930438
30
0
11
0.346266
21
8.819404
31
0
39
0
210
0
220
0
230
1
0
LINE
5
71
100
AcDbEntity
8
SK1
62
256
6
ByLayer
370
-1
48
1
60
0
100
AcDbLine
10
-0.238766
20
-7.962459
30
0
11
-0.238766
21
-8.442864
31
0
39
0
210
0
220
0
230
1
0
LINE
5
72
100
AcDbEntity
8
SK1
62
256
6
ByLayer
370
-1
48
1
60
0
100
AcDbLine
10
-0.238766
20
8.442864
30
0
11
-0.238766
21
7.962459
31
0
39
0
210
0
220
0
230
1
0
LINE
5
73
100
AcDbEntity
8
1
62
256
6
ByLayer
370
-1
48
1
60
0
100
AcDbLine
10
22.972127
20
-1.218127
30
0
11
18.79811
21
1.136142
31
0
39
0
210
0
220
0
230
1
0
LINE
5
74
100
AcDbEntity
8
1
62
256
6
ByLayer
370
-1
48
1
60
0
100
AcDbLine
10
14.857056
20
3.359013
30
0
11
14.624093
21
3.490411
31
0
39
0
210
0
220
0
230
1
0
LINE
5
75
100
AcDbEntity
8
SK1
62
256
6
ByLayer
370
-1
48
1
60
0
100
AcDbLine
10
-0.298766
20
-7.129703
30
0
11
-0.298766
21
-7.202903
31
0
39
0
210
0
220
0
230
1
0
LINE
5
76
100
AcDbEntity
8
SK1
62
256
6
ByLayer
370
-1
48
1
60
0
100
AcDbLine
10
-0.298766
20
-7.827732
30
0
11
-0.298766
21
-8.42456
31
0
39
0
210
0
220
0
230
1
0
LINE
5
77
100
AcDbEntity
8
SK1
62
256
6
ByLayer
370
-1
48
1
60
0
100
AcDbLine
10
-0.298766
20
8.42456
30
0
11
-0.298766
21
7.827732
31
0
39
0
210
0
220
0
230
1
0
LINE
5
78
100
AcDbEntity
8
SK1
62
256
6
ByLayer
370
-1
48
1
60
0
100
AcDbLine
10
-0.298766
20
7.202903
30
0
11
-0.298766
21
7.129703
31
0
39
0
210
0
220
0
230
1
0
LINE
5
79
100
AcDbEntity
8
1
62
256
6
ByLayer
370
-1
48
1
60
0
100
AcDbLine
10
0.346266
20
-9.350829
30
0
11
0.346266
21
-9.42583
31
0
39
0
210
0
220
0
230
1
0
LINE
5
7A
100
AcDbEntity
8
1
62
256
6
ByLayer
370
-1
48
1
60
0
100
AcDbLine
10
0.346266
20
9.42583
30
0
11
0.346266
21
9.350829
31
0
39
0
210
0
220
0
230
1
0
LINE
5
7B
100
AcDbEntity
8
SK1
62
256
6
ByLayer
370
-1
48
1
60
0
100
AcDbLine
10
-0.238766
20
8.91802
30
0
11
-0.238766
21
8.596597
31
0
39
0
210
0
220
0
230
1
0
LINE
5
7C
100
AcDbEntity
8
SK1
62
256
6
ByLayer
370
-1
48
1
60
0
100
AcDbLine
10
-0.238766
20
-8.596597
30
0
11
-0.238766
21
-8.91802
31
0
39
0
210
0
220
0
230
1
0
LINE
5
7D
100
AcDbEntity
8
SK1
62
256
6
ByLayer
370
-1
48
1
60
0
100
AcDbLine
10
-0.298766
20
-6.304262
30
0
11
-0.298766
21
-6.607667
31
0
39
0
210
0
220
0
230
1
0
LINE
5
7E
100
AcDbEntity
8
SK1
62
256
6
ByLayer
370
-1
48
1
60
0
100
AcDbLine
10
-0.298766
20
-6.883882
30
0
11
-0.298766
21
-7.082037
31
0
39
0
210
0
220
0
230
1
0
LINE
5
7F
100
AcDbEntity
8
SK1
62
256
6
ByLayer
370
-1
48
1
60
0
100
AcDbLine
10
-0.298766
20
-8.487275
30
0
11
-0.298766
21
-8.886086
31
0
39
0
210
0
220
0
230
1
0
LINE
5
80
100
AcDbEntity
8
SK1
62
256
6
ByLayer
370
-1
48
1
60
0
100
AcDbLine
10
-0.298766
20
8.886086
30
0
11
-0.298766
21
8.487275
31
0
39
0
210
0
220
0
230
1
0
LINE
5
81
100
AcDbEntity
8
SK1
62
256
6
ByLayer
370
-1
48
1
60
0
100
AcDbLine
10
-0.298766
20
7.082037
30
0
11
-0.298766
21
6.883882
31
0
39
0
210
0
220
0
230
1
0
LINE
5
82
100
AcDbEntity
8
SK1
62
256
6
ByLayer
370
-1
48
1
60
0
100
AcDbLine
10
-0.298766
20
6.607667
30
0
11
-0.298766
21
6.304262
31
0
39
0
210
0
220
0
230
1
0
LINE
5
83
100
AcDbEntity
8
1
62
256
6
ByLayer
370
-1
48
1
60
0
100
AcDbLine
10
0.346266
20
9.737289
30
0
11
0.346266
21
9.693794
31
0
39
0
210
0
220
0
230
1
0
LINE
5
84
100
AcDbEntity
8
1
62
256
6
ByLayer
370
-1
48
1
60
0
100
AcDbLine
10
0.346266
20
-9.693794
30
0
11
0.346266
21
-9.737289
31
0
39
0
210
0
220
0
230
1
0
LINE
5
85
100
AcDbEntity
8
1
62
256
6
ByLayer
370
-1
48
1
60
0
100
AcDbLine
10
0.32476
20
-9.669079
30
0
11
0.32476
21
-9.717677
31
0
39
0
210
0
220
0
230
1
0
LINE
5
86
100
AcDbEntity
8
1
62
256
6
ByLayer
370
-1
48
1
60
0
100
AcDbLine
10
0
20
-8.909037
30
0
11
0
21
-9.125662
31
0
39
0
210
0
220
0
230
1
0
LINE
5
87
100
AcDbEntity
8
1
62
256
6
ByLayer
370
-1
48
1
60
0
100
AcDbLine
10
9.784327
20
9.861034
30
0
11
9.784327
21
10
31
0
39
0
210
0
220
0
230
1
0
LINE
5
88
100
AcDbEntity
8
1
62
256
6
ByLayer
370
-1
48
1
60
0
100
AcDbLine
10
8.210512
20
10
30
0
11
7.641349
21
9.847493
31
0
39
0
210
0
220
0
230
1
0
LINE
5
89
100
AcDbEntity
8
SK1
62
256
6
ByLayer
370
-1
48
1
60
0
100
AcDbLine
10
-0.298766
20
-5.51158
30
0
11
-0.298766
21
-6.120762
31
0
39
0
210
0
220
0
230
1
0
LINE
5
8A
100
AcDbEntity
8
SK1
62
256
6
ByLayer
370
-1
48
1
60
0
100
AcDbLine
10
-0.298766
20
6.120762
30
0
11
-0.298766
21
5.51158
31
0
39
0
210
0
220
0
230
1
0
LINE
5
8B
100
AcDbEntity
8
1
62
256
6
ByLayer
370
-1
48
1
60
0
100
AcDbLine
10
15.254962
20
8.556016
30
0
11
15.27433
21
8.672549
31
0
39
0
210
0
220
0
230
1
0
LINE
5
8C
100
AcDbEntity
8
1
62
256
6
ByLayer
370
-1
48
1
60
0
100
AcDbLine
10
12.420977
20
6.723452
30
0
11
13.118289
21
7.10812
31
0
39
0
210
0
220
0
230
1
0
LINE
5
8D
100
AcDbEntity
8
1
62
256
6
ByLayer
370
-1
48
1
60
0
100
AcDbLine
10
22.753285
20
-3.685748
30
0
11
22.753285
21
-3.407612
31
0
39
0
210
0
220
0
230
1
0
LINE
5
8E
100
AcDbEntity
8
1
62
256
6
ByLayer
370
-1
48
1
60
0
100
AcDbLine
10
12.331267
20
6.509142
30
0
11
12.965296
21
6.858901
31
0
39
0
210
0
220
0
230
1
0
LINE
5
8F
100
AcDbEntity
8
1
62
256
6
ByLayer
370
-1
48
1
60
0
100
AcDbLine
10
15.582828
20
9.398653
30
0
11
15.582828
21
8.736102
31
0
39
0
210
0
220
0
230
1
0
LINE
5
90
100
AcDbEntity
8
1
62
256
6
ByLayer
370
-1
48
1
60
0
100
AcDbLine
10
24.55277
20
-3.213928
30
0
11
24.55277
21
0.276422
31
0
39
0
210
0
220
0
230
1
0
LINE
5
91
100
AcDbEntity
8
1
62
256
6
ByLayer
370
-1
48
1
60
0
100
AcDbLine
10
15.582828
20
9.398653
30
0
11
16.775654
21
9.391266
31
0
39
0
210
0
220
0
230
1
0
LINE
5
92
100
AcDbEntity
8
1
62
256
6
ByLayer
370
-1
48
1
60
0
100
AcDbLine
10
13.091603
20
7.064668
30
0
11
12.283673
21
6.618978
31
0
39
0
210
0
220
0
230
1
0
LINE
5
93
100
AcDbEntity
8
1
62
256
6
ByLayer
370
-1
48
1
60
0
100
AcDbLine
10
6.415674
20
-9.845684
30
0
11
6.049764
21
-9.845684
31
0
39
0
210
0
220
0
230
1
0
LINE
5
94
100
AcDbEntity
8
1
62
256
6
ByLayer
370
-1
48
1
60
0
100
AcDbLine
10
21.254291
20
4.596811
30
0
11
21.273468
21
4.804261
31
0
39
0
210
0
220
0
230
1
0
LINE
5
95
100
AcDbEntity
8
1
62
256
6
ByLayer
370
-1
48
1
60
0
100
AcDbLine
10
0.32476
20
9.717677
30
0
11
0.32476
21
9.669079
31
0
39
0
210
0
220
0
230
1
0
LINE
5
96
100
AcDbEntity
8
1
62
256
6
ByLayer
370
-1
48
1
60
0
100
AcDbLine
10
14.907469
20
3.697942
30
0
11
14.862863
21
3.355676
31
0
39
0
210
0
220
0
230
1
0
LINE
5
97
100
AcDbEntity
8
1
62
256
6
ByLayer
370
-1
48
1
60
0
100
AcDbLine
10
22.362501
20
-0.874293
30
0
11
22.384978
21
-0.701828
31
0
39
0
210
0
220
0
230
1
0
LINE
5
98
100
AcDbEntity
8
1
62
256
6
ByLayer
370
-1
48
1
60
0
100
AcDbLine
10
22.97213
20
-1.644078
30
0
11
24.122515
21
-1.637287
31
0
39
0
210
0
220
0
230
1
0
LINE
5
99
100
AcDbEntity
8
1
62
256
6
ByLayer
370
-1
48
1
60
0
100
AcDbLine
10
22.514848
20
-0.726387
30
0
11
22.486462
21
-0.944198
31
0
39
0
210
0
220
0
230
1
0
LINE
5
9A
100
AcDbEntity
8
1
62
256
6
ByLayer
370
-1
48
1
60
0
100
AcDbLine
10
23.911083
20
0.309737
30
0
11
23.898851
21
0.215881
31
0
39
0
210
0
220
0
230
1
0
LINE
5
9B
100
AcDbEntity
8
1
62
256
6
ByLayer
370
-1
48
1
60
0
100
AcDbLine
10
24.033029
20
0.512808
30
0
11
23.977166
21
0.084166
31
0
39
0
210
0
220
0
230
1
0
LINE
5
9C
100
AcDbEntity
8
1
62
256
6
ByLayer
370
-1
48
1
60
0
100
AcDbLine
10
24.339052
20
0.67783
30
0
11
24.212717
21
-0.29155
31
0
39
0
210
0
220
0
230
1
0
LINE
5
9D
100
AcDbEntity
8
1
62
256
6
ByLayer
370
-1
48
1
60
0
100
AcDbLine
10
24.201198
20
0.587874
30
0
11
24.108293
21
-0.124986
31
0
39
0
210
0
220
0
230
1
0
LINE
5
9E
100
AcDbEntity
8
1
62
256
6
ByLayer
370
-1
48
1
60
0
100
AcDbLine
10
24.13259
20
0.577776
30
0
11
24.052583
21
-0.036129
31
0
39
0
210
0
220
0
230
1
0
LINE
5
9F
100
AcDbEntity
8
1
62
256
6
ByLayer
370
-1
48
1
60
0
100
AcDbLine
10
24.663345
20
1.217859
30
0
11
24.53552
21
0.237055
31
0
39
0
210
0
220
0
230
1
0
LINE
5
A0
100
AcDbEntity
8
1
62
256
6
ByLayer
370
-1
48
1
60
0
100
AcDbLine
10
24.215604
20
-0.296155
30
0
11
24.302844
21
-0.150879
31
0
39
0
210
0
220
0
230
1
0
LINE
5
A1
100
AcDbEntity
8
1
62
256
6
ByLayer
370
-1
48
1
60
0
100
AcDbLine
10
14.766849
20
3.409878
30
0
11
14.815357
21
3.782078
31
0
39
0
210
0
220
0
230
1
0
LINE
5
A2
100
AcDbEntity
8
1
62
256
6
ByLayer
370
-1
48
1
60
0
100
AcDbLine
10
24.674736
20
1.196166
30
0
11
24.83269
21
1.459199
31
0
39
0
210
0
220
0
230
1
0
LINE
5
A3
100
AcDbEntity
8
1
62
256
6
ByLayer
370
-1
48
1
60
0
100
AcDbLine
10
24.549907
20
1.739401
30
0
11
24.537608
21
1.64503
31
0
39
0
210
0
220
0
230
1
0
LINE
5
A4
100
AcDbEntity
8
1
62
256
6
ByLayer
370
-1
48
1
60
0
100
AcDbLine
10
13.543382
20
5.440225
30
0
11
13.521319
21
5.270933
31
0
39
0
210
0
220
0
230
1
0
LINE
5
A5
100
AcDbEntity
8
1
62
256
6
ByLayer
370
-1
48
1
60
0
100
AcDbLine
10
13.295192
20
4.676744
30
0
11
13.411458
21
4.481101
31
0
39
0
210
0
220
0
230
1
0
LINE
5
A6
100
AcDbEntity
8
SK1
62
256
6
ByLayer
370
-1
48
1
60
0
100
AcDbLine
10
0
20
8.31955
30
0
11
0
21
8.641988
31
0
39
0
210
0
220
0
230
1
0
LINE
5
A7
100
AcDbEntity
8
1
62
256
6
ByLayer
370
-1
48
1
60
0
100
AcDbLine
10
0
20
5.491149
30
0
11
0
21
4.471683
31
0
39
0
210
0
220
0
230
1
0
LINE
5
A8
100
AcDbEntity
8
1
62
256
6
ByLayer
370
-1
48
1
60
0
100
AcDbLine
10
0
20
-4.471683
30
0
11
0
21
-5.491149
31
0
39
0
210
0
220
0
230
1
0
LINE
5
A9
100
AcDbEntity
8
1
62
256
6
ByLayer
370
-1
48
1
60
0
100
AcDbLine
10
0
20
6.287119
30
0
11
0
21
6.936964
31
0
39
0
210
0
220
0
230
1
0
LINE
5
AA
100
AcDbEntity
8
1
62
256
6
ByLayer
370
-1
48
1
60
0
100
AcDbLine
10
0
20
-6.936964
30
0
11
0
21
-6.287119
31
0
39
0
210
0
220
0
230
1
0
LINE
5
AB
100
AcDbEntity
8
1
62
256
6
ByLayer
370
-1
48
1
60
0
100
AcDbLine
10
0
20
-7.478899
30
0
11
0
21
-7.935062
31
0
39
0
210
0
220
0
230
1
0
LINE
5
AC
100
AcDbEntity
8
1
62
256
6
ByLayer
370
-1
48
1
60
0
100
AcDbLine
10
0
20
7.935062
30
0
11
0
21
7.478899
31
0
39
0
210
0
220
0
230
1
0
LINE
5
AD
100
AcDbEntity
8
1
62
256
6
ByLayer
370
-1
48
1
60
0
100
AcDbLine
10
0
20
-8.641988
30
0
11
0
21
-8.31955
31
0
39
0
210
0
220
0
230
1
0
LINE
5
AE
100
AcDbEntity
8
1
62
256
6
ByLayer
370
-1
48
1
60
0
100
AcDbLine
10
0
20
8.31955
30
0
11
0
21
8.641988
31
0
39
0
210
0
220
0
230
1
0
LINE
5
AF
100
AcDbEntity
8
1
62
256
6
ByLayer
370
-1
48
1
60
0
100
AcDbLine
10
0
20
9.125662
30
0
11
0
21
8.909037
31
0
39
0
210
0
220
0
230
1
0
LINE
5
B0
100
AcDbEntity
8
SK1
62
256
6
ByLayer
370
-1
48
1
60
0
100
AcDbLine
10
0
20
-8.909037
30
0
11
0
21
-9.125662
31
0
39
0
210
0
220
0
230
1
0
LINE
5
B1
100
AcDbEntity
8
SK1
62
256
6
ByLayer
370
-1
48
1
60
0
100
AcDbLine
10
0
20
6.287119
30
0
11
0
21
6.936964
31
0
39
0
210
0
220
0
230
1
0
LINE
5
B2
100
AcDbEntity
8
SK1
62
256
6
ByLayer
370
-1
48
1
60
0
100
AcDbLine
10
0
20
-6.936964
30
0
11
0
21
-6.287119
31
0
39
0
210
0
220
0
230
1
0
LINE
5
B3
100
AcDbEntity
8
SK1
62
256
6
ByLayer
370
-1
48
1
60
0
100
AcDbLine
10
0
20
5.491149
30
0
11
0
21
4.471683
31
0
39
0
210
0
220
0
230
1
0
LINE
5
B4
100
AcDbEntity
8
SK1
62
256
6
ByLayer
370
-1
48
1
60
0
100
AcDbLine
10
0
20
-4.471683
30
0
11
0
21
-5.491149
31
0
39
0
210
0
220
0
230
1
0
LINE
5
B5
100
AcDbEntity
8
SK1
62
256
6
ByLayer
370
-1
48
1
60
0
100
AcDbLine
10
0
20
-8.641988
30
0
11
0
21
-8.31955
31
0
39
0
210
0
220
0
230
1
0
LINE
5
B6
100
AcDbEntity
8
SK1
62
256
6
ByLayer
370
-1
48
1
60
0
100
AcDbLine
10
0
20
7.935062
30
0
11
0
21
7.478899
31
0
39
0
210
0
220
0
230
1
0
LINE
5
B7
100
AcDbEntity
8
SK1
62
256
6
ByLayer
370
-1
48
1
60
0
100
AcDbLine
10
0
20
4.471741
30
0
11
0
21
3.009811
31
0
39
0
210
0
220
0
230
1
0
LINE
5
B8
100
AcDbEntity
8
1
62
256
6
ByLayer
370
-1
48
1
60
0
100
AcDbLine
10
0
20
-8.641988
30
0
11
0
21
-8.909066
31
0
39
0
210
0
220
0
230
1
0
LINE
5
B9
100
AcDbEntity
8
1
62
256
6
ByLayer
370
-1
48
1
60
0
100
AcDbLine
10
0
20
6.287107
30
0
11
0
21
5.491149
31
0
39
0
210
0
220
0
230
1
0
LINE
5
BA
100
AcDbEntity
8
1
62
256
6
ByLayer
370
-1
48
1
60
0
100
AcDbLine
10
0
20
-9.125662
30
0
11
0
21
-9.295306
31
0
39
0
210
0
220
0
230
1
0
LINE
5
BB
100
AcDbEntity
8
SK1
62
256
6
ByLayer
370
-1
48
1
60
0
100
AcDbLine
10
0
20
-3.009811
30
0
11
0
21
-4.471741
31
0
39
0
210
0
220
0
230
1
0
LINE
5
BC
100
AcDbEntity
8
SK1
62
256
6
ByLayer
370
-1
48
1
60
0
100
AcDbLine
10
0
20
-3.009811
30
0
11
0
21
3.009811
31
0
39
0
210
0
220
0
230
1
0
LINE
5
BD
100
AcDbEntity
8
SK1
62
256
6
ByLayer
370
-1
48
1
60
0
100
AcDbLine
10
0
20
-9.125662
30
0
11
0
21
-9.295306
31
0
39
0
210
0
220
0
230
1
0
LINE
5
BE
100
AcDbEntity
8
1
62
256
6
ByLayer
370
-1
48
1
60
0
100
AcDbLine
10
0
20
8.909066
30
0
11
0
21
8.641988
31
0
39
0
210
0
220
0
230
1
0
LINE
5
BF
100
AcDbEntity
8
SK1
62
256
6
ByLayer
370
-1
48
1
60
0
100
AcDbLine
10
0
20
-8.641988
30
0
11
0
21
-8.909066
31
0
39
0
210
0
220
0
230
1
0
LINE
5
C0
100
AcDbEntity
8
SK1
62
256
6
ByLayer
370
-1
48
1
60
0
100
AcDbLine
10
0
20
-7.935062
30
0
11
0
21
-8.319568
31
0
39
0
210
0
220
0
230
1
0
LINE
5
C1
100
AcDbEntity
8
SK1
62
256
6
ByLayer
370
-1
48
1
60
0
100
AcDbLine
10
0
20
-6.936964
30
0
11
0
21
-7.478901
31
0
39
0
210
0
220
0
230
1
0
LINE
5
C2
100
AcDbEntity
8
SK1
62
256
6
ByLayer
370
-1
48
1
60
0
100
AcDbLine
10
0
20
-5.491149
30
0
11
0
21
-6.287107
31
0
39
0
210
0
220
0
230
1
0
LINE
5
C3
100
AcDbEntity
8
1
62
256
6
ByLayer
370
-1
48
1
60
0
100
AcDbLine
10
0
20
9.295306
30
0
11
0
21
9.125662
31
0
39
0
210
0
220
0
230
1
0
LINE
5
C4
100
AcDbEntity
8
1
62
256
6
ByLayer
370
-1
48
1
60
0
100
AcDbLine
10
0
20
-7.935062
30
0
11
0
21
-8.319568
31
0
39
0
210
0
220
0
230
1
0
LINE
5
C5
100
AcDbEntity
8
SK1
62
256
6
ByLayer
370
-1
48
1
60
0
100
AcDbLine
10
0
20
6.287107
30
0
11
0
21
5.491149
31
0
39
0
210
0
220
0
230
1
0
LINE
5
C6
100
AcDbEntity
8
1
62
256
6
ByLayer
370
-1
48
1
60
0
100
AcDbLine
10
0
20
4.471741
30
0
11
0
21
3.009811
31
0
39
0
210
0
220
0
230
1
0
LINE
5
C7
100
AcDbEntity
8
1
62
256
6
ByLayer
370
-1
48
1
60
0
100
AcDbLine
10
0
20
8.319568
30
0
11
0
21
7.935062
31
0
39
0
210
0
220
0
230
1
0
LINE
5
C8
100
AcDbEntity
8
1
62
256
6
ByLayer
370
-1
48
1
60
0
100
AcDbLine
10
0
20
-3.009811
30
0
11
0
21
-4.471741
31
0
39
0
210
0
220
0
230
1
0
LINE
5
C9
100
AcDbEntity
8
1
62
256
6
ByLayer
370
-1
48
1
60
0
100
AcDbLine
10
14.907469
20
3.697942
30
0
11
17.027177
21
2.49665
31
0
39
0
210
0
220
0
230
1
0
LINE
5
CA
100
AcDbEntity
8
1
62
256
6
ByLayer
370
-1
48
1
60
0
100
AcDbLine
10
21.491129
20
-0.252626
30
0
11
21.713793
21
-0.15846
31
0
39
0
210
0
220
0
230
1
0
LINE
5
CB
100
AcDbEntity
8
1
62
256
6
ByLayer
370
-1
48
1
60
0
100
AcDbLine
10
14.163662
20
7.537376
30
0
11
14.006255
21
7.680425
31
0
39
0
210
0
220
0
230
1
0
LINE
5
CC
100
AcDbEntity
8
1
62
256
6
ByLayer
370
-1
48
1
60
0
100
AcDbLine
10
13.311456
20
5.713549
30
0
11
12.463315
21
5.784408
31
0
39
0
210
0
220
0
230
1
0
LINE
5
CD
100
AcDbEntity
8
1
62
256
6
ByLayer
370
-1
48
1
60
0
100
AcDbLine
10
23.309544
20
0.220997
30
0
11
22.99557
21
0.042772
31
0
39
0
210
0
220
0
230
1
0
LINE
5
CE
100
AcDbEntity
8
1
62
256
6
ByLayer
370
-1
48
1
60
0
100
AcDbLine
10
24.331186
20
-0.568521
30
0
11
24.197351
21
-1.595449
31
0
39
0
210
0
220
0
230
1
0
LINE
5
CF
100
AcDbEntity
8
1
62
256
6
ByLayer
370
-1
48
1
60
0
100
AcDbLine
10
21.034747
20
11.628607
30
0
11
21.239345
21
11.587178
31
0
39
0
210
0
220
0
230
1
0
LINE
5
D0
100
AcDbEntity
8
1
62
256
6
ByLayer
370
-1
48
1
60
0
100
AcDbLine
10
14.185667
20
7.77897
30
0
11
14.006255
21
7.680425
31
0
39
0
210
0
220
0
230
1
0
LINE
5
D1
100
AcDbEntity
8
1
62
256
6
ByLayer
370
-1
48
1
60
0
100
AcDbLine
10
21.750516
20
-0.396259
30
0
11
21.799742
21
-0.173372
31
0
39
0
210
0
220
0
230
1
0
LINE
5
D2
100
AcDbEntity
8
1
62
256
6
ByLayer
370
-1
48
1
60
0
100
AcDbLine
10
12.385784
20
5.91487
30
0
11
13.213579
21
7.263389
31
0
39
0
210
0
220
0
230
1
0
LINE
5
D3
100
AcDbEntity
8
1
62
256
6
ByLayer
370
-1
48
1
60
0
100
AcDbLine
10
23.309544
20
0.220997
30
0
11
23.605401
21
-0.250934
31
0
39
0
210
0
220
0
230
1
0
LINE
5
D4
100
AcDbEntity
8
1
62
256
6
ByLayer
370
-1
48
1
60
0
100
AcDbLine
10
22.856669
20
0.287527
30
0
11
23.170643
21
0.465752
31
0
39
0
210
0
220
0
230
1
0
LINE
5
D5
100
AcDbEntity
8
1
62
256
6
ByLayer
370
-1
48
1
60
0
100
AcDbLine
10
18.318381
20
3.262138
30
0
11
17.709173
21
3.414257
31
0
39
0
210
0
220
0
230
1
0
LINE
5
D6
100
AcDbEntity
8
1
62
256
6
ByLayer
370
-1
48
1
60
0
100
AcDbLine
10
25.003512
20
6.390548
30
0
11
24.998618
21
6.169937
31
0
39
0
210
0
220
0
230
1
0
LINE
5
D7
100
AcDbEntity
8
1
62
256
6
ByLayer
370
-1
48
1
60
0
100
AcDbLine
10
17.362428
20
9.713575
30
0
11
18.13761
21
9.200295
31
0
39
0
210
0
220
0
230
1
0
LINE
5
D8
100
AcDbEntity
8
1
62
256
6
ByLayer
370
-1
48
1
60
0
100
AcDbLine
10
23.988917
20
11.693289
30
0
11
24.291179
21
11.158757
31
0
39
0
210
0
220
0
230
1
0
LINE
5
D9
100
AcDbEntity
8
1
62
256
6
ByLayer
370
-1
48
1
60
0
100
AcDbLine
10
23.900426
20
12.300572
30
0
11
23.892367
21
11.75057
31
0
39
0
210
0
220
0
230
1
0
LINE
5
DA
100
AcDbEntity
8
1
62
256
6
ByLayer
370
-1
48
1
60
0
100
AcDbLine
10
13.098611
20
6.038734
30
0
11
13.692089
21
5.989151
31
0
39
0
210
0
220
0
230
1
0
LINE
5
DB
100
AcDbEntity
8
1
62
256
6
ByLayer
370
-1
48
1
60
0
100
AcDbLine
10
23.698109
20
-0.185056
30
0
11
23.402252
21
0.286875
31
0
39
0
210
0
220
0
230
1
0
LINE
5
DC
100
AcDbEntity
8
1
62
256
6
ByLayer
370
-1
48
1
60
0
100
AcDbLine
10
17.783851
20
9.887042
30
0
11
18.344956
21
10.20279
31
0
39
0
210
0
220
0
230
1
0
LINE
5
DD
100
AcDbEntity
8
1
62
256
6
ByLayer
370
-1
48
1
60
0
100
AcDbLine
10
24.255964
20
-0.613329
30
0
11
22.514848
21
-0.726387
31
0
39
0
210
0
220
0
230
1
0
LINE
5
DE
100
AcDbEntity
8
1
62
256
6
ByLayer
370
-1
48
1
60
0
100
AcDbLine
10
14.932564
20
8.364087
30
0
11
14.769275
21
3.846277
31
0
39
0
210
0
220
0
230
1
0
LINE
5
DF
100
AcDbEntity
8
1
62
256
6
ByLayer
370
-1
48
1
60
0
100
AcDbLine
10
22.977041
20
11.832725
30
0
11
23.016728
21
11.774949
31
0
39
0
210
0
220
0
230
1
0
LINE
5
E0
100
AcDbEntity
8
1
62
256
6
ByLayer
370
-1
48
1
60
0
100
AcDbLine
10
24.748093
20
10.031919
30
0
11
21.855954
21
11.58677
31
0
39
0
210
0
220
0
230
1
0
LINE
5
E1
100
AcDbEntity
8
1
62
256
6
ByLayer
370
-1
48
1
60
0
100
AcDbLine
10
21.206005
20
-0.050725
30
0
11
20.793327
21
0.345104
31
0
39
0
210
0
220
0
230
1
0
LINE
5
E2
100
AcDbEntity
8
1
62
256
6
ByLayer
370
-1
48
1
60
0
100
AcDbLine
10
13.992514
20
4.482788
30
0
11
13.865284
21
3.50654
31
0
39
0
210
0
220
0
230
1
0
LINE
5
E3
100
AcDbEntity
8
1
62
256
6
ByLayer
370
-1
48
1
60
0
100
AcDbLine
10
18.367632
20
1.736981
30
0
11
20.671557
21
0.43129
31
0
39
0
210
0
220
0
230
1
0
LINE
5
E4
100
AcDbEntity
8
1
62
256
6
ByLayer
370
-1
48
1
60
0
100
AcDbLine
10
13.927097
20
7.639859
30
0
11
14.10624
21
7.477056
31
0
39
0
210
0
220
0
230
1
0
LINE
5
E5
100
AcDbEntity
8
1
62
256
6
ByLayer
370
-1
48
1
60
0
100
AcDbLine
10
18.976199
20
10.028479
30
0
11
18.702883
21
10.449839
31
0
39
0
210
0
220
0
230
1
0
LINE
5
E6
100
AcDbEntity
8
1
62
256
6
ByLayer
370
-1
48
1
60
0
100
AcDbLine
10
18.190852
20
9.268393
30
0
11
17.454844
21
9.755734
31
0
39
0
210
0
220
0
230
1
0
LINE
5
E7
100
AcDbEntity
8
1
62
256
6
ByLayer
370
-1
48
1
60
0
100
AcDbLine
10
23.677373
20
11.164115
30
0
11
23.988917
21
11.693289
31
0
39
0
210
0
220
0
230
1
0
LINE
5
E8
100
AcDbEntity
8
1
62
256
6
ByLayer
370
-1
48
1
60
0
100
AcDbLine
10
18.272802
20
1.780775
30
0
11
18.103877
21
1.836181
31
0
39
0
210
0
220
0
230
1
0
LINE
5
E9
100
AcDbEntity
8
1
62
256
6
ByLayer
370
-1
48
1
60
0
100
AcDbLine
10
24.492634
20
4.993555
30
0
11
25.00472
21
5.008361
31
0
39
0
210
0
220
0
230
1
0
LINE
5
EA
100
AcDbEntity
8
1
62
256
6
ByLayer
370
-1
48
1
60
0
100
AcDbLine
10
13.684826
20
6.086058
30
0
11
13.688582
21
6.418809
31
0
39
0
210
0
220
0
230
1
0
LINE
5
EB
100
AcDbEntity
8
1
62
256
6
ByLayer
370
-1
48
1
60
0
100
AcDbLine
10
24.197351
20
-1.595449
30
0
11
24.199389
21
-1.592055
31
0
39
0
210
0
220
0
230
1
0
LINE
5
EC
100
AcDbEntity
8
1
62
256
6
ByLayer
370
-1
48
1
60
0
100
AcDbLine
10
13.684826
20
6.086058
30
0
11
13.091348
21
6.135641
31
0
39
0
210
0
220
0
230
1
0
LINE
5
ED
100
AcDbEntity
8
1
62
256
6
ByLayer
370
-1
48
1
60
0
100
AcDbLine
10
24.201198
20
0.587874
30
0
11
24.13259
21
0.577776
31
0
39
0
210
0
220
0
230
1
0
LINE
5
EE
100
AcDbEntity
8
1
62
256
6
ByLayer
370
-1
48
1
60
0
100
AcDbLine
10
23.99853
20
12.580813
30
0
11
24.002606
21
12.580778
31
0
39
0
210
0
220
0
230
1
0
LINE
5
EF
100
AcDbEntity
8
1
62
256
6
ByLayer
370
-1
48
1
60
0
100
AcDbLine
10
23.850763
20
10.756117
30
0
11
23.545519
21
10.948809
31
0
39
0
210
0
220
0
230
1
0
LINE
5
F0
100
AcDbEntity
8
1
62
256
6
ByLayer
370
-1
48
1
60
0
100
AcDbLine
10
24.978496
20
10.107609
30
0
11
24.748093
21
10.031919
31
0
39
0
210
0
220
0
230
1
0
LINE
5
F1
100
AcDbEntity
8
1
62
256
6
ByLayer
370
-1
48
1
60
0
100
AcDbLine
10
12.463315
20
5.784408
30
0
11
12.329866
21
4.760451
31
0
39
0
210
0
220
0
230
1
0
LINE
5
F2
100
AcDbEntity
8
1
62
256
6
ByLayer
370
-1
48
1
60
0
100
AcDbLine
10
13.856003
20
4.575139
30
0
11
13.7281
21
3.593737
31
0
39
0
210
0
220
0
230
1
0
LINE
5
F3
100
AcDbEntity
8
1
62
256
6
ByLayer
370
-1
48
1
60
0
100
AcDbLine
10
14.659235
20
3.983162
30
0
11
14.440586
21
7.536746
31
0
39
0
210
0
220
0
230
1
0
LINE
5
F4
100
AcDbEntity
8
1
62
256
6
ByLayer
370
-1
48
1
60
0
100
AcDbLine
10
17.929925
20
1.917949
30
0
11
17.37094
21
2.243476
31
0
39
0
210
0
220
0
230
1
0
LINE
5
F5
100
AcDbEntity
8
1
62
256
6
ByLayer
370
-1
48
1
60
0
100
AcDbLine
10
23.600419
20
-0.347734
30
0
11
24.045907
21
-0.533802
31
0
39
0
210
0
220
0
230
1
0
LINE
5
F6
100
AcDbEntity
8
1
62
256
6
ByLayer
370
-1
48
1
60
0
100
AcDbLine
10
13.403808
20
4.139429
30
0
11
13.7281
21
3.593737
31
0
39
0
210
0
220
0
230
1
0
LINE
5
F7
100
AcDbEntity
8
1
62
256
6
ByLayer
370
-1
48
1
60
0
100
AcDbLine
10
24.033029
20
0.512808
30
0
11
23.911083
21
0.309737
31
0
39
0
210
0
220
0
230
1
0
LINE
5
F8
100
AcDbEntity
8
1
62
256
6
ByLayer
370
-1
48
1
60
0
100
AcDbLine
10
20.793327
20
0.345104
30
0
11
24.924505
21
2.431984
31
0
39
0
210
0
220
0
230
1
0
LINE
5
F9
100
AcDbEntity
8
1
62
256
6
ByLayer
370
-1
48
1
60
0
100
AcDbLine
10
24.095806
20
12.298867
30
0
11
24.628372
21
11.357054
31
0
39
0
210
0
220
0
230
1
0
LINE
5
FA
100
AcDbEntity
8
1
62
256
6
ByLayer
370
-1
48
1
60
0
100
AcDbLine
10
12.329866
20
4.760451
30
0
11
13.18464
21
4.74048
31
0
39
0
210
0
220
0
230
1
0
LINE
5
FB
100
AcDbEntity
8
1
62
256
6
ByLayer
370
-1
48
1
60
0
100
AcDbLine
10
17.20172
20
2.361554
30
0
11
17.351435
21
2.878488
31
0
39
0
210
0
220
0
230
1
0
LINE
5
FC
100
AcDbEntity
8
1
62
256
6
ByLayer
370
-1
48
1
60
0
100
AcDbLine
10
24.978087
20
9.815454
30
0
11
24.978087
21
10.015676
31
0
39
0
210
0
220
0
230
1
0
LINE
5
FD
100
AcDbEntity
8
1
62
256
6
ByLayer
370
-1
48
1
60
0
100
AcDbLine
10
13.311456
20
5.713549
30
0
11
13.18464
21
4.74048
31
0
39
0
210
0
220
0
230
1
0
LINE
5
FE
100
AcDbEntity
8
1
62
256
6
ByLayer
370
-1
48
1
60
0
100
AcDbLine
10
23.622316
20
0.46039
30
0
11
23.402252
21
0.286875
31
0
39
0
210
0
220
0
230
1
0
LINE
5
FF
100
AcDbEntity
8
1
62
256
6
ByLayer
370
-1
48
1
60
0
100
AcDbLine
10
21.610666
20
0.120408
30
0
11
21.206005
21
-0.050725
31
0
39
0
210
0
220
0
230
1
0
LINE
5
100
100
AcDbEntity
8
1
62
256
6
ByLayer
370
-1
48
1
60
0
100
AcDbLine
10
13.520862
20
6.844781
30
0
11
13.83152
21
6.661104
31
0
39
0
210
0
220
0
230
1
0
LINE
5
101
100
AcDbEntity
8
1
62
256
6
ByLayer
370
-1
48
1
60
0
100
AcDbLine
10
17.929925
20
1.917949
30
0
11
18.312006
21
3.237191
31
0
39
0
210
0
220
0
230
1
0
LINE
5
102
100
AcDbEntity
8
1
62
256
6
ByLayer
370
-1
48
1
60
0
100
AcDbLine
10
23.892367
20
11.75057
30
0
11
23.580824
21
11.221397
31
0
39
0
210
0
220
0
230
1
0
LINE
5
103
100
AcDbEntity
8
1
62
256
6
ByLayer
370
-1
48
1
60
0
100
AcDbLine
10
23.351506
20
11.368202
30
0
11
23.580824
21
11.221397
31
0
39
0
210
0
220
0
230
1
0
LINE
5
104
100
AcDbEntity
8
1
62
256
6
ByLayer
370
-1
48
1
60
0
100
AcDbLine
10
13.287497
20
6.669964
30
0
11
13.000921
21
6.203118
31
0
39
0
210
0
220
0
230
1
0
LINE
5
105
100
AcDbEntity
8
1
62
256
6
ByLayer
370
-1
48
1
60
0
100
AcDbLine
10
13.076479
20
6.847242
30
0
11
13.287497
21
6.669964
31
0
39
0
210
0
220
0
230
1
0
LINE
5
106
100
AcDbEntity
8
1
62
256
6
ByLayer
370
-1
48
1
60
0
100
AcDbLine
10
24.333224
20
-0.565128
30
0
11
24.199389
21
-1.592055
31
0
39
0
210
0
220
0
230
1
0
LINE
5
107
100
AcDbEntity
8
1
62
256
6
ByLayer
370
-1
48
1
60
0
100
AcDbLine
10
24.333224
20
-0.565128
30
0
11
24.331186
21
-0.568521
31
0
39
0
210
0
220
0
230
1
0
LINE
5
108
100
AcDbEntity
8
1
62
256
6
ByLayer
370
-1
48
1
60
0
100
AcDbLine
10
22.183474
20
11.916633
30
0
11
22.832059
21
11.910971
31
0
39
0
210
0
220
0
230
1
0
LINE
5
109
100
AcDbEntity
8
1
62
256
6
ByLayer
370
-1
48
1
60
0
100
AcDbLine
10
23.351506
20
11.368202
30
0
11
23.900426
21
12.300572
31
0
39
0
210
0
220
0
230
1
0
LINE
5
10A
100
AcDbEntity
8
1
62
256
6
ByLayer
370
-1
48
1
60
0
100
AcDbLine
10
21.239345
20
11.587178
30
0
11
24.615062
21
9.77235
31
0
39
0
210
0
220
0
230
1
0
LINE
5
10B
100
AcDbEntity
8
1
62
256
6
ByLayer
370
-1
48
1
60
0
100
AcDbLine
10
23.677373
20
11.164115
30
0
11
23.982618
21
10.971423
31
0
39
0
210
0
220
0
230
1
0
LINE
5
10C
100
AcDbEntity
8
1
62
256
6
ByLayer
370
-1
48
1
60
0
100
AcDbLine
10
21.491129
20
-0.252626
30
0
11
21.67054
21
-0.354303
31
0
39
0
210
0
220
0
230
1
0
LINE
5
10D
100
AcDbEntity
8
1
62
256
6
ByLayer
370
-1
48
1
60
0
100
AcDbLine
10
23.861098
20
5.133735
30
0
11
23.688037
21
5.718548
31
0
39
0
210
0
220
0
230
1
0
LINE
5
10E
100
AcDbEntity
8
1
62
256
6
ByLayer
370
-1
48
1
60
0
100
AcDbLine
10
13.377924
20
6.602487
30
0
11
13.688582
21
6.418809
31
0
39
0
210
0
220
0
230
1
0
LINE
5
10F
100
AcDbEntity
8
1
62
256
6
ByLayer
370
-1
48
1
60
0
100
AcDbLine
10
18.616713
20
10.393745
30
0
11
18.892065
21
9.969246
31
0
39
0
210
0
220
0
230
1
0
LINE
5
110
100
AcDbEntity
8
1
62
256
6
ByLayer
370
-1
48
1
60
0
100
AcDbLine
10
18.519559
20
10.317867
30
0
11
18.892065
21
9.969246
31
0
39
0
210
0
220
0
230
1
0
LINE
5
111
100
AcDbEntity
8
1
62
256
6
ByLayer
370
-1
48
1
60
0
100
AcDbLine
10
23.605401
20
-0.250934
30
0
11
23.002641
21
-0.290074
31
0
39
0
210
0
220
0
230
1
0
LINE
5
112
100
AcDbEntity
8
1
62
256
6
ByLayer
370
-1
48
1
60
0
100
AcDbLine
10
24.291179
20
11.158757
30
0
11
23.982618
21
10.971423
31
0
39
0
210
0
220
0
230
1
0
LINE
5
113
100
AcDbEntity
8
1
62
256
6
ByLayer
370
-1
48
1
60
0
100
AcDbLine
10
24.997637
20
5.345558
30
0
11
23.861098
21
5.133735
31
0
39
0
210
0
220
0
230
1
0
LINE
5
114
100
AcDbEntity
8
1
62
256
6
ByLayer
370
-1
48
1
60
0
100
AcDbLine
10
24.087747
20
11.748865
30
0
11
24.095806
21
12.298867
31
0
39
0
210
0
220
0
230
1
0
LINE
5
115
100
AcDbEntity
8
1
62
256
6
ByLayer
370
-1
48
1
60
0
100
AcDbLine
10
25.00472
20
6.504295
30
0
11
25.00472
21
9.07545
31
0
39
0
210
0
220
0
230
1
0
LINE
5
116
100
AcDbEntity
8
1
62
256
6
ByLayer
370
-1
48
1
60
0
100
AcDbLine
10
25.000329
20
5.17436
30
0
11
25.003489
21
5.093714
31
0
39
0
210
0
220
0
230
1
0
LINE
5
117
100
AcDbEntity
8
1
62
256
6
ByLayer
370
-1
48
1
60
0
100
AcDbLine
10
13.965394
20
6.435833
30
0
11
13.961638
21
6.103081
31
0
39
0
210
0
220
0
230
1
0
LINE
5
118
100
AcDbEntity
8
1
62
256
6
ByLayer
370
-1
48
1
60
0
100
AcDbLine
10
25.003489
20
5.093714
30
0
11
24.487589
21
5.078797
31
0
39
0
210
0
220
0
230
1
0
LINE
5
119
100
AcDbEntity
8
1
62
256
6
ByLayer
370
-1
48
1
60
0
100
AcDbLine
10
19.170653
20
9.430037
30
0
11
18.734507
21
8.997343
31
0
39
0
210
0
220
0
230
1
0
LINE
5
11A
100
AcDbEntity
8
1
62
256
6
ByLayer
370
-1
48
1
60
0
100
AcDbLine
10
21.799742
20
-0.173372
30
0
11
24.544591
21
1.623509
31
0
39
0
210
0
220
0
230
1
0
LINE
5
11B
100
AcDbEntity
8
1
62
256
6
ByLayer
370
-1
48
1
60
0
100
AcDbLine
10
12.57155
20
6.024688
30
0
11
13.076479
21
6.847242
31
0
39
0
210
0
220
0
230
1
0
LINE
5
11C
100
AcDbEntity
8
1
62
256
6
ByLayer
370
-1
48
1
60
0
100
AcDbLine
10
24.204576
20
6.021947
30
0
11
25.003512
21
6.390548
31
0
39
0
210
0
220
0
230
1
0
LINE
5
11D
100
AcDbEntity
8
1
62
256
6
ByLayer
370
-1
48
1
60
0
100
AcDbLine
10
13.543382
20
5.440225
30
0
11
13.421436
21
5.645426
31
0
39
0
210
0
220
0
230
1
0
LINE
5
11E
100
AcDbEntity
8
1
62
256
6
ByLayer
370
-1
48
1
60
0
100
AcDbLine
10
21.855954
20
11.58677
30
0
11
22.037149
21
11.84093
31
0
39
0
210
0
220
0
230
1
0
LINE
5
11F
100
AcDbEntity
8
1
62
256
6
ByLayer
370
-1
48
1
60
0
100
AcDbLine
10
20.843938
20
11.624557
30
0
11
25.00472
21
9.07545
31
0
39
0
210
0
220
0
230
1
0
LINE
5
120
100
AcDbEntity
8
1
62
256
6
ByLayer
370
-1
48
1
60
0
100
AcDbLine
10
24.998618
20
6.169937
30
0
11
24.204576
21
6.021947
31
0
39
0
210
0
220
0
230
1
0
LINE
5
121
100
AcDbEntity
8
1
62
256
6
ByLayer
370
-1
48
1
60
0
100
AcDbLine
10
17.20172
20
2.361554
30
0
11
17.110887
21
2.439073
31
0
39
0
210
0
220
0
230
1
0
LINE
5
122
100
AcDbEntity
8
1
62
256
6
ByLayer
370
-1
48
1
60
0
100
AcDbLine
10
24.775641
20
9.94917
30
0
11
24.978087
21
10.015676
31
0
39
0
210
0
220
0
230
1
0
LINE
5
123
100
AcDbEntity
8
1
62
256
6
ByLayer
370
-1
48
1
60
0
100
AcDbLine
10
22.384978
20
-0.701828
30
0
11
21.750516
21
-0.396259
31
0
39
0
210
0
220
0
230
1
0
LINE
5
124
100
AcDbEntity
8
1
62
256
6
ByLayer
370
-1
48
1
60
0
100
AcDbLine
10
13.421436
20
5.645426
30
0
11
13.295192
21
4.676744
31
0
39
0
210
0
220
0
230
1
0
LINE
5
125
100
AcDbEntity
8
1
62
256
6
ByLayer
370
-1
48
1
60
0
100
AcDbLine
10
14.295563
20
4.432197
30
0
11
14.170579
21
3.473182
31
0
39
0
210
0
220
0
230
1
0
LINE
5
126
100
AcDbEntity
8
1
62
256
6
ByLayer
370
-1
48
1
60
0
100
AcDbLine
10
14.10624
20
7.477056
30
0
11
14.293568
21
4.432529
31
0
39
0
210
0
220
0
230
1
0
LINE
5
127
100
AcDbEntity
8
1
62
256
6
ByLayer
370
-1
48
1
60
0
100
AcDbLine
10
17.362428
20
9.713575
30
0
11
15.058503
21
8.448111
31
0
39
0
210
0
220
0
230
1
0
LINE
5
128
100
AcDbEntity
8
1
62
256
6
ByLayer
370
-1
48
1
60
0
100
AcDbLine
10
14.293568
20
4.432529
30
0
11
13.992514
21
4.482788
31
0
39
0
210
0
220
0
230
1
0
LINE
5
129
100
AcDbEntity
8
1
62
256
6
ByLayer
370
-1
48
1
60
0
100
AcDbLine
10
22.997659
20
-0.386874
30
0
11
23.600419
21
-0.347734
31
0
39
0
210
0
220
0
230
1
0
LINE
5
12A
100
AcDbEntity
8
1
62
256
6
ByLayer
370
-1
48
1
60
0
100
AcDbLine
10
23.002641
20
-0.290074
30
0
11
22.99557
21
0.042772
31
0
39
0
210
0
220
0
230
1
0
LINE
5
12B
100
AcDbEntity
8
1
62
256
6
ByLayer
370
-1
48
1
60
0
100
AcDbLine
10
14.480576
20
7.975808
30
0
11
14.932564
21
8.364087
31
0
39
0
210
0
220
0
230
1
0
LINE
5
12C
100
AcDbEntity
8
1
62
256
6
ByLayer
370
-1
48
1
60
0
100
AcDbLine
10
14.185667
20
7.77897
30
0
11
14.163662
21
7.537376
31
0
39
0
210
0
220
0
230
1
0
LINE
5
12D
100
AcDbEntity
8
1
62
256
6
ByLayer
370
-1
48
1
60
0
100
AcDbLine
10
18.344956
20
10.20279
30
0
11
19.170653
21
9.430037
31
0
39
0
210
0
220
0
230
1
0
LINE
5
12E
100
AcDbEntity
8
1
62
256
6
ByLayer
370
-1
48
1
60
0
100
AcDbLine
10
24.255964
20
-0.613329
30
0
11
24.122515
21
-1.637287
31
0
39
0
210
0
220
0
230
1
0
LINE
5
12F
100
AcDbEntity
8
1
62
256
6
ByLayer
370
-1
48
1
60
0
100
AcDbLine
10
22.983883
20
-0.602763
30
0
11
22.997659
21
-0.386874
31
0
39
0
210
0
220
0
230
1
0
LINE
5
130
100
AcDbEntity
8
1
62
256
6
ByLayer
370
-1
48
1
60
0
100
AcDbLine
10
17.265947
20
2.932816
30
0
11
17.027177
21
2.49665
31
0
39
0
210
0
220
0
230
1
0
LINE
5
131
100
AcDbEntity
8
1
62
256
6
ByLayer
370
-1
48
1
60
0
100
AcDbLine
10
12.252993
20
4.807024
30
0
11
12.255031
21
4.803595
31
0
39
0
210
0
220
0
230
1
0
LINE
5
132
100
AcDbEntity
8
1
62
256
6
ByLayer
370
-1
48
1
60
0
100
AcDbLine
10
13.865284
20
3.50654
30
0
11
14.170579
21
3.473182
31
0
39
0
210
0
220
0
230
1
0
LINE
5
133
100
AcDbEntity
8
1
62
256
6
ByLayer
370
-1
48
1
60
0
100
AcDbLine
10
12.388867
20
5.830523
30
0
11
12.255031
21
4.803595
31
0
39
0
210
0
220
0
230
1
0
LINE
5
134
100
AcDbEntity
8
1
62
256
6
ByLayer
370
-1
48
1
60
0
100
AcDbLine
10
13.53171
20
5.120831
30
0
11
13.403808
21
4.139429
31
0
39
0
210
0
220
0
230
1
0
LINE
5
135
100
AcDbEntity
8
1
62
256
6
ByLayer
370
-1
48
1
60
0
100
AcDbLine
10
14.440586
20
7.536746
30
0
11
14.480576
21
7.975808
31
0
39
0
210
0
220
0
230
1
0
LINE
5
136
100
AcDbEntity
8
1
62
256
6
ByLayer
370
-1
48
1
60
0
100
AcDbLine
10
17.702798
20
3.38931
30
0
11
18.312006
21
3.237191
31
0
39
0
210
0
220
0
230
1
0
LINE
5
137
100
AcDbEntity
8
1
62
256
6
ByLayer
370
-1
48
1
60
0
100
AcDbLine
10
13.522568
20
5.273573
30
0
11
13.549985
21
5.329912
31
0
39
0
210
0
220
0
230
1
0
LINE
5
138
100
AcDbEntity
8
1
62
256
6
ByLayer
370
-1
48
1
60
0
100
AcDbLine
10
13.305742
20
7.345253
30
0
11
13.927097
21
7.639859
31
0
39
0
210
0
220
0
230
1
0
LINE
5
139
100
AcDbEntity
8
1
62
256
6
ByLayer
370
-1
48
1
60
0
100
AcDbLine
10
24.924505
20
2.431984
30
0
11
24.814465
21
2.217735
31
0
39
0
210
0
220
0
230
1
0
LINE
5
13A
100
AcDbEntity
8
1
62
256
6
ByLayer
370
-1
48
1
60
0
100
AcDbLine
10
24.663345
20
1.217859
30
0
11
24.339052
21
0.67783
31
0
39
0
210
0
220
0
230
1
0
LINE
5
13B
100
AcDbEntity
8
1
62
256
6
ByLayer
370
-1
48
1
60
0
100
AcDbLine
10
13.714911
20
5.772942
30
0
11
13.692089
21
5.989151
31
0
39
0
210
0
220
0
230
1
0
LINE
5
13C
100
AcDbEntity
8
1
62
256
6
ByLayer
370
-1
48
1
60
0
100
AcDbLine
10
23.477424
20
11.780868
30
0
11
23.922651
21
12.537111
31
0
39
0
210
0
220
0
230
1
0
LINE
5
13D
100
AcDbEntity
8
1
62
256
6
ByLayer
370
-1
48
1
60
0
100
AcDbLine
10
24.615062
20
9.77235
30
0
11
24.98298
21
9.529341
31
0
39
0
210
0
220
0
230
1
0
LINE
5
13E
100
AcDbEntity
8
1
62
256
6
ByLayer
370
-1
48
1
60
0
100
AcDbLine
10
24.427071
20
10.941113
30
0
11
24.11851
21
10.75378
31
0
39
0
210
0
220
0
230
1
0
LINE
5
13F
100
AcDbEntity
8
1
62
256
6
ByLayer
370
-1
48
1
60
0
100
AcDbLine
10
24.83269
20
1.459199
30
0
11
24.970587
21
2.517291
31
0
39
0
210
0
220
0
230
1
0
LINE
5
140
100
AcDbEntity
8
1
62
256
6
ByLayer
370
-1
48
1
60
0
100
AcDbLine
10
12.386829
20
5.833952
30
0
11
12.252993
21
4.807024
31
0
39
0
210
0
220
0
230
1
0
LINE
5
141
100
AcDbEntity
8
1
62
256
6
ByLayer
370
-1
48
1
60
0
100
AcDbLine
10
25.00472
20
2.64279
30
0
11
25.00472
21
5.008361
31
0
39
0
210
0
220
0
230
1
0
LINE
5
142
100
AcDbEntity
8
1
62
256
6
ByLayer
370
-1
48
1
60
0
100
AcDbLine
10
17.61398
20
9.808276
30
0
11
18.190852
21
9.268393
31
0
39
0
210
0
220
0
230
1
0
LINE
5
143
100
AcDbEntity
8
1
62
256
6
ByLayer
370
-1
48
1
60
0
100
AcDbLine
10
12.388867
20
5.830523
30
0
11
12.386829
21
5.833952
31
0
39
0
210
0
220
0
230
1
0
LINE
5
144
100
AcDbEntity
8
1
62
256
6
ByLayer
370
-1
48
1
60
0
100
AcDbLine
10
24.143597
20
-0.371123
30
0
11
23.698109
21
-0.185056
31
0
39
0
210
0
220
0
230
1
0
LINE
5
145
100
AcDbEntity
8
1
62
256
6
ByLayer
370
-1
48
1
60
0
100
AcDbLine
10
17.37094
20
2.243476
30
0
11
17.702798
21
3.38931
31
0
39
0
210
0
220
0
230
1
0
LINE
5
146
100
AcDbEntity
8
1
62
256
6
ByLayer
370
-1
48
1
60
0
100
AcDbLine
10
24.996577
20
5.962428
30
0
11
24.997637
21
5.345558
31
0
39
0
210
0
220
0
230
1
0
LINE
5
147
100
AcDbEntity
8
1
62
256
6
ByLayer
370
-1
48
1
60
0
100
AcDbLine
10
14.394677
20
4.369505
30
0
11
14.269655
21
3.410205
31
0
39
0
210
0
220
0
230
1
0
LINE
5
148
100
AcDbEntity
8
1
62
256
6
ByLayer
370
-1
48
1
60
0
100
AcDbLine
10
22.729867
20
-0.268252
30
0
11
22.722796
21
0.064594
31
0
39
0
210
0
220
0
230
1
0
LINE
5
149
100
AcDbEntity
8
1
62
256
6
ByLayer
370
-1
48
1
60
0
100
AcDbLine
10
17.110887
20
2.439073
30
0
11
17.351435
21
2.878488
31
0
39
0
210
0
220
0
230
1
0
LINE
5
14A
100
AcDbEntity
8
1
62
256
6
ByLayer
370
-1
48
1
60
0
100
AcDbLine
10
25.000329
20
5.17436
30
0
11
24.487589
21
5.078797
31
0
39
0
210
0
220
0
230
1
0
LINE
5
14B
100
AcDbEntity
8
1
62
256
6
ByLayer
370
-1
48
1
60
0
100
AcDbLine
10
23.663089
20
5.712421
30
0
11
23.83615
21
5.127608
31
0
39
0
210
0
220
0
230
1
0
LINE
5
14C
100
AcDbEntity
8
1
62
256
6
ByLayer
370
-1
48
1
60
0
100
AcDbLine
10
13.091348
20
6.135641
30
0
11
13.377924
21
6.602487
31
0
39
0
210
0
220
0
230
1
0
LINE
5
14D
100
AcDbEntity
8
1
62
256
6
ByLayer
370
-1
48
1
60
0
100
AcDbLine
10
12.66924
20
5.860304
30
0
11
13.098611
21
6.038734
31
0
39
0
210
0
220
0
230
1
0
LINE
5
14E
100
AcDbEntity
8
1
62
256
6
ByLayer
370
-1
48
1
60
0
100
AcDbLine
10
13.856003
20
4.575139
30
0
11
13.53171
21
5.120831
31
0
39
0
210
0
220
0
230
1
0
LINE
5
14F
100
AcDbEntity
8
1
62
256
6
ByLayer
370
-1
48
1
60
0
100
AcDbLine
10
24.544591
20
1.623509
30
0
11
24.671143
21
1.370453
31
0
39
0
210
0
220
0
230
1
0
LINE
5
150
100
AcDbEntity
8
1
62
256
6
ByLayer
370
-1
48
1
60
0
100
AcDbLine
10
17.454844
20
9.755734
30
0
11
17.61398
21
9.808276
31
0
39
0
210
0
220
0
230
1
0
LINE
5
151
100
AcDbEntity
8
1
62
256
6
ByLayer
370
-1
48
1
60
0
100
AcDbLine
10
24.98298
20
9.529341
30
0
11
25.002635
21
9.197676
31
0
39
0
210
0
220
0
230
1
0
LINE
5
152
100
AcDbEntity
8
1
62
256
6
ByLayer
370
-1
48
1
60
0
100
AcDbLine
10
23.121437
20
11.718437
30
0
11
23.365329
21
11.716308
31
0
39
0
210
0
220
0
230
1
0
LINE
5
153
100
AcDbEntity
8
1
62
256
6
ByLayer
370
-1
48
1
60
0
100
AcDbLine
10
24.077712
20
12.535758
30
0
11
24.950817
21
10.991722
31
0
39
0
210
0
220
0
230
1
0
LINE
5
154
100
AcDbEntity
8
1
62
256
6
ByLayer
370
-1
48
1
60
0
100
AcDbLine
10
18.75331
20
8.980291
30
0
11
19.189456
21
9.412986
31
0
39
0
210
0
220
0
230
1
0
LINE
5
155
100
AcDbEntity
8
1
62
256
6
ByLayer
370
-1
48
1
60
0
100
AcDbLine
10
24.978087
20
9.815454
30
0
11
24.775641
21
9.94917
31
0
39
0
210
0
220
0
230
1
0
LINE
5
156
100
AcDbEntity
8
1
62
256
6
ByLayer
370
-1
48
1
60
0
100
AcDbLine
10
25.00472
20
6.504295
30
0
11
24.163261
21
6.116076
31
0
39
0
210
0
220
0
230
1
0
LINE
5
157
100
AcDbEntity
8
1
62
256
6
ByLayer
370
-1
48
1
60
0
100
AcDbLine
10
14.887276
20
3.710673
30
0
11
15.058503
21
8.448111
31
0
39
0
210
0
220
0
230
1
0
LINE
5
158
100
AcDbEntity
8
1
62
256
6
ByLayer
370
-1
48
1
60
0
100
AcDbLine
10
24.390009
20
11.214332
30
0
11
24.087747
21
11.748865
31
0
39
0
210
0
220
0
230
1
0
LINE
5
159
100
AcDbEntity
8
1
62
256
6
ByLayer
370
-1
48
1
60
0
100
AcDbLine
10
24.628372
20
11.357054
30
0
11
24.390009
21
11.214332
31
0
39
0
210
0
220
0
230
1
0
LINE
5
15A
100
AcDbEntity
8
1
62
256
6
ByLayer
370
-1
48
1
60
0
100
AcDbLine
10
25.003566
20
2.61962
30
0
11
20.671557
21
0.43129
31
0
39
0
210
0
220
0
230
1
0
LINE
5
15B
100
AcDbEntity
8
1
62
256
6
ByLayer
370
-1
48
1
60
0
100
AcDbLine
10
13.000921
20
6.203118
30
0
11
12.57155
21
6.024688
31
0
39
0
210
0
220
0
230
1
0
LINE
5
15C
100
AcDbEntity
8
1
62
256
6
ByLayer
370
-1
48
1
60
0
100
AcDbLine
10
25.002635
20
9.197676
30
0
11
21.034747
21
11.628607
31
0
39
0
210
0
220
0
230
1
0
LINE
5
15D
100
AcDbEntity
8
1
62
256
6
ByLayer
370
-1
48
1
60
0
100
AcDbLine
10
23.910684
20
0.190216
30
0
11
24.333494
21
-0.484221
31
0
39
0
210
0
220
0
230
1
0
LINE
5
15E
100
AcDbEntity
8
1
62
256
6
ByLayer
370
-1
48
1
60
0
100
AcDbLine
10
24.996577
20
5.962428
30
0
11
23.688037
21
5.718548
31
0
39
0
210
0
220
0
230
1
0
LINE
5
15F
100
AcDbEntity
8
1
62
256
6
ByLayer
370
-1
48
1
60
0
100
AcDbLine
10
18.519559
20
10.317867
30
0
11
18.616713
21
10.393745
31
0
39
0
210
0
220
0
230
1
0
LINE
5
160
100
AcDbEntity
8
1
62
256
6
ByLayer
370
-1
48
1
60
0
100
AcDbLine
10
17.783851
20
9.887042
30
0
11
18.734507
21
8.997343
31
0
39
0
210
0
220
0
230
1
0
LINE
5
161
100
AcDbEntity
8
1
62
256
6
ByLayer
370
-1
48
1
60
0
100
AcDbLine
10
23.622316
20
0.46039
30
0
11
24.143597
21
-0.371123
31
0
39
0
210
0
220
0
230
1
0
LINE
5
162
100
AcDbEntity
8
1
62
256
6
ByLayer
370
-1
48
1
60
0
100
AcDbLine
10
14.769275
20
3.846277
30
0
11
14.659235
21
3.983162
31
0
39
0
210
0
220
0
230
1
0
LINE
5
163
100
AcDbEntity
8
1
62
256
6
ByLayer
370
-1
48
1
60
0
100
AcDbLine
10
21.713793
20
-0.15846
30
0
11
21.67054
21
-0.354303
31
0
39
0
210
0
220
0
230
1
0
LINE
5
164
100
AcDbEntity
8
1
62
256
6
ByLayer
370
-1
48
1
60
0
100
AcDbLine
10
19.084843
20
6.202001
30
0
11
19.057249
21
5.903501
31
0
39
0
210
0
220
0
230
1
0
LINE
5
165
100
AcDbEntity
8
1
62
256
6
ByLayer
370
-1
48
1
60
0
100
AcDbLine
10
19.128121
20
6.048522
30
0
11
19.155714
21
6.347022
31
0
39
0
210
0
220
0
230
1
0
LINE
5
166
100
AcDbEntity
8
1
62
256
6
ByLayer
370
-1
48
1
60
0
100
AcDbLine
10
7.545697
20
9.821863
30
0
11
7.362917
21
9.845684
31
0
39
0
210
0
220
0
230
1
0
LINE
5
167
100
AcDbEntity
8
1
62
256
6
ByLayer
370
-1
48
1
60
0
100
AcDbLine
10
6.564843
20
-9.559044
30
0
11
6.243786
21
-9.473017
31
0
39
0
210
0
220
0
230
1
0
LINE
5
168
100
AcDbEntity
8
1
62
256
6
ByLayer
370
-1
48
1
60
0
100
AcDbLine
10
6.415674
20
-9.845684
30
0
11
6.564843
21
-9.559044
31
0
39
0
210
0
220
0
230
1
0
LINE
5
169
100
AcDbEntity
8
1
62
256
6
ByLayer
370
-1
48
1
60
0
100
AcDbLine
10
21.612049
20
5.858228
30
0
11
21.643527
21
6.198751
31
0
39
0
210
0
220
0
230
1
0
LINE
5
16A
100
AcDbEntity
8
1
62
256
6
ByLayer
370
-1
48
1
60
0
100
AcDbLine
10
20.548479
20
6.864462
30
0
11
20.579958
21
7.204985
31
0
39
0
210
0
220
0
230
1
0
LINE
5
16B
100
AcDbEntity
8
1
62
256
6
ByLayer
370
-1
48
1
60
0
100
AcDbLine
10
19.583245
20
6.793582
30
0
11
19.614723
21
7.134105
31
0
39
0
210
0
220
0
230
1
0
LINE
5
16C
100
AcDbEntity
8
1
62
256
6
ByLayer
370
-1
48
1
60
0
100
AcDbLine
10
18.705199
20
5.633761
30
0
11
18.736636
21
5.973834
31
0
39
0
210
0
220
0
230
1
0
LINE
5
16D
100
AcDbEntity
8
1
62
256
6
ByLayer
370
-1
48
1
60
0
100
AcDbLine
10
0.450766
20
-9.845684
30
0
11
6.049847
21
-9.845684
31
0
39
0
210
0
220
0
230
1
0
LINE
5
16E
100
AcDbEntity
8
1
62
256
6
ByLayer
370
-1
48
1
60
0
100
AcDbLine
10
24.488004
20
-3.710877
30
0
11
24.55277
21
-3.213928
31
0
39
0
210
0
220
0
230
1
0
LINE
5
16F
100
AcDbEntity
8
1
62
256
6
ByLayer
370
-1
48
1
60
0
100
AcDbLine
10
24.235199
20
-5.650665
30
0
11
24.285763
21
-5.262684
31
0
39
0
210
0
220
0
230
1
0
LINE
5
170
100
AcDbEntity
8
1
62
256
6
ByLayer
370
-1
48
1
60
0
100
AcDbLine
10
10.661481
20
10.532668
30
0
11
14.621012
21
10.532668
31
0
39
0
210
0
220
0
230
1
0
LINE
5
171
100
AcDbEntity
8
1
62
256
6
ByLayer
370
-1
48
1
60
0
100
AcDbLine
10
10.661481
20
10.499815
30
0
11
10.661481
21
10.532668
31
0
39
0
210
0
220
0
230
1
0
LINE
5
172
100
AcDbEntity
8
1
62
256
6
ByLayer
370
-1
48
1
60
0
100
AcDbLine
10
24.052913
20
-3.693796
30
0
11
22.753285
21
-3.685748
31
0
39
0
210
0
220
0
230
1
0
LINE
5
173
100
AcDbEntity
8
1
62
256
6
ByLayer
370
-1
48
1
60
0
100
AcDbLine
10
16.979111
20
1.774695
30
0
11
22.303955
21
-1.215736
31
0
39
0
210
0
220
0
230
1
0
LINE
5
174
100
AcDbEntity
8
1
62
256
6
ByLayer
370
-1
48
1
60
0
100
AcDbLine
10
22.303955
20
-1.215736
30
0
11
22.303955
21
-1.611044
31
0
39
0
210
0
220
0
230
1
0
LINE
5
175
100
AcDbEntity
8
1
62
256
6
ByLayer
370
-1
48
1
60
0
100
AcDbLine
10
14.572641
20
9.500256
30
0
11
12.13827
21
8.175619
31
0
39
0
210
0
220
0
230
1
0
LINE
5
176
100
AcDbEntity
8
1
62
256
6
ByLayer
370
-1
48
1
60
0
100
AcDbLine
10
22.677232
20
-3.426384
30
0
11
22.903499
21
-3.370559
31
0
39
0
210
0
220
0
230
1
0
LINE
5
177
100
AcDbEntity
8
1
62
256
6
ByLayer
370
-1
48
1
60
0
100
AcDbLine
10
15.27433
20
10.146175
30
0
11
15.27433
21
8.672549
31
0
39
0
210
0
220
0
230
1
0
LINE
5
178
100
AcDbEntity
8
SK1
62
256
6
ByLayer
370
-1
48
1
60
0
100
AcDbLine
10
-0.298766
20
7.736854
30
0
11
-0.298766
21
7.202885
31
0
39
0
210
0
220
0
230
1
0
LINE
5
179
100
AcDbEntity
8
1
62
256
6
ByLayer
370
-1
48
1
60
0
100
AcDbLine
10
10.397163
20
10.282344
30
0
11
10.397163
21
10.167102
31
0
39
0
210
0
220
0
230
1
0
LINE
5
17A
100
AcDbEntity
8
1
62
256
6
ByLayer
370
-1
48
1
60
0
100
AcDbLine
10
7.641349
20
9.847493
30
0
11
7.545697
21
9.821863
31
0
39
0
210
0
220
0
230
1
0
LINE
5
17B
100
AcDbEntity
8
1
62
256
6
ByLayer
370
-1
48
1
60
0
100
AcDbLine
10
7.362917
20
9.845684
30
0
11
0.450766
21
9.845684
31
0
39
0
210
0
220
0
230
1
0
LINE
5
17C
100
AcDbEntity
8
1
62
256
6
ByLayer
370
-1
48
1
60
0
100
AcDbLine
10
6.243786
20
-9.473017
30
0
11
6.049847
21
-9.845684
31
0
39
0
210
0
220
0
230
1
0
LINE
5
17D
100
AcDbEntity
8
1
62
256
6
ByLayer
370
-1
48
1
60
0
100
AcDbLine
10
0.450766
20
-9.845684
30
0
11
0.450766
21
9.845684
31
0
39
0
210
0
220
0
230
1
0
LINE
5
17E
100
AcDbEntity
8
1
62
256
6
ByLayer
370
-1
48
1
60
0
100
AcDbLine
10
22.903499
20
-3.370559
30
0
11
22.922441
21
-3.252128
31
0
39
0
210
0
220
0
230
1
0
LINE
5
17F
100
AcDbEntity
8
1
62
256
6
ByLayer
370
-1
48
1
60
0
100
AcDbLine
10
14.572641
20
9.500256
30
0
11
14.572641
21
10.518526
31
0
39
0
210
0
220
0
230
1
0
LINE
5
180
100
AcDbEntity
8
1
62
256
6
ByLayer
370
-1
48
1
60
0
100
AcDbLine
10
22.655705
20
-3.659255
30
0
11
22.753285
21
-3.685748
31
0
39
0
210
0
220
0
230
1
0
LINE
5
181
100
AcDbEntity
8
1
62
256
6
ByLayer
370
-1
48
1
60
0
100
AcDbLine
10
24.052913
20
-3.693796
30
0
11
24.55277
21
-3.213928
31
0
39
0
210
0
220
0
230
1
0
LINE
5
182
100
AcDbEntity
8
1
62
256
6
ByLayer
370
-1
48
1
60
0
100
AcDbLine
10
22.655705
20
-3.659255
30
0
11
22.677232
21
-3.426384
31
0
39
0
210
0
220
0
230
1
0
LINE
5
183
100
AcDbEntity
8
1
62
256
6
ByLayer
370
-1
48
1
60
0
100
AcDbLine
10
15.27433
20
10.146175
30
0
11
14.621012
21
10.532668
31
0
39
0
210
0
220
0
230
1
0
LINE
5
184
100
AcDbEntity
8
SK1
62
256
6
ByLayer
370
-1
48
1
60
0
100
AcDbLine
10
-0.298766
20
-7.736854
30
0
11
-0.298766
21
-7.827734
31
0
39
0
210
0
220
0
230
1
0
LINE
5
185
100
AcDbEntity
8
1
62
256
6
ByLayer
370
-1
48
1
60
0
100
AcDbLine
10
12.420977
20
6.723452
30
0
11
12.475131
21
7.128386
31
0
39
0
210
0
220
0
230
1
0
LINE
5
186
100
AcDbEntity
8
1
62
256
6
ByLayer
370
-1
48
1
60
0
100
AcDbLine
10
12.13827
20
8.175619
30
0
11
12.475131
21
7.128386
31
0
39
0
210
0
220
0
230
1
0
LINE
5
187
100
AcDbEntity
8
1
62
256
6
ByLayer
370
-1
48
1
60
0
100
AcDbLine
10
12.475131
20
7.128386
30
0
11
15.27433
21
8.672549
31
0
39
0
210
0
220
0
230
1
0
LINE
5
188
100
AcDbEntity
8
1
62
256
6
ByLayer
370
-1
48
1
60
0
100
AcDbLine
10
22.972127
20
-2.148887
30
0
11
22.972127
21
-1.218127
31
0
39
0
210
0
220
0
230
1
0
LINE
5
189
100
AcDbEntity
8
1
62
256
6
ByLayer
370
-1
48
1
60
0
100
AcDbLine
10
22.303955
20
-1.215736
30
0
11
22.972127
21
-1.218127
31
0
39
0
210
0
220
0
230
1
0
LINE
5
18A
100
AcDbEntity
8
1
62
256
6
ByLayer
370
-1
48
1
60
0
100
AcDbLine
10
14.572641
20
9.500256
30
0
11
15.27433
21
8.672549
31
0
39
0
210
0
220
0
230
1
0
LINE
5
18B
100
AcDbEntity
8
1
62
256
6
ByLayer
370
-1
48
1
60
0
100
AcDbLine
10
11.779035
20
6.230255
30
0
11
11.800561
21
6.463126
31
0
39
0
210
0
220
0
230
1
0
LINE
5
18C
100
AcDbEntity
8
SK1
62
256
6
ByLayer
370
-1
48
1
60
0
100
AcDbLine
10
-0.238766
20
-6.429887
30
0
11
-0.238766
21
-6.738598
31
0
39
0
210
0
220
0
230
1
0
LINE
5
18D
100
AcDbEntity
8
1
62
256
6
ByLayer
370
-1
48
1
60
0
100
AcDbLine
10
18.23635
20
-4.199765
30
0
11
23.986972
21
-4.199765
31
0
39
0
210
0
220
0
230
1
0
LINE
5
18E
100
AcDbEntity
8
1
62
256
6
ByLayer
370
-1
48
1
60
0
100
AcDbLine
10
15.554186
20
-2.974436
30
0
11
18.051961
21
-2.974436
31
0
39
0
210
0
220
0
230
1
0
LINE
5
18F
100
AcDbEntity
8
1
62
256
6
ByLayer
370
-1
48
1
60
0
100
AcDbLine
10
22.922441
20
-3.252128
30
0
11
18.713072
21
-3.252128
31
0
39
0
210
0
220
0
230
1
0
LINE
5
190
100
AcDbEntity
8
SK1
62
256
6
ByLayer
370
-1
48
1
60
0
100
AcDbLine
10
-0.298766
20
7.082009
30
0
11
-0.298766
21
7.129703
31
0
39
0
210
0
220
0
230
1
0
LINE
5
191
100
AcDbEntity
8
SK1
62
256
6
ByLayer
370
-1
48
1
60
0
100
AcDbLine
10
-0.298766
20
-3.200211
30
0
11
-0.298766
21
-2.786748
31
0
39
0
210
0
220
0
230
1
0
LINE
5
192
100
AcDbEntity
8
SK1
62
256
6
ByLayer
370
-1
48
1
60
0
100
AcDbLine
10
-0.298766
20
6.304262
30
0
11
-0.298766
21
6.120818
31
0
39
0
210
0
220
0
230
1
0
LINE
5
193
100
AcDbEntity
8
SK1
62
256
6
ByLayer
370
-1
48
1
60
0
100
AcDbLine
10
-0.298766
20
-6.883874
30
0
11
-0.298766
21
-6.754228
31
0
39
0
210
0
220
0
230
1
0
LINE
5
194
100
AcDbEntity
8
SK1
62
256
6
ByLayer
370
-1
48
1
60
0
100
AcDbLine
10
-0.298766
20
6.754228
30
0
11
-0.298766
21
6.607664
31
0
39
0
210
0
220
0
230
1
0
LINE
5
195
100
AcDbEntity
8
1
62
256
6
ByLayer
370
-1
48
1
60
0
100
AcDbLine
10
7.223486
20
6.807573
30
0
11
7.222938
21
9.844771
31
0
39
0
210
0
220
0
230
1
0
LINE
5
196
100
AcDbEntity
8
SK1
62
256
6
ByLayer
370
-1
48
1
60
0
100
AcDbLine
10
-0.298766
20
-8.886086
30
0
11
-0.298766
21
-8.925793
31
0
39
0
210
0
220
0
230
1
0
LINE
5
197
100
AcDbEntity
8
SK1
62
256
6
ByLayer
370
-1
48
1
60
0
100
AcDbLine
10
-0.298766
20
7.827734
30
0
11
-0.298766
21
7.736854
31
0
39
0
210
0
220
0
230
1
0
LINE
5
198
100
AcDbEntity
8
SK1
62
256
6
ByLayer
370
-1
48
1
60
0
100
AcDbLine
10
0
20
8.909066
30
0
11
0
21
8.641988
31
0
39
0
210
0
220
0
230
1
0
LINE
5
199
100
AcDbEntity
8
SK1
62
256
6
ByLayer
370
-1
48
1
60
0
100
AcDbLine
10
-0.298766
20
8.925793
30
0
11
-0.298766
21
8.886086
31
0
39
0
210
0
220
0
230
1
0
LINE
5
19A
100
AcDbEntity
8
SK1
62
256
6
ByLayer
370
-1
48
1
60
0
100
AcDbLine
10
-0.298766
20
2.786748
30
0
11
-0.298766
21
-2.786748
31
0
39
0
210
0
220
0
230
1
0
LINE
5
19B
100
AcDbEntity
8
SK1
62
256
6
ByLayer
370
-1
48
1
60
0
100
AcDbLine
10
-0.298766
20
6.754228
30
0
11
-0.298766
21
6.883874
31
0
39
0
210
0
220
0
230
1
0
LINE
5
19C
100
AcDbEntity
8
SK1
62
256
6
ByLayer
370
-1
48
1
60
0
100
AcDbLine
10
-0.298766
20
2.786748
30
0
11
-0.298766
21
3.200211
31
0
39
0
210
0
220
0
230
1
0
LINE
5
19D
100
AcDbEntity
8
1
62
256
6
ByLayer
370
-1
48
1
60
0
100
AcDbLine
10
7.225005
20
-1.604777
30
0
11
7.224414
21
1.667459
31
0
39
0
210
0
220
0
230
1
0
LINE
5
19E
100
AcDbEntity
8
1
62
256
6
ByLayer
370
-1
48
1
60
0
100
AcDbLine
10
11.188045
20
-5.739722
30
0
11
11.142397
21
-6.089983
31
0
39
0
210
0
220
0
230
1
0
LINE
5
19F
100
AcDbEntity
8
1
62
256
6
ByLayer
370
-1
48
1
60
0
100
AcDbLine
10
8.212876
20
-7.246285
30
0
11
8.188798
21
-7.431037
31
0
39
0
210
0
220
0
230
1
0
LINE
5
1A0
100
AcDbEntity
8
1
62
256
6
ByLayer
370
-1
48
1
60
0
100
AcDbLine
10
11.512243
20
-3.252128
30
0
11
11.388741
21
-4.199765
31
0
39
0
210
0
220
0
230
1
0
LINE
5
1A1
100
AcDbEntity
8
1
62
256
6
ByLayer
370
-1
48
1
60
0
100
AcDbLine
10
23.786275
20
-5.739722
30
0
11
11.188045
21
-5.739722
31
0
39
0
210
0
220
0
230
1
0
LINE
5
1A2
100
AcDbEntity
8
1
62
256
6
ByLayer
370
-1
48
1
60
0
100
AcDbLine
10
8.480322
20
-5.194155
30
0
11
8.350771
21
-6.188207
31
0
39
0
210
0
220
0
230
1
0
LINE
5
1A3
100
AcDbEntity
8
1
62
256
6
ByLayer
370
-1
48
1
60
0
100
AcDbLine
10
23.986972
20
-4.199765
30
0
11
24.052913
21
-3.693796
31
0
39
0
210
0
220
0
230
1
0
LINE
5
1A4
100
AcDbEntity
8
1
62
256
6
ByLayer
370
-1
48
1
60
0
100
AcDbLine
10
23.740627
20
-6.089983
30
0
11
23.786275
21
-5.739722
31
0
39
0
210
0
220
0
230
1
0
LINE
5
1A5
100
AcDbEntity
8
1
62
256
6
ByLayer
370
-1
48
1
60
0
100
AcDbLine
10
14.893075
20
-3.252128
30
0
11
11.512243
21
-3.252128
31
0
39
0
210
0
220
0
230
1
0
LINE
5
1A6
100
AcDbEntity
8
1
62
256
6
ByLayer
370
-1
48
1
60
0
100
AcDbLine
10
11.388741
20
-4.199765
30
0
11
15.369797
21
-4.199765
31
0
39
0
210
0
220
0
230
1
0
LINE
5
1A7
100
AcDbEntity
8
1
62
256
6
ByLayer
370
-1
48
1
60
0
100
AcDbLine
10
11.142397
20
-6.089983
30
0
11
23.740627
21
-6.089983
31
0
39
0
210
0
220
0
230
1
0
LINE
5
1A8
100
AcDbEntity
8
SK1
62
256
6
ByLayer
370
-1
48
1
60
0
100
AcDbLine
10
-0.238766
20
6.738598
30
0
11
-0.238766
21
6.429887
31
0
39
0
210
0
220
0
230
1
0
LINE
5
1A9
100
AcDbEntity
8
SK1
62
256
6
ByLayer
370
-1
48
1
60
0
100
AcDbLine
10
-0.298766
20
-6.120818
30
0
11
-0.298766
21
-6.304262
31
0
39
0
210
0
220
0
230
1
0
LINE
5
1AA
100
AcDbEntity
8
SK1
62
256
6
ByLayer
370
-1
48
1
60
0
100
AcDbLine
10
-0.238766
20
7.740015
30
0
11
-0.238766
21
7.120291
31
0
39
0
210
0
220
0
230
1
0
LINE
5
1AB
100
AcDbEntity
8
SK1
62
256
6
ByLayer
370
-1
48
1
60
0
100
AcDbLine
10
-0.298766
20
-6.607664
30
0
11
-0.298766
21
-6.754228
31
0
39
0
210
0
220
0
230
1
0
LINE
5
1AC
100
AcDbEntity
8
SK1
62
256
6
ByLayer
370
-1
48
1
60
0
100
AcDbLine
10
-0.298766
20
5.511537
30
0
11
-0.298766
21
5.315569
31
0
39
0
210
0
220
0
230
1
0
LINE
5
1AD
100
AcDbEntity
8
SK1
62
256
6
ByLayer
370
-1
48
1
60
0
100
AcDbLine
10
-0.298766
20
-7.129703
30
0
11
-0.298766
21
-7.082009
31
0
39
0
210
0
220
0
230
1
0
LINE
5
1AE
100
AcDbEntity
8
SK1
62
256
6
ByLayer
370
-1
48
1
60
0
100
AcDbLine
10
-0.238766
20
2.652445
30
0
11
-0.238766
21
-2.652445
31
0
39
0
210
0
220
0
230
1
0
LINE
5
1AF
100
AcDbEntity
8
SK1
62
256
6
ByLayer
370
-1
48
1
60
0
100
AcDbLine
10
0
20
8.319568
30
0
11
0
21
7.935062
31
0
39
0
210
0
220
0
230
1
0
LINE
5
1B0
100
AcDbEntity
8
1
62
256
6
ByLayer
370
-1
48
1
60
0
100
AcDbLine
10
0
20
-5.491149
30
0
11
0
21
-6.287107
31
0
39
0
210
0
220
0
230
1
0
LINE
5
1B1
100
AcDbEntity
8
1
62
256
6
ByLayer
370
-1
48
1
60
0
100
AcDbLine
10
0
20
-3.009811
30
0
11
0
21
3.009811
31
0
39
0
210
0
220
0
230
1
0
LINE
5
1B2
100
AcDbEntity
8
SK1
62
256
6
ByLayer
370
-1
48
1
60
0
100
AcDbLine
10
0
20
9.295306
30
0
11
0
21
9.125662
31
0
39
0
210
0
220
0
230
1
0
LINE
5
1B3
100
AcDbEntity
8
1
62
256
6
ByLayer
370
-1
48
1
60
0
100
AcDbLine
10
0
20
7.478901
30
0
11
0
21
6.936964
31
0
39
0
210
0
220
0
230
1
0
LINE
5
1B4
100
AcDbEntity
8
SK1
62
256
6
ByLayer
370
-1
48
1
60
0
100
AcDbLine
10
0
20
7.478901
30
0
11
0
21
6.936964
31
0
39
0
210
0
220
0
230
1
0
LINE
5
1B5
100
AcDbEntity
8
1
62
256
6
ByLayer
370
-1
48
1
60
0
100
AcDbLine
10
0
20
-6.936964
30
0
11
0
21
-7.478901
31
0
39
0
210
0
220
0
230
1
0
LINE
5
1B6
100
AcDbEntity
8
1
62
256
6
ByLayer
370
-1
48
1
60
0
100
AcDbLine
10
18.367632
20
1.736981
30
0
11
18.433909
21
2.63848
31
0
39
0
210
0
220
0
230
1
0
LINE
5
1B7
100
AcDbEntity
8
1
62
256
6
ByLayer
370
-1
48
1
60
0
100
AcDbLine
10
18.335729
20
2.636717
30
0
11
18.272802
21
1.780775
31
0
39
0
210
0
220
0
230
1
0
LINE
5
1B8
100
AcDbEntity
8
1
62
256
6
ByLayer
370
-1
48
1
60
0
100
AcDbLine
10
18.103877
20
1.836181
30
0
11
18.335729
21
2.636717
31
0
39
0
210
0
220
0
230
1
0
LINE
5
1B9
100
AcDbEntity
8
1
62
256
6
ByLayer
370
-1
48
1
60
0
100
AcDbLine
10
13.714911
20
5.772942
30
0
11
12.66924
21
5.860304
31
0
39
0
210
0
220
0
230
1
0
LINE
5
1BA
100
AcDbEntity
8
1
62
256
6
ByLayer
370
-1
48
1
60
0
100
AcDbLine
10
24.045907
20
-0.533802
30
0
11
22.983883
21
-0.602763
31
0
39
0
210
0
220
0
230
1
0
LINE
5
1BB
100
AcDbEntity
8
1
62
256
6
ByLayer
370
-1
48
1
60
0
100
AcDbLine
10
24.814465
20
2.217735
30
0
11
21.610666
21
0.120408
31
0
39
0
210
0
220
0
230
1
0
LINE
5
1BC
100
AcDbEntity
8
SK1
62
256
6
ByLayer
370
-1
48
1
60
0
100
AcDbLine
10
-0.298766
20
8.42456
30
0
11
-0.298766
21
8.48729
31
0
39
0
210
0
220
0
230
1
0
LINE
5
1BD
100
AcDbEntity
8
SK1
62
256
6
ByLayer
370
-1
48
1
60
0
100
AcDbLine
10
-0.298766
20
-5.315569
30
0
11
-0.298766
21
-5.511537
31
0
39
0
210
0
220
0
230
1
0
LINE
5
1BE
100
AcDbEntity
8
SK1
62
256
6
ByLayer
370
-1
48
1
60
0
100
AcDbLine
10
-0.298766
20
-7.202885
30
0
11
-0.298766
21
-7.736854
31
0
39
0
210
0
220
0
230
1
0
LINE
5
1BF
100
AcDbEntity
8
SK1
62
256
6
ByLayer
370
-1
48
1
60
0
100
AcDbLine
10
-0.238766
20
-7.120291
30
0
11
-0.238766
21
-7.740015
31
0
39
0
210
0
220
0
230
1
0
MTEXT
5
340
100
AcDbEntity
8
SK6
62
256
6
ByLayer
370
-1
48
1
60
0
100
AcDbMText
10
13.375
20
-22.71725
30
0
210
0
220
0
230
1
1
\W00.727;\fsimplex.shx,bigfont.shx;SL-266RKF-202514-16 
40
3.5
41
0
44
1.084337
50
0
71
7
72
5
7
DEFAULT
0
DIMENSION
5
373
100
AcDbEntity
8
2
62
256
6
ByLayer
370
-3
48
1
60
0
100
AcDbDimension
2
DimnDraft3D1
10
39.25
20
13.875
30
0
11
39.25
21
4.634211
31
0
70
32
71
5
72
1
41
1
210
0
220
0
230
1
3
Standard
100
AcDbAlignedDimension
13
31.5
23
0
33
0
14
26.5
24
13.875
34
0
50
90
100
AcDbRotatedDimension
1001
ACAD
1000
DSTYLE
1002
{
1070
    74
1070
     0
1070
   279
1070
     0
1070
   172
1070
     1
1070
   173
1070
     1
1070
   340
1005
341
1070
   271
1070
     3
1070
   272
1070
     3
1070
    77
1070
     1
1070
    73
1070
     0
1070
   171
1070
     4
1070
   274
1070
     4
1070
   177
1070
     2
1070
   176
1070
     2
1070
   178
1070
     7
1070
    78
1070
     8
1070
    41
1041
3.0
1070
   147
1041
2.25
1070
    42
1041
1.5
1070
    44
1041
3.0
1070
   140
1041
4.5
1070
   343
1005
374
1070
   344
1005
374
1002
}
0
DIMENSION
5
389
100
AcDbEntity
8
SK2
62
256
6
ByLayer
370
-3
48
1
60
0
100
AcDbDimension
2
DimnDraft3D2
10
-9.75
20
-10
30
0
11
-9.75
21
-4.784211
31
0
70
32
71
5
72
1
41
1
210
0
220
0
230
1
3
Standard
100
AcDbAlignedDimension
13
-1.5
23
10
33
0
14
-1.5
24
-10
34
0
50
90
100
AcDbRotatedDimension
1001
ACAD
1000
DSTYLE
1002
{
1070
    74
1070
     0
1070
   279
1070
     0
1070
   172
1070
     1
1070
   173
1070
     1
1070
   340
1005
341
1070
   271
1070
     3
1070
   272
1070
     3
1070
    77
1070
     1
1070
    73
1070
     0
1070
   171
1070
     4
1070
   274
1070
     4
1070
   177
1070
     2
1070
   176
1070
     2
1070
   178
1070
     7
1070
    78
1070
     8
1070
    41
1041
3.0
1070
   147
1041
2.25
1070
    42
1041
1.5
1070
    44
1041
3.0
1070
   140
1041
4.5
1070
   343
1005
374
1070
   344
1005
374
1002
}
0
DIMENSION
5
397
100
AcDbEntity
8
2
62
256
6
ByLayer
370
-3
48
1
60
0
100
AcDbDimension
2
DimnDraft3D3
10
0
20
33.625
30
0
11
9.871053
21
33.625
31
0
70
32
71
5
72
1
41
1
210
0
220
0
230
1
3
Standard
100
AcDbAlignedDimension
13
25
23
15.375
33
0
14
0
24
1.5
34
0
50
0
100
AcDbRotatedDimension
1001
ACAD
1000
DSTYLE
1002
{
1070
   279
1070
     0
1070
   172
1070
     1
1070
   173
1070
     1
1070
   340
1005
341
1070
   271
1070
     3
1070
   272
1070
     3
1070
    77
1070
     1
1070
    73
1070
     0
1070
   171
1070
     4
1070
   274
1070
     4
1070
   177
1070
     2
1070
   176
1070
     2
1070
   178
1070
     7
1070
    78
1070
     8
1070
    41
1041
3.0
1070
   147
1041
2.25
1070
    42
1041
1.5
1070
    44
1041
3.0
1070
   140
1041
4.5
1070
   343
1005
374
1070
   344
1005
374
1002
}
0
ENDSEC
0
SECTION
2
OBJECTS
0
DICTIONARY
5
3c8
330
0
100
AcDbDictionary
280
0
281
1
3
ACAD_GROUP
350
3c9
3
ACAD_MLINESTYLE
350
3ca
0
DICTIONARY
5
3c9
330
0
100
AcDbDictionary
280
0
281
1
0
DICTIONARY
5
3ca
330
0
100
AcDbDictionary
280
0
281
1
3
Standard
350
18
0
MLINESTYLE
5
18
330
3ca
100
AcDbMlineStyle
2
Standard
70
0
3

62
256
51
90
52
90
71
2
49
-0.5
62
256
6
ByLayer
49
0.5
62
256
6
ByLayer
0
RASTERVARIABLES
5
3b6
330

100
AcDbRasterVariables
90
0
70
1
71
1
72
1
0
ENDSEC
0
EOF
