0
SECTION
2
HEADER
9
$ACADVER
1
AC1015
9
$DWGCODEPAGE
3
ANSI_1252
9
$HANDSEED
5
3dc
9
$ANGBASE
50
0
9
$ANGDIR
70
0
9
$ATTMODE
70
1
9
$AUNITS
70
0
9
$AUPREC
70
0
9
$CECOLOR
62
256
9
$CELTSCALE
40
1
9
$CELTYPE
6
ByLayer
9
$CELWEIGHT
370
-1
9
$CLAYER
8
0
9
$CMLJUST
70
0
9
$CMLSCALE
40
1
9
$CMLSTYLE
2
Standard
9
$DIMSTYLE
2
Standard
9
$TEXTSIZE
40
0.2
9
$TEXTSTYLE
7
Standard
9
$LUNITS
70
2
9
$LUPREC
70
4
9
$EXTNAMES
290
1
9
$INSUNITS
70
4
9
$LTSCALE
40
1
9
$LWDISPLAY
290
0
9
$PDMODE
70
0
9
$PDSIZE
40
0
9
$PLINEGEN
70
0
0
ENDSEC
0
SECTION
2
CLASSES
0
CLASS
1
RASTERVARIABLES
2
AcDbRasterVariables
3
ISM
90
0
280
0
281
0
0
ENDSEC
0
SECTION
2
TABLES
0
TABLE
2
VPORT
5
3d2
100
AcDbSymbolTable
0
VPORT
5
1
100
AcDbSymbolTableRecord
100
AcDbViewportTableRecord
2
*Active
70
0
10
0
20
0
11
1
21
1
12
-1
22
1
13
0
23
0
14
0.5
24
0.5
15
10
25
10
16
0
26
0
36
1
17
0
27
0
37
0
0
ENDTAB
0
TABLE
2
LTYPE
5
3d3
100
AcDbSymbolTable
0
LTYPE
5
14
100
AcDbSymbolTableRecord
100
AcDbLinetypeTableRecord
70
0
2
ByBlock
3

72
65
73
0
40
0
0
LTYPE
5
15
100
AcDbSymbolTableRecord
100
AcDbLinetypeTableRecord
70
0
2
ByLayer
3

72
65
73
0
40
0
0
LTYPE
5
16
100
AcDbSymbolTableRecord
100
AcDbLinetypeTableRecord
70
0
2
CONTINUOUS
3
Solid line
72
65
73
0
40
0
0
LTYPE
5
3B
100
AcDbSymbolTableRecord
100
AcDbLinetypeTableRecord
70
0
2
DASHED
3
__ __ __ __ __ __ __ __ __
72
65
73
2
40
25.72
49
12.86
74
0
49
-12.86
74
0
0
LTYPE
5
3C
100
AcDbSymbolTableRecord
100
AcDbLinetypeTableRecord
70
0
2
HIDDEN
3
_ _ _ _ _ _ _ _ _ _ _ _ _ _ _
72
65
73
2
40
0.5
49
0.25
74
0
49
-0.25
74
0
0
LTYPE
5
3D
100
AcDbSymbolTableRecord
100
AcDbLinetypeTableRecord
70
0
2
PHANTOM
3
____ _ _ ____ _ _ _____ _ _ ____
72
65
73
6
40
50.5
49
18
74
0
49
-6.5
74
0
49
6.5
74
0
49
-6.5
74
0
49
6.5
74
0
49
-6.5
74
0
0
LTYPE
5
3E
100
AcDbSymbolTableRecord
100
AcDbLinetypeTableRecord
70
0
2
CENTER
3
____ _ ____ _ ____ _ ____
72
65
73
4
40
47.5
49
22
74
0
49
-8.5
74
0
49
8.5
74
0
49
-8.5
74
0
0
LTYPE
5
3F
100
AcDbSymbolTableRecord
100
AcDbLinetypeTableRecord
70
0
2
DOT
3
.........................
72
65
73
2
40
10
49
0
74
0
49
-10
74
0
0
LTYPE
5
40
100
AcDbSymbolTableRecord
100
AcDbLinetypeTableRecord
70
0
2
DASHDOT
3
_._._._._._._._._._._._._._._._.
72
65
73
4
40
70
49
31
74
0
49
-13
74
0
49
13
74
0
49
-13
74
0
0
ENDTAB
0
TABLE
2
LAYER
5
3d4
100
AcDbSymbolTable
0
LAYER
5
10
100
AcDbSymbolTableRecord
100
AcDbLayerTableRecord
2
0
70
0
62
7
6
CONTINUOUS
290
1
370
-3
390
0
0
LAYER
5
42
100
AcDbSymbolTableRecord
100
AcDbLayerTableRecord
2
80
70
0
62
-6
6
CONTINUOUS
290
1
370
-3
390
0
0
LAYER
5
44
100
AcDbSymbolTableRecord
100
AcDbLayerTableRecord
2
81
70
0
62
-3
6
CONTINUOUS
290
1
370
-3
390
0
0
LAYER
5
46
100
AcDbSymbolTableRecord
100
AcDbLayerTableRecord
2
2
70
0
62
7
6
CONTINUOUS
290
1
370
-3
390
0
0
LAYER
5
4A
100
AcDbSymbolTableRecord
100
AcDbLayerTableRecord
2
1
70
0
62
4
6
CONTINUOUS
290
1
370
-3
390
0
0
LAYER
5
52
100
AcDbSymbolTableRecord
100
AcDbLayerTableRecord
2
4
70
0
62
-2
6
CENTER
290
1
370
-3
390
0
0
LAYER
5
3be
100
AcDbSymbolTableRecord
100
AcDbLayerTableRecord
2
SK4
70
0
62
2
6
CENTER
290
1
370
-3
390
0
0
LAYER
5
3bf
100
AcDbSymbolTableRecord
100
AcDbLayerTableRecord
2
SK1
70
0
62
4
6
CONTINUOUS
290
1
370
-3
390
0
0
LAYER
5
3c0
100
AcDbSymbolTableRecord
100
AcDbLayerTableRecord
2
SK6
70
0
62
5
6
CONTINUOUS
290
1
370
-3
390
0
0
LAYER
5
3c1
100
AcDbSymbolTableRecord
100
AcDbLayerTableRecord
2
SK2
70
0
62
7
6
CONTINUOUS
290
1
370
-3
390
0
0
ENDTAB
0
TABLE
2
STYLE
5
3d5
100
AcDbSymbolTable
0
STYLE
5
11
100
AcDbSymbolTableRecord
100
AcDbTextStyleTableRecord
2
Standard
3
txt
70
0
71
0
40
0
41
1
42
0
50
0
0
STYLE
5
348
100
AcDbSymbolTableRecord
100
AcDbTextStyleTableRecord
2
DEFAULT
3
simplex.shx
70
0
71
0
40
0
41
1
42
0
50
0
0
STYLE
5
36B
100
AcDbSymbolTableRecord
100
AcDbTextStyleTableRecord
2
DWGDirectTextStyle
3
SIMPLEX
70
0
71
0
40
0
41
1
42
0
50
0
0
ENDTAB
0
TABLE
2
DIMSTYLE
5
3d6
100
AcDbSymbolTable
100
AcDbDimStyleTable
0
DIMSTYLE
105
27
100
AcDbSymbolTableRecord
100
AcDbDimStyleTableRecord
2
Standard
70
0
3
<>
41
0.18
42
0.0625
44
0.18
140
0.18
147
0.09
73
0
74
0
77
1
271
2
275
0
278
52
280
0
340
11
0
ENDTAB
0
TABLE
2
VIEW
5
3d7
100
AcDbSymbolTable
0
ENDTAB
0
TABLE
2
UCS
5
3d8
100
AcDbSymbolTable
0
ENDTAB
0
TABLE
2
APPID
5
3d9
100
AcDbSymbolTable
0
APPID
5
12
100
AcDbSymbolTableRecord
100
AcDbRegAppTableRecord
2
ACAD
70
0
0
ENDTAB
0
TABLE
2
BLOCK_RECORD
5
3da
100
AcDbSymbolTable
0
BLOCK_RECORD
5
1F
100
AcDbSymbolTableRecord
100
AcDbBlockTableRecord
2
*Model_Space
340
0
70
0
0
BLOCK_RECORD
5
1B
100
AcDbSymbolTableRecord
100
AcDbBlockTableRecord
2
*Paper_Space
340
0
70
0
0
BLOCK_RECORD
5
23
100
AcDbSymbolTableRecord
100
AcDbBlockTableRecord
2
*Paper_Space0
340
0
70
0
0
BLOCK_RECORD
5
36D
100
AcDbSymbolTableRecord
100
AcDbBlockTableRecord
2
DimnDraft3D1
340
0
70
0
0
BLOCK_RECORD
5
37B
100
AcDbSymbolTableRecord
100
AcDbBlockTableRecord
2
_CLOSED
340
0
70
0
0
BLOCK_RECORD
5
382
100
AcDbSymbolTableRecord
100
AcDbBlockTableRecord
2
DimnDraft3D2
340
0
70
0
0
BLOCK_RECORD
5
391
100
AcDbSymbolTableRecord
100
AcDbBlockTableRecord
2
DimnDraft3D3
340
0
70
0
0
ENDTAB
0
ENDSEC
0
SECTION
2
BLOCKS
0
BLOCK
5
20
100
AcDbEntity
8
0
100
AcDbBlockBegin
2
*Model_Space
70
0
10
0
20
0
30
0
3
*Model_Space
0
ENDBLK
5
21
100
AcDbEntity
8
0
100
AcDbBlockEnd
0
BLOCK
5
1C
100
AcDbEntity
8
0
100
AcDbBlockBegin
2
*Paper_Space
70
0
10
0
20
0
30
0
3
*Paper_Space
0
ENDBLK
5
1D
100
AcDbEntity
8
0
100
AcDbBlockEnd
0
BLOCK
5
24
100
AcDbEntity
8
0
100
AcDbBlockBegin
2
*Paper_Space0
70
0
10
0
20
0
30
0
3
*Paper_Space0
0
ENDBLK
5
25
100
AcDbEntity
8
0
100
AcDbBlockEnd
0
BLOCK
5
378
100
AcDbEntity
8
0
100
AcDbBlockBegin
2
DimnDraft3D1
70
0
10
0
20
0
30
0
3
DimnDraft3D1
0
MTEXT
5
36E
100
AcDbEntity
8
2
62
256
6
ByLayer
370
-1
48
1
60
0
100
AcDbMText
10
38.125
20
5.759211
30
0
210
0
220
0
230
1
1
\W01.000;\fsimplex.shx,bigfont.shx;14 
40
4.5
41
0
44
1.084337
50
90
71
7
72
5
7
DEFAULT
0
LINE
5
36F
100
AcDbEntity
8
2
62
256
6
ByLayer
370
-1
48
1
60
0
100
AcDbLine
10
31.5
20
0
30
0
11
42.25
21
0
31
0
39
0
210
0
220
0
230
1
0
LINE
5
370
100
AcDbEntity
8
2
62
256
6
ByLayer
370
-1
48
1
60
0
100
AcDbLine
10
26.5
20
13.875
30
0
11
42.25
21
13.875
31
0
39
0
210
0
220
0
230
1
0
LINE
5
371
100
AcDbEntity
8
2
62
256
6
ByLayer
370
-1
48
1
60
0
100
AcDbLine
10
39.25
20
0
30
0
11
39.25
21
13.875
31
0
39
0
210
0
220
0
230
1
0
LINE
5
372
100
AcDbEntity
8
2
62
256
6
ByLayer
370
-1
48
1
60
0
100
AcDbLine
10
39.25
20
0
30
0
11
38.855043
21
2.999999
31
0
39
0
210
0
220
0
230
1
0
LINE
5
373
100
AcDbEntity
8
2
62
256
6
ByLayer
370
-1
48
1
60
0
100
AcDbLine
10
39.25
20
0
30
0
11
39.644957
21
3.000001
31
0
39
0
210
0
220
0
230
1
0
LINE
5
374
100
AcDbEntity
8
2
62
256
6
ByLayer
370
-1
48
1
60
0
100
AcDbLine
10
38.855043
20
2.999999
30
0
11
39.644957
21
3.000001
31
0
39
0
210
0
220
0
230
1
0
LINE
5
375
100
AcDbEntity
8
2
62
256
6
ByLayer
370
-1
48
1
60
0
100
AcDbLine
10
39.25
20
13.875
30
0
11
39.644957
21
10.875001
31
0
39
0
210
0
220
0
230
1
0
LINE
5
376
100
AcDbEntity
8
2
62
256
6
ByLayer
370
-1
48
1
60
0
100
AcDbLine
10
39.25
20
13.875
30
0
11
38.855043
21
10.874999
31
0
39
0
210
0
220
0
230
1
0
LINE
5
377
100
AcDbEntity
8
2
62
256
6
ByLayer
370
-1
48
1
60
0
100
AcDbLine
10
39.644957
20
10.875001
30
0
11
38.855043
21
10.874999
31
0
39
0
210
0
220
0
230
1
0
ENDBLK
5
379
100
AcDbEntity
8
0
100
AcDbBlockEnd
0
BLOCK
5
37C
100
AcDbEntity
8
0
100
AcDbBlockBegin
2
_CLOSED
70
0
10
0
20
0
30
0
3
_CLOSED
0
LINE
5
37E
100
AcDbEntity
8
0
62
256
6
ByLayer
370
-2
48
1
60
0
100
AcDbLine
10
-1
20
0.166667
30
0
11
0
21
0
31
0
39
0
210
0
220
0
230
1
0
LINE
5
37F
100
AcDbEntity
8
0
62
256
6
ByLayer
370
-2
48
1
60
0
100
AcDbLine
10
0
20
0
30
0
11
-1
21
-0.166667
31
0
39
0
210
0
220
0
230
1
0
LINE
5
380
100
AcDbEntity
8
0
62
256
6
ByLayer
370
-2
48
1
60
0
100
AcDbLine
10
-1
20
0.166667
30
0
11
-1
21
-0.166667
31
0
39
0
210
0
220
0
230
1
0
LINE
5
381
100
AcDbEntity
8
0
62
256
6
ByLayer
370
-2
48
1
60
0
100
AcDbLine
10
0
20
0
30
0
11
-1
21
0
31
0
39
0
210
0
220
0
230
1
0
ENDBLK
5
37D
100
AcDbEntity
8
0
100
AcDbBlockEnd
0
BLOCK
5
38E
100
AcDbEntity
8
0
100
AcDbBlockBegin
2
DimnDraft3D2
70
0
10
0
20
0
30
0
3
DimnDraft3D2
0
MTEXT
5
383
100
AcDbEntity
8
SK2
62
256
6
ByLayer
370
-1
48
1
60
0
100
AcDbMText
10
-10.875
20
-3.659211
30
0
210
0
220
0
230
1
1
\W01.000;\fsimplex.shx,bigfont.shx;%%c20 
40
4.5
41
0
44
1.084337
50
90
71
7
72
5
7
DEFAULT
0
LINE
5
385
100
AcDbEntity
8
SK2
62
256
6
ByLayer
370
-1
48
1
60
0
100
AcDbLine
10
-1.5
20
10
30
0
11
-12.75
21
10
31
0
39
0
210
0
220
0
230
1
0
LINE
5
386
100
AcDbEntity
8
SK2
62
256
6
ByLayer
370
-1
48
1
60
0
100
AcDbLine
10
-1.5
20
-10
30
0
11
-12.75
21
-10
31
0
39
0
210
0
220
0
230
1
0
LINE
5
387
100
AcDbEntity
8
SK2
62
256
6
ByLayer
370
-1
48
1
60
0
100
AcDbLine
10
-9.75
20
10
30
0
11
-9.75
21
-10
31
0
39
0
210
0
220
0
230
1
0
LINE
5
388
100
AcDbEntity
8
SK2
62
256
6
ByLayer
370
-1
48
1
60
0
100
AcDbLine
10
-9.75
20
10
30
0
11
-9.355043
21
7.000001
31
0
39
0
210
0
220
0
230
1
0
LINE
5
389
100
AcDbEntity
8
SK2
62
256
6
ByLayer
370
-1
48
1
60
0
100
AcDbLine
10
-9.75
20
10
30
0
11
-10.144957
21
6.999999
31
0
39
0
210
0
220
0
230
1
0
LINE
5
38A
100
AcDbEntity
8
SK2
62
256
6
ByLayer
370
-1
48
1
60
0
100
AcDbLine
10
-9.355043
20
7.000001
30
0
11
-10.144957
21
6.999999
31
0
39
0
210
0
220
0
230
1
0
LINE
5
38B
100
AcDbEntity
8
SK2
62
256
6
ByLayer
370
-1
48
1
60
0
100
AcDbLine
10
-9.75
20
-10
30
0
11
-10.144957
21
-7.000001
31
0
39
0
210
0
220
0
230
1
0
LINE
5
38C
100
AcDbEntity
8
SK2
62
256
6
ByLayer
370
-1
48
1
60
0
100
AcDbLine
10
-9.75
20
-10
30
0
11
-9.355043
21
-6.999999
31
0
39
0
210
0
220
0
230
1
0
LINE
5
38D
100
AcDbEntity
8
SK2
62
256
6
ByLayer
370
-1
48
1
60
0
100
AcDbLine
10
-10.144957
20
-7.000001
30
0
11
-9.355043
21
-6.999999
31
0
39
0
210
0
220
0
230
1
0
ENDBLK
5
38F
100
AcDbEntity
8
0
100
AcDbBlockEnd
0
BLOCK
5
39C
100
AcDbEntity
8
0
100
AcDbBlockBegin
2
DimnDraft3D3
70
0
10
0
20
0
30
0
3
DimnDraft3D3
0
MTEXT
5
392
100
AcDbEntity
8
2
62
256
6
ByLayer
370
-1
48
1
60
0
100
AcDbMText
10
10.996053
20
34.75
30
0
210
0
220
0
230
1
1
\W01.000;\fsimplex.shx,bigfont.shx;25 
40
4.5
41
0
44
1.084337
50
0
71
7
72
5
7
DEFAULT
0
LINE
5
393
100
AcDbEntity
8
2
62
256
6
ByLayer
370
-1
48
1
60
0
100
AcDbLine
10
25
20
15.375
30
0
11
25
21
36.625
31
0
39
0
210
0
220
0
230
1
0
LINE
5
394
100
AcDbEntity
8
2
62
256
6
ByLayer
370
-1
48
1
60
0
100
AcDbLine
10
0
20
1.5
30
0
11
0
21
36.625
31
0
39
0
210
0
220
0
230
1
0
LINE
5
395
100
AcDbEntity
8
2
62
256
6
ByLayer
370
-1
48
1
60
0
100
AcDbLine
10
25
20
33.625
30
0
11
0
21
33.625
31
0
39
0
210
0
220
0
230
1
0
LINE
5
396
100
AcDbEntity
8
2
62
256
6
ByLayer
370
-1
48
1
60
0
100
AcDbLine
10
25
20
33.625
30
0
11
22.000001
21
33.230043
31
0
39
0
210
0
220
0
230
1
0
LINE
5
397
100
AcDbEntity
8
2
62
256
6
ByLayer
370
-1
48
1
60
0
100
AcDbLine
10
25
20
33.625
30
0
11
21.999999
21
34.019957
31
0
39
0
210
0
220
0
230
1
0
LINE
5
398
100
AcDbEntity
8
2
62
256
6
ByLayer
370
-1
48
1
60
0
100
AcDbLine
10
22.000001
20
33.230043
30
0
11
21.999999
21
34.019957
31
0
39
0
210
0
220
0
230
1
0
LINE
5
399
100
AcDbEntity
8
2
62
256
6
ByLayer
370
-1
48
1
60
0
100
AcDbLine
10
0
20
33.625
30
0
11
2.999999
21
34.019957
31
0
39
0
210
0
220
0
230
1
0
LINE
5
39A
100
AcDbEntity
8
2
62
256
6
ByLayer
370
-1
48
1
60
0
100
AcDbLine
10
0
20
33.625
30
0
11
3.000001
21
33.230043
31
0
39
0
210
0
220
0
230
1
0
LINE
5
39B
100
AcDbEntity
8
2
62
256
6
ByLayer
370
-1
48
1
60
0
100
AcDbLine
10
2.999999
20
34.019957
30
0
11
3.000001
21
33.230043
31
0
39
0
210
0
220
0
230
1
0
ENDBLK
5
39D
100
AcDbEntity
8
0
100
AcDbBlockEnd
0
ENDSEC
0
SECTION
2
ENTITIES
0
ARC
5
1C5
100
AcDbEntity
8
1
62
256
6
ByLayer
370
-1
48
1
60
0
100
AcDbCircle
39
0
10
-9.873218
20
10.8
30
0
40
0.8
210
0
220
0
230
-1
100
AcDbArc
50
225.087532
51
270
0
ELLIPSE
5
1C6
100
AcDbEntity
8
1
62
256
6
ByLayer
370
-1
48
1
60
0
100
AcDbEllipse
10
20.16069
20
5.39413
30
0
11
2.7106140391058
21
-0.279636426458582
31
0
210
0
220
0
230
1
40
0.98465
41
3.14150902148534
42
-2.44993684077369
0
ELLIPSE
5
1C7
100
AcDbEntity
8
1
62
256
6
ByLayer
370
-1
48
1
60
0
100
AcDbEllipse
10
20.16069
20
5.39413
30
0
11
2.7106140391058
21
-0.279636426458582
31
0
210
0
220
0
230
1
40
0.98465
41
-0.917134233136681
42
-3.31018163563032E-16
0
ELLIPSE
5
1C8
100
AcDbEntity
8
1
62
256
6
ByLayer
370
-1
48
1
60
0
100
AcDbEllipse
10
21.863253
20
4.576646
30
0
11
-0.682378433330855
21
0.0703965462570974
31
0
210
0
220
0
230
1
40
0.98465
41
4.9128317222763E-07
42
0.452514716818252
0
ELLIPSE
5
1C9
100
AcDbEntity
8
1
62
256
6
ByLayer
370
-1
48
1
60
0
100
AcDbEllipse
10
18.779338
20
5.259047
30
0
11
-0.290458458502346
21
0.0299647106517091
31
0
210
0
220
0
230
1
40
0.98465
41
-1.13000795302427
42
-0.435796171940491
0
ELLIPSE
5
1CA
100
AcDbEntity
8
1
62
256
6
ByLayer
370
-1
48
1
60
0
100
AcDbEllipse
10
21.537565
20
5.485808
30
0
11
-0.290458458502346
21
0.0299647106517091
31
0
210
0
220
0
230
1
40
0.98465
41
-2.68454350783074
42
-1.6477558030347
0
ELLIPSE
5
1CB
100
AcDbEntity
8
1
62
256
6
ByLayer
370
-1
48
1
60
0
100
AcDbEllipse
10
21.710888
20
6.43316
30
0
11
-0.682378433330855
21
0.0703965462570974
31
0
210
0
220
0
230
1
40
0.98465
41
4.43138093921784E-06
42
0.70984620693426
0
ELLIPSE
5
1CC
100
AcDbEntity
8
1
62
256
6
ByLayer
370
-1
48
1
60
0
100
AcDbEllipse
10
19.371778
20
6.496772
30
0
11
-0.290458458502346
21
0.0299647106517091
31
0
210
0
220
0
230
1
40
0.98465
41
-2.17133008676105
42
-0.396257074176045
0
ELLIPSE
5
1CD
100
AcDbEntity
8
1
62
256
6
ByLayer
370
-1
48
1
60
0
100
AcDbEllipse
10
18.45365
20
6.168209
30
0
11
-0.682378433330855
21
0.0703965462570974
31
0
210
0
220
0
230
1
40
0.98465
41
2.92446007670371
42
-3.14159169279003
0
ELLIPSE
5
1CE
100
AcDbEntity
8
1
62
256
6
ByLayer
370
-1
48
1
60
0
100
AcDbEllipse
10
20.748044
20
6.604204
30
0
11
-0.290458458502346
21
0.0299647106517091
31
0
210
0
220
0
230
1
40
0.98465
41
-2.73056591394826
42
-0.603348799519454
0
ELLIPSE
5
1CF
100
AcDbEntity
8
1
62
256
6
ByLayer
370
-1
48
1
60
0
100
AcDbEllipse
10
20.158451
20
5.372428
30
0
11
-1.20013058281877
21
0.12380966918249
31
0
210
0
220
0
230
1
40
0.98465
41
0.867975868793116
42
1.3916476749641
0
ELLIPSE
5
1D0
100
AcDbEntity
8
1
62
256
6
ByLayer
370
-1
48
1
60
0
100
AcDbEllipse
10
20.158451
20
5.372428
30
0
11
-1.20013058281877
21
0.12380966918249
31
0
210
0
220
0
230
1
40
0.98465
41
2.1217106101791
42
2.70135027664969
0
ELLIPSE
5
1D1
100
AcDbEntity
8
1
62
256
6
ByLayer
370
-1
48
1
60
0
100
AcDbEllipse
10
20.158451
20
5.372428
30
0
11
-1.20013058281877
21
0.12380966918249
31
0
210
0
220
0
230
1
40
0.98465
41
3.06890776247141
42
-2.43174644665552
0
ELLIPSE
5
1D2
100
AcDbEntity
8
1
62
256
6
ByLayer
370
-1
48
1
60
0
100
AcDbEllipse
10
20.158451
20
5.372428
30
0
11
1.20013058281877
21
-0.123809669182488
31
0
210
0
220
0
230
1
40
0.98465
41
2.8718786688987
42
-2.78847482894677
0
ELLIPSE
5
1D3
100
AcDbEntity
8
1
62
256
6
ByLayer
370
-1
48
1
60
0
100
AcDbEllipse
10
24.029747
20
-1.428513
30
0
11
-0.196189528463076
21
0.0388544581925401
31
0
210
0
220
0
230
1
40
0.984226
41
2.81050156550532
42
-3.14157896151474
0
ELLIPSE
5
1D4
100
AcDbEntity
8
1
62
256
6
ByLayer
370
-1
48
1
60
0
100
AcDbEllipse
10
20.218745
20
5.670942
30
0
11
-2.95261391107965
21
0.584751972572011
31
0
210
0
220
0
230
1
40
0.984226
41
-1.37828870180347
42
-2.99808919652772E-16
0
ELLIPSE
5
1D5
100
AcDbEntity
8
1
62
256
6
ByLayer
370
-1
48
1
60
0
100
AcDbEllipse
10
20.218745
20
5.670942
30
0
11
-2.95261391107965
21
0.584751972572011
31
0
210
0
220
0
230
1
40
0.984226
41
0
42
0.37197124193488
0
ELLIPSE
5
1D6
100
AcDbEntity
8
1
62
256
6
ByLayer
370
-1
48
1
60
0
100
AcDbEllipse
10
20.218745
20
5.670942
30
0
11
-2.95261391107965
21
0.584751972572011
31
0
210
0
220
0
230
1
40
0.984226
41
2.76949724504201
42
-1.37828870180347
0
ELLIPSE
5
1D7
100
AcDbEntity
8
1
62
256
6
ByLayer
370
-1
48
1
60
0
100
AcDbEllipse
10
24.613699
20
2.185011
30
0
11
0.245236910578845
21
-0.0485680727406751
31
0
210
0
220
0
230
1
40
0.984226
41
-0.331091088084467
42
-4.59640915227753E-06
0
ELLIPSE
5
1D8
100
AcDbEntity
8
1
62
256
6
ByLayer
370
-1
48
1
60
0
100
AcDbEllipse
10
24.240453
20
0.329041
30
0
11
-0.176570575616768
21
0.034969012373286
31
0
210
0
220
0
230
1
40
0.984226
41
2.81050156550531
42
-3.14158234827107
0
ELLIPSE
5
1D9
100
AcDbEntity
8
1
62
256
6
ByLayer
370
-1
48
1
60
0
100
AcDbEllipse
10
12.417707
20
5.058668
30
0
11
-0.196189528463076
21
0.0388544581925401
31
0
210
0
220
0
230
1
40
0.984226
41
3.02441338260833E-06
42
0.716106463112133
0
ELLIPSE
5
1DA
100
AcDbEntity
8
1
62
256
6
ByLayer
370
-1
48
1
60
0
100
AcDbEllipse
10
13.562984
20
4.496323
30
0
11
-0.176570575616769
21
0.034969012373286
31
0
210
0
220
0
230
1
40
0.984226
41
1.89549460789974E-06
42
0.716106463112134
0
ELLIPSE
5
1DB
100
AcDbEntity
8
1
62
256
6
ByLayer
370
-1
48
1
60
0
100
AcDbEllipse
10
13.28257
20
4.651516
30
0
11
0.137332669924153
21
-0.027198120734778
31
0
210
0
220
0
230
1
40
0.984226
41
0.463620739336064
42
0.716106463112098
0
ELLIPSE
5
1DC
100
AcDbEntity
8
1
62
256
6
ByLayer
370
-1
48
1
60
0
100
AcDbEllipse
10
20.210101
20
5.627297
30
0
11
-2.8653949175943
21
0.567478641204534
31
0
210
0
220
0
230
1
40
0.984226
41
-1.37828860374957
42
-3.08934723586283E-16
0
ELLIPSE
5
1DD
100
AcDbEntity
8
1
62
256
6
ByLayer
370
-1
48
1
60
0
100
AcDbEllipse
10
20.210101
20
5.627297
30
0
11
-2.8653949175943
21
0.567478641204534
31
0
210
0
220
0
230
1
40
0.984226
41
0
42
0.754067412425673
0
ELLIPSE
5
1DE
100
AcDbEntity
8
1
62
256
6
ByLayer
370
-1
48
1
60
0
100
AcDbEllipse
10
20.210101
20
5.627297
30
0
11
-2.8653949175943
21
0.567478641204534
31
0
210
0
220
0
230
1
40
0.984226
41
2.38740118720312
42
-1.37828860374957
0
ELLIPSE
5
1DF
100
AcDbEntity
8
1
62
256
6
ByLayer
370
-1
48
1
60
0
100
AcDbEllipse
10
12.103926
20
4.691259
30
0
11
-1.73272094816022
21
0.245312282217467
31
0
210
0
220
0
230
1
40
0.98451
41
2.32655141327346
42
2.83285482216373
0
ELLIPSE
5
1E0
100
AcDbEntity
8
1
62
256
6
ByLayer
370
-1
48
1
60
0
100
AcDbEllipse
10
12.103926
20
4.691259
30
0
11
-1.73272094816022
21
0.245312282217467
31
0
210
0
220
0
230
1
40
0.98451
41
-1.75755254917331
42
-1.33692542384099
0
ELLIPSE
5
1E1
100
AcDbEntity
8
1
62
256
6
ByLayer
370
-1
48
1
60
0
100
AcDbEllipse
10
12.096553
20
4.639181
30
0
11
-1.73272094816022
21
0.245312282217467
31
0
210
0
220
0
230
1
40
0.98451
41
-1.43230544318185
42
-0.194714525074747
0
ELLIPSE
5
1E2
100
AcDbEntity
8
1
62
256
6
ByLayer
370
-1
48
1
60
0
100
AcDbEllipse
10
12.096553
20
4.639181
30
0
11
-1.73272094816022
21
0.245312282217467
31
0
210
0
220
0
230
1
40
0.98451
41
-1.74577714249879
42
-1.43230487158583
0
ELLIPSE
5
1E3
100
AcDbEntity
8
1
62
256
6
ByLayer
370
-1
48
1
60
0
100
AcDbEllipse
10
24.429184
20
-4.596194
30
0
11
-0.0179359818243597
21
-2.9999999385048
31
0
210
0
220
0
230
1
40
0.033867
41
2.01770497118775
42
-1.66823416732659
0
ELLIPSE
5
1E4
100
AcDbEntity
8
1
62
256
6
ByLayer
370
-1
48
1
60
0
100
AcDbEllipse
10
15.21282
20
9.720747
30
0
11
-0.550000000000001
21
6.73533494602309E-17
31
0
210
0
220
0
230
1
40
0.173648
41
1.68183666181083
42
2.30267318993572
0
ELLIPSE
5
1E5
100
AcDbEntity
8
1
62
256
6
ByLayer
370
-1
48
1
60
0
100
AcDbEllipse
10
13.501032
20
5.636063
30
0
11
-2.69294730252133
21
0.531401803994549
31
0
210
0
220
0
230
1
40
0.984173
41
-0.859338767946936
42
-0.201082448433121
0
ELLIPSE
5
1E6
100
AcDbEntity
8
1
62
256
6
ByLayer
370
-1
48
1
60
0
100
AcDbEllipse
10
12.21427
20
5.470659
30
0
11
-1.71692965359538
21
0.339021838102638
31
0
210
0
220
0
230
1
40
0.984182
41
-0.584763444574599
42
-0.187854352690227
0
ELLIPSE
5
1E7
100
AcDbEntity
8
1
62
256
6
ByLayer
370
-1
48
1
60
0
100
AcDbEllipse
10
10.144696
20
4.596194
30
0
11
-5.72492854188268
21
2.91118657958331
31
0
210
0
220
0
230
1
40
0.126563
41
-2.60927048197925
42
-2.26068380632138
0
ELLIPSE
5
1E8
100
AcDbEntity
8
1
62
256
6
ByLayer
370
-1
48
1
60
0
100
AcDbEllipse
10
16.799644
20
-3.672993
30
0
11
-2.5
21
3.06151588455594E-16
31
0
210
0
220
0
230
1
40
0.173648
41
2.9016632581214
42
0.23992939546839
0
ELLIPSE
5
1E9
100
AcDbEntity
8
1
62
256
6
ByLayer
370
-1
48
1
60
0
100
AcDbEllipse
10
21.829358
20
-4.596194
30
0
11
-0.278475801475577
21
2.99764169912585
31
0
210
0
220
0
230
1
40
0.427073
41
-1.09795884542498
42
-0.585128542161015
0
ELLIPSE
5
1EA
100
AcDbEntity
8
1
62
256
6
ByLayer
370
-1
48
1
60
0
100
AcDbEllipse
10
11.302059
20
0
30
0
11
-5.33500041593397
21
-9.99700266882504
31
0
210
0
220
0
230
1
40
0.04589
41
0.200390379306322
42
0.871541820140449
0
ELLIPSE
5
1EB
100
AcDbEntity
8
1
62
256
6
ByLayer
370
-1
48
1
60
0
100
AcDbEllipse
10
26.947844
20
-1.136131
30
0
11
-7.62351445867111
21
-7.61479372785143
31
0
210
0
220
0
230
1
40
0.070202
41
1.06661394914255
42
1.13674099118759
0
ELLIPSE
5
1EC
100
AcDbEntity
8
1
62
256
6
ByLayer
370
-1
48
1
60
0
100
AcDbEllipse
10
13.474315
20
5.358755
30
0
11
1.98025251218311
21
-0.280356893962818
31
0
210
0
220
0
230
1
40
0.98451
41
2.23288620436445
42
2.3749312498204
0
ELLIPSE
5
1ED
100
AcDbEntity
8
1
62
256
6
ByLayer
370
-1
48
1
60
0
100
AcDbEllipse
10
7.263907
20
15.176111
30
0
11
-0.0012240370926403
21
6.9107596822371
31
0
210
0
220
0
230
-1
40
0.173642
41
-2.51964746637082
42
-2.45168264683463
0
ELLIPSE
5
1EE
100
AcDbEntity
8
1
62
256
6
ByLayer
370
-1
48
1
60
0
100
AcDbEllipse
10
-55.733029
20
4.596194
30
0
11
-87.2340391574047
21
0.521542724309271
31
0
210
0
220
0
230
1
40
0.033867
41
2.37727296589212
42
2.521787122858
0
ELLIPSE
5
1EF
100
AcDbEntity
8
1
62
256
6
ByLayer
370
-1
48
1
60
0
100
AcDbEllipse
10
-9.317499
20
-4.596194
30
0
11
-87.2340391542879
21
0.52154272430346
31
0
210
0
220
0
230
1
40
0.033867
41
-1.94153588460073
42
-1.76139011384962
0
ELLIPSE
5
1F0
100
AcDbEntity
8
1
62
256
6
ByLayer
370
-1
48
1
60
0
100
AcDbEllipse
10
-55.73303
20
4.596194
30
0
11
-87.2340395154947
21
0.521542718586699
31
0
210
0
220
0
230
1
40
0.033867
41
-2.43434831413427
42
-2.37685601645504
0
ELLIPSE
5
1F1
100
AcDbEntity
8
1
62
256
6
ByLayer
370
-1
48
1
60
0
100
AcDbEllipse
10
5.992702
20
0
30
0
11
-0.0276789074500686
21
-9.99999998931945
31
0
210
0
220
0
230
1
40
0.016698
41
0.630157756632157
42
2.86058118685369
0
ELLIPSE
5
1F2
100
AcDbEntity
8
1
62
256
6
ByLayer
370
-1
48
1
60
0
100
AcDbEllipse
10
7.267827
20
-6.954295
30
0
11
-1.19832651044749
21
-2.21458070833309
31
0
210
0
220
0
230
1
40
0.025036
41
0.738738235313692
42
1.29031951305038
0
ELLIPSE
5
1F3
100
AcDbEntity
8
1
62
256
6
ByLayer
370
-1
48
1
60
0
100
AcDbEllipse
10
23.664686
20
11.220359
30
0
11
0.170564047919397
21
0.282502930174803
31
0
210
0
220
0
230
1
40
0.029033
41
1.58820529575762
42
2.46922662176659
0
ELLIPSE
5
1F4
100
AcDbEntity
8
1
62
256
6
ByLayer
370
-1
48
1
60
0
100
AcDbEllipse
10
15.468262
20
3.465271
30
0
11
0.245236910578845
21
-0.0485680727406751
31
0
210
0
220
0
230
1
40
0.984226
41
-2.42548619047766
42
-1.90188741487936
0
ELLIPSE
5
1F5
100
AcDbEntity
8
1
62
256
6
ByLayer
370
-1
48
1
60
0
100
AcDbEllipse
10
13.693915
20
5.15744
30
0
11
-0.159436244918902
21
0.0849166150883242
31
0
210
0
220
0
230
1
40
0.956933
41
0.0452787810581222
42
0.997998457979274
0
ELLIPSE
5
1F6
100
AcDbEntity
8
1
62
256
6
ByLayer
370
-1
48
1
60
0
100
AcDbEllipse
10
12.431863
20
5.034422
30
0
11
-0.196189528463076
21
0.0388544581925401
31
0
210
0
220
0
230
1
40
0.984226
41
0.716106463112133
42
1.75664985678246
0
ELLIPSE
5
1F7
100
AcDbEntity
8
1
62
256
6
ByLayer
370
-1
48
1
60
0
100
AcDbEllipse
10
23.224506
20
11.80035
30
0
11
-0.000833376190053651
21
-0.14215728221072
31
0
210
0
220
0
230
1
40
0.984243
41
-0.952827398752421
42
-0.000107721823879901
0
ELLIPSE
5
1F8
100
AcDbEntity
8
1
62
256
6
ByLayer
370
-1
48
1
60
0
100
AcDbEllipse
10
24.334786
20
11.216357
30
0
11
-0.165408619595848
21
0.285552076797554
31
0
210
0
220
0
230
1
40
0.314418
41
-2.37949775232687
42
-1.55721652999188
0
ELLIPSE
5
1F9
100
AcDbEntity
8
1
62
256
6
ByLayer
370
-1
48
1
60
0
100
AcDbEllipse
10
21.756932
20
11.501045
30
0
11
-0.232737244252419
21
0.0985920081713137
31
0
210
0
220
0
230
1
40
0.690672
41
1.90606472478049
42
2.22819707464316
0
ELLIPSE
5
1FA
100
AcDbEntity
8
1
62
256
6
ByLayer
370
-1
48
1
60
0
100
AcDbEllipse
10
18.363564
20
10.212235
30
0
11
-0.267469846528386
21
-0.158018000271667
31
0
210
0
220
0
230
1
40
0.130244
41
1.46102266524335
42
2.14946321016077
0
ELLIPSE
5
1FB
100
AcDbEntity
8
1
62
256
6
ByLayer
370
-1
48
1
60
0
100
AcDbEllipse
10
25.007905
20
6.363206
30
0
11
-0.000807683401040611
21
-0.166318579050564
31
0
210
0
220
0
230
1
40
0.030615
41
1.02252293325036
42
1.72810912325369
0
ELLIPSE
5
1FC
100
AcDbEntity
8
1
62
256
6
ByLayer
370
-1
48
1
60
0
100
AcDbEllipse
10
13.723599
20
6.004801
30
0
11
-0.012909108505622
21
-0.329747410782238
31
0
210
0
220
0
230
1
40
0.180331
41
-1.30515894411609
42
-0.956093093717224
0
ELLIPSE
5
1FD
100
AcDbEntity
8
1
62
256
6
ByLayer
370
-1
48
1
60
0
100
AcDbEllipse
10
24.167249
20
5.965304
30
0
11
-0.0641729442278232
21
0.135579619519796
31
0
210
0
220
0
230
1
40
0.106392
41
-2.13374180662499
42
-1.4281556169268
0
ELLIPSE
5
1FE
100
AcDbEntity
8
1
62
256
6
ByLayer
370
-1
48
1
60
0
100
AcDbEllipse
10
20.528653
20
11.13219
30
0
11
0.245236910578845
21
-0.0485680727406751
31
0
210
0
220
0
230
1
40
0.984226
41
1.76330401430873
42
2.28690278990702
0
ELLIPSE
5
1FF
100
AcDbEntity
8
1
62
256
6
ByLayer
370
-1
48
1
60
0
100
AcDbEllipse
10
23.330092
20
0.101443
30
0
11
0.283039208546488
21
0.169672644894154
31
0
210
0
220
0
230
1
40
0.280715
41
-1.60322516577595
42
-1.25415931537708
0
ELLIPSE
5
200
100
AcDbEntity
8
1
62
256
6
ByLayer
370
-1
48
1
60
0
100
AcDbEllipse
10
13.68699
20
6.508222
30
0
11
-0.00279592209937883
21
0.931735813223557
31
0
210
0
220
0
230
1
40
0.348125
41
3.12691875853727
42
-2.33398532630671
0
ELLIPSE
5
201
100
AcDbEntity
8
1
62
256
6
ByLayer
370
-1
48
1
60
0
100
AcDbEllipse
10
23.330092
20
0.101443
30
0
11
0.163424843603101
21
-0.286692030746064
31
0
210
0
220
0
230
1
40
0.027367
41
-2.16676214560017
42
-1.28574081959108
0
ELLIPSE
5
202
100
AcDbEntity
8
1
62
256
6
ByLayer
370
-1
48
1
60
0
100
AcDbEllipse
10
26.185019
20
6.184012
30
0
11
-2.51469858426888
21
-0.601821702491876
31
0
210
0
220
0
230
1
40
0.17177
41
-0.441115237474033
42
0.00821800937945607
0
ELLIPSE
5
203
100
AcDbEntity
8
1
62
256
6
ByLayer
370
-1
48
1
60
0
100
AcDbEllipse
10
20.706523
20
0.140579
30
0
11
-0.152651528559987
21
0.0891809609576728
31
0
210
0
220
0
230
1
40
0.14202
41
-2.55666020200317
42
-1.52167995554544
0
ELLIPSE
5
204
100
AcDbEntity
8
1
62
256
6
ByLayer
370
-1
48
1
60
0
100
AcDbEllipse
10
24.062098
20
0.464133
30
0
11
-0.17615724373695
21
-0.04254246712291
31
0
210
0
220
0
230
1
40
0.960998
41
1.44024383775564
42
2.39296351467523
0
ELLIPSE
5
205
100
AcDbEntity
8
1
62
256
6
ByLayer
370
-1
48
1
60
0
100
AcDbEllipse
10
17.396927
20
11.184624
30
0
11
-1.80102330551353
21
1.8468266910479
31
0
210
0
220
0
230
1
40
0.172581
41
-3.13818918317014
42
-2.44974863827401
0
ELLIPSE
5
206
100
AcDbEntity
8
1
62
256
6
ByLayer
370
-1
48
1
60
0
100
AcDbEllipse
10
22.043613
20
11.543888
30
0
11
-0.161323453934811
21
-0.276371692115348
31
0
210
0
220
0
230
1
40
0.058849
41
1.04564380243191
42
1.55452713573361
0
ELLIPSE
5
207
100
AcDbEntity
8
1
62
256
6
ByLayer
370
-1
48
1
60
0
100
AcDbEllipse
10
22.329805
20
11.638098
30
0
11
-0.00107148371443456
21
-0.182773648557926
31
0
210
0
220
0
230
1
40
0.984243
41
3.14148493198911
42
-2.1011569815181
0
ELLIPSE
5
208
100
AcDbEntity
8
1
62
256
6
ByLayer
370
-1
48
1
60
0
100
AcDbEllipse
10
18.70621
20
10.367418
30
0
11
-0.129635391607524
21
-0.075685733036766
31
0
210
0
220
0
230
1
40
0.133362
41
-1.68816026596611
42
-0.975635687458717
0
ELLIPSE
5
209
100
AcDbEntity
8
1
62
256
6
ByLayer
370
-1
48
1
60
0
100
AcDbEllipse
10
13.388549
20
6.578648
30
0
11
0.166855950064921
21
0.284708784423545
31
0
210
0
220
0
230
1
40
0.03125
41
1.00870937324174
42
1.88973069925129
0
ELLIPSE
5
20A
100
AcDbEntity
8
1
62
256
6
ByLayer
370
-1
48
1
60
0
100
AcDbEllipse
10
24.164983
20
-0.745657
30
0
11
-0.195730270815491
21
-0.0472694079214263
31
0
210
0
220
0
230
1
40
0.960998
41
2.39296351463676
42
-2.8496783988698
0
ELLIPSE
5
20B
100
AcDbEntity
8
1
62
256
6
ByLayer
370
-1
48
1
60
0
100
AcDbEllipse
10
17.951017
20
1.765851
30
0
11
-0.26608070490958
21
0.158953172152496
31
0
210
0
220
0
230
1
40
0.164032
41
1.62324410804301
42
2.3166063851312
0
ELLIPSE
5
20C
100
AcDbEntity
8
1
62
256
6
ByLayer
370
-1
48
1
60
0
100
AcDbEllipse
10
21.798718
20
-0.548932
30
0
11
-0.308635697997888
21
0.178214653100897
31
0
210
0
220
0
230
1
40
0.151035
41
1.58342302662644
42
1.77835802643775
0
ELLIPSE
5
20D
100
AcDbEntity
8
1
62
256
6
ByLayer
370
-1
48
1
60
0
100
AcDbEllipse
10
24.652018
20
10.04924
30
0
11
-0.177174109593185
21
-0.266475767922455
31
0
210
0
220
0
230
1
40
0.140969
41
0.372643622626504
42
1.45540920845555
0
ELLIPSE
5
20E
100
AcDbEntity
8
1
62
256
6
ByLayer
370
-1
48
1
60
0
100
AcDbEllipse
10
22.853438
20
-0.238242
30
0
11
-0.838449153642652
21
-0.476870688647147
31
0
210
0
220
0
230
1
40
0.328313
41
-3.13407297645842
42
-2.31179175412424
0
ELLIPSE
5
20F
100
AcDbEntity
8
1
62
256
6
ByLayer
370
-1
48
1
60
0
100
AcDbEllipse
10
17.389997
20
2.094476
30
0
11
-0.266080704937256
21
0.158953172168734
31
0
210
0
220
0
230
1
40
0.164032
41
0.934803563176356
42
1.62324410803363
0
ELLIPSE
5
210
100
AcDbEntity
8
1
62
256
6
ByLayer
370
-1
48
1
60
0
100
AcDbEllipse
10
24.652018
20
10.04924
30
0
11
0.159095797407366
21
0.277648207714933
31
0
210
0
220
0
230
1
40
0.029422
41
1.58753768810207
42
2.77268231324636
0
ELLIPSE
5
211
100
AcDbEntity
8
1
62
256
6
ByLayer
370
-1
48
1
60
0
100
AcDbEllipse
10
14.234805
20
7.405179
30
0
11
-0.319938998596504
21
-0.00624797383687798
31
0
210
0
220
0
230
1
40
0.2565
41
1.38055437247314
42
2.56569899761729
0
ELLIPSE
5
212
100
AcDbEntity
8
1
62
256
6
ByLayer
370
-1
48
1
60
0
100
AcDbEllipse
10
24.603884
20
2.159292
30
0
11
-0.141341129905215
21
-0.241934369140085
31
0
210
0
220
0
230
1
40
0.031103
41
-1.66041718845985
42
-0.625436942011091
0
ELLIPSE
5
213
100
AcDbEntity
8
1
62
256
6
ByLayer
370
-1
48
1
60
0
100
AcDbEllipse
10
17.030542
20
2.253852
30
0
11
-0.129404115872668
21
0.0760827991040867
31
0
210
0
220
0
230
1
40
0.167182
41
-2.22500114913069
42
-1.5124765706298
0
ELLIPSE
5
214
100
AcDbEntity
8
1
62
256
6
ByLayer
370
-1
48
1
60
0
100
AcDbEllipse
10
23.013912
20
0.034687
30
0
11
-0.00541258404593372
21
0.931747980411095
31
0
210
0
220
0
230
1
40
0.351842
41
2.32671658061481
42
-3.1341875042308
0
ELLIPSE
5
215
100
AcDbEntity
8
1
62
256
6
ByLayer
370
-1
48
1
60
0
100
AcDbEllipse
10
17.71099
20
3.191779
30
0
11
0.0366071706617102
21
0.145464480393478
31
0
210
0
220
0
230
1
40
0.009167
41
1.3931778461508
42
1.56771077134988
0
ELLIPSE
5
216
100
AcDbEntity
8
1
62
256
6
ByLayer
370
-1
48
1
60
0
100
AcDbEllipse
10
24.399989
20
1.368721
30
0
11
-0.155121805377347
21
0.280099786317031
31
0
210
0
220
0
230
1
40
0.115565
41
1.35025872306996
42
1.85914205595632
0
ELLIPSE
5
217
100
AcDbEntity
8
1
62
256
6
ByLayer
370
-1
48
1
60
0
100
AcDbEllipse
10
23.985223
20
12.349572
30
0
11
-0.00119053743585609
21
-0.20308183173282
31
0
210
0
220
0
230
1
40
0.984243
41
3.14148493186989
42
-2.10115698164213
0
ELLIPSE
5
218
100
AcDbEntity
8
1
62
256
6
ByLayer
370
-1
48
1
60
0
100
AcDbEllipse
10
23.268508
20
11.800087
30
0
11
-0.000833376215753155
21
-0.142157282212177
31
0
210
0
220
0
230
1
40
0.984243
41
-0.000107721646115677
42
1.04043567202441
0
ELLIPSE
5
219
100
AcDbEntity
8
1
62
256
6
ByLayer
370
-1
48
1
60
0
100
AcDbEllipse
10
13.151935
20
6.027181
30
0
11
-0.012909108505622
21
-0.329747410782238
31
0
210
0
220
0
230
1
40
0.180331
41
-1.30515894411609
42
-0.956093093717224
0
ELLIPSE
5
21A
100
AcDbEntity
8
1
62
256
6
ByLayer
370
-1
48
1
60
0
100
AcDbEllipse
10
23.330092
20
0.101443
30
0
11
-0.191516530817034
21
0.268740429455279
31
0
210
0
220
0
230
1
40
0.302353
41
-1.86558714590942
42
-1.0433059235744
0
ELLIPSE
5
21B
100
AcDbEntity
8
1
62
256
6
ByLayer
370
-1
48
1
60
0
100
AcDbEllipse
10
26.185019
20
6.184012
30
0
11
-2.51469858345088
21
-0.60182170237129
31
0
210
0
220
0
230
1
40
0.17177
41
-0.685144267784103
42
-0.441115237541338
0
ELLIPSE
5
21C
100
AcDbEntity
8
1
62
256
6
ByLayer
370
-1
48
1
60
0
100
AcDbEllipse
10
23.657577
20
11.22038
30
0
11
-0.000759858479879429
21
-0.254557307133561
31
0
210
0
220
0
230
1
40
0.999427
41
-0.844879305487908
42
-0.539942040506921
0
ELLIPSE
5
21D
100
AcDbEntity
8
1
62
256
6
ByLayer
370
-1
48
1
60
0
100
AcDbEllipse
10
24.327678
20
11.216378
30
0
11
-0.000759858479879429
21
-0.254557307133561
31
0
210
0
220
0
230
1
40
0.999427
41
0.533972019598251
42
0.83890928457926
0
ELLIPSE
5
21E
100
AcDbEntity
8
1
62
256
6
ByLayer
370
-1
48
1
60
0
100
AcDbEllipse
10
21.82186
20
-0.17676
30
0
11
-0.131885221855282
21
0.291558378813203
31
0
210
0
220
0
230
1
40
0.175965
41
0.682195343761421
42
1.76496092959049
0
ELLIPSE
5
21F
100
AcDbEntity
8
1
62
256
6
ByLayer
370
-1
48
1
60
0
100
AcDbEllipse
10
23.839797
20
4.954686
30
0
11
-0.14404539576328
21
-0.0418440432965074
31
0
210
0
220
0
230
1
40
0.157592
41
-1.82683732930146
42
-1.65230440410202
0
ELLIPSE
5
220
100
AcDbEntity
8
1
62
256
6
ByLayer
370
-1
48
1
60
0
100
AcDbEllipse
10
14.260362
20
3.538264
30
0
11
0.245236910578845
21
-0.0485680727406751
31
0
210
0
220
0
230
1
40
0.984226
41
0.716106463112136
42
1.75664985678246
0
ELLIPSE
5
221
100
AcDbEntity
8
1
62
256
6
ByLayer
370
-1
48
1
60
0
100
AcDbEllipse
10
25.015225
20
5.914006
30
0
11
-0.00135947458097463
21
-0.306788643034946
31
0
210
0
220
0
230
1
40
0.033871
41
-2.08476365672232
42
-1.3914013794338
0
ELLIPSE
5
222
100
AcDbEntity
8
1
62
256
6
ByLayer
370
-1
48
1
60
0
100
AcDbEllipse
10
14.291563
20
4.498767
30
0
11
-0.320097536008399
21
0.00203745304288401
31
0
210
0
220
0
230
1
40
0.174438
41
1.38507176587815
42
1.89395509888814
0
ELLIPSE
5
223
100
AcDbEntity
8
1
62
256
6
ByLayer
370
-1
48
1
60
0
100
AcDbEllipse
10
17.365785
20
9.612835
30
0
11
-0.144111831743825
21
-0.0835590519637816
31
0
210
0
220
0
230
1
40
0.120331
41
-2.38173503821126
42
-1.67614884848157
0
ELLIPSE
5
224
100
AcDbEntity
8
1
62
256
6
ByLayer
370
-1
48
1
60
0
100
AcDbEllipse
10
23.664686
20
11.220359
30
0
11
-0.172370178752247
21
-0.281404551272574
31
0
210
0
220
0
230
1
40
0.369079
41
-1.54750395401596
42
-0.725222731680979
0
ELLIPSE
5
225
100
AcDbEntity
8
1
62
256
6
ByLayer
370
-1
48
1
60
0
100
AcDbEllipse
10
24.013535
20
12.349403
30
0
11
-0.00119053743732552
21
-0.203081831731016
31
0
210
0
220
0
230
1
40
0.984243
41
2.10094153820417
42
3.14148493187706
0
ELLIPSE
5
226
100
AcDbEntity
8
1
62
256
6
ByLayer
370
-1
48
1
60
0
100
AcDbEllipse
10
16.999324
20
0.74067
30
0
11
-0.712268966986052
21
-2.45141637817015
31
0
210
0
220
0
230
1
40
0.117504
41
-3.13531270775416
42
-2.44687216285854
0
ELLIPSE
5
227
100
AcDbEntity
8
1
62
256
6
ByLayer
370
-1
48
1
60
0
100
AcDbEllipse
10
18.322439
20
3.037904
30
0
11
0.0366071706617102
21
0.145464480393478
31
0
210
0
220
0
230
1
40
0.009167
41
1.39317784614996
42
1.56771077134988
0
ELLIPSE
5
228
100
AcDbEntity
8
1
62
256
6
ByLayer
370
-1
48
1
60
0
100
AcDbEllipse
10
22.995042
20
-0.468402
30
0
11
0.00886045880461609
21
-0.329881027447429
31
0
210
0
220
0
230
1
40
0.113407
41
0.958350526972187
42
1.30741637737108
0
ELLIPSE
5
229
100
AcDbEntity
8
1
62
256
6
ByLayer
370
-1
48
1
60
0
100
AcDbEllipse
10
17.800374
20
9.890323
30
0
11
-0.267469846518718
21
-0.158018000262777
31
0
210
0
220
0
230
1
40
0.130244
41
0.767660388206011
42
1.4610226653104
0
ELLIPSE
5
22A
100
AcDbEntity
8
1
62
256
6
ByLayer
370
-1
48
1
60
0
100
AcDbEllipse
10
13.3925
20
5.355365
30
0
11
-0.124005968269206
21
0.0660462561814127
31
0
210
0
220
0
230
1
40
0.956933
41
-2.14359419559596
42
-1.10305080192626
0
ELLIPSE
5
22B
100
AcDbEntity
8
1
62
256
6
ByLayer
370
-1
48
1
60
0
100
AcDbEllipse
10
16.959176
20
10.740556
30
0
11
-1.80102330512705
21
1.84682669056868
31
0
210
0
220
0
230
1
40
0.172581
41
2.45163384686497
42
2.69566287710011
0
ELLIPSE
5
22C
100
AcDbEntity
8
1
62
256
6
ByLayer
370
-1
48
1
60
0
100
AcDbEllipse
10
23.01572
20
-0.145735
30
0
11
0.231915234598394
21
0.104953913510507
31
0
210
0
220
0
230
1
40
0.959287
41
1.66784520933901
42
2.74175926944419
0
ELLIPSE
5
22D
100
AcDbEntity
8
1
62
256
6
ByLayer
370
-1
48
1
60
0
100
AcDbEllipse
10
16.959176
20
10.740556
30
0
11
-1.80102330550098
21
1.84682669103443
31
0
210
0
220
0
230
1
40
0.172581
41
2.69566287714834
42
-3.13818918317014
0
ELLIPSE
5
22E
100
AcDbEntity
8
1
62
256
6
ByLayer
370
-1
48
1
60
0
100
AcDbEllipse
10
21.264591
20
11.347935
30
0
11
-0.282941698967087
21
0.00122517614578059
31
0
210
0
220
0
230
1
40
0.092096
41
-2.6235998207926
42
-1.58861957436756
0
ELLIPSE
5
22F
100
AcDbEntity
8
1
62
256
6
ByLayer
370
-1
48
1
60
0
100
AcDbEllipse
10
21.82186
20
-0.17676
30
0
11
0.164529307895071
21
-0.274463306916551
31
0
210
0
220
0
230
1
40
0.033778
41
-2.47155578777777
42
-1.28641116263415
0
ELLIPSE
5
230
100
AcDbEntity
8
1
62
256
6
ByLayer
370
-1
48
1
60
0
100
AcDbEllipse
10
21.446604
20
-0.346505
30
0
11
-0.33441090249039
21
0.198324153275252
31
0
210
0
220
0
230
1
40
0.137806
41
0.586034667535049
42
1.66880025336463
0
ELLIPSE
5
231
100
AcDbEntity
8
1
62
256
6
ByLayer
370
-1
48
1
60
0
100
AcDbEllipse
10
17.615928
20
0.612827
30
0
11
-0.714515318371664
21
-2.45033570562581
31
0
210
0
220
0
230
1
40
0.176284
41
2.69881905426584
42
-3.13503300605194
0
ELLIPSE
5
232
100
AcDbEntity
8
1
62
256
6
ByLayer
370
-1
48
1
60
0
100
AcDbEllipse
10
13.260569
20
4.689197
30
0
11
0.137332669924153
21
-0.0271981207347781
31
0
210
0
220
0
230
1
40
0.984226
41
0.716106463112116
42
1.75664985678246
0
ELLIPSE
5
233
100
AcDbEntity
8
1
62
256
6
ByLayer
370
-1
48
1
60
0
100
AcDbEllipse
10
17.391771
20
11.158592
30
0
11
-1.78776645592648
21
1.80288709920473
31
0
210
0
220
0
230
1
40
0.116876
41
-3.13830728081805
42
-2.44986673592182
0
ELLIPSE
5
234
100
AcDbEntity
8
1
62
256
6
ByLayer
370
-1
48
1
60
0
100
AcDbEllipse
10
13.847463
20
6.233376
30
0
11
-0.831502490723945
21
0.488670391881634
31
0
210
0
220
0
230
1
40
0.324901
41
-0.823101486131651
42
-0.00082026379616715
0
ELLIPSE
5
235
100
AcDbEntity
8
1
62
256
6
ByLayer
370
-1
48
1
60
0
100
AcDbEllipse
10
21.82186
20
-0.17676
30
0
11
0.319383165489949
21
-0.0198593454479264
31
0
210
0
220
0
230
1
40
0.251799
41
-1.63315174467661
42
-1.43821674410114
0
ELLIPSE
5
236
100
AcDbEntity
8
1
62
256
6
ByLayer
370
-1
48
1
60
0
100
AcDbEllipse
10
17.615928
20
0.612827
30
0
11
-0.714515318305999
21
-2.45033570546334
31
0
210
0
220
0
230
1
40
0.176284
41
2.45479002403903
42
2.69881905425113
0
ELLIPSE
5
237
100
AcDbEntity
8
1
62
256
6
ByLayer
370
-1
48
1
60
0
100
AcDbEllipse
10
16.95402
20
10.714525
30
0
11
-1.78776644766379
21
1.80288708968098
31
0
210
0
220
0
230
1
40
0.116876
41
2.45151574763086
42
2.59254209498794
0
ELLIPSE
5
238
100
AcDbEntity
8
1
62
256
6
ByLayer
370
-1
48
1
60
0
100
AcDbEllipse
10
26.358717
20
5.586069
30
0
11
-2.5146985841941
21
-0.601821702476665
31
0
210
0
220
0
230
1
40
0.17177
41
0.00821800937946248
42
0.696658554276923
0
ELLIPSE
5
239
100
AcDbEntity
8
1
62
256
6
ByLayer
370
-1
48
1
60
0
100
AcDbEllipse
10
22.991266
20
-0.0917
30
0
11
-0.163424843603101
21
0.286692030746064
31
0
210
0
220
0
230
1
40
0.027367
41
0.974830507989389
42
1.85585183399871
0
ELLIPSE
5
23A
100
AcDbEntity
8
1
62
256
6
ByLayer
370
-1
48
1
60
0
100
AcDbEllipse
10
18.982022
20
9.934697
30
0
11
0.126490391811512
21
0.0806236986212504
31
0
210
0
220
0
230
1
40
0.128839
41
1.44822731367223
42
2.1607518921988
0
ELLIPSE
5
23B
100
AcDbEntity
8
1
62
256
6
ByLayer
370
-1
48
1
60
0
100
AcDbEllipse
10
13.107531
20
6.103231
30
0
11
-0.284082330423586
21
0.167920307113537
31
0
210
0
220
0
230
1
40
0.313791
41
1.19322583410581
42
1.54229168450469
0
ELLIPSE
5
23C
100
AcDbEntity
8
1
62
256
6
ByLayer
370
-1
48
1
60
0
100
AcDbEllipse
10
24.371384
20
0.990159
30
0
11
-0.176157243735852
21
-0.0425424671264266
31
0
210
0
220
0
230
1
40
0.960998
41
2.39296351465649
42
-2.84967839885367
0
ELLIPSE
5
23D
100
AcDbEntity
8
1
62
256
6
ByLayer
370
-1
48
1
60
0
100
AcDbEllipse
10
16.95402
20
10.714525
30
0
11
-1.78776645592554
21
1.80288709920446
31
0
210
0
220
0
230
1
40
0.116876
41
2.59254209623965
42
-3.13830728081808
0
ELLIPSE
5
23E
100
AcDbEntity
8
1
62
256
6
ByLayer
370
-1
48
1
60
0
100
AcDbEllipse
10
24.015591
20
-1.452589
30
0
11
-0.196189528463076
21
0.0388544581925401
31
0
210
0
220
0
230
1
40
0.984226
41
1.76995817183497
42
2.81050156550532
0
ELLIPSE
5
23F
100
AcDbEntity
8
1
62
256
6
ByLayer
370
-1
48
1
60
0
100
AcDbEllipse
10
13.349879
20
6.524989
30
0
11
0.206517458879737
21
-0.148830572053781
31
0
210
0
220
0
230
1
40
0.949106
41
1.6701814587425
42
1.9751187237235
0
ELLIPSE
5
240
100
AcDbEntity
8
1
62
256
6
ByLayer
370
-1
48
1
60
0
100
AcDbEllipse
10
25.007905
20
4.83803
30
0
11
-0.000895094800249127
21
-0.150107634909404
31
0
210
0
220
0
230
1
40
0.033824
41
1.74530040627917
42
2.45782498453042
0
ELLIPSE
5
241
100
AcDbEntity
8
1
62
256
6
ByLayer
370
-1
48
1
60
0
100
AcDbEllipse
10
24.763208
20
2.939934
30
0
11
0.245236910578845
21
-0.0485680727406751
31
0
210
0
220
0
230
1
40
0.984226
41
-0.331091088084476
42
0.192507687513828
0
ELLIPSE
5
242
100
AcDbEntity
8
1
62
256
6
ByLayer
370
-1
48
1
60
0
100
AcDbEllipse
10
24.491143
20
4.821282
30
0
11
0.00485872322303712
21
-0.149921288710583
31
0
210
0
220
0
230
1
40
0.04058
41
1.74400229037354
42
2.45652686889933
0
ELLIPSE
5
243
100
AcDbEntity
8
1
62
256
6
ByLayer
370
-1
48
1
60
0
100
AcDbEllipse
10
24.334786
20
11.216357
30
0
11
0.286808710022291
21
0.163219986078144
31
0
210
0
220
0
230
1
40
0.016836
41
1.25110240861618
42
1.6001682590149
0
ELLIPSE
5
244
100
AcDbEntity
8
1
62
256
6
ByLayer
370
-1
48
1
60
0
100
AcDbEllipse
10
13.388549
20
6.578648
30
0
11
-0.284082330423586
21
0.167920307113537
31
0
210
0
220
0
230
1
40
0.313791
41
1.19322583410581
42
1.54229168450468
0
ELLIPSE
5
245
100
AcDbEntity
8
1
62
256
6
ByLayer
370
-1
48
1
60
0
100
AcDbEllipse
10
23.986797
20
10.921923
30
0
11
-0.00500001220794324
21
-0.837766010316585
31
0
210
0
220
0
230
1
40
0.178942
41
2.84088232287341
42
-2.84088358799345
0
ELLIPSE
5
246
100
AcDbEntity
8
1
62
256
6
ByLayer
370
-1
48
1
60
0
100
AcDbEllipse
10
25.01631
20
5.279903
30
0
11
-0.00135947457960764
21
-0.306788643110291
31
0
210
0
220
0
230
1
40
0.033871
41
-1.39140137965599
42
-0.702960834720102
0
ELLIPSE
5
247
100
AcDbEntity
8
1
62
256
6
ByLayer
370
-1
48
1
60
0
100
AcDbEllipse
10
23.019495
20
-0.522437
30
0
11
0.231915234598395
21
0.104953913510507
31
0
210
0
220
0
230
1
40
0.959287
41
2.74175926944419
42
3.04669653442521
0
ELLIPSE
5
248
100
AcDbEntity
8
1
62
256
6
ByLayer
370
-1
48
1
60
0
100
AcDbEllipse
10
15.030229
20
8.298049
30
0
11
-0.152846896979842
21
-0.088335582076259
31
0
210
0
220
0
230
1
40
0.113616
41
-1.67002868317655
42
-0.635048436731802
0
ELLIPSE
5
249
100
AcDbEntity
8
1
62
256
6
ByLayer
370
-1
48
1
60
0
100
AcDbEllipse
10
24.15134
20
10.922266
30
0
11
-0.825666795436495
21
0.498580294044942
31
0
210
0
220
0
230
1
40
0.342086
41
0.00476450650600324
42
0.827045728840013
0
ELLIPSE
5
24A
100
AcDbEntity
8
1
62
256
6
ByLayer
370
-1
48
1
60
0
100
AcDbEllipse
10
12.567099
20
5.717278
30
0
11
-0.177151383241745
21
0.0943517945442953
31
0
210
0
220
0
230
1
40
0.956933
41
0.997998457990296
42
2.03854185166146
0
ELLIPSE
5
24B
100
AcDbEntity
8
1
62
256
6
ByLayer
370
-1
48
1
60
0
100
AcDbEllipse
10
13.87227
20
3.966604
30
0
11
-0.176570575616768
21
0.034969012373286
31
0
210
0
220
0
230
1
40
0.984226
41
0.716106463112128
42
1.75664985678246
0
ELLIPSE
5
24C
100
AcDbEntity
8
1
62
256
6
ByLayer
370
-1
48
1
60
0
100
AcDbEllipse
10
23.998545
20
11.018788
30
0
11
-0.167178409276352
21
0.284519559032114
31
0
210
0
220
0
230
1
40
0.029136
41
1.55356103992845
42
2.43458236593801
0
ELLIPSE
5
24D
100
AcDbEntity
8
1
62
256
6
ByLayer
370
-1
48
1
60
0
100
AcDbEllipse
10
22.603012
20
-0.762827
30
0
11
-0.244662838521404
21
-0.0590867598982327
31
0
210
0
220
0
230
1
40
0.960998
41
0.822167187858998
42
1.3524201209837
0
ELLIPSE
5
24E
100
AcDbEntity
8
1
62
256
6
ByLayer
370
-1
48
1
60
0
100
AcDbEllipse
10
23.983971
20
9.767991
30
0
11
-0.016000039065253
21
-2.68085123301609
31
0
210
0
220
0
230
1
40
0.178942
41
2.84088232287363
42
-2.84088358799363
0
ELLIPSE
5
24F
100
AcDbEntity
8
1
62
256
6
ByLayer
370
-1
48
1
60
0
100
AcDbEllipse
10
12.552943
20
5.741524
30
0
11
-0.177151383241797
21
0.094351794544417
31
0
210
0
220
0
230
1
40
0.956933
41
-0.0425449356791612
42
0.997998457991279
0
ELLIPSE
5
250
100
AcDbEntity
8
1
62
256
6
ByLayer
370
-1
48
1
60
0
100
AcDbEllipse
10
22.991266
20
-0.0917
30
0
11
0.329983427246045
21
0.00330722586988167
31
0
210
0
220
0
230
1
40
0.260158
41
-2.33770765912557
42
-1.45668633311619
0
ELLIPSE
5
251
100
AcDbEntity
8
1
62
256
6
ByLayer
370
-1
48
1
60
0
100
AcDbEllipse
10
23.958339
20
11.722327
30
0
11
-0.284839743901851
21
0.16663229066999
31
0
210
0
220
0
230
1
40
0.017011
41
1.19245955145964
42
1.54152540185827
0
ELLIPSE
5
252
100
AcDbEntity
8
1
62
256
6
ByLayer
370
-1
48
1
60
0
100
AcDbEllipse
10
26.179864
20
6.15798
30
0
11
-2.48432448573617
21
-0.570335344487091
31
0
210
0
220
0
230
1
40
0.116146
41
-0.543743133825664
42
0.00859279629451291
0
ELLIPSE
5
253
100
AcDbEntity
8
1
62
256
6
ByLayer
370
-1
48
1
60
0
100
AcDbEllipse
10
13.724992
20
6.381472
30
0
11
-0.166855950064921
21
-0.284708784423545
31
0
210
0
220
0
230
1
40
0.03125
41
-2.13288328034792
42
-1.2518619543385
0
ELLIPSE
5
254
100
AcDbEntity
8
1
62
256
6
ByLayer
370
-1
48
1
60
0
100
AcDbEllipse
10
24.047146
20
11.721797
30
0
11
0.286808710022291
21
0.163219986078144
31
0
210
0
220
0
230
1
40
0.016836
41
1.25110240861585
42
1.60016825901489
0
ELLIPSE
5
255
100
AcDbEntity
8
1
62
256
6
ByLayer
370
-1
48
1
60
0
100
AcDbEllipse
10
17.004479
20
0.766702
30
0
11
-0.71451531837651
21
-2.45033570563808
31
0
210
0
220
0
230
1
40
0.176284
41
-3.13503300605189
42
-2.44659246115388
0
ELLIPSE
5
256
100
AcDbEntity
8
1
62
256
6
ByLayer
370
-1
48
1
60
0
100
AcDbEllipse
10
22.995042
20
-0.468402
30
0
11
0.329768107114965
21
-0.0123691361789255
31
0
210
0
220
0
230
1
40
0.57254
41
-2.26314552481688
42
-1.44086430248186
0
ELLIPSE
5
257
100
AcDbEntity
8
1
62
256
6
ByLayer
370
-1
48
1
60
0
100
AcDbEllipse
10
14.003201
20
4.627721
30
0
11
-0.159436244917667
21
0.0849166150900714
31
0
210
0
220
0
230
1
40
0.956933
41
0.997998457991724
42
2.03854185166173
0
ELLIPSE
5
258
100
AcDbEntity
8
1
62
256
6
ByLayer
370
-1
48
1
60
0
100
AcDbEllipse
10
23.664686
20
11.220359
30
0
11
-0.284839743901851
21
0.16663229066999
31
0
210
0
220
0
230
1
40
0.017011
41
1.19245955145926
42
1.54152540185826
0
ELLIPSE
5
259
100
AcDbEntity
8
1
62
256
6
ByLayer
370
-1
48
1
60
0
100
AcDbEllipse
10
13.388549
20
6.578648
30
0
11
-0.198399185230532
21
-0.263700138983394
31
0
210
0
220
0
230
1
40
0.353954
41
-2.05594038140767
42
-1.23365915907267
0
ELLIPSE
5
25A
100
AcDbEntity
8
1
62
256
6
ByLayer
370
-1
48
1
60
0
100
AcDbEllipse
10
14.386883
20
4.177111
30
0
11
-0.221765213208255
21
-0.192274062262216
31
0
210
0
220
0
230
1
40
0.74797
41
3.09178091081888
42
-2.86927204644419
0
ELLIPSE
5
25B
100
AcDbEntity
8
1
62
256
6
ByLayer
370
-1
48
1
60
0
100
AcDbEllipse
10
13.684929
20
5.951143
30
0
11
0.206517458879737
21
-0.14883057205378
31
0
210
0
220
0
230
1
40
0.949106
41
0.291330133656342
42
0.59626739863734
0
ELLIPSE
5
25C
100
AcDbEntity
8
1
62
256
6
ByLayer
370
-1
48
1
60
0
100
AcDbEllipse
10
24.068383
20
0.153096
30
0
11
-0.137011189572245
21
-0.0330885855425088
31
0
210
0
220
0
230
1
40
0.960998
41
-1.70134881585379
42
-0.748629138932025
0
ELLIPSE
5
25D
100
AcDbEntity
8
1
62
256
6
ByLayer
370
-1
48
1
60
0
100
AcDbEllipse
10
26.353561
20
5.560037
30
0
11
-2.48432448571503
21
-0.570335344482781
31
0
210
0
220
0
230
1
40
0.116146
41
0.00859279629455262
42
0.697033341191743
0
ELLIPSE
5
25E
100
AcDbEntity
8
1
62
256
6
ByLayer
370
-1
48
1
60
0
100
AcDbEllipse
10
23.991437
20
11.018809
30
0
11
-0.000759858479879429
21
-0.254557307133561
31
0
210
0
220
0
230
1
40
0.999427
41
-0.539942040506921
42
0.533972019598263
0
ELLIPSE
5
25F
100
AcDbEntity
8
1
62
256
6
ByLayer
370
-1
48
1
60
0
100
AcDbEllipse
10
20.253374
20
5.845798
30
0
11
3.02172664945335
21
-0.598439441137485
31
0
210
0
220
0
230
1
40
0.984226
41
0
42
6.28318530717959
0
ELLIPSE
5
260
100
AcDbEntity
8
1
62
256
6
ByLayer
370
-1
48
1
60
0
100
AcDbEllipse
10
23.6661
20
5.552629
30
0
11
-0.14404539576328
21
-0.0418440432965074
31
0
210
0
220
0
230
1
40
0.157592
41
-1.82683732930146
42
-1.65230440410202
0
ELLIPSE
5
261
100
AcDbEntity
8
1
62
256
6
ByLayer
370
-1
48
1
60
0
100
AcDbEllipse
10
26.179864
20
6.15798
30
0
11
-2.48432448057556
21
-0.570335343661256
31
0
210
0
220
0
230
1
40
0.116146
41
-0.684769481442131
42
-0.54374313433
0
ELLIPSE
5
262
100
AcDbEntity
8
1
62
256
6
ByLayer
370
-1
48
1
60
0
100
AcDbEllipse
10
17.610773
20
0.586795
30
0
11
-0.712268965647169
21
-2.45141637448481
31
0
210
0
220
0
230
1
40
0.117504
41
2.45451032184764
42
2.59553666891479
0
ELLIPSE
5
263
100
AcDbEntity
8
1
62
256
6
ByLayer
370
-1
48
1
60
0
100
AcDbEllipse
10
23.997966
20
10.921889
30
0
11
-0.0100406049363947
21
0.896870919113624
31
0
210
0
220
0
230
1
40
0.534798
41
-0.309890900143148
42
0.291528496169376
0
ELLIPSE
5
264
100
AcDbEntity
8
1
62
256
6
ByLayer
370
-1
48
1
60
0
100
AcDbEllipse
10
13.746241
20
6.340727
30
0
11
-0.709649730311052
21
-0.37575016376193
31
0
210
0
220
0
230
1
40
0.184977
41
-0.293026097854735
42
0.308393298457204
0
ELLIPSE
5
265
100
AcDbEntity
8
1
62
256
6
ByLayer
370
-1
48
1
60
0
100
AcDbEllipse
10
18.43718
20
2.401718
30
0
11
0.149611716622363
21
-0.0107858355869933
31
0
210
0
220
0
230
1
40
0.175609
41
1.54899253577676
42
2.25457872547512
0
ELLIPSE
5
266
100
AcDbEntity
8
1
62
256
6
ByLayer
370
-1
48
1
60
0
100
AcDbEllipse
10
18.370967
20
1.483259
30
0
11
-0.143904363175607
21
0.0842419442554223
31
0
210
0
220
0
230
1
40
0.150551
41
-1.51858536462508
42
-0.812999174961756
0
ELLIPSE
5
267
100
AcDbEntity
8
1
62
256
6
ByLayer
370
-1
48
1
60
0
100
AcDbEllipse
10
23.830393
20
10.924183
30
0
11
-0.831559374291997
21
-0.488683307497773
31
0
210
0
220
0
230
1
40
0.342088
41
2.31454818714416
42
3.13682940947924
0
ELLIPSE
5
268
100
AcDbEntity
8
1
62
256
6
ByLayer
370
-1
48
1
60
0
100
AcDbEllipse
10
25.007905
20
9.020672
30
0
11
-0.000762641079173662
21
-0.176124031843103
31
0
210
0
220
0
230
1
40
0.02895
41
1.71926920363261
42
2.75424944999657
0
ELLIPSE
5
269
100
AcDbEntity
8
1
62
256
6
ByLayer
370
-1
48
1
60
0
100
AcDbEllipse
10
14.876181
20
3.952073
30
0
11
-0.140724850044149
21
0.243495952046387
31
0
210
0
220
0
230
1
40
0.062345
41
-1.49976842340538
42
-0.464788176964949
0
ELLIPSE
5
26A
100
AcDbEntity
8
1
62
256
6
ByLayer
370
-1
48
1
60
0
100
AcDbEllipse
10
23.617122
20
-0.377365
30
0
11
0.283039208546488
21
0.169672644894154
31
0
210
0
220
0
230
1
40
0.280715
41
-1.60322516577595
42
-1.25415931537708
0
ELLIPSE
5
26B
100
AcDbEntity
8
1
62
256
6
ByLayer
370
-1
48
1
60
0
100
AcDbEllipse
10
24.996949
20
10.22055
30
0
11
-0.00213953146220554
21
-0.358313861924137
31
0
210
0
220
0
230
1
40
0.030228
41
-1.57070606322932
42
-1.37577106510168
0
ELLIPSE
5
26C
100
AcDbEntity
8
1
62
256
6
ByLayer
370
-1
48
1
60
0
100
AcDbEllipse
10
13.807008
20
6.425048
30
0
11
-0.817698906670407
21
-0.488291095228752
31
0
210
0
220
0
230
1
40
0.499465
41
-0.305629706748104
42
0.295789689562492
0
ELLIPSE
5
26D
100
AcDbEntity
8
1
62
256
6
ByLayer
370
-1
48
1
60
0
100
AcDbEllipse
10
13.348946
20
6.989575
30
0
11
-0.221439229053496
21
0.117939743176336
31
0
210
0
220
0
230
1
40
0.956933
41
-0.572797868821163
42
-0.0425449356955733
0
ELLIPSE
5
26E
100
AcDbEntity
8
1
62
256
6
ByLayer
370
-1
48
1
60
0
100
AcDbEllipse
10
24.652018
20
10.04924
30
0
11
-0.142339724420541
21
0.286599725840561
31
0
210
0
220
0
230
1
40
0.030273
41
1.55564937520773
42
1.75058437578316
0
ELLIPSE
5
26F
100
AcDbEntity
8
1
62
256
6
ByLayer
370
-1
48
1
60
0
100
AcDbEllipse
10
14.745029
20
6.890313
30
0
11
-2.2708791370011
21
-1.20240052404121
31
0
210
0
220
0
230
1
40
0.184977
41
-0.293026097854299
42
0.308393298456809
0
ELLIPSE
5
270
100
AcDbEntity
8
1
62
256
6
ByLayer
370
-1
48
1
60
0
100
AcDbEllipse
10
22.948376
20
11.634404
30
0
11
-0.00107148370111419
21
-0.182773648558293
31
0
210
0
220
0
230
1
40
0.984243
41
2.18876525499426
42
3.1414849319175
0
ELLIPSE
5
271
100
AcDbEntity
8
1
62
256
6
ByLayer
370
-1
48
1
60
0
100
AcDbEllipse
10
23.998545
20
11.018788
30
0
11
-0.170564047919397
21
-0.282502930174803
31
0
210
0
220
0
230
1
40
0.029033
41
-1.55338735783218
42
-0.672366031822956
0
ELLIPSE
5
272
100
AcDbEntity
8
1
62
256
6
ByLayer
370
-1
48
1
60
0
100
AcDbEllipse
10
17.610773
20
0.586795
30
0
11
-0.712268966992793
21
-2.45141637818819
31
0
210
0
220
0
230
1
40
0.117504
41
2.5955366693062
42
-3.13531270775422
0
ELLIPSE
5
273
100
AcDbEntity
8
1
62
256
6
ByLayer
370
-1
48
1
60
0
100
AcDbEllipse
10
13.723599
20
6.004801
30
0
11
0.329130860467997
21
0.0239348425437904
31
0
210
0
220
0
230
1
40
0.56948
41
-1.78308752718572
42
-0.960806304850724
0
ELLIPSE
5
274
100
AcDbEntity
8
1
62
256
6
ByLayer
370
-1
48
1
60
0
100
AcDbEllipse
10
13.723599
20
6.004801
30
0
11
-0.329997742622203
21
0.00122059995511283
31
0
210
0
220
0
230
1
40
0.260606
41
1.38655953808091
42
2.26758086409028
0
ELLIPSE
5
275
100
AcDbEntity
8
1
62
256
6
ByLayer
370
-1
48
1
60
0
100
AcDbEllipse
10
22.908093
20
-0.047138
30
0
11
-0.804483379769774
21
0.501163811379966
31
0
210
0
220
0
230
1
40
0.499165
41
2.85366782683472
42
-2.82809808403161
0
ELLIPSE
5
276
100
AcDbEntity
8
1
62
256
6
ByLayer
370
-1
48
1
60
0
100
AcDbEllipse
10
22.995042
20
-0.468402
30
0
11
-0.329983427246045
21
-0.00330722586988151
31
0
210
0
220
0
230
1
40
0.260158
41
0.803884994464204
42
1.68490632047359
0
ELLIPSE
5
277
100
AcDbEntity
8
1
62
256
6
ByLayer
370
-1
48
1
60
0
100
AcDbEllipse
10
24.150827
20
-0.769733
30
0
11
-0.195730270817033
21
-0.0472694079193307
31
0
210
0
220
0
230
1
40
0.960998
41
1.35242012097981
42
2.39296351465009
0
ELLIPSE
5
278
100
AcDbEntity
8
1
62
256
6
ByLayer
370
-1
48
1
60
0
100
AcDbEllipse
10
24.547343
20
1.511009
30
0
11
-0.0376206646916809
21
0.311423121621727
31
0
210
0
220
0
230
1
40
0.772162
41
0.839487219162539
42
1.16161956903711
0
ELLIPSE
5
279
100
AcDbEntity
8
1
62
256
6
ByLayer
370
-1
48
1
60
0
100
AcDbEllipse
10
19.193869
20
9.312834
30
0
11
0.10682302734468
21
-0.105303565129191
31
0
210
0
220
0
230
1
40
0.148425
41
1.66830724196398
42
1.84284016716338
0
ELLIPSE
5
27A
100
AcDbEntity
8
1
62
256
6
ByLayer
370
-1
48
1
60
0
100
AcDbEllipse
10
13.414501
20
5.317684
30
0
11
-0.124005968268952
21
0.0660462561816735
31
0
210
0
220
0
230
1
40
0.956933
41
-3.09631387251645
42
-2.14359419559408
0
ELLIPSE
5
27B
100
AcDbEntity
8
1
62
256
6
ByLayer
370
-1
48
1
60
0
100
AcDbEllipse
10
24.046382
20
0.115677
30
0
11
-0.137011189573801
21
-0.0330885855399869
31
0
210
0
220
0
230
1
40
0.960998
41
-0.748629138910317
42
0.29191425475612
0
ELLIPSE
5
27C
100
AcDbEntity
8
1
62
256
6
ByLayer
370
-1
48
1
60
0
100
AcDbEllipse
10
18.140227
20
9.092278
30
0
11
-0.0836787172514729
21
-0.124490450554041
31
0
210
0
220
0
230
1
40
0.069217
41
-2.44032119071332
42
-1.73473500101484
0
ELLIPSE
5
27D
100
AcDbEntity
8
1
62
256
6
ByLayer
370
-1
48
1
60
0
100
AcDbEllipse
10
14.234805
20
7.405179
30
0
11
-0.179842745777117
21
-0.264682048487138
31
0
210
0
220
0
230
1
40
0.009174
41
-1.44544798697879
42
-1.25051298640338
0
ELLIPSE
5
27E
100
AcDbEntity
8
1
62
256
6
ByLayer
370
-1
48
1
60
0
100
AcDbEllipse
10
22.946521
20
-0.132051
30
0
11
-0.719632169598431
21
0.384318443641492
31
0
210
0
220
0
230
1
40
0.181124
41
2.83345079243973
42
-2.84831511843628
0
ELLIPSE
5
27F
100
AcDbEntity
8
1
62
256
6
ByLayer
370
-1
48
1
60
0
100
AcDbEllipse
10
23.572718
20
-0.452886
30
0
11
0.00886045880461609
21
-0.329881027447429
31
0
210
0
220
0
230
1
40
0.113407
41
0.958350526972161
42
1.30741637737102
0
ELLIPSE
5
280
100
AcDbEntity
8
1
62
256
6
ByLayer
370
-1
48
1
60
0
100
AcDbEllipse
10
14.268235
20
7.819935
30
0
11
-0.335923589010125
21
-0.196319453687468
31
0
210
0
220
0
230
1
40
0.109765
41
1.42464216552065
42
2.50740775134757
0
ELLIPSE
5
281
100
AcDbEntity
8
1
62
256
6
ByLayer
370
-1
48
1
60
0
100
AcDbEllipse
10
21.942082
20
0.429498
30
0
11
-2.3028229426585
21
1.22981901962257
31
0
210
0
220
0
230
1
40
0.181124
41
2.83345079243596
42
-2.84831511843267
0
ELLIPSE
5
282
100
AcDbEntity
8
1
62
256
6
ByLayer
370
-1
48
1
60
0
100
AcDbEllipse
10
23.354546
20
0.047408
30
0
11
0.231915234598394
21
0.104953913510507
31
0
210
0
220
0
230
1
40
0.959287
41
1.36290794435804
42
1.66784520933902
0
ELLIPSE
5
283
100
AcDbEntity
8
1
62
256
6
ByLayer
370
-1
48
1
60
0
100
AcDbEllipse
10
24.74073
20
10.970143
30
0
11
-0.00148817193899428
21
-0.25385228967154
31
0
210
0
220
0
230
1
40
0.984243
41
1.57068860564969
42
2.10094153875941
0
ELLIPSE
5
284
100
AcDbEntity
8
1
62
256
6
ByLayer
370
-1
48
1
60
0
100
AcDbEllipse
10
13.916121
20
7.621715
30
0
11
-0.308208297054357
21
-0.176789544283947
31
0
210
0
220
0
230
1
40
0.121214
41
1.30947645656053
42
1.50441145686451
0
ELLIPSE
5
285
100
AcDbEntity
8
1
62
256
6
ByLayer
370
-1
48
1
60
0
100
AcDbEllipse
10
13.686322
20
6.327814
30
0
11
0.206517458879737
21
-0.148830572053781
31
0
210
0
220
0
230
1
40
0.949106
41
0.596267398637343
42
1.67018145874252
0
ELLIPSE
5
286
100
AcDbEntity
8
1
62
256
6
ByLayer
370
-1
48
1
60
0
100
AcDbEllipse
10
20.183975
20
5.619837
30
0
11
1.66764933451775
21
-0.172040539067087
31
0
210
0
220
0
230
1
40
0.98465
41
1.2320497086919
42
2.27645671220716
0
ELLIPSE
5
287
100
AcDbEntity
8
1
62
256
6
ByLayer
370
-1
48
1
60
0
100
AcDbEllipse
10
20.158451
20
5.372428
30
0
11
-1.20013058281877
21
0.12380966918249
31
0
210
0
220
0
230
1
40
0.98465
41
-1.38733944314026
42
-0.407779251514903
0
ELLIPSE
5
288
100
AcDbEntity
8
1
62
256
6
ByLayer
370
-1
48
1
60
0
100
AcDbEllipse
10
21.710888
20
6.43316
30
0
11
-0.682378433330855
21
0.0703965462570974
31
0
210
0
220
0
230
1
40
0.98465
41
0.70984620693426
42
1.49383685055506
0
ELLIPSE
5
289
100
AcDbEntity
8
1
62
256
6
ByLayer
370
-1
48
1
60
0
100
AcDbEllipse
10
20.183975
20
5.619837
30
0
11
1.66764933451775
21
-0.172040539067087
31
0
210
0
220
0
230
1
40
0.98465
41
2.27645671220716
42
-2.95394994841316
0
ELLIPSE
5
28A
100
AcDbEntity
8
1
62
256
6
ByLayer
370
-1
48
1
60
0
100
AcDbEllipse
10
20.003042
20
7.230363
30
0
11
-0.682378433330855
21
0.0703965462570974
31
0
210
0
220
0
230
1
40
0.98465
41
1.75425321044953
42
2.53824385407033
0
ELLIPSE
5
28B
100
AcDbEntity
8
1
62
256
6
ByLayer
370
-1
48
1
60
0
100
AcDbEllipse
10
20.183975
20
5.619837
30
0
11
1.66764933451775
21
-0.172040539067087
31
0
210
0
220
0
230
1
40
0.98465
41
-0.865135941382635
42
0.187642705176639
0
ELLIPSE
5
28C
100
AcDbEntity
8
1
62
256
6
ByLayer
370
-1
48
1
60
0
100
AcDbEllipse
10
20.158451
20
5.372428
30
0
11
1.20013058281877
21
-0.123809669182488
31
0
210
0
220
0
230
1
40
0.98465
41
2.73381340207489
42
2.8718786688987
0
ELLIPSE
5
28D
100
AcDbEntity
8
1
62
256
6
ByLayer
370
-1
48
1
60
0
100
AcDbEllipse
10
20.183975
20
5.619837
30
0
11
1.66764933451775
21
-0.172040539067087
31
0
210
0
220
0
230
1
40
0.98465
41
0.187642705176639
42
1.2320497086919
0
ELLIPSE
5
28E
100
AcDbEntity
8
1
62
256
6
ByLayer
370
-1
48
1
60
0
100
AcDbEllipse
10
20.179115
20
5.572724
30
0
11
1.20013058281877
21
-0.123809669182488
31
0
210
0
220
0
230
1
40
0.98465
41
2.73381340207488
42
2.87187866889872
0
ELLIPSE
5
28F
100
AcDbEntity
8
1
62
256
6
ByLayer
370
-1
48
1
60
0
100
AcDbEllipse
10
20.183975
20
5.619837
30
0
11
1.66764933451775
21
-0.172040539067087
31
0
210
0
220
0
230
1
40
0.98465
41
-1.9095429448979
42
-0.865135941382635
0
ELLIPSE
5
290
100
AcDbEntity
8
1
62
256
6
ByLayer
370
-1
48
1
60
0
100
AcDbEllipse
10
20.179115
20
5.572724
30
0
11
1.20013058281877
21
-0.123809669182488
31
0
210
0
220
0
230
1
40
0.98465
41
-0.407779251514861
42
-0.269713984691122
0
ELLIPSE
5
291
100
AcDbEntity
8
1
62
256
6
ByLayer
370
-1
48
1
60
0
100
AcDbEllipse
10
20.158451
20
5.372428
30
0
11
-1.20013058281877
21
0.12380966918249
31
0
210
0
220
0
230
1
40
0.98465
41
-2.43174644665552
42
-1.38733944314026
0
ELLIPSE
5
292
100
AcDbEntity
8
1
62
256
6
ByLayer
370
-1
48
1
60
0
100
AcDbEllipse
10
20.003042
20
7.230363
30
0
11
-0.682378433330855
21
0.0703965462570974
31
0
210
0
220
0
230
1
40
0.98465
41
0.970262566828741
42
1.75425321044953
0
ELLIPSE
5
293
100
AcDbEntity
8
1
62
256
6
ByLayer
370
-1
48
1
60
0
100
AcDbEllipse
10
18.45365
20
6.168209
30
0
11
-0.682378433330855
21
0.0703965462570974
31
0
210
0
220
0
230
1
40
0.98465
41
2.01158470056557
42
2.68123199426989
0
ELLIPSE
5
294
100
AcDbEntity
8
1
62
256
6
ByLayer
370
-1
48
1
60
0
100
AcDbEllipse
10
20.183975
20
5.619837
30
0
11
1.66764933451775
21
-0.172040539067087
31
0
210
0
220
0
230
1
40
0.98465
41
-2.95394994841316
42
-1.9095429448979
0
ELLIPSE
5
295
100
AcDbEntity
8
1
62
256
6
ByLayer
370
-1
48
1
60
0
100
AcDbEllipse
10
11.302059
20
0
30
0
11
-5.33500041596327
21
-9.99700266887874
31
0
210
0
220
0
230
1
40
0.04589
41
-0.508729563025724
42
-0.151421157020789
0
ELLIPSE
5
296
100
AcDbEntity
8
1
62
256
6
ByLayer
370
-1
48
1
60
0
100
AcDbEllipse
10
9.12671
20
-4.596194
30
0
11
-1.60050012478115
21
-2.99910080064941
31
0
210
0
220
0
230
1
40
0.04589
41
-1.2003775107753
42
0.900280882661593
0
ELLIPSE
5
297
100
AcDbEntity
8
1
62
256
6
ByLayer
370
-1
48
1
60
0
100
AcDbEllipse
10
8.585063
20
-4.596194
30
0
11
-1.60050012478065
21
-2.99910080064839
31
0
210
0
220
0
230
1
40
0.04589
41
0.0298871869928302
42
1.45555005338968
0
ELLIPSE
5
298
100
AcDbEntity
8
1
62
256
6
ByLayer
370
-1
48
1
60
0
100
AcDbEllipse
10
23.62227
20
-4.596194
30
0
11
-2.99604508731423
21
-2.99261782856947
31
0
210
0
220
0
230
1
40
0.070202
41
1.568767978062
42
1.73860404022463
0
ELLIPSE
5
299
100
AcDbEntity
8
1
62
256
6
ByLayer
370
-1
48
1
60
0
100
AcDbEllipse
10
23.62227
20
-4.596194
30
0
11
-2.99604509836513
21
-2.99261783987442
31
0
210
0
220
0
230
1
40
0.070202
41
-1.94733509866023
42
-1.7774990371063
0
ELLIPSE
5
29A
100
AcDbEntity
8
1
62
256
6
ByLayer
370
-1
48
1
60
0
100
AcDbEllipse
10
99.091757
20
8.3E-05
30
0
11
-290.778797235579
21
1.73844336900638
31
0
210
0
220
0
230
1
40
0.033866
41
-1.25873732521408
42
-1.25131015231944
0
ELLIPSE
5
29B
100
AcDbEntity
8
1
62
256
6
ByLayer
370
-1
48
1
60
0
100
AcDbEllipse
10
24.334786
20
11.216357
30
0
11
0.167178409276352
21
-0.284519559032114
31
0
210
0
220
0
230
1
40
0.029136
41
-1.58803161366134
42
-0.707010287652034
0
ELLIPSE
5
29C
100
AcDbEntity
8
1
62
256
6
ByLayer
370
-1
48
1
60
0
100
AcDbEllipse
10
17.271492
20
2.703321
30
0
11
-0.132201987471351
21
0.0708705475400387
31
0
210
0
220
0
230
1
40
0.169419
41
-2.23159452214278
42
-1.51906994361622
0
ELLIPSE
5
29D
100
AcDbEntity
8
1
62
256
6
ByLayer
370
-1
48
1
60
0
100
AcDbEllipse
10
13.724992
20
6.381472
30
0
11
0.329997742622203
21
-0.00122059995511273
31
0
210
0
220
0
230
1
40
0.260606
41
-1.75503311550889
42
-0.874011789499506
0
ELLIPSE
5
29E
100
AcDbEntity
8
1
62
256
6
ByLayer
370
-1
48
1
60
0
100
AcDbEllipse
10
14.234805
20
7.405179
30
0
11
0.318965580588538
21
-0.0257091112218397
31
0
210
0
220
0
230
1
40
0.104478
41
-1.64049561172965
42
-0.557730025900592
0
ELLIPSE
5
29F
100
AcDbEntity
8
1
62
256
6
ByLayer
370
-1
48
1
60
0
100
AcDbEllipse
10
18.756118
20
8.868766
30
0
11
0.10682302734468
21
-0.105303565129191
31
0
210
0
220
0
230
1
40
0.148425
41
1.66830724196401
42
1.84284016716349
0
ELLIPSE
5
2A0
100
AcDbEntity
8
1
62
256
6
ByLayer
370
-1
48
1
60
0
100
AcDbEllipse
10
20.183975
20
5.619837
30
0
11
1.79049734693227
21
-0.184713969770806
31
0
210
0
220
0
230
1
40
0.98465
41
0
42
6.28318530717959
0
ELLIPSE
5
2A1
100
AcDbEntity
8
1
62
256
6
ByLayer
370
-1
48
1
60
0
100
AcDbEllipse
10
20.178301
20
5.564835
30
0
11
2.7106140391058
21
-0.279636426458582
31
0
210
0
220
0
230
1
40
0.98465
41
0
42
6.28318530717959
0
ELLIPSE
5
2A2
100
AcDbEntity
8
1
62
256
6
ByLayer
370
-1
48
1
60
0
100
AcDbEllipse
10
24.996949
20
9.819903
30
0
11
-0.00106321501207382
21
-0.383499293754124
31
0
210
0
220
0
230
1
40
0.028655
41
-1.47434452866581
42
-0.391578942826734
0
POINT
5
41
100
AcDbEntity
8
80
62
256
6
ByLayer
370
-1
48
1
60
0
100
AcDbPoint
10
0
20
0
30
0
39
0
210
0
220
0
230
1
50
360
0
POINT
5
43
100
AcDbEntity
8
81
62
256
6
ByLayer
370
-1
48
1
60
0
100
AcDbPoint
10
25
20
13.875
30
0
39
0
210
0
220
0
230
1
50
360
0
POINT
5
45
100
AcDbEntity
8
2
62
256
6
ByLayer
370
-1
48
1
60
0
100
AcDbPoint
10
25
20
13.875
30
0
39
0
210
0
220
0
230
1
50
360
0
POINT
5
47
100
AcDbEntity
8
2
62
256
6
ByLayer
370
-1
48
1
60
0
100
AcDbPoint
10
25.008175
20
13.916277
30
0
39
0
210
0
220
0
230
1
50
360
0
POINT
5
48
100
AcDbEntity
8
2
62
256
6
ByLayer
370
-1
48
1
60
0
100
AcDbPoint
10
24.000591
20
12.552561
30
0
39
0
210
0
220
0
230
1
50
360
0
SPLINE
5
2A3
100
AcDbEntity
8
SK1
62
256
6
ByLayer
370
-1
48
1
60
0
100
AcDbSpline
70
4
71
3
72
8
73
4
40
0
40
0
40
0
40
0
40
1
40
1
40
1
40
1
41
1
10
-0.238765877365267
20
5.84076208671027
30
0
41
1
10
-0.232428368510853
20
5.82089968580537
30
0
41
1
10
-0.226218637203573
20
5.80096038930463
30
0
41
1
10
-0.220139793550686
20
5.78094861053056
30
0
0
SPLINE
5
2A4
100
AcDbEntity
8
1
62
256
6
ByLayer
370
-1
48
1
60
0
100
AcDbSpline
70
4
71
3
72
14
73
10
40
0
40
0
40
0
40
0
40
0.235865862607011
40
0.235865862607011
40
0.568496247196811
40
0.568496247196811
40
0.807901940764784
40
0.807901940764784
40
1
40
1
40
1
40
1
41
1
10
6.1522183297601
20
1.7442294336779
30
0
41
1
10
6.19179993600113
20
1.77902795932454
30
0
41
1
10
6.24411245988941
20
1.81860808015371
30
0
41
1
10
6.39440433387668
20
1.91785264857744
30
0
41
1
10
6.50469350501407
20
1.98096489225418
30
0
41
1
10
6.72556828987027
20
2.07641724440019
30
0
41
1
10
6.83003651164432
20
2.11317379020812
30
0
41
1
10
7.03169620224816
20
2.15908673649936
30
0
41
1
10
7.12839914225978
20
2.17236052745521
30
0
41
1
10
7.22492891209026
20
2.17519274825564
30
0
0
SPLINE
5
2A5
100
AcDbEntity
8
1
62
256
6
ByLayer
370
-1
48
1
60
0
100
AcDbSpline
70
4
71
3
72
14
73
10
40
0
40
0
40
0
40
0
40
0.211920402564444
40
0.211920402564444
40
0.420960782254067
40
0.420960782254067
40
0.732543139875658
40
0.732543139875658
40
1
40
1
40
1
40
1
41
1
10
7.22420447382027
20
6.26528022907686
30
0
41
1
10
7.11127870752563
20
6.26994215991932
30
0
41
1
10
6.99805341969238
20
6.29487934934871
30
0
41
1
10
6.79311677913819
20
6.3710293200032
30
0
41
1
10
6.69803695988819
20
6.42228727141568
30
0
41
1
10
6.48693222664309
20
6.56359216288979
30
0
41
1
10
6.37880194636301
20
6.66257633218905
30
0
41
1
10
6.21965907926784
20
6.84580796652662
30
0
41
1
10
6.16093805665562
20
6.9324750387069
30
0
41
1
10
6.12168735133295
20
7.01399290620859
30
0
0
SPLINE
5
2A6
100
AcDbEntity
8
1
62
256
6
ByLayer
370
-1
48
1
60
0
100
AcDbSpline
70
4
71
3
72
16
73
12
40
0
40
0
40
0
40
0
40
0.211907257107561
40
0.211907257107561
40
0.450004502790038
40
0.450004502790038
40
0.688171722407792
40
0.688171722407792
40
0.936535589694043
40
0.936535589694043
40
1
40
1
40
1
40
1
41
1
10
6.06791975010802
20
-7.37506573839343
30
0
41
1
10
6.06797952542286
20
-7.41777043009843
30
0
41
1
10
6.08363761702549
20
-7.45480285357181
30
0
41
1
10
6.14987711875492
20
-7.51731926559324
30
0
41
1
10
6.20546668585425
20
-7.5417695907591
30
0
41
1
10
6.3490254646039
20
-7.57501591003105
30
0
41
1
10
6.43882590387679
20
-7.5844164503371
30
0
41
1
10
6.64497399589851
20
-7.59493235317058
30
0
41
1
10
6.7651446596368
20
-7.59599702021507
30
0
41
1
10
6.92327091567012
20
-7.59621351045401
30
0
41
1
10
6.95617171122694
20
-7.59619382130855
30
0
41
1
10
6.98939023220115
20
-7.59615029608032
30
0
0
SPLINE
5
2A7
100
AcDbEntity
8
1
62
256
6
ByLayer
370
-1
48
1
60
0
100
AcDbSpline
70
4
71
3
72
14
73
10
40
0
40
0
40
0
40
0
40
0.281570737144975
40
0.281570737144975
40
0.562899642945985
40
0.562899642945985
40
0.847269096017507
40
0.847269096017507
40
1
40
1
40
1
40
1
41
1
10
7.22563196850396
20
-1.79417545738838
30
0
41
1
10
7.09212794306174
20
-1.79250489233907
30
0
41
1
10
6.95761854783723
20
-1.78224692566569
30
0
41
1
10
6.70900319070816
20
-1.74985780112149
30
0
41
1
10
6.59141952889578
20
-1.72745091198122
30
0
41
1
10
6.38728756303607
20
-1.68108391309065
30
0
41
1
10
6.29816787787274
20
-1.65662491511885
30
0
41
1
10
6.19375969424985
20
-1.62705471430924
30
0
41
1
10
6.16284641594262
20
-1.61812220685795
30
0
41
1
10
6.13813880023051
20
-1.61125767238852
30
0
0
SPLINE
5
2A8
100
AcDbEntity
8
SK1
62
256
6
ByLayer
370
-1
48
1
60
0
100
AcDbSpline
70
4
71
3
72
14
73
10
40
0
40
0
40
0
40
0
40
0.283492499998285
40
0.283492499998285
40
0.663642774473266
40
0.663642774473266
40
0.95761426704399
40
0.95761426704399
40
1
40
1
40
1
40
1
41
1
10
-0.261839128619016
20
7.00837853020303
30
0
41
1
10
-0.267525158376998
20
7.01680619514255
30
0
41
1
10
-0.272803078412437
20
7.025037019181
30
0
41
1
10
-0.283941509885466
20
7.0435770517943
30
0
41
1
10
-0.289448586756691
20
7.05377444724692
30
0
41
1
10
-0.296227962689386
20
7.06939664781103
30
0
41
1
10
-0.298214163311656
20
7.07549899099166
30
0
41
1
10
-0.298732109292956
20
7.0807638216436
30
0
41
1
10
-0.29876587736527
20
7.08140337619528
30
0
41
1
10
-0.29876587736527
20
7.08200940189492
30
0
0
SPLINE
5
2A9
100
AcDbEntity
8
SK1
62
256
6
ByLayer
370
-1
48
1
60
0
100
AcDbSpline
70
4
71
3
72
12
73
8
40
0
40
0
40
0
40
0
40
0.221927881260374
40
0.221927881260374
40
0.620389154575851
40
0.620389154575851
40
1
40
1
40
1
40
1
41
1
10
-0.298765877366094
20
-7.08200940189514
30
0
41
1
10
-0.298765877365952
20
-7.0789356703408
30
0
41
1
10
-0.297887441356153
20
-7.07497679777445
30
0
41
1
10
-0.293621579770786
20
-7.06243370590981
30
0
41
1
10
-0.288761918218313
20
-7.05250314449756
30
0
41
1
10
-0.27715695173697
20
-7.03194250931186
30
0
41
1
10
-0.270417475044411
20
-7.02116966225403
30
0
41
1
10
-0.26297901913847
20
-7.01007534599454
30
0
0
SPLINE
5
2AA
100
AcDbEntity
8
1
62
256
6
ByLayer
370
-1
48
1
60
0
100
AcDbSpline
70
4
71
3
72
8
73
4
40
0
40
0
40
0
40
0
40
1
40
1
40
1
40
1
41
1
10
10.4860532233296
20
10.2821060740984
30
0
41
1
10
10.4704483507431
20
10.2659487124798
30
0
41
1
10
10.4541277879323
20
10.2497761008596
30
0
41
1
10
10.4375757746144
20
10.233591623979
30
0
0
SPLINE
5
2AB
100
AcDbEntity
8
1
62
256
6
ByLayer
370
-1
48
1
60
0
100
AcDbSpline
70
4
71
3
72
8
73
4
40
0
40
0
40
0
40
0
40
1
40
1
40
1
40
1
41
1
10
14.3712575479608
20
-3.7761551835947
30
0
41
1
10
14.3729357336926
20
-3.71156431645387
30
0
41
1
10
14.3751867576775
20
-3.64753384745717
30
0
41
1
10
14.3780954834577
20
-3.58429719200653
30
0
0
SPLINE
5
2AC
100
AcDbEntity
8
1
62
256
6
ByLayer
370
-1
48
1
60
0
100
AcDbSpline
70
4
71
3
72
8
73
4
40
0
40
0
40
0
40
0
40
1
40
1
40
1
40
1
41
1
10
19.2209255350185
20
-3.57830425197567
30
0
41
1
10
19.2239669266146
20
-3.64351274522913
30
0
41
1
10
19.2263007657633
20
-3.70954855647024
30
0
41
1
10
19.2280313245286
20
-3.77615518359472
30
0
0
SPLINE
5
2AD
100
AcDbEntity
8
1
62
256
6
ByLayer
370
-1
48
1
60
0
100
AcDbSpline
70
4
71
3
72
8
73
4
40
0
40
0
40
0
40
0
40
1
40
1
40
1
40
1
41
1
10
16.2685850123329
20
9.06704416330663
30
0
41
1
10
16.3377807977646
20
9.09085585402202
30
0
41
1
10
16.4071746623562
20
9.11966919975002
30
0
41
1
10
16.4772247687805
20
9.14555308183054
30
0
0
SPLINE
5
2AE
100
AcDbEntity
8
1
62
256
6
ByLayer
370
-1
48
1
60
0
100
AcDbSpline
70
4
71
3
72
8
73
4
40
0
40
0
40
0
40
0
40
1
40
1
40
1
40
1
41
1
10
12.0281375306832
20
6.63110990749772
30
0
41
1
10
11.9384402920272
20
6.56150636468834
30
0
41
1
10
11.8543971677945
20
6.48495670834886
30
0
41
1
10
11.7767001227651
20
6.40256191518381
30
0
0
SPLINE
5
2AF
100
AcDbEntity
8
SK1
62
256
6
ByLayer
370
-1
48
1
60
0
100
AcDbSpline
70
4
71
3
72
8
73
4
40
0
40
0
40
0
40
0
40
1
40
1
40
1
40
1
41
1
10
-0.238765877365267
20
6.4298870533332
30
0
41
1
10
-0.182536160386121
20
6.31810823694303
30
0
41
1
10
-0.129801927239043
20
6.20484635822952
30
0
41
1
10
-0.081270776114593
20
6.08980119774753
30
0
0
SPLINE
5
2B0
100
AcDbEntity
8
SK1
62
256
6
ByLayer
370
-1
48
1
60
0
100
AcDbSpline
70
4
71
3
72
8
73
4
40
0
40
0
40
0
40
0
40
1
40
1
40
1
40
1
41
1
10
-0.220132959512682
20
-5.78093397590081
30
0
41
1
10
-0.226214475614995
20
-5.80094971436417
30
0
41
1
10
-0.232426512113648
20
-5.82089386766663
30
0
41
1
10
-0.238765877365267
20
-5.84076208671027
30
0
0
SPLINE
5
2B1
100
AcDbEntity
8
SK1
62
256
6
ByLayer
370
-1
48
1
60
0
100
AcDbSpline
70
4
71
3
72
8
73
4
40
0
40
0
40
0
40
0
40
1
40
1
40
1
40
1
41
1
10
-0.0813849518348491
20
-6.09007655988754
30
0
41
1
10
-0.12994670841789
20
-6.20517770626586
30
0
41
1
10
-0.18264968010314
20
-6.31833390230796
30
0
41
1
10
-0.238765877365267
20
-6.4298870533332
30
0
0
SPLINE
5
2B2
100
AcDbEntity
8
SK1
62
256
6
ByLayer
370
-1
48
1
60
0
100
AcDbSpline
70
4
71
3
72
8
73
4
40
0
40
0
40
0
40
0
40
1
40
1
40
1
40
1
41
1
10
-0.238765877363335
20
-6.33209089757672
30
0
41
1
10
-0.215872973260957
20
-6.31257107071653
30
0
41
1
10
-0.192991157275088
20
-6.29303382069915
30
0
41
1
10
-0.170121897532681
20
-6.27347697168071
30
0
0
SPLINE
5
2B3
100
AcDbEntity
8
1
62
256
6
ByLayer
370
-1
48
1
60
0
100
AcDbSpline
70
4
71
3
72
8
73
4
40
0
40
0
40
0
40
0
40
1
40
1
40
1
40
1
41
1
10
0
20
7.47890123860155
30
0
41
1
10
0.113114188983815
20
7.6751748890394
30
0
41
1
10
0.228638070256039
20
7.86961954854873
30
0
41
1
10
0.346265877365255
20
8.06232321790073
30
0
0
SPLINE
5
2B4
100
AcDbEntity
8
1
62
256
6
ByLayer
370
-1
48
1
60
0
100
AcDbSpline
70
4
71
3
72
8
73
4
40
0
40
0
40
0
40
0
40
1
40
1
40
1
40
1
41
1
10
0
20
-8.64198841336622
30
0
41
1
10
0.115396047488332
20
-8.73817971424089
30
0
41
1
10
0.230818843109887
20
-8.83432824239776
30
0
41
1
10
0.346265877365283
20
-8.93043793549572
30
0
0
SPLINE
5
2B5
100
AcDbEntity
8
1
62
256
6
ByLayer
370
-1
48
1
60
0
100
AcDbSpline
70
4
71
3
72
8
73
4
40
0
40
0
40
0
40
0
40
1
40
1
40
1
40
1
41
1
10
0
20
-9.29530600554689
30
0
41
1
10
0.114811070065287
20
-9.42885285601457
30
0
41
1
10
0.230255110667741
20
-9.56167740753047
30
0
41
1
10
0.346265877365283
20
-9.69383466119528
30
0
0
SPLINE
5
2B6
100
AcDbEntity
8
1
62
256
6
ByLayer
370
-1
48
1
60
0
100
AcDbSpline
70
4
71
3
72
8
73
4
40
0
40
0
40
0
40
0
40
1
40
1
40
1
40
1
41
1
10
0
20
-6.28710694491161
30
0
41
1
10
0.111283755722639
20
-6.52958244299808
30
0
41
1
10
0.226903980166355
20
-6.7694561733003
30
0
41
1
10
0.346265877365255
20
-7.00675370008618
30
0
0
SPLINE
5
2B7
100
AcDbEntity
8
SK1
62
256
6
ByLayer
370
-1
48
1
60
0
100
AcDbSpline
70
4
71
3
72
8
73
4
40
0
40
0
40
0
40
0
40
1
40
1
40
1
40
1
41
1
10
0
20
6.28710694491161
30
0
41
1
10
-0.0820120584768631
20
6.1084113698105
30
0
41
1
10
-0.161689228867999
20
5.92825601236886
30
0
41
1
10
-0.238765877365267
20
5.74665480307561
30
0
0
SPLINE
5
2B8
100
AcDbEntity
8
1
62
256
6
ByLayer
370
-1
48
1
60
0
100
AcDbSpline
70
4
71
3
72
8
73
4
40
0
40
0
40
0
40
0
40
1
40
1
40
1
40
1
41
1
10
0
20
5.49114867188607
30
0
41
1
10
0.115167945231576
20
5.5968269252575
30
0
41
1
10
0.230603518425141
20
5.70211714354039
30
0
41
1
10
0.346265877365255
20
5.80707297082022
30
0
0
SPLINE
5
2B9
100
AcDbEntity
8
SK1
62
256
6
ByLayer
370
-1
48
1
60
0
100
AcDbSpline
70
4
71
3
72
8
73
4
40
0
40
0
40
0
40
0
40
1
40
1
40
1
40
1
41
1
10
0
20
8.31956812200946
30
0
41
1
10
-0.0803448669348086
20
8.2012120252644
30
0
41
1
10
-0.159956775239181
20
8.08218682456661
30
0
41
1
10
-0.238765877365267
20
7.96246187705553
30
0
0
SPLINE
5
2BA
100
AcDbEntity
8
SK1
62
256
6
ByLayer
370
-1
48
1
60
0
100
AcDbSpline
70
4
71
3
72
8
73
4
40
0
40
0
40
0
40
0
40
1
40
1
40
1
40
1
41
1
10
0
20
6.93696358191076
30
0
41
1
10
-0.0796018697740521
20
6.87086312676009
30
0
41
1
10
-0.159190885270192
20
6.80474202602474
30
0
41
1
10
-0.238765877364074
20
6.73859843542441
30
0
0
SPLINE
5
2BB
100
AcDbEntity
8
1
62
256
6
ByLayer
370
-1
48
1
60
0
100
AcDbSpline
70
4
71
3
72
8
73
4
40
0
40
0
40
0
40
0
40
1
40
1
40
1
40
1
41
1
10
0
20
9.12566237249418
30
0
41
1
10
0.11534475622372
20
9.22583674762534
30
0
41
1
10
0.230769162777222
20
9.32588893592825
30
0
41
1
10
0.346265877365255
20
9.42582959020112
30
0
0
SPLINE
5
2BC
100
AcDbEntity
8
1
62
256
6
ByLayer
370
-1
48
1
60
0
100
AcDbSpline
70
4
71
3
72
8
73
4
40
0
40
0
40
0
40
0
40
1
40
1
40
1
40
1
41
1
10
0
20
-8.31956812200946
30
0
41
1
10
0.113995997883222
20
-8.4874957304398
30
0
41
1
10
0.229476442403069
20
-8.65409112042524
30
0
41
1
10
0.346265877365283
20
-8.81943954716688
30
0
0
SPLINE
5
2BD
100
AcDbEntity
8
1
62
256
6
ByLayer
370
-1
48
1
60
0
100
AcDbSpline
70
4
71
3
72
8
73
4
40
0
40
0
40
0
40
0
40
1
40
1
40
1
40
1
41
1
10
0
20
-6.93696358191075
30
0
41
1
10
0.115395987450626
20
-7.03278705081537
30
0
41
1
10
0.230818979238649
20
-7.12856717116598
30
0
41
1
10
0.346265877365283
20
-7.22430884114189
30
0
0
SPLINE
5
2BE
100
AcDbEntity
8
SK1
62
256
6
ByLayer
370
-1
48
1
60
0
100
AcDbSpline
70
4
71
3
72
8
73
4
40
0
40
0
40
0
40
0
40
1
40
1
40
1
40
1
41
1
10
-0.238765877364074
20
-6.73859843542441
30
0
41
1
10
-0.159190885270192
20
-6.80474202602474
30
0
41
1
10
-0.0796018697740521
20
-6.87086312676009
30
0
41
1
10
0
20
-6.93696358191076
30
0
0
SPLINE
5
2BF
100
AcDbEntity
8
SK1
62
256
6
ByLayer
370
-1
48
1
60
0
100
AcDbSpline
70
4
71
3
72
8
73
4
40
0
40
0
40
0
40
0
40
1
40
1
40
1
40
1
41
1
10
-0.238765877365211
20
8.91801952773797
30
0
41
1
10
-0.159216989515528
20
8.98729469287241
30
0
41
1
10
-0.0796274640853198
20
9.05650767730756
30
0
41
1
10
0
20
9.12566237249418
30
0
0
SPLINE
5
2C0
100
AcDbEntity
8
1
62
256
6
ByLayer
370
-1
48
1
60
0
100
AcDbSpline
70
4
71
3
72
8
73
4
40
0
40
0
40
0
40
0
40
1
40
1
40
1
40
1
41
1
10
0.346265877365255
20
-9.35088082387756
30
0
41
1
10
0.229954725839207
20
-9.20454508347567
30
0
41
1
10
0.114497294328658
20
-9.05729712318733
30
0
41
1
10
0
20
-8.9090663785133
30
0
0
SPLINE
5
2C1
100
AcDbEntity
8
SK1
62
256
6
ByLayer
370
-1
48
1
60
0
100
AcDbSpline
70
4
71
3
72
8
73
4
40
0
40
0
40
0
40
0
40
1
40
1
40
1
40
1
41
1
10
-2.84E-14
20
-7.93506230200856
30
0
41
1
10
-0.0795889466143649
20
-7.87004701126925
30
0
41
1
10
-0.159177580487381
20
-7.80503121006706
30
0
41
1
10
-0.238765877364898
20
-7.74001485883394
30
0
0
SPLINE
5
2C2
100
AcDbEntity
8
SK1
62
256
6
ByLayer
370
-1
48
1
60
0
100
AcDbSpline
70
4
71
3
72
8
73
4
40
0
40
0
40
0
40
0
40
1
40
1
40
1
40
1
41
1
10
0
20
-7.47890123860155
30
0
41
1
10
-0.0808531342800336
20
-7.33860637411948
30
0
41
1
10
-0.16048398755774
20
-7.197360252813
30
0
41
1
10
-0.238765877365267
20
-7.0551343208076
30
0
0
SPLINE
5
2C3
100
AcDbEntity
8
SK1
62
256
6
ByLayer
370
-1
48
1
60
0
100
AcDbSpline
70
4
71
3
72
8
73
4
40
0
40
0
40
0
40
0
40
1
40
1
40
1
40
1
41
1
10
0
20
9.29530600554689
30
0
41
1
10
-0.0799024031312001
20
9.20236449496866
30
0
41
1
10
-0.159499442168965
20
9.10907142803694
30
0
41
1
10
-0.238765877365267
20
9.0154066387165
30
0
0
SPLINE
5
2C4
100
AcDbEntity
8
SK1
62
256
6
ByLayer
370
-1
48
1
60
0
100
AcDbSpline
70
4
71
3
72
8
73
4
40
0
40
0
40
0
40
0
40
1
40
1
40
1
40
1
41
1
10
0
20
8.64198841336622
30
0
41
1
10
-0.0796016624640004
20
8.5756344295786
30
0
41
1
10
-0.159190595538178
20
8.50926007923204
30
0
41
1
10
-0.238765877365125
20
8.4428639190764
30
0
0
SPLINE
5
2C5
100
AcDbEntity
8
1
62
256
6
ByLayer
370
-1
48
1
60
0
100
AcDbSpline
70
4
71
3
72
8
73
4
40
0
40
0
40
0
40
0
40
1
40
1
40
1
40
1
41
1
10
-5.68E-14
20
7.93506230200856
30
0
41
1
10
0.115421323614868
20
8.02934864743166
30
0
41
1
10
0.230843304610431
20
8.12363391987898
30
0
41
1
10
0.346265877365255
20
8.21791822641055
30
0
0
SPLINE
5
2C6
100
AcDbEntity
8
SK1
62
256
6
ByLayer
370
-1
48
1
60
0
100
AcDbSpline
70
4
71
3
72
8
73
4
40
0
40
0
40
0
40
0
40
1
40
1
40
1
40
1
41
1
10
-7.105E-13
20
3.00981124603527
30
0
41
1
10
-0.0817074584294346
20
2.89261756203487
30
0
41
1
10
-0.161489137001951
20
2.77357994534344
30
0
41
1
10
-0.238765877365296
20
2.65244539844681
30
0
0
SPLINE
5
2C7
100
AcDbEntity
8
1
62
256
6
ByLayer
370
-1
48
1
60
0
100
AcDbSpline
70
4
71
3
72
20
73
16
40
0
40
0
40
0
40
0
40
0.052591737207801
40
0.052591737207801
40
0.222703883128872
40
0.222703883128872
40
0.394692605687902
40
0.394692605687902
40
0.54349461415477
40
0.54349461415477
40
0.687624736770194
40
0.687624736770194
40
0.842312126363416
40
0.842312126363416
40
1
40
1
40
1
40
1
41
1
10
10.5898576648616
20
6.11928351151782
30
0
41
1
10
10.5704479437718
20
6.0669532125159
30
0
41
1
10
10.5526893825162
20
6.01317600213181
30
0
41
1
10
10.486033748284
20
5.7809969865841
30
0
41
1
10
10.4550001668088
20
5.58709824872969
30
0
41
1
10
10.4542042494203
20
5.1899897860183
30
0
41
1
10
10.485916056363
20
4.9806730004637
30
0
41
1
10
10.6116914691166
20
4.616408945655
30
0
41
1
10
10.6985082802313
20
4.45321872735914
30
0
41
1
10
10.9125204641435
20
4.17281577015717
30
0
41
1
10
11.0409014929933
20
4.05059985943879
30
0
41
1
10
11.3350897846731
20
3.84610423636255
30
0
41
1
10
11.5068579829675
20
3.76447403758063
30
0
41
1
10
11.8671036013726
20
3.65823433245429
30
0
41
1
10
12.0606223560214
20
3.63329604890434
30
0
41
1
10
12.2507101371929
20
3.6387008052379
30
0
0
SPLINE
5
2C8
100
AcDbEntity
8
1
62
256
6
ByLayer
370
-1
48
1
60
0
100
AcDbSpline
70
4
71
3
72
8
73
4
40
0
40
0
40
0
40
0
40
1
40
1
40
1
40
1
41
1
10
11.9373148154544
20
6.40754765132277
30
0
41
1
10
12.0554604386975
20
6.51876469935463
30
0
41
1
10
12.1855493667749
20
6.61578565051468
30
0
41
1
10
12.3287821713398
20
6.69718347671227
30
0
0
SPLINE
5
2C9
100
AcDbEntity
8
1
62
256
6
ByLayer
370
-1
48
1
60
0
100
AcDbSpline
70
4
71
3
72
8
73
4
40
0
40
0
40
0
40
0
40
1
40
1
40
1
40
1
41
1
10
11.7767001227651
20
6.40256191518381
30
0
41
1
10
11.8306056061016
20
6.4064729384492
30
0
41
1
10
11.8842942410687
20
6.40817757110428
30
0
41
1
10
11.9373156870523
20
6.40755126144178
30
0
0
SPLINE
5
2CA
100
AcDbEntity
8
1
62
256
6
ByLayer
370
-1
48
1
60
0
100
AcDbSpline
70
4
71
3
72
12
73
8
40
0
40
0
40
0
40
0
40
0.37991324993186
40
0.37991324993186
40
0.690136527033457
40
0.690136527033457
40
1
40
1
40
1
40
1
41
1
10
11.7988194647389
20
6.55879806793996
30
0
41
1
10
11.8436154507454
20
6.5716824609774
30
0
41
1
10
11.8885867833348
20
6.58291606739442
30
0
41
1
10
11.9703161201575
20
6.60032875937122
30
0
41
1
10
12.0070986318479
20
6.60706350190308
30
0
41
1
10
12.0805280500421
20
6.61835052277581
30
0
41
1
10
12.1172009605482
20
6.62290918607238
30
0
41
1
10
12.1537642647931
20
6.62639663503219
30
0
0
SPLINE
5
2CB
100
AcDbEntity
8
1
62
256
6
ByLayer
370
-1
48
1
60
0
100
AcDbSpline
70
4
71
3
72
8
73
4
40
0
40
0
40
0
40
0
40
1
40
1
40
1
40
1
41
1
10
10.6883116757329
20
10.4530506618273
30
0
41
1
10
10.6095073218534
20
10.3965835450587
30
0
41
1
10
10.5416042375879
20
10.3396238667413
30
0
41
1
10
10.4860532233296
20
10.2821060740984
30
0
0
SPLINE
5
2CC
100
AcDbEntity
8
SK1
62
256
6
ByLayer
370
-1
48
1
60
0
100
AcDbSpline
70
4
71
3
72
10
73
6
40
0
40
0
40
0
40
0
40
0.479888211606165
40
0.479888211606165
40
1
40
1
40
1
40
1
41
1
10
-0.29876587736527
20
3.20021140615756
30
0
41
1
10
-0.298765877365526
20
3.26675198010649
30
0
41
1
10
-0.292171752718474
20
3.33533500315141
30
0
41
1
10
-0.27207183427609
20
3.4776901111414
30
0
41
1
10
-0.257539315134352
20
3.55220236153213
30
0
41
1
10
-0.238765877365609
20
3.62603951533716
30
0
0
SPLINE
5
2CD
100
AcDbEntity
8
1
62
256
6
ByLayer
370
-1
48
1
60
0
100
AcDbSpline
70
4
71
3
72
8
73
4
40
0
40
0
40
0
40
0
40
1
40
1
40
1
40
1
41
1
10
0.324759526434974
20
-9.71767709692239
30
0
41
1
10
0.331927758907767
20
-9.72421534302171
30
0
41
1
10
0.339096543644587
20
-9.7307527818985
30
0
41
1
10
0.346265877365283
20
-9.73728941786578
30
0
0
SPLINE
5
2CE
100
AcDbEntity
8
1
62
256
6
ByLayer
370
-1
48
1
60
0
100
AcDbSpline
70
4
71
3
72
8
73
4
40
0
40
0
40
0
40
0
40
1
40
1
40
1
40
1
41
1
10
0.450766000000016
20
-9.84568433375762
30
0
41
1
10
0.408759553838138
20
-9.80301950240828
30
0
41
1
10
0.366757340388404
20
-9.76035047853196
30
0
41
1
10
0.324759526436964
20
-9.71767709692595
30
0
0
SPLINE
5
2CF
100
AcDbEntity
8
1
62
256
6
ByLayer
370
-1
48
1
60
0
100
AcDbSpline
70
4
71
3
72
8
73
4
40
0
40
0
40
0
40
0
40
1
40
1
40
1
40
1
41
1
10
0.324759526432473
20
9.71767709692138
30
0
41
1
10
0.366757338188904
20
9.76035047629706
30
0
41
1
10
0.408759551667799
20
9.80301950020392
30
0
41
1
10
0.450766000000016
20
9.84568433375762
30
0
0
SPLINE
5
2D0
100
AcDbEntity
8
1
62
256
6
ByLayer
370
-1
48
1
60
0
100
AcDbSpline
70
4
71
3
72
22
73
18
40
0
40
0
40
0
40
0
40
0.139635554438194
40
0.139635554438194
40
0.261673503367313
40
0.261673503367313
40
0.364142113791203
40
0.364142113791203
40
0.467033767184968
40
0.467033767184968
40
0.56419856077555
40
0.56419856077555
40
0.701271004239487
40
0.701271004239487
40
0.894253966468431
40
0.894253966468431
40
1
40
1
40
1
40
1
41
1
10
0.346265877365283
20
9.73728941786581
30
0
41
1
10
0.356110929556564
20
9.74626563863619
30
0
41
1
10
0.365740340849641
20
9.75472962476525
30
0
41
1
10
0.382143636128376
20
9.76832013661651
30
0
41
1
10
0.389272121993628
20
9.77384513949468
30
0
41
1
10
0.399987948023948
20
9.78114314681083
30
0
41
1
10
0.404052508628439
20
9.78342812348458
30
0
41
1
10
0.409576744578686
20
9.78518123571003
30
0
41
1
10
0.411087778861685
20
9.78464905266893
30
0
41
1
10
0.41140449965738
20
9.78104455133663
30
0
41
1
10
0.410376897327154
20
9.77809028421419
30
0
41
1
10
0.405672189241471
20
9.76899374521292
30
0
41
1
10
0.401045088579877
20
9.76192828235504
30
0
41
1
10
0.387371266773897
20
9.74301494751414
30
0
41
1
10
0.377089659711743
20
9.73007701340904
30
0
41
1
10
0.359638982210328
20
9.70923305906551
30
0
41
1
10
0.353068743189283
20
9.70158435624467
30
0
41
1
10
0.346265877365255
20
9.69383466119528
30
0
0
SPLINE
5
2D1
100
AcDbEntity
8
SK1
62
256
6
ByLayer
370
-1
48
1
60
0
100
AcDbSpline
70
4
71
3
72
18
73
14
40
0
40
0
40
0
40
0
40
0.135036205138348
40
0.135036205138348
40
0.336543779897167
40
0.336543779897167
40
0.51306045024552
40
0.51306045024552
40
0.662670072974622
40
0.662670072974622
40
0.90039300873851
40
0.90039300873851
40
1
40
1
40
1
40
1
41
1
10
-0.238765877364045
20
6.73859843542417
30
0
41
1
10
-0.243193173937186
20
6.73491841882222
30
0
41
1
10
-0.247685916038137
20
6.73154477638487
30
0
41
1
10
-0.25869815300203
20
6.72444018303615
30
0
41
1
10
-0.265337703865868
20
6.72125365184027
30
0
41
1
10
-0.276378364059269
20
6.71871239565039
30
0
41
1
10
-0.281090176042056
20
6.71893065352326
30
0
41
1
10
-0.288050892147879
20
6.72182335361993
30
0
41
1
10
-0.290662169809423
20
6.72412585941422
30
0
41
1
10
-0.295815221613765
20
6.7317131788713
30
0
41
1
10
-0.297554822913923
20
6.73803112730042
30
0
41
1
10
-0.298621314310282
20
6.74795508406206
30
0
41
1
10
-0.298765877365582
20
6.75104198958691
30
0
41
1
10
-0.298765877365582
20
6.75422762459544
30
0
0
SPLINE
5
2D2
100
AcDbEntity
8
SK1
62
256
6
ByLayer
370
-1
48
1
60
0
100
AcDbSpline
70
4
71
3
72
8
73
4
40
0
40
0
40
0
40
0
40
1
40
1
40
1
40
1
41
1
10
-0.238765877365267
20
-9.0154066387165
30
0
41
1
10
-0.159499442168965
20
-9.10907142803694
30
0
41
1
10
-0.0799024031312001
20
-9.20236449496866
30
0
41
1
10
0
20
-9.29530600554689
30
0
0
SPLINE
5
2D3
100
AcDbEntity
8
1
62
256
6
ByLayer
370
-1
48
1
60
0
100
AcDbSpline
70
4
71
3
72
14
73
10
40
0
40
0
40
0
40
0
40
0.0137642816556071
40
0.0137642816556071
40
0.36313872341524
40
0.36313872341524
40
0.694853536979872
40
0.694853536979872
40
1
40
1
40
1
40
1
41
1
10
14.0725196436936
20
3.30223705750377
30
0
41
1
10
14.0639764702357
20
3.29981404329402
30
0
41
1
10
14.0554147001081
20
3.29744531688792
30
0
41
1
10
13.8322080231382
20
3.23723869488362
30
0
41
1
10
13.6027011881738
20
3.21367744522614
30
0
41
1
10
13.1664101751607
20
3.2384972204235
30
0
41
1
10
12.953448677972
20
3.28351041673726
30
0
41
1
10
12.5752709158767
20
3.42655362502005
30
0
41
1
10
12.4031685431172
20
3.52144748559594
30
0
41
1
10
12.2507101371929
20
3.63870080523806
30
0
0
SPLINE
5
2D4
100
AcDbEntity
8
1
62
256
6
ByLayer
370
-1
48
1
60
0
100
AcDbSpline
70
4
71
3
72
8
73
4
40
0
40
0
40
0
40
0
40
1
40
1
40
1
40
1
41
1
10
0.346265877365283
20
2.81188209233805
30
0
41
1
10
0.0057392588708467
20
0.950150497946566
30
0
41
1
10
0.0055448888441276
20
-0.949087835587875
30
0
41
1
10
0.346265877365198
20
-2.81188209233807
30
0
0
SPLINE
5
2D5
100
AcDbEntity
8
SK1
62
256
6
ByLayer
370
-1
48
1
60
0
100
AcDbSpline
70
4
71
3
72
14
73
10
40
0
40
0
40
0
40
0
40
0.332977916990778
40
0.332977916990778
40
0.638581505593529
40
0.638581505593529
40
0.872695371282695
40
0.872695371282695
40
1
40
1
40
1
40
1
41
1
10
-0.238765877365296
20
7.12029111935611
30
0
41
1
10
-0.24908070331594
20
7.13223813276159
30
0
41
1
10
-0.25886074162301
20
7.14399247793907
30
0
41
1
10
-0.275464805697908
20
7.16494260089993
30
0
41
1
10
-0.28261284558522
20
7.17445983796618
30
0
41
1
10
-0.292272887534466
20
7.18863859485897
30
0
41
1
10
-0.295545264938795
20
7.1940274331641
30
0
41
1
10
-0.298251294703618
20
7.20003008627823
30
0
41
1
10
-0.29876587736527
20
7.20172566482087
30
0
41
1
10
-0.29876587736527
20
7.20288531101455
30
0
0
SPLINE
5
2D6
100
AcDbEntity
8
SK1
62
256
6
ByLayer
370
-1
48
1
60
0
100
AcDbSpline
70
4
71
3
72
8
73
4
40
0
40
0
40
0
40
0
40
1
40
1
40
1
40
1
41
1
10
-0.238765877365267
20
8.59660851746129
30
0
41
1
10
-0.159672005306817
20
8.70126245512967
30
0
41
1
10
-0.080069616158454
20
8.80540647197556
30
0
41
1
10
0
20
8.90906637851329
30
0
0
SPLINE
5
2D7
100
AcDbEntity
8
SK1
62
256
6
ByLayer
370
-1
48
1
60
0
100
AcDbSpline
70
4
71
3
72
14
73
10
40
0
40
0
40
0
40
0
40
0.422099059559703
40
0.422099059559703
40
0.716928453461414
40
0.716928453461414
40
0.947201917137804
40
0.947201917137804
40
1
40
1
40
1
40
1
41
1
10
-0.238765877365267
20
9.0154066387165
30
0
41
1
10
-0.251947934587378
20
8.99983012629404
30
0
41
1
10
-0.264236098319032
20
8.98442725123348
30
0
41
1
10
-0.281456757597652
20
8.9606622488826
30
0
41
1
10
-0.287621058970132
20
8.9513763070205
30
0
41
1
10
-0.295392207488078
20
8.93742226668951
30
0
41
1
10
-0.297750530928937
20
8.93207375433342
30
0
41
1
10
-0.298676089823175
20
8.92733654049061
30
0
41
1
10
-0.29876587736527
20
8.92652185630655
30
0
41
1
10
-0.29876587736527
20
8.92579326695557
30
0
0
SPLINE
5
2D8
100
AcDbEntity
8
1
62
256
6
ByLayer
370
-1
48
1
60
0
100
AcDbSpline
70
4
71
3
72
12
73
8
40
0
40
0
40
0
40
0
40
0.190478986871212
40
0.190478986871212
40
0.708023807174193
40
0.708023807174193
40
1
40
1
40
1
40
1
41
1
10
10.966801753442
20
6.68610714475486
30
0
41
1
10
11.0402973568237
20
6.74648784921359
30
0
41
1
10
11.1181738092063
20
6.79642372129945
30
0
41
1
10
11.4134101500469
20
6.94544201102012
30
0
41
1
10
11.6459286164412
20
6.98558782623169
30
0
41
1
10
11.9945284384335
20
6.97002546197682
30
0
41
1
10
12.119228476843
20
6.94825403864478
30
0
41
1
10
12.2395568749358
20
6.91316726850505
30
0
0
SPLINE
5
2D9
100
AcDbEntity
8
1
62
256
6
ByLayer
370
-1
48
1
60
0
100
AcDbSpline
70
4
71
3
72
8
73
4
40
0
40
0
40
0
40
0
40
1
40
1
40
1
40
1
41
1
10
12.1537642647809
20
6.62639663503245
30
0
41
1
10
12.1824432080629
20
6.72217549924869
30
0
41
1
10
12.2110410179027
20
6.81776376333929
30
0
41
1
10
12.2395568749357
20
6.91316726850469
30
0
0
SPLINE
5
2DA
100
AcDbEntity
8
1
62
256
6
ByLayer
370
-1
48
1
60
0
100
AcDbSpline
70
4
71
3
72
10
73
6
40
0
40
0
40
0
40
0
40
0.369007255820389
40
0.369007255820389
40
1
40
1
40
1
40
1
41
1
10
14.0725196436948
20
3.30223705750301
30
0
41
1
10
14.1520551174163
20
3.30149932012338
30
0
41
1
10
14.2266361541844
20
3.30445199535275
30
0
41
1
10
14.4172883934173
20
3.32036146520464
30
0
41
1
10
14.525622240178
20
3.33888745311825
30
0
41
1
10
14.6235447452015
20
3.36406318638683
30
0
0
SPLINE
5
2DB
100
AcDbEntity
8
1
62
256
6
ByLayer
370
-1
48
1
60
0
100
AcDbSpline
70
4
71
3
72
8
73
4
40
0
40
0
40
0
40
0
40
1
40
1
40
1
40
1
41
1
10
12.1537642647803
20
6.62639663503089
30
0
41
1
10
12.2371735975643
20
6.69288317646993
30
0
41
1
10
12.3262704192323
20
6.75297737807749
30
0
41
1
10
12.4193706296327
20
6.80553074963161
30
0
0
SPLINE
5
2DC
100
AcDbEntity
8
1
62
256
6
ByLayer
370
-1
48
1
60
0
100
AcDbSpline
70
4
71
3
72
8
73
4
40
0
40
0
40
0
40
0
40
1
40
1
40
1
40
1
41
1
10
0.346265877365283
20
7.22430884114189
30
0
41
1
10
0.230818979238649
20
7.12856717116598
30
0
41
1
10
0.115395987450626
20
7.03278705081537
30
0
41
1
10
0
20
6.93696358191075
30
0
0
SPLINE
5
2DD
100
AcDbEntity
8
1
62
256
6
ByLayer
370
-1
48
1
60
0
100
AcDbSpline
70
4
71
3
72
8
73
4
40
0
40
0
40
0
40
0
40
1
40
1
40
1
40
1
41
1
10
-7.39E-13
20
-3.00981124603521
30
0
41
1
10
0.112090786510606
20
-3.17058398901833
30
0
41
1
10
0.227861665413172
20
-3.32798666638269
30
0
41
1
10
0.346265877378357
20
-3.48260746349341
30
0
0
SPLINE
5
2DE
100
AcDbEntity
8
SK1
62
256
6
ByLayer
370
-1
48
1
60
0
100
AcDbSpline
70
4
71
3
72
16
73
12
40
0
40
0
40
0
40
0
40
0.269820669798825
40
0.269820669798825
40
0.516025557720977
40
0.516025557720977
40
0.723832295143951
40
0.723832295143951
40
0.932230046230304
40
0.932230046230304
40
1
40
1
40
1
40
1
41
1
10
-0.238765877365239
20
-7.09713426540741
30
0
41
1
10
-0.247099545411828
20
-7.10447118373975
30
0
41
1
10
-0.255306357142416
20
-7.11133217019402
30
0
41
1
10
-0.269795426662256
20
-7.12245741015384
30
0
41
1
10
-0.276317546519721
20
-7.12698676369875
30
0
41
1
10
-0.286368272707762
20
-7.13269168121711
30
0
41
1
10
-0.290294585507866
20
-7.13431700770906
30
0
41
1
10
-0.29595811681358
20
-7.13502994939573
30
0
41
1
10
-0.297756206946787
20
-7.13411237197434
30
0
41
1
10
-0.298657395156738
20
-7.13139550209161
30
0
41
1
10
-0.29876587736527
20
-7.13060303902857
30
0
41
1
10
-0.29876587736527
20
-7.12970301028638
30
0
0
SPLINE
5
2DF
100
AcDbEntity
8
SK1
62
256
6
ByLayer
370
-1
48
1
60
0
100
AcDbSpline
70
4
71
3
72
16
73
12
40
0
40
0
40
0
40
0
40
0.127286856531041
40
0.127286856531041
40
0.338847628940971
40
0.338847628940971
40
0.538759136331363
40
0.538759136331363
40
0.810563745320334
40
0.810563745320334
40
1
40
1
40
1
40
1
41
1
10
-0.29876587736527
20
7.12970301028638
30
0
41
1
10
-0.29876587736527
20
7.13138124581651
30
0
41
1
10
-0.298384654221167
20
7.13268597692468
30
0
41
1
10
-0.296286039552115
20
7.13495346091609
30
0
41
1
10
-0.293786378254112
20
7.13512041036445
30
0
41
1
10
-0.287014498482279
20
7.13299171270258
30
0
41
1
10
-0.28277867694004
20
7.13082051552931
30
0
41
1
10
-0.271545381680284
20
7.12377776555047
30
0
41
1
10
-0.263944034663297
20
7.11813873307712
30
0
41
1
10
-0.250449422667287
20
7.10723936126651
30
0
41
1
10
-0.244647828482272
20
7.10231270480992
30
0
41
1
10
-0.238765877365211
20
7.09713426540735
30
0
0
SPLINE
5
2E0
100
AcDbEntity
8
1
62
256
6
ByLayer
370
-1
48
1
60
0
100
AcDbSpline
70
4
71
3
72
22
73
18
40
0
40
0
40
0
40
0
40
0.0522868653684165
40
0.0522868653684165
40
0.129907668764905
40
0.129907668764905
40
0.19778170914881
40
0.19778170914881
40
0.254970474409918
40
0.254970474409918
40
0.345082918211359
40
0.345082918211359
40
0.497390196442806
40
0.497390196442806
40
0.785009256844537
40
0.785009256844537
40
1
40
1
40
1
40
1
41
1
10
0.346265877365227
20
7.2243088411423
30
0
41
1
10
0.351127825297169
20
7.22834092014914
30
0
41
1
10
0.356059319147874
20
7.23203623678832
30
0
41
1
10
0.368097139955779
20
7.23978746212409
30
0
41
1
10
0.37532989621775
20
7.24325804467587
30
0
41
1
10
0.387321095464472
20
7.24600754076566
30
0
41
1
10
0.392424117704252
20
7.24575678518222
30
0
41
1
10
0.399915010898212
20
7.24256064980494
30
0
41
1
10
0.402708099088102
20
7.24003589829317
30
0
41
1
10
0.408171874177867
20
7.2317598745494
30
0
41
1
10
0.409999485704077
20
7.22490467563165
30
0
41
1
10
0.412107914161908
20
7.20456968415456
30
0
41
1
10
0.410634262535552
20
7.18942926012252
30
0
41
1
10
0.402368071874349
20
7.1443750337386
30
0
41
1
10
0.391930777927996
20
7.11211346851042
30
0
41
1
10
0.369625503758016
20
7.05571843931193
30
0
41
1
10
0.35854149292274
20
7.03115824860559
30
0
41
1
10
0.346265877365255
20
7.00675370008618
30
0
0
SPLINE
5
2E1
100
AcDbEntity
8
1
62
256
6
ByLayer
370
-1
48
1
60
0
100
AcDbSpline
70
4
71
3
72
22
73
18
40
0
40
0
40
0
40
0
40
0.385887467218598
40
0.385887467218598
40
0.517497598811189
40
0.517497598811189
40
0.686152798064797
40
0.686152798064797
40
0.756321027477076
40
0.756321027477076
40
0.827553887042486
40
0.827553887042486
40
0.890375162635672
40
0.890375162635672
40
0.947790357458872
40
0.947790357458872
40
1
40
1
40
1
40
1
41
1
10
0.346265877365255
20
-7.00675370008618
30
0
41
1
10
0.368106327281168
20
-7.05017362613093
30
0
41
1
10
0.386555974363091
20
-7.09452254472293
30
0
41
1
10
0.402842677510534
20
-7.15047365708452
30
0
41
1
10
0.406269095878883
20
-7.16461986539329
30
0
41
1
10
0.411369834071223
20
-7.19516171581894
30
0
41
1
10
0.412462715799535
20
-7.21169303418037
30
0
41
1
10
0.408458019177658
20
-7.23001457545081
30
0
41
1
10
0.406522219036503
20
-7.23484463259574
30
0
41
1
10
0.400714680162366
20
-7.24213782248526
30
0
41
1
10
0.396694830601007
20
-7.24461972311263
30
0
41
1
10
0.387408997663471
20
-7.24595537664902
30
0
41
1
10
0.382222079067219
20
-7.24520679189132
30
0
41
1
10
0.371719265658953
20
-7.24146508962953
30
0
41
1
10
0.366343594614534
20
-7.23865477706894
30
0
41
1
10
0.356089888498985
20
-7.23205913467021
30
0
41
1
10
0.351142829361066
20
-7.22835336322174
30
0
41
1
10
0.346265877365227
20
-7.22430884114232
30
0
0
SPLINE
5
2E2
100
AcDbEntity
8
SK1
62
256
6
ByLayer
370
-1
48
1
60
0
100
AcDbSpline
70
4
71
3
72
14
73
10
40
0
40
0
40
0
40
0
40
0.161387783822559
40
0.161387783822559
40
0.389071307437911
40
0.389071307437911
40
0.759875824207078
40
0.759875824207078
40
1
40
1
40
1
40
1
41
1
10
-0.29876587736544
20
-8.92579326695532
30
0
41
1
10
-0.298765877365412
20
-8.92798971896875
30
0
41
1
10
-0.297938898734088
20
-8.93098653153565
30
0
41
1
10
-0.294365611123141
20
-8.93952421488794
30
0
41
1
10
-0.290935196705419
20
-8.9456923930984
30
0
41
1
10
-0.27977335938823
20
-8.96333200434322
30
0
41
1
10
-0.27053750310634
20
-8.97600007033287
30
0
41
1
10
-0.25356094567033
20
-8.99763357573343
30
0
41
1
10
-0.246328115637795
20
-9.00647075743416
30
0
41
1
10
-0.238765877365267
20
-9.0154066387165
30
0
0
SPLINE
5
2E3
100
AcDbEntity
8
SK1
62
256
6
ByLayer
370
-1
48
1
60
0
100
AcDbSpline
70
4
71
3
72
12
73
8
40
0
40
0
40
0
40
0
40
0.492218779491339
40
0.492218779491339
40
0.828190816756647
40
0.828190816756647
40
1
40
1
40
1
40
1
41
1
10
-0.238765877365296
20
-6.4298870533332
30
0
41
1
10
-0.254301844978301
20
-6.460770937595
30
0
41
1
10
-0.268055345631069
20
-6.49193510729231
30
0
41
1
10
-0.28623072042609
20
-6.54230010338232
30
0
41
1
10
-0.292351516127923
20
-6.56250417364383
30
0
41
1
10
-0.297653390182688
20
-6.59043364969541
30
0
41
1
10
-0.298765877387325
20
-6.59951814348875
30
0
41
1
10
-0.298765877388689
20
-6.60766390353172
30
0
0
SPLINE
5
2E4
100
AcDbEntity
8
SK1
62
256
6
ByLayer
370
-1
48
1
60
0
100
AcDbSpline
70
4
71
3
72
18
73
14
40
0
40
0
40
0
40
0
40
0.238193175604398
40
0.238193175604398
40
0.410492059492909
40
0.410492059492909
40
0.58585787619024
40
0.58585787619024
40
0.735379913067237
40
0.735379913067237
40
0.866923743695241
40
0.866923743695241
40
1
40
1
40
1
40
1
41
1
10
-0.298765877388576
20
-6.30426194438107
30
0
41
1
10
-0.298765877389599
20
-6.31303927018307
30
0
41
1
10
-0.298096915440766
20
-6.32142173261423
30
0
41
1
10
-0.295019644218144
20
-6.33404083082307
30
0
41
1
10
-0.293101095745243
20
-6.33885041622913
30
0
41
1
10
-0.287570709223416
20
-6.34634524138977
30
0
41
1
10
-0.283807489810585
20
-6.34905521136444
30
0
41
1
10
-0.275296216702003
20
-6.35084696023117
30
0
41
1
10
-0.270655317535358
20
-6.35040796014836
30
0
41
1
10
-0.26150622690605
20
-6.34743476492673
30
0
41
1
10
-0.256952377813718
20
-6.34515006894065
30
0
41
1
10
-0.247867835256954
20
-6.33941802742365
30
0
41
1
10
-0.243265874844013
20
-6.33592785820632
30
0
41
1
10
-0.238765877363022
20
-6.33209089757818
30
0
0
SPLINE
5
2E5
100
AcDbEntity
8
SK1
62
256
6
ByLayer
370
-1
48
1
60
0
100
AcDbSpline
70
4
71
3
72
18
73
14
40
0
40
0
40
0
40
0
40
0.149234550160625
40
0.149234550160625
40
0.35427196023404
40
0.35427196023404
40
0.561414593717225
40
0.561414593717225
40
0.74024996381439
40
0.74024996381439
40
0.990525504624437
40
0.990525504624437
40
1
40
1
40
1
40
1
41
1
10
-0.298765877365725
20
7.73685364504104
30
0
41
1
10
-0.298765877365725
20
7.73317328739159
30
0
41
1
10
-0.298369723957251
20
7.72979879662391
30
0
41
1
10
-0.296278790152911
20
7.72294444357497
30
0
41
1
10
-0.294102122948942
20
7.71983408295007
30
0
41
1
10
-0.287637459962497
20
7.71636511249898
30
0
41
1
10
-0.283209268984734
20
7.71601953656663
30
0
41
1
10
-0.273562892899804
20
7.71814812362949
30
0
41
1
10
-0.268432031353342
20
7.72025072688001
30
0
41
1
10
-0.25564647355418
20
7.72719287155697
30
0
41
1
10
-0.247606875218907
20
7.73285859083502
30
0
41
1
10
-0.239373231327676
20
7.73951989287633
30
0
41
1
10
-0.239069566257655
20
7.73976677281513
30
0
41
1
10
-0.238765877365267
20
7.74001485883363
30
0
0
SPLINE
5
2E6
100
AcDbEntity
8
1
62
256
6
ByLayer
370
-1
48
1
60
0
100
AcDbSpline
70
4
71
3
72
22
73
18
40
0
40
0
40
0
40
0
40
0.117554634631114
40
0.117554634631114
40
0.228324476741858
40
0.228324476741858
40
0.340472938993605
40
0.340472938993605
40
0.434992734694581
40
0.434992734694581
40
0.529238231662755
40
0.529238231662755
40
0.677405557613701
40
0.677405557613701
40
0.894914228321958
40
0.894914228321958
40
1
40
1
40
1
40
1
41
1
10
0.346265877365283
20
-9.42582959020115
30
0
41
1
10
0.354940799231826
20
-9.43333610127554
30
0
41
1
10
0.363511236420038
20
-9.44032129851469
30
0
41
1
10
0.3789665940117
20
-9.45177438025236
30
0
41
1
10
0.386066921177445
20
-9.45645772131638
30
0
41
1
10
0.398033327810168
20
-9.46273985735004
30
0
41
1
10
0.403023102915171
20
-9.46435183525999
30
0
41
1
10
0.409048887919994
20
-9.46379149135282
30
0
41
1
10
0.410663773993889
20
-9.46217320433418
30
0
41
1
10
0.411579252484529
20
-9.45673794524957
30
0
41
1
10
0.410917264597089
20
-9.45288634117937
30
0
41
1
10
0.407018941698936
20
-9.4412040732373
30
0
41
1
10
0.402514278841835
20
-9.43219669713854
30
0
41
1
10
0.388510328122322
20
-9.40822815472089
30
0
41
1
10
0.377445429293601
20
-9.39201084047539
30
0
41
1
10
0.359180579028589
20
-9.36738918002447
30
0
41
1
10
0.352848382163785
20
-9.3591625380619
30
0
41
1
10
0.346265877365255
20
-9.35088082387756
30
0
0
SPLINE
5
2E7
100
AcDbEntity
8
1
62
256
6
ByLayer
370
-1
48
1
60
0
100
AcDbSpline
70
4
71
3
72
22
73
18
40
0
40
0
40
0
40
0
40
0.244334574021793
40
0.244334574021793
40
0.403041325914133
40
0.403041325914133
40
0.526673785878865
40
0.526673785878865
40
0.625135686707052
40
0.625135686707052
40
0.724158048704945
40
0.724158048704945
40
0.815737396228814
40
0.815737396228814
40
0.943377832436039
40
0.943377832436039
40
1
40
1
40
1
40
1
41
1
10
0.346265877365283
20
9.35088082387756
30
0
41
1
10
0.361394955434207
20
9.36991532583001
30
0
41
1
10
0.375368853216685
20
9.38886392128113
30
0
41
1
10
0.394028378820764
20
9.4173650172085
30
0
41
1
10
0.400383589544418
20
9.42811189213121
30
0
41
1
10
0.408250052675726
20
9.4444629273066
30
0
41
1
10
0.410567949854055
20
9.45081137595045
30
0
41
1
10
0.411579050432863
20
9.45920523712297
30
0
41
1
10
0.410895510331585
20
9.4619207016855
30
0
41
1
10
0.406945266905126
20
9.4644897911384
30
0
41
1
10
0.403595238661438
20
9.46434422004985
30
0
41
1
10
0.395127367704674
20
9.46136733355918
30
0
41
1
10
0.390075440830799
20
9.45872126061525
30
0
41
1
10
0.376794624576689
20
9.45036054106465
30
0
41
1
10
0.367904296533482
20
9.44375093136927
30
0
41
1
10
0.354663455997326
20
9.43299483251332
30
0
41
1
10
0.350483553190429
20
9.4294791942871
30
0
41
1
10
0.346265877365255
20
9.42582959020112
30
0
0
SPLINE
5
2E8
100
AcDbEntity
8
SK1
62
256
6
ByLayer
370
-1
48
1
60
0
100
AcDbSpline
70
4
71
3
72
18
73
14
40
0
40
0
40
0
40
0
40
0.196104372569541
40
0.196104372569541
40
0.391509340616299
40
0.391509340616299
40
0.550456904247622
40
0.550456904247622
40
0.710178954598913
40
0.710178954598913
40
0.86049824416843
40
0.86049824416843
40
1
40
1
40
1
40
1
41
1
10
-0.298765877369135
20
-6.75422762459267
30
0
41
1
10
-0.298765877369277
20
-6.74800246612904
30
0
41
1
10
-0.298215968569423
20
-6.74212478608619
30
0
41
1
10
-0.295573635836831
20
-6.73183926240444
30
0
41
1
10
-0.293442000797654
20
-6.72734902413764
30
0
41
1
10
-0.287740526051636
20
-6.72160546421219
30
0
41
1
10
-0.284436898398525
20
-6.71987766673439
30
0
41
1
10
-0.27660799930112
20
-6.71877384748676
30
0
41
1
10
-0.271972568257098
20
-6.71940788901675
30
0
41
1
10
-0.26245719303347
20
-6.72269637463022
30
0
41
1
10
-0.257509604861753
20
-6.72524380453503
30
0
41
1
10
-0.247984497324325
20
-6.73132102412875
30
0
41
1
10
-0.243339582514807
20
-6.73479672243535
30
0
41
1
10
-0.238765877364045
20
-6.73859843542414
30
0
0
SPLINE
5
2E9
100
AcDbEntity
8
SK1
62
256
6
ByLayer
370
-1
48
1
60
0
100
AcDbSpline
70
4
71
3
72
14
73
10
40
0
40
0
40
0
40
0
40
0.46836269424619
40
0.46836269424619
40
0.768008622918121
40
0.768008622918121
40
0.997414611472149
40
0.997414611472149
40
1
40
1
40
1
40
1
41
1
10
-0.238765877365267
20
-8.59660851746129
30
0
41
1
10
-0.25356262428511
20
-8.5770300369856
30
0
41
1
10
-0.267041184763968
20
-8.55741356784736
30
0
41
1
10
-0.284482206619913
20
-8.52775124009884
30
0
41
1
10
-0.290243871982057
20
-8.51656169478289
30
0
41
1
10
-0.296939848480349
20
-8.49936026806627
30
0
41
1
10
-0.298725636617775
20
-8.49260749072207
30
0
41
1
10
-0.298765650801982
20
-8.48740736642822
30
0
41
1
10
-0.29876587736527
20
-8.48734879938146
30
0
41
1
10
-0.29876587736527
20
-8.48729043713878
30
0
0
SPLINE
5
2EA
100
AcDbEntity
8
SK1
62
256
6
ByLayer
370
-1
48
1
60
0
100
AcDbSpline
70
4
71
3
72
16
73
12
40
0
40
0
40
0
40
0
40
0.181918358201287
40
0.181918358201287
40
0.387106725476672
40
0.387106725476672
40
0.594424350172943
40
0.594424350172943
40
0.773251709590365
40
0.773251709590365
40
1
40
1
40
1
40
1
41
1
10
-0.238765877364898
20
-7.74001485883386
30
0
41
1
10
-0.244548424253708
20
-7.73529104749105
30
0
41
1
10
-0.250364935459373
20
-7.73097246720837
30
0
41
1
10
-0.262314829190899
20
-7.72331269912812
30
0
41
1
10
-0.26852367112707
20
-7.72010528315914
30
0
41
1
10
-0.279541413949943
20
-7.7164467712352
30
0
41
1
10
-0.284475847169915
20
-7.71600618738371
30
0
41
1
10
-0.291520133667376
20
-7.71796648256738
30
0
41
1
10
-0.29402053028565
20
-7.71999016836651
30
0
41
1
10
-0.297845327090613
20
-7.72637982222093
30
0
41
1
10
-0.29876587736527
20
-7.73127997947688
30
0
41
1
10
-0.29876587736527
20
-7.73685364504142
30
0
0
SPLINE
5
2EB
100
AcDbEntity
8
1
62
256
6
ByLayer
370
-1
48
1
60
0
100
AcDbSpline
70
4
71
3
72
22
73
18
40
0
40
0
40
0
40
0
40
0.0741271038427016
40
0.0741271038427016
40
0.157753252988999
40
0.157753252988999
40
0.242285190848887
40
0.242285190848887
40
0.314730927239954
40
0.314730927239954
40
0.415508938747247
40
0.415508938747247
40
0.570395660126731
40
0.570395660126731
40
0.830176280435035
40
0.830176280435035
40
1
40
1
40
1
40
1
41
1
10
0.346265877365283
20
-8.21791822641073
30
0
41
1
10
0.352497066966294
20
-8.22300824802761
30
0
41
1
10
0.358765021220961
20
-8.22766309485098
30
0
41
1
10
0.371650577920292
20
-8.23592517676667
30
0
41
1
10
0.378350445802397
20
-8.23938916019894
30
0
41
1
10
0.390259204935006
20
-8.24333141919473
30
0
41
1
10
0.39560466226763
20
-8.24379483398985
30
0
41
1
10
0.403227557277631
20
-8.24161332412888
30
0
41
1
10
0.405937812254479
20
-8.23939641038056
30
0
41
1
10
0.4103514326099
20
-8.23203275590579
30
0
41
1
10
0.411365482103065
20
-8.22600799993337
30
0
41
1
10
0.411093466975416
20
-8.20868984687294
30
0
41
1
10
0.408379415804603
20
-8.19603442645088
30
0
41
1
10
0.397475529874299
20
-8.16064742656421
30
0
41
1
10
0.386672539307426
20
-8.13610324692912
30
0
41
1
10
0.365616005701639
20
-8.09525023407276
30
0
41
1
10
0.356301725509582
20
-8.07876443881608
30
0
41
1
10
0.346265877365255
20
-8.06232321790073
30
0
0
SPLINE
5
2EC
100
AcDbEntity
8
1
62
256
6
ByLayer
370
-1
48
1
60
0
100
AcDbSpline
70
4
71
3
72
8
73
4
40
0
40
0
40
0
40
0
40
1
40
1
40
1
40
1
41
1
10
0.346265877365255
20
-5.80707297082022
30
0
41
1
10
0.230603518425141
20
-5.70211714354039
30
0
41
1
10
0.115167945231576
20
-5.5968269252575
30
0
41
1
10
2.84E-14
20
-5.49114867188607
30
0
0
SPLINE
5
2ED
100
AcDbEntity
8
1
62
256
6
ByLayer
370
-1
48
1
60
0
100
AcDbSpline
70
4
71
3
72
22
73
18
40
0
40
0
40
0
40
0
40
0.330352717375715
40
0.330352717375715
40
0.488198779320886
40
0.488198779320886
40
0.622683034897012
40
0.622683034897012
40
0.709006952364878
40
0.709006952364878
40
0.796507204111328
40
0.796507204111328
40
0.87078216231221
40
0.87078216231221
40
0.963684352230719
40
0.963684352230719
40
1
40
1
40
1
40
1
41
1
10
0.346265877365283
20
8.06232321790073
30
0
41
1
10
0.365599890139663
20
8.0939971502513
30
0
41
1
10
0.382531913858656
20
8.12618534584314
30
0
41
1
10
0.400499251085705
20
8.17042800166402
30
0
41
1
10
0.405289225552735
20
8.18449118433912
30
0
41
1
10
0.410731064394071
20
8.20816416205304
30
0
41
1
10
0.411932024046337
20
8.21834999367677
30
0
41
1
10
0.41022214414923
20
8.23164174296134
30
0
41
1
10
0.408578597066281
20
8.23605082635518
30
0
41
1
10
0.402886212510708
20
8.24199192345037
30
0
41
1
10
0.398679678372218
20
8.24352328751947
30
0
41
1
10
0.388989224087226
20
8.2429976186756
30
0
41
1
10
0.38368239683777
20
8.24145052141424
30
0
41
1
10
0.370986149140038
20
8.2356664509222
30
0
41
1
10
0.36322875770432
20
8.23080651169765
30
0
41
1
10
0.35242200316236
20
8.22283404371203
30
0
41
1
10
0.34934299964965
20
8.22043181048491
30
0
41
1
10
0.346265877365255
20
8.21791822641057
30
0
0
SPLINE
5
2EE
100
AcDbEntity
8
SK1
62
256
6
ByLayer
370
-1
48
1
60
0
100
AcDbSpline
70
4
71
3
72
18
73
14
40
0
40
0
40
0
40
0
40
0.113079528889609
40
0.113079528889609
40
0.290372183526482
40
0.290372183526482
40
0.422297371450216
40
0.422297371450216
40
0.55378239132405
40
0.55378239132405
40
0.745318354177895
40
0.745318354177895
40
1
40
1
40
1
40
1
41
1
10
-0.238765877363136
20
6.33209089757752
30
0
41
1
10
-0.24259109452575
20
6.33535250110259
30
0
41
1
10
-0.246484861870187
20
6.33835967825951
30
0
41
1
10
-0.25640756280464
20
6.34499491912489
30
0
41
1
10
-0.262583749982213
20
6.34810235627761
30
0
41
1
10
-0.272402265986216
20
6.35059078245494
30
0
41
1
10
-0.276382161659313
20
6.35072553197617
30
0
41
1
10
-0.28321557114478
20
6.34905306646031
30
0
41
1
10
-0.286156391883509
20
6.34724562130249
30
0
41
1
10
-0.291976955705707
20
6.34113540803743
30
0
41
1
10
-0.29435334669455
20
6.33601940961283
30
0
41
1
10
-0.298002603741196
20
6.32260615636017
30
0
41
1
10
-0.298765877368652
20
6.31365246411079
30
0
41
1
10
-0.29876587736851
20
6.30426194436697
30
0
0
SPLINE
5
2EF
100
AcDbEntity
8
SK1
62
256
6
ByLayer
370
-1
48
1
60
0
100
AcDbSpline
70
4
71
3
72
8
73
4
40
0
40
0
40
0
40
0
40
1
40
1
40
1
40
1
41
1
10
-0.238765877365267
20
5.27110877641661
30
0
41
1
10
-0.159316196580761
20
5.34465598463902
30
0
41
1
10
-0.0797221012727505
20
5.41799557012094
30
0
41
1
10
0
20
5.49114867188607
30
0
0
SPLINE
5
2F0
100
AcDbEntity
8
SK1
62
256
6
ByLayer
370
-1
48
1
60
0
100
AcDbSpline
70
4
71
3
72
12
73
8
40
0
40
0
40
0
40
0
40
0.524283279702734
40
0.524283279702734
40
0.826163592222379
40
0.826163592222379
40
1
40
1
40
1
40
1
41
1
10
-0.238765877365267
20
7.96246187705553
30
0
41
1
10
-0.255586902874796
20
7.93690776792499
30
0
41
1
10
-0.270440147539091
20
7.9110106237481
30
0
41
1
10
-0.287804687824206
20
7.87290439272695
30
0
41
1
10
-0.292981601374095
20
7.85925751303655
30
0
41
1
10
-0.297735446148323
20
7.84005876950428
30
0
41
1
10
-0.298765877370272
20
7.83345632972596
30
0
41
1
10
-0.298765877371068
20
7.82773354709414
30
0
0
SPLINE
5
2F1
100
AcDbEntity
8
SK1
62
256
6
ByLayer
370
-1
48
1
60
0
100
AcDbSpline
70
4
71
3
72
14
73
10
40
0
40
0
40
0
40
0
40
0.174801596463547
40
0.174801596463547
40
0.491348170782947
40
0.491348170782947
40
0.956689897429324
40
0.956689897429324
40
1
40
1
40
1
40
1
41
1
10
-0.298765877366947
20
8.48729043713946
30
0
41
1
10
-0.298765877366691
20
8.49117362417837
30
0
41
1
10
-0.29775415975277
20
8.49599226493861
30
0
41
1
10
-0.292860434362467
20
8.51096613802855
30
0
41
1
10
-0.287277803653808
20
8.52249834773458
30
0
41
1
10
-0.270389497464095
20
8.55224735129023
30
0
41
1
10
-0.25732231407801
20
8.57167070367349
30
0
41
1
10
-0.241526823609945
20
8.59293957387195
30
0
41
1
10
-0.240153136964437
20
8.59477294947301
30
0
41
1
10
-0.238765877365267
20
8.59660851746129
30
0
0
SPLINE
5
2F2
100
AcDbEntity
8
SK1
62
256
6
ByLayer
370
-1
48
1
60
0
100
AcDbSpline
70
4
71
3
72
20
73
16
40
0
40
0
40
0
40
0
40
0.0819689572370391
40
0.0819689572370391
40
0.22623535007496
40
0.22623535007496
40
0.333301219404816
40
0.333301219404816
40
0.440129314228668
40
0.440129314228668
40
0.593626182284267
40
0.593626182284267
40
0.859550423966263
40
0.859550423966263
40
1
40
1
40
1
40
1
41
1
10
-0.238765877359441
20
-5.27110877642096
30
0
41
1
10
-0.241620562032494
20
-5.26846617186911
30
0
41
1
10
-0.244539362260497
20
-5.26599181614432
30
0
41
1
10
-0.252644777644093
20
-5.25991877046414
30
0
41
1
10
-0.258031505585137
20
-5.2567958969762
30
0
41
1
10
-0.266952232712612
20
-5.25388418076064
30
0
41
1
10
-0.270687289012699
20
-5.25343964224417
30
0
41
1
10
-0.277353181977873
20
-5.25432945164329
30
0
41
1
10
-0.280363762232327
20
-5.25566015676208
30
0
41
1
10
-0.286562573086371
20
-5.26045241724303
30
0
41
1
10
-0.289389760456004
20
-5.2646181575375
30
0
41
1
10
-0.295241012596222
20
-5.2775719392168
30
0
41
1
10
-0.297134697434785
20
-5.28769332578921
30
0
41
1
10
-0.298552880623561
20
-5.30386271490008
30
0
41
1
10
-0.298765877367373
20
-5.30966148734052
30
0
41
1
10
-0.298765877367316
20
-5.31556932838805
30
0
0
SPLINE
5
2F3
100
AcDbEntity
8
1
62
256
6
ByLayer
370
-1
48
1
60
0
100
AcDbSpline
70
4
71
3
72
26
73
22
40
0
40
0
40
0
40
0
40
0.282142629997153
40
0.282142629997153
40
0.631927455216965
40
0.631927455216965
40
0.790655196124006
40
0.790655196124006
40
0.870203265949365
40
0.870203265949365
40
0.910178074423197
40
0.910178074423197
40
0.926487098047357
40
0.926487098047357
40
0.94305330475375
40
0.94305330475375
40
0.957722945662878
40
0.957722945662878
40
0.976731271285138
40
0.976731271285138
40
1
40
1
40
1
40
1
41
1
10
0.346265877365255
20
-2.81188209233805
30
0
41
1
10
0.35959801142846
20
-2.88477171052962
30
0
41
1
10
0.371560778813318
20
-2.95773613094085
30
0
41
1
10
0.394531545006714
20
-3.12050591742941
30
0
41
1
10
0.405088735593239
20
-3.21069941516299
30
0
41
1
10
0.411487961202596
20
-3.33912387420784
30
0
41
1
10
0.412328615519556
20
-3.37915248914517
30
0
41
1
10
0.408195488488218
20
-3.43657202761011
30
0
41
1
10
0.405968023402039
20
-3.45559238642674
30
0
41
1
10
0.39878978246071
20
-3.48108983760103
30
0
41
1
10
0.395674608853255
20
-3.48929990814087
30
0
41
1
10
0.38923091433216
20
-3.49807785912469
30
0
41
1
10
0.387062083434216
20
-3.50030877140887
30
0
41
1
10
0.382117222453417
20
-3.50347817218712
30
0
41
1
10
0.379252246218897
20
-3.50440691125378
30
0
41
1
10
0.373588006186821
20
-3.50442788077231
30
0
41
1
10
0.370754537542098
20
-3.50371993294323
30
0
41
1
10
0.364439509380503
20
-3.50082328434496
30
0
41
1
10
0.360912368305264
20
-3.4982535190787
30
0
41
1
10
0.353593876064252
20
-3.49159509964444
30
0
41
1
10
0.349808154533548
20
-3.48723322563984
30
0
41
1
10
0.346265877366363
20
-3.48260746351411
30
0
0
SPLINE
5
2F4
100
AcDbEntity
8
SK1
62
256
6
ByLayer
370
-1
48
1
60
0
100
AcDbSpline
70
4
71
3
72
8
73
4
40
0
40
0
40
0
40
0
40
1
40
1
40
1
40
1
41
1
10
-0.238765877365267
20
-7.96246187705553
30
0
41
1
10
-0.159956775239181
20
-8.08218682456661
30
0
41
1
10
-0.0803448669348086
20
-8.2012120252644
30
0
41
1
10
0
20
-8.31956812200946
30
0
0
SPLINE
5
2F5
100
AcDbEntity
8
1
62
256
6
ByLayer
370
-1
48
1
60
0
100
AcDbSpline
70
4
71
3
72
8
73
4
40
0
40
0
40
0
40
0
40
1
40
1
40
1
40
1
41
1
10
10.6883116757329
20
10.4530506618273
30
0
41
1
10
10.620839315064
20
10.3700507329638
30
0
41
1
10
10.5534185215694
20
10.2870099595343
30
0
41
1
10
10.4860532233296
20
10.2039253998843
30
0
0
SPLINE
5
2F6
100
AcDbEntity
8
1
62
256
6
ByLayer
370
-1
48
1
60
0
100
AcDbSpline
70
4
71
3
72
12
73
8
40
0
40
0
40
0
40
0
40
0.245829875327784
40
0.245829875327784
40
0.638711974256046
40
0.638711974256046
40
1
40
1
40
1
40
1
41
1
10
6.41921459504869
20
-8.61177744315722
30
0
41
1
10
6.36020426398156
20
-8.57971911950045
30
0
41
1
10
6.30764510906462
20
-8.54376098756997
30
0
41
1
10
6.19148504179091
20
-8.4428980751276
30
0
41
1
10
6.13876061618313
20
-8.37214504017001
30
0
41
1
10
6.0773689655347
20
-8.22829974401448
30
0
41
1
10
6.06482280609239
20
-8.15447244858893
30
0
41
1
10
6.0687362813633
20
-8.07961791140347
30
0
0
SPLINE
5
2F7
100
AcDbEntity
8
1
62
256
6
ByLayer
370
-1
48
1
60
0
100
AcDbSpline
70
4
71
3
72
12
73
8
40
0
40
0
40
0
40
0
40
0.401201463561301
40
0.401201463561301
40
0.804300175363731
40
0.804300175363731
40
1
40
1
40
1
40
1
41
1
10
6.06560350817296
20
9.60762603529247
30
0
41
1
10
6.0607577427989
20
9.65104040670096
30
0
41
1
10
6.08111127357097
20
9.69157909653011
30
0
41
1
10
6.17334965983241
20
9.76122231826405
30
0
41
1
10
6.24708174152741
20
9.79131752952304
30
0
41
1
10
6.39064688867816
20
9.8266001977578
30
0
41
1
10
6.44355236289948
20
9.83683794759575
30
0
41
1
10
6.50108976914564
20
9.8456843337576
30
0
0
SPLINE
5
2F8
100
AcDbEntity
8
1
62
256
6
ByLayer
370
-1
48
1
60
0
100
AcDbSpline
70
4
71
3
72
12
73
8
40
0
40
0
40
0
40
0
40
0.388860209657108
40
0.388860209657108
40
0.779123450526329
40
0.779123450526329
40
1
40
1
40
1
40
1
41
1
10
10.4860532233296
20
10.2039253998843
30
0
41
1
10
10.4292595142524
20
10.1338792421018
30
0
41
1
10
10.3597833533574
20
10.0722282904846
30
0
41
1
10
10.2055566140439
20
9.97654436498711
30
0
41
1
10
10.1185280823373
20
9.94131236722943
30
0
41
1
10
9.97806233907431
20
9.91174651741534
30
0
41
1
10
9.92553598712846
20
9.90611628573302
30
0
41
1
10
9.87321766883474
20
9.90585749868697
30
0
0
SPLINE
5
2F9
100
AcDbEntity
8
SK1
62
256
6
ByLayer
370
-1
48
1
60
0
100
AcDbSpline
70
4
71
3
72
12
73
8
40
0
40
0
40
0
40
0
40
0.219886899126166
40
0.219886899126166
40
0.672642023665797
40
0.672642023665797
40
1
40
1
40
1
40
1
41
1
10
-0.29876587736527
20
6.60766390351546
30
0
41
1
10
-0.29876587736527
20
6.59726577320353
30
0
41
1
10
-0.296968628117327
20
6.58535231878335
30
0
41
1
10
-0.288518541869848
20
6.5475879679823
30
0
41
1
10
-0.2786962942819
20
6.5196095563478
30
0
41
1
10
-0.258680502970805
20
6.4712236420834
30
0
41
1
10
-0.249146107090212
20
6.45052186806902
30
0
41
1
10
-0.238765877365267
20
6.4298870533332
30
0
0
SPLINE
5
2FA
100
AcDbEntity
8
SK1
62
256
6
ByLayer
370
-1
48
1
60
0
100
AcDbSpline
70
4
71
3
72
8
73
4
40
0
40
0
40
0
40
0
40
1
40
1
40
1
40
1
41
1
10
-0.238765877365267
20
7.0551343208076
30
0
41
1
10
-0.16048398755774
20
7.197360252813
30
0
41
1
10
-0.0808531342800336
20
7.33860637411948
30
0
41
1
10
0
20
7.47890123860155
30
0
0
SPLINE
5
2FB
100
AcDbEntity
8
SK1
62
256
6
ByLayer
370
-1
48
1
60
0
100
AcDbSpline
70
4
71
3
72
12
73
8
40
0
40
0
40
0
40
0
40
0.511503755616839
40
0.511503755616839
40
0.867265455256669
40
0.867265455256669
40
1
40
1
40
1
40
1
41
1
10
-0.238765877365267
20
-7.0551343208076
30
0
41
1
10
-0.2555436803639
20
-7.02465168076977
30
0
41
1
10
-0.269998228053623
20
-6.99368265180331
30
0
41
1
10
-0.288351964491795
20
-6.94321113293744
30
0
41
1
10
-0.294274289615743
20
-6.92267118486568
30
0
41
1
10
-0.298151163863736
20
-6.89697381701055
30
0
41
1
10
-0.298765877369249
20
-6.89019428082926
30
0
41
1
10
-0.298765877370101
20
-6.88387434547811
30
0
0
SPLINE
5
2FC
100
AcDbEntity
8
1
62
256
6
ByLayer
370
-1
48
1
60
0
100
AcDbSpline
70
4
71
3
72
12
73
8
40
0
40
0
40
0
40
0
40
0.551530897336997
40
0.551530897336997
40
0.901245334834376
40
0.901245334834376
40
1
40
1
40
1
40
1
41
1
10
21.845245967166
20
11.3135557714785
30
0
41
1
10
21.8685351354967
20
11.3156369157781
30
0
41
1
10
21.8949191352982
20
11.3233605865742
30
0
41
1
10
21.9359997854785
20
11.3495928490959
30
0
41
1
10
21.9518407619624
20
11.3634905475107
30
0
41
1
10
21.9694818564461
20
11.3861218443777
30
0
41
1
10
21.9732502401657
20
11.3914741587672
30
0
41
1
10
21.9768065859655
20
11.3971158862663
30
0
0
SPLINE
5
2FD
100
AcDbEntity
8
1
62
256
6
ByLayer
370
-1
48
1
60
0
100
AcDbSpline
70
4
71
3
72
10
73
6
40
0
40
0
40
0
40
0
40
0.335161959918877
40
0.335161959918877
40
1
40
1
40
1
40
1
41
1
10
18.4466106376601
20
2.77290236022759
30
0
41
1
10
18.4378912210515
20
2.75807260629736
30
0
41
1
10
18.4291284127635
20
2.74305967947903
30
0
41
1
10
18.4031323791876
20
2.69822519846341
30
0
41
1
10
18.3858260839359
20
2.66799604744843
30
0
41
1
10
18.3690543051545
20
2.63826031761592
30
0
0
SPLINE
5
2FE
100
AcDbEntity
8
1
62
256
6
ByLayer
370
-1
48
1
60
0
100
AcDbSpline
70
4
71
3
72
8
73
4
40
0
40
0
40
0
40
0
40
1
40
1
40
1
40
1
41
1
10
18.3690543051545
20
9.06758030916468
30
0
41
1
10
18.3942479991672
20
9.02810328793284
30
0
41
1
10
18.420726173972
20
8.98460661106719
30
0
41
1
10
18.4466106376601
20
8.94027384367159
30
0
0
SPLINE
5
2FF
100
AcDbEntity
8
1
62
256
6
ByLayer
370
-1
48
1
60
0
100
AcDbSpline
70
4
71
3
72
12
73
8
40
0
40
0
40
0
40
0
40
0.551530897336993
40
0.551530897336993
40
0.901245334834374
40
0.901245334834374
40
1
40
1
40
1
40
1
41
1
10
14.5617942889365
20
4.40691388763909
30
0
41
1
10
14.5413593248125
20
4.4180557679059
30
0
41
1
10
14.5148894333314
20
4.42959654565927
30
0
41
1
10
14.462417036065
20
4.44191983237855
30
0
41
1
10
14.4391973437337
20
4.44518139998077
30
0
41
1
10
14.4074075607604
20
4.44567521555842
30
0
41
1
10
14.4001869070865
20
4.44555293970024
30
0
41
1
10
14.392877699078
20
4.44517260688642
30
0
0
SPLINE
5
300
100
AcDbEntity
8
1
62
256
6
ByLayer
370
-1
48
1
60
0
100
AcDbSpline
70
4
71
3
72
8
73
4
40
0
40
0
40
0
40
0
40
1
40
1
40
1
40
1
41
1
10
0.346265877365283
20
-8.21791822641055
30
0
41
1
10
0.230843304610431
20
-8.12363391987898
30
0
41
1
10
0.115421323614868
20
-8.02934864743166
30
0
41
1
10
-2.84E-14
20
-7.93506230200856
30
0
0
SPLINE
5
301
100
AcDbEntity
8
1
62
256
6
ByLayer
370
-1
48
1
60
0
100
AcDbSpline
70
4
71
3
72
8
73
4
40
0
40
0
40
0
40
0
40
1
40
1
40
1
40
1
41
1
10
24.0195630094232
20
5.81917658690129
30
0
41
1
10
23.9708050001547
20
5.82221343491187
30
0
41
1
10
23.9186707148728
20
5.82391003555934
30
0
41
1
10
23.8669017874967
20
5.82421918941033
30
0
0
SPLINE
5
302
100
AcDbEntity
8
1
62
256
6
ByLayer
370
-1
48
1
60
0
100
AcDbSpline
70
4
71
3
72
12
73
8
40
0
40
0
40
0
40
0
40
0.551530897336995
40
0.551530897336995
40
0.90124533483438
40
0.90124533483438
40
1
40
1
40
1
40
1
41
1
10
24.3117572254191
20
1.60825865491887
30
0
41
1
10
24.3054506399243
20
1.57760336933296
30
0
41
1
10
24.3023303688212
20
1.5421499017166
30
0
41
1
10
24.3093496218222
20
1.48151612535133
30
0
41
1
10
24.3152130007885
20
1.45670540202418
30
0
41
1
10
24.3278539628112
20
1.42596725986908
30
0
41
1
10
24.3309969323365
20
1.41917545704774
30
0
41
1
10
24.3344701102946
20
1.41250184034794
30
0
0
SPLINE
5
303
100
AcDbEntity
8
1
62
256
6
ByLayer
370
-1
48
1
60
0
100
AcDbSpline
70
4
71
3
72
18
73
14
40
0
40
0
40
0
40
0
40
0.0243890350766789
40
0.0243890350766789
40
0.248132008306762
40
0.248132008306762
40
0.472441486845368
40
0.472441486845368
40
0.709397037703766
40
0.709397037703766
40
0.968587725754218
40
0.968587725754218
40
1
40
1
40
1
40
1
41
1
10
19.4700334775672
20
4.12827062904638
30
0
41
1
10
19.4729974691432
20
4.12688707171912
30
0
41
1
10
19.4759849992766
20
4.1255477925114
30
0
41
1
10
19.5062828352253
20
4.11251764043732
30
0
41
1
10
19.5357117173527
20
4.10448700888234
30
0
41
1
10
19.5940442035534
20
4.09683769441256
30
0
41
1
10
19.6236902406762
20
4.09712228448075
30
0
41
1
10
19.6810849772292
20
4.10541205864824
30
0
41
1
10
19.7093584329763
20
4.11392692368183
30
0
41
1
10
19.7622789209168
20
4.13847913428417
30
0
41
1
10
19.7870182727268
20
4.15542572480601
30
0
41
1
10
19.810020407083
20
4.17729827454721
30
0
41
1
10
19.8124727714779
20
4.17972692609911
30
0
41
1
10
19.8148651174595
20
4.1821939939025
30
0
0
SPLINE
5
304
100
AcDbEntity
8
1
62
256
6
ByLayer
370
-1
48
1
60
0
100
AcDbSpline
70
4
71
3
72
12
73
8
40
0
40
0
40
0
40
0
40
0.451965327431121
40
0.451965327431121
40
0.864625609041968
40
0.864625609041968
40
1
40
1
40
1
40
1
41
1
10
18.7056391305864
20
5.75868652540416
30
0
41
1
10
18.7663979166031
20
5.77395637449847
30
0
41
1
10
18.8258377954601
20
5.79885220806131
30
0
41
1
10
18.9304184041123
20
5.86560603694382
30
0
41
1
10
18.9774765991544
20
5.90674969472333
30
0
41
1
10
19.0306891905281
20
5.97197211120724
30
0
41
1
10
19.043196805555
20
5.98906501321994
30
0
41
1
10
19.0548556928422
20
6.00693052242649
30
0
0
SPLINE
5
305
100
AcDbEntity
8
1
62
256
6
ByLayer
370
-1
48
1
60
0
100
AcDbSpline
70
4
71
3
72
16
73
12
40
0
40
0
40
0
40
0
40
0.0529672737514092
40
0.0529672737514092
40
0.275979783445016
40
0.275979783445016
40
0.501217440301636
40
0.501217440301636
40
0.740446687379162
40
0.740446687379162
40
1
40
1
40
1
40
1
41
1
10
20.8979165999526
20
7.11140258046309
30
0
41
1
10
20.8914988184249
20
7.11439832739082
30
0
41
1
10
20.8849632964423
20
7.11714458983438
30
0
41
1
10
20.8506783176625
20
7.130005954851
30
0
41
1
10
20.8210202771207
20
7.13583706590263
30
0
41
1
10
20.7622719985999
20
7.13785801421569
30
0
41
1
10
20.7324433130482
20
7.13400069514549
30
0
41
1
10
20.6747378878887
20
7.11736438539441
30
0
41
1
10
20.6463673348393
20
7.10386928004043
30
0
41
1
10
20.5937100163848
20
7.0683686170857
30
0
41
1
10
20.5693068171204
20
7.04533213369714
30
0
41
1
10
20.5491823133745
20
7.01964949138191
30
0
0
SPLINE
5
306
100
AcDbEntity
8
1
62
256
6
ByLayer
370
-1
48
1
60
0
100
AcDbSpline
70
4
71
3
72
14
73
10
40
0
40
0
40
0
40
0
40
0.229614436103884
40
0.229614436103884
40
0.522741513093694
40
0.522741513093694
40
0.787567770138608
40
0.787567770138608
40
1
40
1
40
1
40
1
41
1
10
19.3049562247498
20
4.42021362609911
30
0
41
1
10
19.3004753648275
20
4.3963630620554
30
0
41
1
10
19.2996572896768
20
4.37114273932862
30
0
41
1
10
19.3070359054147
20
4.31368448483961
30
0
41
1
10
19.3180163332025
20
4.28046920614541
30
0
41
1
10
19.3515009403526
20
4.222140536273
30
0
41
1
10
19.3733607519251
20
4.19569100230605
30
0
41
1
10
19.4203126903683
20
4.15572112141628
30
0
41
1
10
19.4444455190389
20
4.14021479508202
30
0
41
1
10
19.4700334775672
20
4.12827062904638
30
0
0
SPLINE
5
307
100
AcDbEntity
8
1
62
256
6
ByLayer
370
-1
48
1
60
0
100
AcDbSpline
70
4
71
3
72
16
73
12
40
0
40
0
40
0
40
0
40
0.194574558623431
40
0.194574558623431
40
0.417545709493904
40
0.417545709493904
40
0.65045199200952
40
0.65045199200952
40
0.903513693025662
40
0.903513693025662
40
1
40
1
40
1
40
1
41
1
10
18.513998040823
20
5.48254341303182
30
0
41
1
10
18.5162284400403
20
5.45717603400541
30
0
41
1
10
18.5219564029675
20
5.43154564166046
30
0
41
1
10
18.540824249264
20
5.37938813564651
30
0
41
1
10
18.555181843313
20
5.35261683537979
30
0
41
1
10
18.59050311782
20
5.30394077818615
30
0
41
1
10
18.6121538036477
20
5.28167769500087
30
0
41
1
10
18.6610074326406
20
5.2432374949239
30
0
41
1
10
18.6891205504781
20
5.22724550311584
30
0
41
1
10
18.728786465085
20
5.21150012757593
30
0
41
1
10
18.7399552067617
20
5.20776894418756
30
0
41
1
10
18.751161705268
20
5.20469170800922
30
0
0
SPLINE
5
308
100
AcDbEntity
8
1
62
256
6
ByLayer
370
-1
48
1
60
0
100
AcDbSpline
70
4
71
3
72
18
73
14
40
0
40
0
40
0
40
0
40
0.210553794969741
40
0.210553794969741
40
0.384994234657773
40
0.384994234657773
40
0.561138403756969
40
0.561138403756969
40
0.714148711853875
40
0.714148711853875
40
0.916644679638107
40
0.916644679638107
40
1
40
1
40
1
40
1
41
1
10
20.7802212250383
20
4.25754995875577
30
0
41
1
10
20.7258621363501
20
4.29610027778594
30
0
41
1
10
20.6626654110658
20
4.3282576907545
30
0
41
1
10
20.5359727572109
20
4.37007465661324
30
0
41
1
10
20.4728943563206
20
4.3830064191587
30
0
41
1
10
20.3433026467413
20
4.39334402057699
30
0
41
1
10
20.2748194178639
20
4.39061600048279
30
0
41
1
10
20.153730543734
20
4.37089483318209
30
0
41
1
10
20.098757986147
20
4.35564402939133
30
0
41
1
10
19.9826847978197
20
4.30970743258797
30
0
41
1
10
19.9232324759305
20
4.27499071363808
30
0
41
1
10
19.8522368307085
20
4.21834821605287
30
0
41
1
10
19.8328027207647
20
4.20069185496651
30
0
41
1
10
19.8148651174594
20
4.18219399390256
30
0
0
SPLINE
5
309
100
AcDbEntity
8
1
62
256
6
ByLayer
370
-1
48
1
60
0
100
AcDbSpline
70
4
71
3
72
20
73
16
40
0
40
0
40
0
40
0
40
0.0934897482068355
40
0.0934897482068355
40
0.291750662447462
40
0.291750662447462
40
0.452963939671046
40
0.452963939671046
40
0.614922567429301
40
0.614922567429301
40
0.767487204443489
40
0.767487204443489
40
0.985265779394624
40
0.985265779394624
40
1
40
1
40
1
40
1
41
1
10
19.3049562247504
20
4.42021362609896
30
0
41
1
10
19.3101311041457
20
4.44775829265285
30
0
41
1
10
19.3132555969258
20
4.47608979345262
30
0
41
1
10
19.3160977133985
20
4.56598141616114
30
0
41
1
10
19.3079951702678
20
4.63066158950004
30
0
41
1
10
19.2728159719842
20
4.7477809217479
30
0
41
1
10
19.2490251641316
20
4.80154235683985
30
0
41
1
10
19.1874515089836
20
4.90335487513232
30
0
41
1
10
19.1487539254263
20
4.95267442948148
30
0
41
1
10
19.0654204663851
20
5.03677769982149
30
0
41
1
10
19.0203567644461
20
5.0732740533914
30
0
41
1
10
18.9075843419071
20
5.14707613445994
30
0
41
1
10
18.8364829830941
20
5.17957658398552
30
0
41
1
10
18.7608672528963
20
5.20197441043136
30
0
41
1
10
18.7560157153295
20
5.20335882643492
30
0
41
1
10
18.751161705268
20
5.20469170800921
30
0
0
SPLINE
5
30A
100
AcDbEntity
8
1
62
256
6
ByLayer
370
-1
48
1
60
0
100
AcDbSpline
70
4
71
3
72
12
73
8
40
0
40
0
40
0
40
0
40
0.319504444229847
40
0.319504444229847
40
0.787529951161175
40
0.787529951161175
40
1
40
1
40
1
40
1
41
1
10
21.232493413759
20
4.99043417023333
30
0
41
1
10
21.2164047168755
20
4.94308179000649
30
0
41
1
10
21.2061442468778
20
4.89493369603142
30
0
41
1
10
21.1951428558083
20
4.78072327243551
30
0
41
1
10
21.2006866019022
20
4.71477549105779
30
0
41
1
10
21.222933233066
20
4.62671228596538
30
0
41
1
10
21.2319430947702
20
4.60001088404034
30
0
41
1
10
21.2427898700521
20
4.57437361290354
30
0
0
SPLINE
5
30B
100
AcDbEntity
8
1
62
256
6
ByLayer
370
-1
48
1
60
0
100
AcDbSpline
70
4
71
3
72
14
73
10
40
0
40
0
40
0
40
0
40
0.277371515467008
40
0.277371515467008
40
0.564522610370518
40
0.564522610370518
40
0.824355386491683
40
0.824355386491683
40
1
40
1
40
1
40
1
41
1
10
19.5838262057958
20
6.94429352652865
30
0
41
1
10
19.5591227208019
20
6.96814144702857
30
0
41
1
10
19.530003428233
20
6.98825395424475
30
0
41
1
10
19.4657156541208
20
7.0173201822395
30
0
41
1
10
19.4293402287112
20
7.02624449708111
30
0
41
1
10
19.3596490941152
20
7.0288028849789
30
0
41
1
10
19.325318297638
20
7.02378660360066
30
0
41
1
10
19.2716711631858
20
7.00493275748464
30
0
41
1
10
19.2506436822452
20
6.99435238357425
30
0
41
1
10
19.2313875617359
20
6.98131286264302
30
0
0
SPLINE
5
30C
100
AcDbEntity
8
1
62
256
6
ByLayer
370
-1
48
1
60
0
100
AcDbSpline
70
4
71
3
72
16
73
12
40
0
40
0
40
0
40
0
40
0.158138017658951
40
0.158138017658951
40
0.457990696923885
40
0.457990696923885
40
0.729006786734425
40
0.729006786734425
40
0.969254682551629
40
0.969254682551629
40
1
40
1
40
1
40
1
41
1
10
18.7056391305851
20
5.75868652540926
30
0
41
1
10
18.6880235543036
20
5.75425939298677
30
0
41
1
10
18.6707782302391
20
5.74798728017301
30
0
41
1
10
18.623449267085
20
5.72472411519962
30
0
41
1
10
18.5947872902714
20
5.70257497357348
30
0
41
1
10
18.5512939208116
20
5.65010559008212
30
0
41
1
10
18.5347814659312
20
5.61991395432433
30
0
41
1
10
18.5158304242463
20
5.55828415122873
30
0
41
1
10
18.5117697263103
20
5.52647209397298
30
0
41
1
10
18.5133649961076
20
5.49075306358802
30
0
41
1
10
18.5136371760696
20
5.48664769755045
30
0
41
1
10
18.513998040823
20
5.48254341303182
30
0
0
SPLINE
5
30D
100
AcDbEntity
8
1
62
256
6
ByLayer
370
-1
48
1
60
0
100
AcDbSpline
70
4
71
3
72
18
73
14
40
0
40
0
40
0
40
0
40
0.006009571121725
40
0.006009571121725
40
0.228222660839913
40
0.228222660839913
40
0.449923344536638
40
0.449923344536638
40
0.68327741142686
40
0.68327741142686
40
0.937996507560108
40
0.937996507560108
40
1
40
1
40
1
40
1
41
1
10
21.1365625157839
20
4.25836034686645
30
0
41
1
10
21.1372345505269
20
4.25881542353117
30
0
41
1
10
21.1379046155394
20
4.2592730051087
30
0
41
1
10
21.1629413213675
20
4.27651463855099
30
0
41
1
10
21.1848789660943
20
4.29693085307943
30
0
41
1
10
21.2204392763868
20
4.3414279585035
30
0
41
1
10
21.2345534529535
20
4.36605936806797
30
0
41
1
10
21.2545023289454
20
4.41746350723486
30
0
41
1
10
21.2601418329824
20
4.44491671427005
30
0
41
1
10
21.2625135457165
20
4.50043528227407
30
0
41
1
10
21.2584481356782
20
4.52902201315328
30
0
41
1
10
21.2477954528952
20
4.56179986048764
30
0
41
1
10
21.2454215916214
20
4.56815331630139
30
0
41
1
10
21.2427898700521
20
4.57437361290354
30
0
0
SPLINE
5
30E
100
AcDbEntity
8
1
62
256
6
ByLayer
370
-1
48
1
60
0
100
AcDbSpline
70
4
71
3
72
14
73
10
40
0
40
0
40
0
40
0
40
0.261583830779035
40
0.261583830779035
40
0.557911585193774
40
0.557911585193774
40
0.818779281525105
40
0.818779281525105
40
1
40
1
40
1
40
1
41
1
10
21.0590912060846
20
6.78162985918531
30
0
41
1
10
21.0647552709498
20
6.81428113335197
30
0
41
1
10
21.065648950049
20
6.84850498924453
30
0
41
1
10
21.0561156970172
20
6.9199383647388
30
0
41
1
10
21.0438778706313
20
6.95812009582761
30
0
41
1
10
21.0081167433636
20
7.02222264457237
30
0
41
1
10
20.9855202543845
20
7.0500004200136
30
0
41
1
10
20.9405170513817
20
7.08791218984837
30
0
41
1
10
20.9197842627682
20
7.10119500586538
30
0
41
1
10
20.8979165999526
20
7.11140258046309
30
0
0
SPLINE
5
30F
100
AcDbEntity
8
1
62
256
6
ByLayer
370
-1
48
1
60
0
100
AcDbSpline
70
4
71
3
72
12
73
8
40
0
40
0
40
0
40
0
40
0.491976421225543
40
0.491976421225543
40
0.897511849957401
40
0.897511849957401
40
1
40
1
40
1
40
1
41
1
10
21.6583459987753
20
5.44255304983842
30
0
41
1
10
21.5909128548429
20
5.41311992419612
30
0
41
1
10
21.5250171670663
20
5.37291841185294
30
0
41
1
10
21.4162333270941
20
5.28215527092112
30
0
41
1
10
21.3702084697433
20
5.23353495988816
30
0
41
1
10
21.3216911479808
20
5.16661849420021
30
0
41
1
10
21.3122806344074
20
5.1526988512809
30
0
41
1
10
21.3033737674653
20
5.13851733233115
30
0
0
SPLINE
5
310
100
AcDbEntity
8
1
62
256
6
ByLayer
370
-1
48
1
60
0
100
AcDbSpline
70
4
71
3
72
14
73
10
40
0
40
0
40
0
40
0
40
0.203491646022624
40
0.203491646022624
40
0.499846696291874
40
0.499846696291874
40
0.76751178317815
40
0.76751178317815
40
1
40
1
40
1
40
1
41
1
10
20.780221225037
20
4.25754995875444
30
0
41
1
10
20.7988128368285
20
4.24436517984905
30
0
41
1
10
20.8196882485706
20
4.23306398075655
30
0
41
1
10
20.8746977981185
20
4.21162124668591
30
0
41
1
10
20.9115685825895
20
4.20407468096184
30
0
41
1
10
20.9832945857367
20
4.20264913645343
30
0
41
1
10
21.0191061806968
20
4.20756154868995
30
0
41
1
10
21.0823430231318
20
4.22735108413876
30
0
41
1
10
21.111104912276
20
4.24112141477522
30
0
41
1
10
21.1365625157839
20
4.25836034686645
30
0
0
SPLINE
5
311
100
AcDbEntity
8
1
62
256
6
ByLayer
370
-1
48
1
60
0
100
AcDbSpline
70
4
71
3
72
16
73
12
40
0
40
0
40
0
40
0
40
0.0577566551563797
40
0.0577566551563797
40
0.278589703954489
40
0.278589703954489
40
0.501930056515534
40
0.501930056515534
40
0.739376929556043
40
0.739376929556043
40
1
40
1
40
1
40
1
41
1
10
19.2313875617359
20
6.98131286264302
30
0
41
1
10
19.2249667983277
20
6.97696496303286
30
0
41
1
10
19.2187152574751
20
6.9723321423111
30
0
41
1
10
19.1897174967804
20
6.94887888849148
30
0
41
1
10
19.1694332840823
20
6.92619355148879
30
0
41
1
10
19.1369765650859
20
6.87620335139411
30
0
41
1
10
19.1244659449716
20
6.84822618926319
30
0
41
1
10
19.107684836835
20
6.78920871358534
30
0
41
1
10
19.1037440763452
20
6.75735742245666
30
0
41
1
10
19.1048613916337
20
6.69227137307605
30
0
41
1
10
19.1108134565826
20
6.65838649357231
30
0
41
1
10
19.1211952593016
20
6.62686596236313
30
0
0
SPLINE
5
312
100
AcDbEntity
8
1
62
256
6
ByLayer
370
-1
48
1
60
0
100
AcDbSpline
70
4
71
3
72
16
73
12
40
0
40
0
40
0
40
0
40
0.105280475925266
40
0.105280475925266
40
0.410844398978806
40
0.410844398978806
40
0.687718867320573
40
0.687718867320573
40
0.932208464378267
40
0.932208464378267
40
1
40
1
40
1
40
1
41
1
10
21.658345998776
20
5.44255304983498
30
0
41
1
10
21.6703390184188
20
5.44778774650476
30
0
41
1
10
21.6821510739977
20
5.4537914463628
30
0
41
1
10
21.7267119372713
20
5.47992291240496
30
0
41
1
10
21.7578349382807
20
5.50606000353844
30
0
41
1
10
21.8062782840709
20
5.56516240558334
30
0
41
1
10
21.8253193256466
20
5.59823037356253
30
0
41
1
10
21.8486662316923
20
5.66405848861321
30
0
41
1
10
21.8547336547082
20
5.69737930139294
30
0
41
1
10
21.8551013955545
20
5.73901870964181
30
0
41
1
10
21.8547445510937
20
5.74811615760299
30
0
41
1
10
21.8539520366968
20
5.75712979647766
30
0
0
SPLINE
5
313
100
AcDbEntity
8
1
62
256
6
ByLayer
370
-1
48
1
60
0
100
AcDbSpline
70
4
71
3
72
18
73
14
40
0
40
0
40
0
40
0
40
0.188590581439057
40
0.188590581439057
40
0.367054775627715
40
0.367054775627715
40
0.547477767191969
40
0.547477767191969
40
0.701485148286705
40
0.701485148286705
40
0.900273781313811
40
0.900273781313811
40
1
40
1
40
1
40
1
41
1
10
19.5838262057949
20
6.94429352652769
30
0
41
1
10
19.6313404805803
20
6.89842483035082
30
0
41
1
10
19.6858938437771
20
6.85830602736323
30
0
41
1
10
19.8023690412916
20
6.79759325931629
30
0
41
1
10
19.8651880735928
20
6.77553750171816
30
0
41
1
10
19.9959015560912
20
6.7528907493347
30
0
41
1
10
20.0659060693497
20
6.7524693719638
30
0
41
1
10
20.1899286542462
20
6.77321695786998
30
0
41
1
10
20.2462844677799
20
6.79138781602796
30
0
41
1
10
20.364333706722
20
6.84753120545317
30
0
41
1
10
20.4249136639785
20
6.89040405833612
30
0
41
1
10
20.5028350490258
20
6.96461735639271
30
0
41
1
10
20.5270778467773
20
6.99144004500977
30
0
41
1
10
20.5491823133745
20
7.01964949138191
30
0
0
SPLINE
5
314
100
AcDbEntity
8
1
62
256
6
ByLayer
370
-1
48
1
60
0
100
AcDbSpline
70
4
71
3
72
16
73
12
40
0
40
0
40
0
40
0
40
0.158802024813689
40
0.158802024813689
40
0.381233909704604
40
0.381233909704604
40
0.611727550557772
40
0.611727550557772
40
0.860900534778289
40
0.860900534778289
40
1
40
1
40
1
40
1
41
1
10
21.8539520366968
20
5.75712979647766
30
0
41
1
10
21.8521297551402
20
5.77785546145363
30
0
41
1
10
21.8479542591946
20
5.79834239259115
30
0
41
1
10
21.8327909713614
20
5.84488143812291
30
0
41
1
10
21.8194987856603
20
5.87045157069737
30
0
41
1
10
21.7859813208672
20
5.91558406562592
30
0
41
1
10
21.765122662103
20
5.93548090576859
30
0
41
1
10
21.7175557087051
20
5.96820347694971
30
0
41
1
10
21.6899362757853
20
5.98076248981845
30
0
41
1
10
21.6456102890374
20
5.99282371045251
30
0
41
1
10
21.6292827345527
20
5.99570594335438
30
0
41
1
10
21.6128857255639
20
5.99715177727552
30
0
0
SPLINE
5
315
100
AcDbEntity
8
1
62
256
6
ByLayer
370
-1
48
1
60
0
100
AcDbSpline
70
4
71
3
72
12
73
8
40
0
40
0
40
0
40
0
40
0.296751484320346
40
0.296751484320346
40
0.758684818704127
40
0.758684818704127
40
1
40
1
40
1
40
1
41
1
10
19.1257360465485
20
6.15501368452442
30
0
41
1
10
19.1408483815377
20
6.20076192179509
30
0
41
1
10
19.1511170716388
20
6.24875751368192
30
0
41
1
10
19.1648358491582
20
6.37058048437611
30
0
41
1
10
19.1616470347279
20
6.44587554324887
30
0
41
1
10
19.1422641793151
20
6.55451690948057
30
0
41
1
10
19.1329126162429
20
6.59129051125348
30
0
41
1
10
19.1211952593095
20
6.62686596233959
30
0
0
SPLINE
5
316
100
AcDbEntity
8
1
62
256
6
ByLayer
370
-1
48
1
60
0
100
AcDbSpline
70
4
71
3
72
18
73
14
40
0
40
0
40
0
40
0
40
0.199197481287369
40
0.199197481287369
40
0.375701239945865
40
0.375701239945865
40
0.554041688172355
40
0.554041688172355
40
0.707533263056092
40
0.707533263056092
40
0.908084646134188
40
0.908084646134188
40
1
40
1
40
1
40
1
41
1
10
21.0590912060835
20
6.78162985918546
30
0
41
1
10
21.0468668300452
20
6.71116077681376
30
0
41
1
10
21.0439748013748
20
6.63733391732856
30
0
41
1
10
21.0593118834975
20
6.49946995130195
30
0
41
1
10
21.0755231259189
20
6.43373044074082
30
0
41
1
10
21.1266261076389
20
6.31058801509433
30
0
41
1
10
21.1626856597464
20
6.2515473761339
30
0
41
1
10
21.2427025421871
20
6.15903384750074
30
0
41
1
10
21.2857527461461
20
6.12196200986588
30
0
41
1
10
21.3904549816943
20
6.05417432782178
30
0
41
1
10
21.4554124597394
20
6.02747540465113
30
0
41
1
10
21.5513126710488
20
6.00476888496657
30
0
41
1
10
21.5820709228657
20
5.99986892447282
30
0
41
1
10
21.6128857255639
20
5.99715177727539
30
0
0
SPLINE
5
317
100
AcDbEntity
8
1
62
256
6
ByLayer
370
-1
48
1
60
0
100
AcDbSpline
70
4
71
3
72
8
73
4
40
0
40
0
40
0
40
0
40
1
40
1
40
1
40
1
41
1
10
0
20
8.90906637851329
30
0
41
1
10
0.114497294328658
20
9.05729712318733
30
0
41
1
10
0.229954725839207
20
9.20454508347567
30
0
41
1
10
0.346265877365255
20
9.35088082387756
30
0
0
SPLINE
5
318
100
AcDbEntity
8
SK1
62
256
6
ByLayer
370
-1
48
1
60
0
100
AcDbSpline
70
4
71
3
72
8
73
4
40
0
40
0
40
0
40
0
40
1
40
1
40
1
40
1
41
1
10
2.84E-14
20
-5.49114867188607
30
0
41
1
10
-0.0797221012709031
20
-5.41799557012266
30
0
41
1
10
-0.159316196577038
20
-5.34465598464246
30
0
41
1
10
-0.238765877359697
20
-5.27110877642178
30
0
0
SPLINE
5
319
100
AcDbEntity
8
SK1
62
256
6
ByLayer
370
-1
48
1
60
0
100
AcDbSpline
70
4
71
3
72
8
73
4
40
0
40
0
40
0
40
0
40
1
40
1
40
1
40
1
41
1
10
0
20
-8.9090663785133
30
0
41
1
10
-0.080069616158454
20
-8.80540647197556
30
0
41
1
10
-0.159672005306817
20
-8.70126245512967
30
0
41
1
10
-0.238765877365267
20
-8.59660851746129
30
0
0
SPLINE
5
31A
100
AcDbEntity
8
SK1
62
256
6
ByLayer
370
-1
48
1
60
0
100
AcDbSpline
70
4
71
3
72
8
73
4
40
0
40
0
40
0
40
0
40
1
40
1
40
1
40
1
41
1
10
0
20
-9.12566237249418
30
0
41
1
10
-0.0796274640853198
20
-9.05650767730756
30
0
41
1
10
-0.159216989515528
20
-8.98729469287241
30
0
41
1
10
-0.238765877365211
20
-8.91801952773797
30
0
0
SPLINE
5
31B
100
AcDbEntity
8
SK1
62
256
6
ByLayer
370
-1
48
1
60
0
100
AcDbSpline
70
4
71
3
72
8
73
4
40
0
40
0
40
0
40
0
40
1
40
1
40
1
40
1
41
1
10
0
20
-4.47174057127154
30
0
41
1
10
-0.0865616324753944
20
-4.19259356227896
30
0
41
1
10
-0.16643175209191
20
-3.91053434249547
30
0
41
1
10
-0.23876587736558
20
-3.62603951533728
30
0
0
SPLINE
5
31C
100
AcDbEntity
8
1
62
256
6
ByLayer
370
-1
48
1
60
0
100
AcDbSpline
70
4
71
3
72
8
73
4
40
0
40
0
40
0
40
0
40
1
40
1
40
1
40
1
41
1
10
0
20
4.47174057127154
30
0
41
1
10
0.10582149797159
20
4.81299747460315
30
0
41
1
10
0.221746548789582
20
5.15024953921953
30
0
41
1
10
0.34626587736517
20
5.48298633569715
30
0
0
SPLINE
5
31D
100
AcDbEntity
8
SK1
62
256
6
ByLayer
370
-1
48
1
60
0
100
AcDbSpline
70
4
71
3
72
16
73
12
40
0
40
0
40
0
40
0
40
0.264755750877586
40
0.264755750877586
40
0.512699483843804
40
0.512699483843804
40
0.763673918710425
40
0.763673918710425
40
0.975762286159949
40
0.975762286159949
40
1
40
1
40
1
40
1
41
1
10
-0.238765877365211
20
-8.91801952773797
30
0
41
1
10
-0.246960184721814
20
-8.9108835135128
30
0
41
1
10
-0.255043915911273
20
-8.90423371932359
30
0
41
1
10
-0.269521479385645
20
-8.89333669694039
30
0
41
1
10
-0.276126860600726
20
-8.88887406157039
30
0
41
1
10
-0.287179723791354
20
-8.88279752071375
30
0
41
1
10
-0.2917399449843
20
-8.88116463343988
30
0
41
1
10
-0.297118819666366
20
-8.88141837357422
30
0
41
1
10
-0.298479302868742
20
-8.88279708106219
30
0
41
1
10
-0.298751882303975
20
-8.88548750287059
30
0
41
1
10
-0.29876587736527
20
-8.88578034541639
30
0
41
1
10
-0.29876587736527
20
-8.8860863919202
30
0
0
SPLINE
5
31E
100
AcDbEntity
8
SK1
62
256
6
ByLayer
370
-1
48
1
60
0
100
AcDbSpline
70
4
71
3
72
16
73
12
40
0
40
0
40
0
40
0
40
0.135196003763402
40
0.135196003763402
40
0.361224110243483
40
0.361224110243483
40
0.565737079423227
40
0.565737079423227
40
0.765265864981514
40
0.765265864981514
40
1
40
1
40
1
40
1
41
1
10
-0.298765877365327
20
-8.42456039474637
30
0
41
1
10
-0.298765877365327
20
-8.42206905786857
30
0
41
1
10
-0.298384728985326
20
-8.41990640776024
30
0
41
1
10
-0.29621764462118
20
-8.41534125166842
30
0
41
1
10
-0.29358064711829
20
-8.41370968344648
30
0
41
1
10
-0.286319695580517
20
-8.41357367749495
30
0
41
1
10
-0.281818531969037
20
-8.41478506031773
30
0
41
1
10
-0.271755112165493
20
-8.41929627535035
30
0
41
1
10
-0.266119811248871
20
-8.42257594210807
30
0
41
1
10
-0.253392867765683
20
-8.43114351866912
30
0
41
1
10
-0.246090518708968
20
-8.43675237226708
30
0
41
1
10
-0.238765877365125
20
-8.44286391907639
30
0
0
SPLINE
5
31F
100
AcDbEntity
8
SK1
62
256
6
ByLayer
370
-1
48
1
60
0
100
AcDbSpline
70
4
71
3
72
12
73
8
40
0
40
0
40
0
40
0
40
0.277987060084482
40
0.277987060084482
40
0.96766831192876
40
0.96766831192876
40
1
40
1
40
1
40
1
41
1
10
-0.29876587736527
20
-5.51153694755729
30
0
41
1
10
-0.298765877364389
20
-5.53141685146701
30
0
41
1
10
-0.296184739428327
20
-5.5528154422625
30
0
41
1
10
-0.28262372784107
20
-5.62774006091375
30
0
41
1
10
-0.264763614346407
20
-5.68399074548076
30
0
41
1
10
-0.240958727419184
20
-5.7414568242589
30
0
41
1
10
-0.239868639379097
20
-5.74405657236399
30
0
41
1
10
-0.238765877365267
20
-5.74665480307561
30
0
0
SPLINE
5
320
100
AcDbEntity
8
1
62
256
6
ByLayer
370
-1
48
1
60
0
100
AcDbSpline
70
4
71
3
72
8
73
4
40
0
40
0
40
0
40
0
40
1
40
1
40
1
40
1
41
1
10
0.346265877365255
20
7.00675370008618
30
0
41
1
10
0.226903980166355
20
6.7694561733003
30
0
41
1
10
0.111283755722639
20
6.52958244299808
30
0
41
1
10
0
20
6.28710694491161
30
0
0
SPLINE
5
321
100
AcDbEntity
8
SK1
62
256
6
ByLayer
370
-1
48
1
60
0
100
AcDbSpline
70
4
71
3
72
8
73
4
40
0
40
0
40
0
40
0
40
1
40
1
40
1
40
1
41
1
10
-0.238765877365125
20
-8.4428639190764
30
0
41
1
10
-0.159190595538178
20
-8.50926007923204
30
0
41
1
10
-0.0796016624639719
20
-8.5756344295786
30
0
41
1
10
0
20
-8.64198841336622
30
0
0
SPLINE
5
322
100
AcDbEntity
8
1
62
256
6
ByLayer
370
-1
48
1
60
0
100
AcDbSpline
70
4
71
3
72
22
73
18
40
0
40
0
40
0
40
0
40
0.176642232491071
40
0.176642232491071
40
0.339253608306295
40
0.339253608306295
40
0.464084079537063
40
0.464084079537063
40
0.5667905664359
40
0.5667905664359
40
0.669945476762205
40
0.669945476762205
40
0.767091081713952
40
0.767091081713952
40
0.90312626984667
40
0.90312626984667
40
1
40
1
40
1
40
1
41
1
10
0.346265877365255
20
-9.69383466119528
30
0
41
1
10
0.357561313599632
20
-9.70670220680485
30
0
41
1
10
0.368266603095464
20
-9.71934983178315
30
0
41
1
10
0.386398435044299
20
-9.74189111798246
30
0
41
1
10
0.394181392923059
20
-9.75213346339388
30
0
41
1
10
0.404599269160997
20
-9.76738465521667
30
0
41
1
10
0.408082889914993
20
-9.77317960843163
30
0
41
1
10
0.411350609738889
20
-9.78080003712142
30
0
41
1
10
0.411688773876989
20
-9.78320131263189
30
0
41
1
10
0.409665891237808
20
-9.7851805111473
30
0
41
1
10
0.407254557149429
20
-9.78475998639857
30
0
41
1
10
0.400341651563593
20
-9.78135254172219
30
0
41
1
10
0.395903917502693
20
-9.77849375068845
30
0
41
1
10
0.383748248523716
20
-9.76964720012931
30
0
41
1
10
0.375256677670535
20
-9.76275702836269
30
0
41
1
10
0.359883803653446
20
-9.74955232320681
30
0
41
1
10
0.353138306535783
20
-9.74355535127728
30
0
41
1
10
0.346265877365283
20
-9.7372894178658
30
0
0
SPLINE
5
323
100
AcDbEntity
8
SK1
62
256
6
ByLayer
370
-1
48
1
60
0
100
AcDbSpline
70
4
71
3
72
8
73
4
40
0
40
0
40
0
40
0
40
1
40
1
40
1
40
1
41
1
10
-0.238765877365267
20
7.74001485883363
30
0
41
1
10
-0.159177580487636
20
7.80503121006686
30
0
41
1
10
-0.0795889466144786
20
7.87004701126915
30
0
41
1
10
-5.68E-14
20
7.93506230200856
30
0
0
SPLINE
5
324
100
AcDbEntity
8
1
62
256
6
ByLayer
370
-1
48
1
60
0
100
AcDbSpline
70
4
71
3
72
8
73
4
40
0
40
0
40
0
40
0
40
1
40
1
40
1
40
1
41
1
10
0.34626587736517
20
-5.48298633569715
30
0
41
1
10
0.221746548789582
20
-5.15024953921953
30
0
41
1
10
0.10582149797159
20
-4.81299747460315
30
0
41
1
10
0
20
-4.47174057127154
30
0
0
SPLINE
5
325
100
AcDbEntity
8
SK1
62
256
6
ByLayer
370
-1
48
1
60
0
100
AcDbSpline
70
4
71
3
72
8
73
4
40
0
40
0
40
0
40
0
40
1
40
1
40
1
40
1
41
1
10
-0.23876587736558
20
3.62603951533728
30
0
41
1
10
-0.16643175209191
20
3.91053434249547
30
0
41
1
10
-0.0865616324753944
20
4.19259356227896
30
0
41
1
10
0
20
4.47174057127154
30
0
0
SPLINE
5
326
100
AcDbEntity
8
SK1
62
256
6
ByLayer
370
-1
48
1
60
0
100
AcDbSpline
70
4
71
3
72
8
73
4
40
0
40
0
40
0
40
0
40
1
40
1
40
1
40
1
41
1
10
-0.238765877365267
20
-5.74665480307561
30
0
41
1
10
-0.161689228867999
20
-5.92825601236886
30
0
41
1
10
-0.0820120584768631
20
-6.1084113698105
30
0
41
1
10
0
20
-6.28710694491161
30
0
0
SPLINE
5
327
100
AcDbEntity
8
SK1
62
256
6
ByLayer
370
-1
48
1
60
0
100
AcDbSpline
70
4
71
3
72
8
73
4
40
0
40
0
40
0
40
0
40
1
40
1
40
1
40
1
41
1
10
-0.238765877365296
20
-2.6524453984468
30
0
41
1
10
-0.161489137001951
20
-2.77357994534343
30
0
41
1
10
-0.081707458429463
20
-2.89261756203484
30
0
41
1
10
-7.105E-13
20
-3.00981124603523
30
0
0
SPLINE
5
328
100
AcDbEntity
8
SK1
62
256
6
ByLayer
370
-1
48
1
60
0
100
AcDbSpline
70
4
71
3
72
16
73
12
40
0
40
0
40
0
40
0
40
0.133190349063452
40
0.133190349063452
40
0.350367308474245
40
0.350367308474245
40
0.55613190588252
40
0.55613190588252
40
0.832021518222635
40
0.832021518222635
40
1
40
1
40
1
40
1
41
1
10
-0.29876587736527
20
8.8860863919202
30
0
41
1
10
-0.29876587736527
20
8.88442449103729
30
0
41
1
10
-0.298347248148303
20
8.88314964606109
30
0
41
1
10
-0.296079936844848
20
8.88102893250792
30
0
41
1
10
-0.293428828366984
20
8.88095947062396
30
0
41
1
10
-0.286285663373036
20
8.88328369493118
30
0
41
1
10
-0.281823838536297
20
8.88556332766224
30
0
41
1
10
-0.270121536024135
20
8.89284522452715
30
0
41
1
10
-0.262287924642862
20
8.89859355040539
30
0
41
1
10
-0.249157832215133
20
8.90912729787188
30
0
41
1
10
-0.243992477920187
20
8.91346794158352
30
0
41
1
10
-0.238765877365211
20
8.91801952773797
30
0
0
SPLINE
5
329
100
AcDbEntity
8
SK1
62
256
6
ByLayer
370
-1
48
1
60
0
100
AcDbSpline
70
4
71
3
72
24
73
20
40
0
40
0
40
0
40
0
40
0.445882906655524
40
0.445882906655524
40
0.605967913324823
40
0.605967913324823
40
0.698516663337794
40
0.698516663337794
40
0.754557261090368
40
0.754557261090368
40
0.795238009742228
40
0.795238009742228
40
0.836445912266916
40
0.836445912266916
40
0.871651629362513
40
0.871651629362513
40
0.931904147095912
40
0.931904147095912
40
1
40
1
40
1
40
1
41
1
10
-0.29876587736527
20
-2.78674788328128
30
0
41
1
10
-0.29876587736527
20
-2.75399909458231
30
0
41
1
10
-0.297710491478625
20
-2.72126984028004
30
0
41
1
10
-0.29181347552381
20
-2.67898420055849
30
0
41
1
10
-0.289800895396752
20
-2.66792800504909
30
0
41
1
10
-0.28505115907484
20
-2.6516992639218
30
0
41
1
10
-0.282960771003843
20
-2.64594788295418
30
0
41
1
10
-0.278549532813912
20
-2.63794149248892
30
0
41
1
10
-0.276611592374707
20
-2.63516750719874
30
0
41
1
10
-0.272656833922014
20
-2.63151515173675
30
0
41
1
10
-0.270766522710858
20
-2.63031321586408
30
0
41
1
10
-0.266663646061204
20
-2.6290644395168
30
0
41
1
10
-0.26438653372918
20
-2.62903755343271
30
0
41
1
10
-0.260209474775422
20
-2.63012122972866
30
0
41
1
10
-0.25825749835758
20
-2.6310644372486
30
0
41
1
10
-0.253221903405546
20
-2.6343785829207
30
0
41
1
10
-0.250218056688425
20
-2.6373054621392
30
0
41
1
10
-0.244342749276342
20
-2.64414769018489
30
0
41
1
10
-0.241463892208344
20
-2.6482161464882
30
0
41
1
10
-0.238765877365267
20
-2.65244539844679
30
0
0
SPLINE
5
32A
100
AcDbEntity
8
SK1
62
256
6
ByLayer
370
-1
48
1
60
0
100
AcDbSpline
70
4
71
3
72
10
73
6
40
0
40
0
40
0
40
0
40
0.48652359473429
40
0.48652359473429
40
1
40
1
40
1
40
1
41
1
10
-0.238765877365523
20
-3.62603951533716
30
0
41
1
10
-0.256333298047395
20
-3.55694570530491
30
0
41
1
10
-0.270162779004664
20
-3.48727024785454
30
0
41
1
10
-0.291305154788858
20
-3.34486508869229
30
0
41
1
10
-0.298765877365554
20
-3.27138621783024
30
0
41
1
10
-0.29876587736527
20
-3.20021140615756
30
0
0
SPLINE
5
32B
100
AcDbEntity
8
1
62
256
6
ByLayer
370
-1
48
1
60
0
100
AcDbSpline
70
4
71
3
72
8
73
4
40
0
40
0
40
0
40
0
40
1
40
1
40
1
40
1
41
1
10
0.346265877365283
20
9.73728941786578
30
0
41
1
10
0.339096543643251
20
9.73075278189728
30
0
41
1
10
0.331927758905067
20
9.72421534301927
30
0
41
1
10
0.324759526430967
20
9.71767709691872
30
0
0
SPLINE
5
32C
100
AcDbEntity
8
1
62
256
6
ByLayer
370
-1
48
1
60
0
100
AcDbSpline
70
4
71
3
72
24
73
20
40
0
40
0
40
0
40
0
40
0.0261725466174372
40
0.0261725466174372
40
0.0420418607292793
40
0.0420418607292793
40
0.0581487411266713
40
0.0581487411266713
40
0.0724210504784483
40
0.0724210504784483
40
0.0919136347390623
40
0.0919136347390623
40
0.127002284808293
40
0.127002284808293
40
0.237075673386115
40
0.237075673386115
40
0.679215515441669
40
0.679215515441669
40
1
40
1
40
1
40
1
41
1
10
0.346265877365283
20
3.4826074634763
30
0
41
1
10
0.350252778104476
20
3.48781384727016
30
0
41
1
10
0.35455854811957
20
3.49270442894792
30
0
41
1
10
0.361981807904044
20
3.49900967398801
30
0
41
1
10
0.364961488404248
20
3.50105728731182
30
0
41
1
10
0.370996768440051
20
3.50383644837525
30
0
41
1
10
0.374133383601134
20
3.50455434089548
30
0
41
1
10
0.379625855244484
20
3.50425342375399
30
0
41
1
10
0.382092694991087
20
3.50342536776203
30
0
41
1
10
0.387262130113925
20
3.50026287388262
30
0
41
1
10
0.389823946049574
20
3.49747922010363
30
0
41
1
10
0.395857478194614
20
3.48852952427703
30
0
41
1
10
0.398636471399641
20
3.48133088484866
30
0
41
1
10
0.407655132396201
20
3.45044843312674
30
0
41
1
10
0.409704349168152
20
3.42327453551049
30
0
41
1
10
0.414729206874227
20
3.28851712566025
30
0
41
1
10
0.401150827036787
20
3.1734560928038
30
0
41
1
10
0.374813893951284
20
2.97758302316051
30
0
41
1
10
0.361409668626891
20
2.89467642652336
30
0
41
1
10
0.346265877365255
20
2.81188209233805
30
0
0
SPLINE
5
32D
100
AcDbEntity
8
1
62
256
6
ByLayer
370
-1
48
1
60
0
100
AcDbSpline
70
4
71
3
72
8
73
4
40
0
40
0
40
0
40
0
40
1
40
1
40
1
40
1
41
1
10
0.346265877365283
20
8.81943954716688
30
0
41
1
10
0.229476442403069
20
8.65409112042524
30
0
41
1
10
0.113995997883222
20
8.4874957304398
30
0
41
1
10
0
20
8.31956812200946
30
0
0
SPLINE
5
32E
100
AcDbEntity
8
1
62
256
6
ByLayer
370
-1
48
1
60
0
100
AcDbSpline
70
4
71
3
72
22
73
18
40
0
40
0
40
0
40
0
40
0.0957858854401958
40
0.0957858854401958
40
0.193822980567434
40
0.193822980567434
40
0.292972686763501
40
0.292972686763501
40
0.377541440927562
40
0.377541440927562
40
0.487005376362619
40
0.487005376362619
40
0.645393143707146
40
0.645393143707146
40
0.891116707220944
40
0.891116707220944
40
1
40
1
40
1
40
1
41
1
10
0.346265877365283
20
8.9304379354958
30
0
41
1
10
0.35374958338187
20
8.9366681231583
30
0
41
1
10
0.361211909560524
20
8.94240236127087
30
0
41
1
10
0.375515454162127
20
8.9520949427252
30
0
41
1
10
0.382482103879767
20
8.95608657251921
30
0
41
1
10
0.394534754686902
20
8.96101522880332
30
0
41
1
10
0.399752880631439
20
8.96194920465635
30
0
41
1
10
0.406684598298284
20
8.96040713879732
30
0
41
1
10
0.408895372606281
20
8.95840692505328
30
0
41
1
10
0.411639731476384
20
8.95158446567343
30
0
41
1
10
0.411572255415081
20
8.94603840458691
30
0
41
1
10
0.408567083168151
20
8.93037532404909
30
0
41
1
10
0.404387275613914
20
8.91909055531218
30
0
41
1
10
0.390427849930177
20
8.88873716652377
30
0
41
1
10
0.378608972100068
20
8.86818540398903
30
0
41
1
10
0.359251422224332
20
8.83821157509573
30
0
41
1
10
0.352902469198057
20
8.828835517092
30
0
41
1
10
0.346265877365255
20
8.81943954716688
30
0
0
SPLINE
5
32F
100
AcDbEntity
8
1
62
256
6
ByLayer
370
-1
48
1
60
0
100
AcDbSpline
70
4
71
3
72
8
73
4
40
0
40
0
40
0
40
0
40
1
40
1
40
1
40
1
41
1
10
11.1511497351299
20
-5.19946861849756
30
0
41
1
10
10.9251562483949
20
-5.15029589140971
30
0
41
1
10
10.7030537118981
20
-5.12438112684893
30
0
41
1
10
10.4860532233296
20
-5.12028507466259
30
0
0
SPLINE
5
330
100
AcDbEntity
8
1
62
256
6
ByLayer
370
-1
48
1
60
0
100
AcDbSpline
70
4
71
3
72
14
73
10
40
0
40
0
40
0
40
0
40
0.238243191893217
40
0.238243191893217
40
0.474645826989511
40
0.474645826989511
40
0.733883453335752
40
0.733883453335752
40
1
40
1
40
1
40
1
41
1
10
8.24000707975335
20
-6.51735052367052
30
0
41
1
10
8.35979727654092
20
-6.31129389684321
30
0
41
1
10
8.52143492406452
20
-6.0921880940535
30
0
41
1
10
8.90552723468602
20
-5.69265440077336
30
0
41
1
10
9.13195630678885
20
-5.50675157314315
30
0
41
1
10
9.64590969101459
20
-5.18292176715083
30
0
41
1
10
9.94333823055422
20
-5.04699302837145
30
0
41
1
10
10.5659605287081
20
-4.86165346729903
30
0
41
1
10
10.8985523870263
20
-4.81259321019837
30
0
41
1
10
11.2277686785324
20
-4.81259321019837
30
0
0
SPLINE
5
331
100
AcDbEntity
8
1
62
256
6
ByLayer
370
-1
48
1
60
0
100
AcDbSpline
70
4
71
3
72
16
73
12
40
0
40
0
40
0
40
0
40
0.277364672573754
40
0.277364672573754
40
0.551602721340105
40
0.551602721340105
40
0.551602721340105
40
0.877127889317108
40
0.877127889317108
40
0.877127889317108
40
1
40
1
40
1
40
1
41
1
10
8.53773417867535
20
-5.01402395921974
30
0
41
1
10
8.70096194742987
20
-4.71203240886292
30
0
41
1
10
8.91454172213784
20
-4.42585224831198
30
0
41
1
10
9.39625183789084
20
-3.93752828012222
30
0
41
1
10
9.66984367442512
20
-3.72689406654055
30
0
41
1
10
9.96375999823928
20
-3.56019058703845
30
0
41
1
10
10.3105709219064
20
-3.36348634497939
30
0
41
1
10
10.6984462942119
20
-3.22221175211618
30
0
41
1
10
11.0975969000702
20
-3.16081760099136
30
0
41
1
10
11.2506500888129
20
-3.13727618463899
30
0
41
1
10
11.4065768719021
20
-3.12514470107786
30
0
41
1
10
11.5619603046774
20
-3.12514470107786
30
0
0
SPLINE
5
332
100
AcDbEntity
8
1
62
256
6
ByLayer
370
-1
48
1
60
0
100
AcDbSpline
70
4
71
3
72
15
73
11
40
0
40
0
40
0
40
0
40
0.307078884730617
40
0.307078884730617
40
0.614522693706725
40
0.614522693706725
40
0.863986675632614
40
0.863986675632614
40
0.863986675632614
40
1
40
1
40
1
40
1
41
1
10
11.4330305917921
20
-3.77615518359471
30
0
41
1
10
11.0527388026887
20
-3.77615518359471
30
0
41
1
10
10.6672607501419
20
-3.83922978752207
30
0
41
1
10
9.94932216554213
20
-4.08528927000751
30
0
41
1
10
9.60621133296411
20
-4.27264661204815
30
0
41
1
10
9.06821097366085
20
-4.70472158677507
30
0
41
1
10
8.85166522653438
20
-4.93763845247416
30
0
41
1
10
8.67571249091461
20
-5.1874176419912
30
0
41
1
10
8.57884675339773
20
-5.3249264185596
30
0
41
1
10
8.49287686658894
20
-5.4688935411985
30
0
41
1
10
8.4190262495996
20
-5.61342113816868
30
0
0
SPLINE
5
333
100
AcDbEntity
8
1
62
256
6
ByLayer
370
-1
48
1
60
0
100
AcDbSpline
70
4
71
3
72
12
73
8
40
0
40
0
40
0
40
0
40
0.445943166136622
40
0.445943166136622
40
0.891005206110231
40
0.891005206110231
40
1
40
1
40
1
40
1
41
1
10
9.87321766883443
20
-5.246417754864
30
0
41
1
10
9.54556194807984
20
-5.37348328049578
30
0
41
1
10
9.23971525733728
20
-5.54984738233716
30
0
41
1
10
8.72186870721976
20
-5.95862880092839
30
0
41
1
10
8.50289589092148
20
-6.19591347846335
30
0
41
1
10
8.29373234112549
20
-6.49973733266073
30
0
41
1
10
8.25506084890779
20
-6.56070603124422
30
0
41
1
10
8.21929925385311
20
-6.62191146179306
30
0
0
SPLINE
5
334
100
AcDbEntity
8
1
62
256
6
ByLayer
370
-1
48
1
60
0
100
AcDbSpline
70
4
71
3
72
8
73
4
40
0
40
0
40
0
40
0
40
1
40
1
40
1
40
1
41
1
10
11.1511497351299
20
-5.19946861849756
30
0
41
1
10
11.2797901221576
20
-5.22745879969781
30
0
41
1
10
11.4086007265211
20
-5.25542484865777
30
0
41
1
10
11.5375612167211
20
-5.28336964783723
30
0
0
SPLINE
5
335
100
AcDbEntity
8
1
62
256
6
ByLayer
370
-1
48
1
60
0
100
AcDbSpline
70
4
71
3
72
12
73
8
40
0
40
0
40
0
40
0
40
0.427066838595392
40
0.427066838595392
40
0.854111735750073
40
0.854111735750073
40
1
40
1
40
1
40
1
41
1
10
10.4860532233296
20
-5.12028507466259
30
0
41
1
10
10.421948037917
20
-5.11907503966867
30
0
41
1
10
10.3426655920439
20
-5.12488280396317
30
0
41
1
10
10.1692605567929
20
-5.15385562839501
30
0
41
1
10
10.0728353975672
20
-5.17747729785492
30
0
41
1
10
9.94145040067866
20
-5.22094268520661
30
0
41
1
10
9.90733824054558
20
-5.23318573080721
30
0
41
1
10
9.87321766883443
20
-5.24641775486388
30
0
0
SPLINE
5
336
100
AcDbEntity
8
1
62
256
6
ByLayer
370
-1
48
1
60
0
100
AcDbSpline
70
4
71
3
72
22
73
18
40
0
40
0
40
0
40
0
40
0.281404885340831
40
0.281404885340831
40
0.444609845640601
40
0.444609845640601
40
0.571908062227071
40
0.571908062227071
40
0.66616393164013
40
0.66616393164013
40
0.761310749974021
40
0.761310749974021
40
0.845171690266008
40
0.845171690266008
40
0.956886472785664
40
0.956886472785664
40
1
40
1
40
1
40
1
41
1
10
0.346265877365283
20
-8.81943954716688
30
0
41
1
10
0.363219376038558
20
-8.84344201223833
30
0
41
1
10
0.378521901611379
20
-8.8676040794865
30
0
41
1
10
0.397172354124564
20
-8.90281532837017
30
0
41
1
10
0.402952530916764
20
-8.91537094038944
30
0
41
1
10
0.409659439004514
20
-8.93504895732355
30
0
41
1
10
0.411410409611449
20
-8.94292161370038
30
0
41
1
10
0.411142179261901
20
-8.95349591288007
30
0
41
1
10
0.409948272848595
20
-8.95707725357654
30
0
41
1
10
0.405013721701153
20
-8.96129991475392
30
0
41
1
10
0.401151115741072
20
-8.96194037202142
30
0
41
1
10
0.391902455894297
20
-8.96011649753679
30
0
41
1
10
0.386651798210721
20
-8.9580051844015
30
0
41
1
10
0.373441992273115
20
-8.95092453250057
30
0
41
1
10
0.364971803635712
20
-8.94516770131231
30
0
41
1
10
0.353047667152225
20
-8.9359858002356
30
0
41
1
10
0.349663506665507
20
-8.93326646297943
30
0
41
1
10
0.346265877365283
20
-8.93043793549572
30
0
0
SPLINE
5
337
100
AcDbEntity
8
SK1
62
256
6
ByLayer
370
-1
48
1
60
0
100
AcDbSpline
70
4
71
3
72
10
73
6
40
0
40
0
40
0
40
0
40
0.724775139776392
40
0.724775139776392
40
1
40
1
40
1
40
1
41
1
10
-0.238765877365296
20
-5.84076208671027
30
0
41
1
10
-0.260920202478303
20
-5.91019600740087
30
0
41
1
10
-0.280309853479423
20
-5.98057051320561
30
0
41
1
10
-0.295697519326438
20
-6.07252638537142
30
0
41
1
10
-0.298765877363934
20
-6.09770200278221
30
0
41
1
10
-0.29876587736527
20
-6.12081833033227
30
0
0
SPLINE
5
338
100
AcDbEntity
8
1
62
256
6
ByLayer
370
-1
48
1
60
0
100
AcDbSpline
70
4
71
3
72
8
73
4
40
0
40
0
40
0
40
0
40
1
40
1
40
1
40
1
41
1
10
0.346265877365283
20
3.48260746347631
30
0
41
1
10
0.227861665404646
20
3.32798666637112
30
0
41
1
10
0.112090786506513
20
3.17058398901246
30
0
41
1
10
-6.821E-13
20
3.0098112460353
30
0
0
SPLINE
5
339
100
AcDbEntity
8
1
62
256
6
ByLayer
370
-1
48
1
60
0
100
AcDbSpline
70
4
71
3
72
8
73
4
40
0
40
0
40
0
40
0
40
1
40
1
40
1
40
1
41
1
10
0.346265877365255
20
-8.06232321790073
30
0
41
1
10
0.228638070256039
20
-7.86961954854873
30
0
41
1
10
0.113114188983815
20
-7.67517488903941
30
0
41
1
10
0
20
-7.47890123860155
30
0
0
SPLINE
5
33A
100
AcDbEntity
8
SK1
62
256
6
ByLayer
370
-1
48
1
60
0
100
AcDbSpline
70
4
71
3
72
18
73
14
40
0
40
0
40
0
40
0
40
0.270604300132313
40
0.270604300132313
40
0.510312460944905
40
0.510312460944905
40
0.625651945104064
40
0.625651945104064
40
0.74218522098663
40
0.74218522098663
40
0.848054696842956
40
0.848054696842956
40
1
40
1
40
1
40
1
41
1
10
-0.298765877396136
20
5.31556932836955
30
0
41
1
10
-0.298765877397727
20
5.30425747111964
30
0
41
1
10
-0.298011091617497
20
5.29326202084616
30
0
41
1
10
-0.294074726888823
20
5.27462349067061
30
0
41
1
10
-0.291113492730375
20
5.26648237226347
30
0
41
1
10
-0.283948500961856
20
5.25813819040775
30
0
41
1
10
-0.281101189130965
20
5.25599177026471
30
0
41
1
10
-0.274497944687454
20
5.25361039535066
30
0
41
1
10
-0.270636841264491
20
5.25339293560698
30
0
41
1
10
-0.262906047355273
20
5.25495664373227
30
0
41
1
10
-0.258988072339292
20
5.25655714075677
30
0
41
1
10
-0.249598625557127
20
5.26186563878005
30
0
41
1
10
-0.244044793200487
20
5.26622204158915
30
0
41
1
10
-0.238765877365267
20
5.27110877641661
30
0
0
SPLINE
5
33B
100
AcDbEntity
8
SK1
62
256
6
ByLayer
370
-1
48
1
60
0
100
AcDbSpline
70
4
71
3
72
12
73
8
40
0
40
0
40
0
40
0
40
0.222883735629632
40
0.222883735629632
40
0.701373764485756
40
0.701373764485756
40
1
40
1
40
1
40
1
41
1
10
-0.29876587736527
20
6.88387434548127
30
0
41
1
10
-0.298765877364246
20
6.89442748338347
30
0
41
1
10
-0.297073926756724
20
6.9062458369834
30
0
41
1
10
-0.288632183373807
20
6.94453073809656
30
0
41
1
10
-0.278264684391019
20
6.97301623972979
30
0
41
1
10
-0.257631269437496
20
7.01920695031448
30
0
41
1
10
-0.248622870842553
20
7.03722570762102
30
0
41
1
10
-0.238765877365267
20
7.0551343208076
30
0
0
SPLINE
5
33C
100
AcDbEntity
8
SK1
62
256
6
ByLayer
370
-1
48
1
60
0
100
AcDbSpline
70
4
71
3
72
22
73
18
40
0
40
0
40
0
40
0
40
0.0759828693635215
40
0.0759828693635215
40
0.121223705355062
40
0.121223705355062
40
0.167233024447567
40
0.167233024447567
40
0.202596545059259
40
0.202596545059259
40
0.237729529685037
40
0.237729529685037
40
0.298491096168791
40
0.298491096168791
40
0.454923679576784
40
0.454923679576784
40
1
40
1
40
1
40
1
41
1
10
-0.238765877365267
20
2.65244539844679
30
0
41
1
10
-0.241789490175535
20
2.64770575795418
30
0
41
1
10
-0.245043696047048
20
2.64315531716969
30
0
41
1
10
-0.250741064202089
20
2.63685587388407
30
0
41
1
10
-0.253015350996577
20
2.63469515346657
30
0
41
1
10
-0.25779587146684
20
2.63124918553196
30
0
41
1
10
-0.260374117217083
20
2.62995472752891
30
0
41
1
10
-0.264838960486088
20
2.62905403861279
30
0
41
1
10
-0.266790762146286
20
2.62912794990417
30
0
41
1
10
-0.270374659482996
20
2.63017103921895
30
0
41
1
10
-0.272049822705981
20
2.63113445761969
30
0
41
1
10
-0.276136535514752
20
2.63451941912756
30
0
41
1
10
-0.278293869503216
20
2.63751018514262
30
0
41
1
10
-0.28477591212615
20
2.64916176492829
30
0
41
1
10
-0.287648154874006
20
2.65955805064652
30
0
41
1
10
-0.297669314094207
20
2.70646350108015
30
0
41
1
10
-0.298765877366066
20
2.74686598167421
30
0
41
1
10
-0.298765877366009
20
2.78674788328097
30
0
0
SPLINE
5
33D
100
AcDbEntity
8
1
62
256
6
ByLayer
370
-1
48
1
60
0
100
AcDbSpline
70
4
71
3
72
8
73
4
40
0
40
0
40
0
40
0
40
1
40
1
40
1
40
1
41
1
10
0.346265877365283
20
9.69383466119528
30
0
41
1
10
0.230255110667741
20
9.56167740753047
30
0
41
1
10
0.114811070065287
20
9.42885285601457
30
0
41
1
10
0
20
9.29530600554689
30
0
0
SPLINE
5
33E
100
AcDbEntity
8
SK1
62
256
6
ByLayer
370
-1
48
1
60
0
100
AcDbSpline
70
4
71
3
72
12
73
8
40
0
40
0
40
0
40
0
40
0.193747349524881
40
0.193747349524881
40
0.571217238234697
40
0.571217238234697
40
1
40
1
40
1
40
1
41
1
10
-0.298765877375047
20
-7.82773354709104
30
0
41
1
10
-0.298765877373938
20
-7.83409694041856
30
0
41
1
10
-0.297493074892117
20
-7.84154715932689
30
0
41
1
10
-0.291285940341112
20
-7.86484419928834
30
0
41
1
10
-0.28398953009372
20
-7.88233819047856
30
0
41
1
10
-0.265005135426833
20
-7.9203398730088
30
0
41
1
10
-0.252578372964081
20
-7.94147825630679
30
0
41
1
10
-0.238765877365267
20
-7.96246187705553
30
0
0
SPLINE
5
33F
100
AcDbEntity
8
1
62
256
6
ByLayer
370
-1
48
1
60
0
100
AcDbSpline
70
4
71
3
72
24
73
20
40
0
40
0
40
0
40
0
40
0.0301252144325864
40
0.0301252144325864
40
0.0817265358086304
40
0.0817265358086304
40
0.120177937605665
40
0.120177937605665
40
0.158537855536506
40
0.158537855536506
40
0.21359015695888
40
0.21359015695888
40
0.308145176834583
40
0.308145176834583
40
0.509792904425158
40
0.509792904425158
40
0.968099479248654
40
0.968099479248654
40
1
40
1
40
1
40
1
41
1
10
0.346265877364999
20
-5.80707297082124
30
0
41
1
10
0.349553787262977
20
-5.81005652836348
30
0
41
1
10
0.352913458900247
20
-5.81283998620277
30
0
41
1
10
0.362062030635457
20
-5.8195064644195
30
0
41
1
10
0.368055412117542
20
-5.82286389551076
30
0
41
1
10
0.377917665075103
20
-5.82591199308396
30
0
41
1
10
0.382029692372271
20
-5.82632305865818
30
0
41
1
10
0.389316037184415
20
-5.82518051923962
30
0
41
1
10
0.392578641826788
20
-5.8236294366185
30
0
41
1
10
0.399236981689711
20
-5.81814475555193
30
0
41
1
10
0.402220225701825
20
-5.81343272381734
30
0
41
1
10
0.408250229361443
20
-5.79889348483813
30
0
41
1
10
0.410060945727594
20
-5.78761337403499
30
0
41
1
10
0.412456531941586
20
-5.7508465381672
30
0
41
1
10
0.40961858718191
20
-5.72277214422051
30
0
41
1
10
0.394845131087948
20
-5.63073024183065
30
0
41
1
10
0.375397149010468
20
-5.56318779904311
30
0
41
1
10
0.349719893265359
20
-5.49229152242489
30
0
41
1
10
0.348006581330822
20
-5.48763779236447
30
0
41
1
10
0.346265877365283
20
-5.48298633569712
30
0
0
SPLINE
5
340
100
AcDbEntity
8
1
62
256
6
ByLayer
370
-1
48
1
60
0
100
AcDbSpline
70
4
71
3
72
8
73
4
40
0
40
0
40
0
40
0
40
1
40
1
40
1
40
1
41
1
10
0.346265877365283
20
8.93043793549572
30
0
41
1
10
0.230818843109887
20
8.83432824239776
30
0
41
1
10
0.115396047488332
20
8.73817971424089
30
0
41
1
10
0
20
8.64198841336622
30
0
0
SPLINE
5
341
100
AcDbEntity
8
1
62
256
6
ByLayer
370
-1
48
1
60
0
100
AcDbSpline
70
4
71
3
72
22
73
18
40
0
40
0
40
0
40
0
40
0.520365401161653
40
0.520365401161653
40
0.673798309858208
40
0.673798309858208
40
0.765064767860794
40
0.765064767860794
40
0.823718188680003
40
0.823718188680003
40
0.867069774090838
40
0.867069774090838
40
0.910901039671225
40
0.910901039671225
40
0.949011093965261
40
0.949011093965261
40
1
40
1
40
1
40
1
41
1
10
0.346265877365312
20
5.48298633569712
30
0
41
1
10
0.374308885467315
20
5.55792201665682
30
0
41
1
10
0.396859606667505
20
5.63501290145535
30
0
41
1
10
0.409921441382807
20
5.72810907831746
30
0
41
1
10
0.411755364407895
20
5.74928689042359
30
0
41
1
10
0.410802043563621
20
5.78053051980906
30
0
41
1
10
0.409572575216487
20
5.79177468823433
30
0
41
1
10
0.404909805141045
20
5.80775443579475
30
0
41
1
10
0.402367513938344
20
5.81346504422982
30
0
41
1
10
0.396207134594562
20
5.82103231397409
30
0
41
1
10
0.39296747790695
20
5.82353951119848
30
0
41
1
10
0.385360401535962
20
5.82621459384087
30
0
41
1
10
0.380861261823014
20
5.82635849879648
30
0
41
1
10
0.372029466484577
20
5.82432001122183
30
0
41
1
10
0.367658003075263
20
5.8224383389591
30
0
41
1
10
0.357589643325838
20
5.81659101526374
30
0
41
1
10
0.351804083507829
20
5.81209852116082
30
0
41
1
10
0.346265877365227
20
5.8070729708204
30
0
0
SPLINE
5
342
100
AcDbEntity
8
SK1
62
256
6
ByLayer
370
-1
48
1
60
0
100
AcDbSpline
70
4
71
3
72
14
73
10
40
0
40
0
40
0
40
0
40
0.148030712520059
40
0.148030712520059
40
0.36334577483943
40
0.36334577483943
40
0.698420927257358
40
0.698420927257358
40
1
40
1
40
1
40
1
41
1
10
-0.298765877365298
20
-7.20288531101458
30
0
41
1
10
-0.298765877365298
20
-7.20154078900649
30
0
41
1
10
-0.298071316672349
20
-7.1994720675626
30
0
41
1
10
-0.294954407394101
20
-7.19305122059228
30
0
41
1
10
-0.29185597937709
20
-7.18801808959786
30
0
41
1
10
-0.281969816423271
20
-7.17352959657731
30
0
41
1
10
-0.273958719403936
20
-7.16294839215024
30
0
41
1
10
-0.257030380123695
20
-7.14179685400556
30
0
41
1
10
-0.248123226889902
20
-7.13112914810668
30
0
41
1
10
-0.238765877365267
20
-7.12029111935611
30
0
0
SPLINE
5
343
100
AcDbEntity
8
1
62
256
6
ByLayer
370
-1
48
1
60
0
100
AcDbSpline
70
4
71
3
72
8
73
4
40
0
40
0
40
0
40
0
40
1
40
1
40
1
40
1
41
1
10
0.346265877365255
20
-9.42582959020112
30
0
41
1
10
0.230769162777222
20
-9.32588893592825
30
0
41
1
10
0.11534475622372
20
-9.22583674762534
30
0
41
1
10
0
20
-9.12566237249418
30
0
0
SPLINE
5
344
100
AcDbEntity
8
SK1
62
256
6
ByLayer
370
-1
48
1
60
0
100
AcDbSpline
70
4
71
3
72
16
73
12
40
0
40
0
40
0
40
0
40
0.22476906486106
40
0.22476906486106
40
0.453956889490732
40
0.453956889490732
40
0.685660161361604
40
0.685660161361604
40
0.884277667696259
40
0.884277667696259
40
1
40
1
40
1
40
1
41
1
10
-0.238765877365125
20
8.44286391907639
30
0
41
1
10
-0.245783867938656
20
8.43700823606284
30
0
41
1
10
-0.252777154706081
20
8.43161704700258
30
0
41
1
10
-0.266127991216052
20
8.42251764702662
30
0
41
1
10
-0.272604471108622
20
8.41877123230221
30
0
41
1
10
-0.283761681345851
20
8.41410127039039
30
0
41
1
10
-0.288563778072415
20
8.41317595984592
30
0
41
1
10
-0.294892941685504
20
8.41446508472826
30
0
41
1
10
-0.296876221920371
20
8.41625323363539
30
0
41
1
10
-0.29848591946174
20
8.42052637504992
30
0
41
1
10
-0.298765877365298
20
8.4224218561408
30
0
41
1
10
-0.298765877365298
20
8.42456039474639
30
0
0
SPLINE
5
345
100
AcDbEntity
8
SK1
62
256
6
ByLayer
370
-1
48
1
60
0
100
AcDbSpline
70
4
71
3
72
12
73
8
40
0
40
0
40
0
40
0
40
0.235696896409468
40
0.235696896409468
40
0.900799905685484
40
0.900799905685484
40
1
40
1
40
1
40
1
41
1
10
-0.29876587736527
20
6.1208183303322
30
0
41
1
10
-0.298765877364104
20
6.10103760106388
30
0
41
1
10
-0.296483784594614
20
6.07971995420002
30
0
41
1
10
-0.283996074784795
20
5.9974942430382
30
0
41
1
10
-0.267066427414477
20
5.93314418819615
30
0
41
1
10
-0.244803758177596
20
5.85990958863117
30
0
41
1
10
-0.241820761042305
20
5.85033640458578
30
0
41
1
10
-0.238765877365267
20
5.84076208671027
30
0
0
SPLINE
5
346
100
AcDbEntity
8
SK1
62
256
6
ByLayer
370
-1
48
1
60
0
100
AcDbSpline
70
4
71
3
72
10
73
6
40
0
40
0
40
0
40
0
40
0.731940636141082
40
0.731940636141082
40
1
40
1
40
1
40
1
41
1
10
-0.238765877365466
20
5.7466548030756
30
0
41
1
10
-0.263423356110678
20
5.68855902380193
30
0
41
1
10
-0.282677309059238
20
5.62872913815445
30
0
41
1
10
-0.296344486836801
20
5.55142348442267
30
0
41
1
10
-0.298765877364417
20
5.53076728620323
30
0
41
1
10
-0.29876587736527
20
5.51153694755729
30
0
0
LINE
5
49
100
AcDbEntity
8
1
62
256
6
ByLayer
370
-1
48
1
60
0
100
AcDbLine
10
24.417065
20
0.294281
30
0
11
24.548986
21
0.960399
31
0
39
0
210
0
220
0
230
1
0
LINE
5
4B
100
AcDbEntity
8
1
62
256
6
ByLayer
370
-1
48
1
60
0
100
AcDbLine
10
19.304264
20
4.395137
30
0
11
19.311515
21
4.465426
31
0
39
0
210
0
220
0
230
1
0
LINE
5
4C
100
AcDbEntity
8
1
62
256
6
ByLayer
370
-1
48
1
60
0
100
AcDbLine
10
21.202081
20
4.852603
30
0
11
21.180875
21
4.647042
31
0
39
0
210
0
220
0
230
1
0
LINE
5
4D
100
AcDbEntity
8
1
62
256
6
ByLayer
370
-1
48
1
60
0
100
AcDbLine
10
21.051665
20
6.72801
30
0
11
21.028509
21
6.503557
31
0
39
0
210
0
220
0
230
1
0
LINE
5
4E
100
AcDbEntity
8
1
62
256
6
ByLayer
370
-1
48
1
60
0
100
AcDbLine
10
19.136028
20
6.097813
30
0
11
19.157239
21
6.303415
31
0
39
0
210
0
220
0
230
1
0
LINE
5
4F
100
AcDbEntity
8
1
62
256
6
ByLayer
370
-1
48
1
60
0
100
AcDbLine
10
24.225936
20
-1.467367
30
0
11
24.362319
21
-0.778724
31
0
39
0
210
0
220
0
230
1
0
LINE
5
50
100
AcDbEntity
8
1
62
256
6
ByLayer
370
-1
48
1
60
0
100
AcDbLine
10
24.858936
20
2.136442
30
0
11
25.008445
21
2.891366
31
0
39
0
210
0
220
0
230
1
0
LINE
5
51
100
AcDbEntity
8
4
62
256
6
ByLayer
370
-1
48
0.05
60
0
100
AcDbLine
10
0
20
0
30
0
11
25
21
0
31
0
39
0
210
0
220
0
230
1
0
LINE
5
53
100
AcDbEntity
8
SK4
62
256
6
ByLayer
370
-1
48
0.05
60
0
100
AcDbLine
10
-5
20
0
30
0
11
30
21
0
31
0
39
0
210
0
220
0
230
1
0
LINE
5
55
100
AcDbEntity
8
80
62
256
6
ByLayer
370
-1
48
1
60
0
100
AcDbLine
10
0
20
0
30
0
11
-5
21
0
31
0
39
0
210
0
220
0
230
1
0
LINE
5
56
100
AcDbEntity
8
81
62
256
6
ByLayer
370
-1
48
1
60
0
100
AcDbLine
10
25
20
13.875
30
0
11
30
21
13.875
31
0
39
0
210
0
220
0
230
1
0
LINE
5
57
100
AcDbEntity
8
1
62
256
6
ByLayer
370
-1
48
1
60
0
100
AcDbLine
10
9.873218
20
10
30
0
11
8.210512
21
10
31
0
39
0
210
0
220
0
230
1
0
LINE
5
58
100
AcDbEntity
8
1
62
256
6
ByLayer
370
-1
48
1
60
0
100
AcDbLine
10
22.871304
20
5.114494
30
0
11
22.888915
21
5.285198
31
0
39
0
210
0
220
0
230
1
0
LINE
5
59
100
AcDbEntity
8
1
62
256
6
ByLayer
370
-1
48
1
60
0
100
AcDbLine
10
17.467687
20
5.844471
30
0
11
17.450076
21
5.673767
31
0
39
0
210
0
220
0
230
1
0
LINE
5
5A
100
AcDbEntity
8
1
62
256
6
ByLayer
370
-1
48
1
60
0
100
AcDbLine
10
12.357668
20
5.784995
30
0
11
12.221517
21
5.097522
31
0
39
0
210
0
220
0
230
1
0
LINE
5
5B
100
AcDbEntity
8
1
62
256
6
ByLayer
370
-1
48
1
60
0
100
AcDbLine
10
13.518167
20
5.196564
30
0
11
13.386413
21
4.531292
31
0
39
0
210
0
220
0
230
1
0
LINE
5
5C
100
AcDbEntity
8
1
62
256
6
ByLayer
370
-1
48
1
60
0
100
AcDbLine
10
15.343336
20
3.2528
30
0
11
15.289753
21
2.982243
31
0
39
0
210
0
220
0
230
1
0
LINE
5
5D
100
AcDbEntity
8
1
62
256
6
ByLayer
370
-1
48
1
60
0
100
AcDbLine
10
22.449369
20
-1.120299
30
0
11
22.478085
21
-0.975298
31
0
39
0
210
0
220
0
230
1
0
LINE
5
5E
100
AcDbEntity
8
1
62
256
6
ByLayer
370
-1
48
1
60
0
100
AcDbLine
10
22.971463
20
-1.650166
30
0
11
24.016921
21
-1.649554
31
0
39
0
210
0
220
0
230
1
0
LINE
5
5F
100
AcDbEntity
8
1
62
256
6
ByLayer
370
-1
48
1
60
0
100
AcDbLine
10
22.60544
20
-1.005164
30
0
11
22.569056
21
-1.18888
31
0
39
0
210
0
220
0
230
1
0
LINE
5
60
100
AcDbEntity
8
1
62
256
6
ByLayer
370
-1
48
1
60
0
100
AcDbLine
10
15.191508
20
3.038603
30
0
11
15.251884
21
3.343463
31
0
39
0
210
0
220
0
230
1
0
LINE
5
61
100
AcDbEntity
8
1
62
256
6
ByLayer
370
-1
48
1
60
0
100
AcDbLine
10
14.476741
20
3.660073
30
0
11
14.662661
21
3.341643
31
0
39
0
210
0
220
0
230
1
0
LINE
5
62
100
AcDbEntity
8
1
62
256
6
ByLayer
370
-1
48
1
60
0
100
AcDbLine
10
24.550165
20
1.58455
30
0
11
24.830078
21
2.060617
31
0
39
0
210
0
220
0
230
1
0
LINE
5
63
100
AcDbEntity
8
1
62
256
6
ByLayer
370
-1
48
1
60
0
100
AcDbLine
10
24.343237
20
1.69737
30
0
11
24.307103
21
1.514917
31
0
39
0
210
0
220
0
230
1
0
LINE
5
64
100
AcDbEntity
8
1
62
256
6
ByLayer
370
-1
48
1
60
0
100
AcDbLine
10
23.924362
20
0.181053
30
0
11
23.907137
21
0.094077
31
0
39
0
210
0
220
0
230
1
0
LINE
5
65
100
AcDbEntity
8
1
62
256
6
ByLayer
370
-1
48
1
60
0
100
AcDbLine
10
23.946363
20
0.218472
30
0
11
23.915638
21
0.063332
31
0
39
0
210
0
220
0
230
1
0
LINE
5
66
100
AcDbEntity
8
1
62
256
6
ByLayer
370
-1
48
1
60
0
100
AcDbLine
10
24.054692
20
0.28795
30
0
11
23.986315
21
-0.057311
31
0
39
0
210
0
220
0
230
1
0
LINE
5
67
100
AcDbEntity
8
1
62
256
6
ByLayer
370
-1
48
1
60
0
100
AcDbLine
10
24.218982
20
0.380079
30
0
11
24.096092
21
-0.240435
31
0
39
0
210
0
220
0
230
1
0
LINE
5
68
100
AcDbEntity
8
1
62
256
6
ByLayer
370
-1
48
1
60
0
100
AcDbLine
10
24.079701
20
0.290749
30
0
11
24.004695
21
-0.08798
31
0
39
0
210
0
220
0
230
1
0
LINE
5
69
100
AcDbEntity
8
1
62
256
6
ByLayer
370
-1
48
1
60
0
100
AcDbLine
10
24.528267
20
0.906104
30
0
11
24.396278
21
0.239645
31
0
39
0
210
0
220
0
230
1
0
LINE
5
6A
100
AcDbEntity
8
1
62
256
6
ByLayer
370
-1
48
1
60
0
100
AcDbLine
10
24.105169
20
-0.255577
30
0
11
24.300236
21
0.076189
31
0
39
0
210
0
220
0
230
1
0
LINE
5
6B
100
AcDbEntity
8
1
62
256
6
ByLayer
370
-1
48
1
60
0
100
AcDbLine
10
0.346266
20
3.482607
30
0
11
0.346266
21
2.811879
31
0
39
0
210
0
220
0
230
1
0
LINE
5
6C
100
AcDbEntity
8
1
62
256
6
ByLayer
370
-1
48
1
60
0
100
AcDbLine
10
0.346266
20
-2.811879
30
0
11
0.346266
21
-3.482607
31
0
39
0
210
0
220
0
230
1
0
LINE
5
6D
100
AcDbEntity
8
1
62
256
6
ByLayer
370
-1
48
1
60
0
100
AcDbLine
10
0.346266
20
5.807073
30
0
11
0.346266
21
5.482966
31
0
39
0
210
0
220
0
230
1
0
LINE
5
6E
100
AcDbEntity
8
1
62
256
6
ByLayer
370
-1
48
1
60
0
100
AcDbLine
10
0.346266
20
-5.482966
30
0
11
0.346266
21
-5.807073
31
0
39
0
210
0
220
0
230
1
0
LINE
5
6F
100
AcDbEntity
8
SK1
62
256
6
ByLayer
370
-1
48
1
60
0
100
AcDbLine
10
-0.238766
20
5.271109
30
0
11
-0.238766
21
3.626029
31
0
39
0
210
0
220
0
230
1
0
LINE
5
71
100
AcDbEntity
8
SK1
62
256
6
ByLayer
370
-1
48
1
60
0
100
AcDbLine
10
-0.238766
20
-3.626029
30
0
11
-0.238766
21
-5.271109
31
0
39
0
210
0
220
0
230
1
0
LINE
5
72
100
AcDbEntity
8
SK1
62
256
6
ByLayer
370
-1
48
1
60
0
100
AcDbLine
10
-0.298766
20
5.315569
30
0
11
-0.298766
21
3.200139
31
0
39
0
210
0
220
0
230
1
0
LINE
5
73
100
AcDbEntity
8
SK1
62
256
6
ByLayer
370
-1
48
1
60
0
100
AcDbLine
10
-0.298766
20
-3.200139
30
0
11
-0.298766
21
-5.315569
31
0
39
0
210
0
220
0
230
1
0
LINE
5
74
100
AcDbEntity
8
1
62
256
6
ByLayer
370
-1
48
1
60
0
100
AcDbLine
10
0.346266
20
7.224309
30
0
11
0.346266
21
7.006677
31
0
39
0
210
0
220
0
230
1
0
LINE
5
75
100
AcDbEntity
8
1
62
256
6
ByLayer
370
-1
48
1
60
0
100
AcDbLine
10
0.346266
20
-7.006677
30
0
11
0.346266
21
-7.224309
31
0
39
0
210
0
220
0
230
1
0
LINE
5
76
100
AcDbEntity
8
SK1
62
256
6
ByLayer
370
-1
48
1
60
0
100
AcDbLine
10
0
20
9.125662
30
0
11
0
21
8.909037
31
0
39
0
210
0
220
0
230
1
0
LINE
5
77
100
AcDbEntity
8
1
62
256
6
ByLayer
370
-1
48
1
60
0
100
AcDbLine
10
0.32476
20
9.717677
30
0
11
0.32476
21
9.669079
31
0
39
0
210
0
220
0
230
1
0
LINE
5
78
100
AcDbEntity
8
1
62
256
6
ByLayer
370
-1
48
1
60
0
100
AcDbLine
10
0.346266
20
8.217918
30
0
11
0.346266
21
8.062304
31
0
39
0
210
0
220
0
230
1
0
LINE
5
79
100
AcDbEntity
8
1
62
256
6
ByLayer
370
-1
48
1
60
0
100
AcDbLine
10
0.346266
20
-8.062304
30
0
11
0.346266
21
-8.217918
31
0
39
0
210
0
220
0
230
1
0
LINE
5
7A
100
AcDbEntity
8
1
62
256
6
ByLayer
370
-1
48
1
60
0
100
AcDbLine
10
0.346266
20
-8.819404
30
0
11
0.346266
21
-8.930438
31
0
39
0
210
0
220
0
230
1
0
LINE
5
7B
100
AcDbEntity
8
1
62
256
6
ByLayer
370
-1
48
1
60
0
100
AcDbLine
10
0.346266
20
8.930438
30
0
11
0.346266
21
8.819404
31
0
39
0
210
0
220
0
230
1
0
LINE
5
7C
100
AcDbEntity
8
SK1
62
256
6
ByLayer
370
-1
48
1
60
0
100
AcDbLine
10
-0.238766
20
-7.962459
30
0
11
-0.238766
21
-8.442864
31
0
39
0
210
0
220
0
230
1
0
LINE
5
7D
100
AcDbEntity
8
SK1
62
256
6
ByLayer
370
-1
48
1
60
0
100
AcDbLine
10
-0.238766
20
8.442864
30
0
11
-0.238766
21
7.962459
31
0
39
0
210
0
220
0
230
1
0
LINE
5
7E
100
AcDbEntity
8
SK1
62
256
6
ByLayer
370
-1
48
1
60
0
100
AcDbLine
10
-0.298766
20
8.42456
30
0
11
-0.298766
21
7.827732
31
0
39
0
210
0
220
0
230
1
0
LINE
5
7F
100
AcDbEntity
8
SK1
62
256
6
ByLayer
370
-1
48
1
60
0
100
AcDbLine
10
-0.298766
20
7.202903
30
0
11
-0.298766
21
7.129703
31
0
39
0
210
0
220
0
230
1
0
LINE
5
80
100
AcDbEntity
8
SK1
62
256
6
ByLayer
370
-1
48
1
60
0
100
AcDbLine
10
-0.298766
20
-7.129703
30
0
11
-0.298766
21
-7.202903
31
0
39
0
210
0
220
0
230
1
0
LINE
5
81
100
AcDbEntity
8
SK1
62
256
6
ByLayer
370
-1
48
1
60
0
100
AcDbLine
10
-0.298766
20
-7.827732
30
0
11
-0.298766
21
-8.42456
31
0
39
0
210
0
220
0
230
1
0
LINE
5
82
100
AcDbEntity
8
1
62
256
6
ByLayer
370
-1
48
1
60
0
100
AcDbLine
10
0.346266
20
-9.350829
30
0
11
0.346266
21
-9.42583
31
0
39
0
210
0
220
0
230
1
0
LINE
5
83
100
AcDbEntity
8
1
62
256
6
ByLayer
370
-1
48
1
60
0
100
AcDbLine
10
0.346266
20
9.42583
30
0
11
0.346266
21
9.350829
31
0
39
0
210
0
220
0
230
1
0
LINE
5
84
100
AcDbEntity
8
SK1
62
256
6
ByLayer
370
-1
48
1
60
0
100
AcDbLine
10
-0.238766
20
8.91802
30
0
11
-0.238766
21
8.596597
31
0
39
0
210
0
220
0
230
1
0
LINE
5
85
100
AcDbEntity
8
SK1
62
256
6
ByLayer
370
-1
48
1
60
0
100
AcDbLine
10
0
20
-8.641988
30
0
11
0
21
-8.31955
31
0
39
0
210
0
220
0
230
1
0
LINE
5
86
100
AcDbEntity
8
1
62
256
6
ByLayer
370
-1
48
1
60
0
100
AcDbLine
10
22.971445
20
-1.41945
30
0
11
18.797495
21
0.972307
31
0
39
0
210
0
220
0
230
1
0
LINE
5
87
100
AcDbEntity
8
1
62
256
6
ByLayer
370
-1
48
1
60
0
100
AcDbLine
10
15.284203
20
2.985493
30
0
11
14.623545
21
3.364063
31
0
39
0
210
0
220
0
230
1
0
LINE
5
88
100
AcDbEntity
8
SK1
62
256
6
ByLayer
370
-1
48
1
60
0
100
AcDbLine
10
-0.298766
20
-6.304262
30
0
11
-0.298766
21
-6.607667
31
0
39
0
210
0
220
0
230
1
0
LINE
5
89
100
AcDbEntity
8
SK1
62
256
6
ByLayer
370
-1
48
1
60
0
100
AcDbLine
10
-0.298766
20
-6.883882
30
0
11
-0.298766
21
-7.082037
31
0
39
0
210
0
220
0
230
1
0
LINE
5
8A
100
AcDbEntity
8
SK1
62
256
6
ByLayer
370
-1
48
1
60
0
100
AcDbLine
10
-0.298766
20
-8.487275
30
0
11
-0.298766
21
-8.886086
31
0
39
0
210
0
220
0
230
1
0
LINE
5
8B
100
AcDbEntity
8
SK1
62
256
6
ByLayer
370
-1
48
1
60
0
100
AcDbLine
10
-0.298766
20
8.886086
30
0
11
-0.298766
21
8.487275
31
0
39
0
210
0
220
0
230
1
0
LINE
5
8C
100
AcDbEntity
8
SK1
62
256
6
ByLayer
370
-1
48
1
60
0
100
AcDbLine
10
-0.298766
20
7.082037
30
0
11
-0.298766
21
6.883882
31
0
39
0
210
0
220
0
230
1
0
LINE
5
8D
100
AcDbEntity
8
SK1
62
256
6
ByLayer
370
-1
48
1
60
0
100
AcDbLine
10
-0.298766
20
6.607667
30
0
11
-0.298766
21
6.304262
31
0
39
0
210
0
220
0
230
1
0
LINE
5
8E
100
AcDbEntity
8
1
62
256
6
ByLayer
370
-1
48
1
60
0
100
AcDbLine
10
0.346266
20
9.737289
30
0
11
0.346266
21
9.693794
31
0
39
0
210
0
220
0
230
1
0
LINE
5
8F
100
AcDbEntity
8
1
62
256
6
ByLayer
370
-1
48
1
60
0
100
AcDbLine
10
0.346266
20
-9.693794
30
0
11
0.346266
21
-9.737289
31
0
39
0
210
0
220
0
230
1
0
LINE
5
90
100
AcDbEntity
8
1
62
256
6
ByLayer
370
-1
48
1
60
0
100
AcDbLine
10
0
20
9.125662
30
0
11
0
21
8.909037
31
0
39
0
210
0
220
0
230
1
0
LINE
5
91
100
AcDbEntity
8
1
62
256
6
ByLayer
370
-1
48
1
60
0
100
AcDbLine
10
0.32476
20
-9.669079
30
0
11
0.32476
21
-9.717677
31
0
39
0
210
0
220
0
230
1
0
LINE
5
92
100
AcDbEntity
8
1
62
256
6
ByLayer
370
-1
48
1
60
0
100
AcDbLine
10
9.873218
20
10
30
0
11
9.873218
21
9.905857
31
0
39
0
210
0
220
0
230
1
0
LINE
5
93
100
AcDbEntity
8
1
62
256
6
ByLayer
370
-1
48
1
60
0
100
AcDbLine
10
6.501012
20
9.845684
30
0
11
7.634598
21
9.845684
31
0
39
0
210
0
220
0
230
1
0
LINE
5
94
100
AcDbEntity
8
1
62
256
6
ByLayer
370
-1
48
1
60
0
100
AcDbLine
10
6.165135
20
-9.845684
30
0
11
5.958882
21
-9.845684
31
0
39
0
210
0
220
0
230
1
0
LINE
5
95
100
AcDbEntity
8
1
62
256
6
ByLayer
370
-1
48
1
60
0
100
AcDbLine
10
7.820203
20
9.895417
30
0
11
8.210512
21
10
31
0
39
0
210
0
220
0
230
1
0
LINE
5
96
100
AcDbEntity
8
SK1
62
256
6
ByLayer
370
-1
48
1
60
0
100
AcDbLine
10
-0.298766
20
-5.51158
30
0
11
-0.298766
21
-6.120762
31
0
39
0
210
0
220
0
230
1
0
LINE
5
97
100
AcDbEntity
8
SK1
62
256
6
ByLayer
370
-1
48
1
60
0
100
AcDbLine
10
-0.298766
20
6.120762
30
0
11
-0.298766
21
5.51158
31
0
39
0
210
0
220
0
230
1
0
LINE
5
98
100
AcDbEntity
8
1
62
256
6
ByLayer
370
-1
48
1
60
0
100
AcDbLine
10
15.216545
20
8.426068
30
0
11
15.273771
21
8.648832
31
0
39
0
210
0
220
0
230
1
0
LINE
5
99
100
AcDbEntity
8
1
62
256
6
ByLayer
370
-1
48
1
60
0
100
AcDbLine
10
12.419371
20
6.805531
30
0
11
14.77273
21
8.133959
31
0
39
0
210
0
220
0
230
1
0
LINE
5
9A
100
AcDbEntity
8
1
62
256
6
ByLayer
370
-1
48
1
60
0
100
AcDbLine
10
16.268585
20
9.018191
30
0
11
16.268585
21
9.067044
31
0
39
0
210
0
220
0
230
1
0
LINE
5
9B
100
AcDbEntity
8
1
62
256
6
ByLayer
370
-1
48
1
60
0
100
AcDbLine
10
22.750709
20
-3.675818
30
0
11
22.750709
21
-3.489312
31
0
39
0
210
0
220
0
230
1
0
LINE
5
9C
100
AcDbEntity
8
1
62
256
6
ByLayer
370
-1
48
1
60
0
100
AcDbLine
10
12.328858
20
6.697055
30
0
11
13.199288
21
7.188397
31
0
39
0
210
0
220
0
230
1
0
LINE
5
9D
100
AcDbEntity
8
1
62
256
6
ByLayer
370
-1
48
1
60
0
100
AcDbLine
10
13.25964
20
7.222464
30
0
11
14.530722
21
7.939967
31
0
39
0
210
0
220
0
230
1
0
LINE
5
9E
100
AcDbEntity
8
1
62
256
6
ByLayer
370
-1
48
1
60
0
100
AcDbLine
10
15.580367
20
9.649697
30
0
11
15.580367
21
8.630904
31
0
39
0
210
0
220
0
230
1
0
LINE
5
9F
100
AcDbEntity
8
1
62
256
6
ByLayer
370
-1
48
1
60
0
100
AcDbLine
10
24.550165
20
1.584837
30
0
11
24.550165
21
1.019727
31
0
39
0
210
0
220
0
230
1
0
LINE
5
A0
100
AcDbEntity
8
1
62
256
6
ByLayer
370
-1
48
1
60
0
100
AcDbLine
10
24.550165
20
0.967216
30
0
11
24.550165
21
-3.191096
31
0
39
0
210
0
220
0
230
1
0
LINE
5
A1
100
AcDbEntity
8
1
62
256
6
ByLayer
370
-1
48
1
60
0
100
AcDbLine
10
17.376658
20
9.642029
30
0
11
15.580367
21
9.649697
31
0
39
0
210
0
220
0
230
1
0
LINE
5
A2
100
AcDbEntity
8
1
62
256
6
ByLayer
370
-1
48
1
60
0
100
AcDbLine
10
0
20
5.491149
30
0
11
0
21
4.471683
31
0
39
0
210
0
220
0
230
1
0
LINE
5
A3
100
AcDbEntity
8
1
62
256
6
ByLayer
370
-1
48
1
60
0
100
AcDbLine
10
0
20
-4.471683
30
0
11
0
21
-5.491149
31
0
39
0
210
0
220
0
230
1
0
LINE
5
A4
100
AcDbEntity
8
1
62
256
6
ByLayer
370
-1
48
1
60
0
100
AcDbLine
10
0
20
6.287119
30
0
11
0
21
6.936964
31
0
39
0
210
0
220
0
230
1
0
LINE
5
A5
100
AcDbEntity
8
1
62
256
6
ByLayer
370
-1
48
1
60
0
100
AcDbLine
10
0
20
-6.936964
30
0
11
0
21
-6.287119
31
0
39
0
210
0
220
0
230
1
0
LINE
5
A6
100
AcDbEntity
8
1
62
256
6
ByLayer
370
-1
48
1
60
0
100
AcDbLine
10
0
20
-7.478899
30
0
11
0
21
-7.935062
31
0
39
0
210
0
220
0
230
1
0
LINE
5
A7
100
AcDbEntity
8
1
62
256
6
ByLayer
370
-1
48
1
60
0
100
AcDbLine
10
0
20
7.935062
30
0
11
0
21
7.478899
31
0
39
0
210
0
220
0
230
1
0
LINE
5
A8
100
AcDbEntity
8
1
62
256
6
ByLayer
370
-1
48
1
60
0
100
AcDbLine
10
0
20
-8.641988
30
0
11
0
21
-8.31955
31
0
39
0
210
0
220
0
230
1
0
LINE
5
A9
100
AcDbEntity
8
1
62
256
6
ByLayer
370
-1
48
1
60
0
100
AcDbLine
10
0
20
8.31955
30
0
11
0
21
8.641988
31
0
39
0
210
0
220
0
230
1
0
LINE
5
AA
100
AcDbEntity
8
1
62
256
6
ByLayer
370
-1
48
1
60
0
100
AcDbLine
10
0
20
-8.909037
30
0
11
0
21
-9.125662
31
0
39
0
210
0
220
0
230
1
0
LINE
5
AB
100
AcDbEntity
8
SK1
62
256
6
ByLayer
370
-1
48
1
60
0
100
AcDbLine
10
0
20
6.287119
30
0
11
0
21
6.936964
31
0
39
0
210
0
220
0
230
1
0
LINE
5
AC
100
AcDbEntity
8
SK1
62
256
6
ByLayer
370
-1
48
1
60
0
100
AcDbLine
10
0
20
-8.909037
30
0
11
0
21
-9.125662
31
0
39
0
210
0
220
0
230
1
0
LINE
5
AD
100
AcDbEntity
8
SK1
62
256
6
ByLayer
370
-1
48
1
60
0
100
AcDbLine
10
0
20
-7.478899
30
0
11
0
21
-7.935062
31
0
39
0
210
0
220
0
230
1
0
LINE
5
AE
100
AcDbEntity
8
SK1
62
256
6
ByLayer
370
-1
48
1
60
0
100
AcDbLine
10
0
20
7.935062
30
0
11
0
21
7.478899
31
0
39
0
210
0
220
0
230
1
0
LINE
5
AF
100
AcDbEntity
8
SK1
62
256
6
ByLayer
370
-1
48
1
60
0
100
AcDbLine
10
0
20
-6.936964
30
0
11
0
21
-6.287119
31
0
39
0
210
0
220
0
230
1
0
LINE
5
B0
100
AcDbEntity
8
SK1
62
256
6
ByLayer
370
-1
48
1
60
0
100
AcDbLine
10
0
20
5.491149
30
0
11
0
21
4.471683
31
0
39
0
210
0
220
0
230
1
0
LINE
5
B1
100
AcDbEntity
8
SK1
62
256
6
ByLayer
370
-1
48
1
60
0
100
AcDbLine
10
0
20
-4.471683
30
0
11
0
21
-5.491149
31
0
39
0
210
0
220
0
230
1
0
LINE
5
B2
100
AcDbEntity
8
SK1
62
256
6
ByLayer
370
-1
48
1
60
0
100
AcDbLine
10
0
20
8.31955
30
0
11
0
21
8.641988
31
0
39
0
210
0
220
0
230
1
0
LINE
5
B3
100
AcDbEntity
8
SK1
62
256
6
ByLayer
370
-1
48
1
60
0
100
AcDbLine
10
-0.238766
20
-6.332091
30
0
11
-0.238766
21
-6.429912
31
0
39
0
210
0
220
0
230
1
0
LINE
5
B4
100
AcDbEntity
8
SK1
62
256
6
ByLayer
370
-1
48
1
60
0
100
AcDbLine
10
-0.238766
20
-8.596597
30
0
11
-0.238766
21
-8.91802
31
0
39
0
210
0
220
0
230
1
0
LINE
5
B5
100
AcDbEntity
8
SK1
62
256
6
ByLayer
370
-1
48
1
60
0
100
AcDbLine
10
0
20
4.471741
30
0
11
0
21
3.009811
31
0
39
0
210
0
220
0
230
1
0
LINE
5
B6
100
AcDbEntity
8
SK1
62
256
6
ByLayer
370
-1
48
1
60
0
100
AcDbLine
10
0
20
6.287107
30
0
11
0
21
5.491149
31
0
39
0
210
0
220
0
230
1
0
LINE
5
B7
100
AcDbEntity
8
SK1
62
256
6
ByLayer
370
-1
48
1
60
0
100
AcDbLine
10
0
20
7.478901
30
0
11
0
21
6.936964
31
0
39
0
210
0
220
0
230
1
0
LINE
5
B8
100
AcDbEntity
8
SK1
62
256
6
ByLayer
370
-1
48
1
60
0
100
AcDbLine
10
0
20
8.319568
30
0
11
0
21
7.935062
31
0
39
0
210
0
220
0
230
1
0
LINE
5
B9
100
AcDbEntity
8
SK1
62
256
6
ByLayer
370
-1
48
1
60
0
100
AcDbLine
10
0
20
8.909066
30
0
11
0
21
8.641988
31
0
39
0
210
0
220
0
230
1
0
LINE
5
BA
100
AcDbEntity
8
SK1
62
256
6
ByLayer
370
-1
48
1
60
0
100
AcDbLine
10
-0.298766
20
2.786748
30
0
11
-0.298766
21
3.200211
31
0
39
0
210
0
220
0
230
1
0
LINE
5
BB
100
AcDbEntity
8
1
62
256
6
ByLayer
370
-1
48
1
60
0
100
AcDbLine
10
0
20
-9.125662
30
0
11
0
21
-9.295306
31
0
39
0
210
0
220
0
230
1
0
LINE
5
BC
100
AcDbEntity
8
SK1
62
256
6
ByLayer
370
-1
48
1
60
0
100
AcDbLine
10
0
20
-3.009811
30
0
11
0
21
-4.471741
31
0
39
0
210
0
220
0
230
1
0
LINE
5
BD
100
AcDbEntity
8
1
62
256
6
ByLayer
370
-1
48
1
60
0
100
AcDbLine
10
0
20
-7.935062
30
0
11
0
21
-8.319568
31
0
39
0
210
0
220
0
230
1
0
LINE
5
BE
100
AcDbEntity
8
1
62
256
6
ByLayer
370
-1
48
1
60
0
100
AcDbLine
10
0
20
-3.009811
30
0
11
0
21
3.009811
31
0
39
0
210
0
220
0
230
1
0
LINE
5
BF
100
AcDbEntity
8
1
62
256
6
ByLayer
370
-1
48
1
60
0
100
AcDbLine
10
0
20
4.471741
30
0
11
0
21
3.009811
31
0
39
0
210
0
220
0
230
1
0
LINE
5
C0
100
AcDbEntity
8
1
62
256
6
ByLayer
370
-1
48
1
60
0
100
AcDbLine
10
0
20
-3.009811
30
0
11
0
21
-4.471741
31
0
39
0
210
0
220
0
230
1
0
LINE
5
C1
100
AcDbEntity
8
SK1
62
256
6
ByLayer
370
-1
48
1
60
0
100
AcDbLine
10
0
20
-5.491149
30
0
11
0
21
-6.287107
31
0
39
0
210
0
220
0
230
1
0
LINE
5
C2
100
AcDbEntity
8
1
62
256
6
ByLayer
370
-1
48
1
60
0
100
AcDbLine
10
0
20
-6.936964
30
0
11
0
21
-7.478901
31
0
39
0
210
0
220
0
230
1
0
LINE
5
C3
100
AcDbEntity
8
SK1
62
256
6
ByLayer
370
-1
48
1
60
0
100
AcDbLine
10
0
20
-3.009811
30
0
11
0
21
3.009811
31
0
39
0
210
0
220
0
230
1
0
LINE
5
C4
100
AcDbEntity
8
SK1
62
256
6
ByLayer
370
-1
48
1
60
0
100
AcDbLine
10
0
20
-9.125662
30
0
11
0
21
-9.295306
31
0
39
0
210
0
220
0
230
1
0
LINE
5
C5
100
AcDbEntity
8
SK1
62
256
6
ByLayer
370
-1
48
1
60
0
100
AcDbLine
10
0
20
-6.936964
30
0
11
0
21
-7.478901
31
0
39
0
210
0
220
0
230
1
0
LINE
5
C6
100
AcDbEntity
8
1
62
256
6
ByLayer
370
-1
48
1
60
0
100
AcDbLine
10
0
20
9.295306
30
0
11
0
21
9.125662
31
0
39
0
210
0
220
0
230
1
0
LINE
5
C7
100
AcDbEntity
8
1
62
256
6
ByLayer
370
-1
48
1
60
0
100
AcDbLine
10
22.971445
20
-3.176502
30
0
11
22.842283
21
-3.125145
31
0
39
0
210
0
220
0
230
1
0
LINE
5
C8
100
AcDbEntity
8
1
62
256
6
ByLayer
370
-1
48
1
60
0
100
AcDbLine
10
12.138822
20
7.990421
30
0
11
14.573138
21
9.348083
31
0
39
0
210
0
220
0
230
1
0
LINE
5
C9
100
AcDbEntity
8
1
62
256
6
ByLayer
370
-1
48
1
60
0
100
AcDbLine
10
24.329811
20
-4.303738
30
0
11
24.226752
21
-4.824119
31
0
39
0
210
0
220
0
230
1
0
LINE
5
CA
100
AcDbEntity
8
1
62
256
6
ByLayer
370
-1
48
1
60
0
100
AcDbLine
10
10.688312
20
10.453051
30
0
11
14.573138
21
10.429851
31
0
39
0
210
0
220
0
230
1
0
LINE
5
CB
100
AcDbEntity
8
1
62
256
6
ByLayer
370
-1
48
1
60
0
100
AcDbLine
10
22.304279
20
-2.031551
30
0
11
22.304279
21
-1.55474
31
0
39
0
210
0
220
0
230
1
0
LINE
5
CC
100
AcDbEntity
8
1
62
256
6
ByLayer
370
-1
48
1
60
0
100
AcDbLine
10
22.653197
20
-3.658032
30
0
11
22.750709
21
-3.675818
31
0
39
0
210
0
220
0
230
1
0
LINE
5
CD
100
AcDbEntity
8
1
62
256
6
ByLayer
370
-1
48
1
60
0
100
AcDbLine
10
22.304279
20
-1.55474
30
0
11
15.264471
21
2.455568
31
0
39
0
210
0
220
0
230
1
0
LINE
5
CE
100
AcDbEntity
8
1
62
256
6
ByLayer
370
-1
48
1
60
0
100
AcDbLine
10
14.573138
20
10.429851
30
0
11
15.273771
21
10.151264
31
0
39
0
210
0
220
0
230
1
0
LINE
5
CF
100
AcDbEntity
8
1
62
256
6
ByLayer
370
-1
48
1
60
0
100
AcDbLine
10
22.653197
20
-3.658032
30
0
11
22.675316
21
-3.501795
31
0
39
0
210
0
220
0
230
1
0
LINE
5
D0
100
AcDbEntity
8
1
62
256
6
ByLayer
370
-1
48
1
60
0
100
AcDbLine
10
22.901725
20
-3.464367
30
0
11
22.971445
21
-3.176502
31
0
39
0
210
0
220
0
230
1
0
LINE
5
D1
100
AcDbEntity
8
1
62
256
6
ByLayer
370
-1
48
1
60
0
100
AcDbLine
10
14.573138
20
10.429851
30
0
11
14.573138
21
9.348083
31
0
39
0
210
0
220
0
230
1
0
LINE
5
D2
100
AcDbEntity
8
1
62
256
6
ByLayer
370
-1
48
1
60
0
100
AcDbLine
10
19.228031
20
-3.776155
30
0
11
24.031544
21
-3.776155
31
0
39
0
210
0
220
0
230
1
0
LINE
5
D3
100
AcDbEntity
8
1
62
256
6
ByLayer
370
-1
48
1
60
0
100
AcDbLine
10
24.050316
20
-3.681366
30
0
11
24.550165
21
-3.191096
31
0
39
0
210
0
220
0
230
1
0
LINE
5
D4
100
AcDbEntity
8
1
62
256
6
ByLayer
370
-1
48
1
60
0
100
AcDbLine
10
22.675316
20
-3.501795
30
0
11
22.901725
21
-3.464367
31
0
39
0
210
0
220
0
230
1
0
LINE
5
D5
100
AcDbEntity
8
1
62
256
6
ByLayer
370
-1
48
1
60
0
100
AcDbLine
10
24.050316
20
-3.681366
30
0
11
22.750709
21
-3.675818
31
0
39
0
210
0
220
0
230
1
0
LINE
5
D6
100
AcDbEntity
8
1
62
256
6
ByLayer
370
-1
48
1
60
0
100
AcDbLine
10
15.273771
20
10.151264
30
0
11
15.273771
21
8.648832
31
0
39
0
210
0
220
0
230
1
0
LINE
5
D7
100
AcDbEntity
8
1
62
256
6
ByLayer
370
-1
48
1
60
0
100
AcDbLine
10
10.486053
20
10.282106
30
0
11
10.486053
21
10.203925
31
0
39
0
210
0
220
0
230
1
0
LINE
5
D8
100
AcDbEntity
8
SK1
62
256
6
ByLayer
370
-1
48
1
60
0
100
AcDbLine
10
-0.298766
20
7.736854
30
0
11
-0.298766
21
7.202885
31
0
39
0
210
0
220
0
230
1
0
LINE
5
D9
100
AcDbEntity
8
1
62
256
6
ByLayer
370
-1
48
1
60
0
100
AcDbLine
10
6.168044
20
-9.452722
30
0
11
5.958903
21
-9.845684
31
0
39
0
210
0
220
0
230
1
0
LINE
5
DA
100
AcDbEntity
8
1
62
256
6
ByLayer
370
-1
48
1
60
0
100
AcDbLine
10
0.450766
20
-9.845684
30
0
11
0.450766
21
9.845684
31
0
39
0
210
0
220
0
230
1
0
LINE
5
DB
100
AcDbEntity
8
1
62
256
6
ByLayer
370
-1
48
1
60
0
100
AcDbLine
10
6.165135
20
-9.845684
30
0
11
6.348536
21
-9.501085
31
0
39
0
210
0
220
0
230
1
0
LINE
5
DC
100
AcDbEntity
8
1
62
256
6
ByLayer
370
-1
48
1
60
0
100
AcDbLine
10
6.348536
20
-9.501085
30
0
11
6.168044
21
-9.452722
31
0
39
0
210
0
220
0
230
1
0
LINE
5
DD
100
AcDbEntity
8
1
62
256
6
ByLayer
370
-1
48
1
60
0
100
AcDbLine
10
7.22359
20
9.735555
30
0
11
6.565761
21
9.55929
31
0
39
0
210
0
220
0
230
1
0
LINE
5
DE
100
AcDbEntity
8
SK1
62
256
6
ByLayer
370
-1
48
1
60
0
100
AcDbLine
10
-0.298766
20
-5.315569
30
0
11
-0.298766
21
-5.511537
31
0
39
0
210
0
220
0
230
1
0
LINE
5
DF
100
AcDbEntity
8
1
62
256
6
ByLayer
370
-1
48
1
60
0
100
AcDbLine
10
0.450766
20
-9.845684
30
0
11
5.958903
21
-9.845684
31
0
39
0
210
0
220
0
230
1
0
LINE
5
E0
100
AcDbEntity
8
1
62
256
6
ByLayer
370
-1
48
1
60
0
100
AcDbLine
10
23.733047
20
-5.28337
30
0
11
11.537561
21
-5.28337
31
0
39
0
210
0
220
0
230
1
0
LINE
5
E1
100
AcDbEntity
8
SK1
62
256
6
ByLayer
370
-1
48
1
60
0
100
AcDbLine
10
-0.298766
20
-7.736854
30
0
11
-0.298766
21
-7.827734
31
0
39
0
210
0
220
0
230
1
0
LINE
5
E2
100
AcDbEntity
8
1
62
256
6
ByLayer
370
-1
48
1
60
0
100
AcDbLine
10
12.419371
20
6.805531
30
0
11
12.474617
21
7.06876
31
0
39
0
210
0
220
0
230
1
0
LINE
5
E3
100
AcDbEntity
8
1
62
256
6
ByLayer
370
-1
48
1
60
0
100
AcDbLine
10
12.138822
20
7.990421
30
0
11
12.474617
21
7.06876
31
0
39
0
210
0
220
0
230
1
0
LINE
5
E4
100
AcDbEntity
8
1
62
256
6
ByLayer
370
-1
48
1
60
0
100
AcDbLine
10
12.474617
20
7.06876
30
0
11
15.273771
21
8.648832
31
0
39
0
210
0
220
0
230
1
0
LINE
5
E5
100
AcDbEntity
8
1
62
256
6
ByLayer
370
-1
48
1
60
0
100
AcDbLine
10
22.971445
20
-3.176502
30
0
11
22.971445
21
-1.41945
31
0
39
0
210
0
220
0
230
1
0
LINE
5
E6
100
AcDbEntity
8
1
62
256
6
ByLayer
370
-1
48
1
60
0
100
AcDbLine
10
22.304279
20
-1.55474
30
0
11
22.971445
21
-1.41945
31
0
39
0
210
0
220
0
230
1
0
LINE
5
E7
100
AcDbEntity
8
1
62
256
6
ByLayer
370
-1
48
1
60
0
100
AcDbLine
10
14.573138
20
9.348083
30
0
11
15.273771
21
8.648832
31
0
39
0
210
0
220
0
230
1
0
LINE
5
E8
100
AcDbEntity
8
1
62
256
6
ByLayer
370
-1
48
1
60
0
100
AcDbLine
10
11.7767
20
6.402562
30
0
11
11.798819
21
6.558798
31
0
39
0
210
0
220
0
230
1
0
LINE
5
E9
100
AcDbEntity
8
SK1
62
256
6
ByLayer
370
-1
48
1
60
0
100
AcDbLine
10
-0.238766
20
-6.429887
30
0
11
-0.238766
21
-6.738598
31
0
39
0
210
0
220
0
230
1
0
LINE
5
EA
100
AcDbEntity
8
SK1
62
256
6
ByLayer
370
-1
48
1
60
0
100
AcDbLine
10
-0.298766
20
7.082009
30
0
11
-0.298766
21
7.129703
31
0
39
0
210
0
220
0
230
1
0
LINE
5
EB
100
AcDbEntity
8
SK1
62
256
6
ByLayer
370
-1
48
1
60
0
100
AcDbLine
10
-0.298766
20
-6.883874
30
0
11
-0.298766
21
-6.754228
31
0
39
0
210
0
220
0
230
1
0
LINE
5
EC
100
AcDbEntity
8
SK1
62
256
6
ByLayer
370
-1
48
1
60
0
100
AcDbLine
10
-0.298766
20
6.304262
30
0
11
-0.298766
21
6.120818
31
0
39
0
210
0
220
0
230
1
0
LINE
5
ED
100
AcDbEntity
8
SK1
62
256
6
ByLayer
370
-1
48
1
60
0
100
AcDbLine
10
-0.298766
20
-8.886086
30
0
11
-0.298766
21
-8.925793
31
0
39
0
210
0
220
0
230
1
0
LINE
5
EE
100
AcDbEntity
8
SK1
62
256
6
ByLayer
370
-1
48
1
60
0
100
AcDbLine
10
-0.298766
20
7.827734
30
0
11
-0.298766
21
7.736854
31
0
39
0
210
0
220
0
230
1
0
LINE
5
EF
100
AcDbEntity
8
1
62
256
6
ByLayer
370
-1
48
1
60
0
100
AcDbLine
10
6.50109
20
9.845684
30
0
11
0.450766
21
9.845684
31
0
39
0
210
0
220
0
230
1
0
LINE
5
F0
100
AcDbEntity
8
1
62
256
6
ByLayer
370
-1
48
1
60
0
100
AcDbLine
10
7.22359
20
9.735555
30
0
11
7.820203
21
9.895417
31
0
39
0
210
0
220
0
230
1
0
LINE
5
F1
100
AcDbEntity
8
SK1
62
256
6
ByLayer
370
-1
48
1
60
0
100
AcDbLine
10
-0.298766
20
8.42456
30
0
11
-0.298766
21
8.48729
31
0
39
0
210
0
220
0
230
1
0
LINE
5
F2
100
AcDbEntity
8
1
62
256
6
ByLayer
370
-1
48
1
60
0
100
AcDbLine
10
24.550165
20
-3.191096
30
0
11
24.528557
21
-3.300202
31
0
39
0
210
0
220
0
230
1
0
LINE
5
F3
100
AcDbEntity
8
1
62
256
6
ByLayer
370
-1
48
1
60
0
100
AcDbLine
10
7.225632
20
-1.794175
30
0
11
7.224929
21
2.175193
31
0
39
0
210
0
220
0
230
1
0
LINE
5
F4
100
AcDbEntity
8
SK1
62
256
6
ByLayer
370
-1
48
1
60
0
100
AcDbLine
10
-0.238766
20
6.738598
30
0
11
-0.238766
21
6.429887
31
0
39
0
210
0
220
0
230
1
0
LINE
5
F5
100
AcDbEntity
8
SK1
62
256
6
ByLayer
370
-1
48
1
60
0
100
AcDbLine
10
-0.298766
20
-7.129703
30
0
11
-0.298766
21
-7.082009
31
0
39
0
210
0
220
0
230
1
0
LINE
5
F6
100
AcDbEntity
8
SK1
62
256
6
ByLayer
370
-1
48
1
60
0
100
AcDbLine
10
-0.238766
20
2.652445
30
0
11
-0.238766
21
-2.652445
31
0
39
0
210
0
220
0
230
1
0
LINE
5
F7
100
AcDbEntity
8
1
62
256
6
ByLayer
370
-1
48
1
60
0
100
AcDbLine
10
24.413067
20
1.271884
30
0
11
24.528323
21
1.07962
31
0
39
0
210
0
220
0
230
1
0
LINE
5
F8
100
AcDbEntity
8
1
62
256
6
ByLayer
370
-1
48
1
60
0
100
AcDbLine
10
24.188693
20
-1.552104
30
0
11
24.20285
21
-1.528027
31
0
39
0
210
0
220
0
230
1
0
LINE
5
F9
100
AcDbEntity
8
1
62
256
6
ByLayer
370
-1
48
1
60
0
100
AcDbLine
10
12.566382
20
5.523424
30
0
11
12.430533
21
4.837473
31
0
39
0
210
0
220
0
230
1
0
LINE
5
FA
100
AcDbEntity
8
1
62
256
6
ByLayer
370
-1
48
1
60
0
100
AcDbLine
10
12.395209
20
5.625951
30
0
11
12.25876
21
4.936975
31
0
39
0
210
0
220
0
230
1
0
LINE
5
FB
100
AcDbEntity
8
1
62
256
6
ByLayer
370
-1
48
1
60
0
100
AcDbLine
10
13.871073
20
3.789349
30
0
11
14.262025
21
3.784451
31
0
39
0
210
0
220
0
230
1
0
LINE
5
FC
100
AcDbEntity
8
1
62
256
6
ByLayer
370
-1
48
1
60
0
100
AcDbLine
10
24.60904
20
2.185324
30
0
11
24.979587
21
2.815541
31
0
39
0
210
0
220
0
230
1
0
LINE
5
FD
100
AcDbEntity
8
1
62
256
6
ByLayer
370
-1
48
1
60
0
100
AcDbLine
10
21.452126
20
-0.411774
30
0
11
21.775701
21
-0.597793
31
0
39
0
210
0
220
0
230
1
0
LINE
5
FE
100
AcDbEntity
8
1
62
256
6
ByLayer
370
-1
48
1
60
0
100
AcDbLine
10
14.615534
20
4.360887
30
0
11
14.476741
21
3.660073
31
0
39
0
210
0
220
0
230
1
0
LINE
5
FF
100
AcDbEntity
8
1
62
256
6
ByLayer
370
-1
48
1
60
0
100
AcDbLine
10
23.030746
20
-0.657218
30
0
11
23.608423
21
-0.641702
31
0
39
0
210
0
220
0
230
1
0
LINE
5
100
100
AcDbEntity
8
1
62
256
6
ByLayer
370
-1
48
1
60
0
100
AcDbLine
10
14.240632
20
7.754865
30
0
11
13.917057
21
7.57271
31
0
39
0
210
0
220
0
230
1
0
LINE
5
101
100
AcDbEntity
8
1
62
256
6
ByLayer
370
-1
48
1
60
0
100
AcDbLine
10
21.269746
20
11.373966
30
0
11
20.528653
21
11.378392
31
0
39
0
210
0
220
0
230
1
0
LINE
5
102
100
AcDbEntity
8
1
62
256
6
ByLayer
370
-1
48
1
60
0
100
AcDbLine
10
13.381741
20
4.75741
30
0
11
13.403742
21
4.719729
31
0
39
0
210
0
220
0
230
1
0
LINE
5
103
100
AcDbEntity
8
1
62
256
6
ByLayer
370
-1
48
1
60
0
100
AcDbLine
10
13.469947
20
6.734796
30
0
11
13.80639
21
6.537621
31
0
39
0
210
0
220
0
230
1
0
LINE
5
104
100
AcDbEntity
8
1
62
256
6
ByLayer
370
-1
48
1
60
0
100
AcDbLine
10
13.848499
20
4.545527
30
0
11
13.716477
21
3.878901
31
0
39
0
210
0
220
0
230
1
0
LINE
5
105
100
AcDbEntity
8
1
62
256
6
ByLayer
370
-1
48
1
60
0
100
AcDbLine
10
20.403726
20
11.346153
30
0
11
18.711365
21
10.39345
31
0
39
0
210
0
220
0
230
1
0
LINE
5
106
100
AcDbEntity
8
1
62
256
6
ByLayer
370
-1
48
1
60
0
100
AcDbLine
10
17.791529
20
9.838385
30
0
11
18.354719
21
10.160297
31
0
39
0
210
0
220
0
230
1
0
LINE
5
107
100
AcDbEntity
8
1
62
256
6
ByLayer
370
-1
48
1
60
0
100
AcDbLine
10
25.008555
20
5.045874
30
0
11
25.011806
21
4.954374
31
0
39
0
210
0
220
0
230
1
0
LINE
5
108
100
AcDbEntity
8
1
62
256
6
ByLayer
370
-1
48
1
60
0
100
AcDbLine
10
17.210975
20
2.153778
30
0
11
17.119381
21
2.224721
31
0
39
0
210
0
220
0
230
1
0
LINE
5
109
100
AcDbEntity
8
1
62
256
6
ByLayer
370
-1
48
1
60
0
100
AcDbLine
10
13.848499
20
4.545527
30
0
11
13.539213
21
5.075246
31
0
39
0
210
0
220
0
230
1
0
LINE
5
10A
100
AcDbEntity
8
1
62
256
6
ByLayer
370
-1
48
1
60
0
100
AcDbLine
10
13.857195
20
7.539949
30
0
11
14.17588
21
7.323414
31
0
39
0
210
0
220
0
230
1
0
LINE
5
10B
100
AcDbEntity
8
1
62
256
6
ByLayer
370
-1
48
1
60
0
100
AcDbLine
10
18.112419
20
1.625931
30
0
11
18.344134
21
2.428898
31
0
39
0
210
0
220
0
230
1
0
LINE
5
10C
100
AcDbEntity
8
1
62
256
6
ByLayer
370
-1
48
1
60
0
100
AcDbLine
10
14.901227
20
8.237237
30
0
11
14.75719
21
4.17367
31
0
39
0
210
0
220
0
230
1
0
LINE
5
10D
100
AcDbEntity
8
1
62
256
6
ByLayer
370
-1
48
1
60
0
100
AcDbLine
10
21.152877
20
-0.206761
30
0
11
20.840789
21
0.078194
31
0
39
0
210
0
220
0
230
1
0
LINE
5
10E
100
AcDbEntity
8
1
62
256
6
ByLayer
370
-1
48
1
60
0
100
AcDbLine
10
12.244604
20
4.961221
30
0
11
12.25876
21
4.936975
31
0
39
0
210
0
220
0
230
1
0
LINE
5
10F
100
AcDbEntity
8
1
62
256
6
ByLayer
370
-1
48
1
60
0
100
AcDbLine
10
18.625173
20
10.339301
30
0
11
18.903021
21
9.903386
31
0
39
0
210
0
220
0
230
1
0
LINE
5
110
100
AcDbEntity
8
1
62
256
6
ByLayer
370
-1
48
1
60
0
100
AcDbLine
10
18.1986
20
9.191128
30
0
11
17.463331
21
9.685354
31
0
39
0
210
0
220
0
230
1
0
LINE
5
111
100
AcDbEntity
8
1
62
256
6
ByLayer
370
-1
48
1
60
0
100
AcDbLine
10
25.013061
20
6.389238
30
0
11
25.013061
21
9.046704
31
0
39
0
210
0
220
0
230
1
0
LINE
5
112
100
AcDbEntity
8
1
62
256
6
ByLayer
370
-1
48
1
60
0
100
AcDbLine
10
13.393002
20
5.491063
30
0
11
12.566382
21
5.523424
31
0
39
0
210
0
220
0
230
1
0
LINE
5
113
100
AcDbEntity
8
1
62
256
6
ByLayer
370
-1
48
1
60
0
100
AcDbLine
10
13.539213
20
5.075246
30
0
11
13.407191
21
4.40862
31
0
39
0
210
0
220
0
230
1
0
LINE
5
114
100
AcDbEntity
8
1
62
256
6
ByLayer
370
-1
48
1
60
0
100
AcDbLine
10
17.463331
20
9.685354
30
0
11
17.622212
21
9.752431
31
0
39
0
210
0
220
0
230
1
0
LINE
5
115
100
AcDbEntity
8
1
62
256
6
ByLayer
370
-1
48
1
60
0
100
AcDbLine
10
21.835981
20
-0.631271
30
0
11
21.859123
21
-0.259099
31
0
39
0
210
0
220
0
230
1
0
LINE
5
116
100
AcDbEntity
8
1
62
256
6
ByLayer
370
-1
48
1
60
0
100
AcDbLine
10
24.323617
20
11.216391
30
0
11
23.987375
21
11.018821
31
0
39
0
210
0
220
0
230
1
0
LINE
5
117
100
AcDbEntity
8
1
62
256
6
ByLayer
370
-1
48
1
60
0
100
AcDbLine
10
12.379792
20
5.843
30
0
11
13.132508
21
7.116421
31
0
39
0
210
0
220
0
230
1
0
LINE
5
118
100
AcDbEntity
8
1
62
256
6
ByLayer
370
-1
48
1
60
0
100
AcDbLine
10
24.068882
20
-0.868895
30
0
11
23.021752
21
-0.897021
31
0
39
0
210
0
220
0
230
1
0
LINE
5
119
100
AcDbEntity
8
1
62
256
6
ByLayer
370
-1
48
1
60
0
100
AcDbLine
10
14.75719
20
4.17367
30
0
11
14.615534
21
4.360887
31
0
39
0
210
0
220
0
230
1
0
LINE
5
11A
100
AcDbEntity
8
1
62
256
6
ByLayer
370
-1
48
1
60
0
100
AcDbLine
10
24.484893
20
1.965728
30
0
11
24.343237
21
1.69737
31
0
39
0
210
0
220
0
230
1
0
LINE
5
11B
100
AcDbEntity
8
1
62
256
6
ByLayer
370
-1
48
1
60
0
100
AcDbLine
10
17.36211
20
2.677507
30
0
11
17.210975
21
2.153778
31
0
39
0
210
0
220
0
230
1
0
LINE
5
11C
100
AcDbEntity
8
1
62
256
6
ByLayer
370
-1
48
1
60
0
100
AcDbLine
10
23.924318
20
0.046096
30
0
11
24.33936
21
-0.646256
31
0
39
0
210
0
220
0
230
1
0
LINE
5
11D
100
AcDbEntity
8
1
62
256
6
ByLayer
370
-1
48
1
60
0
100
AcDbLine
10
23.690686
20
0.240685
30
0
11
23.463484
21
0.078771
31
0
39
0
210
0
220
0
230
1
0
LINE
5
11E
100
AcDbEntity
8
1
62
256
6
ByLayer
370
-1
48
1
60
0
100
AcDbLine
10
18.903021
20
9.903386
30
0
11
18.527076
21
10.269491
31
0
39
0
210
0
220
0
230
1
0
LINE
5
11F
100
AcDbEntity
8
1
62
256
6
ByLayer
370
-1
48
1
60
0
100
AcDbLine
10
23.869898
20
4.987244
30
0
11
23.6962
21
5.585187
31
0
39
0
210
0
220
0
230
1
0
LINE
5
120
100
AcDbEntity
8
1
62
256
6
ByLayer
370
-1
48
1
60
0
100
AcDbLine
10
17.377908
20
2.042557
30
0
11
17.70977
21
3.192564
31
0
39
0
210
0
220
0
230
1
0
LINE
5
121
100
AcDbEntity
8
1
62
256
6
ByLayer
370
-1
48
1
60
0
100
AcDbLine
10
24.186582
20
12.451082
30
0
11
24.957039
21
11.097242
31
0
39
0
210
0
220
0
230
1
0
LINE
5
122
100
AcDbEntity
8
1
62
256
6
ByLayer
370
-1
48
1
60
0
100
AcDbLine
10
24.991772
20
9.465443
30
0
11
25.010537
21
9.18374
31
0
39
0
210
0
220
0
230
1
0
LINE
5
123
100
AcDbEntity
8
1
62
256
6
ByLayer
370
-1
48
1
60
0
100
AcDbLine
10
21.510471
20
11.359772
30
0
11
21.769204
21
11.316811
31
0
39
0
210
0
220
0
230
1
0
LINE
5
124
100
AcDbEntity
8
1
62
256
6
ByLayer
370
-1
48
1
60
0
100
AcDbLine
10
18.354719
20
10.160297
30
0
11
19.18022
21
9.356401
31
0
39
0
210
0
220
0
230
1
0
LINE
5
125
100
AcDbEntity
8
1
62
256
6
ByLayer
370
-1
48
1
60
0
100
AcDbLine
10
23.859996
20
10.800856
30
0
11
23.526136
21
11.002427
31
0
39
0
210
0
220
0
230
1
0
LINE
5
126
100
AcDbEntity
8
1
62
256
6
ByLayer
370
-1
48
1
60
0
100
AcDbLine
10
15.343336
20
3.2528
30
0
11
17.035697
21
2.279884
31
0
39
0
210
0
220
0
230
1
0
LINE
5
127
100
AcDbEntity
8
1
62
256
6
ByLayer
370
-1
48
1
60
0
100
AcDbLine
10
22.766681
20
-0.532512
30
0
11
22.762905
21
-0.15581
31
0
39
0
210
0
220
0
230
1
0
LINE
5
128
100
AcDbEntity
8
1
62
256
6
ByLayer
370
-1
48
1
60
0
100
AcDbLine
10
23.36852
20
0.01653
30
0
11
23.655549
21
-0.462278
31
0
39
0
210
0
220
0
230
1
0
LINE
5
129
100
AcDbEntity
8
1
62
256
6
ByLayer
370
-1
48
1
60
0
100
AcDbLine
10
12.648794
20
5.617139
30
0
11
13.095911
21
5.838912
31
0
39
0
210
0
220
0
230
1
0
LINE
5
12A
100
AcDbEntity
8
1
62
256
6
ByLayer
370
-1
48
1
60
0
100
AcDbLine
10
18.742469
20
8.912334
30
0
11
17.791529
21
9.838385
31
0
39
0
210
0
220
0
230
1
0
LINE
5
12B
100
AcDbEntity
8
1
62
256
6
ByLayer
370
-1
48
1
60
0
100
AcDbLine
10
14.504013
20
7.365728
30
0
11
14.551608
21
7.956233
31
0
39
0
210
0
220
0
230
1
0
LINE
5
12C
100
AcDbEntity
8
1
62
256
6
ByLayer
370
-1
48
1
60
0
100
AcDbLine
10
13.407191
20
4.40862
30
0
11
13.716477
21
3.878901
31
0
39
0
210
0
220
0
230
1
0
LINE
5
12D
100
AcDbEntity
8
1
62
256
6
ByLayer
370
-1
48
1
60
0
100
AcDbLine
10
17.276647
20
2.729353
30
0
11
17.035697
21
2.279884
31
0
39
0
210
0
220
0
230
1
0
LINE
5
12E
100
AcDbEntity
8
1
62
256
6
ByLayer
370
-1
48
1
60
0
100
AcDbLine
10
25.004758
20
5.85931
30
0
11
25.005843
21
5.225207
31
0
39
0
210
0
220
0
230
1
0
LINE
5
12F
100
AcDbEntity
8
1
62
256
6
ByLayer
370
-1
48
1
60
0
100
AcDbLine
10
14.209912
20
7.373725
30
0
11
13.917057
21
7.57271
31
0
39
0
210
0
220
0
230
1
0
LINE
5
130
100
AcDbEntity
8
1
62
256
6
ByLayer
370
-1
48
1
60
0
100
AcDbLine
10
24.986117
20
10.220582
30
0
11
24.641187
21
10.049272
31
0
39
0
210
0
220
0
230
1
0
LINE
5
131
100
AcDbEntity
8
1
62
256
6
ByLayer
370
-1
48
1
60
0
100
AcDbLine
10
24.339298
20
-0.839051
30
0
11
24.325142
21
-0.863128
31
0
39
0
210
0
220
0
230
1
0
LINE
5
132
100
AcDbEntity
8
1
62
256
6
ByLayer
370
-1
48
1
60
0
100
AcDbLine
10
21.687145
20
0.034913
30
0
11
21.152877
21
-0.206761
31
0
39
0
210
0
220
0
230
1
0
LINE
5
133
100
AcDbEntity
8
1
62
256
6
ByLayer
370
-1
48
1
60
0
100
AcDbLine
10
24.134674
20
11.777677
30
0
11
24.141345
21
12.327694
31
0
39
0
210
0
220
0
230
1
0
LINE
5
134
100
AcDbEntity
8
1
62
256
6
ByLayer
370
-1
48
1
60
0
100
AcDbLine
10
13.936526
20
6.314735
30
0
11
13.935133
21
5.938064
31
0
39
0
210
0
220
0
230
1
0
LINE
5
135
100
AcDbEntity
8
1
62
256
6
ByLayer
370
-1
48
1
60
0
100
AcDbLine
10
14.240632
20
7.754865
30
0
11
14.209912
21
7.373725
31
0
39
0
210
0
220
0
230
1
0
LINE
5
136
100
AcDbEntity
8
1
62
256
6
ByLayer
370
-1
48
1
60
0
100
AcDbLine
10
13.512824
20
5.419294
30
0
11
13.381741
21
4.75741
31
0
39
0
210
0
220
0
230
1
0
LINE
5
137
100
AcDbEntity
8
1
62
256
6
ByLayer
370
-1
48
1
60
0
100
AcDbLine
10
14.881337
20
3.978105
30
0
11
15.035384
21
8.324081
31
0
39
0
210
0
220
0
230
1
0
LINE
5
138
100
AcDbEntity
8
1
62
256
6
ByLayer
370
-1
48
1
60
0
100
AcDbLine
10
25.013061
20
2.938442
30
0
11
25.013061
21
4.864061
31
0
39
0
210
0
220
0
230
1
0
LINE
5
139
100
AcDbEntity
8
1
62
256
6
ByLayer
370
-1
48
1
60
0
100
AcDbLine
10
24.641187
20
10.049272
30
0
11
22.05725
21
11.529899
31
0
39
0
210
0
220
0
230
1
0
LINE
5
13A
100
AcDbEntity
8
1
62
256
6
ByLayer
370
-1
48
1
60
0
100
AcDbLine
10
18.376122
20
1.509291
30
0
11
20.711678
21
0.16661
31
0
39
0
210
0
220
0
230
1
0
LINE
5
13B
100
AcDbEntity
8
1
62
256
6
ByLayer
370
-1
48
1
60
0
100
AcDbLine
10
23.850492
20
11.779374
30
0
11
23.556839
21
11.277406
31
0
39
0
210
0
220
0
230
1
0
LINE
5
13C
100
AcDbEntity
8
1
62
256
6
ByLayer
370
-1
48
1
60
0
100
AcDbLine
10
13.685026
20
5.576572
30
0
11
13.667576
21
5.816532
31
0
39
0
210
0
220
0
230
1
0
LINE
5
13D
100
AcDbEntity
8
1
62
256
6
ByLayer
370
-1
48
1
60
0
100
AcDbLine
10
13.016091
20
6.722267
30
0
11
13.234838
21
6.55769
31
0
39
0
210
0
220
0
230
1
0
LINE
5
13E
100
AcDbEntity
8
1
62
256
6
ByLayer
370
-1
48
1
60
0
100
AcDbLine
10
24.668935
20
9.99375
30
0
11
24.985908
21
10.151175
31
0
39
0
210
0
220
0
230
1
0
LINE
5
13F
100
AcDbEntity
8
1
62
256
6
ByLayer
370
-1
48
1
60
0
100
AcDbLine
10
13.393002
20
5.491063
30
0
11
13.2615
21
4.827062
31
0
39
0
210
0
220
0
230
1
0
LINE
5
140
100
AcDbEntity
8
1
62
256
6
ByLayer
370
-1
48
1
60
0
100
AcDbLine
10
24.035976
20
11.72183
30
0
11
24.323617
21
11.216391
31
0
39
0
210
0
220
0
230
1
0
LINE
5
141
100
AcDbEntity
8
1
62
256
6
ByLayer
370
-1
48
1
60
0
100
AcDbLine
10
21.845246
20
11.313556
30
0
11
24.50068
21
9.79196
31
0
39
0
210
0
220
0
230
1
0
LINE
5
142
100
AcDbEntity
8
1
62
256
6
ByLayer
370
-1
48
1
60
0
100
AcDbLine
10
22.05725
20
11.529899
30
0
11
22.175166
21
11.731463
31
0
39
0
210
0
220
0
230
1
0
LINE
5
143
100
AcDbEntity
8
1
62
256
6
ByLayer
370
-1
48
1
60
0
100
AcDbLine
10
25.010537
20
9.18374
30
0
11
21.510471
21
11.359772
31
0
39
0
210
0
220
0
230
1
0
LINE
5
144
100
AcDbEntity
8
1
62
256
6
ByLayer
370
-1
48
1
60
0
100
AcDbLine
10
24.213695
20
5.898722
30
0
11
25.01183
21
6.276497
31
0
39
0
210
0
220
0
230
1
0
LINE
5
145
100
AcDbEntity
8
1
62
256
6
ByLayer
370
-1
48
1
60
0
100
AcDbLine
10
21.859123
20
-0.259099
30
0
11
24.413067
21
1.271884
31
0
39
0
210
0
220
0
230
1
0
LINE
5
146
100
AcDbEntity
8
1
62
256
6
ByLayer
370
-1
48
1
60
0
100
AcDbLine
10
22.330895
20
11.820872
30
0
11
22.949467
21
11.817178
31
0
39
0
210
0
220
0
230
1
0
LINE
5
147
100
AcDbEntity
8
1
62
256
6
ByLayer
370
-1
48
1
60
0
100
AcDbLine
10
18.28127
20
1.556897
30
0
11
18.112419
21
1.625931
31
0
39
0
210
0
220
0
230
1
0
LINE
5
148
100
AcDbEntity
8
1
62
256
6
ByLayer
370
-1
48
1
60
0
100
AcDbLine
10
21.796967
20
-0.255786
30
0
11
21.775701
21
-0.597793
31
0
39
0
210
0
220
0
230
1
0
LINE
5
149
100
AcDbEntity
8
1
62
256
6
ByLayer
370
-1
48
1
60
0
100
AcDbLine
10
24.079701
20
0.290749
30
0
11
24.054692
21
0.28795
31
0
39
0
210
0
220
0
230
1
0
LINE
5
14A
100
AcDbEntity
8
1
62
256
6
ByLayer
370
-1
48
1
60
0
100
AcDbLine
10
24.49123
20
4.937502
30
0
11
25.008555
21
5.045874
31
0
39
0
210
0
220
0
230
1
0
LINE
5
14B
100
AcDbEntity
8
1
62
256
6
ByLayer
370
-1
48
1
60
0
100
AcDbLine
10
14.002556
20
4.453252
30
0
11
13.871073
21
3.789349
31
0
39
0
210
0
220
0
230
1
0
LINE
5
14C
100
AcDbEntity
8
1
62
256
6
ByLayer
370
-1
48
1
60
0
100
AcDbLine
10
14.881337
20
3.978105
30
0
11
15.251884
21
3.343463
31
0
39
0
210
0
220
0
230
1
0
LINE
5
14D
100
AcDbEntity
8
1
62
256
6
ByLayer
370
-1
48
1
60
0
100
AcDbLine
10
21.452126
20
-0.411774
30
0
11
21.796967
21
-0.255786
31
0
39
0
210
0
220
0
230
1
0
LINE
5
14E
100
AcDbEntity
8
1
62
256
6
ByLayer
370
-1
48
1
60
0
100
AcDbLine
10
23.857163
20
12.329391
30
0
11
23.850492
21
11.779374
31
0
39
0
210
0
220
0
230
1
0
LINE
5
14F
100
AcDbEntity
8
1
62
256
6
ByLayer
370
-1
48
1
60
0
100
AcDbLine
10
24.15277
20
-0.963603
30
0
11
24.016921
21
-1.649554
31
0
39
0
210
0
220
0
230
1
0
LINE
5
150
100
AcDbEntity
8
1
62
256
6
ByLayer
370
-1
48
1
60
0
100
AcDbLine
10
23.6962
20
5.585187
30
0
11
25.004758
21
5.85931
31
0
39
0
210
0
220
0
230
1
0
LINE
5
151
100
AcDbEntity
8
1
62
256
6
ByLayer
370
-1
48
1
60
0
100
AcDbLine
10
23.611146
20
-0.537799
30
0
11
23.033469
21
-0.553315
31
0
39
0
210
0
220
0
230
1
0
LINE
5
152
100
AcDbEntity
8
1
62
256
6
ByLayer
370
-1
48
1
60
0
100
AcDbLine
10
13.22402
20
7.203539
30
0
11
13.857195
21
7.539949
31
0
39
0
210
0
220
0
230
1
0
LINE
5
153
100
AcDbEntity
8
1
62
256
6
ByLayer
370
-1
48
1
60
0
100
AcDbLine
10
13.534825
20
5.381613
30
0
11
13.403742
21
4.719729
31
0
39
0
210
0
220
0
230
1
0
LINE
5
154
100
AcDbEntity
8
1
62
256
6
ByLayer
370
-1
48
1
60
0
100
AcDbLine
10
17.938929
20
1.713932
30
0
11
17.377908
21
2.042557
31
0
39
0
210
0
220
0
230
1
0
LINE
5
155
100
AcDbEntity
8
1
62
256
6
ByLayer
370
-1
48
1
60
0
100
AcDbLine
10
17.37094
20
9.638867
30
0
11
18.145383
21
9.11831
31
0
39
0
210
0
220
0
230
1
0
LINE
5
156
100
AcDbEntity
8
1
62
256
6
ByLayer
370
-1
48
1
60
0
100
AcDbLine
10
13.530964
20
5.235364
30
0
11
13.541241
21
5.257076
31
0
39
0
210
0
220
0
230
1
0
LINE
5
157
100
AcDbEntity
8
1
62
256
6
ByLayer
370
-1
48
1
60
0
100
AcDbLine
10
23.223657
20
11.658193
30
0
11
23.267659
21
11.65793
31
0
39
0
210
0
220
0
230
1
0
LINE
5
158
100
AcDbEntity
8
1
62
256
6
ByLayer
370
-1
48
1
60
0
100
AcDbLine
10
18.327595
20
3.063936
30
0
11
17.716146
21
3.217811
31
0
39
0
210
0
220
0
230
1
0
LINE
5
159
100
AcDbEntity
8
1
62
256
6
ByLayer
370
-1
48
1
60
0
100
AcDbLine
10
24.496298
20
4.847314
30
0
11
25.013061
21
4.864061
31
0
39
0
210
0
220
0
230
1
0
LINE
5
15A
100
AcDbEntity
8
1
62
256
6
ByLayer
370
-1
48
1
60
0
100
AcDbLine
10
24.830078
20
2.060617
30
0
11
24.979587
21
2.815541
31
0
39
0
210
0
220
0
230
1
0
LINE
5
15B
100
AcDbEntity
8
1
62
256
6
ByLayer
370
-1
48
1
60
0
100
AcDbLine
10
13.234838
20
6.55769
30
0
11
12.95382
21
6.082274
31
0
39
0
210
0
220
0
230
1
0
LINE
5
15C
100
AcDbEntity
8
1
62
256
6
ByLayer
370
-1
48
1
60
0
100
AcDbLine
10
23.653516
20
11.220392
30
0
11
23.947169
21
11.72236
31
0
39
0
210
0
220
0
230
1
0
LINE
5
15D
100
AcDbEntity
8
1
62
256
6
ByLayer
370
-1
48
1
60
0
100
AcDbLine
10
24.662739
20
11.411505
30
0
11
24.422315
21
11.272237
31
0
39
0
210
0
220
0
230
1
0
LINE
5
15E
100
AcDbEntity
8
1
62
256
6
ByLayer
370
-1
48
1
60
0
100
AcDbLine
10
12.95382
20
6.082274
30
0
11
12.506703
21
5.860501
31
0
39
0
210
0
220
0
230
1
0
LINE
5
15F
100
AcDbEntity
8
1
62
256
6
ByLayer
370
-1
48
1
60
0
100
AcDbLine
10
20.840789
20
0.078194
30
0
11
24.484893
21
1.965728
31
0
39
0
210
0
220
0
230
1
0
LINE
5
160
100
AcDbEntity
8
1
62
256
6
ByLayer
370
-1
48
1
60
0
100
AcDbLine
10
23.021752
20
-0.897021
30
0
11
23.030746
21
-0.657218
31
0
39
0
210
0
220
0
230
1
0
LINE
5
161
100
AcDbEntity
8
1
62
256
6
ByLayer
370
-1
48
1
60
0
100
AcDbLine
10
23.32487
20
11.419495
30
0
11
23.556839
21
11.277406
31
0
39
0
210
0
220
0
230
1
0
LINE
5
162
100
AcDbEntity
8
1
62
256
6
ByLayer
370
-1
48
1
60
0
100
AcDbLine
10
25.013061
20
6.389238
30
0
11
24.172404
21
5.991336
31
0
39
0
210
0
220
0
230
1
0
LINE
5
163
100
AcDbEntity
8
1
62
256
6
ByLayer
370
-1
48
1
60
0
100
AcDbLine
10
24.325142
20
-0.863128
30
0
11
24.188693
21
-1.552104
31
0
39
0
210
0
220
0
230
1
0
LINE
5
164
100
AcDbEntity
8
1
62
256
6
ByLayer
370
-1
48
1
60
0
100
AcDbLine
10
24.50068
20
9.79196
30
0
11
24.991772
21
9.465443
31
0
39
0
210
0
220
0
230
1
0
LINE
5
165
100
AcDbEntity
8
1
62
256
6
ByLayer
370
-1
48
1
60
0
100
AcDbLine
10
23.690686
20
0.240685
30
0
11
24.210973
21
-0.627231
31
0
39
0
210
0
220
0
230
1
0
LINE
5
166
100
AcDbEntity
8
1
62
256
6
ByLayer
370
-1
48
1
60
0
100
AcDbLine
10
25.011806
20
4.954374
30
0
11
24.49123
21
4.937502
31
0
39
0
210
0
220
0
230
1
0
LINE
5
167
100
AcDbEntity
8
1
62
256
6
ByLayer
370
-1
48
1
60
0
100
AcDbLine
10
24.990582
20
10.968651
30
0
11
24.986117
21
10.220582
31
0
39
0
210
0
220
0
230
1
0
LINE
5
168
100
AcDbEntity
8
1
62
256
6
ByLayer
370
-1
48
1
60
0
100
AcDbLine
10
12.381052
20
5.650197
30
0
11
12.244604
21
4.961221
31
0
39
0
210
0
220
0
230
1
0
LINE
5
169
100
AcDbEntity
8
1
62
256
6
ByLayer
370
-1
48
1
60
0
100
AcDbLine
10
14.551608
20
7.956233
30
0
11
14.901227
21
8.237237
31
0
39
0
210
0
220
0
230
1
0
LINE
5
16A
100
AcDbEntity
8
1
62
256
6
ByLayer
370
-1
48
1
60
0
100
AcDbLine
10
13.685026
20
5.576572
30
0
11
12.648794
21
5.617139
31
0
39
0
210
0
220
0
230
1
0
LINE
5
16B
100
AcDbEntity
8
1
62
256
6
ByLayer
370
-1
48
1
60
0
100
AcDbLine
10
23.608423
20
-0.641702
30
0
11
24.068882
21
-0.868895
31
0
39
0
210
0
220
0
230
1
0
LINE
5
16C
100
AcDbEntity
8
1
62
256
6
ByLayer
370
-1
48
1
60
0
100
AcDbLine
10
23.36852
20
0.01653
30
0
11
23.029694
21
-0.176613
31
0
39
0
210
0
220
0
230
1
0
LINE
5
16D
100
AcDbEntity
8
1
62
256
6
ByLayer
370
-1
48
1
60
0
100
AcDbLine
10
25.01183
20
6.276497
30
0
11
25.006845
21
6.064875
31
0
39
0
210
0
220
0
230
1
0
LINE
5
16E
100
AcDbEntity
8
1
62
256
6
ByLayer
370
-1
48
1
60
0
100
AcDbLine
10
12.506703
20
5.860501
30
0
11
13.016091
21
6.722267
31
0
39
0
210
0
220
0
230
1
0
LINE
5
16F
100
AcDbEntity
8
1
62
256
6
ByLayer
370
-1
48
1
60
0
100
AcDbLine
10
24.210973
20
-0.627231
30
0
11
23.750514
21
-0.400038
31
0
39
0
210
0
220
0
230
1
0
LINE
5
170
100
AcDbEntity
8
1
62
256
6
ByLayer
370
-1
48
1
60
0
100
AcDbLine
10
24.422315
20
11.272237
30
0
11
24.134674
21
11.777677
31
0
39
0
210
0
220
0
230
1
0
LINE
5
171
100
AcDbEntity
8
1
62
256
6
ByLayer
370
-1
48
1
60
0
100
AcDbLine
10
23.388782
20
11.72747
30
0
11
23.813402
21
12.45331
31
0
39
0
210
0
220
0
230
1
0
LINE
5
172
100
AcDbEntity
8
1
62
256
6
ByLayer
370
-1
48
1
60
0
100
AcDbLine
10
23.750514
20
-0.400038
30
0
11
23.463484
21
0.078771
31
0
39
0
210
0
220
0
230
1
0
LINE
5
173
100
AcDbEntity
8
1
62
256
6
ByLayer
370
-1
48
1
60
0
100
AcDbLine
10
17.622212
20
9.752431
30
0
11
18.1986
21
9.191128
31
0
39
0
210
0
220
0
230
1
0
LINE
5
174
100
AcDbEntity
8
1
62
256
6
ByLayer
370
-1
48
1
60
0
100
AcDbLine
10
17.37094
20
9.638867
30
0
11
15.035384
21
8.324081
31
0
39
0
210
0
220
0
230
1
0
LINE
5
175
100
AcDbEntity
8
1
62
256
6
ByLayer
370
-1
48
1
60
0
100
AcDbLine
10
14.561794
20
4.406914
30
0
11
14.504013
21
7.365728
31
0
39
0
210
0
220
0
230
1
0
LINE
5
176
100
AcDbEntity
8
1
62
256
6
ByLayer
370
-1
48
1
60
0
100
AcDbLine
10
22.893041
20
0.065521
30
0
11
23.231867
21
0.258664
31
0
39
0
210
0
220
0
230
1
0
LINE
5
177
100
AcDbEntity
8
1
62
256
6
ByLayer
370
-1
48
1
60
0
100
AcDbLine
10
23.671255
20
5.578661
30
0
11
23.844953
21
4.980718
31
0
39
0
210
0
220
0
230
1
0
LINE
5
178
100
AcDbEntity
8
1
62
256
6
ByLayer
370
-1
48
1
60
0
100
AcDbLine
10
23.653516
20
11.220392
30
0
11
23.987375
21
11.018821
31
0
39
0
210
0
220
0
230
1
0
LINE
5
179
100
AcDbEntity
8
1
62
256
6
ByLayer
370
-1
48
1
60
0
100
AcDbLine
10
21.269746
20
11.373966
30
0
11
25.013061
21
9.046704
31
0
39
0
210
0
220
0
230
1
0
LINE
5
17A
100
AcDbEntity
8
1
62
256
6
ByLayer
370
-1
48
1
60
0
100
AcDbLine
10
23.986435
20
12.552654
30
0
11
24.014747
21
12.552484
31
0
39
0
210
0
220
0
230
1
0
LINE
5
17B
100
AcDbEntity
8
1
62
256
6
ByLayer
370
-1
48
1
60
0
100
AcDbLine
10
24.985908
20
9.783001
30
0
11
24.985908
21
10.151175
31
0
39
0
210
0
220
0
230
1
0
LINE
5
17C
100
AcDbEntity
8
1
62
256
6
ByLayer
370
-1
48
1
60
0
100
AcDbLine
10
14.17588
20
7.323414
30
0
11
14.232105
21
4.444266
31
0
39
0
210
0
220
0
230
1
0
LINE
5
17D
100
AcDbEntity
8
1
62
256
6
ByLayer
370
-1
48
1
60
0
100
AcDbLine
10
25.006845
20
6.064875
30
0
11
24.213695
21
5.898722
31
0
39
0
210
0
220
0
230
1
0
LINE
5
17E
100
AcDbEntity
8
1
62
256
6
ByLayer
370
-1
48
1
60
0
100
AcDbLine
10
23.946363
20
0.218472
30
0
11
23.924362
21
0.181053
31
0
39
0
210
0
220
0
230
1
0
LINE
5
17F
100
AcDbEntity
8
1
62
256
6
ByLayer
370
-1
48
1
60
0
100
AcDbLine
10
18.344134
20
2.428898
30
0
11
18.28127
21
1.556897
31
0
39
0
210
0
220
0
230
1
0
LINE
5
180
100
AcDbEntity
8
1
62
256
6
ByLayer
370
-1
48
1
60
0
100
AcDbLine
10
24.456509
20
10.996871
30
0
11
24.120267
21
10.799302
31
0
39
0
210
0
220
0
230
1
0
LINE
5
181
100
AcDbEntity
8
1
62
256
6
ByLayer
370
-1
48
1
60
0
100
AcDbLine
10
23.095621
20
11.73944
30
0
11
23.109982
21
11.718655
31
0
39
0
210
0
220
0
230
1
0
LINE
5
182
100
AcDbEntity
8
1
62
256
6
ByLayer
370
-1
48
1
60
0
100
AcDbLine
10
19.18022
20
9.356401
30
0
11
18.742469
21
8.912334
31
0
39
0
210
0
220
0
230
1
0
LINE
5
183
100
AcDbEntity
8
1
62
256
6
ByLayer
370
-1
48
1
60
0
100
AcDbLine
10
18.987178
20
9.960729
30
0
11
18.711365
21
10.39345
31
0
39
0
210
0
220
0
230
1
0
LINE
5
184
100
AcDbEntity
8
1
62
256
6
ByLayer
370
-1
48
1
60
0
100
AcDbLine
10
17.70977
20
3.192564
30
0
11
18.321219
21
3.038688
31
0
39
0
210
0
220
0
230
1
0
LINE
5
185
100
AcDbEntity
8
1
62
256
6
ByLayer
370
-1
48
1
60
0
100
AcDbLine
10
22.478085
20
-0.975298
30
0
11
21.835981
21
-0.631271
31
0
39
0
210
0
220
0
230
1
0
LINE
5
186
100
AcDbEntity
8
1
62
256
6
ByLayer
370
-1
48
1
60
0
100
AcDbLine
10
24.60904
20
2.185324
30
0
11
20.711678
21
0.16661
31
0
39
0
210
0
220
0
230
1
0
LINE
5
187
100
AcDbEntity
8
1
62
256
6
ByLayer
370
-1
48
1
60
0
100
AcDbLine
10
24.339298
20
-0.839051
30
0
11
24.20285
21
-1.528027
31
0
39
0
210
0
220
0
230
1
0
LINE
5
188
100
AcDbEntity
8
1
62
256
6
ByLayer
370
-1
48
1
60
0
100
AcDbLine
10
13.662832
20
5.920481
30
0
11
13.091168
21
5.94286
31
0
39
0
210
0
220
0
230
1
0
LINE
5
189
100
AcDbEntity
8
1
62
256
6
ByLayer
370
-1
48
1
60
0
100
AcDbLine
10
24.141345
20
12.327694
30
0
11
24.662739
21
11.411505
31
0
39
0
210
0
220
0
230
1
0
LINE
5
18A
100
AcDbEntity
8
1
62
256
6
ByLayer
370
-1
48
1
60
0
100
AcDbLine
10
18.761273
20
8.894798
30
0
11
19.199025
21
9.338866
31
0
39
0
210
0
220
0
230
1
0
LINE
5
18B
100
AcDbEntity
8
1
62
256
6
ByLayer
370
-1
48
1
60
0
100
AcDbLine
10
13.095911
20
5.838912
30
0
11
13.667576
21
5.816532
31
0
39
0
210
0
220
0
230
1
0
LINE
5
18C
100
AcDbEntity
8
1
62
256
6
ByLayer
370
-1
48
1
60
0
100
AcDbLine
10
13.046764
20
6.018911
30
0
11
13.327782
21
6.494327
31
0
39
0
210
0
220
0
230
1
0
LINE
5
18D
100
AcDbEntity
8
1
62
256
6
ByLayer
370
-1
48
1
60
0
100
AcDbLine
10
24.311757
20
1.608259
30
0
11
21.687145
21
0.034913
31
0
39
0
210
0
220
0
230
1
0
LINE
5
18E
100
AcDbEntity
8
1
62
256
6
ByLayer
370
-1
48
1
60
0
100
AcDbLine
10
17.119381
20
2.224721
30
0
11
17.36211
21
2.677507
31
0
39
0
210
0
220
0
230
1
0
LINE
5
18F
100
AcDbEntity
8
1
62
256
6
ByLayer
370
-1
48
1
60
0
100
AcDbLine
10
18.376122
20
1.509291
30
0
11
18.442336
21
2.42775
31
0
39
0
210
0
220
0
230
1
0
LINE
5
190
100
AcDbEntity
8
1
62
256
6
ByLayer
370
-1
48
1
60
0
100
AcDbLine
10
19.054856
20
6.006931
30
0
11
19.034192
21
5.806634
31
0
39
0
210
0
220
0
230
1
0
LINE
5
191
100
AcDbEntity
8
1
62
256
6
ByLayer
370
-1
48
1
60
0
100
AcDbLine
10
19.105073
20
5.954717
30
0
11
19.125736
21
6.155014
31
0
39
0
210
0
220
0
230
1
0
LINE
5
192
100
AcDbEntity
8
1
62
256
6
ByLayer
370
-1
48
1
60
0
100
AcDbLine
10
21.219249
20
4.346181
30
0
11
21.24279
21
4.574374
31
0
39
0
210
0
220
0
230
1
0
LINE
5
193
100
AcDbEntity
8
1
62
256
6
ByLayer
370
-1
48
1
60
0
100
AcDbLine
10
21.589313
20
5.768658
30
0
11
21.612886
21
5.997152
31
0
39
0
210
0
220
0
230
1
0
LINE
5
194
100
AcDbEntity
8
1
62
256
6
ByLayer
370
-1
48
1
60
0
100
AcDbLine
10
20.52561
20
6.791155
30
0
11
20.549182
21
7.019649
31
0
39
0
210
0
220
0
230
1
0
LINE
5
195
100
AcDbEntity
8
1
62
256
6
ByLayer
370
-1
48
1
60
0
100
AcDbLine
10
19.560254
20
6.715799
30
0
11
19.583826
21
6.944294
31
0
39
0
210
0
220
0
230
1
0
LINE
5
196
100
AcDbEntity
8
1
62
256
6
ByLayer
370
-1
48
1
60
0
100
AcDbLine
10
18.682098
20
5.530494
30
0
11
18.705639
21
5.758687
31
0
39
0
210
0
220
0
230
1
0
LINE
5
197
100
AcDbEntity
8
SK1
62
256
6
ByLayer
370
-1
48
1
60
0
100
AcDbLine
10
0
20
-7.935062
30
0
11
0
21
-8.319568
31
0
39
0
210
0
220
0
230
1
0
LINE
5
198
100
AcDbEntity
8
1
62
256
6
ByLayer
370
-1
48
1
60
0
100
AcDbLine
10
0
20
8.909066
30
0
11
0
21
8.641988
31
0
39
0
210
0
220
0
230
1
0
LINE
5
199
100
AcDbEntity
8
1
62
256
6
ByLayer
370
-1
48
1
60
0
100
AcDbLine
10
0
20
-5.491149
30
0
11
0
21
-6.287107
31
0
39
0
210
0
220
0
230
1
0
LINE
5
19A
100
AcDbEntity
8
SK1
62
256
6
ByLayer
370
-1
48
1
60
0
100
AcDbLine
10
0
20
9.295306
30
0
11
0
21
9.125662
31
0
39
0
210
0
220
0
230
1
0
LINE
5
19B
100
AcDbEntity
8
1
62
256
6
ByLayer
370
-1
48
1
60
0
100
AcDbLine
10
0
20
7.478901
30
0
11
0
21
6.936964
31
0
39
0
210
0
220
0
230
1
0
LINE
5
19C
100
AcDbEntity
8
SK1
62
256
6
ByLayer
370
-1
48
1
60
0
100
AcDbLine
10
0
20
-8.641988
30
0
11
0
21
-8.909066
31
0
39
0
210
0
220
0
230
1
0
LINE
5
19D
100
AcDbEntity
8
1
62
256
6
ByLayer
370
-1
48
1
60
0
100
AcDbLine
10
0
20
-8.641988
30
0
11
0
21
-8.909066
31
0
39
0
210
0
220
0
230
1
0
LINE
5
19E
100
AcDbEntity
8
1
62
256
6
ByLayer
370
-1
48
1
60
0
100
AcDbLine
10
0
20
8.319568
30
0
11
0
21
7.935062
31
0
39
0
210
0
220
0
230
1
0
LINE
5
19F
100
AcDbEntity
8
1
62
256
6
ByLayer
370
-1
48
1
60
0
100
AcDbLine
10
0
20
6.287107
30
0
11
0
21
5.491149
31
0
39
0
210
0
220
0
230
1
0
LINE
5
1A0
100
AcDbEntity
8
SK1
62
256
6
ByLayer
370
-1
48
1
60
0
100
AcDbLine
10
-0.298766
20
-6.120818
30
0
11
-0.298766
21
-6.304262
31
0
39
0
210
0
220
0
230
1
0
LINE
5
1A1
100
AcDbEntity
8
SK1
62
256
6
ByLayer
370
-1
48
1
60
0
100
AcDbLine
10
-0.238766
20
7.740015
30
0
11
-0.238766
21
7.120291
31
0
39
0
210
0
220
0
230
1
0
LINE
5
1A2
100
AcDbEntity
8
SK1
62
256
6
ByLayer
370
-1
48
1
60
0
100
AcDbLine
10
-0.298766
20
-7.202885
30
0
11
-0.298766
21
-7.736854
31
0
39
0
210
0
220
0
230
1
0
LINE
5
1A3
100
AcDbEntity
8
SK1
62
256
6
ByLayer
370
-1
48
1
60
0
100
AcDbLine
10
-0.298766
20
8.925793
30
0
11
-0.298766
21
8.886086
31
0
39
0
210
0
220
0
230
1
0
LINE
5
1A4
100
AcDbEntity
8
SK1
62
256
6
ByLayer
370
-1
48
1
60
0
100
AcDbLine
10
-0.298766
20
-3.200211
30
0
11
-0.298766
21
-2.786748
31
0
39
0
210
0
220
0
230
1
0
LINE
5
1A5
100
AcDbEntity
8
SK1
62
256
6
ByLayer
370
-1
48
1
60
0
100
AcDbLine
10
-0.298766
20
-6.607664
30
0
11
-0.298766
21
-6.754228
31
0
39
0
210
0
220
0
230
1
0
LINE
5
1A6
100
AcDbEntity
8
SK1
62
256
6
ByLayer
370
-1
48
1
60
0
100
AcDbLine
10
-0.298766
20
5.511537
30
0
11
-0.298766
21
5.315569
31
0
39
0
210
0
220
0
230
1
0
LINE
5
1A7
100
AcDbEntity
8
1
62
256
6
ByLayer
370
-1
48
1
60
0
100
AcDbLine
10
11.227769
20
-4.812593
30
0
11
11.15115
21
-5.199469
31
0
39
0
210
0
220
0
230
1
0
LINE
5
1A8
100
AcDbEntity
8
1
62
256
6
ByLayer
370
-1
48
1
60
0
100
AcDbLine
10
8.240007
20
-6.517351
30
0
11
8.219299
21
-6.621911
31
0
39
0
210
0
220
0
230
1
0
LINE
5
1A9
100
AcDbEntity
8
1
62
256
6
ByLayer
370
-1
48
1
60
0
100
AcDbLine
10
23.826282
20
-4.812593
30
0
11
11.227769
21
-4.812593
31
0
39
0
210
0
220
0
230
1
0
LINE
5
1AA
100
AcDbEntity
8
1
62
256
6
ByLayer
370
-1
48
1
60
0
100
AcDbLine
10
8.537734
20
-5.014024
30
0
11
8.419026
21
-5.613421
31
0
39
0
210
0
220
0
230
1
0
LINE
5
1AB
100
AcDbEntity
8
1
62
256
6
ByLayer
370
-1
48
1
60
0
100
AcDbLine
10
11.433031
20
-3.776155
30
0
11
14.371258
21
-3.776155
31
0
39
0
210
0
220
0
230
1
0
LINE
5
1AC
100
AcDbEntity
8
1
62
256
6
ByLayer
370
-1
48
1
60
0
100
AcDbLine
10
22.842283
20
-3.125145
30
0
11
11.56196
21
-3.125145
31
0
39
0
210
0
220
0
230
1
0
LINE
5
1AD
100
AcDbEntity
8
1
62
256
6
ByLayer
370
-1
48
1
60
0
100
AcDbLine
10
11.56196
20
-3.125145
30
0
11
11.433031
21
-3.776155
31
0
39
0
210
0
220
0
230
1
0
LINE
5
1AE
100
AcDbEntity
8
1
62
256
6
ByLayer
370
-1
48
1
60
0
100
AcDbLine
10
24.050316
20
-3.681366
30
0
11
24.031544
21
-3.776155
31
0
39
0
210
0
220
0
230
1
0
LINE
5
1AF
100
AcDbEntity
8
1
62
256
6
ByLayer
370
-1
48
1
60
0
100
AcDbLine
10
23.826282
20
-4.812593
30
0
11
23.733047
21
-5.28337
31
0
39
0
210
0
220
0
230
1
0
LINE
5
1B0
100
AcDbEntity
8
SK1
62
256
6
ByLayer
370
-1
48
1
60
0
100
AcDbLine
10
-0.298766
20
-8.48729
30
0
11
-0.298766
21
-8.42456
31
0
39
0
210
0
220
0
230
1
0
LINE
5
1B1
100
AcDbEntity
8
1
62
256
6
ByLayer
370
-1
48
1
60
0
100
AcDbLine
10
7.224204
20
6.26528
30
0
11
7.22359
21
9.735555
31
0
39
0
210
0
220
0
230
1
0
LINE
5
1B2
100
AcDbEntity
8
SK1
62
256
6
ByLayer
370
-1
48
1
60
0
100
AcDbLine
10
-0.298766
20
2.786748
30
0
11
-0.298766
21
-2.786748
31
0
39
0
210
0
220
0
230
1
0
LINE
5
1B3
100
AcDbEntity
8
SK1
62
256
6
ByLayer
370
-1
48
1
60
0
100
AcDbLine
10
-0.298766
20
6.754228
30
0
11
-0.298766
21
6.883874
31
0
39
0
210
0
220
0
230
1
0
LINE
5
1B4
100
AcDbEntity
8
SK1
62
256
6
ByLayer
370
-1
48
1
60
0
100
AcDbLine
10
-0.238766
20
-7.120291
30
0
11
-0.238766
21
-7.740015
31
0
39
0
210
0
220
0
230
1
0
LINE
5
1B5
100
AcDbEntity
8
SK1
62
256
6
ByLayer
370
-1
48
1
60
0
100
AcDbLine
10
-0.298766
20
6.754228
30
0
11
-0.298766
21
6.607664
31
0
39
0
210
0
220
0
230
1
0
LINE
5
1B6
100
AcDbEntity
8
1
62
256
6
ByLayer
370
-1
48
1
60
0
100
AcDbLine
10
13.662832
20
5.920481
30
0
11
13.664225
21
6.297152
31
0
39
0
210
0
220
0
230
1
0
LINE
5
1B7
100
AcDbEntity
8
1
62
256
6
ByLayer
370
-1
48
1
60
0
100
AcDbLine
10
12.395209
20
5.625951
30
0
11
12.381052
21
5.650197
31
0
39
0
210
0
220
0
230
1
0
LINE
5
1B8
100
AcDbEntity
8
1
62
256
6
ByLayer
370
-1
48
1
60
0
100
AcDbLine
10
13.327782
20
6.494327
30
0
11
13.664225
21
6.297152
31
0
39
0
210
0
220
0
230
1
0
LINE
5
1B9
100
AcDbEntity
8
1
62
256
6
ByLayer
370
-1
48
1
60
0
100
AcDbLine
10
24.985908
20
9.783001
30
0
11
24.668935
21
9.99375
31
0
39
0
210
0
220
0
230
1
0
LINE
5
1BA
100
AcDbEntity
8
1
62
256
6
ByLayer
370
-1
48
1
60
0
100
AcDbLine
10
24.15277
20
-0.963603
30
0
11
22.60544
21
-1.005164
31
0
39
0
210
0
220
0
230
1
0
LINE
5
1BB
100
AcDbEntity
8
1
62
256
6
ByLayer
370
-1
48
1
60
0
100
AcDbLine
10
25.005843
20
5.225207
30
0
11
23.869898
21
4.987244
31
0
39
0
210
0
220
0
230
1
0
LINE
5
1BC
100
AcDbEntity
8
1
62
256
6
ByLayer
370
-1
48
1
60
0
100
AcDbLine
10
18.321219
20
3.038688
30
0
11
17.938929
21
1.713932
31
0
39
0
210
0
220
0
230
1
0
LINE
5
1BD
100
AcDbEntity
8
1
62
256
6
ByLayer
370
-1
48
1
60
0
100
AcDbLine
10
23.32487
20
11.419495
30
0
11
23.857163
21
12.329391
31
0
39
0
210
0
220
0
230
1
0
LINE
5
1BE
100
AcDbEntity
8
1
62
256
6
ByLayer
370
-1
48
1
60
0
100
AcDbLine
10
18.527076
20
10.269491
30
0
11
18.625173
21
10.339301
31
0
39
0
210
0
220
0
230
1
0
LINE
5
1BF
100
AcDbEntity
8
1
62
256
6
ByLayer
370
-1
48
1
60
0
100
AcDbLine
10
23.033469
20
-0.553315
30
0
11
23.029694
21
-0.176613
31
0
39
0
210
0
220
0
230
1
0
LINE
5
1C0
100
AcDbEntity
8
1
62
256
6
ByLayer
370
-1
48
1
60
0
100
AcDbLine
10
24.528267
20
0.906104
30
0
11
24.218982
21
0.380079
31
0
39
0
210
0
220
0
230
1
0
LINE
5
1C1
100
AcDbEntity
8
1
62
256
6
ByLayer
370
-1
48
1
60
0
100
AcDbLine
10
14.392878
20
4.445173
30
0
11
14.262025
21
3.784451
31
0
39
0
210
0
220
0
230
1
0
LINE
5
1C2
100
AcDbEntity
8
1
62
256
6
ByLayer
370
-1
48
1
60
0
100
AcDbLine
10
14.232105
20
4.444266
30
0
11
14.002556
21
4.453252
31
0
39
0
210
0
220
0
230
1
0
LINE
5
1C3
100
AcDbEntity
8
1
62
256
6
ByLayer
370
-1
48
1
60
0
100
AcDbLine
10
13.534825
20
5.381613
30
0
11
13.512824
21
5.419294
31
0
39
0
210
0
220
0
230
1
0
LINE
5
1C4
100
AcDbEntity
8
1
62
256
6
ByLayer
370
-1
48
1
60
0
100
AcDbLine
10
12.430533
20
4.837473
30
0
11
13.2615
21
4.827062
31
0
39
0
210
0
220
0
230
1
0
MTEXT
5
347
100
AcDbEntity
8
SK6
62
256
6
ByLayer
370
-1
48
1
60
0
100
AcDbMText
10
13.375
20
-22.735342
30
0
210
0
220
0
230
1
1
\W00.727;\fsimplex.shx,bigfont.shx;SL-266RFG-202514-16 
40
3.5
41
0
44
1.084337
50
0
71
7
72
5
7
DEFAULT
0
DIMENSION
5
37A
100
AcDbEntity
8
2
62
256
6
ByLayer
370
-3
48
1
60
0
100
AcDbDimension
2
DimnDraft3D1
10
39.25
20
13.875
30
0
11
39.25
21
4.634211
31
0
70
32
71
5
72
1
41
1
210
0
220
0
230
1
3
Standard
100
AcDbAlignedDimension
13
31.5
23
0
33
0
14
26.5
24
13.875
34
0
50
90
100
AcDbRotatedDimension
1001
ACAD
1000
DSTYLE
1002
{
1070
    74
1070
     0
1070
   279
1070
     0
1070
   172
1070
     1
1070
   173
1070
     1
1070
   340
1005
348
1070
   271
1070
     3
1070
   272
1070
     3
1070
    77
1070
     1
1070
    73
1070
     0
1070
   171
1070
     4
1070
   274
1070
     4
1070
   177
1070
     2
1070
   176
1070
     2
1070
   178
1070
     7
1070
    78
1070
     8
1070
    41
1041
3.0
1070
   147
1041
2.25
1070
    42
1041
1.5
1070
    44
1041
3.0
1070
   140
1041
4.5
1070
   343
1005
37B
1070
   344
1005
37B
1002
}
0
DIMENSION
5
390
100
AcDbEntity
8
SK2
62
256
6
ByLayer
370
-3
48
1
60
0
100
AcDbDimension
2
DimnDraft3D2
10
-9.75
20
-10
30
0
11
-9.75
21
-4.784211
31
0
70
32
71
5
72
1
41
1
210
0
220
0
230
1
3
Standard
100
AcDbAlignedDimension
13
-1.5
23
10
33
0
14
-1.5
24
-10
34
0
50
90
100
AcDbRotatedDimension
1001
ACAD
1000
DSTYLE
1002
{
1070
    74
1070
     0
1070
   279
1070
     0
1070
   172
1070
     1
1070
   173
1070
     1
1070
   340
1005
348
1070
   271
1070
     3
1070
   272
1070
     3
1070
    77
1070
     1
1070
    73
1070
     0
1070
   171
1070
     4
1070
   274
1070
     4
1070
   177
1070
     2
1070
   176
1070
     2
1070
   178
1070
     7
1070
    78
1070
     8
1070
    41
1041
3.0
1070
   147
1041
2.25
1070
    42
1041
1.5
1070
    44
1041
3.0
1070
   140
1041
4.5
1070
   343
1005
37B
1070
   344
1005
37B
1002
}
0
DIMENSION
5
39E
100
AcDbEntity
8
2
62
256
6
ByLayer
370
-3
48
1
60
0
100
AcDbDimension
2
DimnDraft3D3
10
0
20
33.625
30
0
11
9.871053
21
33.625
31
0
70
32
71
5
72
1
41
1
210
0
220
0
230
1
3
Standard
100
AcDbAlignedDimension
13
25
23
15.375
33
0
14
0
24
1.5
34
0
50
0
100
AcDbRotatedDimension
1001
ACAD
1000
DSTYLE
1002
{
1070
   279
1070
     0
1070
   172
1070
     1
1070
   173
1070
     1
1070
   340
1005
348
1070
   271
1070
     3
1070
   272
1070
     3
1070
    77
1070
     1
1070
    73
1070
     0
1070
   171
1070
     4
1070
   274
1070
     4
1070
   177
1070
     2
1070
   176
1070
     2
1070
   178
1070
     7
1070
    78
1070
     8
1070
    41
1041
3.0
1070
   147
1041
2.25
1070
    42
1041
1.5
1070
    44
1041
3.0
1070
   140
1041
4.5
1070
   343
1005
37B
1070
   344
1005
37B
1002
}
0
ENDSEC
0
SECTION
2
OBJECTS
0
DICTIONARY
5
3cf
330
0
100
AcDbDictionary
280
0
281
1
3
ACAD_GROUP
350
3d0
3
ACAD_MLINESTYLE
350
3d1
0
DICTIONARY
5
3d0
330
0
100
AcDbDictionary
280
0
281
1
0
DICTIONARY
5
3d1
330
0
100
AcDbDictionary
280
0
281
1
3
Standard
350
18
0
MLINESTYLE
5
18
330
3d1
100
AcDbMlineStyle
2
Standard
70
0
3

62
256
51
90
52
90
71
2
49
-0.5
62
256
6
ByLayer
49
0.5
62
256
6
ByLayer
0
RASTERVARIABLES
5
3bd
330

100
AcDbRasterVariables
90
0
70
1
71
1
72
1
0
ENDSEC
0
EOF
