0
SECTION
2
HEADER
9
$ACADVER
1
AC1015
9
$DWGCODEPAGE
3
ANSI_1252
9
$HANDSEED
5
461
9
$ANGBASE
50
0
9
$ANGDIR
70
0
9
$ATTMODE
70
1
9
$AUNITS
70
0
9
$AUPREC
70
0
9
$CECOLOR
62
256
9
$CELTSCALE
40
1
9
$CELTYPE
6
ByLayer
9
$CELWEIGHT
370
-1
9
$CLAYER
8
0
9
$CMLJUST
70
0
9
$CMLSCALE
40
1
9
$CMLSTYLE
2
Standard
9
$DIMSTYLE
2
Standard
9
$TEXTSIZE
40
0.2
9
$TEXTSTYLE
7
Standard
9
$LUNITS
70
2
9
$LUPREC
70
4
9
$EXTNAMES
290
1
9
$INSUNITS
70
4
9
$LTSCALE
40
1
9
$LWDISPLAY
290
0
9
$PDMODE
70
0
9
$PDSIZE
40
0
9
$PLINEGEN
70
0
0
ENDSEC
0
SECTION
2
CLASSES
0
CLASS
1
RASTERVARIABLES
2
AcDbRasterVariables
3
ISM
90
0
280
0
281
0
0
ENDSEC
0
SECTION
2
TABLES
0
TABLE
2
VPORT
5
457
100
AcDbSymbolTable
0
VPORT
5
1
100
AcDbSymbolTableRecord
100
AcDbViewportTableRecord
2
*Active
70
0
10
0
20
0
11
1
21
1
12
-1
22
1
13
0
23
0
14
0.5
24
0.5
15
10
25
10
16
0
26
0
36
1
17
0
27
0
37
0
0
ENDTAB
0
TABLE
2
LTYPE
5
458
100
AcDbSymbolTable
0
LTYPE
5
14
100
AcDbSymbolTableRecord
100
AcDbLinetypeTableRecord
70
0
2
ByBlock
3

72
65
73
0
40
0
0
LTYPE
5
15
100
AcDbSymbolTableRecord
100
AcDbLinetypeTableRecord
70
0
2
ByLayer
3

72
65
73
0
40
0
0
LTYPE
5
16
100
AcDbSymbolTableRecord
100
AcDbLinetypeTableRecord
70
0
2
CONTINUOUS
3
Solid line
72
65
73
0
40
0
0
LTYPE
5
3B
100
AcDbSymbolTableRecord
100
AcDbLinetypeTableRecord
70
0
2
DASHED
3
__ __ __ __ __ __ __ __ __
72
65
73
2
40
25.72
49
12.86
74
0
49
-12.86
74
0
0
LTYPE
5
3C
100
AcDbSymbolTableRecord
100
AcDbLinetypeTableRecord
70
0
2
HIDDEN
3
_ _ _ _ _ _ _ _ _ _ _ _ _ _ _
72
65
73
2
40
0.5
49
0.25
74
0
49
-0.25
74
0
0
LTYPE
5
3D
100
AcDbSymbolTableRecord
100
AcDbLinetypeTableRecord
70
0
2
PHANTOM
3
____ _ _ ____ _ _ _____ _ _ ____
72
65
73
6
40
50.5
49
18
74
0
49
-6.5
74
0
49
6.5
74
0
49
-6.5
74
0
49
6.5
74
0
49
-6.5
74
0
0
LTYPE
5
3E
100
AcDbSymbolTableRecord
100
AcDbLinetypeTableRecord
70
0
2
CENTER
3
____ _ ____ _ ____ _ ____
72
65
73
4
40
47.5
49
22
74
0
49
-8.5
74
0
49
8.5
74
0
49
-8.5
74
0
0
LTYPE
5
3F
100
AcDbSymbolTableRecord
100
AcDbLinetypeTableRecord
70
0
2
DOT
3
.........................
72
65
73
2
40
10
49
0
74
0
49
-10
74
0
0
LTYPE
5
40
100
AcDbSymbolTableRecord
100
AcDbLinetypeTableRecord
70
0
2
DASHDOT
3
_._._._._._._._._._._._._._._._.
72
65
73
4
40
70
49
31
74
0
49
-13
74
0
49
13
74
0
49
-13
74
0
0
ENDTAB
0
TABLE
2
LAYER
5
459
100
AcDbSymbolTable
0
LAYER
5
10
100
AcDbSymbolTableRecord
100
AcDbLayerTableRecord
2
0
70
0
62
7
6
CONTINUOUS
290
1
370
-3
390
0
0
LAYER
5
42
100
AcDbSymbolTableRecord
100
AcDbLayerTableRecord
2
1
70
0
62
4
6
CONTINUOUS
290
1
370
-3
390
0
0
LAYER
5
44
100
AcDbSymbolTableRecord
100
AcDbLayerTableRecord
2
80
70
0
62
-6
6
CONTINUOUS
290
1
370
-3
390
0
0
LAYER
5
46
100
AcDbSymbolTableRecord
100
AcDbLayerTableRecord
2
81
70
0
62
-3
6
CONTINUOUS
290
1
370
-3
390
0
0
LAYER
5
48
100
AcDbSymbolTableRecord
100
AcDbLayerTableRecord
2
2
70
0
62
7
6
CONTINUOUS
290
1
370
-3
390
0
0
LAYER
5
4B
100
AcDbSymbolTableRecord
100
AcDbLayerTableRecord
2
4
70
0
62
-2
6
CENTER
290
1
370
-3
390
0
0
LAYER
5
443
100
AcDbSymbolTableRecord
100
AcDbLayerTableRecord
2
SK4
70
0
62
2
6
CENTER
290
1
370
-3
390
0
0
LAYER
5
444
100
AcDbSymbolTableRecord
100
AcDbLayerTableRecord
2
SK1
70
0
62
4
6
CONTINUOUS
290
1
370
-3
390
0
0
LAYER
5
445
100
AcDbSymbolTableRecord
100
AcDbLayerTableRecord
2
SK6
70
0
62
5
6
CONTINUOUS
290
1
370
-3
390
0
0
LAYER
5
446
100
AcDbSymbolTableRecord
100
AcDbLayerTableRecord
2
SK2
70
0
62
7
6
CONTINUOUS
290
1
370
-3
390
0
0
ENDTAB
0
TABLE
2
STYLE
5
45a
100
AcDbSymbolTable
0
STYLE
5
11
100
AcDbSymbolTableRecord
100
AcDbTextStyleTableRecord
2
Standard
3
txt
70
0
71
0
40
0
41
1
42
0
50
0
0
STYLE
5
3CD
100
AcDbSymbolTableRecord
100
AcDbTextStyleTableRecord
2
DEFAULT
3
simplex.shx
70
0
71
0
40
0
41
1
42
0
50
0
0
STYLE
5
3F0
100
AcDbSymbolTableRecord
100
AcDbTextStyleTableRecord
2
DWGDirectTextStyle
3
SIMPLEX
70
0
71
0
40
0
41
1
42
0
50
0
0
ENDTAB
0
TABLE
2
DIMSTYLE
5
45b
100
AcDbSymbolTable
100
AcDbDimStyleTable
0
DIMSTYLE
105
27
100
AcDbSymbolTableRecord
100
AcDbDimStyleTableRecord
2
Standard
70
0
3
<>
41
0.18
42
0.0625
44
0.18
140
0.18
147
0.09
73
0
74
0
77
1
271
2
275
0
278
52
280
0
340
11
0
ENDTAB
0
TABLE
2
VIEW
5
45c
100
AcDbSymbolTable
0
ENDTAB
0
TABLE
2
UCS
5
45d
100
AcDbSymbolTable
0
ENDTAB
0
TABLE
2
APPID
5
45e
100
AcDbSymbolTable
0
APPID
5
12
100
AcDbSymbolTableRecord
100
AcDbRegAppTableRecord
2
ACAD
70
0
0
ENDTAB
0
TABLE
2
BLOCK_RECORD
5
45f
100
AcDbSymbolTable
0
BLOCK_RECORD
5
1F
100
AcDbSymbolTableRecord
100
AcDbBlockTableRecord
2
*Model_Space
340
0
70
0
0
BLOCK_RECORD
5
1B
100
AcDbSymbolTableRecord
100
AcDbBlockTableRecord
2
*Paper_Space
340
0
70
0
0
BLOCK_RECORD
5
23
100
AcDbSymbolTableRecord
100
AcDbBlockTableRecord
2
*Paper_Space0
340
0
70
0
0
BLOCK_RECORD
5
3F2
100
AcDbSymbolTableRecord
100
AcDbBlockTableRecord
2
DimnDraft3D1
340
0
70
0
0
BLOCK_RECORD
5
400
100
AcDbSymbolTableRecord
100
AcDbBlockTableRecord
2
_CLOSED
340
0
70
0
0
BLOCK_RECORD
5
407
100
AcDbSymbolTableRecord
100
AcDbBlockTableRecord
2
DimnDraft3D2
340
0
70
0
0
BLOCK_RECORD
5
416
100
AcDbSymbolTableRecord
100
AcDbBlockTableRecord
2
DimnDraft3D3
340
0
70
0
0
ENDTAB
0
ENDSEC
0
SECTION
2
BLOCKS
0
BLOCK
5
20
100
AcDbEntity
8
0
100
AcDbBlockBegin
2
*Model_Space
70
0
10
0
20
0
30
0
3
*Model_Space
0
ENDBLK
5
21
100
AcDbEntity
8
0
100
AcDbBlockEnd
0
BLOCK
5
1C
100
AcDbEntity
8
0
100
AcDbBlockBegin
2
*Paper_Space
70
0
10
0
20
0
30
0
3
*Paper_Space
0
ENDBLK
5
1D
100
AcDbEntity
8
0
100
AcDbBlockEnd
0
BLOCK
5
24
100
AcDbEntity
8
0
100
AcDbBlockBegin
2
*Paper_Space0
70
0
10
0
20
0
30
0
3
*Paper_Space0
0
ENDBLK
5
25
100
AcDbEntity
8
0
100
AcDbBlockEnd
0
BLOCK
5
3FD
100
AcDbEntity
8
0
100
AcDbBlockBegin
2
DimnDraft3D1
70
0
10
0
20
0
30
0
3
DimnDraft3D1
0
MTEXT
5
3F3
100
AcDbEntity
8
2
62
256
6
ByLayer
370
-1
48
1
60
0
100
AcDbMText
10
14.496053
20
-45
30
0
210
0
220
0
230
1
1
\W01.000;\fsimplex.shx,bigfont.shx;32 
40
4.5
41
0
44
1.084337
50
0
71
7
72
5
7
DEFAULT
0
LINE
5
3F4
100
AcDbEntity
8
2
62
256
6
ByLayer
370
-1
48
1
60
0
100
AcDbLine
10
32
20
-23.375
30
0
11
32
21
-49.125
31
0
39
0
210
0
220
0
230
1
0
LINE
5
3F5
100
AcDbEntity
8
2
62
256
6
ByLayer
370
-1
48
1
60
0
100
AcDbLine
10
0
20
-1.501
30
0
11
0
21
-49.125
31
0
39
0
210
0
220
0
230
1
0
LINE
5
3F6
100
AcDbEntity
8
2
62
256
6
ByLayer
370
-1
48
1
60
0
100
AcDbLine
10
32
20
-46.125
30
0
11
0
21
-46.125
31
0
39
0
210
0
220
0
230
1
0
LINE
5
3F7
100
AcDbEntity
8
2
62
256
6
ByLayer
370
-1
48
1
60
0
100
AcDbLine
10
32
20
-46.125
30
0
11
29.000001
21
-46.519957
31
0
39
0
210
0
220
0
230
1
0
LINE
5
3F8
100
AcDbEntity
8
2
62
256
6
ByLayer
370
-1
48
1
60
0
100
AcDbLine
10
32
20
-46.125
30
0
11
28.999999
21
-45.730043
31
0
39
0
210
0
220
0
230
1
0
LINE
5
3F9
100
AcDbEntity
8
2
62
256
6
ByLayer
370
-1
48
1
60
0
100
AcDbLine
10
29.000001
20
-46.519957
30
0
11
28.999999
21
-45.730043
31
0
39
0
210
0
220
0
230
1
0
LINE
5
3FA
100
AcDbEntity
8
2
62
256
6
ByLayer
370
-1
48
1
60
0
100
AcDbLine
10
0
20
-46.125
30
0
11
2.999999
21
-45.730043
31
0
39
0
210
0
220
0
230
1
0
LINE
5
3FB
100
AcDbEntity
8
2
62
256
6
ByLayer
370
-1
48
1
60
0
100
AcDbLine
10
0
20
-46.125
30
0
11
3.000001
21
-46.519957
31
0
39
0
210
0
220
0
230
1
0
LINE
5
3FC
100
AcDbEntity
8
2
62
256
6
ByLayer
370
-1
48
1
60
0
100
AcDbLine
10
2.999999
20
-45.730043
30
0
11
3.000001
21
-46.519957
31
0
39
0
210
0
220
0
230
1
0
ENDBLK
5
3FE
100
AcDbEntity
8
0
100
AcDbBlockEnd
0
BLOCK
5
401
100
AcDbEntity
8
0
100
AcDbBlockBegin
2
_CLOSED
70
0
10
0
20
0
30
0
3
_CLOSED
0
LINE
5
403
100
AcDbEntity
8
0
62
256
6
ByLayer
370
-2
48
1
60
0
100
AcDbLine
10
-1
20
0.166667
30
0
11
0
21
0
31
0
39
0
210
0
220
0
230
1
0
LINE
5
404
100
AcDbEntity
8
0
62
256
6
ByLayer
370
-2
48
1
60
0
100
AcDbLine
10
0
20
0
30
0
11
-1
21
-0.166667
31
0
39
0
210
0
220
0
230
1
0
LINE
5
405
100
AcDbEntity
8
0
62
256
6
ByLayer
370
-2
48
1
60
0
100
AcDbLine
10
-1
20
0.166667
30
0
11
-1
21
-0.166667
31
0
39
0
210
0
220
0
230
1
0
LINE
5
406
100
AcDbEntity
8
0
62
256
6
ByLayer
370
-2
48
1
60
0
100
AcDbLine
10
0
20
0
30
0
11
-1
21
0
31
0
39
0
210
0
220
0
230
1
0
ENDBLK
5
402
100
AcDbEntity
8
0
100
AcDbBlockEnd
0
BLOCK
5
413
100
AcDbEntity
8
0
100
AcDbBlockBegin
2
DimnDraft3D2
70
0
10
0
20
0
30
0
3
DimnDraft3D2
0
MTEXT
5
408
100
AcDbEntity
8
SK2
62
256
6
ByLayer
370
-1
48
1
60
0
100
AcDbMText
10
-10.875
20
-3.659211
30
0
210
0
220
0
230
1
1
\W01.000;\fsimplex.shx,bigfont.shx;%%c32 
40
4.5
41
0
44
1.084337
50
90
71
7
72
5
7
DEFAULT
0
LINE
5
40A
100
AcDbEntity
8
SK2
62
256
6
ByLayer
370
-1
48
1
60
0
100
AcDbLine
10
-1.5
20
16
30
0
11
-12.75
21
16
31
0
39
0
210
0
220
0
230
1
0
LINE
5
40B
100
AcDbEntity
8
SK2
62
256
6
ByLayer
370
-1
48
1
60
0
100
AcDbLine
10
-1.5
20
-16
30
0
11
-12.75
21
-16
31
0
39
0
210
0
220
0
230
1
0
LINE
5
40C
100
AcDbEntity
8
SK2
62
256
6
ByLayer
370
-1
48
1
60
0
100
AcDbLine
10
-9.75
20
16
30
0
11
-9.75
21
-16
31
0
39
0
210
0
220
0
230
1
0
LINE
5
40D
100
AcDbEntity
8
SK2
62
256
6
ByLayer
370
-1
48
1
60
0
100
AcDbLine
10
-9.75
20
16
30
0
11
-9.355043
21
13.000001
31
0
39
0
210
0
220
0
230
1
0
LINE
5
40E
100
AcDbEntity
8
SK2
62
256
6
ByLayer
370
-1
48
1
60
0
100
AcDbLine
10
-9.75
20
16
30
0
11
-10.144957
21
12.999999
31
0
39
0
210
0
220
0
230
1
0
LINE
5
40F
100
AcDbEntity
8
SK2
62
256
6
ByLayer
370
-1
48
1
60
0
100
AcDbLine
10
-9.355043
20
13.000001
30
0
11
-10.144957
21
12.999999
31
0
39
0
210
0
220
0
230
1
0
LINE
5
410
100
AcDbEntity
8
SK2
62
256
6
ByLayer
370
-1
48
1
60
0
100
AcDbLine
10
-9.75
20
-16
30
0
11
-10.144957
21
-13.000001
31
0
39
0
210
0
220
0
230
1
0
LINE
5
411
100
AcDbEntity
8
SK2
62
256
6
ByLayer
370
-1
48
1
60
0
100
AcDbLine
10
-9.75
20
-16
30
0
11
-9.355043
21
-12.999999
31
0
39
0
210
0
220
0
230
1
0
LINE
5
412
100
AcDbEntity
8
SK2
62
256
6
ByLayer
370
-1
48
1
60
0
100
AcDbLine
10
-10.144957
20
-13.000001
30
0
11
-9.355043
21
-12.999999
31
0
39
0
210
0
220
0
230
1
0
ENDBLK
5
414
100
AcDbEntity
8
0
100
AcDbBlockEnd
0
BLOCK
5
421
100
AcDbEntity
8
0
100
AcDbBlockBegin
2
DimnDraft3D3
70
0
10
0
20
0
30
0
3
DimnDraft3D3
0
MTEXT
5
417
100
AcDbEntity
8
2
62
256
6
ByLayer
370
-1
48
1
60
0
100
AcDbMText
10
45.125
20
-12.441447
30
0
210
0
220
0
230
1
1
\W01.000;\fsimplex.shx,bigfont.shx;22 
40
4.5
41
0
44
1.084337
50
90
71
7
72
5
7
DEFAULT
0
LINE
5
418
100
AcDbEntity
8
2
62
256
6
ByLayer
370
-1
48
1
60
0
100
AcDbLine
10
38.5
20
0
30
0
11
49.25
21
0
31
0
39
0
210
0
220
0
230
1
0
LINE
5
419
100
AcDbEntity
8
2
62
256
6
ByLayer
370
-1
48
1
60
0
100
AcDbLine
10
33.5
20
-21.875
30
0
11
49.25
21
-21.875
31
0
39
0
210
0
220
0
230
1
0
LINE
5
41A
100
AcDbEntity
8
2
62
256
6
ByLayer
370
-1
48
1
60
0
100
AcDbLine
10
46.25
20
0
30
0
11
46.25
21
-21.875
31
0
39
0
210
0
220
0
230
1
0
LINE
5
41B
100
AcDbEntity
8
2
62
256
6
ByLayer
370
-1
48
1
60
0
100
AcDbLine
10
46.25
20
0
30
0
11
46.644957
21
-2.999999
31
0
39
0
210
0
220
0
230
1
0
LINE
5
41C
100
AcDbEntity
8
2
62
256
6
ByLayer
370
-1
48
1
60
0
100
AcDbLine
10
46.25
20
0
30
0
11
45.855043
21
-3.000001
31
0
39
0
210
0
220
0
230
1
0
LINE
5
41D
100
AcDbEntity
8
2
62
256
6
ByLayer
370
-1
48
1
60
0
100
AcDbLine
10
46.644957
20
-2.999999
30
0
11
45.855043
21
-3.000001
31
0
39
0
210
0
220
0
230
1
0
LINE
5
41E
100
AcDbEntity
8
2
62
256
6
ByLayer
370
-1
48
1
60
0
100
AcDbLine
10
46.25
20
-21.875
30
0
11
45.855043
21
-18.875001
31
0
39
0
210
0
220
0
230
1
0
LINE
5
41F
100
AcDbEntity
8
2
62
256
6
ByLayer
370
-1
48
1
60
0
100
AcDbLine
10
46.25
20
-21.875
30
0
11
46.644957
21
-18.874999
31
0
39
0
210
0
220
0
230
1
0
LINE
5
420
100
AcDbEntity
8
2
62
256
6
ByLayer
370
-1
48
1
60
0
100
AcDbLine
10
45.855043
20
-18.875001
30
0
11
46.644957
21
-18.874999
31
0
39
0
210
0
220
0
230
1
0
ENDBLK
5
422
100
AcDbEntity
8
0
100
AcDbBlockEnd
0
ENDSEC
0
SECTION
2
ENTITIES
0
ARC
5
206
100
AcDbEntity
8
1
62
256
6
ByLayer
370
-1
48
1
60
0
100
AcDbCircle
39
0
10
-13.341219
20
-16.8
30
0
40
0.8
210
0
220
0
230
-1
100
AcDbArc
50
90
51
140
0
ARC
5
207
100
AcDbEntity
8
1
62
256
6
ByLayer
370
-1
48
1
60
0
100
AcDbCircle
39
0
10
19.522832
20
13.189601
30
0
40
9.99999999999125
210
0
220
0
230
1
100
AcDbArc
50
258.07061
51
270
0
ARC
5
208
100
AcDbEntity
8
1
62
256
6
ByLayer
370
-1
48
1
60
0
100
AcDbCircle
39
0
10
25.522832
20
-2.810399
30
0
40
5.99999999999996
210
0
220
0
230
1
100
AcDbArc
50
9.918465
51
90
0
ELLIPSE
5
209
100
AcDbEntity
8
1
62
256
6
ByLayer
370
-1
48
1
60
0
100
AcDbEllipse
10
10.028637
20
7.778175
30
0
11
-0.00145103440070129
21
-4.50000000002181
31
0
210
0
220
0
230
1
40
0.000529
41
-2.10090321639268
42
-0.061629935584731
0
ELLIPSE
5
20A
100
AcDbEntity
8
1
62
256
6
ByLayer
370
-1
48
1
60
0
100
AcDbEllipse
10
10.030245
20
2E-06
30
0
11
-0.00515923353094008
21
-15.999997963938
31
0
210
0
220
0
230
1
40
0.000529
41
-2.25031870778796
42
-2.13736043610591
0
ELLIPSE
5
20B
100
AcDbEntity
8
1
62
256
6
ByLayer
370
-1
48
1
60
0
100
AcDbEllipse
10
-215.132754
20
-7.778174
30
0
11
-266.899299944514
21
-1.16499426184818
31
0
210
0
220
0
230
1
40
0.016285
41
2.5829713721022
42
2.60192973495294
0
ELLIPSE
5
20C
100
AcDbEntity
8
1
62
256
6
ByLayer
370
-1
48
1
60
0
100
AcDbEllipse
10
30.094833
20
-7.17362
30
0
11
-2.65443259199606
21
-1.29855551976127
31
0
210
0
220
0
230
1
40
0.133258
41
-1.16354352642078
42
-0.880930524277207
0
ELLIPSE
5
20D
100
AcDbEntity
8
1
62
256
6
ByLayer
370
-1
48
1
60
0
100
AcDbEllipse
10
19.876577
20
-12.327575
30
0
11
-1.39554246301893
21
-0.774684590467886
31
0
210
0
220
0
230
1
40
0.039763
41
2.15122059202288
42
2.2563630619281
0
ELLIPSE
5
20E
100
AcDbEntity
8
1
62
256
6
ByLayer
370
-1
48
1
60
0
100
AcDbEllipse
10
14.337069
20
-7.518876
30
0
11
-6.77705516332669
21
5.4996256823649
31
0
210
0
220
0
230
1
40
0.168726
41
-2.66471627200061
42
-2.01930275208678
0
ELLIPSE
5
20F
100
AcDbEntity
8
1
62
256
6
ByLayer
370
-1
48
1
60
0
100
AcDbEllipse
10
18.914161
20
-11.680933
30
0
11
1.64589647751503
21
0.116296110440566
31
0
210
0
220
0
230
1
40
0.965764
41
-1.86794914054501
42
-1.38386088998125
0
ELLIPSE
5
210
100
AcDbEntity
8
1
62
256
6
ByLayer
370
-1
48
1
60
0
100
AcDbEllipse
10
-215.13265
20
-7.778175
30
0
11
-266.899195554479
21
-1.16499467370833
31
0
210
0
220
0
230
1
40
0.016285
41
-2.64623160699509
42
-2.59474581279669
0
ELLIPSE
5
211
100
AcDbEntity
8
1
62
256
6
ByLayer
370
-1
48
1
60
0
100
AcDbEllipse
10
18.958593
20
-12.309758
30
0
11
1.64589647751503
21
0.116296110440566
31
0
210
0
220
0
230
1
40
0.965764
41
-2.07470006325479
42
-1.75362471590294
0
ELLIPSE
5
212
100
AcDbEntity
8
1
62
256
6
ByLayer
370
-1
48
1
60
0
100
AcDbEllipse
10
14.337069
20
-7.518876
30
0
11
-6.77705516324627
21
5.49962568228325
31
0
210
0
220
0
230
1
40
0.168726
41
-1.21322551046601
42
-0.959165817865753
0
ELLIPSE
5
213
100
AcDbEntity
8
1
62
256
6
ByLayer
370
-1
48
1
60
0
100
AcDbEllipse
10
23.669738
20
7.778175
30
0
11
-266.899206970003
21
-1.16499474199195
31
0
210
0
220
0
230
1
40
0.016285
41
1.52401221571504
42
1.54744106235338
0
ELLIPSE
5
214
100
AcDbEntity
8
1
62
256
6
ByLayer
370
-1
48
1
60
0
100
AcDbEllipse
10
19.045151
20
-13.534785
30
0
11
-1.64651197074775
21
-0.10725601092251
31
0
210
0
220
0
230
1
40
0.965788
41
-1.16424444092702
42
1.49893315505094
0
ELLIPSE
5
215
100
AcDbEntity
8
1
62
256
6
ByLayer
370
-1
48
1
60
0
100
AcDbEllipse
10
10.023621
20
-7.778175
30
0
11
-0.00145103440068616
21
-4.49999999999966
31
0
210
0
220
0
230
1
40
0.000529
41
2.7884589251011
42
0.876726960831537
0
ELLIPSE
5
216
100
AcDbEntity
8
1
62
256
6
ByLayer
370
-1
48
1
60
0
100
AcDbEllipse
10
24.033669
20
-10.583049
30
0
11
-2.65443259218188
21
-1.29855551984362
31
0
210
0
220
0
230
1
40
0.133258
41
-1.44615652855733
42
-1.16354352643454
0
ELLIPSE
5
217
100
AcDbEntity
8
1
62
256
6
ByLayer
370
-1
48
1
60
0
100
AcDbEllipse
10
14.337069
20
-7.518876
30
0
11
-6.77705516331423
21
5.49962568235233
31
0
210
0
220
0
230
1
40
0.168726
41
1.63488605218447
42
2.32460896269608
0
ELLIPSE
5
218
100
AcDbEntity
8
1
62
256
6
ByLayer
370
-1
48
1
60
0
100
AcDbEllipse
10
20.163952
20
-11.916499
30
0
11
-2.11145701959824
21
-0.149191788242018
31
0
210
0
220
0
230
1
40
0.965764
41
0.627728021228728
42
1.11762307732668
0
ELLIPSE
5
219
100
AcDbEntity
8
1
62
256
6
ByLayer
370
-1
48
1
60
0
100
AcDbEllipse
10
19.223746
20
-16.062043
30
0
11
-2.24612876029101
21
9.02293338163334
31
0
210
0
220
0
230
1
40
0.041991
41
1.30213095159712
42
1.31707331551421
0
ELLIPSE
5
21A
100
AcDbEntity
8
1
62
256
6
ByLayer
370
-1
48
1
60
0
100
AcDbEllipse
10
18.912332
20
-11.655055
30
0
11
-1.64589647751503
21
-0.116296110440566
31
0
210
0
220
0
230
1
40
0.965764
41
0.632441392376083
42
1.50266227682637
0
ELLIPSE
5
21B
100
AcDbEntity
8
1
62
256
6
ByLayer
370
-1
48
1
60
0
100
AcDbEllipse
10
18.912332
20
-11.655055
30
0
11
-1.64589647751503
21
-0.116296110440566
31
0
210
0
220
0
230
1
40
0.965764
41
1.50266288298152
42
1.75781931569005
0
ELLIPSE
5
21C
100
AcDbEntity
8
1
62
256
6
ByLayer
370
-1
48
1
60
0
100
AcDbEllipse
10
349.471884
20
-0.019224
30
0
11
-948.329091310936
21
-4.1331758047918
31
0
210
0
220
0
230
1
40
0.016278
41
1.20599249070724
42
1.20840473473491
0
ELLIPSE
5
21D
100
AcDbEntity
8
1
62
256
6
ByLayer
370
-1
48
1
60
0
100
AcDbEllipse
10
10.030245
20
0
30
0
11
-0.00515923342497258
21
-16.0000000004775
31
0
210
0
220
0
230
1
40
0.000529
41
-1.00423182552731
42
-0.186174647771611
0
ELLIPSE
5
21E
100
AcDbEntity
8
1
62
256
6
ByLayer
370
-1
48
1
60
0
100
AcDbEllipse
10
-215.132445
20
-7.778176
30
0
11
-266.898988268005
21
-1.16499538865338
31
0
210
0
220
0
230
1
40
0.016285
41
2.63390365916481
42
2.64608925459451
0
ELLIPSE
5
21F
100
AcDbEntity
8
1
62
256
6
ByLayer
370
-1
48
1
60
0
100
AcDbEllipse
10
20.208384
20
-12.545324
30
0
11
-1.99502603335156
21
-0.140964982352201
31
0
210
0
220
0
230
1
40
0.965764
41
0.699701739960663
42
1.26020625214143
0
ELLIPSE
5
220
100
AcDbEntity
8
1
62
256
6
ByLayer
370
-1
48
1
60
0
100
AcDbEllipse
10
19.591913
20
-21.272908
30
0
11
-1.63784993066582
21
7.54195098428525
31
0
210
0
220
0
230
1
40
0.160744
41
-0.654352033588146
42
-0.242557715254025
0
ELLIPSE
5
221
100
AcDbEntity
8
1
62
256
6
ByLayer
370
-1
48
1
60
0
100
AcDbEllipse
10
20.244599
20
-12.56351
30
0
11
0.129725038537144
21
0.00845070272441124
31
0
210
0
220
0
230
1
40
0.965789
41
-1.61848771655681
42
-0.58643050899542
0
ELLIPSE
5
222
100
AcDbEntity
8
1
62
256
6
ByLayer
370
-1
48
1
60
0
100
AcDbEllipse
10
21.009267
20
-12.600279
30
0
11
-0.166358820485084
21
-0.0735665956997197
31
0
210
0
220
0
230
1
40
0.908072
41
-1.85126895871062
42
-0.907720640097714
0
ELLIPSE
5
223
100
AcDbEntity
8
1
62
256
6
ByLayer
370
-1
48
1
60
0
100
AcDbEllipse
10
29.935114
20
-8.158105
30
0
11
-0.164123276904417
21
-0.286292769692418
31
0
210
0
220
0
230
1
40
0.007386
41
-2.01474913356002
42
-1.13372780755002
0
ELLIPSE
5
224
100
AcDbEntity
8
1
62
256
6
ByLayer
370
-1
48
1
60
0
100
AcDbEllipse
10
21.189619
20
-15.549209
30
0
11
-0.319437373112233
21
0.0189674631713384
31
0
210
0
220
0
230
1
40
0.372092
41
-2.47552078441326
42
-1.3055569761807
0
ELLIPSE
5
225
100
AcDbEntity
8
1
62
256
6
ByLayer
370
-1
48
1
60
0
100
AcDbEllipse
10
20.772069
20
-14.492875
30
0
11
-0.16664678834278
21
0.284831262215082
31
0
210
0
220
0
230
1
40
0.020796
41
1.11052133152895
42
1.99154265753829
0
ELLIPSE
5
226
100
AcDbEntity
8
1
62
256
6
ByLayer
370
-1
48
1
60
0
100
AcDbEllipse
10
30.657629
20
-13.667764
30
0
11
-0.143814300897886
21
0.0426315242191993
31
0
210
0
220
0
230
1
40
0.244304
41
1.66062836463026
42
1.83516128982968
0
ELLIPSE
5
227
100
AcDbEntity
8
1
62
256
6
ByLayer
370
-1
48
1
60
0
100
AcDbEllipse
10
24.35428
20
-17.641417
30
0
11
-0.143517613720651
21
0.0843322544539414
31
0
210
0
220
0
230
1
40
0.195042
41
1.70241255351947
42
2.40799874313287
0
ELLIPSE
5
228
100
AcDbEntity
8
1
62
256
6
ByLayer
370
-1
48
1
60
0
100
AcDbEllipse
10
28.810296
20
-19.601735
30
0
11
-0.704940313672019
21
-0.0225354790911236
31
0
210
0
220
0
230
1
40
0.11846
41
-1.4926747796511
42
-0.629741133709654
0
ELLIPSE
5
229
100
AcDbEntity
8
1
62
256
6
ByLayer
370
-1
48
1
60
0
100
AcDbEllipse
10
31.752396
20
-10.643896
30
0
11
0.249471227956047
21
0.0162513513930986
31
0
210
0
220
0
230
1
40
0.965789
41
-0.0628317333970864
42
0.0333040443271947
0
ELLIPSE
5
22A
100
AcDbEntity
8
1
62
256
6
ByLayer
370
-1
48
1
60
0
100
AcDbEllipse
10
22.049373
20
-16.365898
30
0
11
-0.152300321244468
21
0.088897353345144
31
0
210
0
220
0
230
1
40
0.184283
41
0.751981040690614
42
1.69445883678539
0
ELLIPSE
5
22B
100
AcDbEntity
8
1
62
256
6
ByLayer
370
-1
48
1
60
0
100
AcDbEllipse
10
20.767483
20
-14.160105
30
0
11
-0.0259338634078662
21
0.328979383440273
31
0
210
0
220
0
230
1
40
0.228524
41
0.819228148582189
42
1.16829399898111
0
ELLIPSE
5
22C
100
AcDbEntity
8
1
62
256
6
ByLayer
370
-1
48
1
60
0
100
AcDbEllipse
10
30.996539
20
-18.966991
30
0
11
-0.172437766515789
21
-0.281363140228151
31
0
210
0
220
0
230
1
40
0.013865
41
-2.4432785090777
42
-1.56225718306741
0
ELLIPSE
5
22D
100
AcDbEntity
8
1
62
256
6
ByLayer
370
-1
48
1
60
0
100
AcDbEllipse
10
29.941358
20
-7.825287
30
0
11
0.0228891020462457
21
0.329205238426603
31
0
210
0
220
0
230
1
40
0.196789
41
-1.17075955002686
42
-0.821693699628039
0
ELLIPSE
5
22E
100
AcDbEntity
8
1
62
256
6
ByLayer
370
-1
48
1
60
0
100
AcDbEllipse
10
20.772069
20
-14.492875
30
0
11
0.329968661514939
21
0.00454779265573911
31
0
210
0
220
0
230
1
40
0.388155
41
0.927218566835298
42
1.8082398928447
0
ELLIPSE
5
22F
100
AcDbEntity
8
1
62
256
6
ByLayer
370
-1
48
1
60
0
100
AcDbEllipse
10
27.66482
20
-8.373575
30
0
11
-0.152152475737575
21
-0.0895179785092241
31
0
210
0
220
0
230
1
40
0.197758
41
1.47147641480705
42
2.41395421089296
0
ELLIPSE
5
230
100
AcDbEntity
8
1
62
256
6
ByLayer
370
-1
48
1
60
0
100
AcDbEllipse
10
27.801281
20
-19.58948
30
0
11
-0.283033031567034
21
-0.000905222956635335
31
0
210
0
220
0
230
1
40
0.13718
41
2.09519462478665
42
2.52176974017682
0
ELLIPSE
5
231
100
AcDbEntity
8
1
62
256
6
ByLayer
370
-1
48
1
60
0
100
AcDbEllipse
10
20.717
20
-14.081568
30
0
11
0.21413543481211
21
0.13764452607288
31
0
210
0
220
0
230
1
40
0.895737
41
-0.509329721976623
42
-0.204511071699731
0
ELLIPSE
5
232
100
AcDbEntity
8
1
62
256
6
ByLayer
370
-1
48
1
60
0
100
AcDbEllipse
10
20.430314
20
-13.336951
30
0
11
-0.120148037019268
21
-0.0531314302256362
31
0
210
0
220
0
230
1
40
0.908072
41
2.23387201351303
42
-3.10576497505995
0
ELLIPSE
5
233
100
AcDbEntity
8
1
62
256
6
ByLayer
370
-1
48
1
60
0
100
AcDbEllipse
10
29.184428
20
-19.717999
30
0
11
-0.000811575289103355
21
0.186347945093925
31
0
210
0
220
0
230
1
40
0.965798
41
2.19805264580534
42
-3.14158434276217
0
ELLIPSE
5
234
100
AcDbEntity
8
1
62
256
6
ByLayer
370
-1
48
1
60
0
100
AcDbEllipse
10
29.791263
20
-7.971672
30
0
11
-0.837564038354504
21
0.479739159384704
31
0
210
0
220
0
230
1
40
0.308746
41
2.31350331954164
42
3.12995290557937
0
ELLIPSE
5
235
100
AcDbEntity
8
1
62
256
6
ByLayer
370
-1
48
1
60
0
100
AcDbEllipse
10
20.621691
20
-12.175216
30
0
11
-0.179619284128354
21
-0.0117009730030309
31
0
210
0
220
0
230
1
40
0.965789
41
-0.586430508995405
42
-9.08050332809278E-07
0
ELLIPSE
5
236
100
AcDbEntity
8
1
62
256
6
ByLayer
370
-1
48
1
60
0
100
AcDbEllipse
10
31.304402
20
-19.155669
30
0
11
-0.171567193481958
21
-0.281894835214703
31
0
210
0
220
0
230
1
40
0.328804
41
1.5721961604627
42
2.38864574650011
0
ELLIPSE
5
237
100
AcDbEntity
8
1
62
256
6
ByLayer
370
-1
48
1
60
0
100
AcDbEllipse
10
30.991235
20
-18.534955
30
0
11
-0.00804175809630138
21
1.84310051251129
31
0
210
0
220
0
230
1
40
0.179021
41
2.84088306243779
42
-2.84088284842867
0
ELLIPSE
5
238
100
AcDbEntity
8
1
62
256
6
ByLayer
370
-1
48
1
60
0
100
AcDbEllipse
10
24.018886
20
-10.42303
30
0
11
-0.128769199359174
21
-0.0771501606269322
31
0
210
0
220
0
230
1
40
0.232115
41
1.45206597494773
42
2.16459055346042
0
ELLIPSE
5
239
100
AcDbEntity
8
1
62
256
6
ByLayer
370
-1
48
1
60
0
100
AcDbEllipse
10
20.767483
20
-14.160105
30
0
11
-0.329968661514939
21
-0.00454779265573889
31
0
210
0
220
0
230
1
40
0.388155
41
-2.2143740867545
42
-1.33335276074512
0
ELLIPSE
5
23A
100
AcDbEntity
8
1
62
256
6
ByLayer
370
-1
48
1
60
0
100
AcDbEllipse
10
19.392761
20
-12.790283
30
0
11
-0.0878138722405286
21
-0.00572047569037068
31
0
210
0
220
0
230
1
40
0.965789
41
-1.61848771655679
42
-0.58643050899537
0
ELLIPSE
5
23B
100
AcDbEntity
8
1
62
256
6
ByLayer
370
-1
48
1
60
0
100
AcDbEllipse
10
21.876591
20
-11.586741
30
0
11
-0.140264069786856
21
-0.240302574634601
31
0
210
0
220
0
230
1
40
0.078706
41
0.512153286489808
42
0.938728401757228
0
ELLIPSE
5
23C
100
AcDbEntity
8
1
62
256
6
ByLayer
370
-1
48
1
60
0
100
AcDbEllipse
10
21.081064
20
-14.585376
30
0
11
-1.53630689172438
21
0.724448865247649
31
0
210
0
220
0
230
1
40
0.188839
41
-0.31906341221541
42
0.282355984093824
0
ELLIPSE
5
23D
100
AcDbEntity
8
1
62
256
6
ByLayer
370
-1
48
1
60
0
100
AcDbEllipse
10
27.219312
20
-13.638373
30
0
11
-2.91486949082832
21
-0.189883894622185
31
0
210
0
220
0
230
1
40
0.965789
41
-0.440509960029906
42
0
0
ELLIPSE
5
23E
100
AcDbEntity
8
1
62
256
6
ByLayer
370
-1
48
1
60
0
100
AcDbEllipse
10
27.219312
20
-13.638373
30
0
11
-2.91486949082832
21
-0.189883894622185
31
0
210
0
220
0
230
1
40
0.965789
41
0
42
0.59130688192502
0
ELLIPSE
5
23F
100
AcDbEntity
8
1
62
256
6
ByLayer
370
-1
48
1
60
0
100
AcDbEllipse
10
27.219312
20
-13.638373
30
0
11
-2.91486949082832
21
-0.189883894622185
31
0
210
0
220
0
230
1
40
0.965789
41
2.57777504098304
42
-2.70108219353848
0
ELLIPSE
5
240
100
AcDbEntity
8
1
62
256
6
ByLayer
370
-1
48
1
60
0
100
AcDbEllipse
10
24.701173
20
-11.343613
30
0
11
0.035725991807145
21
-0.145683401626252
31
0
210
0
220
0
230
1
40
0.046814
41
-1.4871192479179
42
-1.31258632271851
0
ELLIPSE
5
241
100
AcDbEntity
8
1
62
256
6
ByLayer
370
-1
48
1
60
0
100
AcDbEllipse
10
30.369017
20
-19.843767
30
0
11
-0.000586137695820625
21
0.134584627014007
31
0
210
0
220
0
230
1
40
0.965798
41
-1.03204889663559
42
8.31092027714741E-06
0
ELLIPSE
5
242
100
AcDbEntity
8
1
62
256
6
ByLayer
370
-1
48
1
60
0
100
AcDbEllipse
10
31.764296
20
-18.030832
30
0
11
-0.101161855390477
21
-0.303588996859169
31
0
210
0
220
0
230
1
40
0.015437
41
-1.84125864988252
42
-1.56561488893598
0
ELLIPSE
5
243
100
AcDbEntity
8
1
62
256
6
ByLayer
370
-1
48
1
60
0
100
AcDbEllipse
10
31.764296
20
-18.030832
30
0
11
-0.17567740821477
21
0.267464854220028
31
0
210
0
220
0
230
1
40
0.203761
41
-1.39268532020113
42
-0.402079994214082
0
ELLIPSE
5
244
100
AcDbEntity
8
1
62
256
6
ByLayer
370
-1
48
1
60
0
100
AcDbEllipse
10
29.941358
20
-7.825287
30
0
11
0.329092877421674
21
0.0244515445386046
31
0
210
0
220
0
230
1
40
0.673036
41
1.32836245256557
42
2.14481203860295
0
ELLIPSE
5
245
100
AcDbEntity
8
1
62
256
6
ByLayer
370
-1
48
1
60
0
100
AcDbEllipse
10
21.373711
20
-12.448863
30
0
11
-0.35203038273981
21
-0.578101923544457
31
0
210
0
220
0
230
1
40
0.071322
41
-2.60919099825766
42
-1.74625735232651
0
ELLIPSE
5
246
100
AcDbEntity
8
1
62
256
6
ByLayer
370
-1
48
1
60
0
100
AcDbEllipse
10
30.993131
20
-18.967018
30
0
11
1.55866942272947E-17
21
0.254558441227155
31
0
210
0
220
0
230
1
40
0.999867
41
-0.549766437173565
42
0.558493593836948
0
ELLIPSE
5
247
100
AcDbEntity
8
1
62
256
6
ByLayer
370
-1
48
1
60
0
100
AcDbEllipse
10
21.214334
20
-15.824273
30
0
11
-0.336670865988062
21
0.199900719032539
31
0
210
0
220
0
230
1
40
0.176549
41
-2.39098586531559
42
-1.40038053933285
0
ELLIPSE
5
248
100
AcDbEntity
8
1
62
256
6
ByLayer
370
-1
48
1
60
0
100
AcDbEllipse
10
29.978758
20
-8.079157
30
0
11
0.222782340523563
21
-0.123158551269663
31
0
210
0
220
0
230
1
40
0.903036
41
-2.69625135559558
42
-1.58799132119611
0
ELLIPSE
5
249
100
AcDbEntity
8
1
62
256
6
ByLayer
370
-1
48
1
60
0
100
AcDbEllipse
10
21.189619
20
-15.549209
30
0
11
0.3187160302586
21
0.0286372494524014
31
0
210
0
220
0
230
1
40
0.189541
41
0.623798962615184
42
1.61440428860228
0
ELLIPSE
5
24A
100
AcDbEntity
8
1
62
256
6
ByLayer
370
-1
48
1
60
0
100
AcDbEllipse
10
29.97502
20
-8.278345
30
0
11
-0.0059581194232875
21
-0.890176669398234
31
0
210
0
220
0
230
1
40
0.362985
41
3.11879900341442
42
-2.34793671772848
0
ELLIPSE
5
24B
100
AcDbEntity
8
1
62
256
6
ByLayer
370
-1
48
1
60
0
100
AcDbEllipse
10
30.686926
20
-19.158376
30
0
11
1.55866942272947E-17
21
0.254558441227155
31
0
210
0
220
0
230
1
40
0.999867
41
0.558493593836917
42
0.863312072454483
0
ELLIPSE
5
24C
100
AcDbEntity
8
1
62
256
6
ByLayer
370
-1
48
1
60
0
100
AcDbEllipse
10
21.189619
20
-15.549209
30
0
11
-0.214373568568198
21
0.237579403777635
31
0
210
0
220
0
230
1
40
0.080191
41
-1.39228185157721
42
-1.1166380906305
0
ELLIPSE
5
24D
100
AcDbEntity
8
1
62
256
6
ByLayer
370
-1
48
1
60
0
100
AcDbEllipse
10
20.308316
20
-13.541619
30
0
11
-0.120148037017748
21
-0.0531314302268323
31
0
210
0
220
0
230
1
40
0.908072
41
1.2018148059371
42
2.23387201349835
0
ELLIPSE
5
24E
100
AcDbEntity
8
1
62
256
6
ByLayer
370
-1
48
1
60
0
100
AcDbEllipse
10
20.460449
20
-14.675195
30
0
11
-0.280790684040507
21
-0.173368370114229
31
0
210
0
220
0
230
1
40
0.444526
41
-1.56272537110594
42
-1.21365952070707
0
ELLIPSE
5
24F
100
AcDbEntity
8
1
62
256
6
ByLayer
370
-1
48
1
60
0
100
AcDbEllipse
10
25.695307
20
-18.383532
30
0
11
-0.128945792956868
21
0.0768529686768463
31
0
210
0
220
0
230
1
40
0.215846
41
1.00566648801058
42
1.71819106651025
0
ELLIPSE
5
250
100
AcDbEntity
8
1
62
256
6
ByLayer
370
-1
48
1
60
0
100
AcDbEllipse
10
31.999831
20
-17.036648
30
0
11
-0.000560354038933543
21
0.175204025462936
31
0
210
0
220
0
230
1
40
0.014074
41
-2.736728017756
42
-1.79425022122974
0
ELLIPSE
5
251
100
AcDbEntity
8
1
62
256
6
ByLayer
370
-1
48
1
60
0
100
AcDbEllipse
10
29.516326
20
-7.495358
30
0
11
-0.239377603623476
21
0.0826540723972847
31
0
210
0
220
0
230
1
40
0.911082
41
-1.28340322777423
42
-0.744664108538637
0
ELLIPSE
5
252
100
AcDbEntity
8
1
62
256
6
ByLayer
370
-1
48
1
60
0
100
AcDbEllipse
10
28.489111
20
-7.82471
30
0
11
-0.335804858937744
21
-0.201414936975636
31
0
210
0
220
0
230
1
40
0.189826
41
-1.71815547220587
42
-0.727550146214915
0
ELLIPSE
5
253
100
AcDbEntity
8
1
62
256
6
ByLayer
370
-1
48
1
60
0
100
AcDbEllipse
10
24.257758
20
-10.860238
30
0
11
-0.131634364356025
21
-0.0719193584550447
31
0
210
0
220
0
230
1
40
0.236597
41
1.46129512665364
42
2.17381970518018
0
ELLIPSE
5
254
100
AcDbEntity
8
1
62
256
6
ByLayer
370
-1
48
1
60
0
100
AcDbEllipse
10
29.83329
20
-19.715167
30
0
11
-0.00081157527952727
21
0.186347945093892
31
0
210
0
220
0
230
1
40
0.965798
41
-3.14158434271276
42
-2.19803602410064
0
ELLIPSE
5
255
100
AcDbEntity
8
1
62
256
6
ByLayer
370
-1
48
1
60
0
100
AcDbEllipse
10
20.684837
20
-13.144555
30
0
11
-0.166358820483797
21
-0.0735665957011938
31
0
210
0
220
0
230
1
40
0.908072
41
-0.907720640111029
42
0.0358276785023299
0
ELLIPSE
5
256
100
AcDbEntity
8
1
62
256
6
ByLayer
370
-1
48
1
60
0
100
AcDbEllipse
10
31.158013
20
-14.073601
30
0
11
0.0633059060388757
21
0.135986625300421
31
0
210
0
220
0
230
1
40
0.127852
41
-1.80029716860961
42
-1.09471097891145
0
ELLIPSE
5
257
100
AcDbEntity
8
1
62
256
6
ByLayer
370
-1
48
1
60
0
100
AcDbEllipse
10
29.935114
20
-8.158105
30
0
11
0.329941928492634
21
-0.00619062376193241
31
0
210
0
220
0
230
1
40
0.387666
41
1.3686836179624
42
2.24970494397179
0
ELLIPSE
5
258
100
AcDbEntity
8
1
62
256
6
ByLayer
370
-1
48
1
60
0
100
AcDbEllipse
10
31.304402
20
-19.155669
30
0
11
0.172437766515789
21
0.281363140228151
31
0
210
0
220
0
230
1
40
0.013865
41
0.69831414451397
42
1.57933547052238
0
ELLIPSE
5
259
100
AcDbEntity
8
1
62
256
6
ByLayer
370
-1
48
1
60
0
100
AcDbEllipse
10
25.426218
20
-10.570999
30
0
11
-0.149596176921153
21
-0.0109992659107356
31
0
210
0
220
0
230
1
40
0.259322
41
0.863046553738732
42
1.5686327434371
0
ELLIPSE
5
25A
100
AcDbEntity
8
1
62
256
6
ByLayer
370
-1
48
1
60
0
100
AcDbEllipse
10
27.240537
20
-13.964191
30
0
11
3.07390048262852
21
0.200243680603571
31
0
210
0
220
0
230
1
40
0.965789
41
0
42
6.28318530717959
0
ELLIPSE
5
25B
100
AcDbEntity
8
1
62
256
6
ByLayer
370
-1
48
1
60
0
100
AcDbEllipse
10
21.01006
20
-15.711229
30
0
11
-0.289259153854967
21
0.169069487800709
31
0
210
0
220
0
230
1
40
0.207991
41
-1.45829793081689
42
-1.18265416991947
0
ELLIPSE
5
25C
100
AcDbEntity
8
1
62
256
6
ByLayer
370
-1
48
1
60
0
100
AcDbEllipse
10
31.121918
20
-7.780744
30
0
11
-0.179619284128354
21
-0.0117009730030309
31
0
210
0
220
0
230
1
40
0.965789
41
-2.68082561138859
42
-2.39034587768745
0
ELLIPSE
5
25D
100
AcDbEntity
8
1
62
256
6
ByLayer
370
-1
48
1
60
0
100
AcDbEllipse
10
28.742971
20
-7.932986
30
0
11
0.176329317764093
21
0.267035525158825
31
0
210
0
220
0
230
1
40
0.03732
41
1.12825396992084
42
2.29821777815298
0
ELLIPSE
5
25E
100
AcDbEntity
8
1
62
256
6
ByLayer
370
-1
48
1
60
0
100
AcDbEllipse
10
19.45725
20
-13.814967
30
0
11
-0.0813309788994964
21
-0.035965891234785
31
0
210
0
220
0
230
1
40
0.908072
41
-0.907720640166935
42
0.124336567411517
0
ELLIPSE
5
25F
100
AcDbEntity
8
1
62
256
6
ByLayer
370
-1
48
1
60
0
100
AcDbEllipse
10
30.542053
20
-7.867053
30
0
11
0.279970847001597
21
-0.174689223563472
31
0
210
0
220
0
230
1
40
0.429075
41
1.24442079787161
42
1.59348664827049
0
ELLIPSE
5
260
100
AcDbEntity
8
1
62
256
6
ByLayer
370
-1
48
1
60
0
100
AcDbEllipse
10
25.129793
20
-17.131521
30
0
11
0.082407534404926
21
-0.125335542737489
31
0
210
0
220
0
230
1
40
0.131471
41
-1.34334808187604
42
-0.637761892177582
0
ELLIPSE
5
261
100
AcDbEntity
8
1
62
256
6
ByLayer
370
-1
48
1
60
0
100
AcDbEllipse
10
32.036153
20
-10.5999
30
0
11
-0.140714193292818
21
0.239169977202174
31
0
210
0
220
0
230
1
40
0.063581
41
0.75383509643897
42
1.180410211391
0
ELLIPSE
5
262
100
AcDbEntity
8
1
62
256
6
ByLayer
370
-1
48
1
60
0
100
AcDbEllipse
10
20.721586
20
-14.414338
30
0
11
0.21413543481211
21
0.13764452607288
31
0
210
0
220
0
230
1
40
0.895737
41
-1.6175897563761
42
-0.509329721976629
0
ELLIPSE
5
263
100
AcDbEntity
8
1
62
256
6
ByLayer
370
-1
48
1
60
0
100
AcDbEllipse
10
31.999831
20
-14.465493
30
0
11
-0.000592402744059864
21
0.165729210465687
31
0
210
0
220
0
230
1
40
0.014833
41
-1.80726703743264
42
-1.10168084660855
0
ELLIPSE
5
264
100
AcDbEntity
8
1
62
256
6
ByLayer
370
-1
48
1
60
0
100
AcDbEllipse
10
20.460449
20
-14.675195
30
0
11
-0.210233595088772
21
0.254365554853739
31
0
210
0
220
0
230
1
40
0.325777
41
1.0922597509354
42
1.90870933697281
0
ELLIPSE
5
265
100
AcDbEntity
8
1
62
256
6
ByLayer
370
-1
48
1
60
0
100
AcDbEllipse
10
20.433217
20
-15.084554
30
0
11
-0.231053917340733
21
-0.102175827341308
31
0
210
0
220
0
230
1
40
0.908072
41
0.124336567528412
42
0.663075686771465
0
ELLIPSE
5
266
100
AcDbEntity
8
1
62
256
6
ByLayer
370
-1
48
1
60
0
100
AcDbEllipse
10
31.149569
20
-8.454334
30
0
11
-0.124476353883715
21
0.0429801176495757
31
0
210
0
220
0
230
1
40
0.911082
41
0.826132218277739
42
1.76968053688879
0
ELLIPSE
5
267
100
AcDbEntity
8
1
62
256
6
ByLayer
370
-1
48
1
60
0
100
AcDbEllipse
10
19.390722
20
-12.793703
30
0
11
-0.0878138722405256
21
-0.00572047569037053
31
0
210
0
220
0
230
1
40
0.965789
41
-0.586430508995467
42
-1.16283422940319E-05
0
ELLIPSE
5
268
100
AcDbEntity
8
1
62
256
6
ByLayer
370
-1
48
1
60
0
100
AcDbEllipse
10
20.767483
20
-14.160105
30
0
11
0.328515456278559
21
-0.0312665154133051
31
0
210
0
220
0
230
1
40
0.671
41
1.04060477834372
42
1.85705436438109
0
ELLIPSE
5
269
100
AcDbEntity
8
1
62
256
6
ByLayer
370
-1
48
1
60
0
100
AcDbEllipse
10
31.533273
20
-9.775482
30
0
11
-0.352978025592194
21
0.614491679962301
31
0
210
0
220
0
230
1
40
0.052277
41
-2.40183947121582
42
-1.53890582523068
0
ELLIPSE
5
26A
100
AcDbEntity
8
1
62
256
6
ByLayer
370
-1
48
1
60
0
100
AcDbEllipse
10
30.690335
20
-19.158349
30
0
11
-0.285075263893939
21
-0.166229040530833
31
0
210
0
220
0
230
1
40
0.008173
41
-1.55671124383621
42
-1.20764539343822
0
ELLIPSE
5
26B
100
AcDbEntity
8
1
62
256
6
ByLayer
370
-1
48
1
60
0
100
AcDbEllipse
10
30.996539
20
-18.966991
30
0
11
-0.174886668864491
21
0.279847553238334
31
0
210
0
220
0
230
1
40
0.013828
41
0.68117543358324
42
1.56219675959258
0
ELLIPSE
5
26C
100
AcDbEntity
8
1
62
256
6
ByLayer
370
-1
48
1
60
0
100
AcDbEllipse
10
30.999689
20
-19.688877
30
0
11
0.286515006649985
21
-0.163735002257791
31
0
210
0
220
0
230
1
40
0.008111
41
-1.58491693353026
42
-1.23585108313204
0
ELLIPSE
5
26D
100
AcDbEntity
8
1
62
256
6
ByLayer
370
-1
48
1
60
0
100
AcDbEllipse
10
30.542053
20
-7.867053
30
0
11
0.126989212138565
21
-0.304587819849098
31
0
210
0
220
0
230
1
40
0.517188
41
1.54493633139593
42
2.14635572770679
0
ELLIPSE
5
26E
100
AcDbEntity
8
1
62
256
6
ByLayer
370
-1
48
1
60
0
100
AcDbEllipse
10
31.189814
20
-6.44743
30
0
11
-0.0878138722405286
21
-0.00572047569037068
31
0
210
0
220
0
230
1
40
0.965789
41
3.14157919444837
42
-2.68082561138862
0
ELLIPSE
5
26F
100
AcDbEntity
8
1
62
256
6
ByLayer
370
-1
48
1
60
0
100
AcDbEllipse
10
30.248392
20
-8.337698
30
0
11
0.279970847001597
21
-0.174689223563472
31
0
210
0
220
0
230
1
40
0.429075
41
1.2444207978716
42
1.59348664827047
0
ELLIPSE
5
270
100
AcDbEntity
8
1
62
256
6
ByLayer
370
-1
48
1
60
0
100
AcDbEllipse
10
25.310641
20
-11.194153
30
0
11
0.035725991807145
21
-0.145683401626252
31
0
210
0
220
0
230
1
40
0.046814
41
-1.48711924791788
42
-1.31258632271824
0
ELLIPSE
5
271
100
AcDbEntity
8
1
62
256
6
ByLayer
370
-1
48
1
60
0
100
AcDbEllipse
10
30.808867
20
-18.854076
30
0
11
-0.822902478276337
21
0.504346294684161
31
0
210
0
220
0
230
1
40
0.3419
41
-3.13110594625816
42
-2.31465636022
0
ELLIPSE
5
272
100
AcDbEntity
8
1
62
256
6
ByLayer
370
-1
48
1
60
0
100
AcDbEllipse
10
30.292036
20
-8.25875
30
0
11
0.222782340523563
21
-0.123158551269663
31
0
210
0
220
0
230
1
40
0.903036
41
-1.58799132119611
42
-1.2831726709192
0
ELLIPSE
5
273
100
AcDbEntity
8
1
62
256
6
ByLayer
370
-1
48
1
60
0
100
AcDbEllipse
10
20.724331
20
-14.613498
30
0
11
-0.000207326155820397
21
-0.89015752469568
31
0
210
0
220
0
230
1
40
0.360082
41
2.35360549926422
42
-3.11313022187922
0
ELLIPSE
5
274
100
AcDbEntity
8
1
62
256
6
ByLayer
370
-1
48
1
60
0
100
AcDbEllipse
10
25.96874
20
-17.963365
30
0
11
0.125722164389598
21
-0.0818164859988184
31
0
210
0
220
0
230
1
40
0.210253
41
-2.12740956439771
42
-1.41488498587113
0
ELLIPSE
5
275
100
AcDbEntity
8
1
62
256
6
ByLayer
370
-1
48
1
60
0
100
AcDbEllipse
10
30.999689
20
-19.688877
30
0
11
-0.329991143274648
21
-0.00241771799247272
31
0
210
0
220
0
230
1
40
0.178986
41
1.25353512295926
42
1.85495451927011
0
ELLIPSE
5
276
100
AcDbEntity
8
1
62
256
6
ByLayer
370
-1
48
1
60
0
100
AcDbEllipse
10
31.994457
20
-17.879656
30
0
11
-0.000910734194582002
21
0.38223990920974
31
0
210
0
220
0
230
1
40
0.013965
41
0.411204772711231
42
1.40181009883715
0
ELLIPSE
5
277
100
AcDbEntity
8
1
62
256
6
ByLayer
370
-1
48
1
60
0
100
AcDbEllipse
10
20.460449
20
-14.675195
30
0
11
0.16664678834278
21
-0.284831262215082
31
0
210
0
220
0
230
1
40
0.020796
41
-2.03107132206091
42
-1.15004999605158
0
ELLIPSE
5
278
100
AcDbEntity
8
1
62
256
6
ByLayer
370
-1
48
1
60
0
100
AcDbEllipse
10
31.446349
20
-8.322189
30
0
11
-0.179619284128354
21
-0.0117009730030309
31
0
210
0
220
0
230
1
40
0.965789
41
3.14158154768323
42
-2.68082561138857
0
ELLIPSE
5
279
100
AcDbEntity
8
1
62
256
6
ByLayer
370
-1
48
1
60
0
100
AcDbEllipse
10
31.185064
20
-8.750084
30
0
11
-0.172351874605953
21
0.0595109321331713
31
0
210
0
220
0
230
1
40
0.911082
41
-2.31546043529541
42
-1.37191211667828
0
ELLIPSE
5
27A
100
AcDbEntity
8
1
62
256
6
ByLayer
370
-1
48
1
60
0
100
AcDbEllipse
10
30.830764
20
-13.083706
30
0
11
-0.143814300897886
21
0.0426315242191993
31
0
210
0
220
0
230
1
40
0.244304
41
1.66062836463026
42
1.83516128982977
0
ELLIPSE
5
27B
100
AcDbEntity
8
1
62
256
6
ByLayer
370
-1
48
1
60
0
100
AcDbEllipse
10
31.256343
20
-7.468693
30
0
11
-0.0842609164755718
21
0.0290942334854897
31
0
210
0
220
0
230
1
40
0.911082
41
2.93566766430093
42
-2.31546043531827
0
ELLIPSE
5
27C
100
AcDbEntity
8
1
62
256
6
ByLayer
370
-1
48
1
60
0
100
AcDbEllipse
10
31.187776
20
-6.444027
30
0
11
-0.0878138722405256
21
-0.00572047569037053
31
0
210
0
220
0
230
1
40
0.965789
41
-2.68082561138864
42
-1.64876840382715
0
ELLIPSE
5
27D
100
AcDbEntity
8
1
62
256
6
ByLayer
370
-1
48
1
60
0
100
AcDbEllipse
10
27.94343
20
-19.386207
30
0
11
0.249471227956047
21
0.0162513513930986
31
0
210
0
220
0
230
1
40
0.965789
41
-2.15722683579031
42
-2.06109105806602
0
ELLIPSE
5
27E
100
AcDbEntity
8
1
62
256
6
ByLayer
370
-1
48
1
60
0
100
AcDbEllipse
10
30.248392
20
-8.337698
30
0
11
0.164123276904417
21
0.286292769692418
31
0
210
0
220
0
230
1
40
0.007386
41
1.12684352003077
42
2.00786484603838
0
ELLIPSE
5
27F
100
AcDbEntity
8
1
62
256
6
ByLayer
370
-1
48
1
60
0
100
AcDbEllipse
10
19.459289
20
-13.811547
30
0
11
-0.0813309789025772
21
-0.035965891231779
31
0
210
0
220
0
230
1
40
0.908072
41
-1.93977784768093
42
-0.907720640106489
0
ELLIPSE
5
280
100
AcDbEntity
8
1
62
256
6
ByLayer
370
-1
48
1
60
0
100
AcDbEllipse
10
31.764296
20
-18.030832
30
0
11
0.150248298124003
21
-0.282533978329759
31
0
210
0
220
0
230
1
40
0.014394
41
-2.74837435944193
42
-1.57841055121137
0
ELLIPSE
5
281
100
AcDbEntity
8
1
62
256
6
ByLayer
370
-1
48
1
60
0
100
AcDbEllipse
10
30.690335
20
-19.158349
30
0
11
0.174886668864491
21
-0.279847553238334
31
0
210
0
220
0
230
1
40
0.013828
41
-2.46041722000651
42
-1.57939589399719
0
ELLIPSE
5
282
100
AcDbEntity
8
1
62
256
6
ByLayer
370
-1
48
1
60
0
100
AcDbEllipse
10
31.176381
20
-18.852472
30
0
11
-0.818470076661959
21
-0.511508916892909
31
0
210
0
220
0
230
1
40
0.341899
41
-0.826936493206653
42
-0.0104869071731934
0
ELLIPSE
5
283
100
AcDbEntity
8
1
62
256
6
ByLayer
370
-1
48
1
60
0
100
AcDbEllipse
10
30.248392
20
-8.337698
30
0
11
-0.206260449892314
21
-0.257597800476285
31
0
210
0
220
0
230
1
40
0.301789
41
1.21123745370851
42
2.02768703974589
0
ELLIPSE
5
284
100
AcDbEntity
8
1
62
256
6
ByLayer
370
-1
48
1
60
0
100
AcDbEllipse
10
31.999831
20
-12.969559
30
0
11
-0.000654095717801716
21
0.15010469251533
31
0
210
0
220
0
230
1
40
0.016273
41
-2.54496627471826
42
-1.83244169638894
0
ELLIPSE
5
285
100
AcDbEntity
8
1
62
256
6
ByLayer
370
-1
48
1
60
0
100
AcDbEllipse
10
31.994457
20
-18.107527
30
0
11
-0.00147399347050193
21
0.33778470739768
31
0
210
0
220
0
230
1
40
0.015426
41
1.29511890655159
42
1.57076266470779
0
ELLIPSE
5
286
100
AcDbEntity
8
1
62
256
6
ByLayer
370
-1
48
1
60
0
100
AcDbEllipse
10
20.171429
20
-14.207093
30
0
11
-0.0259338634078662
21
0.328979383440273
31
0
210
0
220
0
230
1
40
0.228524
41
0.81922814858226
42
1.16829399898111
0
ELLIPSE
5
287
100
AcDbEntity
8
1
62
256
6
ByLayer
370
-1
48
1
60
0
100
AcDbEllipse
10
30.542053
20
-7.867053
30
0
11
0.0228891020462457
21
0.329205238426603
31
0
210
0
220
0
230
1
40
0.196789
41
-1.17075955002685
42
-0.821693699628021
0
ELLIPSE
5
288
100
AcDbEntity
8
1
62
256
6
ByLayer
370
-1
48
1
60
0
100
AcDbEllipse
10
31.001783
20
-20.485321
30
0
11
-0.000396770132125334
21
0.0911034398232712
31
0
210
0
220
0
230
1
40
0.965798
41
-3.14158434266537
42
-2.10952713509864
0
ELLIPSE
5
289
100
AcDbEntity
8
1
62
256
6
ByLayer
370
-1
48
1
60
0
100
AcDbEllipse
10
30.997706
20
-20.485339
30
0
11
-0.000396770134303186
21
0.0911034398246123
31
0
210
0
220
0
230
1
40
0.965798
41
2.10954375693406
42
-3.14158434268794
0
ELLIPSE
5
28A
100
AcDbEntity
8
1
62
256
6
ByLayer
370
-1
48
1
60
0
100
AcDbEllipse
10
25.359913
20
-9.669211
30
0
11
-0.14336018977042
21
-0.084835294103157
31
0
210
0
220
0
230
1
40
0.209444
41
0.75940363458838
42
1.46498982431324
0
ELLIPSE
5
28B
100
AcDbEntity
8
1
62
256
6
ByLayer
370
-1
48
1
60
0
100
AcDbEllipse
10
28.742971
20
-7.932986
30
0
11
-0.125543597399465
21
-0.294344704644064
31
0
210
0
220
0
230
1
40
0.19293
41
-1.85493786330969
42
-0.864332537322547
0
ELLIPSE
5
28C
100
AcDbEntity
8
1
62
256
6
ByLayer
370
-1
48
1
60
0
100
AcDbEllipse
10
28.742971
20
-7.932986
30
0
11
0.312377620717914
21
0.0694278191693724
31
0
210
0
220
0
230
1
40
0.335766
41
1.28237066486828
42
1.55801442581498
0
ELLIPSE
5
28D
100
AcDbEntity
8
1
62
256
6
ByLayer
370
-1
48
1
60
0
100
AcDbEllipse
10
25.745755
20
-16.914205
30
0
11
0.105854520827011
21
0.106277092642224
31
0
210
0
220
0
230
1
40
0.19749
41
-1.91763486850108
42
-1.7431019433017
0
ELLIPSE
5
28E
100
AcDbEntity
8
1
62
256
6
ByLayer
370
-1
48
1
60
0
100
AcDbEllipse
10
29.985002
20
-7.746339
30
0
11
0.222782340523563
21
-0.123158551269663
31
0
210
0
220
0
230
1
40
0.903036
41
-3.00107000587249
42
-2.69625135559558
0
ELLIPSE
5
28F
100
AcDbEntity
8
1
62
256
6
ByLayer
370
-1
48
1
60
0
100
AcDbEllipse
10
29.615509
20
-8.253349
30
0
11
-1.55232594746315
21
-0.738057643115988
31
0
210
0
220
0
230
1
40
0.185907
41
2.8587849500857
42
-2.82298096078066
0
ELLIPSE
5
290
100
AcDbEntity
8
1
62
256
6
ByLayer
370
-1
48
1
60
0
100
AcDbEllipse
10
28.693385
20
-7.709883
30
0
11
-0.289207306328532
21
-0.169862172852693
31
0
210
0
220
0
230
1
40
0.223196
41
-1.93117354629579
42
-1.65552978507346
0
ELLIPSE
5
291
100
AcDbEntity
8
1
62
256
6
ByLayer
370
-1
48
1
60
0
100
AcDbEllipse
10
31.304402
20
-19.155669
30
0
11
0.286515006649985
21
-0.163735002257791
31
0
210
0
220
0
230
1
40
0.008111
41
-1.58491693353026
42
-1.23585108313189
0
ELLIPSE
5
292
100
AcDbEntity
8
1
62
256
6
ByLayer
370
-1
48
1
60
0
100
AcDbEllipse
10
26.182088
20
-17.348803
30
0
11
0.105854520827011
21
0.106277092642224
31
0
210
0
220
0
230
1
40
0.19749
41
-1.9176348685011
42
-1.74310194330163
0
ELLIPSE
5
293
100
AcDbEntity
8
1
62
256
6
ByLayer
370
-1
48
1
60
0
100
AcDbEllipse
10
30.125021
20
-19.844831
30
0
11
-0.000586137715841913
21
0.134584627013937
31
0
210
0
220
0
230
1
40
0.965798
41
8.31077738448943E-06
42
0.94355662938244
0
ELLIPSE
5
294
100
AcDbEntity
8
1
62
256
6
ByLayer
370
-1
48
1
60
0
100
AcDbEllipse
10
30.690335
20
-19.158349
30
0
11
-0.175765810909963
21
0.279296222164144
31
0
210
0
220
0
230
1
40
0.354829
41
0.734708662349376
42
1.5511582483868
0
ELLIPSE
5
295
100
AcDbEntity
8
1
62
256
6
ByLayer
370
-1
48
1
60
0
100
AcDbEllipse
10
22.025785
20
-11.862471
30
0
11
0.249471227956047
21
0.0162513513930986
31
0
210
0
220
0
230
1
40
0.965789
41
2.03156336899608
42
2.12769914672036
0
ELLIPSE
5
296
100
AcDbEntity
8
1
62
256
6
ByLayer
370
-1
48
1
60
0
100
AcDbEllipse
10
20.171429
20
-14.207093
30
0
11
-0.280790684040507
21
-0.173368370114229
31
0
210
0
220
0
230
1
40
0.444526
41
-1.56272537110595
42
-1.2136595207071
0
ELLIPSE
5
297
100
AcDbEntity
8
1
62
256
6
ByLayer
370
-1
48
1
60
0
100
AcDbEllipse
10
29.941358
20
-7.825287
30
0
11
-0.329941928492634
21
0.00619062376193237
31
0
210
0
220
0
230
1
40
0.387666
41
-1.77290903562737
42
-0.891887709617986
0
ELLIPSE
5
298
100
AcDbEntity
8
1
62
256
6
ByLayer
370
-1
48
1
60
0
100
AcDbEllipse
10
20.908088
20
-14.305221
30
0
11
-0.832437249546948
21
-0.488229794595372
31
0
210
0
220
0
230
1
40
0.306363
41
0.00695489505227013
42
0.823404481090089
0
ELLIPSE
5
299
100
AcDbEntity
8
1
62
256
6
ByLayer
370
-1
48
1
60
0
100
AcDbEllipse
10
31.509494
20
-9.291528
30
0
11
-0.172351874606191
21
0.0595109321315495
31
0
210
0
220
0
230
1
40
0.911082
41
3.02417655326637
42
-2.31546043529841
0
ELLIPSE
5
29A
100
AcDbEntity
8
1
62
256
6
ByLayer
370
-1
48
1
60
0
100
AcDbEllipse
10
31.742559
20
-18.859672
30
0
11
-0.00112718780812433
21
0.258816590398158
31
0
210
0
220
0
230
1
40
0.965798
41
-2.10952713485114
42
-1.5707880155954
0
ELLIPSE
5
29B
100
AcDbEntity
8
1
62
256
6
ByLayer
370
-1
48
1
60
0
100
AcDbEllipse
10
31.487527
20
-12.952518
30
0
11
0.00498680642490484
21
0.149917082954814
31
0
210
0
220
0
230
1
40
0.026344
41
-2.54435398120217
42
-1.83182940267651
0
ELLIPSE
5
29C
100
AcDbEntity
8
1
62
256
6
ByLayer
370
-1
48
1
60
0
100
AcDbEllipse
10
20.409966
20
-14.596658
30
0
11
0.21413543481211
21
0.13764452607288
31
0
210
0
220
0
230
1
40
0.895737
41
-1.92240840665298
42
-1.61758975637611
0
ELLIPSE
5
29D
100
AcDbEntity
8
1
62
256
6
ByLayer
370
-1
48
1
60
0
100
AcDbEllipse
10
30.999689
20
-19.688877
30
0
11
-0.285075263893939
21
-0.166229040530833
31
0
210
0
220
0
230
1
40
0.008173
41
-1.55671124383619
42
-1.20764539343761
0
ELLIPSE
5
29E
100
AcDbEntity
8
1
62
256
6
ByLayer
370
-1
48
1
60
0
100
AcDbEllipse
10
31.254304
20
-7.465291
30
0
11
-0.0842609164746517
21
0.029094233486426
31
0
210
0
220
0
230
1
40
0.911082
41
-2.31546043530606
42
-1.28340322774043
0
ELLIPSE
5
29F
100
AcDbEntity
8
1
62
256
6
ByLayer
370
-1
48
1
60
0
100
AcDbEllipse
10
31.300994
20
-19.155696
30
0
11
1.55866942272947E-17
21
0.254558441227155
31
0
210
0
220
0
230
1
40
0.999867
41
-0.854585258752884
42
-0.549766437173565
0
ELLIPSE
5
2A0
100
AcDbEntity
8
1
62
256
6
ByLayer
370
-1
48
1
60
0
100
AcDbEllipse
10
31.027571
20
-8.250731
30
0
11
-0.124476353882366
21
0.0429801176505802
31
0
210
0
220
0
230
1
40
0.911082
41
-0.205924989275026
42
0.82613221829084
0
ELLIPSE
5
2A1
100
AcDbEntity
8
1
62
256
6
ByLayer
370
-1
48
1
60
0
100
AcDbEllipse
10
31.68311
20
-9.580301
30
0
11
0.249471227956047
21
0.0162513513930986
31
0
210
0
220
0
230
1
40
0.965789
41
1.31917323646941E-06
42
0.460767042201202
0
ELLIPSE
5
2A2
100
AcDbEntity
8
1
62
256
6
ByLayer
370
-1
48
1
60
0
100
AcDbEllipse
10
20.171429
20
-14.207093
30
0
11
0.126714333577781
21
0.304702277093459
31
0
210
0
220
0
230
1
40
0.542683
41
1.00999969353904
42
1.61141908984988
0
ELLIPSE
5
2A3
100
AcDbEntity
8
1
62
256
6
ByLayer
370
-1
48
1
60
0
100
AcDbEllipse
10
27.223552
20
-13.703454
30
0
11
-3.00359442768436
21
-0.195663719967143
31
0
210
0
220
0
230
1
40
0.965789
41
-0.220303902658778
42
0
0
ELLIPSE
5
2A4
100
AcDbEntity
8
1
62
256
6
ByLayer
370
-1
48
1
60
0
100
AcDbEllipse
10
27.223552
20
-13.703454
30
0
11
-3.00359442768436
21
-0.195663719967143
31
0
210
0
220
0
230
1
40
0.965789
41
0
42
0.371395246320571
0
ELLIPSE
5
2A5
100
AcDbEntity
8
1
62
256
6
ByLayer
370
-1
48
1
60
0
100
AcDbEllipse
10
27.223552
20
-13.703454
30
0
11
-3.00359442768436
21
-0.195663719967143
31
0
210
0
220
0
230
1
40
0.965789
41
2.07963614906329
42
-2.92128857577827
0
ELLIPSE
5
2A6
100
AcDbEntity
8
1
62
256
6
ByLayer
370
-1
48
1
60
0
100
AcDbEllipse
10
27.251202
20
-14.035684
30
0
11
1.67223082115527
21
0.118156848207616
31
0
210
0
220
0
230
1
40
0.965764
41
-0.0681335610272979
42
0.979063990169281
0
ELLIPSE
5
2A7
100
AcDbEntity
8
1
62
256
6
ByLayer
370
-1
48
1
60
0
100
AcDbEllipse
10
27.222404
20
-13.628113
30
0
11
-1.28709104541676
21
-0.0909435583645224
31
0
210
0
220
0
230
1
40
0.965764
41
-0.963568993454446
42
-0.732792704623296
0
ELLIPSE
5
2A8
100
AcDbEntity
8
1
62
256
6
ByLayer
370
-1
48
1
60
0
100
AcDbEllipse
10
27.222404
20
-15.06087
30
0
11
-0.394032475315703
21
-0.00240287603039224
31
0
210
0
220
0
230
1
40
0.473102
41
-1.57368137364984
42
-0.163407912190606
0
ELLIPSE
5
2A9
100
AcDbEntity
8
1
62
256
6
ByLayer
370
-1
48
1
60
0
100
AcDbEllipse
10
27.222404
20
-13.628113
30
0
11
1.28709104541676
21
0.0909435583645232
31
0
210
0
220
0
230
1
40
0.965764
41
-2.6861274390188
42
-1.6389298878222
0
ELLIPSE
5
2AA
100
AcDbEntity
8
1
62
256
6
ByLayer
370
-1
48
1
60
0
100
AcDbEllipse
10
25.938043
20
-14.350571
30
0
11
-0.200051044280461
21
0.32695788301017
31
0
210
0
220
0
230
1
40
0.499975
41
-2.37462779238859
42
-1.58915102711232
0
ELLIPSE
5
2AB
100
AcDbEntity
8
1
62
256
6
ByLayer
370
-1
48
1
60
0
100
AcDbEllipse
10
27.222404
20
-13.628113
30
0
11
-1.28709104541676
21
-0.0909435583645224
31
0
210
0
220
0
230
1
40
0.965764
41
1.5026627657676
42
2.54986031696419
0
ELLIPSE
5
2AC
100
AcDbEntity
8
1
62
256
6
ByLayer
370
-1
48
1
60
0
100
AcDbEllipse
10
27.251202
20
-14.035684
30
0
11
-1.7955234300164
21
-0.12686848411698
31
0
210
0
220
0
230
1
40
0.965764
41
0
42
6.28318530717959
0
ELLIPSE
5
2AD
100
AcDbEntity
8
1
62
256
6
ByLayer
370
-1
48
1
60
0
100
AcDbEllipse
10
26.480828
20
-14.872511
30
0
11
-0.343133849056972
21
0.185391276329959
31
0
210
0
220
0
230
1
40
0.48292
41
0.966396763246885
42
-3.10477118287737
0
ELLIPSE
5
2AE
100
AcDbEntity
8
1
62
256
6
ByLayer
370
-1
48
1
60
0
100
AcDbEllipse
10
28.506764
20
-14.338412
30
0
11
-0.200517583763112
21
-0.328568772579342
31
0
210
0
220
0
230
1
40
0.495781
41
-2.95985612092209
42
-1.54958265946177
0
ELLIPSE
5
2AF
100
AcDbEntity
8
1
62
256
6
ByLayer
370
-1
48
1
60
0
100
AcDbEllipse
10
27.251202
20
-14.035684
30
0
11
1.67223082115527
21
0.118156848207616
31
0
210
0
220
0
230
1
40
0.965764
41
-2.1625286634205
42
-1.11533111222391
0
ELLIPSE
5
2B0
100
AcDbEntity
8
1
62
256
6
ByLayer
370
-1
48
1
60
0
100
AcDbEllipse
10
27.222404
20
-13.628113
30
0
11
-1.28709104541676
21
-0.0909435583645224
31
0
210
0
220
0
230
1
40
0.965764
41
-2.57250658392438
42
-2.12648206047495
0
ELLIPSE
5
2B1
100
AcDbEntity
8
1
62
256
6
ByLayer
370
-1
48
1
60
0
100
AcDbEllipse
10
27.251202
20
-14.035684
30
0
11
1.67223082115527
21
0.118156848207616
31
0
210
0
220
0
230
1
40
0.965764
41
2.02626154136588
42
3.07345909256249
0
ELLIPSE
5
2B2
100
AcDbEntity
8
1
62
256
6
ByLayer
370
-1
48
1
60
0
100
AcDbEllipse
10
28.506764
20
-14.338412
30
0
11
-0.200517583762535
21
-0.328568772579222
31
0
210
0
220
0
230
1
40
0.495781
41
-1.54958265946427
42
-0.608513246083519
0
ELLIPSE
5
2B3
100
AcDbEntity
8
1
62
256
6
ByLayer
370
-1
48
1
60
0
100
AcDbEllipse
10
27.227432
20
-13.699276
30
0
11
-2.7182229704415
21
-0.192064788454875
31
0
210
0
220
0
230
1
40
0.965764
41
-3.14149459685376
42
0
0
ELLIPSE
5
2B4
100
AcDbEntity
8
1
62
256
6
ByLayer
370
-1
48
1
60
0
100
AcDbEllipse
10
28.705556
20
-13.621093
30
0
11
-0.000623103068507377
21
-0.380672332819596
31
0
210
0
220
0
230
1
40
0.50691
41
-0.0539160509661272
42
1.20422847250862
0
ELLIPSE
5
2B5
100
AcDbEntity
8
1
62
256
6
ByLayer
370
-1
48
1
60
0
100
AcDbEllipse
10
27.250079
20
-14.019799
30
0
11
-2.7182229704415
21
-0.192064788454875
31
0
210
0
220
0
230
1
40
0.965764
41
0
42
6.28318530717959
0
ELLIPSE
5
2B6
100
AcDbEntity
8
1
62
256
6
ByLayer
370
-1
48
1
60
0
100
AcDbEllipse
10
27.222404
20
-15.06087
30
0
11
-0.394032475315411
21
-0.00240287603043981
31
0
210
0
220
0
230
1
40
0.473102
41
-2.98395483511028
42
-1.57368137365014
0
ELLIPSE
5
2B7
100
AcDbEntity
8
1
62
256
6
ByLayer
370
-1
48
1
60
0
100
AcDbEllipse
10
27.222404
20
-13.628113
30
0
11
-1.28709104541676
21
-0.0909435583645224
31
0
210
0
220
0
230
1
40
0.965764
41
2.5498603169642
42
-3.12691571093334
0
ELLIPSE
5
2B8
100
AcDbEntity
8
1
62
256
6
ByLayer
370
-1
48
1
60
0
100
AcDbEllipse
10
27.222404
20
-13.628113
30
0
11
-1.28709104541676
21
-0.0909435583645224
31
0
210
0
220
0
230
1
40
0.965764
41
-0.124927586583851
42
0.455465214570997
0
ELLIPSE
5
2B9
100
AcDbEntity
8
1
62
256
6
ByLayer
370
-1
48
1
60
0
100
AcDbEllipse
10
25.938043
20
-14.350571
30
0
11
-0.200051044280427
21
0.326957883010402
31
0
210
0
220
0
230
1
40
0.499975
41
-1.58915102711152
42
-0.178877565652349
0
ELLIPSE
5
2BA
100
AcDbEntity
8
1
62
256
6
ByLayer
370
-1
48
1
60
0
100
AcDbEllipse
10
27.251202
20
-14.035684
30
0
11
1.67223082115527
21
0.118156848207616
31
0
210
0
220
0
230
1
40
0.965764
41
-1.11533111222391
42
-0.0681335610272979
0
ELLIPSE
5
2BB
100
AcDbEntity
8
1
62
256
6
ByLayer
370
-1
48
1
60
0
100
AcDbEllipse
10
27.251202
20
-14.035684
30
0
11
1.67223082115527
21
0.118156848207616
31
0
210
0
220
0
230
1
40
0.965764
41
3.07345909256249
42
-2.1625286634205
0
ELLIPSE
5
2BC
100
AcDbEntity
8
1
62
256
6
ByLayer
370
-1
48
1
60
0
100
AcDbEllipse
10
27.251202
20
-14.035684
30
0
11
1.67223082115527
21
0.118156848207616
31
0
210
0
220
0
230
1
40
0.965764
41
0.979063990169281
42
2.02626154136588
0
ELLIPSE
5
2BD
100
AcDbEntity
8
1
62
256
6
ByLayer
370
-1
48
1
60
0
100
AcDbEllipse
10
25.739252
20
-13.635133
30
0
11
-0.000623103068508395
21
-0.380672332819598
31
0
210
0
220
0
230
1
40
0.50691
41
-0.903672283967242
42
0.0603741684584579
0
ELLIPSE
5
2BE
100
AcDbEntity
8
1
62
256
6
ByLayer
370
-1
48
1
60
0
100
AcDbEllipse
10
27.96398
20
-14.865491
30
0
11
-0.342845330156825
21
-0.189166589712728
31
0
210
0
220
0
230
1
40
0.479089
41
-0.040024443316166
42
2.35411703748967
0
ELLIPSE
5
2BF
100
AcDbEntity
8
1
62
256
6
ByLayer
370
-1
48
1
60
0
100
AcDbEllipse
10
23.724367
20
-17.58508
30
0
11
-0.25
21
3.06151588455594E-17
31
0
210
0
220
0
230
1
40
0.258819
41
0.755396374706226
42
1.58442776940353
0
ELLIPSE
5
2C0
100
AcDbEntity
8
1
62
256
6
ByLayer
370
-1
48
1
60
0
100
AcDbEllipse
10
24.852767
20
-17.310047
30
0
11
-1.8
21
2.20429143688028E-16
31
0
210
0
220
0
230
1
40
0.258819
41
0.528503571946953
42
0.755396374706215
0
ELLIPSE
5
2C1
100
AcDbEntity
8
1
62
256
6
ByLayer
370
-1
48
1
60
0
100
AcDbEllipse
10
24.021815
20
-17.58403
30
0
11
-0.25
21
3.06151588455594E-17
31
0
210
0
220
0
230
1
40
0.258819
41
1.58442776940353
42
2.41345916410084
0
ELLIPSE
5
2C2
100
AcDbEntity
8
1
62
256
6
ByLayer
370
-1
48
1
60
0
100
AcDbEllipse
10
22.864868
20
-17.317061
30
0
11
-1.8
21
2.20429143688028E-16
31
0
210
0
220
0
230
1
40
0.258819
41
2.41345916410083
42
2.44231040400174
0
ELLIPSE
5
2C3
100
AcDbEntity
8
1
62
256
6
ByLayer
370
-1
48
1
60
0
100
AcDbEllipse
10
23.082464
20
-17.577587
30
0
11
-0.25
21
3.06151588455594E-17
31
0
210
0
220
0
230
1
40
0.258819
41
-2.61308908164282
42
-2.02965358241131
0
ELLIPSE
5
2C4
100
AcDbEntity
8
1
62
256
6
ByLayer
370
-1
48
1
60
0
100
AcDbEllipse
10
32.12537
20
-6.267706
30
0
11
0.00693407685583681
21
1.40968294611878
31
0
210
0
220
0
230
1
40
0.052006
41
0.785682085735113
42
1.83287963693164
0
ELLIPSE
5
2C5
100
AcDbEntity
8
1
62
256
6
ByLayer
370
-1
48
1
60
0
100
AcDbEllipse
10
32.12537
20
-6.267706
30
0
11
0.00693407685583681
21
1.40968294611878
31
0
210
0
220
0
230
1
40
0.052006
41
-0.261515465461506
42
0.785682085735113
0
ELLIPSE
5
2C6
100
AcDbEntity
8
1
62
256
6
ByLayer
370
-1
48
1
60
0
100
AcDbEllipse
10
32.12537
20
-6.267706
30
0
11
-0.00836201365887838
21
-1.69997943420724
31
0
210
0
220
0
230
1
40
0.052006
41
0
42
6.28318530717959
0
ELLIPSE
5
2C7
100
AcDbEntity
8
1
62
256
6
ByLayer
370
-1
48
1
60
0
100
AcDbEllipse
10
32.12537
20
-6.267706
30
0
11
0.00693407685583681
21
1.40968294611878
31
0
210
0
220
0
230
1
40
0.052006
41
-1.30871301665813
42
-0.261515465461506
0
ELLIPSE
5
2C8
100
AcDbEntity
8
1
62
256
6
ByLayer
370
-1
48
1
60
0
100
AcDbEllipse
10
32.12537
20
-6.267706
30
0
11
0.00693407685583681
21
1.40968294611878
31
0
210
0
220
0
230
1
40
0.052006
41
1.83287963693164
42
2.88007718812827
0
ELLIPSE
5
2C9
100
AcDbEntity
8
1
62
256
6
ByLayer
370
-1
48
1
60
0
100
AcDbEllipse
10
32.12537
20
-6.267706
30
0
11
0.00693407685583681
21
1.40968294611878
31
0
210
0
220
0
230
1
40
0.052006
41
2.88007718812827
42
-2.35591056785476
0
ELLIPSE
5
2CA
100
AcDbEntity
8
1
62
256
6
ByLayer
370
-1
48
1
60
0
100
AcDbEllipse
10
31.026871
20
-6.262303
30
0
11
-0.0152483778485429
21
-3.09996249767203
31
0
210
0
220
0
230
1
40
0.052006
41
-1.57486025232774
42
-1.54049916725784
0
ELLIPSE
5
2CB
100
AcDbEntity
8
1
62
256
6
ByLayer
370
-1
48
1
60
0
100
AcDbEllipse
10
32.12537
20
-6.267706
30
0
11
0.00693407685583681
21
1.40968294611878
31
0
210
0
220
0
230
1
40
0.052006
41
-2.35591056785476
42
-1.30871301665813
0
POINT
5
41
100
AcDbEntity
8
1
62
256
6
ByLayer
370
-1
48
1
60
0
100
AcDbPoint
10
31.000142
20
20.576468
30
0
39
0
210
0
220
0
230
1
50
360
0
POINT
5
43
100
AcDbEntity
8
80
62
256
6
ByLayer
370
-1
48
1
60
0
100
AcDbPoint
10
0
20
0
30
0
39
0
210
0
220
0
230
1
50
360
0
POINT
5
45
100
AcDbEntity
8
81
62
256
6
ByLayer
370
-1
48
1
60
0
100
AcDbPoint
10
32
20
-21.875
30
0
39
0
210
0
220
0
230
1
50
360
0
POINT
5
47
100
AcDbEntity
8
2
62
256
6
ByLayer
370
-1
48
1
60
0
100
AcDbPoint
10
32
20
21.875
30
0
39
0
210
0
220
0
230
1
50
360
0
SPLINE
5
2CC
100
AcDbEntity
8
1
62
256
6
ByLayer
370
-1
48
1
60
0
100
AcDbSpline
70
4
71
1
72
4
73
2
40
0
40
0
40
1
40
1
41
1
10
22.6106558379373
20
-16.7139269797371
30
0
41
1
10
22.7193348472746
20
-17.202101014846
30
0
0
SPLINE
5
2CD
100
AcDbEntity
8
1
62
256
6
ByLayer
370
-1
48
1
60
0
100
AcDbSpline
70
4
71
3
72
12
73
8
40
0
40
0
40
0
40
0
40
0.0870061553224975
40
0.400246474236739
40
0.698185819466939
40
0.979146253832962
40
1
40
1
40
1
40
1
41
1
10
31.4370484050332
20
-3.51394432843941
30
0
41
1
10
31.4628375418092
20
-3.54122795795875
30
0
41
1
10
31.5795023472296
20
-3.66867499448772
30
0
41
1
10
31.7696823546072
20
-3.90223047455511
30
0
41
1
10
31.9735882705707
20
-4.22822865182307
30
0
41
1
10
32.0961942194791
20
-4.45684074875854
30
0
41
1
10
32.142664987447
20
-4.57817744077522
30
0
41
1
10
32.1458294784418
20
-4.58658242415871
30
0
0
SPLINE
5
2CE
100
AcDbEntity
8
1
62
256
6
ByLayer
370
-1
48
1
60
0
100
AcDbSpline
70
4
71
3
72
10
73
6
40
0
40
0
40
0
40
0
40
0.192317600867526
40
0.659510602097141
40
1
40
1
40
1
40
1
41
1
10
32.13290196005
20
-7.92553705604848
30
0
41
1
10
32.1117235997113
20
-7.98214023791431
30
0
41
1
10
32.0329179246982
20
-8.17304767762141
30
0
41
1
10
31.8713593275677
20
-8.44363602042152
30
0
41
1
10
31.7229657673824
20
-8.64884807502803
30
0
41
1
10
31.6569026443788
20
-8.73267325805736
30
0
0
SPLINE
5
2CF
100
AcDbEntity
8
SK1
62
256
6
ByLayer
370
-1
48
1
60
0
100
AcDbSpline
70
4
71
3
72
8
73
4
40
0
40
0
40
0
40
0
40
1
40
1
40
1
40
1
41
1
10
0
20
15.2093806317287
30
0
41
1
10
-0.0832347511398268
20
15.1314400306485
30
0
41
1
10
-0.166408710993636
20
15.0534127820965
30
0
41
1
10
-0.249519052838338
20
14.9752953674924
30
0
0
SPLINE
5
2D0
100
AcDbEntity
8
SK1
62
256
6
ByLayer
370
-1
48
1
60
0
100
AcDbSpline
70
4
71
3
72
8
73
4
40
0
40
0
40
0
40
0
40
1
40
1
40
1
40
1
41
1
10
-0.249519052838338
20
15.0214883413626
30
0
41
1
10
-0.166474933778971
20
15.1088788736801
30
0
41
1
10
-0.0832998626783876
20
15.1961037513837
30
0
41
1
10
0
20
15.2831691478176
30
0
0
SPLINE
5
2D1
100
AcDbEntity
8
SK1
62
256
6
ByLayer
370
-1
48
1
60
0
100
AcDbSpline
70
4
71
3
72
14
73
10
40
0
40
0
40
0
40
0
40
0.355441782403301
40
0.355441782403301
40
0.614600665812626
40
0.614600665812626
40
0.833084172428947
40
0.833084172428947
40
1
40
1
40
1
40
1
41
1
10
-0.249519052838338
20
14.9752953674924
30
0
41
1
10
-0.26320385558509
20
14.9624326913655
30
0
41
1
10
-0.276499507836689
20
14.9502694620134
30
0
41
1
10
-0.296510966022282
20
14.932765045553
30
0
41
1
10
-0.304199740378294
20
14.9263301845406
30
0
41
1
10
-0.315317456522763
20
14.9177782472296
30
0
41
1
10
-0.319318957574268
20
14.9150776590386
30
0
41
1
10
-0.323572193187147
20
14.9131733713278
30
0
41
1
10
-0.324519052838326
20
14.9132811583176
30
0
41
1
10
-0.324519052838326
20
14.9143113409685
30
0
0
SPLINE
5
2D2
100
AcDbEntity
8
SK1
62
256
6
ByLayer
370
-1
48
1
60
0
100
AcDbSpline
70
4
71
3
72
14
73
10
40
0
40
0
40
0
40
0
40
0.232551920348176
40
0.232551920348176
40
0.463653035885313
40
0.463653035885313
40
0.812307593646214
40
0.812307593646214
40
1
40
1
40
1
40
1
41
1
10
-0.324519052838326
20
14.9346208709157
30
0
41
1
10
-0.324519052838326
20
14.9359329740765
30
0
41
1
10
-0.322473276194302
20
14.9392785691894
30
0
41
1
10
-0.315287966186588
20
14.9488068686642
30
0
41
1
10
-0.310107525395267
20
14.9550657871713
30
0
41
1
10
-0.294782979516555
20
14.9727660446273
30
0
41
1
10
-0.283230625418383
20
14.985498906147
30
0
41
1
10
-0.263976023087736
20
15.0062024579528
30
0
41
1
10
-0.256851020828293
20
15.0137726284039
30
0
41
1
10
-0.249519052838338
20
15.0214883413626
30
0
0
SPLINE
5
2D3
100
AcDbEntity
8
1
62
256
6
ByLayer
370
-1
48
1
60
0
100
AcDbSpline
70
4
71
3
72
8
73
4
40
0
40
0
40
0
40
0
40
1
40
1
40
1
40
1
41
1
10
0.394519052838319
20
-15.6934109577794
30
0
41
1
10
0.262717296080922
20
-15.5570434194058
30
0
41
1
10
0.131203544366855
20
-15.4203036908594
30
0
41
1
10
0
20
-15.2831691478176
30
0
0
SPLINE
5
2D4
100
AcDbEntity
8
1
62
256
6
ByLayer
370
-1
48
1
60
0
100
AcDbSpline
70
4
71
3
72
8
73
4
40
0
40
0
40
0
40
0
40
1
40
1
40
1
40
1
41
1
10
0
20
-15.0980216982492
30
0
41
1
10
0.131089853996229
20
-15.2442369780298
30
0
41
1
10
0.262606766088936
20
-15.3899432504731
30
0
41
1
10
0.394519052838319
20
-15.5351689573631
30
0
0
SPLINE
5
2D5
100
AcDbEntity
8
1
62
256
6
ByLayer
370
-1
48
1
60
0
100
AcDbSpline
70
4
71
2
72
6
73
3
40
0
40
0
40
0
40
1
40
1
40
1
41
0.49999911111633
10
16.306132903772
20
-18.4729596357381
30
0
41
0.50000088888367
10
16.0563542766115
20
-18.4727510155832
30
0
41
0.49999911111633
10
15.8066138
20
-18.4725402843341
30
0
0
SPLINE
5
2D6
100
AcDbEntity
8
1
62
256
6
ByLayer
370
-1
48
1
60
0
100
AcDbSpline
70
4
71
3
72
8
73
4
40
0
40
0
40
0
40
0
40
1
40
1
40
1
40
1
41
1
10
0
20
-14.5284293439037
30
0
41
1
10
0.131452231218049
20
-14.6416183903692
30
0
41
1
10
0.262959813047758
20
-14.7547217722481
30
0
41
1
10
0.394519052838319
20
-14.8677449303339
30
0
0
SPLINE
5
2D7
100
AcDbEntity
8
1
62
256
6
ByLayer
370
-1
48
1
60
0
100
AcDbSpline
70
4
71
3
72
8
73
4
40
0
40
0
40
0
40
0
40
1
40
1
40
1
40
1
41
1
10
0.394519052842071
20
6.94261312828975
30
0
41
1
10
0.262105760747971
20
6.79810434099763
30
0
41
1
10
0.130544772386656
20
6.65254460085366
30
0
41
1
10
3.6948E-12
20
6.50578659355294
30
0
0
SPLINE
5
2D8
100
AcDbEntity
8
1
62
256
6
ByLayer
370
-1
48
1
60
0
100
AcDbSpline
70
4
71
3
72
8
73
4
40
0
40
0
40
0
40
0
40
1
40
1
40
1
40
1
41
1
10
10.0269014129888
20
10.0547477220044
30
0
41
1
10
9.75800006873294
20
10.8692893032649
30
0
41
1
10
9.62124550285279
20
11.6281180573537
30
0
41
1
10
9.56088483053207
20
12.3180436990094
30
0
0
SPLINE
5
2D9
100
AcDbEntity
8
1
62
256
6
ByLayer
370
-1
48
1
60
0
100
AcDbSpline
70
4
71
3
72
16
73
12
40
0
40
0
40
0
40
0
40
0.080287234812446
40
0.080287234812446
40
0.159886015326252
40
0.159886015326252
40
0.295496635916154
40
0.295496635916154
40
0.528358141677296
40
0.528358141677296
40
1
40
1
40
1
40
1
41
1
10
5.89999999999986
20
8.58778201865884
30
0
41
1
10
5.87452434619448
20
8.58778201865884
30
0
41
1
10
5.84873204360258
20
8.58377978811215
30
0
41
1
10
5.80087029585209
20
8.56934013873469
30
0
41
1
10
5.77820079331411
20
8.55887184974723
30
0
41
1
10
5.72261355176292
20
8.52534664311013
30
0
41
1
10
5.6924641227362
20
8.49819918585193
30
0
41
1
10
5.62332577243171
20
8.41876024490323
30
0
41
1
10
5.59136197537944
20
8.36083060031795
30
0
41
1
10
5.51897788829501
20
8.18217973926083
30
0
41
1
10
5.49999999999974
20
8.05233107734905
30
0
41
1
10
5.49999999999974
20
7.924014134263
30
0
0
SPLINE
5
2DA
100
AcDbEntity
8
1
62
256
6
ByLayer
370
-1
48
1
60
0
100
AcDbSpline
70
4
71
3
72
22
73
18
40
0
40
0
40
0
40
0
40
0.0991682479473282
40
0.0991682479473282
40
0.200553093976748
40
0.200553093976748
40
0.286893833355634
40
0.286893833355634
40
0.363302744516959
40
0.363302744516959
40
0.479145779091417
40
0.479145779091417
40
0.659346167574091
40
0.659346167574091
40
0.948658481935006
40
0.948658481935006
40
1
40
1
40
1
40
1
41
1
10
0.394519052838319
20
13.4697136281855
30
0
41
1
10
0.405118555225243
20
13.4784018625471
30
0
41
1
10
0.415794210036978
20
13.4862233649853
30
0
41
1
10
0.435994740631344
20
13.4983937254387
30
0
41
1
10
0.445776024123774
20
13.5027820688615
30
0
41
1
10
0.460644790858254
20
13.5057384074403
30
0
41
1
10
0.466392717924663
20
13.5050820084905
30
0
41
1
10
0.474155082477637
20
13.5002817544549
30
0
41
1
10
0.476638088321408
20
13.4965231595609
30
0
41
1
10
0.480138476568953
20
13.4845830617683
30
0
41
1
10
0.479871935296018
20
13.4749832716715
30
0
41
1
10
0.475206808276482
20
13.4478998396273
30
0
41
1
10
0.468636863799389
20
13.4285296975007
30
0
41
1
10
0.446607899670397
20
13.3764333080626
30
0
41
1
10
0.427761676141898
20
13.3415327227861
30
0
41
1
10
0.402493005677542
20
13.3006226933245
30
0
41
1
10
0.398550776086211
20
13.2943846788268
30
0
41
1
10
0.394519052838319
20
13.2881444419489
30
0
0
SPLINE
5
2DB
100
AcDbEntity
8
1
62
256
6
ByLayer
370
-1
48
1
60
0
100
AcDbSpline
70
4
71
3
72
8
73
4
40
0
40
0
40
0
40
0
40
1
40
1
40
1
40
1
41
1
10
10.0270424223588
20
3.28671799584096
30
0
41
1
10
10.0255511483969
20
3.28099230283463
30
0
41
1
10
10.0340373049856
20
3.27822931930885
30
0
41
1
10
10.0525550281519
20
3.27822107928401
30
0
0
SPLINE
5
2DC
100
AcDbEntity
8
1
62
256
6
ByLayer
370
-1
48
1
60
0
100
AcDbSpline
70
4
71
3
72
16
73
12
40
0
40
0
40
0
40
0
40
0.0002443110598384
40
0.0002443110598384
40
0.275794489802677
40
0.275794489802677
40
0.542727512647506
40
0.542727512647506
40
0.809128710157397
40
0.809128710157397
40
1
40
1
40
1
40
1
41
1
10
10.0850065234318
20
3.27998521595463
30
0
41
1
10
10.0850428943334
20
3.27998849700872
30
0
41
1
10
10.0850792823448
20
3.27999178258453
30
0
41
1
10
10.1261391249488
20
3.28370254806926
30
0
41
1
10
10.1901579097407
20
3.29320168748724
30
0
41
1
10
10.3520903105097
20
3.31670007255602
30
0
41
1
10
10.4510656443668
20
3.3307254321608
30
0
41
1
10
10.6710862319364
20
3.35567948409229
30
0
41
1
10
10.7950659836962
20
3.36683600325006
30
0
41
1
10
11.0153170108316
20
3.3786683445587
30
0
41
1
10
11.1111992866567
20
3.38152006329501
30
0
41
1
10
11.2066025730298
20
3.38186374920164
30
0
0
SPLINE
5
2DD
100
AcDbEntity
8
1
62
256
6
ByLayer
370
-1
48
1
60
0
100
AcDbSpline
70
4
71
3
72
8
73
4
40
0
40
0
40
0
40
0
40
1
40
1
40
1
40
1
41
1
10
0.394519052838319
20
13.2881444419489
30
0
41
1
10
0.261539119589486
20
13.0823202242462
30
0
41
1
10
0.129986023832686
20
12.8752548682079
30
0
41
1
10
0
20
12.6668961944433
30
0
0
SPLINE
5
2DE
100
AcDbEntity
8
1
62
256
6
ByLayer
370
-1
48
1
60
0
100
AcDbSpline
70
4
71
3
72
22
73
18
40
0
40
0
40
0
40
0
40
0.273685765032282
40
0.273685765032282
40
0.425950234654589
40
0.425950234654589
40
0.546143370312023
40
0.546143370312023
40
0.64260275081062
40
0.64260275081062
40
0.739534401822889
40
0.739534401822889
40
0.83027189658663
40
0.83027189658663
40
0.959359645188759
40
0.959359645188759
40
1
40
1
40
1
40
1
41
1
10
0.394519052838319
20
-14.7634050483605
30
0
41
1
10
0.416601473045944
20
-14.7915777624555
30
0
41
1
10
0.43683337787769
20
-14.8197484552164
30
0
41
1
10
0.46100849221358
20
-14.8589101513606
30
0
41
1
10
0.468344968047262
20
-14.8722687662305
30
0
41
1
10
0.477058276686222
20
-14.8925820253968
30
0
41
1
10
0.479410911906257
20
-14.9004569835495
30
0
41
1
10
0.47959929540059
20
-14.9107206772911
30
0
41
1
10
0.4782004234319
20
-14.9139543245369
30
0
41
1
10
0.472149365986809
20
-14.9167224920781
30
0
41
1
10
0.467385019597742
20
-14.9162567952926
30
0
41
1
10
0.455709742989882
20
-14.9119448568231
30
0
41
1
10
0.448837336679787
20
-14.9082901823748
30
0
41
1
10
0.430774915696446
20
-14.8968397280904
30
0
41
1
10
0.418718197617068
20
-14.8878107952612
30
0
41
1
10
0.402483646242302
20
-14.8745127975473
30
0
41
1
10
0.398514255087491
20
-14.871177227268
30
0
41
1
10
0.394519052838319
20
-14.8677449303339
30
0
0
SPLINE
5
2DF
100
AcDbEntity
8
1
62
256
6
ByLayer
370
-1
48
1
60
0
100
AcDbSpline
70
4
71
3
72
8
73
4
40
0
40
0
40
0
40
0
40
1
40
1
40
1
40
1
41
1
10
0
20
-14.2548328366489
30
0
41
1
10
0.130729719974965
20
-14.4251559356168
30
0
41
1
10
0.262257574731819
20
-14.5946660798308
30
0
41
1
10
0.394519052838319
20
-14.7634050483605
30
0
0
SPLINE
5
2E0
100
AcDbEntity
8
1
62
256
6
ByLayer
370
-1
48
1
60
0
100
AcDbSpline
70
4
71
3
72
8
73
4
40
0
40
0
40
0
40
0
40
1
40
1
40
1
40
1
41
1
10
0.394519052838319
20
14.7634050483605
30
0
41
1
10
0.262257574731819
20
14.5946660798308
30
0
41
1
10
0.130729719974965
20
14.4251559356168
30
0
41
1
10
0
20
14.2548328366488
30
0
0
SPLINE
5
2E1
100
AcDbEntity
8
1
62
256
6
ByLayer
370
-1
48
1
60
0
100
AcDbSpline
70
4
71
3
72
10
73
6
40
0
40
0
40
0
40
0
40
0.414610080490528
40
0.414610080490528
40
1
40
1
40
1
40
1
41
1
10
10.22046672879
20
-3.94718398922721
30
0
41
1
10
10.1684533195724
20
-3.88623525509712
30
0
41
1
10
10.1256745533767
20
-3.82668368075703
30
0
41
1
10
10.0480897646286
20
-3.69145931017847
30
0
41
1
10
10.0233100864244
20
-3.61808259787149
30
0
41
1
10
10.0258062162107
20
-3.55585386766138
30
0
0
SPLINE
5
2E2
100
AcDbEntity
8
1
62
256
6
ByLayer
370
-1
48
1
60
0
100
AcDbSpline
70
4
71
3
72
8
73
4
40
0
40
0
40
0
40
0
40
1
40
1
40
1
40
1
41
1
10
0.394519052838319
20
-15.2282566821645
30
0
41
1
10
0.262459483945321
20
-15.0724284831646
30
0
41
1
10
0.130938109510964
20
-14.9159893571169
30
0
41
1
10
0
20
-14.75890440381
30
0
0
SPLINE
5
2E3
100
AcDbEntity
8
1
62
256
6
ByLayer
370
-1
48
1
60
0
100
AcDbSpline
70
4
71
3
72
8
73
4
40
0
40
0
40
0
40
0
40
1
40
1
40
1
40
1
41
1
10
0
20
-15.2093806317287
30
0
41
1
10
0.131358203475656
20
-15.332383790812
30
0
41
1
10
0.262867981903014
20
-15.4551713969287
30
0
41
1
10
0.394519052838319
20
-15.5777563661013
30
0
0
SPLINE
5
2E4
100
AcDbEntity
8
1
62
256
6
ByLayer
370
-1
48
1
60
0
100
AcDbSpline
70
4
71
3
72
20
73
16
40
0
40
0
40
0
40
0
40
0.215726061212168
40
0.215726061212168
40
0.337555204209101
40
0.337555204209101
40
0.460898238127611
40
0.460898238127611
40
0.566288926667787
40
0.566288926667787
40
0.667055703916081
40
0.667055703916081
40
0.813812157099288
40
0.813812157099288
40
1
40
1
40
1
40
1
41
1
10
0.394519052838319
20
-15.7074765779128
30
0
41
1
10
0.413487343199137
20
-15.7260385710857
30
0
41
1
10
0.431777887775894
20
-15.7437392217606
30
0
41
1
10
0.45506180700113
20
-15.7657344778377
30
0
41
1
10
0.462549602198209
20
-15.7726667468293
30
0
41
1
10
0.473812375797763
20
-15.7826633580873
30
0
41
1
10
0.477661619653304
20
-15.7857780607753
30
0
41
1
10
0.480107154791995
20
-15.786800439664
30
0
41
1
10
0.479413862068697
20
-15.785408887029
30
0
41
1
10
0.474828036196868
20
-15.7794978775282
30
0
41
1
10
0.471048090118501
20
-15.7750738543383
30
0
41
1
10
0.459206365654438
20
-15.7617601137106
30
0
41
1
10
0.44982851472551
20
-15.7515779875721
30
0
41
1
10
0.426054760409698
20
-15.7262327000409
30
0
41
1
10
0.410639533458379
20
-15.7100898724891
30
0
41
1
10
0.394519052838319
20
-15.6934109577794
30
0
0
SPLINE
5
2E5
100
AcDbEntity
8
1
62
256
6
ByLayer
370
-1
48
1
60
0
100
AcDbSpline
70
4
71
3
72
8
73
4
40
0
40
0
40
0
40
0
40
1
40
1
40
1
40
1
41
1
10
0
20
11.5032716737805
30
0
41
1
10
0.129262744342782
20
11.7411619891241
30
0
41
1
10
0.26084223691646
20
11.9773915907675
30
0
41
1
10
0.394519052838319
20
12.2120067865264
30
0
0
SPLINE
5
2E6
100
AcDbEntity
8
1
62
256
6
ByLayer
370
-1
48
1
60
0
100
AcDbSpline
70
4
71
3
72
22
73
18
40
0
40
0
40
0
40
0
40
0.149726360150101
40
0.149726360150101
40
0.264231857227399
40
0.264231857227399
40
0.380097855074116
40
0.380097855074116
40
0.478291429534103
40
0.478291429534103
40
0.576276007065964
40
0.576276007065964
40
0.727706222083683
40
0.727706222083683
40
0.945210554706448
40
0.945210554706448
40
1
40
1
40
1
40
1
41
1
10
0.394519052838319
20
-15.3005936602976
30
0
41
1
10
0.40856140006764
20
-15.3131110319358
30
0
41
1
10
0.422357441521115
20
-15.3247694204837
30
0
41
1
10
0.444071542792102
20
-15.3414878751047
30
0
41
1
10
0.452795793695373
20
-15.3475824488301
30
0
41
1
10
0.466990901190655
20
-15.3557459668583
30
0
41
1
10
0.472596106048542
20
-15.3578368623197
30
0
41
1
10
0.478637073691601
20
-15.3571260158861
30
0
41
1
10
0.479813734526743
20
-15.3550205653063
30
0
41
1
10
0.479093686824683
20
-15.3479229822805
30
0
41
1
10
0.477221533984647
20
-15.3428820245524
30
0
41
1
10
0.469635534858327
20
-15.32772402895
30
0
41
1
10
0.462317653280906
20
-15.3161278219233
30
0
41
1
10
0.441012850932765
20
-15.2856339535429
30
0
41
1
10
0.425161884592058
20
-15.2652030050401
30
0
41
1
10
0.403584644810735
20
-15.2390252573026
30
0
41
1
10
0.399096022423407
20
-15.2336574337594
30
0
41
1
10
0.394519052838319
20
-15.2282566821645
30
0
0
SPLINE
5
2E7
100
AcDbEntity
8
1
62
256
6
ByLayer
370
-1
48
1
60
0
100
AcDbSpline
70
4
71
3
72
16
73
12
40
0
40
0
40
0
40
0
40
0.134559357986235
40
0.134559357986235
40
0.306949037050458
40
0.306949037050458
40
0.538104749621303
40
0.538104749621303
40
0.835562617099384
40
0.835562617099384
40
1
40
1
40
1
40
1
41
1
10
18.8052500474892
20
-11.8852607699894
30
0
41
1
10
18.871175421047
20
-11.8309069814614
30
0
41
1
10
18.9447080364806
20
-11.7815730866957
30
0
41
1
10
19.1222177248717
20
-11.6880251675946
30
0
41
1
10
19.2310381267958
20
-11.6482677282345
30
0
41
1
10
19.4878696642101
20
-11.5903221703232
30
0
41
1
10
19.6407063708072
20
-11.5826051911844
30
0
41
1
10
19.9783476767233
20
-11.6141655272567
30
0
41
1
10
20.166332388357
20
-11.6673224711152
30
0
41
1
10
20.4382024827115
20
-11.7914852434934
30
0
41
1
10
20.5325306133143
20
-11.844637601346
30
0
41
1
10
20.6217467049434
20
-11.9051583843786
30
0
0
SPLINE
5
2E8
100
AcDbEntity
8
1
62
256
6
ByLayer
370
-1
48
1
60
0
100
AcDbSpline
70
4
71
2
72
6
73
3
40
0
40
0
40
0
40
1
40
1
40
1
41
0.500000186564551
10
20.6217467049629
20
-11.9051583843971
30
0
41
0.499999813435449
10
20.644674524656
20
-11.9271476403103
30
0
41
0.500000186564551
10
20.6676219403296
20
-11.9491572221486
30
0
0
SPLINE
5
2E9
100
AcDbEntity
8
1
62
256
6
ByLayer
370
-1
48
1
60
0
100
AcDbSpline
70
4
71
3
72
22
73
18
40
0
40
0
40
0
40
0
40
0.048282394078885
40
0.048282394078885
40
0.0977656947645462
40
0.0977656947645462
40
0.143361435179128
40
0.143361435179128
40
0.183158616747569
40
0.183158616747569
40
0.251443234085916
40
0.251443234085916
40
0.378422265779592
40
0.378422265779592
40
0.6606764852278
40
0.6606764852278
40
1
40
1
40
1
40
1
41
1
10
0.394519052838319
20
-9.39458376369676
30
0
41
1
10
0.401274311054721
20
-9.40065464935722
30
0
41
1
10
0.408285673015996
20
-9.40611972161646
30
0
41
1
10
0.422392549731114
20
-9.41468691445007
30
0
41
1
10
0.429670559430605
20
-9.41779054860858
30
0
41
1
10
0.442469961136851
20
-9.41997401474588
30
0
41
1
10
0.448240921334502
20
-9.41934661797751
30
0
41
1
10
0.457324830838331
20
-9.41531520356922
30
0
41
1
10
0.460977637065071
20
-9.41226421127119
30
0
41
1
10
0.469139409167156
20
-9.40202199761414
30
0
41
1
10
0.472617338424527
20
-9.39333437942685
30
0
41
1
10
0.47930101116188
20
-9.36628671485128
30
0
41
1
10
0.480078905268016
20
-9.34552798445445
30
0
41
1
10
0.477339044416254
20
-9.27712179842295
30
0
41
1
10
0.467572383054971
20
-9.22554296262227
30
0
41
1
10
0.439379136624069
20
-9.112152555892
30
0
41
1
10
0.418833009850118
20
-9.04876624084375
30
0
41
1
10
0.394519052838319
20
-8.98608723763039
30
0
0
SPLINE
5
2EA
100
AcDbEntity
8
1
62
256
6
ByLayer
370
-1
48
1
60
0
100
AcDbSpline
70
4
71
3
72
8
73
4
40
0
40
0
40
0
40
0
40
1
40
1
40
1
40
1
41
1
10
0
20
13.5674337735919
30
0
41
1
10
0.130432506420675
20
13.7543051691889
30
0
41
1
10
0.261970125944373
20
13.9401542765635
30
0
41
1
10
0.394519052838319
20
14.1250294040766
30
0
0
SPLINE
5
2EB
100
AcDbEntity
8
1
62
256
6
ByLayer
370
-1
48
1
60
0
100
AcDbSpline
70
4
71
3
72
8
73
4
40
0
40
0
40
0
40
0
40
1
40
1
40
1
40
1
41
1
10
18.5396364608436
20
-13.234868791676
30
0
41
1
10
18.617372581754
20
-13.4583146833963
30
0
41
1
10
18.6941312865123
20
-13.6778338688838
30
0
41
1
10
18.7697923643456
20
-13.8939576553307
30
0
0
SPLINE
5
2EC
100
AcDbEntity
8
1
62
256
6
ByLayer
370
-1
48
1
60
0
100
AcDbSpline
70
4
71
3
72
8
73
4
40
0
40
0
40
0
40
0
40
1
40
1
40
1
40
1
41
1
10
0.394519052838319
20
-1.90828457127678
30
0
41
1
10
0.04206037811025
20
-0.668810324278169
30
0
41
1
10
0.0418693110983952
20
0.668138408238903
30
0
41
1
10
0.394519052843464
20
1.90828457129487
30
0
0
SPLINE
5
2ED
100
AcDbEntity
8
1
62
256
6
ByLayer
370
-1
48
1
60
0
100
AcDbSpline
70
4
71
3
72
8
73
4
40
0
40
0
40
0
40
0
40
1
40
1
40
1
40
1
41
1
10
0.394519052838319
20
-15.7074765779128
30
0
41
1
10
0.262802036987978
20
-15.5785809156017
30
0
41
1
10
0.13129057331804
20
-15.4494045883561
30
0
41
1
10
0
20
-15.3199301304152
30
0
0
SPLINE
5
2EE
100
AcDbEntity
8
1
62
256
6
ByLayer
370
-1
48
1
60
0
100
AcDbSpline
70
4
71
3
72
8
73
4
40
0
40
0
40
0
40
0
40
1
40
1
40
1
40
1
41
1
10
-1.421E-13
20
12.1223042034428
30
0
41
1
10
0.131504739548063
20
12.22982968561
30
0
41
1
10
0.263011132261312
20
12.3373524720372
30
0
41
1
10
0.394519052838319
20
12.4448727667765
30
0
0
SPLINE
5
2EF
100
AcDbEntity
8
1
62
256
6
ByLayer
370
-1
48
1
60
0
100
AcDbSpline
70
4
71
3
72
8
73
4
40
0
40
0
40
0
40
0
40
1
40
1
40
1
40
1
41
1
10
0
20
9.03881956899237
30
0
41
1
10
0.131329741485217
20
9.15766830306721
30
0
41
1
10
0.262842699722143
20
9.2762474901822
30
0
41
1
10
0.394519052838319
20
9.39458376369676
30
0
0
SPLINE
5
2F0
100
AcDbEntity
8
1
62
256
6
ByLayer
370
-1
48
1
60
0
100
AcDbSpline
70
4
71
3
72
10
73
6
40
0
40
0
40
0
40
0
40
0.873895305871572
40
0.873895305871572
40
1
40
1
40
1
40
1
41
1
10
13.8450842052496
20
-9.01222529444627
30
0
41
1
10
12.8061607466841
20
-8.00269236445243
30
0
41
1
10
11.6457303060887
20
-7.03496456737912
30
0
41
1
10
10.3545172862109
20
-6.01835713907894
30
0
41
1
10
10.1880765501153
20
-5.89076750957923
30
0
41
1
10
10.0257340816798
20
-5.76210858644009
30
0
0
SPLINE
5
2F1
100
AcDbEntity
8
1
62
256
6
ByLayer
370
-1
48
1
60
0
100
AcDbSpline
70
4
71
3
72
8
73
4
40
0
40
0
40
0
40
0
40
1
40
1
40
1
40
1
41
1
10
10.0237938742118
20
-3.94870498588229
30
0
41
1
10
10.0897459029422
20
-3.94714297454702
30
0
41
1
10
10.1555383240641
20
-3.9467900861832
30
0
41
1
10
10.22046672879
20
-3.94718398922723
30
0
0
SPLINE
5
2F2
100
AcDbEntity
8
1
62
256
6
ByLayer
370
-1
48
1
60
0
100
AcDbSpline
70
4
71
3
72
8
73
4
40
0
40
0
40
0
40
0
40
1
40
1
40
1
40
1
41
1
10
15.8066138
20
-18.4725402843341
30
0
41
1
10
15.1861892612595
20
-17.7221938177199
30
0
41
1
10
14.5682464914072
20
-16.9699147455102
30
0
41
1
10
13.9540546539912
20
-16.2147877851458
30
0
0
SPLINE
5
2F3
100
AcDbEntity
8
1
62
256
6
ByLayer
370
-1
48
1
60
0
100
AcDbSpline
70
4
71
3
72
8
73
4
40
0
40
0
40
0
40
0
40
1
40
1
40
1
40
1
41
1
10
0.394519052838319
20
-12.2120067865264
30
0
41
1
10
0.26084223691646
20
-11.9773915907675
30
0
41
1
10
0.129262744342782
20
-11.7411619891241
30
0
41
1
10
0
20
-11.5032716737805
30
0
0
SPLINE
5
2F4
100
AcDbEntity
8
1
62
256
6
ByLayer
370
-1
48
1
60
0
100
AcDbSpline
70
4
71
3
72
8
73
4
40
0
40
0
40
0
40
0
40
1
40
1
40
1
40
1
41
1
10
0
20
7.91045252819326
30
0
41
1
10
0.124921427303036
20
8.27212345231915
30
0
41
1
10
0.256672355506709
20
8.63073193364529
30
0
41
1
10
0.394519052838319
20
8.98608723763037
30
0
0
SPLINE
5
2F5
100
AcDbEntity
8
1
62
256
6
ByLayer
370
-1
48
1
60
0
100
AcDbSpline
70
4
71
3
72
20
73
16
40
0
40
0
40
0
40
0
40
0.175888475412473
40
0.175888475412473
40
0.354745170294853
40
0.354745170294853
40
0.460552261783536
40
0.460552261783536
40
0.566832248807496
40
0.566832248807496
40
0.66858021530959
40
0.66858021530959
40
0.844554280259616
40
0.844554280259616
40
1
40
1
40
1
40
1
41
1
10
11.2053728539102
20
-3.42480151541837
30
0
41
1
10
11.1308250431043
20
-3.37765469486675
30
0
41
1
10
11.0528953361236
20
-3.33597214837832
30
0
41
1
10
10.8927606606645
20
-3.27414075556608
30
0
41
1
10
10.8080180887528
20
-3.25358749202741
30
0
41
1
10
10.6777677636836
20
-3.25520385245231
30
0
41
1
10
10.6292241241623
20
-3.26378638542336
30
0
41
1
10
10.5399215216789
20
-3.29910318036426
30
0
41
1
10
10.498131917644
20
-3.32644702733778
30
0
41
1
10
10.4276266765566
20
-3.39315822327484
30
0
41
1
10
10.3975242888978
20
-3.43251416674602
30
0
41
1
10
10.3279956743264
20
-3.54797796286616
30
0
41
1
10
10.2958493519254
20
-3.63168760728131
30
0
41
1
10
10.2494780291382
20
-3.79190455677075
30
0
41
1
10
10.233202781968
20
-3.86947430133675
30
0
41
1
10
10.22046672879
20
-3.94718398922721
30
0
0
SPLINE
5
2F6
100
AcDbEntity
8
1
62
256
6
ByLayer
370
-1
48
1
60
0
100
AcDbSpline
70
4
71
3
72
22
73
18
40
0
40
0
40
0
40
0
40
0.115845159674894
40
0.115845159674894
40
0.212116076243133
40
0.212116076243133
40
0.309293403025718
40
0.309293403025718
40
0.394135642354747
40
0.394135642354747
40
0.50827069830276
40
0.50827069830276
40
0.674666253866596
40
0.674666253866596
40
0.93024856618007
40
0.93024856618007
40
1
40
1
40
1
40
1
41
1
10
0.394519052838319
20
-14.2650451197813
30
0
41
1
10
0.406281697315819
20
-14.2748633089402
30
0
41
1
10
0.418031490862376
20
-14.2837900041899
30
0
41
1
10
0.437885741079242
20
-14.2965956502228
30
0
41
1
10
0.446452060818388
20
-14.3011645132859
30
0
41
1
10
0.460988801219656
20
-14.3063647384174
30
0
41
1
10
0.467114712165653
20
-14.3069899690815
30
0
41
1
10
0.475111965075854
20
-14.3041642572561
30
0
41
1
10
0.477537751794671
20
-14.3012080345725
30
0
41
1
10
0.480220217601413
20
-14.2914772206241
30
0
41
1
10
0.479539240930507
20
-14.2836356438166
30
0
41
1
10
0.474087852371781
20
-14.2616747793838
30
0
41
1
10
0.467594426358403
20
-14.245985009337
30
0
41
1
10
0.446795112391385
20
-14.2042748784412
30
0
41
1
10
0.429810509083495
20
-14.1763581496193
30
0
41
1
10
0.405540913803634
20
-14.1406051957183
30
0
41
1
10
0.400108478747995
20
-14.1328253617805
30
0
41
1
10
0.394519052838319
20
-14.1250294040765
30
0
0
SPLINE
5
2F7
100
AcDbEntity
8
1
62
256
6
ByLayer
370
-1
48
1
60
0
100
AcDbSpline
70
4
71
3
72
8
73
4
40
0
40
0
40
0
40
0
40
1
40
1
40
1
40
1
41
1
10
0
20
14.9482527139731
30
0
41
1
10
0.131411126798554
20
15.0658417230821
30
0
41
1
10
0.262919648687387
20
15.1832857329098
30
0
41
1
10
0.394519052838319
20
15.3005936602976
30
0
0
SPLINE
5
2F8
100
AcDbEntity
8
1
62
256
6
ByLayer
370
-1
48
1
60
0
100
AcDbSpline
70
4
71
3
72
22
73
18
40
0
40
0
40
0
40
0
40
0.303573855293693
40
0.303573855293693
40
0.457709878767791
40
0.457709878767791
40
0.580163747522493
40
0.580163747522493
40
0.673039381624342
40
0.673039381624342
40
0.766625321338659
40
0.766625321338659
40
0.851074589587812
40
0.851074589587812
40
0.967567719178266
40
0.967567719178266
40
1
40
1
40
1
40
1
41
1
10
0.394519052838319
20
14.1250294040766
30
0
41
1
10
0.418513808558117
20
14.1584965443039
30
0
41
1
10
0.440091157481021
20
14.1922770091795
30
0
41
1
10
0.463991227155816
20
14.2382422572434
30
0
41
1
10
0.47068833131263
20
14.2531917576504
30
0
41
1
10
0.478214034866028
20
14.276547360448
30
0
41
1
10
0.480001717557542
20
14.2858598168241
30
0
41
1
10
0.47894978387589
20
14.29818069372
30
0
41
1
10
0.477072383852857
20
14.3022470629394
30
0
41
1
10
0.470114998315836
20
14.3065994793519
30
0
41
1
10
0.464887473529075
20
14.3068831439172
30
0
41
1
10
0.452551886582995
20
14.3037102118478
30
0
41
1
10
0.445547553890208
20
14.3006014859824
30
0
41
1
10
0.42769364455279
20
14.2904900277738
30
0
41
1
10
0.41612927303558
20
14.2823490701774
30
0
41
1
10
0.401160521099712
20
14.2705190701702
30
0
41
1
10
0.39784565219793
20
14.2678218067611
30
0
41
1
10
0.394519052838319
20
14.2650451197813
30
0
0
SPLINE
5
2F9
100
AcDbEntity
8
1
62
256
6
ByLayer
370
-1
48
1
60
0
100
AcDbSpline
70
4
71
3
72
8
73
4
40
0
40
0
40
0
40
0
40
1
40
1
40
1
40
1
41
1
10
0.394519052838319
20
-8.98608723763039
30
0
41
1
10
0.256672355506709
20
-8.63073193364529
30
0
41
1
10
0.124921427303036
20
-8.27212345231915
30
0
41
1
10
0
20
-7.91045252819326
30
0
0
SPLINE
5
2FA
100
AcDbEntity
8
1
62
256
6
ByLayer
370
-1
48
1
60
0
100
AcDbSpline
70
4
71
3
72
10
73
6
40
0
40
0
40
0
40
0
40
0.160582995378745
40
0.160582995378745
40
1
40
1
40
1
40
1
41
1
10
9.56385769976387
20
12.2778636690916
30
0
41
1
10
9.56418152341055
20
12.2777871154153
30
0
41
1
10
9.56530426480154
20
12.2687427898104
30
0
41
1
10
9.57600643313816
20
12.155281803611
30
0
41
1
10
9.6031463133572
20
11.8123189628535
30
0
41
1
10
9.70666955784722
20
11.2809190706759
30
0
0
SPLINE
5
2FB
100
AcDbEntity
8
1
62
256
6
ByLayer
370
-1
48
1
60
0
100
AcDbSpline
70
4
71
3
72
16
73
12
40
0
40
0
40
0
40
0
40
0.0948945997674255
40
0.0948945997674255
40
0.321170949825569
40
0.321170949825569
40
0.547447299883713
40
0.547447299883713
40
0.773723649941857
40
0.773723649941857
40
1
40
1
40
1
40
1
41
1
10
10.0029778801079
20
10.1329411843415
30
0
41
1
10
10.0990732732137
20
9.83288802617265
30
0
41
1
10
10.2152478832259
20
9.51674966008234
30
0
41
1
10
10.685110024701
20
8.43750538980565
30
0
41
1
10
11.1476312476265
20
7.65837690988961
30
0
41
1
10
12.2140608151373
20
6.31062646873431
30
0
41
1
10
12.8207835295329
20
5.7250765762968
30
0
41
1
10
14.0891634596281
20
4.75681830134855
30
0
41
1
10
14.754785383804
20
4.36796685381771
30
0
41
1
10
16.1151846413125
20
3.75861821160609
30
0
41
1
10
16.8078420564991
20
3.54245748126687
30
0
41
1
10
17.455770896081
20
3.40557030211936
30
0
0
SPLINE
5
2FC
100
AcDbEntity
8
1
62
256
6
ByLayer
370
-1
48
1
60
0
100
AcDbSpline
70
4
71
3
72
8
73
4
40
0
40
0
40
0
40
0
40
1
40
1
40
1
40
1
41
1
10
0.394519052838319
20
14.8677449303339
30
0
41
1
10
0.262959813047758
20
14.7547217722481
30
0
41
1
10
0.131452231218049
20
14.6416183903692
30
0
41
1
10
0
20
14.5284293439037
30
0
0
SPLINE
5
2FD
100
AcDbEntity
8
1
62
256
6
ByLayer
370
-1
48
1
60
0
100
AcDbSpline
70
4
71
3
72
8
73
4
40
0
40
0
40
0
40
0
40
1
40
1
40
1
40
1
41
1
10
0.394519052838319
20
11.1272876810652
30
0
41
1
10
0.262979877184364
20
11.0172448591573
30
0
41
1
10
0.131472522952237
20
10.9071512992133
30
0
41
1
10
0
20
10.7970023247567
30
0
0
SPLINE
5
2FE
100
AcDbEntity
8
1
62
256
6
ByLayer
370
-1
48
1
60
0
100
AcDbSpline
70
4
71
3
72
22
73
18
40
0
40
0
40
0
40
0
40
0.432256853115074
40
0.432256853115074
40
0.632473722031122
40
0.632473722031122
40
0.712760019675692
40
0.712760019675692
40
0.79431398779766
40
0.79431398779766
40
0.849723572296684
40
0.849723572296684
40
0.905211461144305
40
0.905211461144305
40
0.974510077918664
40
0.974510077918664
40
1
40
1
40
1
40
1
41
1
10
0.394519052838319
20
-10.8254993787
30
0
41
1
10
0.426361891316731
20
-10.8910918018066
30
0
41
1
10
0.452792732432414
20
-10.958507455687
30
0
41
1
10
0.475164243512609
20
-11.0498332684407
30
0
41
1
10
0.479981844554089
20
-11.0784869832063
30
0
41
1
10
0.479284753498263
20
-11.1131313055874
30
0
41
1
10
0.478169544435048
20
-11.1225374092944
30
0
41
1
10
0.473193116133984
20
-11.1387021136589
30
0
41
1
10
0.469181998743665
20
-11.1455991374196
30
0
41
1
10
0.459330244051159
20
-11.1526306648149
30
0
41
1
10
0.454363965433402
20
-11.1542448722376
30
0
41
1
10
0.443087780363527
20
-11.1543847112523
30
0
41
1
10
0.436642547662956
20
-11.1529071129511
30
0
41
1
10
0.421672013544452
20
-11.1467613193823
30
0
41
1
10
0.412814717342428
20
-11.1413553516173
30
0
41
1
10
0.400932113896232
20
-11.1325142116334
30
0
41
1
10
0.397714861320452
20
-11.1299612251398
30
0
41
1
10
0.394519052838319
20
-11.1272876810652
30
0
0
SPLINE
5
2FF
100
AcDbEntity
8
1
62
256
6
ByLayer
370
-1
48
1
60
0
100
AcDbSpline
70
4
71
3
72
8
73
4
40
0
40
0
40
0
40
0
40
1
40
1
40
1
40
1
41
1
10
-2.5864E-12
20
-6.50578659354585
30
0
41
1
10
0.130544772381199
20
-6.65254460084759
30
0
41
1
10
0.262105760743367
20
-6.79810434099255
30
0
41
1
10
0.394519052838319
20
-6.94261312828566
30
0
0
SPLINE
5
300
100
AcDbEntity
8
1
62
256
6
ByLayer
370
-1
48
1
60
0
100
AcDbSpline
70
4
71
3
72
8
73
4
40
0
40
0
40
0
40
0
40
1
40
1
40
1
40
1
41
1
10
0
20
-4.57714531130461
30
0
41
1
10
0.112166098433846
20
-5.15960305852678
30
0
41
1
10
0.244211265331842
20
-5.73686900991925
30
0
41
1
10
0.394519052838035
20
-6.3093653315031
30
0
0
SPLINE
5
301
100
AcDbEntity
8
1
62
256
6
ByLayer
370
-1
48
1
60
0
100
AcDbSpline
70
4
71
3
72
22
73
18
40
0
40
0
40
0
40
0
40
0.0360698556268895
40
0.0360698556268895
40
0.0611414668857166
40
0.0611414668857166
40
0.0865028515970316
40
0.0865028515970316
40
0.108626091052621
40
0.108626091052621
40
0.14477262965028
40
0.14477262965028
40
0.214075240454499
40
0.214075240454499
40
0.43597519142642
40
0.43597519142642
40
1
40
1
40
1
40
1
41
1
10
0.394519052841588
20
6.9426131282892
30
0
41
1
10
0.400681545606545
20
6.94933854340447
30
0
41
1
10
0.407274889554373
20
6.95549335635876
30
0
41
1
10
0.418817870889797
20
6.96333303424441
30
0
41
1
10
0.423752818435759
20
6.96583558658146
30
0
41
1
10
0.433340754181984
20
6.96845279081064
30
0
41
1
10
0.438111951122948
20
6.96853592542594
30
0
41
1
10
0.446041721766051
20
6.96633269132289
30
0
41
1
10
0.449425245135046
20
6.96434882162143
30
0
41
1
10
0.457162026139315
20
6.95749324461258
30
0
41
1
10
0.460957800277669
20
6.95154286455616
30
0
41
1
10
0.469788051822491
20
6.93238375197627
30
0
41
1
10
0.473159134560774
20
6.91720864259062
30
0
41
1
10
0.482585647032323
20
6.85202188416257
30
0
41
1
10
0.479826546856174
20
6.79598468969047
30
0
41
1
10
0.462384131571639
20
6.59993966606982
30
0
41
1
10
0.432341216098308
20
6.45342339861945
30
0
41
1
10
0.394519052838319
20
6.30936533150305
30
0
0
SPLINE
5
302
100
AcDbEntity
8
1
62
256
6
ByLayer
370
-1
48
1
60
0
100
AcDbSpline
70
4
71
3
72
10
73
6
40
0
40
0
40
0
40
0
40
0.5
40
0.5
40
1
40
1
40
1
40
1
41
1
10
12.8343420224374
20
-4.52286483717738
30
0
41
1
10
13.8093466227762
20
-4.98566608768425
30
0
41
1
10
14.6029474083132
20
-5.7573452832783
30
0
41
1
10
16.2764114606486
20
-7.36078698795389
30
0
41
1
10
17.1937978403544
20
-8.14472422303493
30
0
41
1
10
18.1118927360065
20
-8.87325021862061
30
0
0
SPLINE
5
303
100
AcDbEntity
8
1
62
256
6
ByLayer
370
-1
48
1
60
0
100
AcDbSpline
70
4
71
3
72
8
73
4
40
0
40
0
40
0
40
0
40
1
40
1
40
1
40
1
41
1
10
0
20
15.2831691478176
30
0
41
1
10
0.131203544366855
20
15.4203036908594
30
0
41
1
10
0.262717296080922
20
15.5570434194058
30
0
41
1
10
0.394519052838319
20
15.6934109577794
30
0
0
SPLINE
5
304
100
AcDbEntity
8
1
62
256
6
ByLayer
370
-1
48
1
60
0
100
AcDbSpline
70
4
71
3
72
12
73
8
40
0
40
0
40
0
40
0
40
0.385862868136921
40
0.385862868136921
40
0.773430391991928
40
0.773430391991928
40
1
40
1
40
1
40
1
41
1
10
13.9540546539912
20
-16.2147877851458
30
0
41
1
10
13.8980638632687
20
-16.1459491047351
30
0
41
1
10
13.8295399636354
20
-16.0850631341766
30
0
41
1
10
13.6768861440778
20
-15.9901254583971
30
0
41
1
10
13.5904642226251
20
-15.9549139997797
30
0
41
1
10
13.449093918517
20
-15.9247829768506
30
0
41
1
10
13.3950237885189
20
-15.9190050592135
30
0
41
1
10
13.3412190994964
20
-15.9189075005836
30
0
0
SPLINE
5
305
100
AcDbEntity
8
1
62
256
6
ByLayer
370
-1
48
1
60
0
100
AcDbSpline
70
4
71
3
72
8
73
4
40
0
40
0
40
0
40
0
40
1
40
1
40
1
40
1
41
1
10
0
20
-12.6668961944433
30
0
41
1
10
0.129986023832686
20
-12.8752548682079
30
0
41
1
10
0.261539119589486
20
-13.0823202242462
30
0
41
1
10
0.394519052838319
20
-13.2881444419488
30
0
0
SPLINE
5
306
100
AcDbEntity
8
1
62
256
6
ByLayer
370
-1
48
1
60
0
100
AcDbSpline
70
4
71
3
72
12
73
8
40
0
40
0
40
0
40
0
40
0.379101735757977
40
0.379101735757977
40
0.97356567968496
40
0.97356567968496
40
1
40
1
40
1
40
1
41
1
10
18.2989033983478
20
-12.1166344030705
30
0
41
1
10
18.3489127447866
20
-12.0778835781924
30
0
41
1
10
18.4053700424165
20
-12.0406584177223
30
0
41
1
10
18.5629755667316
20
-11.9560303702969
30
0
41
1
10
18.6739917994752
20
-11.914020191708
30
0
41
1
10
18.7947889520029
20
-11.8874589230351
30
0
41
1
10
18.8000137923578
20
-11.8863440667303
30
0
41
1
10
18.8052500474895
20
-11.8852607699896
30
0
0
SPLINE
5
307
100
AcDbEntity
8
1
62
256
6
ByLayer
370
-1
48
1
60
0
100
AcDbSpline
70
4
71
3
72
8
73
4
40
0
40
0
40
0
40
0
40
1
40
1
40
1
40
1
41
1
10
0.394519052838319
20
-12.4448727667765
30
0
41
1
10
0.263011132261312
20
-12.3373524720372
30
0
41
1
10
0.131504739548035
20
-12.22982968561
30
0
41
1
10
-1.705E-13
20
-12.1223042034428
30
0
0
SPLINE
5
308
100
AcDbEntity
8
1
62
256
6
ByLayer
370
-1
48
1
60
0
100
AcDbSpline
70
4
71
3
72
8
73
4
40
0
40
0
40
0
40
0
40
1
40
1
40
1
40
1
41
1
10
0.394519052838319
20
13.4697136281855
30
0
41
1
10
0.263008496126361
20
13.361916630174
30
0
41
1
10
0.131502041716629
20
13.2541129588158
30
0
41
1
10
0
20
13.1463021112708
30
0
0
SPLINE
5
309
100
AcDbEntity
8
1
62
256
6
ByLayer
370
-1
48
1
60
0
100
AcDbSpline
70
4
71
2
72
6
73
3
40
0
40
0
40
0
40
1
40
1
40
1
41
0.499963473916294
10
10.0273166159955
20
10.0534902909284
30
0
41
0.500036526083706
10
10.0271089728519
20
10.0541189927597
30
0
41
0.499963473916294
10
10.0269014129616
20
10.0547477220868
30
0
0
SPLINE
5
30A
100
AcDbEntity
8
1
62
256
6
ByLayer
370
-1
48
1
60
0
100
AcDbSpline
70
4
71
3
72
8
73
4
40
0
40
0
40
0
40
0
40
1
40
1
40
1
40
1
41
1
10
0.394519052838035
20
6.30936533150312
30
0
41
1
10
0.24421126533187
20
5.73686900991926
30
0
41
1
10
0.112166098433846
20
5.1596030585268
30
0
41
1
10
0
20
4.57714531130461
30
0
0
SPLINE
5
30B
100
AcDbEntity
8
1
62
256
6
ByLayer
370
-1
48
1
60
0
100
AcDbSpline
70
4
71
3
72
24
73
20
40
0
40
0
40
0
40
0
40
0.423727856790794
40
0.423727856790794
40
0.625792895333803
40
0.625792895333803
40
0.797854800714065
40
0.797854800714065
40
0.85732483988373
40
0.85732483988373
40
0.888231719204153
40
0.888231719204153
40
0.913510542911026
40
0.913510542911026
40
0.939054170889974
40
0.939054170889974
40
0.961288456700171
40
0.961288456700171
40
1
40
1
40
1
40
1
41
1
10
0.394519052838319
20
-6.30936533150303
30
0
41
1
10
0.423033952548849
20
-6.41797364425553
30
0
41
1
10
0.446380728853654
20
-6.52744797706345
30
0
41
1
10
0.469797860985636
20
-6.6865029635337
30
0
41
1
10
0.475679421093076
20
-6.73778261872492
30
0
41
1
10
0.480432229623091
20
-6.83018659502132
30
0
41
1
10
0.48073006246733
20
-6.87270254741651
30
0
41
1
10
0.471682227510087
20
-6.92335769612225
30
0
41
1
10
0.468395140785361
20
-6.9359780674521
30
0
41
1
10
0.460558403758881
20
-6.95204213631754
30
0
41
1
10
0.457303973647498
20
-6.95703623582502
30
0
41
1
10
0.45009446683261
20
-6.96396161903491
30
0
41
1
10
0.446290299695193
20
-6.96631580870961
30
0
41
1
10
0.437827416735644
20
-6.96855910754532
30
0
41
1
10
0.433036051034407
20
-6.96841773050747
30
0
41
1
10
0.423985217967498
20
-6.96585377247061
30
0
41
1
10
0.419640356846941
20
-6.96372903655927
30
0
41
1
10
0.40815128081897
20
-6.95630871602764
30
0
41
1
10
0.401083181605514
20
-6.94977686745997
30
0
41
1
10
0.394519052838319
20
-6.94261312828566
30
0
0
SPLINE
5
30C
100
AcDbEntity
8
1
62
256
6
ByLayer
370
-1
48
1
60
0
100
AcDbSpline
70
4
71
3
72
22
73
18
40
0
40
0
40
0
40
0
40
0.212177508317656
40
0.212177508317656
40
0.358123695851603
40
0.358123695851603
40
0.474909206849152
40
0.474909206849152
40
0.592986254659175
40
0.592986254659175
40
0.69367067557864
40
0.69367067557864
40
0.795236477377881
40
0.795236477377881
40
0.950991700274987
40
0.950991700274987
40
1
40
1
40
1
40
1
41
1
10
0.394519052838319
20
-15.5351689573631
30
0
41
1
10
0.412415748807291
20
-15.5548719007897
30
0
41
1
10
0.42932705179291
20
-15.574147073234
30
0
41
1
10
0.453200672108892
20
-15.6029035971946
30
0
41
1
10
0.46180282901841
20
-15.6137950259458
30
0
41
1
10
0.473214957658229
20
-15.629710720297
30
0
41
1
10
0.476917228423133
20
-15.6355989560256
30
0
41
1
10
0.480192540925401
20
-15.6433369927997
30
0
41
1
10
0.479718259976181
20
-15.6452091952186
30
0
41
1
10
0.474648237945388
20
-15.6442131473893
30
0
41
1
10
0.470615970031844
20
-15.6420002438768
30
0
41
1
10
0.460061795147084
20
-15.6347238314344
30
0
41
1
10
0.453420167275255
20
-15.6295775089921
30
0
41
1
10
0.43480964142492
20
-15.6142418932084
30
0
41
1
10
0.421603108480156
20
-15.6026107127157
30
0
41
1
10
0.403480512216618
20
-15.5860630600919
30
0
41
1
10
0.399025912926845
20
-15.5819528629554
30
0
41
1
10
0.394519052838319
20
-15.5777563661013
30
0
0
SPLINE
5
30D
100
AcDbEntity
8
1
62
256
6
ByLayer
370
-1
48
1
60
0
100
AcDbSpline
70
4
71
3
72
8
73
4
40
0
40
0
40
0
40
0
40
1
40
1
40
1
40
1
41
1
10
0
20
-13.1463021112708
30
0
41
1
10
0.131502041716629
20
-13.2541129588158
30
0
41
1
10
0.263008496126361
20
-13.361916630174
30
0
41
1
10
0.394519052838319
20
-13.4697136281855
30
0
0
SPLINE
5
30E
100
AcDbEntity
8
1
62
256
6
ByLayer
370
-1
48
1
60
0
100
AcDbSpline
70
4
71
3
72
8
73
4
40
0
40
0
40
0
40
0
40
1
40
1
40
1
40
1
41
1
10
0
20
15.3199301304152
30
0
41
1
10
0.13129057331804
20
15.4494045883561
30
0
41
1
10
0.262802036987978
20
15.5785809156017
30
0
41
1
10
0.394519052838319
20
15.7074765779128
30
0
0
SPLINE
5
30F
100
AcDbEntity
8
1
62
256
6
ByLayer
370
-1
48
1
60
0
100
AcDbSpline
70
4
71
3
72
22
73
18
40
0
40
0
40
0
40
0
40
0.208549830325309
40
0.208549830325309
40
0.369167659551064
40
0.369167659551064
40
0.492513684690581
40
0.492513684690581
40
0.59360856409274
40
0.59360856409274
40
0.695153611535674
40
0.695153611535674
40
0.790693867422729
40
0.790693867422729
40
0.925158226929807
40
0.925158226929807
40
1
40
1
40
1
40
1
41
1
10
0.394519052838319
20
15.2282566821645
30
0
41
1
10
0.411774548910699
20
15.2486178941414
30
0
41
1
10
0.427951278300156
20
15.26871900374
30
0
41
1
10
0.452199588212778
20
15.3012835406772
30
0
41
1
10
0.461476575645719
20
15.3147181808331
30
0
41
1
10
0.473408685846124
20
15.3347411499061
30
0
41
1
10
0.477177839037864
20
15.3423551386608
30
0
41
1
10
0.479989087435058
20
15.3523492620559
30
0
41
1
10
0.479755410155917
20
15.355495981542
30
0
41
1
10
0.475834090183895
20
15.3580953900774
30
0
41
1
10
0.472063878102262
20
15.3575494767769
30
0
41
1
10
0.461980807263672
20
15.3531003243639
30
0
41
1
10
0.455732560626473
20
15.3493682803427
30
0
41
1
10
0.438911223397156
20
15.3377893615227
30
0
41
1
10
0.427370439254759
20
15.3287449566151
30
0
41
1
10
0.408586128662591
20
15.312971884883
30
0
41
1
10
0.40160096375962
20
15.3069064874527
30
0
41
1
10
0.394519052838319
20
15.3005936602976
30
0
0
SPLINE
5
310
100
AcDbEntity
8
1
62
256
6
ByLayer
370
-1
48
1
60
0
100
AcDbSpline
70
4
71
3
72
8
73
4
40
0
40
0
40
0
40
0
40
1
40
1
40
1
40
1
41
1
10
15.5928919329532
20
-18.2381098754174
30
0
41
1
10
15.6584723766729
20
-18.3167353241859
30
0
41
1
10
15.7297979912691
20
-18.395048985859
30
0
41
1
10
15.8066137999996
20
-18.4729596357381
30
0
0
SPLINE
5
311
100
AcDbEntity
8
1
62
256
6
ByLayer
370
-1
48
1
60
0
100
AcDbSpline
70
4
71
3
72
22
73
18
40
0
40
0
40
0
40
0
40
0.359886305297871
40
0.359886305297871
40
0.509086970945325
40
0.509086970945325
40
0.660575658898739
40
0.660575658898739
40
0.738238536580427
40
0.738238536580427
40
0.816917588662264
40
0.816917588662264
40
0.885464536321309
40
0.885464536321309
40
0.971305549718234
40
0.971305549718234
40
1
40
1
40
1
40
1
41
1
10
0.394519052838319
20
12.2120067865264
30
0
41
1
10
0.421782804412174
20
12.2598571962515
30
0
41
1
10
0.445249459235754
20
12.3086896933016
30
0
41
1
10
0.46780373322926
20
12.3728903596386
30
0
41
1
10
0.47317713717959
20
12.3914342431433
30
0
41
1
10
0.479634030363883
20
12.4258284667328
30
0
41
1
10
0.48075807581057
20
12.442142339939
30
0
41
1
10
0.476339411158733
20
12.4609567385876
30
0
41
1
10
0.473681805727011
20
12.4663978941759
30
0
41
1
10
0.465602671330771
20
12.4737903357273
30
0
41
1
10
0.45998513484281
20
12.4757409542242
30
0
41
1
10
0.447326180565795
20
12.4752435025223
30
0
41
1
10
0.440414530599696
20
12.4733329076359
30
0
41
1
10
0.424068578214786
20
12.4660569087243
30
0
41
1
10
0.414204712201695
20
12.4598885058905
30
0
41
1
10
0.401135322044695
20
12.4501677047476
30
0
41
1
10
0.397823514738633
20
12.4475744802241
30
0
41
1
10
0.394519052838319
20
12.4448727667765
30
0
0
SPLINE
5
312
100
AcDbEntity
8
1
62
256
6
ByLayer
370
-1
48
1
60
0
100
AcDbSpline
70
4
71
3
72
22
73
18
40
0
40
0
40
0
40
0
40
0.340130827400299
40
0.340130827400299
40
0.490922250329538
40
0.490922250329538
40
0.616982956481365
40
0.616982956481365
40
0.704434017364933
40
0.704434017364933
40
0.792827281512479
40
0.792827281512479
40
0.869923125851478
40
0.869923125851478
40
0.972297442247415
40
0.972297442247415
40
1
40
1
40
1
40
1
41
1
10
0.394519052838319
20
-13.2881444419488
30
0
41
1
10
0.420837882017224
20
-13.3288803055807
30
0
41
1
10
0.443974968873363
20
-13.3703432838026
30
0
41
1
10
0.467081364807427
20
-13.4247912441353
30
0
41
1
10
0.472864762130001
20
-13.4411155294629
30
0
41
1
10
0.479118508352173
20
-13.4678794874307
30
0
41
1
10
0.480338966652454
20
-13.4790853997832
30
0
41
1
10
0.477952425443419
20
-13.4937747156265
30
0
41
1
10
0.475642923619375
20
-13.498658102131
30
0
41
1
10
0.467929749751818
20
-13.5046421341009
30
0
41
1
10
0.462342913352586
20
-13.505737160417
30
0
41
1
10
0.449570681541673
20
-13.5037625296307
30
0
41
1
10
0.442540909941897
20
-13.5012032465406
30
0
41
1
10
0.425209371722929
20
-13.492412603164
30
0
41
1
10
0.41433729129082
20
-13.4851708191101
30
0
41
1
10
0.400498406731231
20
-13.4745416676989
30
0
41
1
10
0.397510273718012
20
-13.4721654817802
30
0
41
1
10
0.394519052838319
20
-13.4697136281855
30
0
0
SPLINE
5
313
100
AcDbEntity
8
1
62
256
6
ByLayer
370
-1
48
1
60
0
100
AcDbSpline
70
4
71
3
72
8
73
4
40
0
40
0
40
0
40
0
40
1
40
1
40
1
40
1
41
1
10
0.394519052838319
20
-14.2650451197813
30
0
41
1
10
0.262989702442013
20
-14.1552585794663
30
0
41
1
10
0.131482808102248
20
-14.0454361577269
30
0
41
1
10
0
20
-13.9355753092867
30
0
0
SPLINE
5
314
100
AcDbEntity
8
1
62
256
6
ByLayer
370
-1
48
1
60
0
100
AcDbSpline
70
4
71
3
72
8
73
4
40
0
40
0
40
0
40
0
40
1
40
1
40
1
40
1
41
1
10
0
20
-9.98500171260874
30
0
41
1
10
0.127941497480151
20
-10.2673598479706
30
0
41
1
10
0.259571603612187
20
-10.5475238397795
30
0
41
1
10
0.394519052838319
20
-10.8254993787
30
0
0
SPLINE
5
315
100
AcDbEntity
8
1
62
256
6
ByLayer
370
-1
48
1
60
0
100
AcDbSpline
70
4
71
3
72
8
73
4
40
0
40
0
40
0
40
0
40
1
40
1
40
1
40
1
41
1
10
0.394519052838319
20
-15.3005936602976
30
0
41
1
10
0.262919648687358
20
-15.1832857329098
30
0
41
1
10
0.131411126798554
20
-15.0658417230821
30
0
41
1
10
0
20
-14.9482527139731
30
0
0
SPLINE
5
316
100
AcDbEntity
8
1
62
256
6
ByLayer
370
-1
48
1
60
0
100
AcDbSpline
70
4
71
3
72
8
73
4
40
0
40
0
40
0
40
0
40
1
40
1
40
1
40
1
41
1
10
0.394519052838319
20
-9.39458376369676
30
0
41
1
10
0.262842699722114
20
-9.2762474901822
30
0
41
1
10
0.131329741485217
20
-9.15766830306721
30
0
41
1
10
0
20
-9.03881956899237
30
0
0
SPLINE
5
317
100
AcDbEntity
8
1
62
256
6
ByLayer
370
-1
48
1
60
0
100
AcDbSpline
70
4
71
3
72
16
73
12
40
0
40
0
40
0
40
0
40
0.24158916518943
40
0.24158916518943
40
0.484203369330148
40
0.484203369330148
40
0.710196743478616
40
0.710196743478616
40
0.917210401482933
40
0.917210401482933
40
1
40
1
40
1
40
1
41
1
10
10.0236079589662
20
-15.7235114973426
30
0
41
1
10
10.0211933538595
20
-15.7527767691584
30
0
41
1
10
10.0447236447356
20
-15.7801072702557
30
0
41
1
10
10.1434019460509
20
-15.8271052047382
30
0
41
1
10
10.2204424924951
20
-15.8474522052235
30
0
41
1
10
10.4128860902472
20
-15.8784970914689
30
0
41
1
10
10.5283406361218
20
-15.8902640839103
30
0
41
1
10
10.7737712389383
20
-15.906160525425
30
0
41
1
10
10.9052883267673
20
-15.911111276508
30
0
41
1
10
11.0931750508218
20
-15.9143613962613
30
0
41
1
10
11.1481824355902
20
-15.9148805857863
30
0
41
1
10
11.2031163282893
20
-15.9149826612125
30
0
0
SPLINE
5
318
100
AcDbEntity
8
1
62
256
6
ByLayer
370
-1
48
1
60
0
100
AcDbSpline
70
4
71
3
72
18
73
14
40
0
40
0
40
0
40
0
40
0.428844545242825
40
0.428844545242825
40
0.596516141233927
40
0.596516141233927
40
0.765691479832056
40
0.765691479832056
40
0.864269996732487
40
0.864269996732487
40
0.964385428961549
40
0.964385428961549
40
1
40
1
40
1
40
1
41
1
10
5.49999999999974
20
-7.92401413426302
30
0
41
1
10
5.49999999999974
20
-8.04094680324516
30
0
41
1
10
5.51594921180376
20
-8.15876747241164
30
0
41
1
10
5.57042469486638
20
-8.3125423807452
30
0
41
1
10
5.58966238416883
20
-8.3551841264639
30
0
41
1
10
5.63823412940198
20
-8.43583948605756
30
0
41
1
10
5.66803147109459
20
-8.47455637708116
30
0
41
1
10
5.7263349125551
20
-8.52647485906049
30
0
41
1
10
5.750632446195
20
-8.54382518639821
30
0
41
1
10
5.80438558450575
20
-8.57117194475994
30
0
41
1
10
5.83477572466029
20
-8.58130390223461
30
0
41
1
10
5.87715635225413
20
-8.58700734205374
30
0
41
1
10
5.88859541932928
20
-8.5877820186589
30
0
41
1
10
5.89999999999986
20
-8.5877820186589
30
0
0
SPLINE
5
319
100
AcDbEntity
8
1
62
256
6
ByLayer
370
-1
48
1
60
0
100
AcDbSpline
70
4
71
3
72
8
73
4
40
0
40
0
40
0
40
0
40
1
40
1
40
1
40
1
41
1
10
0.394519052838319
20
15.5351689573631
30
0
41
1
10
0.262606766088936
20
15.3899432504731
30
0
41
1
10
0.131089853996229
20
15.2442369780298
30
0
41
1
10
0
20
15.0980216982492
30
0
0
SPLINE
5
31A
100
AcDbEntity
8
1
62
256
6
ByLayer
370
-1
48
1
60
0
100
AcDbSpline
70
4
71
3
72
8
73
4
40
0
40
0
40
0
40
0
40
1
40
1
40
1
40
1
41
1
10
0.394519052838319
20
-14.1250294040765
30
0
41
1
10
0.261970125944373
20
-13.9401542765635
30
0
41
1
10
0.130432506420675
20
-13.7543051691889
30
0
41
1
10
0
20
-13.5674337735919
30
0
0
SPLINE
5
31B
100
AcDbEntity
8
1
62
256
6
ByLayer
370
-1
48
1
60
0
100
AcDbSpline
70
4
71
3
72
14
73
10
40
0
40
0
40
0
40
0
40
0.423173377199508
40
0.423173377199508
40
0.685853846526058
40
0.685853846526058
40
0.904182772027465
40
0.904182772027465
40
1
40
1
40
1
40
1
41
1
10
0.394519052838319
20
15.6934109577794
30
0
41
1
10
0.412982222388535
20
15.7125137151635
30
0
41
1
10
0.430592354269123
20
15.7309890937807
30
0
41
1
10
0.454151382356997
20
15.7562686134176
30
0
41
1
10
0.462163982107228
20
15.7650333002933
30
0
41
1
10
0.473081897513794
20
15.7774212058229
30
0
41
1
10
0.476701503027016
20
15.781758819333
30
0
41
1
10
0.47912947249057
20
15.7852118023379
30
0
41
1
10
0.479500016944854
20
15.7858971997164
30
0
41
1
10
0.47950030155647
20
15.7862090862734
30
0
0
SPLINE
5
31C
100
AcDbEntity
8
1
62
256
6
ByLayer
370
-1
48
1
60
0
100
AcDbSpline
70
4
71
3
72
16
73
12
40
0
40
0
40
0
40
0
40
0.002712657349355
40
0.002712657349355
40
0.235229220009085
40
0.235229220009085
40
0.482420082359072
40
0.482420082359072
40
0.874436294664252
40
0.874436294664252
40
1
40
1
40
1
40
1
41
1
10
0.477703343480471
20
15.7855721515504
30
0
41
1
10
0.477680637260107
20
15.7855565087622
30
0
41
1
10
0.477657715448885
20
15.785540644043
30
0
41
1
10
0.475642162986674
20
15.7841392908808
30
0
41
1
10
0.472032967965532
20
15.7811058171883
30
0
41
1
10
0.462179432244483
20
15.772310165469
30
0
41
1
10
0.455695200411924
20
15.766312981533
30
0
41
1
10
0.436947050033581
20
15.7486479553059
30
0
41
1
10
0.423231738554364
20
15.7354499981328
30
0
41
1
10
0.404136362530323
20
15.7168750116904
30
0
41
1
10
0.399362762590158
20
15.7122165363189
30
0
41
1
10
0.394519052838319
20
15.7074765779128
30
0
0
SPLINE
5
31D
100
AcDbEntity
8
1
62
256
6
ByLayer
370
-1
48
1
60
0
100
AcDbSpline
70
4
71
3
72
22
73
18
40
0
40
0
40
0
40
0
40
0.167237742498881
40
0.167237742498881
40
0.289620858950482
40
0.289620858950482
40
0.392917316668126
40
0.392917316668126
40
0.496584629412275
40
0.496584629412275
40
0.595307301160884
40
0.595307301160884
40
0.735131592213635
40
0.735131592213635
40
0.930838879331132
40
0.930838879331132
40
1
40
1
40
1
40
1
41
1
10
0.394519052838319
20
15.5777563661013
30
0
41
1
10
0.409716228897452
20
15.5919069943148
30
0
41
1
10
0.424515281693175
20
15.6052558035588
30
0
41
1
10
0.44695429498293
20
15.6243930279901
30
0
41
1
10
0.455636550967284
20
15.6313973610645
30
0
41
1
10
0.468322933111693
20
15.6405615702933
30
0
41
1
10
0.472953014655161
20
15.6433728848381
30
0
41
1
10
0.478728932716649
20
15.645341419777
30
0
41
1
10
0.479925894093441
20
15.6444985821855
30
0
41
1
10
0.478879186458102
20
15.6395578462201
30
0
41
1
10
0.476807225634815
20
15.6355818528583
30
0
41
1
10
0.468961885244426
20
15.6234207210829
30
0
41
1
10
0.461930505674729
20
15.6140197288747
30
0
41
1
10
0.441932337983388
20
15.5890101399473
30
0
41
1
10
0.427406080879536
20
15.572003248375
30
0
41
1
10
0.406181467069587
20
15.5480794743081
30
0
41
1
10
0.400415705751612
20
15.5416607376871
30
0
41
1
10
0.394519052838319
20
15.5351689573631
30
0
0
SPLINE
5
31E
100
AcDbEntity
8
1
62
256
6
ByLayer
370
-1
48
1
60
0
100
AcDbSpline
70
4
71
3
72
54
73
50
40
0
40
0
40
0
40
0
40
0.006608603614791
40
0.006608603614791
40
0.0150484277376403
40
0.0150484277376403
40
0.0177437613784821
40
0.0177437613784821
40
0.0193124984210332
40
0.0193124984210332
40
0.0206183072753937
40
0.0206183072753937
40
0.0219165647661193
40
0.0219165647661193
40
0.0235580400430982
40
0.0235580400430982
40
0.0291950660909203
40
0.0291950660909203
40
0.0403431095276279
40
0.0403431095276279
40
0.0625839091310214
40
0.0625839091310214
40
0.137715654662922
40
0.137715654662922
40
0.287885395350228
40
0.287885395350228
40
0.588359056153536
40
0.588359056153536
40
0.889560217051077
40
0.889560217051077
40
0.96627209143497
40
0.96627209143497
40
0.972413212399382
40
0.972413212399382
40
0.976212339485366
40
0.976212339485366
40
0.978122191068046
40
0.978122191068046
40
0.979341996805367
40
0.979341996805367
40
0.980762723051987
40
0.980762723051987
40
0.982162427811311
40
0.982162427811311
40
0.984671925679933
40
0.984671925679933
40
0.991099457437009
40
0.991099457437009
40
1
40
1
40
1
40
1
41
1
10
0.394519052838319
20
-1.9082845712768
30
0
41
1
10
0.397007323417796
20
-1.91703495117656
30
0
41
1
10
0.399675857971204
20
-1.92571710620473
30
0
41
1
10
0.40646760910272
20
-1.94504793959067
30
0
41
1
10
0.410713801683016
20
-1.95593668181448
30
0
41
1
10
0.41835449411451
20
-1.96797442231114
30
0
41
1
10
0.420425261444024
20
-1.97074439641415
30
0
41
1
10
0.424126009828797
20
-1.97410858977255
30
0
41
1
10
0.42561241916539
20
-1.97513746783466
30
0
41
1
10
0.428424099252652
20
-1.9762396929905
30
0
41
1
10
0.429764915086935
20
-1.97644322478617
30
0
41
1
10
0.432322526112728
20
-1.976152838141
30
0
41
1
10
0.433570300254587
20
-1.97566412109873
30
0
41
1
10
0.436146754402017
20
-1.97402145633687
30
0
41
1
10
0.437451887201803
20
-1.97271999442118
30
0
41
1
10
0.442542833045479
20
-1.96628757241153
30
0
41
1
10
0.44521224743005
20
-1.95948173616199
30
0
41
1
10
0.451885146223759
20
-1.93914780335621
30
0
41
1
10
0.454717395976644
20
-1.9244539766769
30
0
41
1
10
0.461953089754957
20
-1.88034301270795
30
0
41
1
10
0.464855960734042
20
-1.85010222478034
30
0
41
1
10
0.475252329857142
20
-1.71758361516404
30
0
41
1
10
0.477123901663447
20
-1.61359395924758
30
0
41
1
10
0.480993670536037
20
-1.30216305844797
30
0
41
1
10
0.478974948458387
20
-1.09358192117725
30
0
41
1
10
0.474100932565989
20
-0.467789450853843
30
0
41
1
10
0.471679921541238
20
-0.049614649923484
30
0
41
1
10
0.475794518531558
20
0.786528679360146
30
0
41
1
10
0.486755673160928
20
1.20637579795358
30
0
41
1
10
0.473740457836158
20
1.72707168260257
30
0
41
1
10
0.474747278787362
20
1.83630643315966
30
0
41
1
10
0.450538610617059
20
1.94253868360374
30
0
41
1
10
0.448434097917669
20
1.95044711336965
30
0
41
1
10
0.443924131094292
20
1.96230661043195
30
0
41
1
10
0.441921445576355
20
1.9667035146488
30
0
41
1
10
0.438044055569691
20
1.97208951944472
30
0
41
1
10
0.436563453349635
20
1.97370517225532
30
0
41
1
10
0.433829988307139
20
1.97552651878863
30
0
41
1
10
0.432664582038541
20
1.97603330900209
30
0
41
1
10
0.430077349651242
20
1.97647526909
30
0
41
1
10
0.428605329287308
20
1.97629951000744
30
0
41
1
10
0.42582849945137
20
1.97523280493739
30
0
41
1
10
0.424483656108038
20
1.97435404278218
30
0
41
1
10
0.421010951720632
20
1.97138361570796
30
0
41
1
10
0.419019948505707
20
1.9688621536588
30
0
41
1
10
0.412663879729422
20
1.9593215078346
30
0
41
1
10
0.409104939805133
20
1.95120234399138
30
0
41
1
10
0.401540984564576
20
1.93180091542331
30
0
41
1
10
0.397875402654961
20
1.92008768315587
30
0
41
1
10
0.394519052836898
20
1.90828457129659
30
0
0
SPLINE
5
31F
100
AcDbEntity
8
1
62
256
6
ByLayer
370
-1
48
1
60
0
100
AcDbSpline
70
4
71
3
72
18
73
14
40
0
40
0
40
0
40
0
40
0.264448123517308
40
0.264448123517308
40
0.534811468474735
40
0.534811468474735
40
0.746432163568172
40
0.746432163568172
40
0.876312359777214
40
0.876312359777214
40
0.978461357205354
40
0.978461357205354
40
1
40
1
40
1
40
1
41
1
10
10.0245233506699
20
-10.6566919175734
30
0
41
1
10
10.021749449321
20
-10.5007304162152
30
0
41
1
10
10.05368343112
20
-10.3336572113719
30
0
41
1
10
10.1697292517556
20
-9.9998748489319
30
0
41
1
10
10.256041224734
20
-9.82862444459387
30
0
41
1
10
10.4528468242713
20
-9.5435055078654
30
0
41
1
10
10.5558742088209
20
-9.42221043392999
30
0
41
1
10
10.7523658304038
20
-9.25755780753467
30
0
41
1
10
10.8358964695991
20
-9.20130180846856
30
0
41
1
10
10.9979767396837
20
-9.12850718955029
30
0
41
1
10
11.0754689588842
20
-9.1058304030539
30
0
41
1
10
11.1706345763029
20
-9.09570967757897
30
0
41
1
10
11.1874873681117
20
-9.09455363327875
30
0
41
1
10
11.2043486267028
20
-9.09404064830366
30
0
0
SPLINE
5
320
100
AcDbEntity
8
1
62
256
6
ByLayer
370
-1
48
1
60
0
100
AcDbSpline
70
4
71
3
72
8
73
4
40
0
40
0
40
0
40
0
40
1
40
1
40
1
40
1
41
1
10
0.394519052838319
20
15.5777563661013
30
0
41
1
10
0.262867981903014
20
15.4551713969287
30
0
41
1
10
0.131358203475685
20
15.332383790812
30
0
41
1
10
0
20
15.2093806317287
30
0
0
SPLINE
5
321
100
AcDbEntity
8
1
62
256
6
ByLayer
370
-1
48
1
60
0
100
AcDbSpline
70
4
71
3
72
8
73
4
40
0
40
0
40
0
40
0
40
1
40
1
40
1
40
1
41
1
10
0.394519052838319
20
10.8254993787
30
0
41
1
10
0.259571603612187
20
10.5475238397795
30
0
41
1
10
0.127941497480151
20
10.2673598479706
30
0
41
1
10
0
20
9.98500171260874
30
0
0
SPLINE
5
322
100
AcDbEntity
8
1
62
256
6
ByLayer
370
-1
48
1
60
0
100
AcDbSpline
70
4
71
3
72
8
73
4
40
0
40
0
40
0
40
0
40
1
40
1
40
1
40
1
41
1
10
0
20
13.9355753092867
30
0
41
1
10
0.131482808102248
20
14.0454361577269
30
0
41
1
10
0.262989702442013
20
14.1552585794663
30
0
41
1
10
0.394519052838319
20
14.2650451197813
30
0
0
SPLINE
5
323
100
AcDbEntity
8
1
62
256
6
ByLayer
370
-1
48
1
60
0
100
AcDbSpline
70
4
71
3
72
8
73
4
40
0
40
0
40
0
40
0
40
1
40
1
40
1
40
1
41
1
10
0
20
14.75890440381
30
0
41
1
10
0.130938109510964
20
14.9159893571169
30
0
41
1
10
0.262459483945321
20
15.0724284831646
30
0
41
1
10
0.394519052838319
20
15.2282566821645
30
0
0
SPLINE
5
324
100
AcDbEntity
8
1
62
256
6
ByLayer
370
-1
48
1
60
0
100
AcDbSpline
70
4
71
3
72
22
73
18
40
0
40
0
40
0
40
0
40
0.0654159651455284
40
0.0654159651455284
40
0.132313299351802
40
0.132313299351802
40
0.193213426886681
40
0.193213426886681
40
0.247660651772592
40
0.247660651772592
40
0.337826373218254
40
0.337826373218254
40
0.494803839814143
40
0.494803839814143
40
0.798872900859492
40
0.798872900859492
40
1
40
1
40
1
40
1
41
1
10
0.394519052838319
20
11.1272876810652
30
0
41
1
10
0.402633783950535
20
11.1340762891447
30
0
41
1
10
0.41095723136749
20
11.1401386080767
30
0
41
1
10
0.427304902821447
20
11.1494871443151
30
0
41
1
10
0.435529582629528
20
11.1527794904402
30
0
41
1
10
0.449422727085761
20
11.1548874472747
30
0
41
1
10
0.455422441045556
20
11.1540788556673
30
0
41
1
10
0.46459163557347
20
11.1494463852467
30
0
41
1
10
0.468118957684709
20
11.1459333054161
30
0
41
1
10
0.47530472615162
20
11.1344051704984
30
0
41
1
10
0.477743462162238
20
11.1248277220265
30
0
41
1
10
0.480694744978052
20
11.0961693604246
30
0
41
1
10
0.478701847264603
20
11.0747780071352
30
0
41
1
10
0.467382271632999
20
11.0103649568493
30
0
41
1
10
0.452797272449629
20
10.964098597896
30
0
41
1
10
0.423071203237015
20
10.8873669691265
30
0
41
1
10
0.409492411686301
20
10.8563426997045
30
0
41
1
10
0.394519052838319
20
10.8254993787
30
0
0
SPLINE
5
325
100
AcDbEntity
8
1
62
256
6
ByLayer
370
-1
48
1
60
0
100
AcDbSpline
70
4
71
3
72
8
73
4
40
0
40
0
40
0
40
0
40
1
40
1
40
1
40
1
41
1
10
0
20
-10.7970023247566
30
0
41
1
10
0.131472522952237
20
-10.9071512992133
30
0
41
1
10
0.262979877184364
20
-11.0172448591573
30
0
41
1
10
0.394519052838319
20
-11.1272876810652
30
0
0
SPLINE
5
326
100
AcDbEntity
8
1
62
256
6
ByLayer
370
-1
48
1
60
0
100
AcDbSpline
70
4
71
3
72
24
73
20
40
0
40
0
40
0
40
0
40
0.463256447629014
40
0.463256447629014
40
0.605570143862816
40
0.605570143862816
40
0.74960717422664
40
0.74960717422664
40
0.80244518546924
40
0.80244518546924
40
0.856051855327698
40
0.856051855327698
40
0.896185319648791
40
0.896185319648791
40
0.936256617504702
40
0.936256617504702
40
0.992154007298764
40
0.992154007298764
40
1
40
1
40
1
40
1
41
1
10
0.394519052838319
20
8.98608723763037
30
0
41
1
10
0.427571456755715
20
9.07129310232544
30
0
41
1
10
0.454302006288998
20
9.15840893898603
30
0
41
1
10
0.47390380392423
20
9.2665245921081
30
0
41
1
10
0.477368774949383
20
9.29184813656438
30
0
41
1
10
0.480274155967578
20
9.3404377507586
30
0
41
1
10
0.479846528113626
20
9.3643313633532
30
0
41
1
10
0.47303964196837
20
9.39152905180923
30
0
41
1
10
0.470517647511059
20
9.39836471985403
30
0
41
1
10
0.463572613599098
20
9.40980668706452
30
0
41
1
10
0.459005478671969
20
9.41448496457009
30
0
41
1
10
0.449107374504024
20
9.41902194212973
30
0
41
1
10
0.444142338842568
20
9.41980503375684
30
0
41
1
10
0.433517406102027
20
9.41872986341942
30
0
41
1
10
0.427742304444791
20
9.4168748780446
30
0
41
1
10
0.413942772704587
20
9.41011255011229
30
0
41
1
10
0.405711492362911
20
9.40424890345425
30
0
41
1
10
0.396735793810763
20
9.39655361760377
30
0
41
1
10
0.395624893719742
20
9.39557757230317
30
0
41
1
10
0.394519052831896
20
9.394583763721
30
0
0
SPLINE
5
327
100
AcDbEntity
8
1
62
256
6
ByLayer
370
-1
48
1
60
0
100
AcDbSpline
70
4
71
3
72
22
73
18
40
0
40
0
40
0
40
0
40
0.0823989739506433
40
0.0823989739506433
40
0.166617553973626
40
0.166617553973626
40
0.240975078863744
40
0.240975078863744
40
0.307515389285314
40
0.307515389285314
40
0.413088215723967
40
0.413088215723967
40
0.586125621698102
40
0.586125621698102
40
0.887028474421984
40
0.887028474421984
40
1
40
1
40
1
40
1
41
1
10
0.394519052838319
20
-12.4448727667765
30
0
41
1
10
0.403911123474501
20
-12.4525516822258
30
0
41
1
10
0.41345282771232
20
-12.4594179351797
30
0
41
1
10
0.431829499463163
20
-12.4700012428662
30
0
41
1
10
0.440891344071048
20
-12.4737369273427
30
0
41
1
10
0.455452842240646
20
-12.4761130528783
30
0
41
1
10
0.461421493913576
20
-12.4753034500675
30
0
41
1
10
0.47008984861148
20
-12.4704374815957
30
0
41
1
10
0.473190260524177
20
-12.4667088832093
30
0
41
1
10
0.478704195169001
20
-12.4547041372369
30
0
41
1
10
0.479825044127011
20
-12.4449097311771
30
0
41
1
10
0.478835522244538
20
-12.4165583540591
30
0
41
1
10
0.474346163628326
20
-12.3958937429491
30
0
41
1
10
0.456759129556843
20
-12.3376827068063
30
0
41
1
10
0.439439317081195
20
-12.2975052986114
30
0
41
1
10
0.411393580392456
20
-12.2424233615442
30
0
41
1
10
0.403176509711159
20
-12.2272014253646
30
0
41
1
10
0.394519052838319
20
-12.2120067865264
30
0
0
SPLINE
5
328
100
AcDbEntity
8
1
62
256
6
ByLayer
370
-1
48
1
60
0
100
AcDbSpline
70
4
71
3
72
22
73
18
40
0
40
0
40
0
40
0
40
0.132600635327025
40
0.132600635327025
40
0.238393195351056
40
0.238393195351056
40
0.345306112921113
40
0.345306112921113
40
0.437290229841114
40
0.437290229841114
40
0.553808003650096
40
0.553808003650096
40
0.717222051757005
40
0.717222051757005
40
0.958836078609218
40
0.958836078609218
40
1
40
1
40
1
40
1
41
1
10
0.394519052838319
20
14.8677449303339
30
0
41
1
10
0.40742279533643
20
14.8788305958529
30
0
41
1
10
0.420207211814642
20
14.8890275438608
30
0
41
1
10
0.441065696207573
20
14.9036482619423
30
0
41
1
10
0.449754638610614
20
14.9089310591623
30
0
41
1
10
0.464198239445579
20
14.9155013141411
30
0
41
1
10
0.470099639812162
20
14.9167943039962
30
0
41
1
10
0.477182482106969
20
14.9149232288644
30
0
41
1
10
0.479007857686781
20
14.9123485129043
30
0
41
1
10
0.479946715170371
20
14.9035445329927
30
0
41
1
10
0.478271894478979
20
14.8964347595902
30
0
41
1
10
0.470603138304796
20
14.8766174004009
30
0
41
1
10
0.463094632419512
20
14.8625155047967
30
0
41
1
10
0.440595020772378
20
14.8255556182409
30
0
41
1
10
0.423356077003291
20
14.801010557229
30
0
41
1
10
0.401203886610318
20
14.7719887938302
30
0
41
1
10
0.397887918394502
20
14.7677030413
30
0
41
1
10
0.394519052838319
20
14.7634050483605
30
0
0
SPLINE
5
329
100
AcDbEntity
8
SK1
62
256
6
ByLayer
370
-1
48
1
60
0
100
AcDbSpline
70
4
71
3
72
20
73
16
40
0
40
0
40
0
40
0
40
0.282566256509192
40
0.282566256509192
40
0.571605499503679
40
0.571605499503679
40
0.672992777131321
40
0.672992777131321
40
0.743427661662256
40
0.743427661662256
40
0.814435758688484
40
0.814435758688484
40
0.879233115777066
40
0.879233115777066
40
1
40
1
40
1
40
1
41
1
10
-0.324519052838326
20
-6.32548904391902
30
0
41
1
10
-0.324519052838326
20
-6.30604763568196
30
0
41
1
10
-0.323750629397978
20
-6.28683337047806
30
0
41
1
10
-0.31934420175898
20
-6.24982020621449
30
0
41
1
10
-0.315799427381677
20
-6.23131972472453
30
0
41
1
10
-0.305774513524341
20
-6.21190647139332
30
0
41
1
10
-0.3025624479003
20
-6.20732710942124
30
0
41
1
10
-0.295877060326006
20
-6.20179729293777
30
0
41
1
10
-0.292710979755981
20
-6.20015205574194
30
0
41
1
10
-0.285812184720442
20
-6.19877685689011
30
0
41
1
10
-0.281983980062961
20
-6.19906594545314
30
0
41
1
10
-0.274662862231622
20
-6.20135851769325
30
0
41
1
10
-0.271092517736719
20
-6.20321172744048
30
0
41
1
10
-0.261278516776827
20
-6.20984064008729
30
0
41
1
10
-0.255165149272102
20
-6.21580570588384
30
0
41
1
10
-0.249519052839105
20
-6.22229127889409
30
0
0
SPLINE
5
32A
100
AcDbEntity
8
SK1
62
256
6
ByLayer
370
-1
48
1
60
0
100
AcDbSpline
70
4
71
3
72
10
73
6
40
0
40
0
40
0
40
0
40
0.685838507984765
40
0.685838507984765
40
1
40
1
40
1
40
1
41
1
10
-0.249519052838338
20
-7.15455621082879
30
0
41
1
10
-0.27922548672592
20
-7.06015449663101
30
0
41
1
10
-0.301653109985779
20
-6.96410898078709
30
0
41
1
10
-0.32052454556279
20
-6.82726696208856
30
0
41
1
10
-0.324519052838326
20
-6.78425231716972
30
0
41
1
10
-0.324519052838326
20
-6.7429794370576
30
0
0
SPLINE
5
32B
100
AcDbEntity
8
SK1
62
256
6
ByLayer
370
-1
48
1
60
0
100
AcDbSpline
70
4
71
3
72
8
73
4
40
0
40
0
40
0
40
0
40
1
40
1
40
1
40
1
41
1
10
-0.249519052839162
20
-6.22229127889405
30
0
41
1
10
-0.166795538798539
20
-6.31731434418356
30
0
41
1
10
-0.0836051437626679
20
-6.41179796363483
30
0
41
1
10
-1.2506E-12
20
-6.50578659354736
30
0
0
SPLINE
5
32C
100
AcDbEntity
8
SK1
62
256
6
ByLayer
370
-1
48
1
60
0
100
AcDbSpline
70
4
71
3
72
20
73
16
40
0
40
0
40
0
40
0
40
0.110177117452066
40
0.110177117452066
40
0.185501740669293
40
0.185501740669293
40
0.261836698537974
40
0.261836698537974
40
0.327067398240944
40
0.327067398240944
40
0.432003806877882
40
0.432003806877882
40
0.634445733514876
40
0.634445733514876
40
1
40
1
40
1
40
1
41
1
10
-0.249519052838338
20
6.22229127889499
30
0
41
1
10
-0.254668873183903
20
6.21637576961564
30
0
41
1
10
-0.260191127047278
20
6.21091246122302
30
0
41
1
10
-0.269897753392229
20
6.20386107547546
30
0
41
1
10
-0.274033319139278
20
6.2015691228824
30
0
41
1
10
-0.282164433946406
20
6.19899613959565
30
0
41
1
10
-0.286264831324729
20
6.19874615245176
30
0
41
1
10
-0.293070257672383
20
6.20034969381192
30
0
41
1
10
-0.295973739522424
20
6.201898631319
30
0
41
1
10
-0.302599790627482
20
6.2073248435443
30
0
41
1
10
-0.305901336456174
20
6.21207582526273
30
0
41
1
10
-0.313749477127828
20
6.22750445260976
30
0
41
1
10
-0.31694426543757
20
6.23983039757957
30
0
41
1
10
-0.323321353780045
20
6.27545305080624
30
0
41
1
10
-0.324519052838326
20
6.300356616381
30
0
41
1
10
-0.324519052838326
20
6.32548904391901
30
0
0
SPLINE
5
32D
100
AcDbEntity
8
SK1
62
256
6
ByLayer
370
-1
48
1
60
0
100
AcDbSpline
70
4
71
3
72
8
73
4
40
0
40
0
40
0
40
0
40
1
40
1
40
1
40
1
41
1
10
-0.249519052838338
20
7.15455621082879
30
0
41
1
10
-0.16976751611918
20
7.40799227806868
30
0
41
1
10
-0.0865100425099001
20
7.65998975574324
30
0
41
1
10
0
20
7.91045252819326
30
0
0
SPLINE
5
32E
100
AcDbEntity
8
SK1
62
256
6
ByLayer
370
-1
48
1
60
0
100
AcDbSpline
70
4
71
3
72
8
73
4
40
0
40
0
40
0
40
0
40
1
40
1
40
1
40
1
41
1
10
7.617E-12
20
6.50578659355735
30
0
41
1
10
-0.083605143756472
20
6.41179796364183
30
0
41
1
10
-0.166795538795043
20
6.31731434418755
30
0
41
1
10
-0.249519052838338
20
6.222291278895
30
0
0
SPLINE
5
32F
100
AcDbEntity
8
SK1
62
256
6
ByLayer
370
-1
48
1
60
0
100
AcDbSpline
70
4
71
3
72
10
73
6
40
0
40
0
40
0
40
0
40
0.611351219642233
40
0.611351219642233
40
1
40
1
40
1
40
1
41
1
10
-0.324519052838326
20
6.7429794370576
30
0
41
1
10
-0.324519052838326
20
6.82287881886697
30
0
41
1
10
-0.310981411525006
20
6.90849867153069
30
0
41
1
10
-0.280782780065891
20
7.0466974993186
30
0
41
1
10
-0.266425331347477
20
7.10083109262685
30
0
41
1
10
-0.249519052838338
20
7.15455621082879
30
0
0
SPLINE
5
330
100
AcDbEntity
8
SK1
62
256
6
ByLayer
370
-1
48
1
60
0
100
AcDbSpline
70
4
71
3
72
8
73
4
40
0
40
0
40
0
40
0
40
1
40
1
40
1
40
1
41
1
10
0
20
-7.91045252819326
30
0
41
1
10
-0.0865100425099001
20
-7.65998975574324
30
0
41
1
10
-0.16976751611918
20
-7.40799227806866
30
0
41
1
10
-0.249519052838338
20
-7.15455621082879
30
0
0
SPLINE
5
331
100
AcDbEntity
8
SK1
62
256
6
ByLayer
370
-1
48
1
60
0
100
AcDbSpline
70
4
71
3
72
10
73
6
40
0
40
0
40
0
40
0
40
0.780393891955593
40
0.780393891955593
40
1
40
1
40
1
40
1
41
1
10
-0.249519052838338
20
9.42044872874332
30
0
41
1
10
-0.282147237226695
20
9.34470136594838
30
0
41
1
10
-0.307629268575738
20
9.266274937087
30
0
41
1
10
-0.322425031042343
20
9.17282982884045
30
0
41
1
10
-0.324519052838326
20
9.15235771256552
30
0
41
1
10
-0.324519052838326
20
9.13316280361069
30
0
0
SPLINE
5
332
100
AcDbEntity
8
SK1
62
256
6
ByLayer
370
-1
48
1
60
0
100
AcDbSpline
70
4
71
3
72
18
73
14
40
0
40
0
40
0
40
0
40
0.337473111878964
40
0.337473111878964
40
0.485238815325834
40
0.485238815325834
40
0.635601859105707
40
0.635601859105707
40
0.767849688421516
40
0.767849688421516
40
0.878858266165179
40
0.878858266165179
40
1
40
1
40
1
40
1
41
1
10
-0.324519052838326
20
8.86368549397285
30
0
41
1
10
-0.324519052838326
20
8.846553774268
30
0
41
1
10
-0.323049534336576
20
8.82992313473717
30
0
41
1
10
-0.316492111837022
20
8.81016876013273
30
0
41
1
10
-0.313828611403068
20
8.80464630614365
30
0
41
1
10
-0.306742939981149
20
8.79586945552778
30
0
41
1
10
-0.302149551948105
20
8.79258188245673
30
0
41
1
10
-0.29191961798972
20
8.79015059448055
30
0
41
1
10
-0.286322319033445
20
8.79056485085202
30
0
41
1
10
-0.275709534410566
20
8.79399159927472
30
0
41
1
10
-0.270630531056469
20
8.79658203572335
30
0
41
1
10
-0.260198587759817
20
8.80335376724064
30
0
41
1
10
-0.254770278615411
20
8.80770065752439
30
0
41
1
10
-0.249519052838338
20
8.8124757635094
30
0
0
SPLINE
5
333
100
AcDbEntity
8
SK1
62
256
6
ByLayer
370
-1
48
1
60
0
100
AcDbSpline
70
4
71
3
72
10
73
6
40
0
40
0
40
0
40
0
40
0.393174801843656
40
0.393174801843656
40
1
40
1
40
1
40
1
41
1
10
-0.324519052838326
20
-9.13316280361067
30
0
41
1
10
-0.324519052838326
20
-9.16717939620349
30
0
41
1
10
-0.31825591575739
20
-9.20495352447328
30
0
41
1
10
-0.295685771492685
20
-9.30094458275615
30
0
41
1
10
-0.27500138342225
20
-9.36129069173377
30
0
41
1
10
-0.249519052838338
20
-9.42044872874332
30
0
0
SPLINE
5
334
100
AcDbEntity
8
SK1
62
256
6
ByLayer
370
-1
48
1
60
0
100
AcDbSpline
70
4
71
3
72
8
73
4
40
0
40
0
40
0
40
0
40
1
40
1
40
1
40
1
41
1
10
-0.249519052838338
20
8.8124757635094
30
0
41
1
10
-0.166423399330114
20
8.8880372741428
30
0
41
1
10
-0.0832484707354126
20
8.96348267082534
30
0
41
1
10
0
20
9.03881956899237
30
0
0
SPLINE
5
335
100
AcDbEntity
8
SK1
62
256
6
ByLayer
370
-1
48
1
60
0
100
AcDbSpline
70
4
71
3
72
18
73
14
40
0
40
0
40
0
40
0
40
0.135377991182287
40
0.135377991182287
40
0.274381589835915
40
0.274381589835915
40
0.401789664707534
40
0.401789664707534
40
0.513098053042406
40
0.513098053042406
40
0.706612481683662
40
0.706612481683662
40
1
40
1
40
1
40
1
41
1
10
-0.249519052838338
20
-8.8124757635094
30
0
41
1
10
-0.2553632915847
20
-8.80716141204172
30
0
41
1
10
-0.261437493345085
20
-8.80236927578892
30
0
41
1
10
-0.273703480915287
20
-8.79483666128668
30
0
41
1
10
-0.280056994130575
20
-8.79209913576717
30
0
41
1
10
-0.291234615173948
20
-8.7901725775227
30
0
41
1
10
-0.296277782304202
20
-8.79070968217553
30
0
41
1
10
-0.304252775259528
20
-8.7941893062679
30
0
41
1
10
-0.307476335116519
20
-8.796826734729
30
0
41
1
10
-0.314781419231338
20
-8.80574574009735
30
0
41
1
10
-0.317943355084594
20
-8.81336140804153
30
0
41
1
10
-0.323378701371325
20
-8.83425157405968
30
0
41
1
10
-0.324519052838326
20
-8.84873591795009
30
0
41
1
10
-0.324519052838326
20
-8.86368549397285
30
0
0
SPLINE
5
336
100
AcDbEntity
8
SK1
62
256
6
ByLayer
370
-1
48
1
60
0
100
AcDbSpline
70
4
71
3
72
8
73
4
40
0
40
0
40
0
40
0
40
1
40
1
40
1
40
1
41
1
10
-0.249519052838338
20
-9.42044872874332
30
0
41
1
10
-0.168035290451229
20
-9.6096158622241
30
0
41
1
10
-0.0848234304748132
20
-9.79780220239839
30
0
41
1
10
0
20
-9.98500171260874
30
0
0
SPLINE
5
337
100
AcDbEntity
8
SK1
62
256
6
ByLayer
370
-1
48
1
60
0
100
AcDbSpline
70
4
71
3
72
8
73
4
40
0
40
0
40
0
40
0
40
1
40
1
40
1
40
1
41
1
10
0
20
-9.03881956899237
30
0
41
1
10
-0.0832484707354126
20
-8.96348267082534
30
0
41
1
10
-0.166423399330114
20
-8.8880372741428
30
0
41
1
10
-0.249519052838338
20
-8.8124757635094
30
0
0
SPLINE
5
338
100
AcDbEntity
8
SK1
62
256
6
ByLayer
370
-1
48
1
60
0
100
AcDbSpline
70
4
71
3
72
8
73
4
40
0
40
0
40
0
40
0
40
1
40
1
40
1
40
1
41
1
10
0
20
9.98500171260874
30
0
41
1
10
-0.0848234304748132
20
9.79780220239839
30
0
41
1
10
-0.168035290451229
20
9.60961586222412
30
0
41
1
10
-0.249519052838338
20
9.42044872874332
30
0
0
SPLINE
5
339
100
AcDbEntity
8
SK1
62
256
6
ByLayer
370
-1
48
1
60
0
100
AcDbSpline
70
4
71
3
72
14
73
10
40
0
40
0
40
0
40
0
40
0.432356859113445
40
0.432356859113445
40
0.686287076541542
40
0.686287076541542
40
0.943550571854797
40
0.943550571854797
40
1
40
1
40
1
40
1
41
1
10
-0.249519052838338
20
-15.0732309630904
30
0
41
1
10
-0.266142529562586
20
-15.0567525817358
30
0
41
1
10
-0.282112702923172
20
-15.0409809003387
30
0
41
1
10
-0.302802036383554
20
-15.0206439151594
30
0
41
1
10
-0.309598288881716
20
-15.0139891536121
30
0
41
1
10
-0.319743607136473
20
-15.0041168850062
30
0
41
1
10
-0.323156540166565
20
-15.0008390119875
30
0
41
1
10
-0.32440424933904
20
-14.9997277749571
30
0
41
1
10
-0.324519052838326
20
-14.9996369336766
30
0
41
1
10
-0.324519052838326
20
-14.9996597183625
30
0
0
SPLINE
5
33A
100
AcDbEntity
8
SK1
62
256
6
ByLayer
370
-1
48
1
60
0
100
AcDbSpline
70
4
71
3
72
8
73
4
40
0
40
0
40
0
40
0
40
1
40
1
40
1
40
1
41
1
10
0
20
-15.3199301304152
30
0
41
1
10
-0.0832631335832161
20
-15.2378187585574
30
0
41
1
10
-0.166437562506246
20
-15.1555872898628
30
0
41
1
10
-0.249519052838338
20
-15.0732309630904
30
0
0
SPLINE
5
33B
100
AcDbEntity
8
SK1
62
256
6
ByLayer
370
-1
48
1
60
0
100
AcDbSpline
70
4
71
3
72
10
73
6
40
0
40
0
40
0
40
0
40
0.332135095994737
40
0.332135095994737
40
1
40
1
40
1
40
1
41
1
10
-0.324519052838326
20
-10.2467676740947
30
0
41
1
10
-0.324519052838326
20
-10.2198955208874
30
0
41
1
10
-0.319392283951032
20
-10.1892610098297
30
0
41
1
10
-0.298259492308318
20
-10.0964788509736
30
0
41
1
10
-0.275815419641077
20
-10.0307107419423
30
0
41
1
10
-0.249519052838338
20
-9.96605046147945
30
0
0
SPLINE
5
33C
100
AcDbEntity
8
SK1
62
256
6
ByLayer
370
-1
48
1
60
0
100
AcDbSpline
70
4
71
3
72
18
73
14
40
0
40
0
40
0
40
0
40
0.253574361066235
40
0.253574361066235
40
0.439858587054068
40
0.439858587054068
40
0.589298582239303
40
0.589298582239303
40
0.739183335151847
40
0.739183335151847
40
0.918521425426585
40
0.918521425426585
40
1
40
1
40
1
40
1
41
1
10
-0.324519052838326
20
-10.6121642197711
30
0
41
1
10
-0.324519052838326
20
-10.6016436990996
30
0
41
1
10
-0.32342353755331
20
-10.5917415593101
30
0
41
1
10
-0.318519043420025
20
-10.5775700463084
30
0
41
1
10
-0.31543393988369
20
-10.5724176226767
30
0
41
1
10
-0.30771368693857
20
-10.5661916132717
30
0
41
1
10
-0.303406960876401
20
-10.5644879064214
30
0
41
1
10
-0.293510927055422
20
-10.5638784972314
30
0
41
1
10
-0.28779527895918
20
-10.5649807880903
30
0
41
1
10
-0.274762320731725
20
-10.5700063282901
30
0
41
1
10
-0.267170456902022
20
-10.5744667093545
30
0
41
1
10
-0.256317134451422
20
-10.5823266425271
30
0
41
1
10
-0.252903136403035
20
-10.5850110815034
30
0
41
1
10
-0.249519052838338
20
-10.58784913972
30
0
0
SPLINE
5
33D
100
AcDbEntity
8
SK1
62
256
6
ByLayer
370
-1
48
1
60
0
100
AcDbSpline
70
4
71
3
72
8
73
4
40
0
40
0
40
0
40
0
40
1
40
1
40
1
40
1
41
1
10
-0.249519052838338
20
-9.96605046147945
30
0
41
1
10
-0.208680207420173
20
-9.86563160064115
30
0
41
1
10
-0.170054795711167
20
-9.76452135608346
30
0
41
1
10
-0.133851890831608
20
-9.66265442214537
30
0
0
SPLINE
5
33E
100
AcDbEntity
8
SK1
62
256
6
ByLayer
370
-1
48
1
60
0
100
AcDbSpline
70
4
71
3
72
8
73
4
40
0
40
0
40
0
40
0
40
1
40
1
40
1
40
1
41
1
10
-0.249519052838338
20
-10.58784913972
30
0
41
1
10
-0.166360542854221
20
-10.6575899389725
30
0
41
1
10
-0.0831872444597366
20
-10.7273072321292
30
0
41
1
10
0
20
-10.7970023247566
30
0
0
SPLINE
5
33F
100
AcDbEntity
8
SK1
62
256
6
ByLayer
370
-1
48
1
60
0
100
AcDbSpline
70
4
71
3
72
10
73
6
40
0
40
0
40
0
40
0
40
0.548720560289232
40
0.548720560289232
40
1
40
1
40
1
40
1
41
1
10
-0.249519052838338
20
-11.0363958758218
30
0
41
1
10
-0.272132215710883
20
-10.9933597830775
30
0
41
1
10
-0.291328248085875
20
-10.9495326286439
30
0
41
1
10
-0.316327206104376
20
-10.8732911377332
30
0
41
1
10
-0.324519052838326
20
-10.8388534376412
30
0
41
1
10
-0.324519052838326
20
-10.8102522591258
30
0
0
SPLINE
5
340
100
AcDbEntity
8
SK1
62
256
6
ByLayer
370
-1
48
1
60
0
100
AcDbSpline
70
4
71
3
72
8
73
4
40
0
40
0
40
0
40
0
40
1
40
1
40
1
40
1
41
1
10
0
20
-11.5032716737805
30
0
41
1
10
-0.0841721835889757
20
-11.3483643383456
30
0
41
1
10
-0.167367184647247
20
-11.1927426654551
30
0
41
1
10
-0.249519052838338
20
-11.0363958758218
30
0
0
SPLINE
5
341
100
AcDbEntity
8
SK1
62
256
6
ByLayer
370
-1
48
1
60
0
100
AcDbSpline
70
4
71
3
72
12
73
8
40
0
40
0
40
0
40
0
40
0.311709164123272
40
0.311709164123272
40
0.793208698968711
40
0.793208698968711
40
1
40
1
40
1
40
1
41
1
10
-0.324519052838326
20
-12.0751167702267
30
0
41
1
10
-0.324519052838326
20
-12.0901693531366
30
0
41
1
10
-0.32044675441756
20
-12.1085247107426
30
0
41
1
10
-0.304967002358694
20
-12.1567712930211
30
0
41
1
10
-0.290449144716263
20
-12.1887162406953
30
0
41
1
10
-0.265938571928473
20
-12.2343388868749
30
0
41
1
10
-0.257963318057875
20
-12.2482369242087
30
0
41
1
10
-0.249519052838338
20
-12.2621047787412
30
0
0
SPLINE
5
342
100
AcDbEntity
8
SK1
62
256
6
ByLayer
370
-1
48
1
60
0
100
AcDbSpline
70
4
71
3
72
8
73
4
40
0
40
0
40
0
40
0
40
1
40
1
40
1
40
1
41
1
10
-0.249519052838338
20
-12.2621047787412
30
0
41
1
10
-0.167022275036572
20
-12.3975876519351
30
0
41
1
10
-0.0838355637597772
20
-12.5325135403374
30
0
41
1
10
0
20
-12.6668961944433
30
0
0
SPLINE
5
343
100
AcDbEntity
8
SK1
62
256
6
ByLayer
370
-1
48
1
60
0
100
AcDbSpline
70
4
71
3
72
16
73
12
40
0
40
0
40
0
40
0
40
0.206528511548054
40
0.206528511548054
40
0.417803129396799
40
0.417803129396799
40
0.604309851658674
40
0.604309851658674
40
0.77229311662508
40
0.77229311662508
40
1
40
1
40
1
40
1
41
1
10
-0.249519052838338
20
-11.9182788072984
30
0
41
1
10
-0.257809581486612
20
-11.911499685385
30
0
41
1
10
-0.266234147303692
20
-11.9054405337231
30
0
41
1
10
-0.282465495841052
20
-11.8961050615757
30
0
41
1
10
-0.290471407755064
20
-11.8928161270615
30
0
41
1
10
-0.303328827246787
20
-11.8907201231749
30
0
41
1
10
-0.30859508853294
20
-11.8914262509864
30
0
41
1
10
-0.316267925523221
20
-11.895679703863
30
0
41
1
10
-0.319015235744359
20
-11.8989568499156
30
0
41
1
10
-0.323453166815142
20
-11.9085865807977
30
0
41
1
10
-0.324519052838326
20
-11.9157060337624
30
0
41
1
10
-0.324519052838326
20
-11.9235539298783
30
0
0
SPLINE
5
344
100
AcDbEntity
8
SK1
62
256
6
ByLayer
370
-1
48
1
60
0
100
AcDbSpline
70
4
71
3
72
12
73
8
40
0
40
0
40
0
40
0
40
0.517114184608414
40
0.517114184608414
40
0.788580224573137
40
0.788580224573137
40
1
40
1
40
1
40
1
41
1
10
-0.249519052838338
20
-11.1538370998082
30
0
41
1
10
-0.269629100836369
20
-11.1807271756644
30
0
41
1
10
-0.287983598916412
20
-11.2077145583172
30
0
41
1
10
-0.309183981851419
20
-11.244414784366
30
0
41
1
10
-0.315374380895975
20
-11.2565037011014
30
0
41
1
10
-0.322606573672346
20
-11.2748366079419
30
0
41
1
10
-0.324519052838326
20
-11.2819242871714
30
0
41
1
10
-0.324519052838326
20
-11.2870970646864
30
0
0
SPLINE
5
345
100
AcDbEntity
8
SK1
62
256
6
ByLayer
370
-1
48
1
60
0
100
AcDbSpline
70
4
71
3
72
8
73
4
40
0
40
0
40
0
40
0
40
1
40
1
40
1
40
1
41
1
10
-1.421E-13
20
-12.1223042034428
30
0
41
1
10
-0.0831736906827416
20
-12.0542968356096
30
0
41
1
10
-0.166346719817398
20
-11.9862883889892
30
0
41
1
10
-0.249519052838338
20
-11.9182788072984
30
0
0
SPLINE
5
346
100
AcDbEntity
8
SK1
62
256
6
ByLayer
370
-1
48
1
60
0
100
AcDbSpline
70
4
71
3
72
8
73
4
40
0
40
0
40
0
40
0
40
1
40
1
40
1
40
1
41
1
10
-0.249519052838338
20
14.7246952776827
30
0
41
1
10
-0.166386250755409
20
14.7992742322958
30
0
41
1
10
-0.0832126381486376
20
14.873792568142
30
0
41
1
10
0
20
14.9482527139731
30
0
0
SPLINE
5
347
100
AcDbEntity
8
SK1
62
256
6
ByLayer
370
-1
48
1
60
0
100
AcDbSpline
70
4
71
3
72
14
73
10
40
0
40
0
40
0
40
0
40
0.400919418121103
40
0.400919418121103
40
0.693107953236562
40
0.693107953236562
40
0.921258282553328
40
0.921258282553328
40
1
40
1
40
1
40
1
41
1
10
-0.249519052838338
20
14.8184996647002
30
0
41
1
10
-0.265123786015721
20
14.8009412803733
30
0
41
1
10
-0.279810311093456
20
14.7837003477022
30
0
41
1
10
-0.301112591873021
20
14.7569053325
30
0
41
1
10
-0.309006255871452
20
14.7463089595567
30
0
41
1
10
-0.319228370834793
20
14.7307016923404
30
0
41
1
10
-0.322464879142274
20
14.724850844903
30
0
41
1
10
-0.324275263096723
20
14.7193795846225
30
0
41
1
10
-0.324519052838326
20
14.7181710367036
30
0
41
1
10
-0.324519052838326
20
14.7172011418379
30
0
0
SPLINE
5
348
100
AcDbEntity
8
SK1
62
256
6
ByLayer
370
-1
48
1
60
0
100
AcDbSpline
70
4
71
3
72
14
73
10
40
0
40
0
40
0
40
0
40
0.213773302733773
40
0.213773302733773
40
0.428661413133121
40
0.428661413133121
40
0.642685440517224
40
0.642685440517224
40
1
40
1
40
1
40
1
41
1
10
-0.324519052838326
20
14.6759522309122
30
0
41
1
10
-0.324519052838326
20
14.6734545835097
30
0
41
1
10
-0.323058770445982
20
14.672332663927
30
0
41
1
10
-0.317272531404598
20
14.6732226247398
30
0
41
1
10
-0.312861991257989
20
14.6752581187201
30
0
41
1
10
-0.302032291052655
20
14.6818639586097
30
0
41
1
10
-0.295516611849678
20
14.6864771812584
30
0
41
1
10
-0.276763190240416
20
14.7009017224981
30
0
41
1
10
-0.263267292821609
20
14.7123616459509
30
0
41
1
10
-0.249519052838338
20
14.7246952776827
30
0
0
SPLINE
5
349
100
AcDbEntity
8
SK1
62
256
6
ByLayer
370
-1
48
1
60
0
100
AcDbSpline
70
4
71
3
72
8
73
4
40
0
40
0
40
0
40
0
40
1
40
1
40
1
40
1
41
1
10
0
20
15.0980216982492
30
0
41
1
10
-0.0833481825888214
20
15.0050566253247
30
0
41
1
10
-0.166524149326051
20
14.9118852033362
30
0
41
1
10
-0.249519052838338
20
14.8184996647002
30
0
0
SPLINE
5
34A
100
AcDbEntity
8
SK1
62
256
6
ByLayer
370
-1
48
1
60
0
100
AcDbSpline
70
4
71
3
72
10
73
6
40
0
40
0
40
0
40
0
40
0.230555338637988
40
0.230555338637988
40
1
40
1
40
1
40
1
41
1
10
-0.324519052838326
20
-1.73806805962968
30
0
41
1
10
-0.324519052838326
20
-1.83683189193927
30
0
41
1
10
-0.323213579912533
20
-1.93564010975419
30
0
41
1
10
-0.312254527970566
20
-2.3637911743053
30
0
41
1
10
-0.291501956429414
20
-2.69374728856553
30
0
41
1
10
-0.249519052838338
20
-3.02167087832791
30
0
0
SPLINE
5
34B
100
AcDbEntity
8
SK1
62
256
6
ByLayer
370
-1
48
1
60
0
100
AcDbSpline
70
4
71
3
72
8
73
4
40
0
40
0
40
0
40
0
40
1
40
1
40
1
40
1
41
1
10
0
20
4.57714531130461
30
0
41
1
10
-0.0990493806369557
20
4.0628002470196
30
0
41
1
10
-0.182595100372225
20
3.54440610759004
30
0
41
1
10
-0.249519052838338
20
3.02167087832791
30
0
0
SPLINE
5
34C
100
AcDbEntity
8
SK1
62
256
6
ByLayer
370
-1
48
1
60
0
100
AcDbSpline
70
4
71
3
72
8
73
4
40
0
40
0
40
0
40
0
40
1
40
1
40
1
40
1
41
1
10
-0.249519052838338
20
-3.02167087832791
30
0
41
1
10
-0.182595100372225
20
-3.54440610759004
30
0
41
1
10
-0.0990493806369557
20
-4.0628002470196
30
0
41
1
10
0
20
-4.57714531130461
30
0
0
SPLINE
5
34D
100
AcDbEntity
8
SK1
62
256
6
ByLayer
370
-1
48
1
60
0
100
AcDbSpline
70
4
71
3
72
10
73
6
40
0
40
0
40
0
40
0
40
0.230700362832571
40
0.230700362832571
40
1
40
1
40
1
40
1
41
1
10
-0.249519052838338
20
3.02167087832791
30
0
41
1
10
-0.262120512064342
20
2.923242342134
30
0
41
1
10
-0.272643669779001
20
2.82462134396091
30
0
41
1
10
-0.31132869618466
20
2.39721844390938
30
0
41
1
10
-0.324519052838326
20
2.06729368042109
30
0
41
1
10
-0.324519052838326
20
1.73806805962968
30
0
0
SPLINE
5
34E
100
AcDbEntity
8
SK1
62
256
6
ByLayer
370
-1
48
1
60
0
100
AcDbSpline
70
4
71
3
72
14
73
10
40
0
40
0
40
0
40
0
40
0.297921686296611
40
0.297921686296611
40
0.535265067741002
40
0.535265067741002
40
0.775081093020513
40
0.775081093020513
40
1
40
1
40
1
40
1
41
1
10
-0.249519052838338
20
14.3134143619747
30
0
41
1
10
-0.261064837353018
20
14.3034575178611
30
0
41
1
10
-0.272491930711624
20
14.2942896042897
30
0
41
1
10
-0.291066601014762
20
14.2811176395368
30
0
41
1
10
-0.298776560208466
20
14.2763435024757
30
0
41
1
10
-0.311524833986738
20
14.270322337856
30
0
41
1
10
-0.316691643975616
20
14.2690647688228
30
0
41
1
10
-0.32302403546646
20
14.2705569614279
30
0
41
1
10
-0.324519052838326
20
14.273068320273
30
0
41
1
10
-0.324519052838326
20
14.276920711158
30
0
0
SPLINE
5
34F
100
AcDbEntity
8
SK1
62
256
6
ByLayer
370
-1
48
1
60
0
100
AcDbSpline
70
4
71
3
72
12
73
8
40
0
40
0
40
0
40
0
40
0.251795807593265
40
0.251795807593265
40
0.573057265926269
40
0.573057265926269
40
1
40
1
40
1
40
1
41
1
10
-0.324519052838326
20
14.340471343043
30
0
41
1
10
-0.324519052838326
20
14.3453295154871
30
0
41
1
10
-0.32194615221141
20
14.3526708763668
30
0
41
1
10
-0.312322702116944
20
14.3720841016214
30
0
41
1
10
-0.304132634789425
20
14.3852149076918
30
0
41
1
10
-0.281820391855149
20
14.41741281504
30
0
41
1
10
-0.266271414022128
20
14.4375725610856
30
0
41
1
10
-0.249519052838338
20
14.4578958578262
30
0
0
SPLINE
5
350
100
AcDbEntity
8
SK1
62
256
6
ByLayer
370
-1
48
1
60
0
100
AcDbSpline
70
4
71
3
72
8
73
4
40
0
40
0
40
0
40
0
40
1
40
1
40
1
40
1
41
1
10
0
20
14.5284293439037
30
0
41
1
10
-0.0831955184465016
20
14.4567925119085
30
0
41
1
10
-0.166368872792589
20
14.3851213455646
30
0
41
1
10
-0.249519052838338
20
14.3134143619747
30
0
0
SPLINE
5
351
100
AcDbEntity
8
SK1
62
256
6
ByLayer
370
-1
48
1
60
0
100
AcDbSpline
70
4
71
3
72
8
73
4
40
0
40
0
40
0
40
0
40
1
40
1
40
1
40
1
41
1
10
-0.249519052838338
20
14.4578958578262
30
0
41
1
10
-0.166590497630494
20
14.5585014749848
30
0
41
1
10
-0.0834132517077819
20
14.658834479182
30
0
41
1
10
0
20
14.75890440381
30
0
0
SPLINE
5
352
100
AcDbEntity
8
SK1
62
256
6
ByLayer
370
-1
48
1
60
0
100
AcDbSpline
70
4
71
3
72
8
73
4
40
0
40
0
40
0
40
0
40
1
40
1
40
1
40
1
41
1
10
-0.324519052838326
20
9.40403859715072
30
0
41
1
10
-0.324519052838298
20
9.34948035715244
30
0
41
1
10
-0.318985632258915
20
9.29200746900393
30
0
41
1
10
-0.311286704386561
20
9.23383168630916
30
0
0
SPLINE
5
353
100
AcDbEntity
8
SK1
62
256
6
ByLayer
370
-1
48
1
60
0
100
AcDbSpline
70
4
71
3
72
18
73
14
40
0
40
0
40
0
40
0
40
0.125889555305444
40
0.125889555305444
40
0.25523837354324
40
0.25523837354324
40
0.373916758525363
40
0.373916758525363
40
0.475321193304342
40
0.475321193304342
40
0.648425864897437
40
0.648425864897437
40
1
40
1
40
1
40
1
41
1
10
-0.249519052838764
20
9.83243528515926
30
0
41
1
10
-0.255116259621275
20
9.83765489915108
30
0
41
1
10
-0.260951289249391
20
9.84237511393646
30
0
41
1
10
-0.272800239651076
20
9.84985066864378
30
0
41
1
10
-0.27897414865808
20
9.85260677949374
30
0
41
1
10
-0.289922613165601
20
9.85462262589827
30
0
41
1
10
-0.294906923464964
20
9.85414451163074
30
0
41
1
10
-0.302746392063256
20
9.85077752333744
30
0
41
1
10
-0.305909712565324
20
9.84824164442493
30
0
41
1
10
-0.313065449074116
20
9.8397327733979
30
0
41
1
10
-0.31625656171127
20
9.83251921918965
30
0
41
1
10
-0.323178423030328
20
9.80873050124539
30
0
41
1
10
-0.324519052838326
20
9.78969965157033
30
0
41
1
10
-0.324519052838326
20
9.77023188350533
30
0
0
SPLINE
5
354
100
AcDbEntity
8
SK1
62
256
6
ByLayer
370
-1
48
1
60
0
100
AcDbSpline
70
4
71
3
72
8
73
4
40
0
40
0
40
0
40
0
40
1
40
1
40
1
40
1
41
1
10
-0.249519052838338
20
13.7270175338474
30
0
41
1
10
-0.166355973154907
20
13.7965526425918
30
0
41
1
10
-0.0831828069187566
20
13.8660716694145
30
0
41
1
10
0
20
13.9355753092867
30
0
0
SPLINE
5
355
100
AcDbEntity
8
SK1
62
256
6
ByLayer
370
-1
48
1
60
0
100
AcDbSpline
70
4
71
3
72
12
73
8
40
0
40
0
40
0
40
0
40
0.515131308958785
40
0.515131308958785
40
0.801404043674765
40
0.801404043674765
40
1
40
1
40
1
40
1
41
1
10
-0.249519052838338
20
13.9274395693815
30
0
41
1
10
-0.269828655367263
20
13.9005994717325
30
0
41
1
10
-0.288227631709191
20
13.8736264825978
30
0
41
1
10
-0.309707472834162
20
13.8357734301995
30
0
41
1
10
-0.316095249176073
20
13.8227767497393
30
0
41
1
10
-0.322869975081744
20
13.8038454266892
30
0
41
1
10
-0.324519052838326
20
13.7968467356312
30
0
41
1
10
-0.324519052838326
20
13.791382353918
30
0
0
SPLINE
5
356
100
AcDbEntity
8
SK1
62
256
6
ByLayer
370
-1
48
1
60
0
100
AcDbSpline
70
4
71
3
72
16
73
12
40
0
40
0
40
0
40
0
40
0.205483983911627
40
0.205483983911627
40
0.414145749253953
40
0.414145749253953
40
0.607079940793928
40
0.607079940793928
40
0.853779174284417
40
0.853779174284417
40
1
40
1
40
1
40
1
41
1
10
-0.324519052838326
20
11.1322329014717
30
0
41
1
10
-0.324519052838326
20
11.1373574538185
30
0
41
1
10
-0.323438059705921
20
11.1415380058053
30
0
41
1
10
-0.318650446535599
20
11.1469127957846
30
0
41
1
10
-0.314811567867196
20
11.1480971108204
30
0
41
1
10
-0.305169881912178
20
11.1470442418322
30
0
41
1
10
-0.299429263421644
20
11.145057707773
30
0
41
1
10
-0.285094264645949
20
11.1379373950376
30
0
41
1
10
-0.2759501011586
20
11.1320161544942
30
0
41
1
10
-0.261009791762746
20
11.1209459888404
30
0
41
1
10
-0.255278732082104
20
11.1164012167851
30
0
41
1
10
-0.249519052838423
20
11.1115948256755
30
0
0
SPLINE
5
357
100
AcDbEntity
8
SK1
62
256
6
ByLayer
370
-1
48
1
60
0
100
AcDbSpline
70
4
71
3
72
16
73
12
40
0
40
0
40
0
40
0
40
0.209696488500303
40
0.209696488500303
40
0.422351340245509
40
0.422351340245509
40
0.620491692662396
40
0.620491692662396
40
0.878417275405046
40
0.878417275405046
40
1
40
1
40
1
40
1
41
1
10
-0.324519052838326
20
13.7031878080017
30
0
41
1
10
-0.324519052838326
20
13.6984433342878
30
0
41
1
10
-0.323347576212171
20
13.6946884225914
30
0
41
1
10
-0.318266677492829
20
13.6901955144844
30
0
41
1
10
-0.314226928091529
20
13.6894716177625
30
0
41
1
10
-0.304160371344324
20
13.6913257312917
30
0
41
1
10
-0.298177877969778
20
13.6936912133614
30
0
41
1
10
-0.283158694316768
20
13.7016854711758
30
0
41
1
10
-0.273533220759674
20
13.7081641250983
30
0
41
1
10
-0.259054133212175
20
13.7192047327415
30
0
41
1
10
-0.254298678222
20
13.7230211478059
30
0
41
1
10
-0.249519052838338
20
13.7270175338474
30
0
0
SPLINE
5
358
100
AcDbEntity
8
SK1
62
256
6
ByLayer
370
-1
48
1
60
0
100
AcDbSpline
70
4
71
3
72
12
73
8
40
0
40
0
40
0
40
0
40
0.270223152547116
40
0.270223152547116
40
0.786954529278767
40
0.786954529278767
40
1
40
1
40
1
40
1
41
1
10
-0.295406669854401
20
10.9359701452549
30
0
41
1
10
-0.299796467368139
20
10.9448802078999
30
0
41
1
10
-0.303833627559385
20
10.9536163904381
30
0
41
1
10
-0.314457085524651
20
10.9785116374256
30
0
41
1
10
-0.32000884184211
20
10.9943086420615
30
0
41
1
10
-0.323872949908889
20
11.0134284174415
30
0
41
1
10
-0.324519052838326
20
11.0186833393423
30
0
41
1
10
-0.324519052838326
20
11.0233350560036
30
0
0
SPLINE
5
359
100
AcDbEntity
8
SK1
62
256
6
ByLayer
370
-1
48
1
60
0
100
AcDbSpline
70
4
71
3
72
8
73
4
40
0
40
0
40
0
40
0
40
1
40
1
40
1
40
1
41
1
10
0
20
14.2548328366488
30
0
41
1
10
-0.0835036428820501
20
14.1460389125625
30
0
41
1
10
-0.166682772670242
20
14.0369116206157
30
0
41
1
10
-0.249519052838338
20
13.9274395693815
30
0
0
SPLINE
5
35A
100
AcDbEntity
8
SK1
62
256
6
ByLayer
370
-1
48
1
60
0
100
AcDbSpline
70
4
71
3
72
16
73
12
40
0
40
0
40
0
40
0
40
0.263570760528489
40
0.263570760528489
40
0.482328652611409
40
0.482328652611409
40
0.703252248707803
40
0.703252248707803
40
0.894852755886991
40
0.894852755886991
40
1
40
1
40
1
40
1
41
1
10
-0.249519052838338
20
-11.1115948256755
30
0
41
1
10
-0.259823720763933
20
-11.1201939615316
30
0
41
1
10
-0.270117643440131
20
-11.1280168985275
30
0
41
1
10
-0.287528243250733
20
-11.1392373237947
30
0
41
1
10
-0.295046536379743
20
-11.1432410760032
30
0
41
1
10
-0.307846420531519
20
-11.1477725220692
30
0
41
1
10
-0.313265253301353
20
-11.1482895688373
30
0
41
1
10
-0.320366188926869
20
-11.1456933105063
30
0
41
1
10
-0.322549116541325
20
-11.1430398858742
30
0
41
1
10
-0.324237191197284
20
-11.1372709624525
30
0
41
1
10
-0.324519052838326
20
-11.1348802453451
30
0
41
1
10
-0.324519052838326
20
-11.1322329014717
30
0
0
SPLINE
5
35B
100
AcDbEntity
8
SK1
62
256
6
ByLayer
370
-1
48
1
60
0
100
AcDbSpline
70
4
71
3
72
10
73
6
40
0
40
0
40
0
40
0
40
0.483894544430484
40
0.483894544430484
40
1
40
1
40
1
40
1
41
1
10
-0.324519052838326
20
-11.0233350560036
30
0
41
1
10
-0.324519052838326
20
-11.0128507770517
30
0
41
1
10
-0.321259726967327
20
-10.999318248689
30
0
41
1
10
-0.311032973063419
20
-10.9695727313372
30
0
41
1
10
-0.303742721419951
20
-10.952843172457
30
0
41
1
10
-0.295215205075266
20
-10.9356077229298
30
0
0
SPLINE
5
35C
100
AcDbEntity
8
SK1
62
256
6
ByLayer
370
-1
48
1
60
0
100
AcDbSpline
70
4
71
3
72
8
73
4
40
0
40
0
40
0
40
0
40
1
40
1
40
1
40
1
41
1
10
-0.249519052838338
20
-13.9274395693815
30
0
41
1
10
-0.166682772670242
20
-14.0369116206157
30
0
41
1
10
-0.0835036428820217
20
-14.1460389125625
30
0
41
1
10
0
20
-14.2548328366489
30
0
0
SPLINE
5
35D
100
AcDbEntity
8
SK1
62
256
6
ByLayer
370
-1
48
1
60
0
100
AcDbSpline
70
4
71
3
72
16
73
12
40
0
40
0
40
0
40
0
40
0.269033303366142
40
0.269033303366142
40
0.492512194304705
40
0.492512194304705
40
0.718036931916053
40
0.718036931916053
40
0.915657201714305
40
0.915657201714305
40
1
40
1
40
1
40
1
41
1
10
-0.249519052838338
20
-13.7270175338474
30
0
41
1
10
-0.260005983745287
20
-13.7182491009829
30
0
41
1
10
-0.270475421877649
20
-13.7102740733401
30
0
41
1
10
-0.28812742617211
20
-13.6988216076378
30
0
41
1
10
-0.295727488128818
20
-13.6947284251316
30
0
41
1
10
-0.30857817792446
20
-13.6900188710801
30
0
41
1
10
-0.313965719718482
20
-13.6894035255493
30
0
41
1
10
-0.320944124185758
20
-13.691766323031
30
0
41
1
10
-0.323021067806621
20
-13.6943188611069
30
0
41
1
10
-0.324330649149204
20
-13.6994962389105
30
0
41
1
10
-0.324519052838326
20
-13.7012588160647
30
0
41
1
10
-0.324519052838326
20
-13.7031878080017
30
0
0
SPLINE
5
35E
100
AcDbEntity
8
SK1
62
256
6
ByLayer
370
-1
48
1
60
0
100
AcDbSpline
70
4
71
3
72
12
73
8
40
0
40
0
40
0
40
0
40
0.265398133713902
40
0.265398133713902
40
0.625507776760784
40
0.625507776760784
40
1
40
1
40
1
40
1
41
1
10
-0.324519052838326
20
-13.791382353918
30
0
41
1
10
-0.324519052838326
20
-13.7986347845662
30
0
41
1
10
-0.321607029093201
20
-13.8085957142258
30
0
41
1
10
-0.310676285355868
20
-13.8344971679239
30
0
41
1
10
-0.301072716502745
20
-13.851789968991
30
0
41
1
10
-0.278137521782241
20
-13.8881901956315
30
0
41
1
10
-0.264385819046737
20
-13.9077924366427
30
0
41
1
10
-0.249519052838338
20
-13.9274395693815
30
0
0
SPLINE
5
35F
100
AcDbEntity
8
SK1
62
256
6
ByLayer
370
-1
48
1
60
0
100
AcDbSpline
70
4
71
3
72
8
73
4
40
0
40
0
40
0
40
0
40
1
40
1
40
1
40
1
41
1
10
0
20
-13.9355753092867
30
0
41
1
10
-0.0831828069187566
20
-13.8660716694145
30
0
41
1
10
-0.166355973154907
20
-13.7965526425918
30
0
41
1
10
-0.249519052838338
20
-13.7270175338474
30
0
0
SPLINE
5
360
100
AcDbEntity
8
SK1
62
256
6
ByLayer
370
-1
48
1
60
0
100
AcDbSpline
70
4
71
3
72
8
73
4
40
0
40
0
40
0
40
0
40
1
40
1
40
1
40
1
41
1
10
0
20
13.1463021112708
30
0
41
1
10
-0.0831748117722952
20
13.0781119384452
30
0
41
1
10
-0.16634785774599
20
13.009918893748
30
0
41
1
10
-0.249519052838338
20
12.9417228393876
30
0
0
SPLINE
5
361
100
AcDbEntity
8
SK1
62
256
6
ByLayer
370
-1
48
1
60
0
100
AcDbSpline
70
4
71
3
72
16
73
12
40
0
40
0
40
0
40
0
40
0.212701406021945
40
0.212701406021945
40
0.429349660369688
40
0.429349660369688
40
0.624572046758538
40
0.624572046758538
40
0.812084307957595
40
0.812084307957595
40
1
40
1
40
1
40
1
41
1
10
-0.324519052838326
20
-12.9315214576646
30
0
41
1
10
-0.324519052838326
20
-12.9255023524787
30
0
41
1
10
-0.323448437918927
20
-12.920313045663
30
0
41
1
10
-0.318573546733802
20
-12.9128579876945
30
0
41
1
10
-0.314611691922266
20
-12.910591145259
30
0
41
1
10
-0.304566495621742
20
-12.9100448289131
30
0
41
1
10
-0.298604498606153
20
-12.9113900697182
30
0
41
1
10
-0.285742404897746
20
-12.9166968543554
30
0
41
1
10
-0.278757567561655
20
-12.9205862651588
30
0
41
1
10
-0.2644245176445
20
-12.9300138277968
30
0
41
1
10
-0.256962937382838
20
-12.9356192412069
30
0
41
1
10
-0.249519052838338
20
-12.9417228393876
30
0
0
SPLINE
5
362
100
AcDbEntity
8
SK1
62
256
6
ByLayer
370
-1
48
1
60
0
100
AcDbSpline
70
4
71
3
72
8
73
4
40
0
40
0
40
0
40
0
40
1
40
1
40
1
40
1
41
1
10
-0.249519052838338
20
-12.9417228393876
30
0
41
1
10
-0.16634785774599
20
-13.009918893748
30
0
41
1
10
-0.0831748117722952
20
-13.0781119384452
30
0
41
1
10
0
20
-13.1463021112708
30
0
0
SPLINE
5
363
100
AcDbEntity
8
SK1
62
256
6
ByLayer
370
-1
48
1
60
0
100
AcDbSpline
70
4
71
3
72
8
73
4
40
0
40
0
40
0
40
0
40
1
40
1
40
1
40
1
41
1
10
0
20
-13.5674337735919
30
0
41
1
10
-0.0836345631109339
20
-13.4476100581887
30
0
41
1
10
-0.166816582690672
20
-13.3273631154339
30
0
41
1
10
-0.249519052838338
20
-13.2066798735262
30
0
0
SPLINE
5
364
100
AcDbEntity
8
SK1
62
256
6
ByLayer
370
-1
48
1
60
0
100
AcDbSpline
70
4
71
3
72
12
73
8
40
0
40
0
40
0
40
0
40
0.558482108077944
40
0.558482108077944
40
0.861367587040725
40
0.861367587040725
40
1
40
1
40
1
40
1
41
1
10
-0.249519052838338
20
-13.2066798735262
30
0
41
1
10
-0.271761056865017
20
-13.1742233199593
30
0
41
1
10
-0.291446918517721
20
-13.1412923339331
30
0
41
1
10
-0.313048749062148
20
-13.0949846474763
30
0
41
1
10
-0.319107979576359
20
-13.0791742270975
30
0
41
1
10
-0.323691162414718
20
-13.0592319168499
30
0
41
1
10
-0.324519052838326
20
-13.0533481948097
30
0
41
1
10
-0.324519052838326
20
-13.0481928297863
30
0
0
SPLINE
5
365
100
AcDbEntity
8
SK1
62
256
6
ByLayer
370
-1
48
1
60
0
100
AcDbSpline
70
4
71
3
72
12
73
8
40
0
40
0
40
0
40
0
40
0.282539732332407
40
0.282539732332407
40
0.692846817702897
40
0.692846817702897
40
1
40
1
40
1
40
1
41
1
10
-0.324519052838326
20
13.0481928297863
30
0
41
1
10
-0.324519052838326
20
13.0585704000376
30
0
41
1
10
-0.321180304885985
20
13.0718849754856
30
0
41
1
10
-0.30852917315957
20
13.1065893046135
30
0
41
1
10
-0.29700564377319
20
13.1296618205215
30
0
41
1
10
-0.273342621932102
20
13.1706029563609
30
0
41
1
10
-0.261873203746347
20
13.1886521292528
30
0
41
1
10
-0.249519052838338
20
13.2066798735262
30
0
0
SPLINE
5
366
100
AcDbEntity
8
SK1
62
256
6
ByLayer
370
-1
48
1
60
0
100
AcDbSpline
70
4
71
3
72
8
73
4
40
0
40
0
40
0
40
0
40
1
40
1
40
1
40
1
41
1
10
0
20
-14.75890440381
30
0
41
1
10
-0.0834132517077819
20
-14.658834479182
30
0
41
1
10
-0.166590497630494
20
-14.5585014749848
30
0
41
1
10
-0.249519052838338
20
-14.4578958578262
30
0
0
SPLINE
5
367
100
AcDbEntity
8
SK1
62
256
6
ByLayer
370
-1
48
1
60
0
100
AcDbSpline
70
4
71
3
72
16
73
12
40
0
40
0
40
0
40
0
40
0.238644805220099
40
0.238644805220099
40
0.482796375874047
40
0.482796375874047
40
0.690597260289403
40
0.690597260289403
40
0.875540258450021
40
0.875540258450021
40
1
40
1
40
1
40
1
41
1
10
-0.249519052838338
20
12.9417228393876
30
0
41
1
10
-0.258928312221173
20
12.9340077360558
30
0
41
1
10
-0.268403610043464
20
12.9270635908441
30
0
41
1
10
-0.286320757735922
20
12.9162551343216
30
0
41
1
10
-0.294988130922206
20
12.9123583801927
30
0
41
1
10
-0.308126179152851
20
12.9097013728637
30
0
41
1
10
-0.313187732070901
20
12.9102518105048
30
0
41
1
10
-0.320009410917152
20
12.9144160090518
30
0
41
1
10
-0.322172665346159
20
12.9177069698728
30
0
41
1
10
-0.324151516235389
20
12.9247110496025
30
0
41
1
10
-0.324519052838326
20
12.9279667043677
30
0
41
1
10
-0.324519052838326
20
12.9315214576646
30
0
0
SPLINE
5
368
100
AcDbEntity
8
SK1
62
256
6
ByLayer
370
-1
48
1
60
0
100
AcDbSpline
70
4
71
3
72
8
73
4
40
0
40
0
40
0
40
0
40
1
40
1
40
1
40
1
41
1
10
-0.249519052838338
20
13.2066798735262
30
0
41
1
10
-0.166816582690672
20
13.3273631154339
30
0
41
1
10
-0.0836345631109339
20
13.4476100581887
30
0
41
1
10
0
20
13.5674337735919
30
0
0
SPLINE
5
369
100
AcDbEntity
8
SK1
62
256
6
ByLayer
370
-1
48
1
60
0
100
AcDbSpline
70
4
71
3
72
12
73
8
40
0
40
0
40
0
40
0
40
0.477579771706079
40
0.477579771706079
40
0.750330647876595
40
0.750330647876595
40
1
40
1
40
1
40
1
41
1
10
-0.249519052838338
20
-14.4578958578262
30
0
41
1
10
-0.268205730951621
20
-14.4352259248999
30
0
41
1
10
-0.285456018442346
20
-14.4126851307519
30
0
41
1
10
-0.3066444780805
20
-14.3811400492371
30
0
41
1
10
-0.313252007489751
20
-14.3702458103432
30
0
41
1
10
-0.321987752251942
20
-14.3525529931247
30
0
41
1
10
-0.324519052838326
20
-14.3452906419969
30
0
41
1
10
-0.324519052838326
20
-14.340471343043
30
0
0
SPLINE
5
36A
100
AcDbEntity
8
SK1
62
256
6
ByLayer
370
-1
48
1
60
0
100
AcDbSpline
70
4
71
3
72
16
73
12
40
0
40
0
40
0
40
0
40
0.210708028369658
40
0.210708028369658
40
0.423451442592413
40
0.423451442592413
40
0.627979259544554
40
0.627979259544554
40
0.921031979975769
40
0.921031979975769
40
1
40
1
40
1
40
1
41
1
10
-0.324519052838326
20
-14.276920711158
30
0
41
1
10
-0.324519052838326
20
-14.2733109891619
30
0
41
1
10
-0.323214541678254
20
-14.2708751847237
30
0
41
1
10
-0.317811411319553
20
-14.269104015587
30
0
41
1
10
-0.313606172741544
20
-14.2697885758729
30
0
41
1
10
-0.303244863439801
20
-14.2739985361825
30
0
41
1
10
-0.29706612374676
20
-14.2774420988873
30
0
41
1
10
-0.280766685705629
20
-14.288086223412
30
0
41
1
10
-0.269853131360435
20
-14.2963984762115
30
0
41
1
10
-0.255674798426781
20
-14.3081542113091
30
0
41
1
10
-0.252606210007258
20
-14.3107520619252
30
0
41
1
10
-0.249519052838338
20
-14.3134143619746
30
0
0
SPLINE
5
36B
100
AcDbEntity
8
SK1
62
256
6
ByLayer
370
-1
48
1
60
0
100
AcDbSpline
70
4
71
3
72
14
73
10
40
0
40
0
40
0
40
0
40
0.241453057998373
40
0.241453057998373
40
0.480740290389699
40
0.480740290389699
40
0.86788014270049
40
0.86788014270049
40
1
40
1
40
1
40
1
41
1
10
-0.324519052838326
20
-14.7172011418379
30
0
41
1
10
-0.324519052838326
20
-14.7201301912679
30
0
41
1
10
-0.322228975572244
20
-14.7253176024228
30
0
41
1
10
-0.31446740965734
20
-14.7383036459874
30
0
41
1
10
-0.30895786697559
20
-14.7462209218972
30
0
41
1
10
-0.2920807024569
20
-14.7686796949682
30
0
41
1
10
-0.278937195022451
20
-14.7846769442286
30
0
41
1
10
-0.259788231519138
20
-14.8068655643858
30
0
41
1
10
-0.254714020503201
20
-14.8126543075391
30
0
41
1
10
-0.249519052838338
20
-14.8184996647002
30
0
0
SPLINE
5
36C
100
AcDbEntity
8
SK1
62
256
6
ByLayer
370
-1
48
1
60
0
100
AcDbSpline
70
4
71
3
72
14
73
10
40
0
40
0
40
0
40
0
40
0.326737502926944
40
0.326737502926944
40
0.575979715117697
40
0.575979715117697
40
0.828165766618474
40
0.828165766618474
40
1
40
1
40
1
40
1
41
1
10
-0.249519052838338
20
-14.7246952776827
30
0
41
1
10
-0.262124467330267
20
-14.7133868818182
30
0
41
1
10
-0.274488943181126
20
-14.7028363644501
30
0
41
1
10
-0.293844521566228
20
-14.6876615243506
30
0
41
1
10
-0.301580869900818
20
-14.6821075776327
30
0
41
1
10
-0.31407609951475
20
-14.6745514031413
30
0
41
1
10
-0.318951415493473
20
-14.6725222293973
30
0
41
1
10
-0.323579407143114
20
-14.6728029597301
30
0
41
1
10
-0.324519052838326
20
-14.6739327777057
30
0
41
1
10
-0.324519052838326
20
-14.6759522309122
30
0
0
SPLINE
5
36D
100
AcDbEntity
8
1
62
256
6
ByLayer
370
-1
48
1
60
0
100
AcDbSpline
70
4
71
3
72
12
73
8
40
0
40
0
40
0
40
0
40
0.347623173836869
40
0.347623173836869
40
0.69650337129485
40
0.69650337129485
40
1
40
1
40
1
40
1
41
1
10
31.5541252467711
20
-9.73744596379474
30
0
41
1
10
31.5470503978908
20
-9.72517693413728
30
0
41
1
10
31.5419007205695
20
-9.71161639884741
30
0
41
1
10
31.5363304274205
20
-9.6841472374995
30
0
41
1
10
31.535863542846
20
-9.66983960752347
30
0
41
1
10
31.5394551123435
20
-9.6446662144479
30
0
41
1
10
31.5429802934248
20
-9.63330453599437
30
0
41
1
10
31.5479866932225
20
-9.62320682869434
30
0
0
SPLINE
5
36E
100
AcDbEntity
8
1
62
256
6
ByLayer
370
-1
48
1
60
0
100
AcDbSpline
70
4
71
3
72
18
73
14
40
0
40
0
40
0
40
0
40
0.439677344605704
40
0.439677344605704
40
0.819840138515276
40
0.819840138515276
40
0.920758376963034
40
0.920758376963034
40
0.968467673881575
40
0.968467673881575
40
0.990240013274129
40
0.990240013274129
40
1
40
1
40
1
40
1
41
1
10
31.4856243699837
20
-13.076557193586
30
0
41
1
10
31.3915234179367
20
-13.0687964180292
30
0
41
1
10
31.2971062263633
20
-13.062949588978
30
0
41
1
10
31.1209332270556
20
-13.0605518141131
30
0
41
1
10
31.0381662521438
20
-13.0608713033028
30
0
41
1
10
30.9363794543691
20
-13.0804943802452
30
0
41
1
10
30.9148137405959
20
-13.0857929932835
30
0
41
1
10
30.8856777661561
20
-13.0992586550723
30
0
41
1
10
30.8764897602854
20
-13.1046062049178
30
0
41
1
10
30.865846279341
20
-13.1150609811731
30
0
41
1
10
30.8628700360824
20
-13.1188295511779
30
0
41
1
10
30.8597351689593
20
-13.1248139536508
30
0
41
1
10
30.8589167817798
20
-13.1267641167022
30
0
41
1
10
30.8582887261908
20
-13.1287590027423
30
0
0
SPLINE
5
36F
100
AcDbEntity
8
1
62
256
6
ByLayer
370
-1
48
1
60
0
100
AcDbSpline
70
4
71
3
72
12
73
8
40
0
40
0
40
0
40
0
40
0.474376698371053
40
0.474376698371053
40
0.706219783413745
40
0.706219783413745
40
1
40
1
40
1
40
1
41
1
10
25.1016267640547
20
-9.8060843307661
30
0
41
1
10
25.0784393712354
20
-9.81369625033956
30
0
41
1
10
25.0518793684276
20
-9.82440165525962
30
0
41
1
10
25.0106906963517
20
-9.84346958286201
30
0
41
1
10
24.9966869500108
20
-9.85033158089929
30
0
41
1
10
24.9647397580637
20
-9.86679861415656
30
0
41
1
10
24.9465754479039
20
-9.87673269981282
30
0
41
1
10
24.928621958918
20
-9.88709530863382
30
0
0
SPLINE
5
370
100
AcDbEntity
8
1
62
256
6
ByLayer
370
-1
48
1
60
0
100
AcDbSpline
70
4
71
3
72
20
73
16
40
0
40
0
40
0
40
0
40
0.511365204367435
40
0.511365204367435
40
0.617167309555445
40
0.617167309555445
40
0.785488434327108
40
0.785488434327108
40
0.87339881215386
40
0.87339881215386
40
0.93568440225422
40
0.93568440225422
40
0.978722765374131
40
0.978722765374131
40
1
40
1
40
1
40
1
41
1
10
25.1323215128037
20
-17.1703386782687
30
0
41
1
10
25.2288419751794
20
-17.1068769247207
30
0
41
1
10
25.3280997158311
20
-17.0463216852593
30
0
41
1
10
25.4546693756342
20
-16.9864233537817
30
0
41
1
10
25.4767019160876
20
-16.976647955955
30
0
41
1
10
25.5345529821068
20
-16.9534094047997
30
0
41
1
10
25.5710680851526
20
-16.9408311440281
30
0
41
1
10
25.6282470269165
20
-16.9289392305923
30
0
41
1
10
25.6483508642
20
-16.9261449966171
30
0
41
1
10
25.6826045468015
20
-16.9261542319456
30
0
41
1
10
25.697023505916
20
-16.9276026312924
30
0
41
1
10
25.7199808064596
20
-16.9342999489616
30
0
41
1
10
25.7291200837171
20
-16.938351584792
30
0
41
1
10
25.7411233336504
20
-16.9465359828104
30
0
41
1
10
25.7448775092763
20
-16.9496294585905
30
0
41
1
10
25.7482836379094
20
-16.9530220440045
30
0
0
SPLINE
5
371
100
AcDbEntity
8
1
62
256
6
ByLayer
370
-1
48
1
60
0
100
AcDbSpline
70
4
71
3
72
10
73
6
40
0
40
0
40
0
40
0
40
0.709495622816781
40
0.709495622816781
40
1
40
1
40
1
40
1
41
1
10
27.8398038349676
20
-19.6064123582383
30
0
41
1
10
27.8630546515992
20
-19.6165434392561
30
0
41
1
10
27.888166127392
20
-19.6219874249781
30
0
41
1
10
27.9228031113536
20
-19.6236746442518
30
0
41
1
10
27.9329839697443
20
-19.6234717072203
30
0
41
1
10
27.9431008469153
20
-19.6226363932798
30
0
0
SPLINE
5
372
100
AcDbEntity
8
1
62
256
6
ByLayer
370
-1
48
1
60
0
100
AcDbSpline
70
4
71
3
72
18
73
14
40
0
40
0
40
0
40
0
40
0.439677344605706
40
0.439677344605706
40
0.819840138515276
40
0.819840138515276
40
0.920758376963029
40
0.920758376963029
40
0.968467673881571
40
0.968467673881571
40
0.990240013274128
40
0.990240013274128
40
1
40
1
40
1
40
1
41
1
10
24.3464270749263
20
-10.8451012531877
30
0
41
1
10
24.3850398882892
20
-10.9299115288796
30
0
41
1
10
24.4255300286196
20
-11.0140127776306
30
0
41
1
10
24.5087406253859
20
-11.1665902141964
30
0
41
1
10
24.5491358125622
20
-11.2375311720448
30
0
41
1
10
24.6161105968758
20
-11.3149709989136
30
0
41
1
10
24.6313269517236
20
-11.3307966184966
30
0
41
1
10
24.6575573198841
20
-11.3489630054744
30
0
41
1
10
24.666819430522
20
-11.3541305344955
30
0
41
1
10
24.6813803253504
20
-11.3579453634003
30
0
41
1
10
24.6862120796345
20
-11.3585813792005
30
0
41
1
10
24.6931136453417
20
-11.3582242758911
30
0
41
1
10
24.6952642265428
20
-11.35793335293
30
0
41
1
10
24.6973628002793
20
-11.3574561232627
30
0
0
SPLINE
5
373
100
AcDbEntity
8
1
62
256
6
ByLayer
370
-1
48
1
60
0
100
AcDbSpline
70
4
71
3
72
14
73
10
40
0
40
0
40
0
40
0
40
0.249606055014992
40
0.249606055014992
40
0.499158243446883
40
0.499158243446883
40
0.746144217743605
40
0.746144217743605
40
1
40
1
40
1
40
1
41
1
10
25.3432996562534
20
-18.1737464755703
30
0
41
1
10
25.3589843871608
20
-18.1826456997342
30
0
41
1
10
25.374684051586
20
-18.1919405087066
30
0
41
1
10
25.4054542452957
20
-18.2109148462967
30
0
41
1
10
25.4206319070349
20
-18.220660149995
30
0
41
1
10
25.4498153198994
20
-18.240166788466
30
0
41
1
10
25.4639284453082
20
-18.2499916661694
30
0
41
1
10
25.4911671830362
20
-18.2697673352095
30
0
41
1
10
25.504349288129
20
-18.279782898641
30
0
41
1
10
25.5166299309381
20
-18.2895825839837
30
0
0
SPLINE
5
374
100
AcDbEntity
8
1
62
256
6
ByLayer
370
-1
48
1
60
0
100
AcDbSpline
70
4
71
3
72
14
73
10
40
0
40
0
40
0
40
0
40
0.249606055014983
40
0.249606055014983
40
0.499158243446867
40
0.499158243446867
40
0.746144217743598
40
0.746144217743598
40
1
40
1
40
1
40
1
41
1
10
31.9988185797055
20
-13.3455504838604
30
0
41
1
10
31.9988334068592
20
-13.3282981019065
30
0
41
1
10
31.9988744089185
20
-13.3114600655876
30
0
41
1
10
31.9990059405457
20
-13.2793013371836
30
0
41
1
10
31.9990969086179
20
-13.2638683579389
30
0
41
1
10
31.9993237552176
20
-13.2350491912626
30
0
41
1
10
31.9994599123583
20
-13.2215478140882
30
0
41
1
10
31.9997776667996
20
-13.1963948758896
30
0
41
1
10
31.9999615286451
20
-13.1847175851101
30
0
41
1
10
32.0001645144408
20
-13.1743607887026
30
0
0
SPLINE
5
375
100
AcDbEntity
8
1
62
256
6
ByLayer
370
-1
48
1
60
0
100
AcDbSpline
70
4
71
3
72
24
73
20
40
0
40
0
40
0
40
0
40
0.0154450745970435
40
0.0154450745970435
40
0.0417985895668232
40
0.0417985895668232
40
0.0483972597876602
40
0.0483972597876602
40
0.102103855500444
40
0.102103855500444
40
0.185330321121811
40
0.185330321121811
40
0.354377449491146
40
0.354377449491146
40
0.5353487273987
40
0.5353487273987
40
0.666091501001303
40
0.666091501001303
40
1
40
1
40
1
40
1
41
1
10
25.3068304953329
20
-11.2079961460988
30
0
41
1
10
25.3100362369561
20
-11.2072671390681
30
0
41
1
10
25.3131627834357
20
-11.2060838951529
30
0
41
1
10
25.3209294018768
20
-11.2019258464519
30
0
41
1
10
25.3252477329253
20
-11.1982196234134
30
0
41
1
10
25.3297976113132
20
-11.1930486173486
30
0
41
1
10
25.3306813130395
20
-11.1919699469062
30
0
41
1
10
25.338328725774
20
-11.1820257518443
30
0
41
1
10
25.3430382889657
20
-11.1716532046979
30
0
41
1
10
25.3525157425412
20
-11.1449596696619
30
0
41
1
10
25.3560188834566
20
-11.1279480994575
30
0
41
1
10
25.3638818284722
20
-11.0764117669997
30
0
41
1
10
25.3653785333895
20
-11.041339226503
30
0
41
1
10
25.3658694021075
20
-10.9690113478091
30
0
41
1
10
25.3644441131766
20
-10.9315780567789
30
0
41
1
10
25.3604825401377
20
-10.8672378407317
30
0
41
1
10
25.3583378205895
20
-10.8402726480246
30
0
41
1
10
25.3494824608917
20
-10.7445806869792
30
0
41
1
10
25.3409122639889
20
-10.6760051185943
30
0
41
1
10
25.3311292740381
20
-10.607626412579
30
0
0
SPLINE
5
376
100
AcDbEntity
8
1
62
256
6
ByLayer
370
-1
48
1
60
0
100
AcDbSpline
70
4
71
2
72
6
73
3
40
0
40
0
40
0
40
1
40
1
40
1
41
0.500001284300595
10
31.5479866932225
20
-9.62320682869434
30
0
41
0.499998715699405
10
31.5484028025991
20
-9.62236755279556
30
0
41
0.500001284300595
10
31.5488184035136
20
-9.62153129237075
30
0
0
SPLINE
5
377
100
AcDbEntity
8
1
62
256
6
ByLayer
370
-1
48
1
60
0
100
AcDbSpline
70
4
71
3
72
12
73
8
40
0
40
0
40
0
40
0
40
0.34762317383687
40
0.34762317383687
40
0.696503371294843
40
0.696503371294843
40
1
40
1
40
1
40
1
41
1
10
28.7526194007186
20
-19.5202413776193
30
0
41
1
10
28.7666678476776
20
-19.5196618326364
30
0
41
1
10
28.7809381549005
20
-19.5213832799838
30
0
41
1
10
28.8077731599582
20
-19.5294851155642
30
0
41
1
10
28.8207179949087
20
-19.5360234807311
30
0
41
1
10
28.8418344427971
20
-19.5520379631345
30
0
41
1
10
28.8506519843863
20
-19.5612162890356
30
0
41
1
10
28.8578399044045
20
-19.5713690651681
30
0
0
SPLINE
5
378
100
AcDbEntity
8
1
62
256
6
ByLayer
370
-1
48
1
60
0
100
AcDbSpline
70
4
71
3
72
24
73
20
40
0
40
0
40
0
40
0
40
0.015445074597065
40
0.015445074597065
40
0.041798589566881
40
0.041798589566881
40
0.0483972597877273
40
0.0483972597877273
40
0.102103855500582
40
0.102103855500582
40
0.185330321122072
40
0.185330321122072
40
0.354377449491647
40
0.354377449491647
40
0.535348727399455
40
0.535348727399455
40
0.666091500997344
40
0.666091500997344
40
1
40
1
40
1
40
1
41
1
10
25.7295110772648
20
-16.9699914613254
30
0
41
1
10
25.7272652305627
20
-16.9676806255588
30
0
41
1
10
25.7246569782995
20
-16.9656542037167
30
0
41
1
10
25.7170993833281
20
-16.9612070506699
30
0
41
1
10
25.7116634817384
20
-16.9594055303532
30
0
41
1
10
25.7048158199375
20
-16.9581167904758
30
0
41
1
10
25.7034200583771
20
-16.957902261072
30
0
41
1
10
25.6908019908416
20
-16.9563391443537
30
0
41
1
10
25.679271954699
20
-16.9574213713445
30
0
41
1
10
25.6509193985499
20
-16.9624000888381
30
0
41
1
10
25.6341174680789
20
-16.9676788661506
30
0
41
1
10
25.5845899095937
20
-16.9859528473913
30
0
41
1
10
25.5528098480983
20
-17.0015877638019
30
0
41
1
10
25.4885693836333
20
-17.0359831363987
30
0
41
1
10
25.456161074521
20
-17.0551773085544
30
0
41
1
10
25.4012138517763
20
-17.0894211538427
30
0
41
1
10
25.3784275358792
20
-17.104174375464
30
0
41
1
10
25.2981877602043
20
-17.1575603767459
30
0
41
1
10
25.2417984242114
20
-17.1976609144383
30
0
41
1
10
25.1861905812906
20
-17.2386703754825
30
0
0
SPLINE
5
379
100
AcDbEntity
8
1
62
256
6
ByLayer
370
-1
48
1
60
0
100
AcDbSpline
70
4
71
3
72
12
73
8
40
0
40
0
40
0
40
0
40
0.474376698371055
40
0.474376698371055
40
0.706219783413742
40
0.706219783413742
40
1
40
1
40
1
40
1
41
1
10
24.611521341396
20
-17.7760408293623
30
0
41
1
10
24.6340272513861
20
-17.7834533540439
30
0
41
1
10
24.6600562996099
20
-17.7939292726392
30
0
41
1
10
24.7007315433508
20
-17.8126399652501
30
0
41
1
10
24.7146083744865
20
-17.8193802989646
30
0
41
1
10
24.7463681539067
20
-17.8355693298915
30
0
41
1
10
24.7644977191442
20
-17.8453450375598
30
0
41
1
10
24.7824852161581
20
-17.8555508083198
30
0
0
SPLINE
5
37A
100
AcDbEntity
8
1
62
256
6
ByLayer
370
-1
48
1
60
0
100
AcDbSpline
70
4
71
3
72
14
73
10
40
0
40
0
40
0
40
0
40
0.24960605501498
40
0.24960605501498
40
0.499158243446871
40
0.499158243446871
40
0.7461442177436
40
0.7461442177436
40
1
40
1
40
1
40
1
41
1
10
24.3688678216052
20
-10.2101808752032
30
0
41
1
10
24.3532127450052
20
-10.2192168589608
30
0
41
1
10
24.3375950846987
20
-10.2286483294173
30
0
41
1
10
24.3070879542433
20
-10.2478900669254
30
0
41
1
10
24.2920922286485
20
-10.2577670402324
30
0
41
1
10
24.2633625089835
20
-10.2775263980755
30
0
41
1
10
24.249521697856
20
-10.2874732602233
30
0
41
1
10
24.2229184690107
20
-10.307483883019
30
0
41
1
10
24.2101040876088
20
-10.3176128890404
30
0
41
1
10
24.1982294163911
20
-10.3275179825268
30
0
0
SPLINE
5
37B
100
AcDbEntity
8
1
62
256
6
ByLayer
370
-1
48
1
60
0
100
AcDbSpline
70
4
71
3
72
10
73
6
40
0
40
0
40
0
40
0
40
0.709495622816781
40
0.709495622816781
40
1
40
1
40
1
40
1
41
1
10
21.8806009035156
20
-11.666530434805
30
0
41
1
10
21.8598025525954
20
-11.6809573743424
30
0
41
1
10
21.8410800375326
20
-11.6975436074916
30
0
41
1
10
21.819818683946
20
-11.7223588983822
30
0
41
1
10
21.8141160707407
20
-11.7298839475895
30
0
41
1
10
21.8089803454861
20
-11.7376224350938
30
0
0
SPLINE
5
37C
100
AcDbEntity
8
1
62
256
6
ByLayer
370
-1
48
1
60
0
100
AcDbSpline
70
4
71
3
72
16
73
12
40
0
40
0
40
0
40
0
40
0.0426292751499135
40
0.0426292751499135
40
0.0996436166287547
40
0.0996436166287547
40
0.207156078099354
40
0.207156078099354
40
0.580806890299264
40
0.580806890299264
40
1
40
1
40
1
40
1
41
1
10
30.8332924993804
20
-13.1225230205593
30
0
41
1
10
30.8360411984966
20
-13.1132504869349
30
0
41
1
10
30.8407316707448
20
-13.1043929469536
30
0
41
1
10
30.8544671885374
20
-13.0861482704698
30
0
41
1
10
30.8645603828548
20
-13.0771999454482
30
0
41
1
10
30.8956876469509
20
-13.0553548821654
30
0
41
1
10
30.9190365732361
20
-13.0451281086248
30
0
41
1
10
31.0240019155125
20
-13.0084880381523
30
0
41
1
10
31.111956822972
20
-12.9996264929021
30
0
41
1
10
31.2952818347611
20
-12.9877924053425
30
0
41
1
10
31.392834630849
20
-12.9881015381836
30
0
41
1
10
31.4900555765011
20
-12.9913354727483
30
0
0
SPLINE
5
37D
100
AcDbEntity
8
1
62
256
6
ByLayer
370
-1
48
1
60
0
100
AcDbSpline
70
4
71
3
72
12
73
8
40
0
40
0
40
0
40
0
40
0.347623173836874
40
0.347623173836874
40
0.696503371294858
40
0.696503371294858
40
1
40
1
40
1
40
1
41
1
10
21.394563489464
20
-12.3232266796433
30
0
41
1
10
21.3874886405837
20
-12.3345209735852
30
0
41
1
10
21.3782734829346
20
-12.3449089850807
30
0
41
1
10
21.3568915215767
20
-12.3624764381258
30
0
41
1
10
21.3443906795926
20
-12.3698942984611
30
0
41
1
10
21.319753341629
20
-12.3801381947361
30
0
41
1
10
21.3074909526799
20
-12.3835547340939
30
0
41
1
10
21.2954260720382
20
-12.3854866600008
30
0
0
SPLINE
5
37E
100
AcDbEntity
8
1
62
256
6
ByLayer
370
-1
48
1
60
0
100
AcDbSpline
70
4
71
3
72
16
73
12
40
0
40
0
40
0
40
0
40
0.0426292751499095
40
0.0426292751499095
40
0.0996436166287537
40
0.0996436166287537
40
0.207156078099352
40
0.207156078099352
40
0.580806890299258
40
0.580806890299258
40
1
40
1
40
1
40
1
41
1
10
26.184616422264
20
-17.3876199113404
30
0
41
1
10
26.1915436649207
20
-17.3945196103615
30
0
41
1
10
26.1971204047606
20
-17.4028380248573
30
0
41
1
10
26.206554318958
20
-17.4233808439934
30
0
41
1
10
26.2094899469837
20
-17.4362644955191
30
0
41
1
10
26.2133875132128
20
-17.4731442676573
30
0
41
1
10
26.2107894829927
20
-17.4977525804541
30
0
41
1
10
26.1907421192701
20
-17.6037487750256
30
0
41
1
10
26.1543645107257
20
-17.6817325547145
30
0
41
1
10
26.0725935024792
20
-17.8409825910019
30
0
41
1
10
26.0231583671108
20
-17.9224470015774
30
0
41
1
10
25.9712685222777
20
-18.0021828093749
30
0
0
SPLINE
5
37F
100
AcDbEntity
8
1
62
256
6
ByLayer
370
-1
48
1
60
0
100
AcDbSpline
70
4
71
2
72
6
73
3
40
0
40
0
40
0
40
1
40
1
40
1
41
0.500001284184749
10
21.2954260720382
20
-12.3854866600008
30
0
41
0.499998715815251
10
21.2944232935616
20
-12.3856472329709
30
0
41
0.500001284184749
10
21.2934221311148
20
-12.3858093243472
30
0
0
SPLINE
5
380
100
AcDbEntity
8
1
62
256
6
ByLayer
370
-1
48
1
60
0
100
AcDbSpline
70
4
71
3
72
12
73
8
40
0
40
0
40
0
40
0
40
0.474376698371049
40
0.474376698371049
40
0.706219783413741
40
0.706219783413741
40
1
40
1
40
1
40
1
41
1
10
31.9993088935015
20
-14.1699328000278
30
0
41
1
10
31.998968152087
20
-14.1392163969228
30
0
41
1
10
31.9987026747951
20
-14.1058092078007
30
0
41
1
10
31.9984459606277
20
-14.0562082848665
30
0
41
1
10
31.9983825030249
20
-14.0396835784135
30
0
41
1
10
31.9982887967614
20
-14.0027121161956
30
0
41
1
10
31.9982714243002
20
-13.982202279396
30
0
41
1
10
31.9982884283142
20
-13.9624169754141
30
0
0
SPLINE
5
381
100
AcDbEntity
8
1
62
256
6
ByLayer
370
-1
48
1
60
0
100
AcDbSpline
70
4
71
3
72
24
73
20
40
0
40
0
40
0
40
0
40
0.015445074597066
40
0.015445074597066
40
0.0417985895668777
40
0.0417985895668777
40
0.0483972597877261
40
0.0483972597877261
40
0.102103855500582
40
0.102103855500582
40
0.18533032112207
40
0.18533032112207
40
0.354377449491639
40
0.354377449491639
40
0.535348727399451
40
0.535348727399451
40
0.666091500997334
40
0.666091500997334
40
1
40
1
40
1
40
1
41
1
10
30.6851538154918
20
-13.7128168472421
30
0
41
1
10
30.6841944096306
20
-13.7158641974977
30
0
41
1
10
30.6836752576173
20
-13.7190606953896
30
0
41
1
10
30.6834606556868
20
-13.7275802633051
30
0
41
1
10
30.6845711800019
20
-13.7329798414603
30
0
41
1
10
30.6868579523848
20
-13.7392705592943
30
0
41
1
10
30.6873676630204
20
-13.740527697066
30
0
41
1
10
30.6923162607559
20
-13.7516964152693
30
0
41
1
10
30.6991111068649
20
-13.7605933429263
30
0
41
1
10
30.717918098235
20
-13.7812625990753
30
0
41
1
10
30.7311714111494
20
-13.7922972891917
30
0
41
1
10
30.7726959197032
20
-13.8234089180133
30
0
41
1
10
30.8028806679833
20
-13.8413328259435
30
0
41
1
10
30.8664245003498
20
-13.8761066997543
30
0
41
1
10
30.9001500789516
20
-13.8926876339007
30
0
41
1
10
30.9588717218141
20
-13.9199110577943
30
0
41
1
10
30.9837238482399
20
-13.9309117127504
30
0
41
1
10
31.0725376834062
20
-13.968899489545
30
0
41
1
10
31.1372933387234
20
-13.9942448362109
30
0
41
1
10
31.2024794711793
20
-14.0184717662535
30
0
0
SPLINE
5
382
100
AcDbEntity
8
1
62
256
6
ByLayer
370
-1
48
1
60
0
100
AcDbSpline
70
4
71
3
72
18
73
14
40
0
40
0
40
0
40
0
40
0.439677344605704
40
0.439677344605704
40
0.819840138515272
40
0.819840138515272
40
0.920758376963031
40
0.920758376963031
40
0.968467673881574
40
0.968467673881574
40
0.990240013274127
40
0.990240013274127
40
1
40
1
40
1
40
1
41
1
10
25.8877136101133
20
-17.9425840128711
30
0
41
1
10
25.9434738421378
20
-17.8697113628993
30
0
41
1
10
25.9976718394034
20
-17.7956161811196
30
0
41
1
10
26.0911325465436
20
-17.6530858931328
30
0
41
1
10
26.1337369283883
20
-17.5853959515042
30
0
41
1
10
26.1688208119491
20
-17.4925064709321
30
0
41
1
10
26.1752269345296
20
-17.4722536057686
30
0
41
1
10
26.178204674419
20
-17.4417288655493
30
0
41
1
10
26.1781525223055
20
-17.4315507774569
30
0
41
1
10
26.1742574580355
20
-17.4176242567272
30
0
41
1
10
26.1724075854197
20
-17.4133062250155
30
0
41
1
10
26.1686453655449
20
-17.4077476776194
30
0
41
1
10
26.167314059614
20
-17.4061020704288
30
0
41
1
10
26.1658438616195
20
-17.4045893286613
30
0
0
SPLINE
5
383
100
AcDbEntity
8
1
62
256
6
ByLayer
370
-1
48
1
60
0
100
AcDbSpline
70
4
71
2
72
6
73
3
40
0
40
0
40
0
40
1
40
1
40
1
41
0.500001284121409
10
28.8578399044045
20
-19.5713690651681
30
0
41
0.499998715878592
10
28.8584373319051
20
-19.5722129181399
30
0
41
0.500001284121409
10
28.8590339794569
20
-19.573057266447
30
0
0
SPLINE
5
384
100
AcDbEntity
8
1
62
256
6
ByLayer
370
-1
48
1
60
0
100
AcDbSpline
70
4
71
3
72
20
73
16
40
0
40
0
40
0
40
0
40
0.511365204367437
40
0.511365204367437
40
0.617167309555451
40
0.617167309555451
40
0.785488434327113
40
0.785488434327113
40
0.873398812153864
40
0.873398812153864
40
0.935684402254223
40
0.935684402254223
40
0.978722765374131
40
0.978722765374131
40
1
40
1
40
1
40
1
41
1
10
31.1605421515042
20
-14.1124185356867
30
0
41
1
10
31.0557693315754
20
-14.0636436044815
30
0
41
1
10
30.9522441193674
20
-14.0111138962036
30
0
41
1
10
30.8357586726924
20
-13.9354025851911
30
0
41
1
10
30.8160654548722
20
-13.9218949495323
30
0
41
1
10
30.7665340746469
20
-13.8852039064036
30
0
41
1
10
30.7371436086564
20
-13.8609917979273
30
0
41
1
10
30.6981173327077
20
-13.8191453834224
30
0
41
1
10
30.6856391724223
20
-13.8037335101679
30
0
41
1
10
30.6686546067453
20
-13.7750704352785
30
0
41
1
10
30.6627999473585
20
-13.7622769148394
30
0
41
1
10
30.6574149009798
20
-13.7396947793619
30
0
41
1
10
30.6565130952957
20
-13.7300067148854
30
0
41
1
10
30.6578953134845
20
-13.7158399531816
30
0
41
1
10
30.6588060519693
20
-13.7111401744185
30
0
41
1
10
30.6601575886813
20
-13.7065808650591
30
0
0
SPLINE
5
385
100
AcDbEntity
8
1
62
256
6
ByLayer
370
-1
48
1
60
0
100
AcDbSpline
70
4
71
3
72
20
73
16
40
0
40
0
40
0
40
0
40
0.511365204366872
40
0.511365204366872
40
0.617167309555271
40
0.617167309555271
40
0.785488434327009
40
0.785488434327009
40
0.873398812153798
40
0.873398812153798
40
0.935684402254187
40
0.935684402254187
40
0.978722765374118
40
0.978722765374118
40
1
40
1
40
1
40
1
41
1
10
25.4287469730172
20
-10.6098164085547
30
0
41
1
10
25.4369993305703
20
-10.7220530933078
30
0
41
1
10
25.4412668021278
20
-10.8351380410471
30
0
41
1
10
25.4311825890001
20
-10.9707476835372
30
0
41
1
10
25.4288432663654
20
-10.9940307170226
30
0
41
1
10
25.4205235805715
20
-11.0539603113067
30
0
41
1
10
25.413398943516
20
-11.0907506805547
30
0
41
1
10
25.3952462777009
20
-11.1444890084953
30
0
41
1
10
25.3876206007028
20
-11.1626951157251
30
0
41
1
10
25.3703514837783
20
-11.191348955286
30
0
41
1
10
25.3617871840506
20
-11.2026940763783
30
0
41
1
10
25.3442149298857
20
-11.2185788941865
30
0
41
1
10
25.3359774583123
20
-11.2242153228326
30
0
41
1
10
25.3225919901901
20
-11.2301976865181
30
0
41
1
10
25.3179270760795
20
-11.231803989501
30
0
41
1
10
25.3131694107344
20
-11.2329707134465
30
0
0
SPLINE
5
386
100
AcDbEntity
8
1
62
256
6
ByLayer
370
-1
48
1
60
0
100
AcDbSpline
70
4
71
3
72
16
73
12
40
0
40
0
40
0
40
0
40
0.0426292751499067
40
0.0426292751499067
40
0.0996436166287508
40
0.0996436166287508
40
0.207156078099347
40
0.207156078099347
40
0.580806890299257
40
0.580806890299257
40
1
40
1
40
1
40
1
41
1
10
24.7037017156807
20
-11.3824306906103
30
0
41
1
10
24.6940257739078
20
-11.3848035252137
30
0
41
1
10
24.6837585618197
20
-11.3853426506991
30
0
41
1
10
24.6605891298297
20
-11.3830445080469
30
0
41
1
10
24.6475603074865
20
-11.3791091815428
30
0
41
1
10
24.6125354771614
20
-11.3640744726873
30
0
41
1
10
24.5917845810963
20
-11.3496929334312
30
0
41
1
10
24.5068666025424
20
-11.2803368093322
30
0
41
1
10
24.4552893036275
20
-11.2112145748934
30
0
41
1
10
24.3537353000847
20
-11.0637986261657
30
0
41
1
10
24.3056176393653
20
-10.9820250827491
30
0
41
1
10
24.2602865385463
20
-10.8990553403869
30
0
0
SPLINE
5
387
100
AcDbEntity
8
1
62
256
6
ByLayer
370
-1
48
1
60
0
100
AcDbSpline
70
4
71
3
72
10
73
6
40
0
40
0
40
0
40
0
40
0.709495622816789
40
0.709495622816789
40
1
40
1
40
1
40
1
41
1
10
32.0012058988419
20
-10.6196308294667
30
0
41
1
10
31.9987534331305
20
-10.5950728089116
30
0
41
1
10
31.9921309410939
20
-10.5694576979036
30
0
41
1
10
31.9783043093756
20
-10.5360319567916
30
0
41
1
10
31.9736778280507
20
-10.5264343014397
30
0
41
1
10
31.968542102796
20
-10.5171583036373
30
0
0
SPLINE
5
388
100
AcDbEntity
8
1
62
256
6
ByLayer
370
-1
48
1
60
0
100
AcDbSpline
70
4
71
3
72
30
73
26
40
0
40
0
40
0
40
0
40
0.0511772287528949
40
0.0511772287528949
40
0.135075241067805
40
0.135075241067805
40
0.27183478065244
40
0.27183478065244
40
0.469061266910886
40
0.469061266910886
40
0.500636061959801
40
0.500636061959801
40
0.599800502489197
40
0.599800502489197
40
0.697557955314515
40
0.697557955314515
40
0.781333785463106
40
0.781333785463106
40
0.847844869822091
40
0.847844869822091
40
0.899113486931151
40
0.899113486931151
40
0.939077913069167
40
0.939077913069167
40
1
40
1
40
1
40
1
41
1
10
26.1862123299376
20
-12.9879938563827
30
0
41
1
10
26.1952536885757
20
-12.9958501941635
30
0
41
1
10
26.2023411237446
20
-13.0055747152503
30
0
41
1
10
26.2162457808864
20
-13.033402801724
30
0
41
1
10
26.220445718365
20
-13.0533351344654
30
0
41
1
10
26.2238416383998
20
-13.1071509512143
30
0
41
1
10
26.2185236676093
20
-13.1431211488407
30
0
41
1
10
26.1953915565414
20
-13.2305980434016
30
0
41
1
10
26.1725602247577
20
-13.28390448541
30
0
41
1
10
26.1395617190858
20
-13.3435751558255
30
0
41
1
10
26.1347966449232
20
-13.3518704485054
30
0
41
1
10
26.1144826866865
20
-13.3859581957555
30
0
41
1
10
26.0975375254497
20
-13.4114649933948
30
0
41
1
10
26.0613132373674
20
-13.4604182907427
30
0
41
1
10
26.0419523501852
20
-13.484055083575
30
0
41
1
10
26.0037780789728
20
-13.5255065729163
30
0
41
1
10
25.9851672669992
20
-13.543797960268
30
0
41
1
10
25.9502139570168
20
-13.5739583222143
30
0
41
1
10
25.9340976049592
20
-13.5864558607434
30
0
41
1
10
25.9046248615149
20
-13.606107708877
30
0
41
1
10
25.8914048984606
20
-13.6138778740666
30
0
41
1
10
25.8674432564295
20
-13.6255570772117
30
0
41
1
10
25.8567353506502
20
-13.6299658826717
30
0
41
1
10
25.8297335810227
20
-13.6385017624286
30
0
41
1
10
25.8130109972661
20
-13.64138690017
30
0
41
1
10
25.797243977836
20
-13.6407004692562
30
0
0
SPLINE
5
389
100
AcDbEntity
8
1
62
256
6
ByLayer
370
-1
48
1
60
0
100
AcDbSpline
70
4
71
3
72
8
73
4
40
0
40
0
40
0
40
0
40
1
40
1
40
1
40
1
41
1
10
25.797243977836
20
-13.6407004692562
30
0
41
1
10
25.7906501419502
20
-13.6404134008719
30
0
41
1
10
25.784056344762
20
-13.6401263570012
30
0
41
1
10
25.7774625847393
20
-13.6398393366724
30
0
0
SPLINE
5
38A
100
AcDbEntity
8
1
62
256
6
ByLayer
370
-1
48
1
60
0
100
AcDbSpline
70
4
71
3
72
24
73
20
40
0
40
0
40
0
40
0
40
0.0380198325517751
40
0.0380198325517751
40
0.24683465467488
40
0.24683465467488
40
0.404726505663327
40
0.404726505663327
40
0.526150637962873
40
0.526150637962873
40
0.621531995503711
40
0.621531995503711
40
0.776890538332149
40
0.776890538332149
40
0.873684213898033
40
0.873684213898033
40
0.971746172255048
40
0.971746172255048
40
1
40
1
40
1
40
1
41
1
10
26.4131419545795
20
-12.6373152269464
30
0
41
1
10
26.418630273778
20
-12.6342280255218
30
0
41
1
10
26.4241560278187
20
-12.6311972233874
30
0
41
1
10
26.4602073306909
20
-12.6119235122961
30
0
41
1
10
26.491838840025
20
-12.5972983562511
30
0
41
1
10
26.5487498252263
20
-12.5752603103232
30
0
41
1
10
26.5738041336134
20
-12.5669203661139
30
0
41
1
10
26.6186884805225
20
-12.5548199690645
30
0
41
1
10
26.638462365371
20
-12.5504284784917
30
0
41
1
10
26.6738721530971
20
-12.5446406091115
30
0
41
1
10
26.6895450702672
20
-12.5427957604269
30
0
41
1
10
26.7302506024771
20
-12.5403751132209
30
0
41
1
10
26.755641194657
20
-12.5412556059658
30
0
41
1
10
26.7934207062443
20
-12.5489124647766
30
0
41
1
10
26.8073572868911
20
-12.5534663547994
30
0
41
1
10
26.8313291770156
20
-12.5661654702458
30
0
41
1
10
26.8415824508839
20
-12.5745935460777
30
0
41
1
10
26.8507797406462
20
-12.5871024215958
30
0
41
1
10
26.8526233260099
20
-12.5900586357258
30
0
41
1
10
26.8542145370911
20
-12.593100481065
30
0
0
SPLINE
5
38B
100
AcDbEntity
8
1
62
256
6
ByLayer
370
-1
48
1
60
0
100
AcDbSpline
70
4
71
3
72
22
73
18
40
0
40
0
40
0
40
0
40
0.0973712659846991
40
0.0973712659846991
40
0.18029683263072
40
0.18029683263072
40
0.307445080803002
40
0.307445080803002
40
0.411978418514832
40
0.411978418514832
40
0.516185210011008
40
0.516185210011008
40
0.620250145291824
40
0.620250145291824
40
0.829289859625935
40
0.829289859625935
40
1
40
1
40
1
40
1
41
1
10
26.8542145370912
20
-15.4364851890225
30
0
41
1
10
26.848836530228
20
-15.4509419432893
30
0
41
1
10
26.8403294736335
20
-15.4644896443184
30
0
41
1
10
26.8204717283667
20
-15.4851551905777
30
0
41
1
10
26.809541170388
20
-15.4932017598892
30
0
41
1
10
26.7799813899256
20
-15.5093033016705
30
0
41
1
10
26.7599163873449
20
-15.5154829240304
30
0
41
1
10
26.7229442655746
20
-15.5219804295406
30
0
41
1
10
26.7058053637861
20
-15.5232081261084
30
0
41
1
10
26.6716702303026
20
-15.5231658806385
30
0
41
1
10
26.6545642447935
20
-15.5219003575809
30
0
41
1
10
26.6206601443438
20
-15.5174884967883
30
0
41
1
10
26.6038020340579
20
-15.5143341077318
30
0
41
1
10
26.5537309582765
20
-15.5025857428674
30
0
41
1
10
26.5209098570404
20
-15.4916957252861
30
0
41
1
10
26.4631539066054
20
-15.4678644779022
30
0
41
1
10
26.4377570304605
20
-15.4556001521087
30
0
41
1
10
26.4131419545795
20
-15.4419870901185
30
0
0
SPLINE
5
38C
100
AcDbEntity
8
1
62
256
6
ByLayer
370
-1
48
1
60
0
100
AcDbSpline
70
4
71
3
72
22
73
18
40
0
40
0
40
0
40
0
40
0.0973712659846833
40
0.0973712659846833
40
0.180296832630707
40
0.180296832630707
40
0.307445080802987
40
0.307445080802987
40
0.411978418514808
40
0.411978418514808
40
0.516185210010971
40
0.516185210010971
40
0.620250145291774
40
0.620250145291774
40
0.829289859625872
40
0.829289859625872
40
1
40
1
40
1
40
1
41
1
10
26.1728414789748
20
-12.9763755420891
30
0
41
1
10
26.1646612774358
20
-12.9676708983804
30
0
41
1
10
26.1588588367913
20
-12.9567775187094
30
0
41
1
10
26.1537259071768
20
-12.9347592901162
30
0
41
1
10
26.1534565520083
20
-12.9236767081812
30
0
41
1
10
26.157099508996
20
-12.8955062340003
30
0
41
1
10
26.1632437780509
20
-12.8778987143036
30
0
41
1
10
26.1784007052705
20
-12.8470943611125
30
0
41
1
10
26.1868259283934
20
-12.833411976912
30
0
41
1
10
26.2055841370284
20
-12.8070333661286
30
0
41
1
10
26.2159734759068
20
-12.7942502441321
30
0
41
1
10
26.2380989106926
20
-12.7696103719062
30
0
41
1
10
26.2498741360823
20
-12.7577097946363
30
0
41
1
10
26.2867876046083
20
-12.723265512704
30
0
41
1
10
26.313585279897
20
-12.7018996754394
30
0
41
1
10
26.3646110715834
20
-12.6661645801777
30
0
41
1
10
26.3885268786985
20
-12.6511613052408
30
0
41
1
10
26.4131419545795
20
-12.6373152269464
30
0
0
SPLINE
5
38D
100
AcDbEntity
8
1
62
256
6
ByLayer
370
-1
48
1
60
0
100
AcDbSpline
70
4
71
3
72
8
73
4
40
0
40
0
40
0
40
0
40
1
40
1
40
1
40
1
41
1
10
28.721724277914
20
-14.386003516243
30
0
41
1
10
28.7149870066297
20
-14.3836854333193
30
0
41
1
10
28.7082497005128
20
-14.3813673598678
30
0
41
1
10
28.7015123581272
20
-14.3790492962803
30
0
0
SPLINE
5
38E
100
AcDbEntity
8
1
62
256
6
ByLayer
370
-1
48
1
60
0
100
AcDbSpline
70
4
71
3
72
8
73
4
40
0
40
0
40
0
40
0
40
1
40
1
40
1
40
1
41
1
10
25.7774625847393
20
-14.3999393046539
30
0
41
1
10
25.784056344762
20
-14.3975581232522
30
0
41
1
10
25.7906501419502
20
-14.395176950982
30
0
41
1
10
25.797243977836
20
-14.3927957882209
30
0
0
SPLINE
5
38F
100
AcDbEntity
8
1
62
256
6
ByLayer
370
-1
48
1
60
0
100
AcDbSpline
70
4
71
3
72
8
73
4
40
0
40
0
40
0
40
0
40
1
40
1
40
1
40
1
41
1
10
28.3125440060256
20
-15.0317559091539
30
0
41
1
10
28.3171444891754
20
-15.0376597198759
30
0
41
1
10
28.321744948073
20
-15.0435635202978
30
0
41
1
10
28.3263453836785
20
-15.0494673108263
30
0
0
SPLINE
5
390
100
AcDbEntity
8
1
62
256
6
ByLayer
370
-1
48
1
60
0
100
AcDbSpline
70
4
71
3
72
34
73
30
40
0
40
0
40
0
40
0
40
0.0514465755209391
40
0.0514465755209391
40
0.13578614473541
40
0.13578614473541
40
0.20313163521887
40
0.20313163521887
40
0.270315608875107
40
0.270315608875107
40
0.337431278535945
40
0.337431278535945
40
0.404515897625534
40
0.404515897625534
40
0.49992988369086
40
0.49992988369086
40
0.599210771748143
40
0.599210771748143
40
0.697083019894231
40
0.697083019894231
40
0.78095722692276
40
0.78095722692276
40
0.847546414393277
40
0.847546414393277
40
0.898875235580383
40
0.898875235580383
40
0.980803570703574
40
0.980803570703574
40
1
40
1
40
1
40
1
41
1
10
28.7015123581272
20
-14.3790492962803
30
0
41
1
10
28.6878450824024
20
-14.3743469058739
30
0
41
1
10
28.6734913649281
20
-14.3722136637963
30
0
41
1
10
28.6364183129165
20
-14.3718491613794
30
0
41
1
10
28.6134810743221
20
-14.3767736159445
30
0
41
1
10
28.5744364490326
20
-14.3908826921195
30
0
41
1
10
28.5575751137128
20
-14.3991438306356
30
0
41
1
10
28.5252677746897
20
-14.4183550932175
30
0
41
1
10
28.5097147141001
20
-14.4293677612226
30
0
41
1
10
28.4799385930765
20
-14.4534758072903
30
0
41
1
10
28.4656505199231
20
-14.4666248613139
30
0
41
1
10
28.4383848422488
20
-14.4946236757712
30
0
41
1
10
28.4253603974897
20
-14.5095224516082
30
0
41
1
10
28.3954590624698
20
-14.5473101106406
30
0
41
1
10
28.3791729706254
20
-14.5710411141707
30
0
41
1
10
28.3489742236024
20
-14.6217159872701
30
0
41
1
10
28.3350863946089
20
-14.6489136045337
30
0
41
1
10
28.3111730893373
20
-14.7046753380196
30
0
41
1
10
28.3010112445857
20
-14.7333995470132
30
0
41
1
10
28.2861955890188
20
-14.7877692286171
30
0
41
1
10
28.2809145520224
20
-14.8134324824608
30
0
41
1
10
28.2751303570117
20
-14.859724461154
30
0
41
1
10
28.2738522962759
20
-14.8804281324031
30
0
41
1
10
28.2746054131142
20
-14.9167960171527
30
0
41
1
10
28.2759509793227
20
-14.9326214673934
30
0
41
1
10
28.2827974386725
20
-14.9725212966357
30
0
41
1
10
28.2904344205731
20
-14.9967713998365
30
0
41
1
10
28.3057842651492
20
-15.0224674756406
30
0
41
1
10
28.3090252463857
20
-15.0272402767271
30
0
41
1
10
28.3125440060256
20
-15.0317559091538
30
0
0
SPLINE
5
391
100
AcDbEntity
8
1
62
256
6
ByLayer
370
-1
48
1
60
0
100
AcDbSpline
70
4
71
3
72
34
73
30
40
0
40
0
40
0
40
0
40
0.0514465755209338
40
0.0514465755209338
40
0.1357861447354
40
0.1357861447354
40
0.203131635218856
40
0.203131635218856
40
0.270315608875083
40
0.270315608875083
40
0.337431278535919
40
0.337431278535919
40
0.404515897625508
40
0.404515897625508
40
0.499929883690865
40
0.499929883690865
40
0.599210771748145
40
0.599210771748145
40
0.697083019894238
40
0.697083019894238
40
0.780957226922759
40
0.780957226922759
40
0.84754641439328
40
0.84754641439328
40
0.898875235580387
40
0.898875235580387
40
0.980803570703588
40
0.980803570703588
40
1
40
1
40
1
40
1
41
1
10
28.3125440060256
20
-12.977929496819
30
0
41
1
10
28.303211532169
20
-12.9858728016798
30
0
41
1
10
28.2958334036538
20
-12.9956657912167
30
0
41
1
10
28.2812077391373
20
-13.0236289174958
30
0
41
1
10
28.276591820982
20
-13.0436029774718
30
0
41
1
10
28.2735942336615
20
-13.0806214300089
30
0
41
1
10
28.2741400878004
20
-13.097750172082
30
0
41
1
10
28.2780128353352
20
-13.132380960608
30
0
41
1
10
28.2813518607363
20
-13.1499970136726
30
0
41
1
10
28.2902332530617
20
-13.1853674912275
30
0
41
1
10
28.2957960268004
20
-13.2031996030802
30
0
41
1
10
28.3087722948878
20
-13.2388293775021
30
0
41
1
10
28.3162089087767
20
-13.2566886988626
30
0
41
1
10
28.3361661581357
20
-13.2996806534804
30
0
41
1
10
28.3495703818313
20
-13.3248471355733
30
0
41
1
10
28.3797691288543
20
-13.37523613507
30
0
41
1
10
28.3967752636399
20
-13.4005822343315
30
0
41
1
10
28.433239680987
20
-13.4491914812778
30
0
41
1
10
28.4527787356672
20
-13.4726441527856
30
0
41
1
10
28.4913889742245
20
-13.5137322054515
30
0
41
1
10
28.5102438079333
20
-13.531846260296
30
0
41
1
10
28.5457083373327
20
-13.5616733203105
30
0
41
1
10
28.5620781587592
20
-13.5740170951844
30
0
41
1
10
28.5920453149913
20
-13.5933876022038
30
0
41
1
10
28.6054970960314
20
-13.6010315246131
30
0
41
1
10
28.6408421924448
20
-13.6176177753515
30
0
41
1
10
28.6637635194565
20
-13.624995136646
30
0
41
1
10
28.6911144904789
20
-13.6271304274419
30
0
41
1
10
28.6963591844942
20
-13.6272218090692
30
0
41
1
10
28.7015123581272
20
-13.6269539773156
30
0
0
SPLINE
5
392
100
AcDbEntity
8
1
62
256
6
ByLayer
370
-1
48
1
60
0
100
AcDbSpline
70
4
71
3
72
22
73
18
40
0
40
0
40
0
40
0
40
0.142057608739161
40
0.142057608739161
40
0.351004812992779
40
0.351004812992779
40
0.487763342941902
40
0.487763342941902
40
0.591529353509427
40
0.591529353509427
40
0.758694969227104
40
0.758694969227104
40
0.858776631808898
40
0.858776631808898
40
0.960359919517397
40
0.960359919517397
40
1
40
1
40
1
40
1
41
1
10
25.5750820831052
20
-14.0436178660679
30
0
41
1
10
25.5750820831052
20
-14.0664642613773
30
0
41
1
10
25.5761148661617
20
-14.0892513568992
30
0
41
1
10
25.5812931001009
20
-14.1450001583184
30
0
41
1
10
25.586670935244
20
-14.1778865888971
30
0
41
1
10
25.6000078335764
20
-14.2305937984332
30
0
41
1
10
25.6064645200374
20
-14.2510949627362
30
0
41
1
10
25.6202814496131
20
-14.2857835135517
30
0
41
1
10
25.6270727835829
20
-14.3003568472092
30
0
41
1
10
25.6472398695057
20
-14.3363187478411
30
0
41
1
10
25.662375965494
20
-14.3570491378517
30
0
41
1
10
25.6917096856828
20
-14.3829026705659
30
0
41
1
10
25.7041161680423
20
-14.3910628329013
30
0
41
1
10
25.7308785291213
20
-14.4017118602691
30
0
41
1
10
25.7456877303861
20
-14.4041574274973
30
0
41
1
10
25.7659942179378
20
-14.4024925891908
30
0
41
1
10
25.7717783262651
20
-14.4014700195088
30
0
41
1
10
25.7774625847393
20
-14.3999393046539
30
0
0
SPLINE
5
393
100
AcDbEntity
8
1
62
256
6
ByLayer
370
-1
48
1
60
0
100
AcDbSpline
70
4
71
3
72
24
73
20
40
0
40
0
40
0
40
0
40
0.0380198325517951
40
0.0380198325517951
40
0.246834654674909
40
0.246834654674909
40
0.404726505663345
40
0.404726505663345
40
0.526150637962893
40
0.526150637962893
40
0.621531995503718
40
0.621531995503718
40
0.776890538332154
40
0.776890538332154
40
0.873684213898035
40
0.873684213898035
40
0.971746172255047
40
0.971746172255047
40
1
40
1
40
1
40
1
41
1
10
28.0892616975281
20
-12.6293818118756
30
0
41
1
10
28.0947500167266
20
-12.632417058642
30
0
41
1
10
28.1002009185048
20
-12.6355095269178
30
0
41
1
10
28.1352806301963
20
-12.6559211717921
30
0
41
1
10
28.1638530107718
20
-12.6749090310125
30
0
41
1
10
28.2110956616336
20
-12.7110720698334
30
0
41
1
10
28.230566852584
20
-12.7276295832513
30
0
41
1
10
28.2626391983096
20
-12.7586008311616
30
0
41
1
10
28.2758394844592
20
-12.7726781001019
30
0
41
1
10
28.2973903483221
20
-12.7988276357188
30
0
41
1
10
28.3062082674838
20
-12.8107267382948
30
0
41
1
10
28.3266917916785
20
-12.8426891170136
30
0
41
1
10
28.3370348737476
20
-12.8636950946442
30
0
41
1
10
28.3458068241058
20
-12.8977159265187
30
0
41
1
10
28.3472377508874
20
-12.9110186128491
30
0
41
1
10
28.3445666495842
20
-12.9359930026122
30
0
41
1
10
28.3402618329444
20
-12.9479628576474
30
0
41
1
10
28.3311534711045
20
-12.9608155690913
30
0
41
1
10
28.3288518977229
20
-12.9635837755923
30
0
41
1
10
28.3263453836785
20
-12.9661825708503
30
0
0
SPLINE
5
394
100
AcDbEntity
8
1
62
256
6
ByLayer
370
-1
48
1
60
0
100
AcDbSpline
70
4
71
3
72
8
73
4
40
0
40
0
40
0
40
0
40
1
40
1
40
1
40
1
41
1
10
26.1862123299376
20
-12.9879938563826
30
0
41
1
10
26.1817553532875
20
-12.9841210408639
30
0
41
1
10
26.1772984033188
20
-12.9802482700227
30
0
41
1
10
26.1728414789748
20
-12.9763755420891
30
0
0
SPLINE
5
395
100
AcDbEntity
8
1
62
256
6
ByLayer
370
-1
48
1
60
0
100
AcDbSpline
70
4
71
3
72
22
73
18
40
0
40
0
40
0
40
0
40
0.0973712659846757
40
0.0973712659846757
40
0.180296832630707
40
0.180296832630707
40
0.307445080802997
40
0.307445080802997
40
0.411978418514826
40
0.411978418514826
40
0.516185210010999
40
0.516185210010999
40
0.62025014529181
40
0.62025014529181
40
0.829289859625927
40
0.829289859625927
40
1
40
1
40
1
40
1
41
1
10
28.3263453836785
20
-15.0494673108263
30
0
41
1
10
28.3348169497029
20
-15.0622955299346
30
0
41
1
10
28.3409086494182
20
-15.0772826878415
30
0
41
1
10
28.3465178047887
20
-15.1060407660418
30
0
41
1
10
28.3469889971334
20
-15.1199798759908
30
0
41
1
10
28.3437930098433
20
-15.154476149444
30
0
41
1
10
28.3378694724085
20
-15.1752076033343
30
0
41
1
10
28.3230421231695
20
-15.2106763536004
30
0
41
1
10
28.3147414281803
20
-15.2261211391037
30
0
41
1
10
28.2961957394358
20
-15.2555074664638
30
0
41
1
10
28.2858950930477
20
-15.2695458209608
30
0
41
1
10
28.2639211097015
20
-15.2963291302287
30
0
41
1
10
28.2522088771893
20
-15.3091212227412
30
0
41
1
10
28.2154552203465
20
-15.3458272611971
30
0
41
1
10
28.1887260074054
20
-15.3681620211222
30
0
41
1
10
28.1377762947993
20
-15.4049738358879
30
0
41
1
10
28.113876773409
20
-15.4202075967533
30
0
41
1
10
28.089261697528
20
-15.4340536750477
30
0
0
SPLINE
5
396
100
AcDbEntity
8
1
62
256
6
ByLayer
370
-1
48
1
60
0
100
AcDbSpline
70
4
71
3
72
24
73
20
40
0
40
0
40
0
40
0
40
0.0380198325518446
40
0.0380198325518446
40
0.246834654674957
40
0.246834654674957
40
0.404726505663381
40
0.404726505663381
40
0.526150637962915
40
0.526150637962915
40
0.621531995503738
40
0.621531995503738
40
0.776890538332168
40
0.776890538332168
40
0.873684213898053
40
0.873684213898053
40
0.971746172255064
40
0.971746172255064
40
1
40
1
40
1
40
1
41
1
10
28.089261697528
20
-15.4340536750477
30
0
41
1
10
28.0837733783295
20
-15.4371408764724
30
0
41
1
10
28.078246802785
20
-15.4401600521623
30
0
41
1
10
28.0421848224907
20
-15.4592826495894
30
0
41
1
10
28.0105200288986
20
-15.473436745659
30
0
41
1
10
27.9534988417202
20
-15.4939151431575
30
0
41
1
10
27.9283799745919
20
-15.5013414110249
30
0
41
1
10
27.8833399930237
20
-15.5112391674505
30
0
41
1
10
27.8634843251775
20
-15.5144732130569
30
0
41
1
10
27.8278937809919
20
-15.5177029021254
30
0
41
1
10
27.8121290120916
20
-15.5182478067399
30
0
41
1
10
27.7711404905761
20
-15.5166634094127
30
0
41
1
10
27.7455292656357
20
-15.5126603815984
30
0
41
1
10
27.7072806921581
20
-15.4983650607597
30
0
41
1
10
27.6931324513373
20
-15.4908156214168
30
0
41
1
10
27.6686797006476
20
-15.4713110615965
30
0
41
1
10
27.6581485399392
20
-15.458950154567
30
0
41
1
10
27.6485790719104
20
-15.4411739756498
30
0
41
1
10
27.6466497437475
20
-15.4370042749242
30
0
41
1
10
27.6449723255622
20
-15.4327423718504
30
0
0
SPLINE
5
397
100
AcDbEntity
8
1
62
256
6
ByLayer
370
-1
48
1
60
0
100
AcDbSpline
70
4
71
3
72
8
73
4
40
0
40
0
40
0
40
0
40
1
40
1
40
1
40
1
41
1
10
26.1728414789748
20
-15.0596602820651
30
0
41
1
10
26.1772984033188
20
-15.0537136212129
30
0
41
1
10
26.1817553532875
20
-15.0477669502358
30
0
41
1
10
26.1862123299376
20
-15.0418202687175
30
0
0
SPLINE
5
398
100
AcDbEntity
8
1
62
256
6
ByLayer
370
-1
48
1
60
0
100
AcDbSpline
70
4
71
3
72
8
73
4
40
0
40
0
40
0
40
0
40
1
40
1
40
1
40
1
41
1
10
28.7015123581272
20
-13.6269539773156
30
0
41
1
10
28.7082497005128
20
-13.6266038097577
30
0
41
1
10
28.7149870066297
20
-13.6262536670683
30
0
41
1
10
28.721724277914
20
-13.6259035482615
30
0
0
SPLINE
5
399
100
AcDbEntity
8
1
62
256
6
ByLayer
370
-1
48
1
60
0
100
AcDbSpline
70
4
71
3
72
8
73
4
40
0
40
0
40
0
40
0
40
1
40
1
40
1
40
1
41
1
10
27.6383465200832
20
-12.60507295093
30
0
41
1
10
27.6405551325688
20
-12.5998344702517
30
0
41
1
10
27.6427637342526
20
-12.5945960419307
30
0
41
1
10
27.6449723255622
20
-12.5893576638929
30
0
0
SPLINE
5
39A
100
AcDbEntity
8
1
62
256
6
ByLayer
370
-1
48
1
60
0
100
AcDbSpline
70
4
71
3
72
8
73
4
40
0
40
0
40
0
40
0
40
1
40
1
40
1
40
1
41
1
10
26.86040981588
20
-15.4146768146065
30
0
41
1
10
26.8583447098941
20
-15.421946290488
30
0
41
1
10
26.8562796171391
20
-15.4292157483897
30
0
41
1
10
26.8542145370912
20
-15.4364851890225
30
0
0
SPLINE
5
39B
100
AcDbEntity
8
1
62
256
6
ByLayer
370
-1
48
1
60
0
100
AcDbSpline
70
4
71
3
72
30
73
26
40
0
40
0
40
0
40
0
40
0.0515194889309888
40
0.0515194889309888
40
0.0928771460763363
40
0.0928771460763363
40
0.148185150442215
40
0.148185150442215
40
0.203338923043296
40
0.203338923043296
40
0.287955708682705
40
0.287955708682705
40
0.37242721453265
40
0.37242721453265
40
0.435367147735172
40
0.435367147735172
40
0.498971020782843
40
0.498971020782843
40
0.7013343480389
40
0.7013343480389
40
0.838887327921267
40
0.838887327921267
40
0.92500666459702
40
0.92500666459702
40
1
40
1
40
1
40
1
41
1
10
25.797243977836
20
-14.3927957882209
30
0
41
1
10
25.8106201383423
20
-14.3879653957399
30
0
41
1
10
25.8246831624704
20
-14.3856976514543
30
0
41
1
10
25.8496501657883
20
-14.3852086153362
30
0
41
1
10
25.8607962310385
20
-14.3862616319623
30
0
41
1
10
25.8863266055463
20
-14.39096912813
30
0
41
1
10
25.9006744147181
20
-14.395393821382
30
0
41
1
10
25.928431558419
20
-14.4066580816878
30
0
41
1
10
25.9419368983613
20
-14.4135319036118
30
0
41
1
10
25.9750168406033
20
-14.4332698675803
30
0
41
1
10
25.9941492436003
20
-14.4474568442823
30
0
41
1
10
26.030363196083
20
-14.4789154513649
30
0
41
1
10
26.0475649083274
20
-14.4962945696618
30
0
41
1
10
26.0758329180788
20
-14.5287759161055
30
0
41
1
10
26.0873882551283
20
-14.5433847897709
30
0
41
1
10
26.1094553402458
20
-14.5739411914084
30
0
41
1
10
26.1199839342165
20
-14.589942061094
30
0
41
1
10
26.1609899074375
20
-14.658363772843
30
0
41
1
10
26.1865032113724
20
-14.7163306502158
30
0
41
1
10
26.2142129999311
20
-14.8172578556832
30
0
41
1
10
26.2215231419922
20
-14.8600513562989
30
0
41
1
10
26.2225357180562
20
-14.9288829504614
30
0
41
1
10
26.2202602491481
20
-14.9557149173565
30
0
41
1
10
26.2083078994519
20
-15.0029073918022
30
0
41
1
10
26.1993367564662
20
-15.024309119164
30
0
41
1
10
26.1862123299376
20
-15.0418202687175
30
0
0
SPLINE
5
39C
100
AcDbEntity
8
1
62
256
6
ByLayer
370
-1
48
1
60
0
100
AcDbSpline
70
4
71
3
72
34
73
30
40
0
40
0
40
0
40
0
40
0.0514465755209339
40
0.0514465755209339
40
0.135786144735405
40
0.135786144735405
40
0.203131635218864
40
0.203131635218864
40
0.270315608875096
40
0.270315608875096
40
0.337431278535932
40
0.337431278535932
40
0.404515897625525
40
0.404515897625525
40
0.49992988369086
40
0.49992988369086
40
0.599210771748151
40
0.599210771748151
40
0.697083019894242
40
0.697083019894242
40
0.78095722692277
40
0.78095722692277
40
0.847546414393287
40
0.847546414393287
40
0.898875235580385
40
0.898875235580385
40
0.980803570703584
40
0.980803570703584
40
1
40
1
40
1
40
1
41
1
10
26.86040981588
20
-12.608755083307
30
0
41
1
10
26.8645990601389
20
-12.6193407547657
30
0
41
1
10
26.871429302425
20
-12.6292099478744
30
0
41
1
10
26.8935161862327
20
-12.6524354992356
30
0
41
1
10
26.9116295163334
20
-12.6645414931706
30
0
41
1
10
26.9473449453899
20
-12.6827577294194
30
0
41
1
10
26.9646173990439
20
-12.6897184662248
30
0
41
1
10
27.0005561582314
20
-12.7017225738261
30
0
41
1
10
27.0193408283863
20
-12.7068057417
30
0
41
1
10
27.0578109315651
20
-12.7154158253306
30
0
41
1
10
27.0775813680365
20
-12.7189608637751
30
0
41
1
10
27.1176899418912
20
-12.724704259735
30
0
41
1
10
27.1380978093971
20
-12.7269120104047
30
0
41
1
10
27.1878611628518
20
-12.7307685374184
30
0
41
1
10
27.2175233189763
20
-12.7318054860337
30
0
41
1
10
27.2779208130224
20
-12.731519612431
30
0
41
1
10
27.3088452635758
20
-12.7300995626384
30
0
41
1
10
27.3693430508269
20
-12.7246463070942
30
0
41
1
10
27.399133034007
20
-12.7206355394389
30
0
41
1
10
27.4527769118035
20
-12.7104389539915
30
0
41
1
10
27.4770347933771
20
-12.7046165303578
30
0
41
1
10
27.5185391274958
20
-12.6917691627505
30
0
41
1
10
27.5363137443426
20
-12.6852028961874
30
0
41
1
10
27.5657749901302
20
-12.6717041404774
30
0
41
1
10
27.5779971139547
20
-12.6651630303901
30
0
41
1
10
27.6068135593615
20
-12.6463472775706
30
0
41
1
10
27.6223167523331
20
-12.6325718096956
30
0
41
1
10
27.6345987164563
20
-12.6129856180026
30
0
41
1
10
27.6366572243676
20
-12.6090796940881
30
0
41
1
10
27.6383465200832
20
-12.60507295093
30
0
0
SPLINE
5
39D
100
AcDbEntity
8
1
62
256
6
ByLayer
370
-1
48
1
60
0
100
AcDbSpline
70
4
71
3
72
8
73
4
40
0
40
0
40
0
40
0
40
1
40
1
40
1
40
1
41
1
10
27.6449723255622
20
-15.4327423718504
30
0
41
1
10
27.6427637342526
20
-15.4254931593719
30
0
41
1
10
27.6405551325688
20
-15.4182439297337
30
0
41
1
10
27.6383465200832
20
-15.4109946822295
30
0
0
SPLINE
5
39E
100
AcDbEntity
8
1
62
256
6
ByLayer
370
-1
48
1
60
0
100
AcDbSpline
70
4
71
3
72
24
73
20
40
0
40
0
40
0
40
0
40
0.0974021566269734
40
0.0974021566269734
40
0.180354031075301
40
0.180354031075301
40
0.307542616517159
40
0.307542616517159
40
0.412109117009526
40
0.412109117009526
40
0.516348967690765
40
0.516348967690765
40
0.620446917153323
40
0.620446917153323
40
0.724476829459894
40
0.724476829459894
40
0.933310901386061
40
0.933310901386061
40
1
40
1
40
1
40
1
41
1
10
25.7774625847393
20
-13.6398393366724
30
0
41
1
10
25.7637586940945
20
-13.640403694895
30
0
41
1
10
25.7493045673201
20
-13.6440282386463
30
0
41
1
10
25.7240757795608
20
-13.6557317754141
30
0
41
1
10
25.7127749478255
20
-13.6631605136573
30
0
41
1
10
25.6866346395021
20
-13.6849677153375
30
0
41
1
10
25.6726035401663
20
-13.7012153828164
30
0
41
1
10
25.6506235566252
20
-13.7327284575192
30
0
41
1
10
25.6418476138928
20
-13.7479104131608
30
0
41
1
10
25.626364429099
20
-13.7789904202938
30
0
41
1
10
25.6196034362222
20
-13.7949863362015
30
0
41
1
10
25.6077490448384
20
-13.8273661601162
30
0
41
1
10
25.6026346635043
20
-13.8438071122757
30
0
41
1
10
25.5938237970247
20
-13.8768949031109
30
0
41
1
10
25.5901177823477
20
-13.8935790287982
30
0
41
1
10
25.580879931272
20
-13.9438334504055
30
0
41
1
10
25.5772060123784
20
-13.9776877335301
30
0
41
1
10
25.5753109062169
20
-14.0221219031158
30
0
41
1
10
25.5750820831052
20
-14.0328806292179
30
0
41
1
10
25.5750820831052
20
-14.0436178660679
30
0
0
SPLINE
5
39F
100
AcDbEntity
8
1
62
256
6
ByLayer
370
-1
48
1
60
0
100
AcDbSpline
70
4
71
3
72
34
73
30
40
0
40
0
40
0
40
0
40
0.0514465755209363
40
0.0514465755209363
40
0.135786144735408
40
0.135786144735408
40
0.20313163521886
40
0.20313163521886
40
0.270315608875087
40
0.270315608875087
40
0.337431278535918
40
0.337431278535918
40
0.404515897625499
40
0.404515897625499
40
0.49992988369086
40
0.49992988369086
40
0.599210771748143
40
0.599210771748143
40
0.697083019894235
40
0.697083019894235
40
0.780957226922762
40
0.780957226922762
40
0.847546414393277
40
0.847546414393277
40
0.898875235580388
40
0.898875235580388
40
0.980803570703582
40
0.980803570703582
40
1
40
1
40
1
40
1
41
1
10
27.6383465200832
20
-15.4109946822295
30
0
41
1
10
27.6338661606057
20
-15.3962889631541
30
0
41
1
10
27.6267452249735
20
-15.3823056930335
30
0
41
1
10
27.6039373337911
20
-15.3488759870029
30
0
41
1
10
27.5854080230136
20
-15.3308827701159
30
0
41
1
10
27.5490293761322
20
-15.3032802536406
30
0
41
1
10
27.5314874508687
20
-15.2925057833319
30
0
41
1
10
27.4950660369406
20
-15.273670839045
30
0
41
1
10
27.4760665351141
20
-15.2655472368001
30
0
41
1
10
27.4372216115946
20
-15.2516324574562
30
0
41
1
10
27.417290354282
20
-15.2458113802425
30
0
41
1
10
27.3769150366133
20
-15.2362928562733
30
0
41
1
10
27.3564007868231
20
-15.232579515896
30
0
41
1
10
27.3064469715201
20
-15.2260274517387
30
0
41
1
10
27.2767284965646
20
-15.2241934432285
30
0
41
1
10
27.2163310025185
20
-15.2244793168312
30
0
41
1
10
27.1854675255137
20
-15.2267623030426
30
0
41
1
10
27.1252098675275
20
-15.2356140205778
30
0
41
1
10
27.0955980518439
20
-15.2421463278941
30
0
41
1
10
27.0423901413921
20
-15.2585130003228
30
0
41
1
10
27.0183762815553
20
-15.2677889746874
30
0
41
1
10
26.9773831668538
20
-15.2878714444374
30
0
41
1
10
26.9598620193759
20
-15.2980249706248
30
0
41
1
10
26.930895186376
20
-15.3185209703753
30
0
41
1
10
26.9189048805373
20
-15.3283429159508
30
0
41
1
10
26.8907240518168
20
-15.356154320139
30
0
41
1
10
26.8756585545663
20
-15.3761243360766
30
0
41
1
10
26.8639382657969
20
-15.4036597144
30
0
41
1
10
26.8619893481505
20
-15.4091166294039
30
0
41
1
10
26.86040981588
20
-15.4146768146065
30
0
0
SPLINE
5
3A0
100
AcDbEntity
8
1
62
256
6
ByLayer
370
-1
48
1
60
0
100
AcDbSpline
70
4
71
3
72
22
73
18
40
0
40
0
40
0
40
0
40
0.0973712659846847
40
0.0973712659846847
40
0.180296832630704
40
0.180296832630704
40
0.307445080802983
40
0.307445080802983
40
0.411978418514806
40
0.411978418514806
40
0.51618521001097
40
0.51618521001097
40
0.620250145291772
40
0.620250145291772
40
0.829289859625885
40
0.829289859625885
40
1
40
1
40
1
40
1
41
1
10
27.6449723255622
20
-12.5893576638929
30
0
41
1
10
27.6506416969106
20
-12.5790244850258
30
0
41
1
10
27.659438012576
20
-12.5695705622326
30
0
41
1
10
27.6797719835988
20
-12.5556448655803
30
0
41
1
10
27.6909043787537
20
-12.5504548242828
30
0
41
1
10
27.7209111289137
20
-12.5406790817738
30
0
41
1
10
27.7411968631145
20
-12.5376233936075
30
0
41
1
10
27.7784985628654
20
-12.5357902851723
30
0
41
1
10
27.7957619927876
20
-12.5363249899074
30
0
41
1
10
27.8301096461616
20
-12.539374951954
30
0
41
1
10
27.847304324161
20
-12.541895707512
30
0
41
1
10
27.8813598760503
20
-12.5484510053466
30
0
41
1
10
27.8982809792138
20
-12.5524969096457
30
0
41
1
10
27.9485118666784
20
-12.5665070310337
30
0
41
1
10
27.981401430262
20
-12.5783659712755
30
0
41
1
10
28.0392334597773
20
-12.6032739381633
30
0
41
1
10
28.0646466216471
20
-12.6157687498854
30
0
41
1
10
28.0892616975281
20
-12.6293818118756
30
0
0
SPLINE
5
3A1
100
AcDbEntity
8
1
62
256
6
ByLayer
370
-1
48
1
60
0
100
AcDbSpline
70
4
71
3
72
8
73
4
40
0
40
0
40
0
40
0
40
1
40
1
40
1
40
1
41
1
10
26.8542145370912
20
-12.593100481065
30
0
41
1
10
26.8562796171392
20
-12.5983186309486
30
0
41
1
10
26.8583447098941
20
-12.603536831006
30
0
41
1
10
26.86040981588
20
-12.608755083307
30
0
0
SPLINE
5
3A2
100
AcDbEntity
8
1
62
256
6
ByLayer
370
-1
48
1
60
0
100
AcDbSpline
70
4
71
3
72
24
73
20
40
0
40
0
40
0
40
0
40
0.0380198325518506
40
0.0380198325518506
40
0.246834654674957
40
0.246834654674957
40
0.404726505663384
40
0.404726505663384
40
0.526150637962923
40
0.526150637962923
40
0.621531995503736
40
0.621531995503736
40
0.776890538332165
40
0.776890538332165
40
0.873684213898041
40
0.873684213898041
40
0.971746172255049
40
0.971746172255049
40
1
40
1
40
1
40
1
41
1
10
26.4131419545795
20
-15.4419870901185
30
0
41
1
10
26.4076536353809
20
-15.4389518433522
30
0
41
1
10
26.4022019120989
20
-15.4358477486319
30
0
41
1
10
26.3671115229852
20
-15.4152849900934
30
0
41
1
10
26.3385058581518
20
-15.3958260708976
30
0
41
1
10
26.2911530053129
20
-15.3581033836472
30
0
41
1
10
26.2716172556213
20
-15.3406321938875
30
0
41
1
10
26.2393892752366
20
-15.3074583053533
30
0
41
1
10
26.2261072060893
20
-15.2922235914466
30
0
41
1
10
26.2043755857669
20
-15.263515875518
30
0
41
1
10
26.1954658148751
20
-15.2503168288721
30
0
41
1
10
26.1746993013747
20
-15.21434940562
30
0
41
1
10
26.1641355865452
20
-15.19022089292
30
0
41
1
10
26.1548945742965
20
-15.1495615990176
30
0
41
1
10
26.1532519873411
20
-15.1332633633671
30
0
41
1
10
26.1554422280791
20
-15.1014835292301
30
0
41
1
10
26.1594691578787
20
-15.0855808429973
30
0
41
1
10
26.1682053414521
20
-15.0674608281542
30
0
41
1
10
26.1704211720345
20
-15.0634791350577
30
0
41
1
10
26.1728414789748
20
-15.0596602820651
30
0
0
SPLINE
5
3A3
100
AcDbEntity
8
1
62
256
6
ByLayer
370
-1
48
1
60
0
100
AcDbSpline
70
4
71
3
72
22
73
18
40
0
40
0
40
0
40
0
40
0.0973712659846924
40
0.0973712659846924
40
0.180296832630713
40
0.180296832630713
40
0.307445080803012
40
0.307445080803012
40
0.411978418514851
40
0.411978418514851
40
0.51618521001103
40
0.51618521001103
40
0.620250145291839
40
0.620250145291839
40
0.829289859625956
40
0.829289859625956
40
1
40
1
40
1
40
1
41
1
10
28.721724277914
20
-13.6259035482615
30
0
41
1
10
28.7357195330442
20
-13.6263368008029
30
0
41
1
10
28.7504629188894
20
-13.6298231467986
30
0
41
1
10
28.7761679324047
20
-13.6412856035432
30
0
41
1
10
28.7876706013162
20
-13.6486064081876
30
0
41
1
10
28.8142578793373
20
-13.6701640394956
30
0
41
1
10
28.8285097102933
20
-13.6862778381228
30
0
41
1
10
28.8508192718149
20
-13.7175812814163
30
0
41
1
10
28.859719742681
20
-13.7326795710032
30
0
41
1
10
28.8754154473653
20
-13.7636120021216
30
0
41
1
10
28.8822651327315
20
-13.7795434959263
30
0
41
1
10
28.8942709755548
20
-13.8118103845079
30
0
41
1
10
28.8994483497673
20
-13.8282026236982
30
0
41
1
10
28.9128456745475
20
-13.8777879052803
30
0
41
1
10
28.9189717940162
20
-13.9114971441169
30
0
41
1
10
28.9258160713853
20
-13.9726785660185
30
0
41
1
10
28.9273215690023
20
-14.0002918956416
30
0
41
1
10
28.9273215690023
20
-14.0277510359262
30
0
0
SPLINE
5
3A4
100
AcDbEntity
8
1
62
256
6
ByLayer
370
-1
48
1
60
0
100
AcDbSpline
70
4
71
3
72
8
73
4
40
0
40
0
40
0
40
0
40
1
40
1
40
1
40
1
41
1
10
28.3263453836785
20
-12.9661825708503
30
0
41
1
10
28.321744948073
20
-12.9700981691076
30
0
41
1
10
28.3171444891754
20
-12.974013810504
30
0
41
1
10
28.3125440060256
20
-12.977929496819
30
0
0
SPLINE
5
3A5
100
AcDbEntity
8
1
62
256
6
ByLayer
370
-1
48
1
60
0
100
AcDbSpline
70
4
71
3
72
24
73
20
40
0
40
0
40
0
40
0
40
0.0380198325518711
40
0.0380198325518711
40
0.246834654674986
40
0.246834654674986
40
0.404726505663405
40
0.404726505663405
40
0.526150637962938
40
0.526150637962938
40
0.62153199550375
40
0.62153199550375
40
0.776890538332175
40
0.776890538332175
40
0.87368421389805
40
0.87368421389805
40
0.971746172255058
40
0.971746172255058
40
1
40
1
40
1
40
1
41
1
10
28.9273215690023
20
-14.0277510359262
30
0
41
1
10
28.9273215690023
20
-14.0338734841173
30
0
41
1
10
28.927246305988
20
-14.0399909413052
30
0
41
1
10
28.9262693760962
20
-14.0796007404388
30
0
41
1
10
28.9231936052086
20
-14.1129782257165
30
0
41
1
10
28.9134701698805
20
-14.1703994862506
30
0
41
1
10
28.9078547730732
20
-14.1948401057069
30
0
41
1
10
28.8949649545602
20
-14.2368104303546
30
0
41
1
10
28.8883504643625
20
-14.2547004673846
30
0
41
1
10
28.8744011622695
20
-14.2853587822258
30
0
41
1
10
28.867500238396
20
-14.2984527614513
30
0
41
1
10
28.847136735728
20
-14.3308332651095
30
0
41
1
10
28.8319789092369
20
-14.3493974824605
30
0
41
1
10
28.8027368170627
20
-14.3724422245103
30
0
41
1
10
28.7901253331105
20
-14.3796932461578
30
0
41
1
10
28.7632419114002
20
-14.3885657982875
30
0
41
1
10
28.748544877472
20
-14.390141161892
30
0
41
1
10
28.7300531367366
20
-14.3878513461183
30
0
41
1
10
28.7258651065917
20
-14.3870565951915
30
0
41
1
10
28.721724277914
20
-14.386003516243
30
0
0
SPLINE
5
3A6
100
AcDbEntity
8
SK1
62
256
6
ByLayer
370
-1
48
1
60
0
100
AcDbSpline
70
4
71
3
72
12
73
8
40
0
40
0
40
0
40
0
40
0.251561002492943
40
0.251561002492943
40
0.588763636038758
40
0.588763636038758
40
1
40
1
40
1
40
1
41
1
10
-0.324519052838326
20
11.2870970646864
30
0
41
1
10
-0.324519052838326
20
11.2809717724672
30
0
41
1
10
-0.321830564729424
20
11.2721544185541
30
0
41
1
10
-0.311783905665436
20
11.2488858988507
30
0
41
1
10
-0.303040046844444
20
11.233130052326
30
0
41
1
10
-0.280462905468482
20
11.1967839784475
30
0
41
1
10
-0.265599590265111
20
11.1753391305968
30
0
41
1
10
-0.249519052838338
20
11.1538370998082
30
0
0
SPLINE
5
3A7
100
AcDbEntity
8
SK1
62
256
6
ByLayer
370
-1
48
1
60
0
100
AcDbSpline
70
4
71
3
72
12
73
8
40
0
40
0
40
0
40
0
40
0.611477950353723
40
0.611477950353723
40
0.935411090682494
40
0.935411090682494
40
1
40
1
40
1
40
1
41
1
10
-0.249519052838338
20
12.2621047787412
30
0
41
1
10
-0.274190130421346
20
12.2215879420259
30
0
41
1
10
-0.295383344688901
20
12.1801344497154
30
0
41
1
10
-0.316764056377792
20
12.1218289168027
30
0
41
1
10
-0.322284587431
20
12.1020353371979
30
0
41
1
10
-0.324333683352052
20
12.0816145976006
30
0
41
1
10
-0.324519052838326
20
12.0782908502088
30
0
41
1
10
-0.324519052838326
20
12.0751167702267
30
0
0
SPLINE
5
3A8
100
AcDbEntity
8
SK1
62
256
6
ByLayer
370
-1
48
1
60
0
100
AcDbSpline
70
4
71
3
72
8
73
4
40
0
40
0
40
0
40
0
40
1
40
1
40
1
40
1
41
1
10
0
20
12.6668961944433
30
0
41
1
10
-0.0838355637597772
20
12.5325135403374
30
0
41
1
10
-0.167022275036572
20
12.3975876519351
30
0
41
1
10
-0.249519052838338
20
12.2621047787412
30
0
0
SPLINE
5
3A9
100
AcDbEntity
8
SK1
62
256
6
ByLayer
370
-1
48
1
60
0
100
AcDbSpline
70
4
71
3
72
8
73
4
40
0
40
0
40
0
40
0
40
1
40
1
40
1
40
1
41
1
10
-0.249519052838338
20
11.9182788072984
30
0
41
1
10
-0.166346719817398
20
11.9862883889892
30
0
41
1
10
-0.0831736906827416
20
12.0542968356096
30
0
41
1
10
-1.705E-13
20
12.1223042034428
30
0
0
SPLINE
5
3AA
100
AcDbEntity
8
SK1
62
256
6
ByLayer
370
-1
48
1
60
0
100
AcDbSpline
70
4
71
3
72
16
73
12
40
0
40
0
40
0
40
0
40
0.223519816302455
40
0.223519816302455
40
0.452376597437468
40
0.452376597437468
40
0.646909670397371
40
0.646909670397371
40
0.814333814843235
40
0.814333814843235
40
1
40
1
40
1
40
1
41
1
10
-0.324519052838326
20
11.9235539298782
30
0
41
1
10
-0.324519052838326
20
11.915855906094
30
0
41
1
10
-0.323494171513204
20
11.9088614311705
30
0
41
1
10
-0.318560631741548
20
11.8977922506079
30
0
41
1
10
-0.314449011681205
20
11.8936807218499
30
0
41
1
10
-0.303865702739188
20
11.8906936552203
30
0
41
1
10
-0.297674569518222
20
11.8911224689025
30
0
41
1
10
-0.284967008336707
20
11.8951105037258
30
0
41
1
10
-0.278482235660164
20
11.8982411562844
30
0
41
1
10
-0.264577705313059
20
11.9066384381346
30
0
41
1
10
-0.257000173237088
20
11.9121615342772
30
0
41
1
10
-0.249519052838338
20
11.9182788072984
30
0
0
SPLINE
5
3AB
100
AcDbEntity
8
SK1
62
256
6
ByLayer
370
-1
48
1
60
0
100
AcDbSpline
70
4
71
3
72
18
73
14
40
0
40
0
40
0
40
0
40
0.172223072293736
40
0.172223072293736
40
0.348554644801096
40
0.348554644801096
40
0.508994427616933
40
0.508994427616933
40
0.653248059591175
40
0.653248059591175
40
0.894116896825175
40
0.894116896825175
40
1
40
1
40
1
40
1
41
1
10
-0.249519052838338
20
10.58784913972
30
0
41
1
10
-0.256624125900771
20
10.581890477471
30
0
41
1
10
-0.263916871197694
20
10.576569321337
30
0
41
1
10
-0.278263796249405
20
10.5683629006761
30
0
41
1
10
-0.285493770762798
20
10.5654766781704
30
0
41
1
10
-0.297718643913498
20
10.563632689003
30
0
41
1
10
-0.303003391544507
20
10.5643417105073
30
0
41
1
10
-0.311124375499162
20
10.568387889682
30
0
41
1
10
-0.314264420251647
20
10.5714672130275
30
0
41
1
10
-0.320712474734506
20
10.5816150625934
30
0
41
1
10
-0.322915566732576
20
10.5900796988655
30
0
41
1
10
-0.324323233828693
20
10.6034400343271
30
0
41
1
10
-0.324519052838326
20
10.6077373529357
30
0
41
1
10
-0.324519052838326
20
10.6121642197711
30
0
0
SPLINE
5
3AC
100
AcDbEntity
8
SK1
62
256
6
ByLayer
370
-1
48
1
60
0
100
AcDbSpline
70
4
71
3
72
10
73
6
40
0
40
0
40
0
40
0
40
0.672113832334819
40
0.672113832334819
40
1
40
1
40
1
40
1
41
1
10
-0.249519052838338
20
9.96605046147944
30
0
41
1
10
-0.27597925275208
20
10.0311135920769
30
0
41
1
10
-0.298553889447675
20
10.0973141147955
30
0
41
1
10
-0.319512932611474
20
10.1900214286366
30
0
41
1
10
-0.324519052838326
20
10.2202322420763
30
0
41
1
10
-0.324519052838326
20
10.2467676740947
30
0
0
SPLINE
5
3AD
100
AcDbEntity
8
SK1
62
256
6
ByLayer
370
-1
48
1
60
0
100
AcDbSpline
70
4
71
3
72
8
73
4
40
0
40
0
40
0
40
0
40
1
40
1
40
1
40
1
41
1
10
0
20
10.7970023247567
30
0
41
1
10
-0.0831872444597366
20
10.7273072321292
30
0
41
1
10
-0.166360542854221
20
10.6575899389725
30
0
41
1
10
-0.249519052838338
20
10.58784913972
30
0
0
SPLINE
5
3AE
100
AcDbEntity
8
SK1
62
256
6
ByLayer
370
-1
48
1
60
0
100
AcDbSpline
70
4
71
3
72
8
73
4
40
0
40
0
40
0
40
0
40
1
40
1
40
1
40
1
41
1
10
-0.249519052838338
20
11.0363958758218
30
0
41
1
10
-0.167367184647247
20
11.1927426654551
30
0
41
1
10
-0.0841721835889757
20
11.3483643383456
30
0
41
1
10
0
20
11.5032716737805
30
0
0
SPLINE
5
3AF
100
AcDbEntity
8
SK1
62
256
6
ByLayer
370
-1
48
1
60
0
100
AcDbSpline
70
4
71
3
72
12
73
8
40
0
40
0
40
0
40
0
40
0.338044880742173
40
0.338044880742173
40
0.91891578497652
40
0.91891578497652
40
1
40
1
40
1
40
1
41
1
10
-0.324519052838326
20
10.8102522591258
30
0
41
1
10
-0.324519052838326
20
10.8317737701923
30
0
41
1
10
-0.319752750476852
20
10.8567320032912
30
0
41
1
10
-0.300886455802925
20
10.9253984336921
30
0
41
1
10
-0.282024251336054
20
10.9716765444129
30
0
41
1
10
-0.256172497122378
20
11.0235664040227
30
0
41
1
10
-0.252887679852478
20
11.0299848953933
30
0
41
1
10
-0.249519052838338
20
11.0363958758218
30
0
0
SPLINE
5
3B0
100
AcDbEntity
8
SK1
62
256
6
ByLayer
370
-1
48
1
60
0
100
AcDbSpline
70
4
71
3
72
8
73
4
40
0
40
0
40
0
40
0
40
1
40
1
40
1
40
1
41
1
10
-0.134718740348489
20
9.66508010295944
30
0
41
1
10
-0.170783341757215
20
9.76644071174253
30
0
41
1
10
-0.209141129552336
20
9.8667649645988
30
0
41
1
10
-0.249519052838167
20
9.96605046147953
30
0
0
SPLINE
5
3B1
100
AcDbEntity
8
SK1
62
256
6
ByLayer
370
-1
48
1
60
0
100
AcDbSpline
70
4
71
3
72
8
73
4
40
0
40
0
40
0
40
0
40
1
40
1
40
1
40
1
41
1
10
0
20
-14.9482527139731
30
0
41
1
10
-0.0832126381486376
20
-14.873792568142
30
0
41
1
10
-0.166386250755409
20
-14.7992742322958
30
0
41
1
10
-0.249519052838338
20
-14.7246952776827
30
0
0
SPLINE
5
3B2
100
AcDbEntity
8
SK1
62
256
6
ByLayer
370
-1
48
1
60
0
100
AcDbSpline
70
4
71
3
72
14
73
10
40
0
40
0
40
0
40
0
40
0.225082205499667
40
0.225082205499667
40
0.449512004199642
40
0.449512004199642
40
0.764014622927857
40
0.764014622927857
40
1
40
1
40
1
40
1
41
1
10
-0.324519052838326
20
14.9996597183625
30
0
41
1
10
-0.324519052838326
20
14.9995706609175
30
0
41
1
10
-0.322689533436346
20
15.0012912449391
30
0
41
1
10
-0.316015219588536
20
15.0077346328535
30
0
41
1
10
-0.311120086899564
20
15.0125052023955
30
0
41
1
10
-0.297117674833743
20
15.0262190654441
30
0
41
1
10
-0.286914207136022
20
15.0362582213524
30
0
41
1
10
-0.267592059406866
20
15.0553330871755
30
0
41
1
10
-0.258689320918592
20
15.0641407362349
30
0
41
1
10
-0.249519052838338
20
15.0732309630904
30
0
0
SPLINE
5
3B3
100
AcDbEntity
8
SK1
62
256
6
ByLayer
370
-1
48
1
60
0
100
AcDbSpline
70
4
71
3
72
8
73
4
40
0
40
0
40
0
40
0
40
1
40
1
40
1
40
1
41
1
10
-0.249519052838338
20
-14.3134143619746
30
0
41
1
10
-0.166368872792589
20
-14.3851213455646
30
0
41
1
10
-0.0831955184465016
20
-14.4567925119085
30
0
41
1
10
0
20
-14.5284293439037
30
0
0
SPLINE
5
3B4
100
AcDbEntity
8
SK1
62
256
6
ByLayer
370
-1
48
1
60
0
100
AcDbSpline
70
4
71
3
72
18
73
14
40
0
40
0
40
0
40
0
40
0.386183430842337
40
0.386183430842337
40
0.514820286850171
40
0.514820286850171
40
0.645396888331351
40
0.645396888331351
40
0.747242681999626
40
0.747242681999626
40
0.848650636261758
40
0.848650636261758
40
1
40
1
40
1
40
1
41
1
10
-0.324519052838326
20
-9.77023188350533
30
0
41
1
10
-0.324519052838326
20
-9.79153802649329
30
0
41
1
10
-0.322957664247895
20
-9.81247242589869
30
0
41
1
10
-0.315136264488984
20
-9.83476789536455
30
0
41
1
10
-0.312611496504474
20
-9.83992906433897
30
0
41
1
10
-0.306092755987464
20
-9.84829527065543
30
0
41
1
10
-0.301965682614565
20
-9.85153938362268
30
0
41
1
10
-0.293300006518791
20
-9.85429750751432
30
0
41
1
10
-0.28895375851252
20
-9.85448066178088
30
0
41
1
10
-0.279900931556682
20
-9.85273890146657
30
0
41
1
10
-0.275100160245557
20
-9.85082107287573
30
0
41
1
10
-0.263317941584774
20
-9.84426015761947
30
0
41
1
10
-0.256230832693348
20
-9.83869428208403
30
0
41
1
10
-0.249519052838338
20
-9.83243528515885
30
0
0
SPLINE
5
3B5
100
AcDbEntity
8
SK1
62
256
6
ByLayer
370
-1
48
1
60
0
100
AcDbSpline
70
4
71
3
72
8
73
4
40
0
40
0
40
0
40
0
40
1
40
1
40
1
40
1
41
1
10
-0.312797616825691
20
-9.24583754072133
30
0
41
1
10
-0.319673728478108
20
-9.29988861568627
30
0
41
1
10
-0.324519052838326
20
-9.3532426018141
30
0
41
1
10
-0.324519052838326
20
-9.40403859715072
30
0
0
SPLINE
5
3B6
100
AcDbEntity
8
SK1
62
256
6
ByLayer
370
-1
48
1
60
0
100
AcDbSpline
70
4
71
3
72
8
73
4
40
0
40
0
40
0
40
0
40
1
40
1
40
1
40
1
41
1
10
-0.249519052838338
20
-14.9752953674924
30
0
41
1
10
-0.166408710993636
20
-15.0534127820965
30
0
41
1
10
-0.0832347511398268
20
-15.1314400306485
30
0
41
1
10
0
20
-15.2093806317287
30
0
0
SPLINE
5
3B7
100
AcDbEntity
8
SK1
62
256
6
ByLayer
370
-1
48
1
60
0
100
AcDbSpline
70
4
71
3
72
14
73
10
40
0
40
0
40
0
40
0
40
0.417860489625097
40
0.417860489625097
40
0.689859669320704
40
0.689859669320704
40
0.912834256223403
40
0.912834256223403
40
1
40
1
40
1
40
1
41
1
10
-0.249519052838338
20
-15.0214883413626
30
0
41
1
10
-0.265664255983779
20
-15.004498120824
30
0
41
1
10
-0.281004074694863
20
-14.9880038952575
30
0
41
1
10
-0.301973951558466
20
-14.9645587460434
30
0
41
1
10
-0.309282613743022
20
-14.9561008258872
30
0
41
1
10
-0.319079843824113
20
-14.9439528413704
30
0
41
1
10
-0.322270228088769
20
-14.9395811169141
30
0
41
1
10
-0.324232442548663
20
-14.9359038201485
30
0
41
1
10
-0.324519052838326
20
-14.9351204714728
30
0
41
1
10
-0.324519052838326
20
-14.9346208709157
30
0
0
SPLINE
5
3B8
100
AcDbEntity
8
SK1
62
256
6
ByLayer
370
-1
48
1
60
0
100
AcDbSpline
70
4
71
3
72
8
73
4
40
0
40
0
40
0
40
0
40
1
40
1
40
1
40
1
41
1
10
0
20
-15.2831691478176
30
0
41
1
10
-0.0832998626783876
20
-15.1961037513836
30
0
41
1
10
-0.166474933778971
20
-15.1088788736801
30
0
41
1
10
-0.249519052838338
20
-15.0214883413626
30
0
0
SPLINE
5
3B9
100
AcDbEntity
8
SK1
62
256
6
ByLayer
370
-1
48
1
60
0
100
AcDbSpline
70
4
71
3
72
14
73
10
40
0
40
0
40
0
40
0
40
0.218845874270949
40
0.218845874270949
40
0.437903031449711
40
0.437903031449711
40
0.721814481933187
40
0.721814481933187
40
1
40
1
40
1
40
1
41
1
10
-0.324519052838326
20
-14.9143113409685
30
0
41
1
10
-0.324519052838326
20
-14.9129700326711
30
0
41
1
10
-0.322883758330306
20
-14.9132179204173
30
0
41
1
10
-0.316673013793519
20
-14.9168157131879
30
0
41
1
10
-0.312032244587812
20
-14.9201969262299
30
0
41
1
10
-0.299171360011087
20
-14.9304767553727
30
0
41
1
10
-0.29012866367458
20
-14.938243947149
30
0
41
1
10
-0.270771537989702
20
-14.9555247602283
30
0
41
1
10
-0.26028669436846
20
-14.9651746015438
30
0
41
1
10
-0.249519052838338
20
-14.9752953674924
30
0
0
SPLINE
5
3BA
100
AcDbEntity
8
SK1
62
256
6
ByLayer
370
-1
48
1
60
0
100
AcDbSpline
70
4
71
3
72
8
73
4
40
0
40
0
40
0
40
0
40
1
40
1
40
1
40
1
41
1
10
-0.249519052838338
20
-14.8184996647002
30
0
41
1
10
-0.166524149326051
20
-14.9118852033362
30
0
41
1
10
-0.0833481825888214
20
-15.0050566253247
30
0
41
1
10
0
20
-15.0980216982492
30
0
0
SPLINE
5
3BB
100
AcDbEntity
8
SK1
62
256
6
ByLayer
370
-1
48
1
60
0
100
AcDbSpline
70
4
71
3
72
8
73
4
40
0
40
0
40
0
40
0
40
1
40
1
40
1
40
1
41
1
10
-0.249519052838338
20
15.0732309630904
30
0
41
1
10
-0.166437562506246
20
15.1555872898628
30
0
41
1
10
-0.0832631335832161
20
15.2378187585574
30
0
41
1
10
0
20
15.3199301304152
30
0
0
SPLINE
5
3BC
100
AcDbEntity
8
1
62
256
6
ByLayer
370
-1
48
1
60
0
100
AcDbSpline
70
4
71
3
72
12
73
8
40
0
40
0
40
0
40
0
40
0.404644073901353
40
0.404644073901353
40
0.809285947755721
40
0.809285947755721
40
1
40
1
40
1
40
1
41
1
10
22.6988736992669
20
-17.0641123213662
30
0
41
1
10
22.6988736992669
20
-17.1181595628661
30
0
41
1
10
22.7085338946951
20
-17.1729180566476
30
0
41
1
10
22.7455734564292
20
-17.274787942225
30
0
41
1
10
22.7734633761762
20
-17.3233040845859
30
0
41
1
10
22.8250688745124
20
-17.3854398474739
30
0
41
1
10
22.8434540015143
20
-17.4042569846191
30
0
41
1
10
22.8632170139528
20
-17.421477354506
30
0
0
SPLINE
5
3BD
100
AcDbEntity
8
1
62
256
6
ByLayer
370
-1
48
1
60
0
100
AcDbSpline
70
4
71
3
72
8
73
4
40
0
40
0
40
0
40
0
40
1
40
1
40
1
40
1
41
1
10
23.1931947459697
20
-17.5195752736869
30
0
41
1
10
23.1928674486192
20
-17.5195334243282
30
0
41
1
10
23.1925397962008
20
-17.5194914679192
30
0
41
1
10
23.1922117941146
20
-17.5194494029736
30
0
0
SPLINE
5
3BE
100
AcDbEntity
8
1
62
256
6
ByLayer
370
-1
48
1
60
0
100
AcDbSpline
70
4
71
3
72
10
73
6
40
0
40
0
40
0
40
0
40
0.722254617258793
40
0.722254617258793
40
1
40
1
40
1
40
1
41
1
10
22.9666334467427
20
-17.4678449382479
30
0
41
1
10
23.0165381236385
20
-17.4921615696966
30
0
41
1
10
23.071508725554
20
-17.5084741975072
30
0
41
1
10
23.1485901637136
20
-17.5181415458612
30
0
41
1
10
23.170422801947
20
-17.5194861163459
30
0
41
1
10
23.1922117941135
20
-17.5194494029736
30
0
0
SPLINE
5
3BF
100
AcDbEntity
8
1
62
256
6
ByLayer
370
-1
48
1
60
0
100
AcDbSpline
70
4
71
3
72
10
73
6
40
0
40
0
40
0
40
0
40
0.638091248905424
40
0.638091248905424
40
1
40
1
40
1
40
1
41
1
10
22.9666334467427
20
-17.4678449382479
30
0
41
1
10
22.9385978312875
20
-17.4574756514364
30
0
41
1
10
22.913831232653
20
-17.446361552474
30
0
41
1
10
22.8820950107051
20
-17.4309769815108
30
0
41
1
10
22.8718623344524
20
-17.4257459290082
30
0
41
1
10
22.8632170139509
20
-17.4214773545037
30
0
0
SPLINE
5
3C0
100
AcDbEntity
8
1
62
256
6
ByLayer
370
-1
48
1
60
0
100
AcDbSpline
70
4
71
1
72
5
73
3
40
0
40
0
40
0.266143803595925
40
1
40
1
41
1.08358774580744
10
19.5439607336609
20
-11.6111926480525
30
0
41
1.08358774580744
10
19.5584923084118
20
-11.6819977773
30
0
41
1.08358774580744
10
19.5985611960972
20
-11.8772335187805
30
0
0
SPLINE
5
3C1
100
AcDbEntity
8
1
62
256
6
ByLayer
370
-1
48
1
60
0
100
AcDbSpline
70
4
71
3
72
24
73
20
40
0
40
0
40
0
40
0
40
0.104000448201681
40
0.104000448201681
40
0.192499055460823
40
0.192499055460823
40
0.328500518746462
40
0.328500518746462
40
0.438682575665087
40
0.438682575665087
40
0.548533158171523
40
0.548533158171523
40
0.658237202769573
40
0.658237202769573
40
0.767870673660696
40
0.767870673660696
40
0.988088331634063
40
0.988088331634063
40
1
40
1
40
1
40
1
41
1
10
32.109470882667
20
-5.62984269386266
30
0
41
1
10
32.1172606490926
20
-5.62544306241122
30
0
41
1
10
32.1250321279211
20
-5.62367095624799
30
0
41
1
10
32.1379000772804
20
-5.62559738477933
30
0
41
1
10
32.143386122574
20
-5.62849644231601
30
0
41
1
10
32.1556303635547
20
-5.63950335474563
30
0
41
1
10
32.1617583409069
20
-5.64964586641634
30
0
41
1
10
32.1709196027535
20
-5.67101222671241
30
0
41
1
10
32.1743949547576
20
-5.68183409641888
30
0
41
1
10
32.180368991849
20
-5.70482174046879
30
0
41
1
10
32.182887677135
20
-5.71705876172184
30
0
41
1
10
32.18721093519
20
-5.74243142569088
30
0
41
1
10
32.1890227554443
20
-5.75561352724854
30
0
41
1
10
32.1920885542555
20
-5.78261694685303
30
0
41
1
10
32.1933456869408
20
-5.79647110150964
30
0
41
1
10
32.1964239626845
20
-5.83880861704615
30
0
41
1
10
32.1975663486082
20
-5.8681422436069
30
0
41
1
10
32.1979425464666
20
-5.89957591387946
30
0
41
1
10
32.1979595398579
20
-5.90119468617478
30
0
41
1
10
32.1979741742681
20
-5.90281511890797
30
0
0
SPLINE
5
3C2
100
AcDbEntity
8
1
62
256
6
ByLayer
370
-1
48
1
60
0
100
AcDbSpline
70
4
71
3
72
22
73
18
40
0
40
0
40
0
40
0
40
0.208266363442864
40
0.208266363442864
40
0.31789916810559
40
0.31789916810559
40
0.427584739861962
40
0.427584739861962
40
0.537377253733117
40
0.537377253733117
40
0.647402228731108
40
0.647402228731108
40
0.811583680502358
40
0.811583680502358
40
0.906636022131551
40
0.906636022131551
40
1
40
1
40
1
40
1
41
1
10
32.1510222070447
20
-4.90604673857331
30
0
41
1
10
32.1524545852158
20
-4.91361710926458
30
0
41
1
10
32.1532530999979
20
-4.92310131383361
30
0
41
1
10
32.1533327326729
20
-4.9405071252734
30
0
41
1
10
32.1531500633944
20
-4.94706661553018
30
0
41
1
10
32.1522799531896
20
-4.96133098715929
30
0
41
1
10
32.151592068356
20
-4.96905163177085
30
0
41
1
10
32.1495718210668
20
-4.98575066265855
30
0
41
1
10
32.1482369158065
20
-4.99475653100205
30
0
41
1
10
32.1446960969099
20
-5.0141815533504
30
0
41
1
10
32.1424805049697
20
-5.02465682785227
30
0
41
1
10
32.1354805548145
20
-5.05249962449422
30
0
41
1
10
32.1298377966858
20
-5.071293967814
30
0
41
1
10
32.11766882571
20
-5.10279804985649
30
0
41
1
10
32.1123698654824
20
-5.11502430780865
30
0
41
1
10
32.1006553776918
20
-5.13864189196023
30
0
41
1
10
32.0941055088807
20
-5.15032651949855
30
0
41
1
10
32.0873828003313
20
-5.16092300085053
30
0
0
SPLINE
5
3C3
100
AcDbEntity
8
1
62
256
6
ByLayer
370
-1
48
1
60
0
100
AcDbSpline
70
4
71
3
72
22
73
18
40
0
40
0
40
0
40
0
40
0.208266363442893
40
0.208266363442893
40
0.317899168105612
40
0.317899168105612
40
0.427584739861972
40
0.427584739861972
40
0.537377253733119
40
0.537377253733119
40
0.647402228731102
40
0.647402228731102
40
0.81158368050236
40
0.81158368050236
40
0.906636022131554
40
0.906636022131554
40
1
40
1
40
1
40
1
41
1
10
32.1723215795343
20
-7.26447458437134
30
0
41
1
10
32.171144384049
20
-7.28515997342448
30
0
41
1
10
32.1692962053804
20
-7.30451439501891
30
0
41
1
10
32.1653384580201
20
-7.33139392657719
30
0
41
1
10
32.1637592713553
20
-7.34020644600696
30
0
41
1
10
32.1601073349774
20
-7.35668206377011
30
0
41
1
10
32.1580310055168
20
-7.36436402305266
30
0
41
1
10
32.1532620868332
20
-7.37829752735324
30
0
41
1
10
32.1505623989052
20
-7.38457235065154
30
0
41
1
10
32.144350465491
20
-7.39523191745194
30
0
41
1
10
32.1408210755318
20
-7.39964482243244
30
0
41
1
10
32.1307188679145
20
-7.40726266207558
30
0
41
1
10
32.1233085170679
20
-7.40896096738182
30
0
41
1
10
32.1089403208747
20
-7.40374660067172
30
0
41
1
10
32.102948283056
20
-7.40002976041686
30
0
41
1
10
32.0902698512769
20
-7.38889154742454
30
0
41
1
10
32.083433276899
20
-7.38137265727751
30
0
41
1
10
32.0766394790459
20
-7.37255885853405
30
0
0
SPLINE
5
3C4
100
AcDbEntity
8
1
62
256
6
ByLayer
370
-1
48
1
60
0
100
AcDbSpline
70
4
71
3
72
22
73
18
40
0
40
0
40
0
40
0
40
0.208266363442805
40
0.208266363442805
40
0.317899168105518
40
0.317899168105518
40
0.427584739861876
40
0.427584739861876
40
0.537377253733014
40
0.537377253733014
40
0.647402228730987
40
0.647402228730987
40
0.811583680502307
40
0.811583680502307
40
0.906636022131497
40
0.906636022131497
40
1
40
1
40
1
40
1
41
1
10
32.1979741742681
20
-5.90281511890797
30
0
41
1
10
32.1982293569538
20
-5.93107087865235
30
0
41
1
10
32.1977819576904
20
-5.95991246728988
30
0
41
1
10
32.1958764597109
20
-6.00420751337464
30
0
41
1
10
32.1949916311287
20
-6.01958383706322
30
0
41
1
10
32.1926883530759
20
-6.05033474033618
30
0
41
1
10
32.1912678533105
20
-6.06574395381571
30
0
41
1
10
32.1877565368565
20
-6.09639261238871
30
0
41
1
10
32.1856607116848
20
-6.1116828406192
30
0
41
1
10
32.1805788350013
20
-6.14179040529635
30
0
41
1
10
32.1775787453149
20
-6.15669208660451
30
0
41
1
10
32.1686368528943
20
-6.192192862346
30
0
41
1
10
32.1618032198157
20
-6.21271610389648
30
0
41
1
10
32.1479185904756
20
-6.23906805568423
30
0
41
1
10
32.1420127345698
20
-6.24760396230911
30
0
41
1
10
32.1292635927505
20
-6.26014060794279
30
0
41
1
10
32.1222716951119
20
-6.26433779940709
30
0
41
1
10
32.1152175052311
20
-6.26615226944665
30
0
0
SPLINE
5
3C5
100
AcDbEntity
8
1
62
256
6
ByLayer
370
-1
48
1
60
0
100
AcDbSpline
70
4
71
3
72
8
73
4
40
0
40
0
40
0
40
0
40
1
40
1
40
1
40
1
41
1
10
32.1152175052288
20
-6.26615226944686
30
0
41
1
10
32.1109486996909
20
-6.26655919434184
30
0
41
1
10
32.1066799810873
20
-6.2669661229189
30
0
41
1
10
32.1024113537208
20
-6.26737305535997
30
0
0
SPLINE
5
3C6
100
AcDbEntity
8
1
62
256
6
ByLayer
370
-1
48
1
60
0
100
AcDbSpline
70
4
71
3
72
10
73
6
40
0
40
0
40
0
40
0
40
0.425586067180417
40
0.425586067180417
40
1
40
1
40
1
40
1
41
1
10
32.1024113537208
20
-6.26737305535997
30
0
41
1
10
32.0945990655102
20
-6.26811780847122
30
0
41
1
10
32.0867910806477
20
-6.27133125445935
30
0
41
1
10
32.0695423170443
20
-6.28271082674276
30
0
41
1
10
32.0602142079949
20
-6.29226898552778
30
0
41
1
10
32.0517283160238
20
-6.30350688193622
30
0
0
SPLINE
5
3C7
100
AcDbEntity
8
1
62
256
6
ByLayer
370
-1
48
1
60
0
100
AcDbSpline
70
4
71
3
72
10
73
6
40
0
40
0
40
0
40
0
40
0.747052175316943
40
0.747052175316943
40
1
40
1
40
1
40
1
41
1
10
32.0568932564663
20
-6.8515261030571
30
0
41
1
10
32.0645785809976
20
-6.86458610540433
30
0
41
1
10
32.0728916857415
20
-6.8765483598677
30
0
41
1
10
32.0845041047392
20
-6.88955711635478
30
0
41
1
10
32.0875333851047
20
-6.89263576521269
30
0
41
1
10
32.0905800856228
20
-6.89538586892982
30
0
0
SPLINE
5
3C8
100
AcDbEntity
8
1
62
256
6
ByLayer
370
-1
48
1
60
0
100
AcDbSpline
70
4
71
3
72
8
73
4
40
0
40
0
40
0
40
0
40
1
40
1
40
1
40
1
41
1
10
32.0905800856228
20
-6.89538586892986
30
0
41
1
10
32.0947697997177
20
-6.89916771366225
30
0
41
1
10
32.0989596056794
20
-6.90294952882884
30
0
41
1
10
32.1031494991756
20
-6.90673131582123
30
0
0
SPLINE
5
3C9
100
AcDbEntity
8
1
62
256
6
ByLayer
370
-1
48
1
60
0
100
AcDbSpline
70
4
71
3
72
24
73
20
40
0
40
0
40
0
40
0
40
0.10400044820169
40
0.10400044820169
40
0.192499055460829
40
0.192499055460829
40
0.32850051874647
40
0.32850051874647
40
0.438682575665107
40
0.438682575665107
40
0.548533158171558
40
0.548533158171558
40
0.658237202769617
40
0.658237202769617
40
0.767870673660752
40
0.767870673660752
40
0.988088331634137
40
0.988088331634137
40
1
40
1
40
1
40
1
41
1
10
32.1031494991756
20
-6.90673131582122
30
0
41
1
10
32.1107721018047
20
-6.91474118781606
30
0
41
1
10
32.118223272875
20
-6.92524496412901
30
0
41
1
10
32.1302805574531
20
-6.94716496931608
30
0
41
1
10
32.135301404029
20
-6.95843904644916
30
0
41
1
10
32.1462523120468
20
-6.98764014533933
30
0
41
1
10
32.1514729874095
20
-7.00636519834305
30
0
41
1
10
32.1589428158415
20
-7.03948798973755
30
0
41
1
10
32.1616296393535
20
-7.05430408784318
30
0
41
1
10
32.1660175041133
20
-7.08322328423712
30
0
41
1
10
32.1677334565739
20
-7.09742097231189
30
0
41
1
10
32.1704539087456
20
-7.12508857385846
30
0
41
1
10
32.1714627117309
20
-7.138609411053
30
0
41
1
10
32.1729315909845
20
-7.16492630603948
30
0
41
1
10
32.1733928879759
20
-7.177754118257
30
0
41
1
10
32.1741001733907
20
-7.21520225339775
30
0
41
1
10
32.1736795418802
20
-7.23885866780063
30
0
41
1
10
32.1724543610014
20
-7.26209740236314
30
0
41
1
10
32.1723890902336
20
-7.26328830299639
30
0
41
1
10
32.1723215795343
20
-7.26447458437134
30
0
0
SPLINE
5
3CA
100
AcDbEntity
8
1
62
256
6
ByLayer
370
-1
48
1
60
0
100
AcDbSpline
70
4
71
3
72
8
73
4
40
0
40
0
40
0
40
0
40
1
40
1
40
1
40
1
41
1
10
32.0967351440362
20
-5.63886012685465
30
0
41
1
10
32.1009803002592
20
-5.63585429163805
30
0
41
1
10
32.1052255479067
20
-5.63284848102678
30
0
41
1
10
32.109470882667
20
-5.62984269386266
30
0
0
SPLINE
5
3CB
100
AcDbEntity
8
1
62
256
6
ByLayer
370
-1
48
1
60
0
100
AcDbSpline
70
4
71
3
72
16
73
12
40
0
40
0
40
0
40
0
40
0.0023448809058476
40
0.0023448809058476
40
0.244769775800275
40
0.244769775800275
40
0.487038716339991
40
0.487038716339991
40
0.973677497833354
40
0.973677497833354
40
1
40
1
40
1
40
1
41
1
10
32.1314810547481
20
-4.88618122469443
30
0
41
1
10
32.131506005083
20
-4.88617006859798
30
0
41
1
10
32.1315309254936
20
-4.88615898835981
30
0
41
1
10
32.1341303835549
20
-4.88500972316083
30
0
41
1
10
32.1363939175978
20
-4.88467817164687
30
0
41
1
10
32.1404198218607
20
-4.88537664417605
30
0
41
1
10
32.1421865200234
20
-4.88640776218188
30
0
41
1
10
32.1468661470127
20
-4.8913084985099
30
0
41
1
10
32.1491756946845
20
-4.89698938276867
30
0
41
1
10
32.1508557739441
20
-4.90518470559802
30
0
41
1
10
32.1509400619353
20
-4.9056125872151
30
0
41
1
10
32.1510222070447
20
-4.90604673857331
30
0
0
LINE
5
49
100
AcDbEntity
8
80
62
256
6
ByLayer
370
-1
48
1
60
0
100
AcDbLine
10
0
20
0
30
0
11
-5
21
0
31
0
39
0
210
0
220
0
230
1
0
LINE
5
4A
100
AcDbEntity
8
4
62
256
6
ByLayer
370
-1
48
0.05
60
0
100
AcDbLine
10
0
20
0
30
0
11
32
21
0
31
0
39
0
210
0
220
0
230
1
0
LINE
5
4C
100
AcDbEntity
8
81
62
256
6
ByLayer
370
-1
48
1
60
0
100
AcDbLine
10
32
20
-21.875
30
0
11
37
21
-21.875
31
0
39
0
210
0
220
0
230
1
0
LINE
5
4D
100
AcDbEntity
8
SK4
62
256
6
ByLayer
370
-1
48
0.05
60
0
100
AcDbLine
10
-5
20
0
30
0
11
37
21
0
31
0
39
0
210
0
220
0
230
1
0
LINE
5
4F
100
AcDbEntity
8
1
62
256
6
ByLayer
370
-1
48
1
60
0
100
AcDbLine
10
0.675481
20
16
30
0
11
0
21
15.324519
31
0
39
0
210
0
220
0
230
1
0
LINE
5
50
100
AcDbEntity
8
1
62
256
6
ByLayer
370
-1
48
1
60
0
100
AcDbLine
10
0
20
-15.324519
30
0
11
0.675481
21
-16
31
0
39
0
210
0
220
0
230
1
0
LINE
5
51
100
AcDbEntity
8
1
62
256
6
ByLayer
370
-1
48
1
60
0
100
AcDbLine
10
0.675481
20
-16
30
0
11
13.341219
21
-16
31
0
39
0
210
0
220
0
230
1
0
LINE
5
52
100
AcDbEntity
8
1
62
256
6
ByLayer
370
-1
48
1
60
0
100
AcDbLine
10
9.238755
20
16
30
0
11
0.675481
21
16
31
0
39
0
210
0
220
0
230
1
0
LINE
5
53
100
AcDbEntity
8
1
62
256
6
ByLayer
370
-1
48
1
60
0
100
AcDbLine
10
13.954055
20
-16.28577
30
0
11
15.600149
21
-18.247509
31
0
39
0
210
0
220
0
230
1
0
LINE
5
54
100
AcDbEntity
8
1
62
256
6
ByLayer
370
-1
48
1
60
0
100
AcDbLine
10
32.062475
20
-5.650459
30
0
11
32.063281
21
-5.650463
31
0
39
0
210
0
220
0
230
1
0
LINE
5
55
100
AcDbEntity
8
1
62
256
6
ByLayer
370
-1
48
1
60
0
100
AcDbLine
10
31.344513
20
-7.468439
30
0
11
31.277628
21
-6.441709
31
0
39
0
210
0
220
0
230
1
0
LINE
5
56
100
AcDbEntity
8
1
62
256
6
ByLayer
370
-1
48
1
60
0
100
AcDbLine
10
31.689842
20
-9.291007
30
0
11
31.625968
21
-8.310488
31
0
39
0
210
0
220
0
230
1
0
LINE
5
57
100
AcDbEntity
8
1
62
256
6
ByLayer
370
-1
48
1
60
0
100
AcDbLine
10
32.001867
20
-10.627644
30
0
11
31.932581
21
-9.564049
31
0
39
0
210
0
220
0
230
1
0
LINE
5
58
100
AcDbEntity
8
1
62
256
6
ByLayer
370
-1
48
1
60
0
100
AcDbLine
10
19.302908
20
-12.799424
30
0
11
19.369768
21
-13.82577
31
0
39
0
210
0
220
0
230
1
0
LINE
5
59
100
AcDbEntity
8
1
62
256
6
ByLayer
370
-1
48
1
60
0
100
AcDbLine
10
20.442072
20
-12.186917
30
0
11
20.505895
21
-13.166652
31
0
39
0
210
0
220
0
230
1
0
LINE
5
5A
100
AcDbEntity
8
1
62
256
6
ByLayer
370
-1
48
1
60
0
100
AcDbLine
10
29.968302
20
-13.827735
30
0
11
29.945655
21
-13.507211
31
0
39
0
210
0
220
0
230
1
0
LINE
5
5B
100
AcDbEntity
8
1
62
256
6
ByLayer
370
-1
48
1
60
0
100
AcDbLine
10
24.509209
20
-13.891341
30
0
11
24.531856
21
-14.211864
31
0
39
0
210
0
220
0
230
1
0
LINE
5
5C
100
AcDbEntity
8
1
62
256
6
ByLayer
370
-1
48
1
60
0
100
AcDbLine
10
26.221635
20
-13.072275
30
0
11
26.203211
21
-12.811522
31
0
39
0
210
0
220
0
230
1
0
LINE
5
5D
100
AcDbEntity
8
1
62
256
6
ByLayer
370
-1
48
1
60
0
100
AcDbLine
10
28.249282
20
-12.739644
30
0
11
28.274911
21
-13.102362
31
0
39
0
210
0
220
0
230
1
0
LINE
5
5E
100
AcDbEntity
8
1
62
256
6
ByLayer
370
-1
48
1
60
0
100
AcDbLine
10
26.221173
20
-14.879573
30
0
11
26.195525
21
-14.516581
31
0
39
0
210
0
220
0
230
1
0
LINE
5
5F
100
AcDbEntity
8
1
62
256
6
ByLayer
370
-1
48
1
60
0
100
AcDbLine
10
28.24912
20
-14.551176
30
0
11
28.275072
21
-14.918468
31
0
39
0
210
0
220
0
230
1
0
LINE
5
60
100
AcDbEntity
8
SK1
62
256
6
ByLayer
370
-1
48
1
60
0
100
AcDbLine
10
0
20
15.324519
30
0
11
-0.324519
21
15
31
0
39
0
210
0
220
0
230
1
0
LINE
5
62
100
AcDbEntity
8
SK1
62
256
6
ByLayer
370
-1
48
1
60
0
100
AcDbLine
10
-0.324519
20
-15
30
0
11
0
21
-15.324519
31
0
39
0
210
0
220
0
230
1
0
LINE
5
63
100
AcDbEntity
8
SK1
62
256
6
ByLayer
370
-1
48
1
60
0
100
AcDbLine
10
0
20
15.097924
30
0
11
0
21
15.209381
31
0
39
0
210
0
220
0
230
1
0
LINE
5
64
100
AcDbEntity
8
SK1
62
256
6
ByLayer
370
-1
48
1
60
0
100
AcDbLine
10
-0.324519
20
14.934621
30
0
11
-0.324519
21
14.914311
31
0
39
0
210
0
220
0
230
1
0
LINE
5
65
100
AcDbEntity
8
SK1
62
256
6
ByLayer
370
-1
48
1
60
0
100
AcDbLine
10
-0.324519
20
14.717151
30
0
11
-0.324519
21
14.914311
31
0
39
0
210
0
220
0
230
1
0
LINE
5
66
100
AcDbEntity
8
SK1
62
256
6
ByLayer
370
-1
48
1
60
0
100
AcDbLine
10
0
20
15.209381
30
0
11
0
21
15.283169
31
0
39
0
210
0
220
0
230
1
0
LINE
5
67
100
AcDbEntity
8
SK1
62
256
6
ByLayer
370
-1
48
1
60
0
100
AcDbLine
10
-0.249519
20
14.81843
30
0
11
-0.249519
21
14.975295
31
0
39
0
210
0
220
0
230
1
0
LINE
5
68
100
AcDbEntity
8
1
62
256
6
ByLayer
370
-1
48
1
60
0
100
AcDbLine
10
0.394519
20
-11.127288
30
0
11
0.394519
21
-10.82546
31
0
39
0
210
0
220
0
230
1
0
LINE
5
69
100
AcDbEntity
8
1
62
256
6
ByLayer
370
-1
48
1
60
0
100
AcDbLine
10
0.394519
20
10.82546
30
0
11
0.394519
21
11.127288
31
0
39
0
210
0
220
0
230
1
0
LINE
5
6A
100
AcDbEntity
8
1
62
256
6
ByLayer
370
-1
48
1
60
0
100
AcDbLine
10
31.433155
20
-1.77692
30
0
11
31.433155
21
-5.889077
31
0
39
0
210
0
220
0
230
1
0
LINE
5
6B
100
AcDbEntity
8
1
62
256
6
ByLayer
370
-1
48
1
60
0
100
AcDbLine
10
5.9
20
8.587782
30
0
11
10.025871
21
8.587782
31
0
39
0
210
0
220
0
230
1
0
LINE
5
6C
100
AcDbEntity
8
1
62
256
6
ByLayer
370
-1
48
1
60
0
100
AcDbLine
10
22.438312
20
-18.4462
30
0
11
16.306133
21
-18.47296
31
0
39
0
210
0
220
0
230
1
0
LINE
5
6D
100
AcDbEntity
8
1
62
256
6
ByLayer
370
-1
48
1
60
0
100
AcDbLine
10
0.394519
20
-9.394584
30
0
11
0.394519
21
-8.985919
31
0
39
0
210
0
220
0
230
1
0
LINE
5
6E
100
AcDbEntity
8
1
62
256
6
ByLayer
370
-1
48
1
60
0
100
AcDbLine
10
0.394519
20
8.985919
30
0
11
0.394519
21
9.394584
31
0
39
0
210
0
220
0
230
1
0
LINE
5
6F
100
AcDbEntity
8
1
62
256
6
ByLayer
370
-1
48
1
60
0
100
AcDbLine
10
28.884554
20
-7.363169
30
0
11
31.419707
21
-5.937135
31
0
39
0
210
0
220
0
230
1
0
LINE
5
70
100
AcDbEntity
8
1
62
256
6
ByLayer
370
-1
48
1
60
0
100
AcDbLine
10
0.394519
20
-15.300594
30
0
11
0.394519
21
-15.228135
31
0
39
0
210
0
220
0
230
1
0
LINE
5
71
100
AcDbEntity
8
1
62
256
6
ByLayer
370
-1
48
1
60
0
100
AcDbLine
10
0
20
13.935575
30
0
11
0
21
13.567411
31
0
39
0
210
0
220
0
230
1
0
LINE
5
72
100
AcDbEntity
8
1
62
256
6
ByLayer
370
-1
48
1
60
0
100
AcDbLine
10
0
20
10.797002
30
0
11
0
21
11.503272
31
0
39
0
210
0
220
0
230
1
0
LINE
5
73
100
AcDbEntity
8
1
62
256
6
ByLayer
370
-1
48
1
60
0
100
AcDbLine
10
0.394519
20
-15.707477
30
0
11
0.394519
21
-15.693303
31
0
39
0
210
0
220
0
230
1
0
LINE
5
74
100
AcDbEntity
8
1
62
256
6
ByLayer
370
-1
48
1
60
0
100
AcDbLine
10
0
20
-14.254833
30
0
11
0
21
-13.935575
31
0
39
0
210
0
220
0
230
1
0
LINE
5
75
100
AcDbEntity
8
1
62
256
6
ByLayer
370
-1
48
1
60
0
100
AcDbLine
10
0
20
-15.324519
30
0
11
0
21
-15.31993
31
0
39
0
210
0
220
0
230
1
0
LINE
5
76
100
AcDbEntity
8
1
62
256
6
ByLayer
370
-1
48
1
60
0
100
AcDbLine
10
0
20
-15.28304
30
0
11
0
21
-15.31993
31
0
39
0
210
0
220
0
230
1
0
LINE
5
77
100
AcDbEntity
8
1
62
256
6
ByLayer
370
-1
48
1
60
0
100
AcDbLine
10
9.560885
20
12.318044
30
0
11
9.238755
21
16
31
0
39
0
210
0
220
0
230
1
0
LINE
5
78
100
AcDbEntity
8
1
62
256
6
ByLayer
370
-1
48
1
60
0
100
AcDbLine
10
10.020332
20
-8.587782
30
0
11
5.9
21
-8.587782
31
0
39
0
210
0
220
0
230
1
0
LINE
5
79
100
AcDbEntity
8
1
62
256
6
ByLayer
370
-1
48
1
60
0
100
AcDbLine
10
19.885958
20
-14.678267
30
0
11
18.268384
21
-13.783688
31
0
39
0
210
0
220
0
230
1
0
LINE
5
7A
100
AcDbEntity
8
1
62
256
6
ByLayer
370
-1
48
1
60
0
100
AcDbLine
10
0
20
6.505787
30
0
11
0
21
7.910453
31
0
39
0
210
0
220
0
230
1
0
LINE
5
7B
100
AcDbEntity
8
1
62
256
6
ByLayer
370
-1
48
1
60
0
100
AcDbLine
10
0
20
-15.283169
30
0
11
0
21
-15.209381
31
0
39
0
210
0
220
0
230
1
0
LINE
5
7C
100
AcDbEntity
8
1
62
256
6
ByLayer
370
-1
48
1
60
0
100
AcDbLine
10
0.394519
20
-1.908285
30
0
11
0.394519
21
1.908285
31
0
39
0
210
0
220
0
230
1
0
LINE
5
7D
100
AcDbEntity
8
1
62
256
6
ByLayer
370
-1
48
1
60
0
100
AcDbLine
10
10.025871
20
8.587782
30
0
11
10.020332
21
-8.587782
31
0
39
0
210
0
220
0
230
1
0
LINE
5
7E
100
AcDbEntity
8
1
62
256
6
ByLayer
370
-1
48
1
60
0
100
AcDbLine
10
10.027042
20
3.286718
30
0
11
10.025806
21
-3.555854
31
0
39
0
210
0
220
0
230
1
0
LINE
5
7F
100
AcDbEntity
8
1
62
256
6
ByLayer
370
-1
48
1
60
0
100
AcDbLine
10
22.303778
20
-16.544088
30
0
11
22.438312
21
-17.0143
31
0
39
0
210
0
220
0
230
1
0
LINE
5
80
100
AcDbEntity
8
1
62
256
6
ByLayer
370
-1
48
1
60
0
100
AcDbLine
10
0
20
13.146302
30
0
11
0
21
13.567434
31
0
39
0
210
0
220
0
230
1
0
LINE
5
81
100
AcDbEntity
8
1
62
256
6
ByLayer
370
-1
48
1
60
0
100
AcDbLine
10
0.394519
20
-12.444873
30
0
11
0.394519
21
-12.211978
31
0
39
0
210
0
220
0
230
1
0
LINE
5
82
100
AcDbEntity
8
1
62
256
6
ByLayer
370
-1
48
1
60
0
100
AcDbLine
10
0.675481
20
0
30
0
11
0.675481
21
-16
31
0
39
0
210
0
220
0
230
1
0
LINE
5
83
100
AcDbEntity
8
1
62
256
6
ByLayer
370
-1
48
1
60
0
100
AcDbLine
10
0.675481
20
16
30
0
11
0.675481
21
0
31
0
39
0
210
0
220
0
230
1
0
LINE
5
84
100
AcDbEntity
8
1
62
256
6
ByLayer
370
-1
48
1
60
0
100
AcDbLine
10
0
20
-14.528429
30
0
11
0
21
-14.254772
31
0
39
0
210
0
220
0
230
1
0
LINE
5
85
100
AcDbEntity
8
1
62
256
6
ByLayer
370
-1
48
1
60
0
100
AcDbLine
10
0.394519
20
14.763382
30
0
11
0.394519
21
14.867745
31
0
39
0
210
0
220
0
230
1
0
LINE
5
86
100
AcDbEntity
8
1
62
256
6
ByLayer
370
-1
48
1
60
0
100
AcDbLine
10
0.394519
20
-13.469714
30
0
11
0.394519
21
-13.288111
31
0
39
0
210
0
220
0
230
1
0
LINE
5
87
100
AcDbEntity
8
1
62
256
6
ByLayer
370
-1
48
1
60
0
100
AcDbLine
10
0.394519
20
-14.867745
30
0
11
0.394519
21
-14.763382
31
0
39
0
210
0
220
0
230
1
0
LINE
5
88
100
AcDbEntity
8
1
62
256
6
ByLayer
370
-1
48
1
60
0
100
AcDbLine
10
0.394519
20
13.288111
30
0
11
0.394519
21
13.469714
31
0
39
0
210
0
220
0
230
1
0
LINE
5
89
100
AcDbEntity
8
1
62
256
6
ByLayer
370
-1
48
1
60
0
100
AcDbLine
10
19.522832
20
3.189601
30
0
11
25.522832
21
3.189601
31
0
39
0
210
0
220
0
230
1
0
LINE
5
8A
100
AcDbEntity
8
1
62
256
6
ByLayer
370
-1
48
1
60
0
100
AcDbLine
10
0.394519
20
-6.942613
30
0
11
0.394519
21
-6.309317
31
0
39
0
210
0
220
0
230
1
0
LINE
5
8B
100
AcDbEntity
8
1
62
256
6
ByLayer
370
-1
48
1
60
0
100
AcDbLine
10
0.394519
20
6.309317
30
0
11
0.394519
21
6.942613
31
0
39
0
210
0
220
0
230
1
0
LINE
5
8C
100
AcDbEntity
8
1
62
256
6
ByLayer
370
-1
48
1
60
0
100
AcDbLine
10
0
20
15.097924
30
0
11
0
21
15.209381
31
0
39
0
210
0
220
0
230
1
0
LINE
5
8D
100
AcDbEntity
8
1
62
256
6
ByLayer
370
-1
48
1
60
0
100
AcDbLine
10
0.394519
20
15.693303
30
0
11
0.394519
21
15.707477
31
0
39
0
210
0
220
0
230
1
0
LINE
5
8E
100
AcDbEntity
8
1
62
256
6
ByLayer
370
-1
48
1
60
0
100
AcDbLine
10
0
20
14.528429
30
0
11
0
21
14.758904
31
0
39
0
210
0
220
0
230
1
0
LINE
5
8F
100
AcDbEntity
8
1
62
256
6
ByLayer
370
-1
48
1
60
0
100
AcDbLine
10
0
20
15.209381
30
0
11
0
21
15.283169
31
0
39
0
210
0
220
0
230
1
0
LINE
5
90
100
AcDbEntity
8
1
62
256
6
ByLayer
370
-1
48
1
60
0
100
AcDbLine
10
0
20
9.03882
30
0
11
0
21
7.910379
31
0
39
0
210
0
220
0
230
1
0
LINE
5
91
100
AcDbEntity
8
1
62
256
6
ByLayer
370
-1
48
1
60
0
100
AcDbLine
10
0
20
-7.910379
30
0
11
0
21
-9.03882
31
0
39
0
210
0
220
0
230
1
0
LINE
5
92
100
AcDbEntity
8
1
62
256
6
ByLayer
370
-1
48
1
60
0
100
AcDbLine
10
0
20
12.122304
30
0
11
0
21
12.666896
31
0
39
0
210
0
220
0
230
1
0
LINE
5
93
100
AcDbEntity
8
1
62
256
6
ByLayer
370
-1
48
1
60
0
100
AcDbLine
10
0
20
-4.577145
30
0
11
0
21
4.577145
31
0
39
0
210
0
220
0
230
1
0
LINE
5
94
100
AcDbEntity
8
1
62
256
6
ByLayer
370
-1
48
1
60
0
100
AcDbLine
10
11.206603
20
3.381864
30
0
11
11.205373
21
-3.424802
31
0
39
0
210
0
220
0
230
1
0
LINE
5
95
100
AcDbEntity
8
1
62
256
6
ByLayer
370
-1
48
1
60
0
100
AcDbLine
10
0
20
15.31993
30
0
11
0
21
15.28304
31
0
39
0
210
0
220
0
230
1
0
LINE
5
96
100
AcDbEntity
8
1
62
256
6
ByLayer
370
-1
48
1
60
0
100
AcDbLine
10
0.394519
20
15.228135
30
0
11
0.394519
21
15.300594
31
0
39
0
210
0
220
0
230
1
0
LINE
5
97
100
AcDbEntity
8
1
62
256
6
ByLayer
370
-1
48
1
60
0
100
AcDbLine
10
0
20
-12.666896
30
0
11
0
21
-12.122304
31
0
39
0
210
0
220
0
230
1
0
LINE
5
98
100
AcDbEntity
8
1
62
256
6
ByLayer
370
-1
48
1
60
0
100
AcDbLine
10
0
20
14.948253
30
0
11
0
21
15.098022
31
0
39
0
210
0
220
0
230
1
0
LINE
5
99
100
AcDbEntity
8
1
62
256
6
ByLayer
370
-1
48
1
60
0
100
AcDbLine
10
22.408016
20
-16.908401
30
0
11
22.408016
21
-16.601765
31
0
39
0
210
0
220
0
230
1
0
LINE
5
9A
100
AcDbEntity
8
1
62
256
6
ByLayer
370
-1
48
1
60
0
100
AcDbLine
10
0.394519
20
12.211978
30
0
11
0.394519
21
12.444873
31
0
39
0
210
0
220
0
230
1
0
LINE
5
9B
100
AcDbEntity
8
1
62
256
6
ByLayer
370
-1
48
1
60
0
100
AcDbLine
10
0.394519
20
14.124996
30
0
11
0.394519
21
14.265045
31
0
39
0
210
0
220
0
230
1
0
LINE
5
9C
100
AcDbEntity
8
1
62
256
6
ByLayer
370
-1
48
1
60
0
100
AcDbLine
10
0
20
-15.209381
30
0
11
0
21
-15.097924
31
0
39
0
210
0
220
0
230
1
0
LINE
5
9D
100
AcDbEntity
8
1
62
256
6
ByLayer
370
-1
48
1
60
0
100
AcDbLine
10
0
20
-14.758904
30
0
11
0
21
-14.528429
31
0
39
0
210
0
220
0
230
1
0
LINE
5
9E
100
AcDbEntity
8
1
62
256
6
ByLayer
370
-1
48
1
60
0
100
AcDbLine
10
31.419707
20
-5.937135
30
0
11
31.433155
21
-5.889077
31
0
39
0
210
0
220
0
230
1
0
LINE
5
9F
100
AcDbEntity
8
1
62
256
6
ByLayer
370
-1
48
1
60
0
100
AcDbLine
10
15.806614
20
-18.47296
30
0
11
16.306133
21
-18.47296
31
0
39
0
210
0
220
0
230
1
0
LINE
5
A0
100
AcDbEntity
8
1
62
256
6
ByLayer
370
-1
48
1
60
0
100
AcDbLine
10
22.438312
20
-17.0143
30
0
11
19.030248
21
-15.128563
31
0
39
0
210
0
220
0
230
1
0
LINE
5
A1
100
AcDbEntity
8
1
62
256
6
ByLayer
370
-1
48
1
60
0
100
AcDbLine
10
13.954055
20
-16.28577
30
0
11
13.954055
21
-16.214788
31
0
39
0
210
0
220
0
230
1
0
LINE
5
A2
100
AcDbEntity
8
1
62
256
6
ByLayer
370
-1
48
1
60
0
100
AcDbLine
10
19.675481
20
-4.68707
30
0
11
19.675481
21
-8.819984
31
0
39
0
210
0
220
0
230
1
0
LINE
5
A3
100
AcDbEntity
8
1
62
256
6
ByLayer
370
-1
48
1
60
0
100
AcDbLine
10
0
20
-6.505787
30
0
11
0
21
-4.577024
31
0
39
0
210
0
220
0
230
1
0
LINE
5
A4
100
AcDbEntity
8
1
62
256
6
ByLayer
370
-1
48
1
60
0
100
AcDbLine
10
0
20
4.577024
30
0
11
0
21
6.505787
31
0
39
0
210
0
220
0
230
1
0
LINE
5
A5
100
AcDbEntity
8
1
62
256
6
ByLayer
370
-1
48
1
60
0
100
AcDbLine
10
0
20
9.985022
30
0
11
0
21
10.797002
31
0
39
0
210
0
220
0
230
1
0
LINE
5
A6
100
AcDbEntity
8
1
62
256
6
ByLayer
370
-1
48
1
60
0
100
AcDbLine
10
23.531977
20
-10.393502
30
0
11
28.27199
21
-7.727226
31
0
39
0
210
0
220
0
230
1
0
LINE
5
A7
100
AcDbEntity
8
1
62
256
6
ByLayer
370
-1
48
1
60
0
100
AcDbLine
10
0
20
15.31993
30
0
11
0
21
15.324519
31
0
39
0
210
0
220
0
230
1
0
LINE
5
A8
100
AcDbEntity
8
1
62
256
6
ByLayer
370
-1
48
1
60
0
100
AcDbLine
10
0
20
12.66689
30
0
11
0
21
13.146302
31
0
39
0
210
0
220
0
230
1
0
LINE
5
A9
100
AcDbEntity
8
1
62
256
6
ByLayer
370
-1
48
1
60
0
100
AcDbLine
10
0
20
-11.503272
30
0
11
0
21
-10.797002
31
0
39
0
210
0
220
0
230
1
0
LINE
5
AA
100
AcDbEntity
8
1
62
256
6
ByLayer
370
-1
48
1
60
0
100
AcDbLine
10
0
20
14.948253
30
0
11
0
21
14.758895
31
0
39
0
210
0
220
0
230
1
0
LINE
5
AB
100
AcDbEntity
8
1
62
256
6
ByLayer
370
-1
48
1
60
0
100
AcDbLine
10
0
20
13.935575
30
0
11
0
21
14.254833
31
0
39
0
210
0
220
0
230
1
0
LINE
5
AC
100
AcDbEntity
8
1
62
256
6
ByLayer
370
-1
48
1
60
0
100
AcDbLine
10
0
20
-14.758895
30
0
11
0
21
-14.948253
31
0
39
0
210
0
220
0
230
1
0
LINE
5
AD
100
AcDbEntity
8
1
62
256
6
ByLayer
370
-1
48
1
60
0
100
AcDbLine
10
5.9
20
8.587782
30
0
11
5.9
21
-8.587782
31
0
39
0
210
0
220
0
230
1
0
LINE
5
AE
100
AcDbEntity
8
1
62
256
6
ByLayer
370
-1
48
1
60
0
100
AcDbLine
10
0.394519
20
-14.265045
30
0
11
0.394519
21
-14.124996
31
0
39
0
210
0
220
0
230
1
0
LINE
5
AF
100
AcDbEntity
8
1
62
256
6
ByLayer
370
-1
48
1
60
0
100
AcDbLine
10
0
20
-15.098022
30
0
11
0
21
-14.948253
31
0
39
0
210
0
220
0
230
1
0
LINE
5
B0
100
AcDbEntity
8
1
62
256
6
ByLayer
370
-1
48
1
60
0
100
AcDbLine
10
0
20
-13.146302
30
0
11
0
21
-12.66689
31
0
39
0
210
0
220
0
230
1
0
LINE
5
B1
100
AcDbEntity
8
1
62
256
6
ByLayer
370
-1
48
1
60
0
100
AcDbLine
10
5.5
20
7.924014
30
0
11
5.5
21
-7.924014
31
0
39
0
210
0
220
0
230
1
0
LINE
5
B2
100
AcDbEntity
8
1
62
256
6
ByLayer
370
-1
48
1
60
0
100
AcDbLine
10
11.204349
20
-9.094041
30
0
11
11.203116
21
-15.914983
31
0
39
0
210
0
220
0
230
1
0
LINE
5
B3
100
AcDbEntity
8
1
62
256
6
ByLayer
370
-1
48
1
60
0
100
AcDbLine
10
0
20
-13.567434
30
0
11
0
21
-13.146302
31
0
39
0
210
0
220
0
230
1
0
LINE
5
B4
100
AcDbEntity
8
1
62
256
6
ByLayer
370
-1
48
1
60
0
100
AcDbLine
10
20.841327
20
-11.887517
30
0
11
22.82339
21
-10.772598
31
0
39
0
210
0
220
0
230
1
0
LINE
5
B5
100
AcDbEntity
8
1
62
256
6
ByLayer
370
-1
48
1
60
0
100
AcDbLine
10
0.394519
20
15.535076
30
0
11
0.394519
21
15.577756
31
0
39
0
210
0
220
0
230
1
0
LINE
5
B6
100
AcDbEntity
8
1
62
256
6
ByLayer
370
-1
48
1
60
0
100
AcDbLine
10
0
20
-10.797002
30
0
11
0
21
-9.985022
31
0
39
0
210
0
220
0
230
1
0
LINE
5
B7
100
AcDbEntity
8
1
62
256
6
ByLayer
370
-1
48
1
60
0
100
AcDbLine
10
0
20
14.254772
30
0
11
0
21
14.528429
31
0
39
0
210
0
220
0
230
1
0
LINE
5
B8
100
AcDbEntity
8
1
62
256
6
ByLayer
370
-1
48
1
60
0
100
AcDbLine
10
22.438312
20
-18.4462
30
0
11
22.438312
21
-17.0143
31
0
39
0
210
0
220
0
230
1
0
LINE
5
B9
100
AcDbEntity
8
1
62
256
6
ByLayer
370
-1
48
1
60
0
100
AcDbLine
10
0
20
-9.985002
30
0
11
0
21
-9.03882
31
0
39
0
210
0
220
0
230
1
0
LINE
5
BA
100
AcDbEntity
8
1
62
256
6
ByLayer
370
-1
48
1
60
0
100
AcDbLine
10
0
20
12.122304
30
0
11
0
21
11.503267
31
0
39
0
210
0
220
0
230
1
0
LINE
5
BB
100
AcDbEntity
8
1
62
256
6
ByLayer
370
-1
48
1
60
0
100
AcDbLine
10
10.024523
20
-10.656692
30
0
11
10.023608
21
-15.723511
31
0
39
0
210
0
220
0
230
1
0
LINE
5
BC
100
AcDbEntity
8
1
62
256
6
ByLayer
370
-1
48
1
60
0
100
AcDbLine
10
31.433155
20
-5.889077
30
0
11
20.783955
21
-11.880066
31
0
39
0
210
0
220
0
230
1
0
LINE
5
BD
100
AcDbEntity
8
1
62
256
6
ByLayer
370
-1
48
1
60
0
100
AcDbLine
10
0
20
-7.910453
30
0
11
0
21
-6.505787
31
0
39
0
210
0
220
0
230
1
0
LINE
5
BE
100
AcDbEntity
8
1
62
256
6
ByLayer
370
-1
48
1
60
0
100
AcDbLine
10
0
20
-11.503267
30
0
11
0
21
-12.122304
31
0
39
0
210
0
220
0
230
1
0
LINE
5
BF
100
AcDbEntity
8
1
62
256
6
ByLayer
370
-1
48
1
60
0
100
AcDbLine
10
0
20
-13.567411
30
0
11
0
21
-13.935575
31
0
39
0
210
0
220
0
230
1
0
LINE
5
C0
100
AcDbEntity
8
1
62
256
6
ByLayer
370
-1
48
1
60
0
100
AcDbLine
10
15.806614
20
-18.47254
30
0
11
15.806614
21
-18.47296
31
0
39
0
210
0
220
0
230
1
0
LINE
5
C1
100
AcDbEntity
8
1
62
256
6
ByLayer
370
-1
48
1
60
0
100
AcDbLine
10
20.841327
20
-11.887517
30
0
11
20.667622
21
-11.949157
31
0
39
0
210
0
220
0
230
1
0
LINE
5
C2
100
AcDbEntity
8
1
62
256
6
ByLayer
370
-1
48
1
60
0
100
AcDbLine
10
0.394519
20
-15.577756
30
0
11
0.394519
21
-15.535076
31
0
39
0
210
0
220
0
230
1
0
LINE
5
C3
100
AcDbEntity
8
1
62
256
6
ByLayer
370
-1
48
1
60
0
100
AcDbLine
10
13.341219
20
-16
30
0
11
13.341219
21
-15.918908
31
0
39
0
210
0
220
0
230
1
0
LINE
5
C4
100
AcDbEntity
8
1
62
256
6
ByLayer
370
-1
48
1
60
0
100
AcDbLine
10
0
20
9.03882
30
0
11
0
21
9.985002
31
0
39
0
210
0
220
0
230
1
0
LINE
5
C5
100
AcDbEntity
8
SK1
62
256
6
ByLayer
370
-1
48
1
60
0
100
AcDbLine
10
-0.324519
20
6.742979
30
0
11
-0.324519
21
6.325489
31
0
39
0
210
0
220
0
230
1
0
LINE
5
C6
100
AcDbEntity
8
SK1
62
256
6
ByLayer
370
-1
48
1
60
0
100
AcDbLine
10
0
20
-6.505787
30
0
11
0
21
-4.577024
31
0
39
0
210
0
220
0
230
1
0
LINE
5
C7
100
AcDbEntity
8
SK1
62
256
6
ByLayer
370
-1
48
1
60
0
100
AcDbLine
10
0
20
4.577024
30
0
11
0
21
6.505787
31
0
39
0
210
0
220
0
230
1
0
LINE
5
C8
100
AcDbEntity
8
SK1
62
256
6
ByLayer
370
-1
48
1
60
0
100
AcDbLine
10
-0.324519
20
-6.325489
30
0
11
-0.324519
21
-1.737928
31
0
39
0
210
0
220
0
230
1
0
LINE
5
C9
100
AcDbEntity
8
SK1
62
256
6
ByLayer
370
-1
48
1
60
0
100
AcDbLine
10
-0.324519
20
1.737928
30
0
11
-0.324519
21
6.325489
31
0
39
0
210
0
220
0
230
1
0
LINE
5
CA
100
AcDbEntity
8
SK1
62
256
6
ByLayer
370
-1
48
1
60
0
100
AcDbLine
10
-0.249519
20
-6.222291
30
0
11
-0.249519
21
-3.021506
31
0
39
0
210
0
220
0
230
1
0
LINE
5
CB
100
AcDbEntity
8
SK1
62
256
6
ByLayer
370
-1
48
1
60
0
100
AcDbLine
10
-0.249519
20
3.021506
30
0
11
-0.249519
21
6.222291
31
0
39
0
210
0
220
0
230
1
0
LINE
5
CC
100
AcDbEntity
8
SK1
62
256
6
ByLayer
370
-1
48
1
60
0
100
AcDbLine
10
0
20
6.505787
30
0
11
0
21
7.910453
31
0
39
0
210
0
220
0
230
1
0
LINE
5
CD
100
AcDbEntity
8
SK1
62
256
6
ByLayer
370
-1
48
1
60
0
100
AcDbLine
10
-0.324519
20
-6.325489
30
0
11
-0.324519
21
-6.742979
31
0
39
0
210
0
220
0
230
1
0
LINE
5
CE
100
AcDbEntity
8
SK1
62
256
6
ByLayer
370
-1
48
1
60
0
100
AcDbLine
10
0
20
-7.910453
30
0
11
0
21
-6.505787
31
0
39
0
210
0
220
0
230
1
0
LINE
5
CF
100
AcDbEntity
8
SK1
62
256
6
ByLayer
370
-1
48
1
60
0
100
AcDbLine
10
-0.324519
20
-8.863685
30
0
11
-0.324519
21
-9.133163
31
0
39
0
210
0
220
0
230
1
0
LINE
5
D0
100
AcDbEntity
8
SK1
62
256
6
ByLayer
370
-1
48
1
60
0
100
AcDbLine
10
-0.324519
20
-10.612164
30
0
11
-0.324519
21
-10.810252
31
0
39
0
210
0
220
0
230
1
0
LINE
5
D1
100
AcDbEntity
8
SK1
62
256
6
ByLayer
370
-1
48
1
60
0
100
AcDbLine
10
0
20
9.03882
30
0
11
0
21
7.910379
31
0
39
0
210
0
220
0
230
1
0
LINE
5
D2
100
AcDbEntity
8
SK1
62
256
6
ByLayer
370
-1
48
1
60
0
100
AcDbLine
10
0
20
-7.910379
30
0
11
0
21
-9.03882
31
0
39
0
210
0
220
0
230
1
0
LINE
5
D3
100
AcDbEntity
8
SK1
62
256
6
ByLayer
370
-1
48
1
60
0
100
AcDbLine
10
-0.324519
20
9.133163
30
0
11
-0.324519
21
8.863685
31
0
39
0
210
0
220
0
230
1
0
LINE
5
D4
100
AcDbEntity
8
SK1
62
256
6
ByLayer
370
-1
48
1
60
0
100
AcDbLine
10
0
20
-9.985002
30
0
11
0
21
-9.03882
31
0
39
0
210
0
220
0
230
1
0
LINE
5
D5
100
AcDbEntity
8
SK1
62
256
6
ByLayer
370
-1
48
1
60
0
100
AcDbLine
10
0
20
9.03882
30
0
11
0
21
9.985002
31
0
39
0
210
0
220
0
230
1
0
LINE
5
D6
100
AcDbEntity
8
SK1
62
256
6
ByLayer
370
-1
48
1
60
0
100
AcDbLine
10
-0.249519
20
-8.812476
30
0
11
-0.249519
21
-7.154353
31
0
39
0
210
0
220
0
230
1
0
LINE
5
D7
100
AcDbEntity
8
SK1
62
256
6
ByLayer
370
-1
48
1
60
0
100
AcDbLine
10
-0.249519
20
7.154353
30
0
11
-0.249519
21
8.812476
31
0
39
0
210
0
220
0
230
1
0
LINE
5
D8
100
AcDbEntity
8
SK1
62
256
6
ByLayer
370
-1
48
1
60
0
100
AcDbLine
10
-0.324519
20
-8.863685
30
0
11
-0.324519
21
-6.742772
31
0
39
0
210
0
220
0
230
1
0
LINE
5
D9
100
AcDbEntity
8
SK1
62
256
6
ByLayer
370
-1
48
1
60
0
100
AcDbLine
10
-0.324519
20
6.742772
30
0
11
-0.324519
21
8.863685
31
0
39
0
210
0
220
0
230
1
0
LINE
5
DA
100
AcDbEntity
8
SK1
62
256
6
ByLayer
370
-1
48
1
60
0
100
AcDbLine
10
-0.324519
20
-14.99966
30
0
11
-0.324519
21
-14.934566
31
0
39
0
210
0
220
0
230
1
0
LINE
5
DB
100
AcDbEntity
8
SK1
62
256
6
ByLayer
370
-1
48
1
60
0
100
AcDbLine
10
-0.324519
20
-14.99966
30
0
11
-0.324519
21
-15
31
0
39
0
210
0
220
0
230
1
0
LINE
5
DC
100
AcDbEntity
8
SK1
62
256
6
ByLayer
370
-1
48
1
60
0
100
AcDbLine
10
0
20
-15.28304
30
0
11
0
21
-15.31993
31
0
39
0
210
0
220
0
230
1
0
LINE
5
DD
100
AcDbEntity
8
SK1
62
256
6
ByLayer
370
-1
48
1
60
0
100
AcDbLine
10
0
20
-15.324519
30
0
11
0
21
-15.31993
31
0
39
0
210
0
220
0
230
1
0
LINE
5
DE
100
AcDbEntity
8
SK1
62
256
6
ByLayer
370
-1
48
1
60
0
100
AcDbLine
10
-0.249519
20
-15.073231
30
0
11
-0.249519
21
-15.021469
31
0
39
0
210
0
220
0
230
1
0
LINE
5
DF
100
AcDbEntity
8
SK1
62
256
6
ByLayer
370
-1
48
1
60
0
100
AcDbLine
10
-0.249519
20
15.021469
30
0
11
-0.249519
21
15.073231
31
0
39
0
210
0
220
0
230
1
0
LINE
5
E0
100
AcDbEntity
8
SK1
62
256
6
ByLayer
370
-1
48
1
60
0
100
AcDbLine
10
0
20
-11.503272
30
0
11
0
21
-10.797002
31
0
39
0
210
0
220
0
230
1
0
LINE
5
E1
100
AcDbEntity
8
SK1
62
256
6
ByLayer
370
-1
48
1
60
0
100
AcDbLine
10
0
20
-10.797002
30
0
11
0
21
-9.985022
31
0
39
0
210
0
220
0
230
1
0
LINE
5
E2
100
AcDbEntity
8
SK1
62
256
6
ByLayer
370
-1
48
1
60
0
100
AcDbLine
10
-0.324519
20
-10.612164
30
0
11
-0.324519
21
-10.246768
31
0
39
0
210
0
220
0
230
1
0
LINE
5
E3
100
AcDbEntity
8
SK1
62
256
6
ByLayer
370
-1
48
1
60
0
100
AcDbLine
10
-0.249519
20
-10.587849
30
0
11
-0.249519
21
-9.96605
31
0
39
0
210
0
220
0
230
1
0
LINE
5
E4
100
AcDbEntity
8
SK1
62
256
6
ByLayer
370
-1
48
1
60
0
100
AcDbLine
10
0
20
-12.666896
30
0
11
0
21
-12.122304
31
0
39
0
210
0
220
0
230
1
0
LINE
5
E5
100
AcDbEntity
8
SK1
62
256
6
ByLayer
370
-1
48
1
60
0
100
AcDbLine
10
-0.324519
20
-11.923554
30
0
11
-0.324519
21
-12.075117
31
0
39
0
210
0
220
0
230
1
0
LINE
5
E6
100
AcDbEntity
8
SK1
62
256
6
ByLayer
370
-1
48
1
60
0
100
AcDbLine
10
-0.324519
20
-11.923554
30
0
11
-0.324519
21
-11.287097
31
0
39
0
210
0
220
0
230
1
0
LINE
5
E7
100
AcDbEntity
8
SK1
62
256
6
ByLayer
370
-1
48
1
60
0
100
AcDbLine
10
-0.249519
20
-11.918279
30
0
11
-0.249519
21
-11.153837
31
0
39
0
210
0
220
0
230
1
0
LINE
5
E8
100
AcDbEntity
8
SK1
62
256
6
ByLayer
370
-1
48
1
60
0
100
AcDbLine
10
0
20
-11.503267
30
0
11
0
21
-12.122304
31
0
39
0
210
0
220
0
230
1
0
LINE
5
E9
100
AcDbEntity
8
SK1
62
256
6
ByLayer
370
-1
48
1
60
0
100
AcDbLine
10
-0.249519
20
11.153837
30
0
11
-0.249519
21
11.918279
31
0
39
0
210
0
220
0
230
1
0
LINE
5
EA
100
AcDbEntity
8
SK1
62
256
6
ByLayer
370
-1
48
1
60
0
100
AcDbLine
10
0
20
14.948253
30
0
11
0
21
14.758895
31
0
39
0
210
0
220
0
230
1
0
LINE
5
EB
100
AcDbEntity
8
SK1
62
256
6
ByLayer
370
-1
48
1
60
0
100
AcDbLine
10
0
20
14.948253
30
0
11
0
21
15.098022
31
0
39
0
210
0
220
0
230
1
0
LINE
5
EC
100
AcDbEntity
8
SK1
62
256
6
ByLayer
370
-1
48
1
60
0
100
AcDbLine
10
-0.324519
20
14.717201
30
0
11
-0.324519
21
14.675952
31
0
39
0
210
0
220
0
230
1
0
LINE
5
ED
100
AcDbEntity
8
SK1
62
256
6
ByLayer
370
-1
48
1
60
0
100
AcDbLine
10
-0.249519
20
14.457827
30
0
11
-0.249519
21
14.724695
31
0
39
0
210
0
220
0
230
1
0
LINE
5
EE
100
AcDbEntity
8
SK1
62
256
6
ByLayer
370
-1
48
1
60
0
100
AcDbLine
10
-0.324519
20
14.340459
30
0
11
-0.324519
21
14.675952
31
0
39
0
210
0
220
0
230
1
0
LINE
5
EF
100
AcDbEntity
8
SK1
62
256
6
ByLayer
370
-1
48
1
60
0
100
AcDbLine
10
-0.324519
20
1.738068
30
0
11
-0.324519
21
-1.738068
31
0
39
0
210
0
220
0
230
1
0
LINE
5
F0
100
AcDbEntity
8
SK1
62
256
6
ByLayer
370
-1
48
1
60
0
100
AcDbLine
10
0
20
-4.577145
30
0
11
0
21
4.577145
31
0
39
0
210
0
220
0
230
1
0
LINE
5
F1
100
AcDbEntity
8
SK1
62
256
6
ByLayer
370
-1
48
1
60
0
100
AcDbLine
10
-0.324519
20
9.404039
30
0
11
-0.324519
21
9.770232
31
0
39
0
210
0
220
0
230
1
0
LINE
5
F2
100
AcDbEntity
8
SK1
62
256
6
ByLayer
370
-1
48
1
60
0
100
AcDbLine
10
-0.324519
20
9.770232
30
0
11
-0.324519
21
10.246814
31
0
39
0
210
0
220
0
230
1
0
LINE
5
F3
100
AcDbEntity
8
SK1
62
256
6
ByLayer
370
-1
48
1
60
0
100
AcDbLine
10
-0.324519
20
10.810291
30
0
11
-0.324519
21
11.023373
31
0
39
0
210
0
220
0
230
1
0
LINE
5
F4
100
AcDbEntity
8
SK1
62
256
6
ByLayer
370
-1
48
1
60
0
100
AcDbLine
10
-0.324519
20
13.791325
30
0
11
-0.324519
21
14.276921
31
0
39
0
210
0
220
0
230
1
0
LINE
5
F5
100
AcDbEntity
8
SK1
62
256
6
ByLayer
370
-1
48
1
60
0
100
AcDbLine
10
0
20
14.528429
30
0
11
0
21
14.758904
31
0
39
0
210
0
220
0
230
1
0
LINE
5
F6
100
AcDbEntity
8
SK1
62
256
6
ByLayer
370
-1
48
1
60
0
100
AcDbLine
10
-0.249519
20
13.92742
30
0
11
-0.249519
21
14.313414
31
0
39
0
210
0
220
0
230
1
0
LINE
5
F7
100
AcDbEntity
8
SK1
62
256
6
ByLayer
370
-1
48
1
60
0
100
AcDbLine
10
-0.324519
20
14.340471
30
0
11
-0.324519
21
14.276921
31
0
39
0
210
0
220
0
230
1
0
LINE
5
F8
100
AcDbEntity
8
SK1
62
256
6
ByLayer
370
-1
48
1
60
0
100
AcDbLine
10
0
20
14.254772
30
0
11
0
21
14.528429
31
0
39
0
210
0
220
0
230
1
0
LINE
5
F9
100
AcDbEntity
8
SK1
62
256
6
ByLayer
370
-1
48
1
60
0
100
AcDbLine
10
-0.324519
20
13.791382
30
0
11
-0.324519
21
13.703188
31
0
39
0
210
0
220
0
230
1
0
LINE
5
FA
100
AcDbEntity
8
SK1
62
256
6
ByLayer
370
-1
48
1
60
0
100
AcDbLine
10
-0.324519
20
13.048193
30
0
11
-0.324519
21
12.931521
31
0
39
0
210
0
220
0
230
1
0
LINE
5
FB
100
AcDbEntity
8
SK1
62
256
6
ByLayer
370
-1
48
1
60
0
100
AcDbLine
10
0
20
13.935575
30
0
11
0
21
13.567411
31
0
39
0
210
0
220
0
230
1
0
LINE
5
FC
100
AcDbEntity
8
SK1
62
256
6
ByLayer
370
-1
48
1
60
0
100
AcDbLine
10
-0.324519
20
11.023335
30
0
11
-0.324519
21
11.132233
31
0
39
0
210
0
220
0
230
1
0
LINE
5
FD
100
AcDbEntity
8
SK1
62
256
6
ByLayer
370
-1
48
1
60
0
100
AcDbLine
10
-0.249519
20
13.206671
30
0
11
-0.249519
21
13.727018
31
0
39
0
210
0
220
0
230
1
0
LINE
5
FE
100
AcDbEntity
8
SK1
62
256
6
ByLayer
370
-1
48
1
60
0
100
AcDbLine
10
0
20
13.935575
30
0
11
0
21
14.254833
31
0
39
0
210
0
220
0
230
1
0
LINE
5
FF
100
AcDbEntity
8
SK1
62
256
6
ByLayer
370
-1
48
1
60
0
100
AcDbLine
10
-0.324519
20
11.132233
30
0
11
-0.324519
21
11.287133
31
0
39
0
210
0
220
0
230
1
0
LINE
5
100
100
AcDbEntity
8
SK1
62
256
6
ByLayer
370
-1
48
1
60
0
100
AcDbLine
10
-0.324519
20
13.048157
30
0
11
-0.324519
21
13.703188
31
0
39
0
210
0
220
0
230
1
0
LINE
5
101
100
AcDbEntity
8
SK1
62
256
6
ByLayer
370
-1
48
1
60
0
100
AcDbLine
10
-0.249519
20
-13.727018
30
0
11
-0.249519
21
-13.206671
31
0
39
0
210
0
220
0
230
1
0
LINE
5
102
100
AcDbEntity
8
SK1
62
256
6
ByLayer
370
-1
48
1
60
0
100
AcDbLine
10
0
20
-14.254833
30
0
11
0
21
-13.935575
31
0
39
0
210
0
220
0
230
1
0
LINE
5
103
100
AcDbEntity
8
SK1
62
256
6
ByLayer
370
-1
48
1
60
0
100
AcDbLine
10
0
20
-13.567411
30
0
11
0
21
-13.935575
31
0
39
0
210
0
220
0
230
1
0
LINE
5
104
100
AcDbEntity
8
SK1
62
256
6
ByLayer
370
-1
48
1
60
0
100
AcDbLine
10
-0.324519
20
-13.703188
30
0
11
-0.324519
21
-13.048157
31
0
39
0
210
0
220
0
230
1
0
LINE
5
105
100
AcDbEntity
8
SK1
62
256
6
ByLayer
370
-1
48
1
60
0
100
AcDbLine
10
-0.324519
20
-11.287133
30
0
11
-0.324519
21
-11.132233
31
0
39
0
210
0
220
0
230
1
0
LINE
5
106
100
AcDbEntity
8
SK1
62
256
6
ByLayer
370
-1
48
1
60
0
100
AcDbLine
10
-0.324519
20
-13.703188
30
0
11
-0.324519
21
-13.791382
31
0
39
0
210
0
220
0
230
1
0
LINE
5
107
100
AcDbEntity
8
SK1
62
256
6
ByLayer
370
-1
48
1
60
0
100
AcDbLine
10
-0.324519
20
-11.132233
30
0
11
-0.324519
21
-11.023335
31
0
39
0
210
0
220
0
230
1
0
LINE
5
108
100
AcDbEntity
8
SK1
62
256
6
ByLayer
370
-1
48
1
60
0
100
AcDbLine
10
-0.324519
20
-9.770232
30
0
11
-0.324519
21
-9.404039
31
0
39
0
210
0
220
0
230
1
0
LINE
5
109
100
AcDbEntity
8
SK1
62
256
6
ByLayer
370
-1
48
1
60
0
100
AcDbLine
10
-0.324519
20
-14.276921
30
0
11
-0.324519
21
-14.340471
31
0
39
0
210
0
220
0
230
1
0
LINE
5
10A
100
AcDbEntity
8
SK1
62
256
6
ByLayer
370
-1
48
1
60
0
100
AcDbLine
10
-0.324519
20
-14.675952
30
0
11
-0.324519
21
-14.717201
31
0
39
0
210
0
220
0
230
1
0
LINE
5
10B
100
AcDbEntity
8
SK1
62
256
6
ByLayer
370
-1
48
1
60
0
100
AcDbLine
10
-0.324519
20
-14.914311
30
0
11
-0.324519
21
-14.934621
31
0
39
0
210
0
220
0
230
1
0
LINE
5
10C
100
AcDbEntity
8
SK1
62
256
6
ByLayer
370
-1
48
1
60
0
100
AcDbLine
10
-0.324519
20
-12.931521
30
0
11
-0.324519
21
-13.048193
31
0
39
0
210
0
220
0
230
1
0
LINE
5
10D
100
AcDbEntity
8
SK1
62
256
6
ByLayer
370
-1
48
1
60
0
100
AcDbLine
10
-0.324519
20
-12.931521
30
0
11
-0.324519
21
-12.075126
31
0
39
0
210
0
220
0
230
1
0
LINE
5
10E
100
AcDbEntity
8
SK1
62
256
6
ByLayer
370
-1
48
1
60
0
100
AcDbLine
10
0
20
-13.146302
30
0
11
0
21
-12.66689
31
0
39
0
210
0
220
0
230
1
0
LINE
5
10F
100
AcDbEntity
8
SK1
62
256
6
ByLayer
370
-1
48
1
60
0
100
AcDbLine
10
0
20
-13.567434
30
0
11
0
21
-13.146302
31
0
39
0
210
0
220
0
230
1
0
LINE
5
110
100
AcDbEntity
8
SK1
62
256
6
ByLayer
370
-1
48
1
60
0
100
AcDbLine
10
-0.249519
20
-12.941723
30
0
11
-0.249519
21
-12.262085
31
0
39
0
210
0
220
0
230
1
0
LINE
5
111
100
AcDbEntity
8
SK1
62
256
6
ByLayer
370
-1
48
1
60
0
100
AcDbLine
10
-0.324519
20
12.075126
30
0
11
-0.324519
21
12.931521
31
0
39
0
210
0
220
0
230
1
0
LINE
5
112
100
AcDbEntity
8
SK1
62
256
6
ByLayer
370
-1
48
1
60
0
100
AcDbLine
10
-0.249519
20
12.262085
30
0
11
-0.249519
21
12.941723
31
0
39
0
210
0
220
0
230
1
0
LINE
5
113
100
AcDbEntity
8
SK1
62
256
6
ByLayer
370
-1
48
1
60
0
100
AcDbLine
10
0
20
12.66689
30
0
11
0
21
13.146302
31
0
39
0
210
0
220
0
230
1
0
LINE
5
114
100
AcDbEntity
8
SK1
62
256
6
ByLayer
370
-1
48
1
60
0
100
AcDbLine
10
0
20
13.146302
30
0
11
0
21
13.567434
31
0
39
0
210
0
220
0
230
1
0
LINE
5
115
100
AcDbEntity
8
SK1
62
256
6
ByLayer
370
-1
48
1
60
0
100
AcDbLine
10
-0.324519
20
12.075117
30
0
11
-0.324519
21
11.923554
31
0
39
0
210
0
220
0
230
1
0
LINE
5
116
100
AcDbEntity
8
SK1
62
256
6
ByLayer
370
-1
48
1
60
0
100
AcDbLine
10
-0.324519
20
10.810252
30
0
11
-0.324519
21
10.612164
31
0
39
0
210
0
220
0
230
1
0
LINE
5
117
100
AcDbEntity
8
SK1
62
256
6
ByLayer
370
-1
48
1
60
0
100
AcDbLine
10
-0.324519
20
-14.276921
30
0
11
-0.324519
21
-13.791325
31
0
39
0
210
0
220
0
230
1
0
LINE
5
118
100
AcDbEntity
8
SK1
62
256
6
ByLayer
370
-1
48
1
60
0
100
AcDbLine
10
-0.324519
20
-11.023373
30
0
11
-0.324519
21
-10.810291
31
0
39
0
210
0
220
0
230
1
0
LINE
5
119
100
AcDbEntity
8
SK1
62
256
6
ByLayer
370
-1
48
1
60
0
100
AcDbLine
10
-0.324519
20
-10.246814
30
0
11
-0.324519
21
-9.770232
31
0
39
0
210
0
220
0
230
1
0
LINE
5
11A
100
AcDbEntity
8
SK1
62
256
6
ByLayer
370
-1
48
1
60
0
100
AcDbLine
10
0
20
-14.528429
30
0
11
0
21
-14.254772
31
0
39
0
210
0
220
0
230
1
0
LINE
5
11B
100
AcDbEntity
8
SK1
62
256
6
ByLayer
370
-1
48
1
60
0
100
AcDbLine
10
-0.324519
20
-14.675952
30
0
11
-0.324519
21
-14.340459
31
0
39
0
210
0
220
0
230
1
0
LINE
5
11C
100
AcDbEntity
8
1
62
256
6
ByLayer
370
-1
48
1
60
0
100
AcDbLine
10
30.858289
20
-13.128759
30
0
11
30.685154
21
-13.712817
31
0
39
0
210
0
220
0
230
1
0
LINE
5
11D
100
AcDbEntity
8
1
62
256
6
ByLayer
370
-1
48
1
60
0
100
AcDbLine
10
31.989042
20
-17.815383
30
0
11
31.989042
21
-18.015604
31
0
39
0
210
0
220
0
230
1
0
LINE
5
11E
100
AcDbEntity
8
1
62
256
6
ByLayer
370
-1
48
1
60
0
100
AcDbLine
10
21.926952
20
-16.320144
30
0
11
21.763593
21
-11.801621
31
0
39
0
210
0
220
0
230
1
0
LINE
5
11F
100
AcDbEntity
8
1
62
256
6
ByLayer
370
-1
48
1
60
0
100
AcDbLine
10
21.900803
20
-11.653887
30
0
11
21.878034
21
-11.304363
31
0
39
0
210
0
220
0
230
1
0
LINE
5
120
100
AcDbEntity
8
1
62
256
6
ByLayer
370
-1
48
1
60
0
100
AcDbLine
10
24.198229
20
-10.327518
30
0
11
24.346427
21
-10.845101
31
0
39
0
210
0
220
0
230
1
0
LINE
5
121
100
AcDbEntity
8
1
62
256
6
ByLayer
370
-1
48
1
60
0
100
AcDbLine
10
20.688152
20
-14.03669
30
0
11
20.692739
21
-14.36946
31
0
39
0
210
0
220
0
230
1
0
LINE
5
122
100
AcDbEntity
8
1
62
256
6
ByLayer
370
-1
48
1
60
0
100
AcDbLine
10
31.989042
20
-17.815383
30
0
11
31.786807
21
-17.948216
31
0
39
0
210
0
220
0
230
1
0
LINE
5
123
100
AcDbEntity
8
1
62
256
6
ByLayer
370
-1
48
1
60
0
100
AcDbLine
10
24.356809
20
-17.680235
30
0
11
22.051901
21
-16.404715
31
0
39
0
210
0
220
0
230
1
0
LINE
5
124
100
AcDbEntity
8
1
62
256
6
ByLayer
370
-1
48
1
60
0
100
AcDbLine
10
21.880601
20
-11.66653
30
0
11
22.051901
21
-16.404715
31
0
39
0
210
0
220
0
230
1
0
LINE
5
125
100
AcDbEntity
8
1
62
256
6
ByLayer
370
-1
48
1
60
0
100
AcDbLine
10
20.542294
20
-13.39023
30
0
11
20.420296
21
-13.594898
31
0
39
0
210
0
220
0
230
1
0
LINE
5
126
100
AcDbEntity
8
1
62
256
6
ByLayer
370
-1
48
1
60
0
100
AcDbLine
10
28.859034
20
-19.573057
30
0
11
29.03919
21
-19.828006
31
0
39
0
210
0
220
0
230
1
0
LINE
5
127
100
AcDbEntity
8
1
62
256
6
ByLayer
370
-1
48
1
60
0
100
AcDbLine
10
31.25584
20
-7.383424
30
0
11
29.520689
21
-7.262782
31
0
39
0
210
0
220
0
230
1
0
LINE
5
128
100
AcDbEntity
8
1
62
256
6
ByLayer
370
-1
48
1
60
0
100
AcDbLine
10
20.309982
20
-13.662541
30
0
11
19.458161
21
-13.729691
31
0
39
0
210
0
220
0
230
1
0
LINE
5
129
100
AcDbEntity
8
1
62
256
6
ByLayer
370
-1
48
1
60
0
100
AcDbLine
10
28.031737
20
-19.611298
30
0
11
28.239005
21
-19.570768
31
0
39
0
210
0
220
0
230
1
0
LINE
5
12A
100
AcDbEntity
8
1
62
256
6
ByLayer
370
-1
48
1
60
0
100
AcDbLine
10
20.715416
20
-13.723699
30
0
11
19.665208
21
-13.806488
31
0
39
0
210
0
220
0
230
1
0
LINE
5
12B
100
AcDbEntity
8
1
62
256
6
ByLayer
370
-1
48
1
60
0
100
AcDbLine
10
25.268175
20
-9.75141
30
0
11
25.101627
21
-9.806084
31
0
39
0
210
0
220
0
230
1
0
LINE
5
12C
100
AcDbEntity
8
1
62
256
6
ByLayer
370
-1
48
1
60
0
100
AcDbLine
10
21.293422
20
-12.385809
30
0
11
20.991124
21
-12.434752
31
0
39
0
210
0
220
0
230
1
0
LINE
5
12D
100
AcDbEntity
8
1
62
256
6
ByLayer
370
-1
48
1
60
0
100
AcDbLine
10
19.391429
20
-12.705297
30
0
11
20.246566
21
-12.689057
31
0
39
0
210
0
220
0
230
1
0
LINE
5
12E
100
AcDbEntity
8
1
62
256
6
ByLayer
370
-1
48
1
60
0
100
AcDbLine
10
20.076711
20
-14.795213
30
0
11
20.290083
21
-14.618861
31
0
39
0
210
0
220
0
230
1
0
LINE
5
12F
100
AcDbEntity
8
1
62
256
6
ByLayer
370
-1
48
1
60
0
100
AcDbLine
10
31.204162
20
-8.584394
30
0
11
31.153176
21
-7.80172
31
0
39
0
210
0
220
0
230
1
0
LINE
5
130
100
AcDbEntity
8
1
62
256
6
ByLayer
370
-1
48
1
60
0
100
AcDbLine
10
29.391343
20
-7.286775
30
0
11
28.75989
21
-7.589582
31
0
39
0
210
0
220
0
230
1
0
LINE
5
131
100
AcDbEntity
8
1
62
256
6
ByLayer
370
-1
48
1
60
0
100
AcDbLine
10
31.923154
20
-10.431652
30
0
11
31.815649
21
-10.216928
31
0
39
0
210
0
220
0
230
1
0
LINE
5
132
100
AcDbEntity
8
1
62
256
6
ByLayer
370
-1
48
1
60
0
100
AcDbLine
10
31.204162
20
-8.584394
30
0
11
31.135776
21
-8.573998
31
0
39
0
210
0
220
0
230
1
0
LINE
5
133
100
AcDbEntity
8
1
62
256
6
ByLayer
370
-1
48
1
60
0
100
AcDbLine
10
30.660158
20
-13.706581
30
0
11
30.833292
21
-13.122523
31
0
39
0
210
0
220
0
230
1
0
LINE
5
134
100
AcDbEntity
8
1
62
256
6
ByLayer
370
-1
48
1
60
0
100
AcDbLine
10
19.383487
20
-13.77548
30
0
11
19.316562
21
-12.748115
31
0
39
0
210
0
220
0
230
1
0
LINE
5
135
100
AcDbEntity
8
1
62
256
6
ByLayer
370
-1
48
1
60
0
100
AcDbLine
10
19.567476
20
-13.970446
30
0
11
20.076711
21
-14.795213
31
0
39
0
210
0
220
0
230
1
0
LINE
5
136
100
AcDbEntity
8
1
62
256
6
ByLayer
370
-1
48
1
60
0
100
AcDbLine
10
25.331129
20
-10.607626
30
0
11
25.268175
21
-9.75141
31
0
39
0
210
0
220
0
230
1
0
LINE
5
137
100
AcDbEntity
8
1
62
256
6
ByLayer
370
-1
48
1
60
0
100
AcDbLine
10
21.445139
20
-15.490678
30
0
11
21.484606
21
-15.929913
31
0
39
0
210
0
220
0
230
1
0
LINE
5
138
100
AcDbEntity
8
1
62
256
6
ByLayer
370
-1
48
1
60
0
100
AcDbLine
10
30.356122
20
-19.361018
30
0
11
30.901184
21
-20.295776
31
0
39
0
210
0
220
0
230
1
0
LINE
5
139
100
AcDbEntity
8
1
62
256
6
ByLayer
370
-1
48
1
60
0
100
AcDbLine
10
32.001756
20
-14.390559
30
0
11
31.999309
21
-14.169933
31
0
39
0
210
0
220
0
230
1
0
LINE
5
13A
100
AcDbEntity
8
1
62
256
6
ByLayer
370
-1
48
1
60
0
100
AcDbLine
10
24.260287
20
-10.899055
30
0
11
24.021415
21
-10.461847
31
0
39
0
210
0
220
0
230
1
0
LINE
5
13B
100
AcDbEntity
8
1
62
256
6
ByLayer
370
-1
48
1
60
0
100
AcDbLine
10
31.989247
20
-18.107538
30
0
11
31.759085
21
-18.030844
31
0
39
0
210
0
220
0
230
1
0
LINE
5
13C
100
AcDbEntity
8
1
62
256
6
ByLayer
370
-1
48
1
60
0
100
AcDbLine
10
21.900803
20
-11.653887
30
0
11
24.021415
21
-10.461847
31
0
39
0
210
0
220
0
230
1
0
LINE
5
13D
100
AcDbEntity
8
1
62
256
6
ByLayer
370
-1
48
1
60
0
100
AcDbLine
10
31.548818
20
-9.621531
30
0
11
31.674308
21
-9.369025
31
0
39
0
210
0
220
0
230
1
0
LINE
5
13E
100
AcDbEntity
8
1
62
256
6
ByLayer
370
-1
48
1
60
0
100
AcDbLine
10
30.124434
20
-19.710247
30
0
11
30.36843
21
-19.709182
31
0
39
0
210
0
220
0
230
1
0
LINE
5
13F
100
AcDbEntity
8
1
62
256
6
ByLayer
370
-1
48
1
60
0
100
AcDbLine
10
29.520689
20
-7.262782
30
0
11
29.504512
21
-7.01444
31
0
39
0
210
0
220
0
230
1
0
LINE
5
140
100
AcDbEntity
8
1
62
256
6
ByLayer
370
-1
48
1
60
0
100
AcDbLine
10
24.356809
20
-17.680235
30
0
11
25.132322
21
-17.170339
31
0
39
0
210
0
220
0
230
1
0
LINE
5
141
100
AcDbEntity
8
1
62
256
6
ByLayer
370
-1
48
1
60
0
100
AcDbLine
10
31.33294
20
-7.431962
30
0
11
31.266014
21
-6.404597
31
0
39
0
210
0
220
0
230
1
0
LINE
5
142
100
AcDbEntity
8
1
62
256
6
ByLayer
370
-1
48
1
60
0
100
AcDbLine
10
21.763593
20
-11.801621
30
0
11
21.656088
21
-11.938032
31
0
39
0
210
0
220
0
230
1
0
LINE
5
143
100
AcDbEntity
8
1
62
256
6
ByLayer
370
-1
48
1
60
0
100
AcDbLine
10
30.913731
20
-8.18547
30
0
11
31.333403
21
-7.51287
31
0
39
0
210
0
220
0
230
1
0
LINE
5
144
100
AcDbEntity
8
1
62
256
6
ByLayer
370
-1
48
1
60
0
100
AcDbLine
10
28.239005
20
-19.570768
30
0
11
31.623956
21
-17.77069
31
0
39
0
210
0
220
0
230
1
0
LINE
5
145
100
AcDbEntity
8
1
62
256
6
ByLayer
370
-1
48
1
60
0
100
AcDbLine
10
21.170302
20
-15.490105
30
0
11
21.01253
21
-15.632466
31
0
39
0
210
0
220
0
230
1
0
LINE
5
146
100
AcDbEntity
8
1
62
256
6
ByLayer
370
-1
48
1
60
0
100
AcDbLine
10
24.105776
20
-10.404637
30
0
11
24.346427
21
-10.845101
31
0
39
0
210
0
220
0
230
1
0
LINE
5
147
100
AcDbEntity
8
1
62
256
6
ByLayer
370
-1
48
1
60
0
100
AcDbLine
10
29.378229
20
-7.085461
30
0
11
29.391343
21
-7.286775
31
0
39
0
210
0
220
0
230
1
0
LINE
5
148
100
AcDbEntity
8
1
62
256
6
ByLayer
370
-1
48
1
60
0
100
AcDbLine
10
24.782485
20
-17.855551
30
0
11
25.3433
21
-18.173746
31
0
39
0
210
0
220
0
230
1
0
LINE
5
149
100
AcDbEntity
8
1
62
256
6
ByLayer
370
-1
48
1
60
0
100
AcDbLine
10
21.484606
20
-15.929913
30
0
11
21.926952
21
-16.320144
31
0
39
0
210
0
220
0
230
1
0
LINE
5
14A
100
AcDbEntity
8
1
62
256
6
ByLayer
370
-1
48
1
60
0
100
AcDbLine
10
32.000165
20
-13.174361
30
0
11
31.485624
21
-13.076557
31
0
39
0
210
0
220
0
230
1
0
LINE
5
14B
100
AcDbEntity
8
1
62
256
6
ByLayer
370
-1
48
1
60
0
100
AcDbLine
10
25.748284
20
-16.953022
30
0
11
26.184616
21
-17.38762
31
0
39
0
210
0
220
0
230
1
0
LINE
5
14C
100
AcDbEntity
8
1
62
256
6
ByLayer
370
-1
48
1
60
0
100
AcDbLine
10
30.684961
20
-19.158361
30
0
11
30.994316
21
-19.688889
31
0
39
0
210
0
220
0
230
1
0
LINE
5
14D
100
AcDbEntity
8
1
62
256
6
ByLayer
370
-1
48
1
60
0
100
AcDbLine
10
20.933134
20
-15.591554
30
0
11
21.112693
21
-15.429533
31
0
39
0
210
0
220
0
230
1
0
LINE
5
14E
100
AcDbEntity
8
1
62
256
6
ByLayer
370
-1
48
1
60
0
100
AcDbLine
10
32.00236
20
-10.642805
30
0
11
32.00236
21
-13.008377
31
0
39
0
210
0
220
0
230
1
0
LINE
5
14F
100
AcDbEntity
8
1
62
256
6
ByLayer
370
-1
48
1
60
0
100
AcDbLine
10
28.809476
20
-7.812684
30
0
11
31.548818
21
-9.621531
31
0
39
0
210
0
220
0
230
1
0
LINE
5
150
100
AcDbEntity
8
1
62
256
6
ByLayer
370
-1
48
1
60
0
100
AcDbLine
10
27.839804
20
-19.606412
30
0
11
32.00236
21
-17.075466
31
0
39
0
210
0
220
0
230
1
0
LINE
5
151
100
AcDbEntity
8
1
62
256
6
ByLayer
370
-1
48
1
60
0
100
AcDbLine
10
30.610636
20
-7.742992
30
0
11
30.009942
21
-7.701226
31
0
39
0
210
0
220
0
230
1
0
LINE
5
152
100
AcDbEntity
8
1
62
256
6
ByLayer
370
-1
48
1
60
0
100
AcDbLine
10
31.623956
20
-17.77069
30
0
11
31.991489
21
-17.529285
31
0
39
0
210
0
220
0
230
1
0
LINE
5
153
100
AcDbEntity
8
1
62
256
6
ByLayer
370
-1
48
1
60
0
100
AcDbLine
10
31.202479
20
-14.018472
30
0
11
32.001756
21
-14.390559
31
0
39
0
210
0
220
0
230
1
0
LINE
5
154
100
AcDbEntity
8
1
62
256
6
ByLayer
370
-1
48
1
60
0
100
AcDbLine
10
30.901184
20
-20.295776
30
0
11
30.897154
21
-19.745747
31
0
39
0
210
0
220
0
230
1
0
LINE
5
155
100
AcDbEntity
8
1
62
256
6
ByLayer
370
-1
48
1
60
0
100
AcDbLine
10
20.520978
20
-13.223486
30
0
11
20.548656
21
-13.279945
31
0
39
0
210
0
220
0
230
1
0
LINE
5
156
100
AcDbEntity
8
1
62
256
6
ByLayer
370
-1
48
1
60
0
100
AcDbLine
10
20.542294
20
-13.39023
30
0
11
20.533033
21
-13.248076
31
0
39
0
210
0
220
0
230
1
0
LINE
5
157
100
AcDbEntity
8
1
62
256
6
ByLayer
370
-1
48
1
60
0
100
AcDbLine
10
21.192019
20
-15.731794
30
0
11
21.01253
21
-15.632466
31
0
39
0
210
0
220
0
230
1
0
LINE
5
158
100
AcDbEntity
8
1
62
256
6
ByLayer
370
-1
48
1
60
0
100
AcDbLine
10
20.715416
20
-13.723699
30
0
11
20.694848
21
-13.939813
31
0
39
0
210
0
220
0
230
1
0
LINE
5
159
100
AcDbEntity
8
1
62
256
6
ByLayer
370
-1
48
1
60
0
100
AcDbLine
10
28.723654
20
-7.827221
30
0
11
28.680085
21
-7.631189
31
0
39
0
210
0
220
0
230
1
0
LINE
5
15A
100
AcDbEntity
8
1
62
256
6
ByLayer
370
-1
48
1
60
0
100
AcDbLine
10
27.818448
20
-19.595882
30
0
11
25.697836
21
-18.42235
31
0
39
0
210
0
220
0
230
1
0
LINE
5
15B
100
AcDbEntity
8
1
62
256
6
ByLayer
370
-1
48
1
60
0
100
AcDbLine
10
30.316975
20
-8.213637
30
0
11
30.610636
21
-7.742992
31
0
39
0
210
0
220
0
230
1
0
LINE
5
15C
100
AcDbEntity
8
1
62
256
6
ByLayer
370
-1
48
1
60
0
100
AcDbLine
10
20.098794
20
-13.986801
30
0
11
20.694848
21
-13.939813
31
0
39
0
210
0
220
0
230
1
0
LINE
5
15D
100
AcDbEntity
8
1
62
256
6
ByLayer
370
-1
48
1
60
0
100
AcDbLine
10
31.815649
20
-10.216928
30
0
11
28.618278
21
-8.105635
31
0
39
0
210
0
220
0
230
1
0
LINE
5
15E
100
AcDbEntity
8
1
62
256
6
ByLayer
370
-1
48
1
60
0
100
AcDbLine
10
19.383487
20
-13.77548
30
0
11
19.381449
21
-13.778901
31
0
39
0
210
0
220
0
230
1
0
LINE
5
15F
100
AcDbEntity
8
1
62
256
6
ByLayer
370
-1
48
1
60
0
100
AcDbLine
10
31.998288
20
-13.962417
30
0
11
31.998819
21
-13.34555
31
0
39
0
210
0
220
0
230
1
0
LINE
5
160
100
AcDbEntity
8
1
62
256
6
ByLayer
370
-1
48
1
60
0
100
AcDbLine
10
29.863727
20
-8.27819
30
0
11
30.177005
21
-8.457783
31
0
39
0
210
0
220
0
230
1
0
LINE
5
161
100
AcDbEntity
8
1
62
256
6
ByLayer
370
-1
48
1
60
0
100
AcDbLine
10
28.500596
20
-7.732083
30
0
11
28.680085
21
-7.631189
31
0
39
0
210
0
220
0
230
1
0
LINE
5
162
100
AcDbEntity
8
1
62
256
6
ByLayer
370
-1
48
1
60
0
100
AcDbLine
10
25.51663
20
-18.289583
30
0
11
25.887714
21
-17.942584
31
0
39
0
210
0
220
0
230
1
0
LINE
5
163
100
AcDbEntity
8
1
62
256
6
ByLayer
370
-1
48
1
60
0
100
AcDbLine
10
30.897154
20
-19.745747
30
0
11
30.5878
21
-19.215219
31
0
39
0
210
0
220
0
230
1
0
LINE
5
164
100
AcDbEntity
8
1
62
256
6
ByLayer
370
-1
48
1
60
0
100
AcDbLine
10
31.135776
20
-8.573998
30
0
11
31.091869
21
-7.899987
31
0
39
0
210
0
220
0
230
1
0
LINE
5
165
100
AcDbEntity
8
1
62
256
6
ByLayer
370
-1
48
1
60
0
100
AcDbLine
10
24.928622
20
-9.887095
30
0
11
25.30683
21
-11.207996
31
0
39
0
210
0
220
0
230
1
0
LINE
5
166
100
AcDbEntity
8
1
62
256
6
ByLayer
370
-1
48
1
60
0
100
AcDbLine
10
20.420296
20
-13.594898
30
0
11
20.357166
21
-12.625804
31
0
39
0
210
0
220
0
230
1
0
LINE
5
167
100
AcDbEntity
8
1
62
256
6
ByLayer
370
-1
48
1
60
0
100
AcDbLine
10
28.500596
20
-7.732083
30
0
11
28.723654
21
-7.827221
31
0
39
0
210
0
220
0
230
1
0
LINE
5
168
100
AcDbEntity
8
1
62
256
6
ByLayer
370
-1
48
1
60
0
100
AcDbLine
10
31.036415
20
-8.508596
30
0
11
30.914417
21
-8.304993
31
0
39
0
210
0
220
0
230
1
0
LINE
5
169
100
AcDbEntity
8
1
62
256
6
ByLayer
370
-1
48
1
60
0
100
AcDbLine
10
31.633532
20
-19.355444
30
0
11
31.39733
21
-19.211686
31
0
39
0
210
0
220
0
230
1
0
LINE
5
16A
100
AcDbEntity
8
1
62
256
6
ByLayer
370
-1
48
1
60
0
100
AcDbLine
10
20.991124
20
-12.434752
30
0
11
20.951441
21
-11.825588
31
0
39
0
210
0
220
0
230
1
0
LINE
5
16B
100
AcDbEntity
8
1
62
256
6
ByLayer
370
-1
48
1
60
0
100
AcDbLine
10
20.001063
20
-14.150758
30
0
11
19.567476
21
-13.970446
31
0
39
0
210
0
220
0
230
1
0
LINE
5
16C
100
AcDbEntity
8
1
62
256
6
ByLayer
370
-1
48
1
60
0
100
AcDbLine
10
31.899585
20
-9.458615
30
0
11
31.968542
21
-10.517158
31
0
39
0
210
0
220
0
230
1
0
LINE
5
16D
100
AcDbEntity
8
1
62
256
6
ByLayer
370
-1
48
1
60
0
100
AcDbLine
10
24.782485
20
-17.855551
30
0
11
25.729511
21
-16.969991
31
0
39
0
210
0
220
0
230
1
0
LINE
5
16E
100
AcDbEntity
8
1
62
256
6
ByLayer
370
-1
48
1
60
0
100
AcDbLine
10
30.684961
20
-19.158361
30
0
11
30.991166
21
-18.967002
31
0
39
0
210
0
220
0
230
1
0
LINE
5
16F
100
AcDbEntity
8
1
62
256
6
ByLayer
370
-1
48
1
60
0
100
AcDbLine
10
20.308234
20
-15.294229
30
0
11
20.933134
21
-15.591554
31
0
39
0
210
0
220
0
230
1
0
LINE
5
170
100
AcDbEntity
8
1
62
256
6
ByLayer
370
-1
48
1
60
0
100
AcDbLine
10
21.656088
20
-11.938032
30
0
11
21.445139
21
-15.490678
31
0
39
0
210
0
220
0
230
1
0
LINE
5
171
100
AcDbEntity
8
1
62
256
6
ByLayer
370
-1
48
1
60
0
100
AcDbLine
10
19.381449
20
-13.778901
30
0
11
19.314523
21
-12.751535
31
0
39
0
210
0
220
0
230
1
0
LINE
5
172
100
AcDbEntity
8
1
62
256
6
ByLayer
370
-1
48
1
60
0
100
AcDbLine
10
21.784195
20
-11.357142
30
0
11
21.80898
21
-11.737622
31
0
39
0
210
0
220
0
230
1
0
LINE
5
173
100
AcDbEntity
8
1
62
256
6
ByLayer
370
-1
48
1
60
0
100
AcDbLine
10
31.299028
20
-19.155681
30
0
11
30.991166
21
-18.967002
31
0
39
0
210
0
220
0
230
1
0
LINE
5
174
100
AcDbEntity
8
1
62
256
6
ByLayer
370
-1
48
1
60
0
100
AcDbLine
10
32.00236
20
-14.50431
30
0
11
31.160542
21
-14.112419
31
0
39
0
210
0
220
0
230
1
0
LINE
5
175
100
AcDbEntity
8
1
62
256
6
ByLayer
370
-1
48
1
60
0
100
AcDbLine
10
31.998819
20
-13.34555
30
0
11
30.858289
21
-13.128759
31
0
39
0
210
0
220
0
230
1
0
LINE
5
176
100
AcDbEntity
8
1
62
256
6
ByLayer
370
-1
48
1
60
0
100
AcDbLine
10
20.968658
20
-14.387689
30
0
11
20.964072
21
-14.054919
31
0
39
0
210
0
220
0
230
1
0
LINE
5
177
100
AcDbEntity
8
1
62
256
6
ByLayer
370
-1
48
1
60
0
100
AcDbLine
10
31.096647
20
-20.294923
30
0
11
31.633532
21
-19.355444
31
0
39
0
210
0
220
0
230
1
0
LINE
5
178
100
AcDbEntity
8
1
62
256
6
ByLayer
370
-1
48
1
60
0
100
AcDbLine
10
31.991489
20
-17.529285
30
0
11
32.001318
21
-17.197685
31
0
39
0
210
0
220
0
230
1
0
LINE
5
179
100
AcDbEntity
8
1
62
256
6
ByLayer
370
-1
48
1
60
0
100
AcDbLine
10
25.3433
20
-18.173746
30
0
11
26.165844
21
-17.404589
31
0
39
0
210
0
220
0
230
1
0
LINE
5
17A
100
AcDbEntity
8
1
62
256
6
ByLayer
370
-1
48
1
60
0
100
AcDbLine
10
32.001745
20
-13.093725
30
0
11
31.485624
21
-13.076557
31
0
39
0
210
0
220
0
230
1
0
LINE
5
17B
100
AcDbEntity
8
1
62
256
6
ByLayer
370
-1
48
1
60
0
100
AcDbLine
10
30.480286
20
-19.77423
30
0
11
30.922385
21
-20.53241
31
0
39
0
210
0
220
0
230
1
0
LINE
5
17C
100
AcDbEntity
8
1
62
256
6
ByLayer
370
-1
48
1
60
0
100
AcDbLine
10
25.313169
20
-11.232971
30
0
11
24.703702
21
-11.382431
31
0
39
0
210
0
220
0
230
1
0
LINE
5
17D
100
AcDbEntity
8
1
62
256
6
ByLayer
370
-1
48
1
60
0
100
AcDbLine
10
31.433969
20
-18.938628
30
0
11
31.126106
21
-18.74995
31
0
39
0
210
0
220
0
230
1
0
LINE
5
17E
100
AcDbEntity
8
1
62
256
6
ByLayer
370
-1
48
1
60
0
100
AcDbLine
10
31.330901
20
-7.42856
30
0
11
31.263975
21
-6.401194
31
0
39
0
210
0
220
0
230
1
0
LINE
5
17F
100
AcDbEntity
8
1
62
256
6
ByLayer
370
-1
48
1
60
0
100
AcDbLine
10
30.994316
20
-19.688889
30
0
11
31.299028
21
-19.155681
31
0
39
0
210
0
220
0
230
1
0
LINE
5
180
100
AcDbEntity
8
1
62
256
6
ByLayer
370
-1
48
1
60
0
100
AcDbLine
10
19.380598
20
-13.859814
30
0
11
20.215453
21
-15.211962
31
0
39
0
210
0
220
0
230
1
0
LINE
5
181
100
AcDbEntity
8
1
62
256
6
ByLayer
370
-1
48
1
60
0
100
AcDbLine
10
31.66617
20
-9.216396
30
0
11
31.602211
21
-8.234576
31
0
39
0
210
0
220
0
230
1
0
LINE
5
182
100
AcDbEntity
8
1
62
256
6
ByLayer
370
-1
48
1
60
0
100
AcDbLine
10
31.144459
20
-7.625141
30
0
11
30.702813
21
-7.809273
31
0
39
0
210
0
220
0
230
1
0
LINE
5
183
100
AcDbEntity
8
1
62
256
6
ByLayer
370
-1
48
1
60
0
100
AcDbLine
10
24.611521
20
-17.776041
30
0
11
25.186191
21
-17.23867
31
0
39
0
210
0
220
0
230
1
0
LINE
5
184
100
AcDbEntity
8
1
62
256
6
ByLayer
370
-1
48
1
60
0
100
AcDbLine
10
31.999309
20
-14.169933
30
0
11
31.202479
21
-14.018472
31
0
39
0
210
0
220
0
230
1
0
LINE
5
185
100
AcDbEntity
8
1
62
256
6
ByLayer
370
-1
48
1
60
0
100
AcDbLine
10
32.00236
20
-14.50431
30
0
11
32.00236
21
-17.075466
31
0
39
0
210
0
220
0
230
1
0
LINE
5
186
100
AcDbEntity
8
1
62
256
6
ByLayer
370
-1
48
1
60
0
100
AcDbLine
10
30.998103
20
-20.576442
30
0
11
31.002181
21
-20.576425
31
0
39
0
210
0
220
0
230
1
0
LINE
5
187
100
AcDbEntity
8
1
62
256
6
ByLayer
370
-1
48
1
60
0
100
AcDbLine
10
20.688152
20
-14.03669
30
0
11
20.092099
21
-14.083677
31
0
39
0
210
0
220
0
230
1
0
LINE
5
188
100
AcDbEntity
8
1
62
256
6
ByLayer
370
-1
48
1
60
0
100
AcDbLine
10
19.458161
20
-13.729691
30
0
11
19.391429
21
-12.705297
31
0
39
0
210
0
220
0
230
1
0
LINE
5
189
100
AcDbEntity
8
1
62
256
6
ByLayer
370
-1
48
1
60
0
100
AcDbLine
10
25.612244
20
-18.365881
30
0
11
25.887714
21
-17.942584
31
0
39
0
210
0
220
0
230
1
0
LINE
5
18A
100
AcDbEntity
8
1
62
256
6
ByLayer
370
-1
48
1
60
0
100
AcDbLine
10
20.854218
20
-12.526507
30
0
11
20.813242
21
-11.897498
31
0
39
0
210
0
220
0
230
1
0
LINE
5
18B
100
AcDbEntity
8
1
62
256
6
ByLayer
370
-1
48
1
60
0
100
AcDbLine
10
31.39733
20
-19.211686
30
0
11
31.092617
21
-19.744895
31
0
39
0
210
0
220
0
230
1
0
LINE
5
18C
100
AcDbEntity
8
1
62
256
6
ByLayer
370
-1
48
1
60
0
100
AcDbLine
10
20.357166
20
-12.625804
30
0
11
20.45948
21
-12.454157
31
0
39
0
210
0
220
0
230
1
0
LINE
5
18D
100
AcDbEntity
8
1
62
256
6
ByLayer
370
-1
48
1
60
0
100
AcDbLine
10
31.66617
20
-9.216396
30
0
11
31.341739
21
-8.674951
31
0
39
0
210
0
220
0
230
1
0
LINE
5
18E
100
AcDbEntity
8
1
62
256
6
ByLayer
370
-1
48
1
60
0
100
AcDbLine
10
20.854218
20
-12.526507
30
0
11
20.529787
21
-13.070784
31
0
39
0
210
0
220
0
230
1
0
LINE
5
18F
100
AcDbEntity
8
1
62
256
6
ByLayer
370
-1
48
1
60
0
100
AcDbLine
10
20.290083
20
-14.618861
30
0
11
20.001063
21
-14.150758
31
0
39
0
210
0
220
0
230
1
0
LINE
5
190
100
AcDbEntity
8
1
62
256
6
ByLayer
370
-1
48
1
60
0
100
AcDbLine
10
25.51663
20
-18.289583
30
0
11
25.612244
21
-18.365881
31
0
39
0
210
0
220
0
230
1
0
LINE
5
191
100
AcDbEntity
8
1
62
256
6
ByLayer
370
-1
48
1
60
0
100
AcDbLine
10
30.316975
20
-8.213637
30
0
11
30.003697
21
-8.034044
31
0
39
0
210
0
220
0
230
1
0
LINE
5
192
100
AcDbEntity
8
1
62
256
6
ByLayer
370
-1
48
1
60
0
100
AcDbLine
10
30.914417
20
-8.304993
30
0
11
30.90739
21
-8.197135
31
0
39
0
210
0
220
0
230
1
0
LINE
5
193
100
AcDbEntity
8
1
62
256
6
ByLayer
370
-1
48
1
60
0
100
AcDbLine
10
19.665208
20
-13.806488
30
0
11
20.098794
21
-13.986801
31
0
39
0
210
0
220
0
230
1
0
LINE
5
194
100
AcDbEntity
8
1
62
256
6
ByLayer
370
-1
48
1
60
0
100
AcDbLine
10
31.27778
20
-7.693131
30
0
11
31.602211
21
-8.234576
31
0
39
0
210
0
220
0
230
1
0
LINE
5
195
100
AcDbEntity
8
1
62
256
6
ByLayer
370
-1
48
1
60
0
100
AcDbLine
10
19.314523
20
-12.751535
30
0
11
19.316562
21
-12.748115
31
0
39
0
210
0
220
0
230
1
0
LINE
5
196
100
AcDbEntity
8
1
62
256
6
ByLayer
370
-1
48
1
60
0
100
AcDbLine
10
30.004387
20
-7.604403
30
0
11
30.605082
21
-7.646168
31
0
39
0
210
0
220
0
230
1
0
LINE
5
197
100
AcDbEntity
8
1
62
256
6
ByLayer
370
-1
48
1
60
0
100
AcDbLine
10
20.309982
20
-13.662541
30
0
11
20.246566
21
-12.689057
31
0
39
0
210
0
220
0
230
1
0
LINE
5
198
100
AcDbEntity
8
1
62
256
6
ByLayer
370
-1
48
1
60
0
100
AcDbLine
10
31.998288
20
-13.962417
30
0
11
30.685154
21
-13.712817
31
0
39
0
210
0
220
0
230
1
0
LINE
5
199
100
AcDbEntity
8
1
62
256
6
ByLayer
370
-1
48
1
60
0
100
AcDbLine
10
28.212903
20
-7.932735
30
0
11
27.790214
21
-8.326741
31
0
39
0
210
0
220
0
230
1
0
LINE
5
19A
100
AcDbEntity
8
1
62
256
6
ByLayer
370
-1
48
1
60
0
100
AcDbLine
10
25.362442
20
-9.708029
30
0
11
25.428747
21
-10.609816
31
0
39
0
210
0
220
0
230
1
0
LINE
5
19B
100
AcDbEntity
8
1
62
256
6
ByLayer
370
-1
48
1
60
0
100
AcDbLine
10
29.988341
20
-7.388449
30
0
11
30.004387
21
-7.604403
31
0
39
0
210
0
220
0
230
1
0
LINE
5
19C
100
AcDbEntity
8
1
62
256
6
ByLayer
370
-1
48
1
60
0
100
AcDbLine
10
31.263975
20
-6.401194
30
0
11
31.266014
21
-6.404597
31
0
39
0
210
0
220
0
230
1
0
LINE
5
19D
100
AcDbEntity
8
1
62
256
6
ByLayer
370
-1
48
1
60
0
100
AcDbLine
10
31.33294
20
-7.431962
30
0
11
31.330901
21
-7.42856
31
0
39
0
210
0
220
0
230
1
0
LINE
5
19E
100
AcDbEntity
8
1
62
256
6
ByLayer
370
-1
48
1
60
0
100
AcDbLine
10
28.618278
20
-8.105635
30
0
11
28.212903
21
-7.932735
31
0
39
0
210
0
220
0
230
1
0
LINE
5
19F
100
AcDbEntity
8
1
62
256
6
ByLayer
370
-1
48
1
60
0
100
AcDbLine
10
31.67651
20
-9.086324
30
0
11
31.899585
21
-9.458615
31
0
39
0
210
0
220
0
230
1
0
LINE
5
1A0
100
AcDbEntity
8
1
62
256
6
ByLayer
370
-1
48
1
60
0
100
AcDbLine
10
30.605082
20
-7.646168
30
0
11
31.046728
21
-7.462037
31
0
39
0
210
0
220
0
230
1
0
LINE
5
1A1
100
AcDbEntity
8
1
62
256
6
ByLayer
370
-1
48
1
60
0
100
AcDbLine
10
20.529787
20
-13.070784
30
0
11
20.465828
21
-12.088963
31
0
39
0
210
0
220
0
230
1
0
LINE
5
1A2
100
AcDbEntity
8
1
62
256
6
ByLayer
370
-1
48
1
60
0
100
AcDbLine
10
30.627047
20
-8.454388
30
0
11
31.144459
21
-7.625141
31
0
39
0
210
0
220
0
230
1
0
LINE
5
1A3
100
AcDbEntity
8
1
62
256
6
ByLayer
370
-1
48
1
60
0
100
AcDbLine
10
29.979483
20
-19.823903
30
0
11
30.019438
21
-19.7663
31
0
39
0
210
0
220
0
230
1
0
LINE
5
1A4
100
AcDbEntity
8
1
62
256
6
ByLayer
370
-1
48
1
60
0
100
AcDbLine
10
32.001318
20
-17.197685
30
0
11
28.031737
21
-19.611298
31
0
39
0
210
0
220
0
230
1
0
LINE
5
1A5
100
AcDbEntity
8
1
62
256
6
ByLayer
370
-1
48
1
60
0
100
AcDbLine
10
21.112693
20
-15.429533
30
0
11
21.293422
21
-12.385809
31
0
39
0
210
0
220
0
230
1
0
LINE
5
1A6
100
AcDbEntity
8
1
62
256
6
ByLayer
370
-1
48
1
60
0
100
AcDbLine
10
25.186191
20
-17.23867
30
0
11
24.449868
21
-17.722799
31
0
39
0
210
0
220
0
230
1
0
LINE
5
1A7
100
AcDbEntity
8
1
62
256
6
ByLayer
370
-1
48
1
60
0
100
AcDbLine
10
29.736041
20
-7.721855
30
0
11
29.729796
21
-8.054672
31
0
39
0
210
0
220
0
230
1
0
LINE
5
1A8
100
AcDbEntity
8
1
62
256
6
ByLayer
370
-1
48
1
60
0
100
AcDbLine
10
26.165844
20
-17.404589
30
0
11
25.729511
21
-16.969991
31
0
39
0
210
0
220
0
230
1
0
LINE
5
1A9
100
AcDbEntity
8
1
62
256
6
ByLayer
370
-1
48
1
60
0
100
AcDbLine
10
30.009942
20
-7.701226
30
0
11
30.003697
21
-8.034044
31
0
39
0
210
0
220
0
230
1
0
LINE
5
1AA
100
AcDbEntity
8
1
62
256
6
ByLayer
370
-1
48
1
60
0
100
AcDbLine
10
31.554125
20
-9.737446
30
0
11
31.546911
21
-9.626705
31
0
39
0
210
0
220
0
230
1
0
LINE
5
1AB
100
AcDbEntity
8
1
62
256
6
ByLayer
370
-1
48
1
60
0
100
AcDbLine
10
28.75989
20
-7.589582
30
0
11
28.809476
21
-7.812684
31
0
39
0
210
0
220
0
230
1
0
LINE
5
1AC
100
AcDbEntity
8
1
62
256
6
ByLayer
370
-1
48
1
60
0
100
AcDbLine
10
31.046728
20
-7.462037
30
0
11
29.988341
21
-7.388449
31
0
39
0
210
0
220
0
230
1
0
LINE
5
1AD
100
AcDbEntity
8
1
62
256
6
ByLayer
370
-1
48
1
60
0
100
AcDbLine
10
24.449868
20
-17.722799
30
0
11
24.611521
21
-17.776041
31
0
39
0
210
0
220
0
230
1
0
LINE
5
1AE
100
AcDbEntity
8
1
62
256
6
ByLayer
370
-1
48
1
60
0
100
AcDbLine
10
29.185241
20
-19.904347
30
0
11
29.834103
21
-19.901515
31
0
39
0
210
0
220
0
230
1
0
LINE
5
1AF
100
AcDbEntity
8
1
62
256
6
ByLayer
370
-1
48
1
60
0
100
AcDbLine
10
30.356122
20
-19.361018
30
0
11
30.5878
21
-19.215219
31
0
39
0
210
0
220
0
230
1
0
LINE
5
1B0
100
AcDbEntity
8
1
62
256
6
ByLayer
370
-1
48
1
60
0
100
AcDbLine
10
25.362442
20
-9.708029
30
0
11
27.667349
21
-8.412393
31
0
39
0
210
0
220
0
230
1
0
LINE
5
1B1
100
AcDbEntity
8
1
62
256
6
ByLayer
370
-1
48
1
60
0
100
AcDbLine
10
30.678973
20
-6.353794
30
0
11
31.189108
21
-6.35903
31
0
39
0
210
0
220
0
230
1
0
LINE
5
1B2
100
AcDbEntity
8
1
62
256
6
ByLayer
370
-1
48
1
60
0
100
AcDbLine
10
32.001206
20
-10.619631
30
0
11
27.667349
21
-8.412393
31
0
39
0
210
0
220
0
230
1
0
LINE
5
1B3
100
AcDbEntity
8
1
62
256
6
ByLayer
370
-1
48
1
60
0
100
AcDbLine
10
31.992524
20
-18.858581
30
0
11
31.989247
21
-18.107538
31
0
39
0
210
0
220
0
230
1
0
LINE
5
1B4
100
AcDbEntity
8
1
62
256
6
ByLayer
370
-1
48
1
60
0
100
AcDbLine
10
31.036415
20
-8.508596
30
0
11
31.005757
21
-8.037979
31
0
39
0
210
0
220
0
230
1
0
LINE
5
1B5
100
AcDbEntity
8
1
62
256
6
ByLayer
370
-1
48
1
60
0
100
AcDbLine
10
31.341739
20
-8.674951
30
0
11
31.27778
21
-7.693131
31
0
39
0
210
0
220
0
230
1
0
LINE
5
1B6
100
AcDbEntity
8
1
62
256
6
ByLayer
370
-1
48
1
60
0
100
AcDbLine
10
21.192019
20
-15.731794
30
0
11
21.170302
21
-15.490105
31
0
39
0
210
0
220
0
230
1
0
LINE
5
1B7
100
AcDbEntity
8
1
62
256
6
ByLayer
370
-1
48
1
60
0
100
AcDbLine
10
25.101627
20
-9.806084
30
0
11
25.331129
21
-10.607626
31
0
39
0
210
0
220
0
230
1
0
LINE
5
1B8
100
AcDbEntity
8
1
62
256
6
ByLayer
370
-1
48
1
60
0
100
AcDbLine
10
31.490056
20
-12.991335
30
0
11
32.00236
21
-13.008377
31
0
39
0
210
0
220
0
230
1
0
LINE
5
1B9
100
AcDbEntity
8
1
62
256
6
ByLayer
370
-1
48
1
60
0
100
AcDbLine
10
31.786807
20
-17.948216
30
0
11
31.989042
21
-18.015604
31
0
39
0
210
0
220
0
230
1
0
LINE
5
1BA
100
AcDbEntity
8
1
62
256
6
ByLayer
370
-1
48
1
60
0
100
AcDbLine
10
30.858245
20
-18.751119
30
0
11
30.55204
21
-18.942477
31
0
39
0
210
0
220
0
230
1
0
LINE
5
1BB
100
AcDbEntity
8
1
62
256
6
ByLayer
370
-1
48
1
60
0
100
AcDbLine
10
24.697363
20
-11.357456
30
0
11
25.30683
21
-11.207996
31
0
39
0
210
0
220
0
230
1
0
LINE
5
1BC
100
AcDbEntity
8
1
62
256
6
ByLayer
370
-1
48
1
60
0
100
AcDbLine
10
31.092617
20
-19.744895
30
0
11
31.096647
21
-20.294923
31
0
39
0
210
0
220
0
230
1
0
LINE
5
1BD
100
AcDbEntity
8
1
62
256
6
ByLayer
370
-1
48
1
60
0
100
AcDbLine
10
21.394563
20
-12.323227
30
0
11
21.347628
21
-11.602725
31
0
39
0
210
0
220
0
230
1
0
LINE
5
1BE
100
AcDbEntity
8
1
62
256
6
ByLayer
370
-1
48
1
60
0
100
AcDbLine
10
21.295426
20
-12.385487
30
0
11
21.248082
21
-11.658722
31
0
39
0
210
0
220
0
230
1
0
LINE
5
1BF
100
AcDbEntity
8
1
62
256
6
ByLayer
370
-1
48
1
60
0
100
AcDbLine
10
27.790214
20
-8.326741
30
0
11
31.923154
21
-10.431652
31
0
39
0
210
0
220
0
230
1
0
LINE
5
1C0
100
AcDbEntity
8
1
62
256
6
ByLayer
370
-1
48
1
60
0
100
AcDbLine
10
25.971269
20
-18.002183
30
0
11
25.697836
21
-18.42235
31
0
39
0
210
0
220
0
230
1
0
LINE
5
1C1
100
AcDbEntity
8
1
62
256
6
ByLayer
370
-1
48
1
60
0
100
AcDbLine
10
24.368868
20
-10.210181
30
0
11
24.697363
21
-11.357456
31
0
39
0
210
0
220
0
230
1
0
LINE
5
1C2
100
AcDbEntity
8
1
62
256
6
ByLayer
370
-1
48
1
60
0
100
AcDbLine
10
30.627047
20
-8.454388
30
0
11
30.409152
21
-8.279918
31
0
39
0
210
0
220
0
230
1
0
LINE
5
1C3
100
AcDbEntity
8
1
62
256
6
ByLayer
370
-1
48
1
60
0
100
AcDbLine
10
24.198229
20
-10.327518
30
0
11
24.105776
21
-10.404637
31
0
39
0
210
0
220
0
230
1
0
LINE
5
1C4
100
AcDbEntity
8
1
62
256
6
ByLayer
370
-1
48
1
60
0
100
AcDbLine
10
20.465828
20
-12.088963
30
0
11
20.587039
21
-11.885616
31
0
39
0
210
0
220
0
230
1
0
LINE
5
1C5
100
AcDbEntity
8
1
62
256
6
ByLayer
370
-1
48
1
60
0
100
AcDbLine
10
31.759085
20
-18.030844
30
0
11
28.859034
21
-19.573057
31
0
39
0
210
0
220
0
230
1
0
LINE
5
1C6
100
AcDbEntity
8
1
62
256
6
ByLayer
370
-1
48
1
60
0
100
AcDbLine
10
31.077512
20
-20.531733
30
0
11
31.957697
21
-18.991523
31
0
39
0
210
0
220
0
230
1
0
LINE
5
1C7
100
AcDbEntity
8
1
62
256
6
ByLayer
370
-1
48
1
60
0
100
AcDbLine
10
20.092099
20
-14.083677
30
0
11
20.381119
21
-14.55178
31
0
39
0
210
0
220
0
230
1
0
LINE
5
1C8
100
AcDbEntity
8
1
62
256
6
ByLayer
370
-1
48
1
60
0
100
AcDbLine
10
24.928622
20
-9.887095
30
0
11
24.368868
21
-10.210181
31
0
39
0
210
0
220
0
230
1
0
LINE
5
1C9
100
AcDbEntity
8
1
62
256
6
ByLayer
370
-1
48
1
60
0
100
AcDbLine
10
20.523108
20
-14.794696
30
0
11
20.834728
21
-14.612375
31
0
39
0
210
0
220
0
230
1
0
LINE
5
1CA
100
AcDbEntity
8
1
62
256
6
ByLayer
370
-1
48
1
60
0
100
AcDbLine
10
32.000165
20
-13.174361
30
0
11
32.001745
21
-13.093725
31
0
39
0
210
0
220
0
230
1
0
LINE
5
1CB
100
AcDbEntity
8
1
62
256
6
ByLayer
370
-1
48
1
60
0
100
AcDbLine
10
30.702813
20
-7.809273
30
0
11
30.409152
21
-8.279918
31
0
39
0
210
0
220
0
230
1
0
LINE
5
1CC
100
AcDbEntity
8
1
62
256
6
ByLayer
370
-1
48
1
60
0
100
AcDbLine
10
31.25584
20
-7.383424
30
0
11
31.189108
21
-6.35903
31
0
39
0
210
0
220
0
230
1
0
LINE
5
1CD
100
AcDbEntity
8
1
62
256
6
ByLayer
370
-1
48
1
60
0
100
AcDbLine
10
20.381119
20
-14.55178
30
0
11
20.692739
21
-14.36946
31
0
39
0
210
0
220
0
230
1
0
LINE
5
1CE
100
AcDbEntity
8
1
62
256
6
ByLayer
370
-1
48
1
60
0
100
AcDbLine
10
27.611372
20
-15.029232
30
0
11
27.638347
21
-15.410995
31
0
39
0
210
0
220
0
230
1
0
LINE
5
1CF
100
AcDbEntity
8
1
62
256
6
ByLayer
370
-1
48
1
60
0
100
AcDbLine
10
28.674538
20
-13.997287
30
0
11
28.701512
21
-14.379049
31
0
39
0
210
0
220
0
230
1
0
LINE
5
1D0
100
AcDbEntity
8
1
62
256
6
ByLayer
370
-1
48
1
60
0
100
AcDbLine
10
25.750273
20
-14.01513
30
0
11
25.777463
21
-14.399939
31
0
39
0
210
0
220
0
230
1
0
LINE
5
1D1
100
AcDbEntity
8
1
62
256
6
ByLayer
370
-1
48
1
60
0
100
AcDbLine
10
28.674538
20
-13.997287
30
0
11
28.694534
21
-14.001195
31
0
39
0
210
0
220
0
230
1
0
LINE
5
1D2
100
AcDbEntity
8
1
62
256
6
ByLayer
370
-1
48
1
60
0
100
AcDbLine
10
26.833435
20
-15.032915
30
0
11
26.86041
21
-15.414677
31
0
39
0
210
0
220
0
230
1
0
LINE
5
1D3
100
AcDbEntity
8
1
62
256
6
ByLayer
370
-1
48
1
60
0
100
AcDbLine
10
28.694534
20
-14.001195
30
0
11
28.721724
21
-14.386004
31
0
39
0
210
0
220
0
230
1
0
LINE
5
1D4
100
AcDbEntity
8
1
62
256
6
ByLayer
370
-1
48
1
60
0
100
AcDbLine
10
27.611372
20
-15.029232
30
0
11
27.617782
21
-15.047934
31
0
39
0
210
0
220
0
230
1
0
LINE
5
1D5
100
AcDbEntity
8
1
62
256
6
ByLayer
370
-1
48
1
60
0
100
AcDbLine
10
25.750273
20
-14.01513
30
0
11
25.770269
21
-14.011034
31
0
39
0
210
0
220
0
230
1
0
LINE
5
1D6
100
AcDbEntity
8
1
62
256
6
ByLayer
370
-1
48
1
60
0
100
AcDbLine
10
26.827025
20
-15.051676
30
0
11
26.854215
21
-15.436485
31
0
39
0
210
0
220
0
230
1
0
LINE
5
1D7
100
AcDbEntity
8
1
62
256
6
ByLayer
370
-1
48
1
60
0
100
AcDbLine
10
26.176645
20
-12.852588
30
0
11
26.186212
21
-12.987994
31
0
39
0
210
0
220
0
230
1
0
LINE
5
1D8
100
AcDbEntity
8
1
62
256
6
ByLayer
370
-1
48
1
60
0
100
AcDbLine
10
28.316621
20
-12.828553
30
0
11
28.326345
21
-12.966183
31
0
39
0
210
0
220
0
230
1
0
LINE
5
1D9
100
AcDbEntity
8
1
62
256
6
ByLayer
370
-1
48
1
60
0
100
AcDbLine
10
28.300266
20
-12.804168
30
0
11
28.312544
21
-12.977929
31
0
39
0
210
0
220
0
230
1
0
LINE
5
1DA
100
AcDbEntity
8
1
62
256
6
ByLayer
370
-1
48
1
60
0
100
AcDbLine
10
25.770269
20
-14.011034
30
0
11
25.797244
21
-14.392796
31
0
39
0
210
0
220
0
230
1
0
LINE
5
1DB
100
AcDbEntity
8
1
62
256
6
ByLayer
370
-1
48
1
60
0
100
AcDbLine
10
27.617782
20
-15.047934
30
0
11
27.644972
21
-15.432742
31
0
39
0
210
0
220
0
230
1
0
LINE
5
1DC
100
AcDbEntity
8
1
62
256
6
ByLayer
370
-1
48
1
60
0
100
AcDbLine
10
26.827025
20
-15.051676
30
0
11
26.833435
21
-15.032915
31
0
39
0
210
0
220
0
230
1
0
LINE
5
1DD
100
AcDbEntity
8
1
62
256
6
ByLayer
370
-1
48
1
60
0
100
AcDbLine
10
26.16592
20
-12.878418
30
0
11
26.172841
21
-12.976376
31
0
39
0
210
0
220
0
230
1
0
LINE
5
1DE
100
AcDbEntity
8
SK1
62
256
6
ByLayer
370
-1
48
1
60
0
100
AcDbLine
10
-0.324519
20
11.287097
30
0
11
-0.324519
21
11.923554
31
0
39
0
210
0
220
0
230
1
0
LINE
5
1DF
100
AcDbEntity
8
SK1
62
256
6
ByLayer
370
-1
48
1
60
0
100
AcDbLine
10
0
20
12.122304
30
0
11
0
21
11.503267
31
0
39
0
210
0
220
0
230
1
0
LINE
5
1E0
100
AcDbEntity
8
SK1
62
256
6
ByLayer
370
-1
48
1
60
0
100
AcDbLine
10
0
20
12.122304
30
0
11
0
21
12.666896
31
0
39
0
210
0
220
0
230
1
0
LINE
5
1E1
100
AcDbEntity
8
SK1
62
256
6
ByLayer
370
-1
48
1
60
0
100
AcDbLine
10
0
20
10.797002
30
0
11
0
21
11.503272
31
0
39
0
210
0
220
0
230
1
0
LINE
5
1E2
100
AcDbEntity
8
SK1
62
256
6
ByLayer
370
-1
48
1
60
0
100
AcDbLine
10
0
20
9.985022
30
0
11
0
21
10.797002
31
0
39
0
210
0
220
0
230
1
0
LINE
5
1E3
100
AcDbEntity
8
SK1
62
256
6
ByLayer
370
-1
48
1
60
0
100
AcDbLine
10
-0.249519
20
9.96605
30
0
11
-0.249519
21
10.587849
31
0
39
0
210
0
220
0
230
1
0
LINE
5
1E4
100
AcDbEntity
8
SK1
62
256
6
ByLayer
370
-1
48
1
60
0
100
AcDbLine
10
-0.324519
20
10.246768
30
0
11
-0.324519
21
10.612164
31
0
39
0
210
0
220
0
230
1
0
LINE
5
1E5
100
AcDbEntity
8
SK1
62
256
6
ByLayer
370
-1
48
1
60
0
100
AcDbLine
10
-0.324519
20
14.934566
30
0
11
-0.324519
21
14.99966
31
0
39
0
210
0
220
0
230
1
0
LINE
5
1E6
100
AcDbEntity
8
SK1
62
256
6
ByLayer
370
-1
48
1
60
0
100
AcDbLine
10
0
20
-14.758904
30
0
11
0
21
-14.528429
31
0
39
0
210
0
220
0
230
1
0
LINE
5
1E7
100
AcDbEntity
8
SK1
62
256
6
ByLayer
370
-1
48
1
60
0
100
AcDbLine
10
-0.249519
20
-14.313414
30
0
11
-0.249519
21
-13.92742
31
0
39
0
210
0
220
0
230
1
0
LINE
5
1E8
100
AcDbEntity
8
SK1
62
256
6
ByLayer
370
-1
48
1
60
0
100
AcDbLine
10
-0.324519
20
15
30
0
11
-0.324519
21
14.99966
31
0
39
0
210
0
220
0
230
1
0
LINE
5
1E9
100
AcDbEntity
8
SK1
62
256
6
ByLayer
370
-1
48
1
60
0
100
AcDbLine
10
0
20
-15.209381
30
0
11
0
21
-15.097924
31
0
39
0
210
0
220
0
230
1
0
LINE
5
1EA
100
AcDbEntity
8
SK1
62
256
6
ByLayer
370
-1
48
1
60
0
100
AcDbLine
10
-0.324519
20
-14.914311
30
0
11
-0.324519
21
-14.717151
31
0
39
0
210
0
220
0
230
1
0
LINE
5
1EB
100
AcDbEntity
8
SK1
62
256
6
ByLayer
370
-1
48
1
60
0
100
AcDbLine
10
-0.249519
20
-14.975295
30
0
11
-0.249519
21
-14.81843
31
0
39
0
210
0
220
0
230
1
0
LINE
5
1EC
100
AcDbEntity
8
SK1
62
256
6
ByLayer
370
-1
48
1
60
0
100
AcDbLine
10
0
20
-15.283169
30
0
11
0
21
-15.209381
31
0
39
0
210
0
220
0
230
1
0
LINE
5
1ED
100
AcDbEntity
8
SK1
62
256
6
ByLayer
370
-1
48
1
60
0
100
AcDbLine
10
0
20
-15.098022
30
0
11
0
21
-14.948253
31
0
39
0
210
0
220
0
230
1
0
LINE
5
1EE
100
AcDbEntity
8
SK1
62
256
6
ByLayer
370
-1
48
1
60
0
100
AcDbLine
10
0
20
-14.758895
30
0
11
0
21
-14.948253
31
0
39
0
210
0
220
0
230
1
0
LINE
5
1EF
100
AcDbEntity
8
SK1
62
256
6
ByLayer
370
-1
48
1
60
0
100
AcDbLine
10
-0.249519
20
-14.724695
30
0
11
-0.249519
21
-14.457827
31
0
39
0
210
0
220
0
230
1
0
LINE
5
1F0
100
AcDbEntity
8
SK1
62
256
6
ByLayer
370
-1
48
1
60
0
100
AcDbLine
10
0
20
15.31993
30
0
11
0
21
15.324519
31
0
39
0
210
0
220
0
230
1
0
LINE
5
1F1
100
AcDbEntity
8
SK1
62
256
6
ByLayer
370
-1
48
1
60
0
100
AcDbLine
10
0
20
15.31993
30
0
11
0
21
15.28304
31
0
39
0
210
0
220
0
230
1
0
LINE
5
1F2
100
AcDbEntity
8
1
62
256
6
ByLayer
370
-1
48
1
60
0
100
AcDbLine
10
22.966633
20
-17.467845
30
0
11
22.966633
21
-16.910817
31
0
39
0
210
0
220
0
230
1
0
LINE
5
1F3
100
AcDbEntity
8
1
62
256
6
ByLayer
370
-1
48
1
60
0
100
AcDbLine
10
22.622353
20
-16.720391
30
0
11
22.698874
21
-17.064112
31
0
39
0
210
0
220
0
230
1
0
LINE
5
1F4
100
AcDbEntity
8
1
62
256
6
ByLayer
370
-1
48
1
60
0
100
AcDbLine
10
23.727775
20
-17.649778
30
0
11
23.727775
21
-17.332096
31
0
39
0
210
0
220
0
230
1
0
LINE
5
1F5
100
AcDbEntity
8
1
62
256
6
ByLayer
370
-1
48
1
60
0
100
AcDbLine
10
23.542367
20
-17.62944
30
0
11
23.542367
21
-17.229475
31
0
39
0
210
0
220
0
230
1
0
LINE
5
1F6
100
AcDbEntity
8
1
62
256
6
ByLayer
370
-1
48
1
60
0
100
AcDbLine
10
23.192212
20
-17.51945
30
0
11
23.192212
21
-17.035719
31
0
39
0
210
0
220
0
230
1
0
LINE
5
1F7
100
AcDbEntity
8
1
62
256
6
ByLayer
370
-1
48
1
60
0
100
AcDbLine
10
24.20842
20
-17.62709
30
0
11
24.20842
21
-17.598079
31
0
39
0
210
0
220
0
230
1
0
LINE
5
1F8
100
AcDbEntity
8
1
62
256
6
ByLayer
370
-1
48
1
60
0
100
AcDbLine
10
22.863217
20
-17.421477
30
0
11
22.863217
21
-16.853651
31
0
39
0
210
0
220
0
230
1
0
LINE
5
1F9
100
AcDbEntity
8
1
62
256
6
ByLayer
370
-1
48
1
60
0
100
AcDbLine
10
24.025223
20
-17.648729
30
0
11
23.727775
21
-17.649778
31
0
39
0
210
0
220
0
230
1
0
LINE
5
1FA
100
AcDbEntity
8
1
62
256
6
ByLayer
370
-1
48
1
60
0
100
AcDbLine
10
19.997512
20
-11.653403
30
0
11
19.598561
21
-11.877234
31
0
39
0
210
0
220
0
230
1
0
LINE
5
1FB
100
AcDbEntity
8
1
62
256
6
ByLayer
370
-1
48
1
60
0
100
AcDbLine
10
23.298354
20
-17.54496
30
0
11
23.298354
21
-17.094386
31
0
39
0
210
0
220
0
230
1
0
LINE
5
1FC
100
AcDbEntity
8
1
62
256
6
ByLayer
370
-1
48
1
60
0
100
AcDbLine
10
24.025223
20
-17.648729
30
0
11
24.025223
21
-17.496736
31
0
39
0
210
0
220
0
230
1
0
LINE
5
1FD
100
AcDbEntity
8
1
62
256
6
ByLayer
370
-1
48
1
60
0
100
AcDbLine
10
19.431842
20
-12.704519
30
0
11
19.431842
21
-11.617983
31
0
39
0
210
0
220
0
230
1
0
LINE
5
1FE
100
AcDbEntity
8
1
62
256
6
ByLayer
370
-1
48
1
60
0
100
AcDbLine
10
22.698874
20
-16.76273
30
0
11
22.698874
21
-17.064112
31
0
39
0
210
0
220
0
230
1
0
LINE
5
1FF
100
AcDbEntity
8
1
62
256
6
ByLayer
370
-1
48
1
60
0
100
AcDbLine
10
19.598561
20
-11.877234
30
0
11
19.598561
21
-12.701386
31
0
39
0
210
0
220
0
230
1
0
LINE
5
200
100
AcDbEntity
8
1
62
256
6
ByLayer
370
-1
48
1
60
0
100
AcDbLine
10
32.085376
20
-5.160913
30
0
11
32.087383
21
-5.160923
31
0
39
0
210
0
220
0
230
1
0
LINE
5
201
100
AcDbEntity
8
1
62
256
6
ByLayer
370
-1
48
1
60
0
100
AcDbLine
10
32.056623
20
-6.895219
30
0
11
32.09058
21
-6.895386
31
0
39
0
210
0
220
0
230
1
0
LINE
5
202
100
AcDbEntity
8
1
62
256
6
ByLayer
370
-1
48
1
60
0
100
AcDbLine
10
32.052057
20
-6.267125
30
0
11
32.102411
21
-6.267373
31
0
39
0
210
0
220
0
230
1
0
LINE
5
203
100
AcDbEntity
8
1
62
256
6
ByLayer
370
-1
48
1
60
0
100
AcDbLine
10
32.052055
20
-6.265842
30
0
11
32.115218
21
-6.266152
31
0
39
0
210
0
220
0
230
1
0
LINE
5
204
100
AcDbEntity
8
1
62
256
6
ByLayer
370
-1
48
1
60
0
100
AcDbLine
10
32.056875
20
-6.906504
30
0
11
32.103149
21
-6.906731
31
0
39
0
210
0
220
0
230
1
0
LINE
5
205
100
AcDbEntity
8
2
62
256
6
ByLayer
370
-1
48
1
60
1
100
AcDbLine
10
0
20
0
30
0
11
0
21
-0.001
31
0
39
0
210
0
220
0
230
1
0
MTEXT
5
3CC
100
AcDbEntity
8
SK6
62
256
6
ByLayer
370
-1
48
1
60
0
100
AcDbMText
10
16.875
20
30.350734
30
0
210
0
220
0
230
1
1
\W00.737;\fsimplex.shx,bigfont.shx;SL-266LKF-323222-16 
40
3.5
41
0
44
1.084337
50
0
71
7
72
5
7
DEFAULT
0
DIMENSION
5
3FF
100
AcDbEntity
8
2
62
256
6
ByLayer
370
-3
48
1
60
0
100
AcDbDimension
2
DimnDraft3D1
10
0
20
-46.125
30
0
11
13.371053
21
-46.125
31
0
70
32
71
5
72
1
41
1
210
0
220
0
230
1
3
Standard
100
AcDbAlignedDimension
13
32
23
-23.375
33
0
14
0
24
-1.501
34
0
50
0
100
AcDbRotatedDimension
1001
ACAD
1000
DSTYLE
1002
{
1070
   279
1070
     0
1070
   172
1070
     1
1070
   173
1070
     1
1070
   340
1005
3CD
1070
   271
1070
     3
1070
   272
1070
     3
1070
    77
1070
     1
1070
    73
1070
     0
1070
   171
1070
     4
1070
   274
1070
     4
1070
   177
1070
     2
1070
   176
1070
     2
1070
   178
1070
     7
1070
    78
1070
     8
1070
    41
1041
3.0
1070
   147
1041
2.25
1070
    42
1041
1.5
1070
    44
1041
3.0
1070
   140
1041
4.5
1070
   343
1005
400
1070
   344
1005
400
1002
}
0
DIMENSION
5
415
100
AcDbEntity
8
SK2
62
256
6
ByLayer
370
-3
48
1
60
0
100
AcDbDimension
2
DimnDraft3D2
10
-9.75
20
-16
30
0
11
-9.75
21
-4.784211
31
0
70
32
71
5
72
1
41
1
210
0
220
0
230
1
3
Standard
100
AcDbAlignedDimension
13
-1.5
23
16
33
0
14
-1.5
24
-16
34
0
50
90
100
AcDbRotatedDimension
1001
ACAD
1000
DSTYLE
1002
{
1070
    74
1070
     0
1070
   279
1070
     0
1070
   172
1070
     1
1070
   173
1070
     1
1070
   340
1005
3CD
1070
   271
1070
     3
1070
   272
1070
     3
1070
    77
1070
     1
1070
    73
1070
     0
1070
   171
1070
     4
1070
   274
1070
     4
1070
   177
1070
     2
1070
   176
1070
     2
1070
   178
1070
     7
1070
    78
1070
     8
1070
    41
1041
3.0
1070
   147
1041
2.25
1070
    42
1041
1.5
1070
    44
1041
3.0
1070
   140
1041
4.5
1070
   343
1005
400
1070
   344
1005
400
1002
}
0
DIMENSION
5
423
100
AcDbEntity
8
2
62
256
6
ByLayer
370
-3
48
1
60
0
100
AcDbDimension
2
DimnDraft3D3
10
46.25
20
-21.875
30
0
11
46.25
21
-13.566447
31
0
70
32
71
5
72
1
41
1
210
0
220
0
230
1
3
Standard
100
AcDbAlignedDimension
13
38.5
23
0
33
0
14
33.5
24
-21.875
34
0
50
90
100
AcDbRotatedDimension
1001
ACAD
1000
DSTYLE
1002
{
1070
    74
1070
     0
1070
   279
1070
     0
1070
   172
1070
     1
1070
   173
1070
     1
1070
   340
1005
3CD
1070
   271
1070
     3
1070
   272
1070
     3
1070
    77
1070
     1
1070
    73
1070
     0
1070
   171
1070
     4
1070
   274
1070
     4
1070
   177
1070
     2
1070
   176
1070
     2
1070
   178
1070
     7
1070
    78
1070
     8
1070
    41
1041
3.0
1070
   147
1041
2.25
1070
    42
1041
1.5
1070
    44
1041
3.0
1070
   140
1041
4.5
1070
   343
1005
400
1070
   344
1005
400
1002
}
0
ENDSEC
0
SECTION
2
OBJECTS
0
DICTIONARY
5
454
330
0
100
AcDbDictionary
280
0
281
1
3
ACAD_GROUP
350
455
3
ACAD_MLINESTYLE
350
456
0
DICTIONARY
5
455
330
0
100
AcDbDictionary
280
0
281
1
0
DICTIONARY
5
456
330
0
100
AcDbDictionary
280
0
281
1
3
Standard
350
18
0
MLINESTYLE
5
18
330
456
100
AcDbMlineStyle
2
Standard
70
0
3

62
256
51
90
52
90
71
2
49
-0.5
62
256
6
ByLayer
49
0.5
62
256
6
ByLayer
0
RASTERVARIABLES
5
442
330

100
AcDbRasterVariables
90
0
70
1
71
1
72
1
0
ENDSEC
0
EOF
