0
SECTION
2
HEADER
9
$ACADVER
1
AC1015
9
$DWGCODEPAGE
3
ANSI_1252
9
$HANDSEED
5
4a6
9
$ANGBASE
50
0
9
$ANGDIR
70
0
9
$ATTMODE
70
1
9
$AUNITS
70
0
9
$AUPREC
70
0
9
$CECOLOR
62
256
9
$CELTSCALE
40
1
9
$CELTYPE
6
ByLayer
9
$CELWEIGHT
370
-1
9
$CLAYER
8
0
9
$CMLJUST
70
0
9
$CMLSCALE
40
1
9
$CMLSTYLE
2
Standard
9
$DIMSTYLE
2
Standard
9
$TEXTSIZE
40
0.2
9
$TEXTSTYLE
7
Standard
9
$LUNITS
70
2
9
$LUPREC
70
4
9
$EXTNAMES
290
1
9
$INSUNITS
70
4
9
$LTSCALE
40
1
9
$LWDISPLAY
290
0
9
$PDMODE
70
0
9
$PDSIZE
40
0
9
$PLINEGEN
70
0
0
ENDSEC
0
SECTION
2
CLASSES
0
CLASS
1
RASTERVARIABLES
2
AcDbRasterVariables
3
ISM
90
0
280
0
281
0
0
ENDSEC
0
SECTION
2
TABLES
0
TABLE
2
VPORT
5
49c
100
AcDbSymbolTable
0
VPORT
5
1
100
AcDbSymbolTableRecord
100
AcDbViewportTableRecord
2
*Active
70
0
10
0
20
0
11
1
21
1
12
-1
22
1
13
0
23
0
14
0.5
24
0.5
15
10
25
10
16
0
26
0
36
1
17
0
27
0
37
0
0
ENDTAB
0
TABLE
2
LTYPE
5
49d
100
AcDbSymbolTable
0
LTYPE
5
14
100
AcDbSymbolTableRecord
100
AcDbLinetypeTableRecord
70
0
2
ByBlock
3

72
65
73
0
40
0
0
LTYPE
5
15
100
AcDbSymbolTableRecord
100
AcDbLinetypeTableRecord
70
0
2
ByLayer
3

72
65
73
0
40
0
0
LTYPE
5
16
100
AcDbSymbolTableRecord
100
AcDbLinetypeTableRecord
70
0
2
CONTINUOUS
3
Solid line
72
65
73
0
40
0
0
LTYPE
5
3B
100
AcDbSymbolTableRecord
100
AcDbLinetypeTableRecord
70
0
2
DASHED
3
__ __ __ __ __ __ __ __ __
72
65
73
2
40
25.72
49
12.86
74
0
49
-12.86
74
0
0
LTYPE
5
3C
100
AcDbSymbolTableRecord
100
AcDbLinetypeTableRecord
70
0
2
HIDDEN
3
_ _ _ _ _ _ _ _ _ _ _ _ _ _ _
72
65
73
2
40
0.5
49
0.25
74
0
49
-0.25
74
0
0
LTYPE
5
3D
100
AcDbSymbolTableRecord
100
AcDbLinetypeTableRecord
70
0
2
PHANTOM
3
____ _ _ ____ _ _ _____ _ _ ____
72
65
73
6
40
50.5
49
18
74
0
49
-6.5
74
0
49
6.5
74
0
49
-6.5
74
0
49
6.5
74
0
49
-6.5
74
0
0
LTYPE
5
3E
100
AcDbSymbolTableRecord
100
AcDbLinetypeTableRecord
70
0
2
CENTER
3
____ _ ____ _ ____ _ ____
72
65
73
4
40
47.5
49
22
74
0
49
-8.5
74
0
49
8.5
74
0
49
-8.5
74
0
0
LTYPE
5
3F
100
AcDbSymbolTableRecord
100
AcDbLinetypeTableRecord
70
0
2
DOT
3
.........................
72
65
73
2
40
10
49
0
74
0
49
-10
74
0
0
LTYPE
5
40
100
AcDbSymbolTableRecord
100
AcDbLinetypeTableRecord
70
0
2
DASHDOT
3
_._._._._._._._._._._._._._._._.
72
65
73
4
40
70
49
31
74
0
49
-13
74
0
49
13
74
0
49
-13
74
0
0
ENDTAB
0
TABLE
2
LAYER
5
49e
100
AcDbSymbolTable
0
LAYER
5
10
100
AcDbSymbolTableRecord
100
AcDbLayerTableRecord
2
0
70
0
62
7
6
CONTINUOUS
290
1
370
-3
390
0
0
LAYER
5
42
100
AcDbSymbolTableRecord
100
AcDbLayerTableRecord
2
2
70
0
62
7
6
CONTINUOUS
290
1
370
-3
390
0
0
LAYER
5
45
100
AcDbSymbolTableRecord
100
AcDbLayerTableRecord
2
80
70
0
62
-6
6
CONTINUOUS
290
1
370
-3
390
0
0
LAYER
5
47
100
AcDbSymbolTableRecord
100
AcDbLayerTableRecord
2
81
70
0
62
-3
6
CONTINUOUS
290
1
370
-3
390
0
0
LAYER
5
4B
100
AcDbSymbolTableRecord
100
AcDbLayerTableRecord
2
4
70
0
62
-2
6
CENTER
290
1
370
-3
390
0
0
LAYER
5
52
100
AcDbSymbolTableRecord
100
AcDbLayerTableRecord
2
1
70
0
62
4
6
CONTINUOUS
290
1
370
-3
390
0
0
LAYER
5
488
100
AcDbSymbolTableRecord
100
AcDbLayerTableRecord
2
SK4
70
0
62
2
6
CENTER
290
1
370
-3
390
0
0
LAYER
5
489
100
AcDbSymbolTableRecord
100
AcDbLayerTableRecord
2
SK1
70
0
62
4
6
CONTINUOUS
290
1
370
-3
390
0
0
LAYER
5
48a
100
AcDbSymbolTableRecord
100
AcDbLayerTableRecord
2
SK6
70
0
62
5
6
CONTINUOUS
290
1
370
-3
390
0
0
LAYER
5
48b
100
AcDbSymbolTableRecord
100
AcDbLayerTableRecord
2
SK2
70
0
62
7
6
CONTINUOUS
290
1
370
-3
390
0
0
ENDTAB
0
TABLE
2
STYLE
5
49f
100
AcDbSymbolTable
0
STYLE
5
11
100
AcDbSymbolTableRecord
100
AcDbTextStyleTableRecord
2
Standard
3
txt
70
0
71
0
40
0
41
1
42
0
50
0
0
STYLE
5
412
100
AcDbSymbolTableRecord
100
AcDbTextStyleTableRecord
2
DEFAULT
3
simplex.shx
70
0
71
0
40
0
41
1
42
0
50
0
0
STYLE
5
435
100
AcDbSymbolTableRecord
100
AcDbTextStyleTableRecord
2
DWGDirectTextStyle
3
SIMPLEX
70
0
71
0
40
0
41
1
42
0
50
0
0
ENDTAB
0
TABLE
2
DIMSTYLE
5
4a0
100
AcDbSymbolTable
100
AcDbDimStyleTable
0
DIMSTYLE
105
27
100
AcDbSymbolTableRecord
100
AcDbDimStyleTableRecord
2
Standard
70
0
3
<>
41
0.18
42
0.0625
44
0.18
140
0.18
147
0.09
73
0
74
0
77
1
271
2
275
0
278
52
280
0
340
11
0
ENDTAB
0
TABLE
2
VIEW
5
4a1
100
AcDbSymbolTable
0
ENDTAB
0
TABLE
2
UCS
5
4a2
100
AcDbSymbolTable
0
ENDTAB
0
TABLE
2
APPID
5
4a3
100
AcDbSymbolTable
0
APPID
5
12
100
AcDbSymbolTableRecord
100
AcDbRegAppTableRecord
2
ACAD
70
0
0
ENDTAB
0
TABLE
2
BLOCK_RECORD
5
4a4
100
AcDbSymbolTable
0
BLOCK_RECORD
5
1F
100
AcDbSymbolTableRecord
100
AcDbBlockTableRecord
2
*Model_Space
340
0
70
0
0
BLOCK_RECORD
5
1B
100
AcDbSymbolTableRecord
100
AcDbBlockTableRecord
2
*Paper_Space
340
0
70
0
0
BLOCK_RECORD
5
23
100
AcDbSymbolTableRecord
100
AcDbBlockTableRecord
2
*Paper_Space0
340
0
70
0
0
BLOCK_RECORD
5
437
100
AcDbSymbolTableRecord
100
AcDbBlockTableRecord
2
DimnDraft3D1
340
0
70
0
0
BLOCK_RECORD
5
445
100
AcDbSymbolTableRecord
100
AcDbBlockTableRecord
2
_CLOSED
340
0
70
0
0
BLOCK_RECORD
5
44C
100
AcDbSymbolTableRecord
100
AcDbBlockTableRecord
2
DimnDraft3D2
340
0
70
0
0
BLOCK_RECORD
5
45B
100
AcDbSymbolTableRecord
100
AcDbBlockTableRecord
2
DimnDraft3D3
340
0
70
0
0
ENDTAB
0
ENDSEC
0
SECTION
2
BLOCKS
0
BLOCK
5
20
100
AcDbEntity
8
0
100
AcDbBlockBegin
2
*Model_Space
70
0
10
0
20
0
30
0
3
*Model_Space
0
ENDBLK
5
21
100
AcDbEntity
8
0
100
AcDbBlockEnd
0
BLOCK
5
1C
100
AcDbEntity
8
0
100
AcDbBlockBegin
2
*Paper_Space
70
0
10
0
20
0
30
0
3
*Paper_Space
0
ENDBLK
5
1D
100
AcDbEntity
8
0
100
AcDbBlockEnd
0
BLOCK
5
24
100
AcDbEntity
8
0
100
AcDbBlockBegin
2
*Paper_Space0
70
0
10
0
20
0
30
0
3
*Paper_Space0
0
ENDBLK
5
25
100
AcDbEntity
8
0
100
AcDbBlockEnd
0
BLOCK
5
442
100
AcDbEntity
8
0
100
AcDbBlockBegin
2
DimnDraft3D1
70
0
10
0
20
0
30
0
3
DimnDraft3D1
0
MTEXT
5
438
100
AcDbEntity
8
2
62
256
6
ByLayer
370
-1
48
1
60
0
100
AcDbMText
10
14.496053
20
-50
30
0
210
0
220
0
230
1
1
\W01.000;\fsimplex.shx,bigfont.shx;32 
40
4.5
41
0
44
1.084337
50
0
71
7
72
5
7
DEFAULT
0
LINE
5
439
100
AcDbEntity
8
2
62
256
6
ByLayer
370
-1
48
1
60
0
100
AcDbLine
10
32
20
-28.375
30
0
11
32
21
-54.125
31
0
39
0
210
0
220
0
230
1
0
LINE
5
43A
100
AcDbEntity
8
2
62
256
6
ByLayer
370
-1
48
1
60
0
100
AcDbLine
10
0
20
-1.501
30
0
11
0
21
-54.125
31
0
39
0
210
0
220
0
230
1
0
LINE
5
43B
100
AcDbEntity
8
2
62
256
6
ByLayer
370
-1
48
1
60
0
100
AcDbLine
10
32
20
-51.125
30
0
11
0
21
-51.125
31
0
39
0
210
0
220
0
230
1
0
LINE
5
43C
100
AcDbEntity
8
2
62
256
6
ByLayer
370
-1
48
1
60
0
100
AcDbLine
10
32
20
-51.125
30
0
11
29.000001
21
-51.519957
31
0
39
0
210
0
220
0
230
1
0
LINE
5
43D
100
AcDbEntity
8
2
62
256
6
ByLayer
370
-1
48
1
60
0
100
AcDbLine
10
32
20
-51.125
30
0
11
28.999999
21
-50.730043
31
0
39
0
210
0
220
0
230
1
0
LINE
5
43E
100
AcDbEntity
8
2
62
256
6
ByLayer
370
-1
48
1
60
0
100
AcDbLine
10
29.000001
20
-51.519957
30
0
11
28.999999
21
-50.730043
31
0
39
0
210
0
220
0
230
1
0
LINE
5
43F
100
AcDbEntity
8
2
62
256
6
ByLayer
370
-1
48
1
60
0
100
AcDbLine
10
0
20
-51.125
30
0
11
2.999999
21
-50.730043
31
0
39
0
210
0
220
0
230
1
0
LINE
5
440
100
AcDbEntity
8
2
62
256
6
ByLayer
370
-1
48
1
60
0
100
AcDbLine
10
0
20
-51.125
30
0
11
3.000001
21
-51.519957
31
0
39
0
210
0
220
0
230
1
0
LINE
5
441
100
AcDbEntity
8
2
62
256
6
ByLayer
370
-1
48
1
60
0
100
AcDbLine
10
2.999999
20
-50.730043
30
0
11
3.000001
21
-51.519957
31
0
39
0
210
0
220
0
230
1
0
ENDBLK
5
443
100
AcDbEntity
8
0
100
AcDbBlockEnd
0
BLOCK
5
446
100
AcDbEntity
8
0
100
AcDbBlockBegin
2
_CLOSED
70
0
10
0
20
0
30
0
3
_CLOSED
0
LINE
5
448
100
AcDbEntity
8
0
62
256
6
ByLayer
370
-2
48
1
60
0
100
AcDbLine
10
-1
20
0.166667
30
0
11
0
21
0
31
0
39
0
210
0
220
0
230
1
0
LINE
5
449
100
AcDbEntity
8
0
62
256
6
ByLayer
370
-2
48
1
60
0
100
AcDbLine
10
0
20
0
30
0
11
-1
21
-0.166667
31
0
39
0
210
0
220
0
230
1
0
LINE
5
44A
100
AcDbEntity
8
0
62
256
6
ByLayer
370
-2
48
1
60
0
100
AcDbLine
10
-1
20
0.166667
30
0
11
-1
21
-0.166667
31
0
39
0
210
0
220
0
230
1
0
LINE
5
44B
100
AcDbEntity
8
0
62
256
6
ByLayer
370
-2
48
1
60
0
100
AcDbLine
10
0
20
0
30
0
11
-1
21
0
31
0
39
0
210
0
220
0
230
1
0
ENDBLK
5
447
100
AcDbEntity
8
0
100
AcDbBlockEnd
0
BLOCK
5
458
100
AcDbEntity
8
0
100
AcDbBlockBegin
2
DimnDraft3D2
70
0
10
0
20
0
30
0
3
DimnDraft3D2
0
MTEXT
5
44D
100
AcDbEntity
8
SK2
62
256
6
ByLayer
370
-1
48
1
60
0
100
AcDbMText
10
-10.875
20
-3.896053
30
0
210
0
220
0
230
1
1
\W01.000;\fsimplex.shx,bigfont.shx;%%c40 
40
4.5
41
0
44
1.084337
50
90
71
7
72
5
7
DEFAULT
0
LINE
5
44F
100
AcDbEntity
8
SK2
62
256
6
ByLayer
370
-1
48
1
60
0
100
AcDbLine
10
-1.5
20
20
30
0
11
-12.75
21
20
31
0
39
0
210
0
220
0
230
1
0
LINE
5
450
100
AcDbEntity
8
SK2
62
256
6
ByLayer
370
-1
48
1
60
0
100
AcDbLine
10
-1.5
20
-20
30
0
11
-12.75
21
-20
31
0
39
0
210
0
220
0
230
1
0
LINE
5
451
100
AcDbEntity
8
SK2
62
256
6
ByLayer
370
-1
48
1
60
0
100
AcDbLine
10
-9.75
20
20
30
0
11
-9.75
21
-20
31
0
39
0
210
0
220
0
230
1
0
LINE
5
452
100
AcDbEntity
8
SK2
62
256
6
ByLayer
370
-1
48
1
60
0
100
AcDbLine
10
-9.75
20
20
30
0
11
-9.355043
21
17.000001
31
0
39
0
210
0
220
0
230
1
0
LINE
5
453
100
AcDbEntity
8
SK2
62
256
6
ByLayer
370
-1
48
1
60
0
100
AcDbLine
10
-9.75
20
20
30
0
11
-10.144957
21
16.999999
31
0
39
0
210
0
220
0
230
1
0
LINE
5
454
100
AcDbEntity
8
SK2
62
256
6
ByLayer
370
-1
48
1
60
0
100
AcDbLine
10
-9.355043
20
17.000001
30
0
11
-10.144957
21
16.999999
31
0
39
0
210
0
220
0
230
1
0
LINE
5
455
100
AcDbEntity
8
SK2
62
256
6
ByLayer
370
-1
48
1
60
0
100
AcDbLine
10
-9.75
20
-20
30
0
11
-10.144957
21
-17.000001
31
0
39
0
210
0
220
0
230
1
0
LINE
5
456
100
AcDbEntity
8
SK2
62
256
6
ByLayer
370
-1
48
1
60
0
100
AcDbLine
10
-9.75
20
-20
30
0
11
-9.355043
21
-16.999999
31
0
39
0
210
0
220
0
230
1
0
LINE
5
457
100
AcDbEntity
8
SK2
62
256
6
ByLayer
370
-1
48
1
60
0
100
AcDbLine
10
-10.144957
20
-17.000001
30
0
11
-9.355043
21
-16.999999
31
0
39
0
210
0
220
0
230
1
0
ENDBLK
5
459
100
AcDbEntity
8
0
100
AcDbBlockEnd
0
BLOCK
5
466
100
AcDbEntity
8
0
100
AcDbBlockBegin
2
DimnDraft3D3
70
0
10
0
20
0
30
0
3
DimnDraft3D3
0
MTEXT
5
45C
100
AcDbEntity
8
2
62
256
6
ByLayer
370
-1
48
1
60
0
100
AcDbMText
10
45.125
20
-14.941447
30
0
210
0
220
0
230
1
1
\W01.000;\fsimplex.shx,bigfont.shx;27 
40
4.5
41
0
44
1.084337
50
90
71
7
72
5
7
DEFAULT
0
LINE
5
45D
100
AcDbEntity
8
2
62
256
6
ByLayer
370
-1
48
1
60
0
100
AcDbLine
10
38.5
20
0
30
0
11
49.25
21
0
31
0
39
0
210
0
220
0
230
1
0
LINE
5
45E
100
AcDbEntity
8
2
62
256
6
ByLayer
370
-1
48
1
60
0
100
AcDbLine
10
33.5
20
-26.875
30
0
11
49.25
21
-26.875
31
0
39
0
210
0
220
0
230
1
0
LINE
5
45F
100
AcDbEntity
8
2
62
256
6
ByLayer
370
-1
48
1
60
0
100
AcDbLine
10
46.25
20
0
30
0
11
46.25
21
-26.875
31
0
39
0
210
0
220
0
230
1
0
LINE
5
460
100
AcDbEntity
8
2
62
256
6
ByLayer
370
-1
48
1
60
0
100
AcDbLine
10
46.25
20
0
30
0
11
46.644957
21
-2.999999
31
0
39
0
210
0
220
0
230
1
0
LINE
5
461
100
AcDbEntity
8
2
62
256
6
ByLayer
370
-1
48
1
60
0
100
AcDbLine
10
46.25
20
0
30
0
11
45.855043
21
-3.000001
31
0
39
0
210
0
220
0
230
1
0
LINE
5
462
100
AcDbEntity
8
2
62
256
6
ByLayer
370
-1
48
1
60
0
100
AcDbLine
10
46.644957
20
-2.999999
30
0
11
45.855043
21
-3.000001
31
0
39
0
210
0
220
0
230
1
0
LINE
5
463
100
AcDbEntity
8
2
62
256
6
ByLayer
370
-1
48
1
60
0
100
AcDbLine
10
46.25
20
-26.875
30
0
11
45.855043
21
-23.875001
31
0
39
0
210
0
220
0
230
1
0
LINE
5
464
100
AcDbEntity
8
2
62
256
6
ByLayer
370
-1
48
1
60
0
100
AcDbLine
10
46.25
20
-26.875
30
0
11
46.644957
21
-23.874999
31
0
39
0
210
0
220
0
230
1
0
LINE
5
465
100
AcDbEntity
8
2
62
256
6
ByLayer
370
-1
48
1
60
0
100
AcDbLine
10
45.855043
20
-23.875001
30
0
11
46.644957
21
-23.874999
31
0
39
0
210
0
220
0
230
1
0
ENDBLK
5
467
100
AcDbEntity
8
0
100
AcDbBlockEnd
0
ENDSEC
0
SECTION
2
ENTITIES
0
ARC
5
230
100
AcDbEntity
8
1
62
256
6
ByLayer
370
-1
48
1
60
0
100
AcDbCircle
39
0
10
-13.02662
20
-20.8
30
0
40
0.8
210
0
220
0
230
-1
100
AcDbArc
50
90
51
140
0
ARC
5
231
100
AcDbEntity
8
1
62
256
6
ByLayer
370
-1
48
1
60
0
100
AcDbCircle
39
0
10
19.522832
20
13.189601
30
0
40
10.0000000000002
210
0
220
0
230
1
100
AcDbArc
50
222.827114
51
270
0
ARC
5
232
100
AcDbEntity
8
1
62
256
6
ByLayer
370
-1
48
1
60
0
100
AcDbCircle
39
0
10
-19.522832
20
13.189601
30
0
40
10
210
0
220
0
230
-1
100
AcDbArc
50
341.720716
51
344.609591
0
ARC
5
233
100
AcDbEntity
8
1
62
256
6
ByLayer
370
-1
48
1
60
0
100
AcDbCircle
39
0
10
25.522832
20
-2.810399
30
0
40
6.00000000000001
210
0
220
0
230
1
100
AcDbArc
50
9.91774
51
90
0
ELLIPSE
5
234
100
AcDbEntity
8
1
62
256
6
ByLayer
370
-1
48
1
60
0
100
AcDbEllipse
10
19.745017
20
-18.101786
30
0
11
-1.64779218112857
21
-0.163108613700092
31
0
210
0
220
0
230
1
40
0.984661
41
-2.22544437015907
42
-1.0904760544671
0
ELLIPSE
5
235
100
AcDbEntity
8
1
62
256
6
ByLayer
370
-1
48
1
60
0
100
AcDbEllipse
10
18.910022
20
-17.088926
30
0
11
-1.64059795830899
21
-0.175892976529421
31
0
210
0
220
0
230
1
40
0.984637
41
0.400816393931075
42
1.46562003040127
0
ELLIPSE
5
236
100
AcDbEntity
8
1
62
256
6
ByLayer
370
-1
48
1
60
0
100
AcDbEllipse
10
18.910022
20
-17.088926
30
0
11
-1.64059795830899
21
-0.175892976529421
31
0
210
0
220
0
230
1
40
0.984637
41
1.46562003040127
42
1.73079027436304
0
ELLIPSE
5
237
100
AcDbEntity
8
1
62
256
6
ByLayer
370
-1
48
1
60
0
100
AcDbEllipse
10
10.027264
20
-4.545704
30
0
11
-0.000471879631095811
21
-2.16861186145321
31
0
210
0
220
0
230
1
40
0.00016
41
-1.85762289262295
42
-0.788231584452294
0
ELLIPSE
5
238
100
AcDbEntity
8
1
62
256
6
ByLayer
370
-1
48
1
60
0
100
AcDbEllipse
10
18.911883
20
-17.106288
30
0
11
1.64059795830899
21
0.175892976529421
31
0
210
0
220
0
230
1
40
0.984637
41
-1.90499166511709
42
-1.41093210178732
0
ELLIPSE
5
239
100
AcDbEntity
8
1
62
256
6
ByLayer
370
-1
48
1
60
0
100
AcDbEllipse
10
20.161667
20
-17.348449
30
0
11
-2.10465975395978
21
-0.225646305867182
31
0
210
0
220
0
230
1
40
0.984637
41
0.590685496656635
42
1.25571814686239
0
ELLIPSE
5
23A
100
AcDbEntity
8
1
62
256
6
ByLayer
370
-1
48
1
60
0
100
AcDbEllipse
10
10.029175
20
0
30
0
11
-0.00435779527874699
21
-19.9999999975964
31
0
210
0
220
0
230
1
40
0.000231
41
-1.01598524359791
42
-0.131720404016424
0
ELLIPSE
5
23B
100
AcDbEntity
8
1
62
256
6
ByLayer
370
-1
48
1
60
0
100
AcDbEllipse
10
10.029048
20
9.899495
30
0
11
-0.0011439212608755
21
-5.24999999996481
31
0
210
0
220
0
230
1
40
0.000231
41
-1.59981394506699
42
0.565436923381968
0
ELLIPSE
5
23C
100
AcDbEntity
8
1
62
256
6
ByLayer
370
-1
48
1
60
0
100
AcDbEllipse
10
30.091403
20
-12.825887
30
0
11
-2.62219199733798
21
-1.08677507147938
31
0
210
0
220
0
230
1
40
0.403474
41
-1.26520199899957
42
-0.982588996841297
0
ELLIPSE
5
23D
100
AcDbEntity
8
1
62
256
6
ByLayer
370
-1
48
1
60
0
100
AcDbEllipse
10
-176.19277
20
9.900117
30
0
11
-305.449407464429
21
-0.911581911902475
31
0
210
0
220
0
230
1
40
0.016929
41
2.23126244857211
42
2.23533471076903
0
ELLIPSE
5
23E
100
AcDbEntity
8
1
62
256
6
ByLayer
370
-1
48
1
60
0
100
AcDbEllipse
10
24.030275
20
-16.292309
30
0
11
-2.62219199737846
21
-1.08677507148237
31
0
210
0
220
0
230
1
40
0.403474
41
-1.54781500114639
42
-1.26520199899135
0
ELLIPSE
5
23F
100
AcDbEntity
8
1
62
256
6
ByLayer
370
-1
48
1
60
0
100
AcDbEllipse
10
19.045233
20
-18.350076
30
0
11
-1.64197701257209
21
-0.162533016841314
31
0
210
0
220
0
230
1
40
0.984661
41
-1.5439647289447
42
1.46460210359507
0
ELLIPSE
5
240
100
AcDbEntity
8
1
62
256
6
ByLayer
370
-1
48
1
60
0
100
AcDbEllipse
10
19.227007
20
-20.045611
30
0
11
-2.22614612126853
21
6.17319140959155
31
0
210
0
220
0
230
1
40
0.086374
41
1.37011808523822
42
1.38506075668326
0
ELLIPSE
5
241
100
AcDbEntity
8
1
62
256
6
ByLayer
370
-1
48
1
60
0
100
AcDbEllipse
10
18.957116
20
-17.52818
30
0
11
1.64059795830899
21
0.175892976529421
31
0
210
0
220
0
230
1
40
0.984637
41
-2.11174258782689
42
-1.79066724047502
0
ELLIPSE
5
242
100
AcDbEntity
8
1
62
256
6
ByLayer
370
-1
48
1
60
0
100
AcDbEllipse
10
20.206899
20
-17.770341
30
0
11
-1.98860358582908
21
-0.21320360791445
31
0
210
0
220
0
230
1
40
0.984637
41
0.662659215388566
42
1.32033434948343
0
ELLIPSE
5
243
100
AcDbEntity
8
1
62
256
6
ByLayer
370
-1
48
1
60
0
100
AcDbEllipse
10
19.601846
20
-23.541745
30
0
11
-1.78200909408302
21
4.60881674546242
31
0
210
0
220
0
230
1
40
0.218025
41
-0.774230585593161
42
-0.362436267248587
0
ELLIPSE
5
244
100
AcDbEntity
8
1
62
256
6
ByLayer
370
-1
48
1
60
0
100
AcDbEllipse
10
10.024734
20
-9.899495
30
0
11
-0.00114392126088849
21
-5.25000000000304
31
0
210
0
220
0
230
1
40
0.000231
41
0
42
6.28318530717959
0
ELLIPSE
5
245
100
AcDbEntity
8
1
62
256
6
ByLayer
370
-1
48
1
60
0
100
AcDbEllipse
10
292.26748
20
0.092203
30
0
11
-1166.3144904129
21
-3.50365863627381
31
0
210
0
220
0
230
1
40
0.016963
41
1.32736491589779
42
1.32897530740576
0
ELLIPSE
5
246
100
AcDbEntity
8
1
62
256
6
ByLayer
370
-1
48
1
60
0
100
AcDbEllipse
10
10.592342
20
-5.135966
30
0
11
-7.69056413195364
21
7.79311103869245
31
0
210
0
220
0
230
1
40
0.136174
41
1.7869869642717
42
-1.51283569401638
0
ELLIPSE
5
247
100
AcDbEntity
8
1
62
256
6
ByLayer
370
-1
48
1
60
0
100
AcDbEllipse
10
24.26411
20
-15.680242
30
0
11
-0.132236073363839
21
-0.0708069269303047
31
0
210
0
220
0
230
1
40
0.161535
41
1.5039405957073
42
2.21646517423373
0
ELLIPSE
5
248
100
AcDbEntity
8
1
62
256
6
ByLayer
370
-1
48
1
60
0
100
AcDbEllipse
10
29.331381
20
-24.63013
30
0
11
-0.000543016406454581
21
0.182775983450355
31
0
210
0
220
0
230
1
40
0.984667
41
2.10106309664059
42
-3.14157881687324
0
ELLIPSE
5
249
100
AcDbEntity
8
1
62
256
6
ByLayer
370
-1
48
1
60
0
100
AcDbEllipse
10
20.719027
20
-18.971136
30
0
11
-0.329995395511928
21
-0.00174325584072243
31
0
210
0
220
0
230
1
40
0.260533
41
-2.28511374827554
42
-1.40409242226615
0
ELLIPSE
5
24A
100
AcDbEntity
8
1
62
256
6
ByLayer
370
-1
48
1
60
0
100
AcDbEllipse
10
30.998968
20
-12.799927
30
0
11
-0.179124471596784
21
-0.0177319958034327
31
0
210
0
220
0
230
1
40
0.984662
41
-2.7151611894893
42
-2.55608947285495
0
ELLIPSE
5
24B
100
AcDbEntity
8
1
62
256
6
ByLayer
370
-1
48
1
60
0
100
AcDbEllipse
10
31.653908
20
-23.048204
30
0
11
-0.14314546947848
21
-0.286198138651854
31
0
210
0
220
0
230
1
40
0.015127
41
-1.75813705875675
42
-1.56320205818123
0
ELLIPSE
5
24C
100
AcDbEntity
8
1
62
256
6
ByLayer
370
-1
48
1
60
0
100
AcDbEllipse
10
33.352784
20
-18.590116
30
0
11
-2.51576837466946
21
0.609516693630111
31
0
210
0
220
0
230
1
40
0.171469
41
-0.696224289189268
42
-0.00778374429423469
0
ELLIPSE
5
24D
100
AcDbEntity
8
1
62
256
6
ByLayer
370
-1
48
1
60
0
100
AcDbEllipse
10
19.494566
20
-17.997002
30
0
11
-0.199027190663093
21
-0.0197022175593696
31
0
210
0
220
0
230
1
40
0.984662
41
-1.66130948076643
42
-0.620766087096128
0
ELLIPSE
5
24E
100
AcDbEntity
8
1
62
256
6
ByLayer
370
-1
48
1
60
0
100
AcDbEllipse
10
28.258979
20
-24.336777
30
0
11
-0.283031911622021
21
-0.000612742689959382
31
0
210
0
220
0
230
1
40
0.092039
41
1.57970606845088
42
2.61468631488264
0
ELLIPSE
5
24F
100
AcDbEntity
8
1
62
256
6
ByLayer
370
-1
48
1
60
0
100
AcDbEllipse
10
23.991821
20
-13.716778
30
0
11
-0.710106144399777
21
2.45352120080437
31
0
210
0
220
0
230
1
40
0.117393
41
2.44665728178716
42
3.13509782668616
0
ELLIPSE
5
250
100
AcDbEntity
8
1
62
256
6
ByLayer
370
-1
48
1
60
0
100
AcDbEllipse
10
30.329779
20
-13.096458
30
0
11
0.283264944422895
21
-0.169295514592367
31
0
210
0
220
0
230
1
40
0.289048
41
1.23900716994402
42
1.58807302034287
0
ELLIPSE
5
251
100
AcDbEntity
8
1
62
256
6
ByLayer
370
-1
48
1
60
0
100
AcDbEllipse
10
31.756568
20
-15.939217
30
0
11
0.248783988328866
21
0.0246277719492128
31
0
210
0
220
0
230
1
40
0.984662
41
-0.0971673114978237
42
0.426431464100465
0
ELLIPSE
5
252
100
AcDbEntity
8
1
62
256
6
ByLayer
370
-1
48
1
60
0
100
AcDbEllipse
10
21.323876
20
-16.506303
30
0
11
0.248783988328866
21
0.0246277719492128
31
0
210
0
220
0
230
1
40
0.984662
41
-1.66130948076643
42
-0.620766087096109
0
ELLIPSE
5
253
100
AcDbEntity
8
1
62
256
6
ByLayer
370
-1
48
1
60
0
100
AcDbEllipse
10
30.991837
20
-22.76497
30
0
11
-0.0080012417622428
21
2.68088705166447
31
0
210
0
220
0
230
1
40
0.179019
41
2.84088303452182
42
-2.84088287634665
0
ELLIPSE
5
254
100
AcDbEntity
8
1
62
256
6
ByLayer
370
-1
48
1
60
0
100
AcDbEllipse
10
27.700663
20
-13.127755
30
0
11
-0.152707630863964
21
-0.0889897064800053
31
0
210
0
220
0
230
1
40
0.134911
41
1.50917053215877
42
2.54415077860325
0
ELLIPSE
5
255
100
AcDbEntity
8
1
62
256
6
ByLayer
370
-1
48
1
60
0
100
AcDbEllipse
10
20.847385
20
-19.200087
30
0
11
-0.833628738596451
21
-0.485696724096987
31
0
210
0
220
0
230
1
40
0.325694
41
0.00262434550481291
42
0.824905567838693
0
ELLIPSE
5
256
100
AcDbEntity
8
1
62
256
6
ByLayer
370
-1
48
1
60
0
100
AcDbEllipse
10
28.949042
20
-13.420381
30
0
11
-2.2958671748774
21
-1.2229012063162
31
0
210
0
220
0
230
1
40
0.182032
41
2.84844605654776
42
-2.83331985432091
0
ELLIPSE
5
257
100
AcDbEntity
8
1
62
256
6
ByLayer
370
-1
48
1
60
0
100
AcDbEllipse
10
25.315523
20
-16.017962
30
0
11
0.036183213669872
21
-0.145570515725268
31
0
210
0
220
0
230
1
40
0.025586
41
-1.57181851514535
42
-1.39728558994599
0
ELLIPSE
5
258
100
AcDbEntity
8
1
62
256
6
ByLayer
370
-1
48
1
60
0
100
AcDbEllipse
10
28.822495
20
-12.813755
30
0
11
0.165284370232681
21
0.274009264363062
31
0
210
0
220
0
230
1
40
0.019277
41
1.27768491381997
42
2.46282953896438
0
ELLIPSE
5
259
100
AcDbEntity
8
1
62
256
6
ByLayer
370
-1
48
1
60
0
100
AcDbEllipse
10
28.760462
20
-24.49137
30
0
11
-0.23831188319456
21
-0.0886581204291961
31
0
210
0
220
0
230
1
40
0.697513
41
-2.17175058760288
42
-1.84961823763628
0
ELLIPSE
5
25A
100
AcDbEntity
8
1
62
256
6
ByLayer
370
-1
48
1
60
0
100
AcDbEllipse
10
29.99458
20
-12.525613
30
0
11
-0.329988233375588
21
0.00278672453945324
31
0
210
0
220
0
230
1
40
0.260309
41
-1.70243698596257
42
-0.821415659953178
0
ELLIPSE
5
25B
100
AcDbEntity
8
1
62
256
6
ByLayer
370
-1
48
1
60
0
100
AcDbEllipse
10
32.003953
20
-17.838047
30
0
11
-0.000447417577023595
21
0.150109639391053
31
0
210
0
220
0
230
1
40
0.016914
41
-2.45774943115206
42
-1.74522485137937
0
ELLIPSE
5
25C
100
AcDbEntity
8
1
62
256
6
ByLayer
370
-1
48
1
60
0
100
AcDbEllipse
10
21.387145
20
-17.145433
30
0
11
-0.209095460516063
21
0.200510589566655
31
0
210
0
220
0
230
1
40
0.746902
41
2.91641968164983
42
-3.04463327560678
0
ELLIPSE
5
25D
100
AcDbEntity
8
1
62
256
6
ByLayer
370
-1
48
1
60
0
100
AcDbEllipse
10
30.017897
20
-13.028765
30
0
11
-0.00335270464585724
21
-0.931737718910683
31
0
210
0
220
0
230
1
40
0.351081
41
3.13235786887134
42
-2.32854621597401
0
ELLIPSE
5
25E
100
AcDbEntity
8
1
62
256
6
ByLayer
370
-1
48
1
60
0
100
AcDbEllipse
10
20.721017
20
-19.347812
30
0
11
0.329995395511928
21
0.00174325584072254
31
0
210
0
220
0
230
1
40
0.260533
41
0.856478905314254
42
1.73750023132366
0
ELLIPSE
5
25F
100
AcDbEntity
8
1
62
256
6
ByLayer
370
-1
48
1
60
0
100
AcDbEllipse
10
23.949075
20
-23.716541
30
0
11
-1.80184302529137
21
-1.84142902252229
31
0
210
0
220
0
230
1
40
0.173099
41
-2.6955963784266
42
-2.45156734833619
0
ELLIPSE
5
260
100
AcDbEntity
8
1
62
256
6
ByLayer
370
-1
48
1
60
0
100
AcDbEllipse
10
31.331375
20
-24.21439
30
0
11
1.55866942272948E-17
21
0.254558441227156
31
0
210
0
220
0
230
1
40
0.999857
41
-0.838909548964158
42
-0.533972158064268
0
ELLIPSE
5
261
100
AcDbEntity
8
1
62
256
6
ByLayer
370
-1
48
1
60
0
100
AcDbEllipse
10
31.486962
20
-17.819757
30
0
11
0.00530342657157402
21
0.149906216237353
31
0
210
0
220
0
230
1
40
0.023672
41
-2.45710055366201
42
-1.74457597513384
0
ELLIPSE
5
262
100
AcDbEntity
8
1
62
256
6
ByLayer
370
-1
48
1
60
0
100
AcDbEllipse
10
28.822495
20
-12.813755
30
0
11
0.319355024773582
21
0.0203068498754729
31
0
210
0
220
0
230
1
40
0.25077
41
1.42076268968341
42
1.61569769025886
0
ELLIPSE
5
263
100
AcDbEntity
8
1
62
256
6
ByLayer
370
-1
48
1
60
0
100
AcDbEllipse
10
31.397351
20
-14.366926
30
0
11
-0.155721789656934
21
-0.279775169866139
31
0
210
0
220
0
230
1
40
0.100809
41
-1.86742547973001
42
-1.35854214667668
0
ELLIPSE
5
264
100
AcDbEntity
8
1
62
256
6
ByLayer
370
-1
48
1
60
0
100
AcDbEllipse
10
27.520135
20
-24.118831
30
0
11
0.248783988328866
21
0.0246277719492128
31
0
210
0
220
0
230
1
40
0.984662
41
-2.191562413891
42
-1.66796363829271
0
ELLIPSE
5
265
100
AcDbEntity
8
1
62
256
6
ByLayer
370
-1
48
1
60
0
100
AcDbEllipse
10
22.021853
20
-21.268279
30
0
11
-0.152805304687068
21
0.0885670091597928
31
0
210
0
220
0
230
1
40
0.12071
41
0.622497921360182
42
1.65747816780948
0
ELLIPSE
5
266
100
AcDbEntity
8
1
62
256
6
ByLayer
370
-1
48
1
60
0
100
AcDbEllipse
10
31.998474
20
-22.819896
30
0
11
-0.000531706300225704
21
0.383501673940145
31
0
210
0
220
0
230
1
40
0.014329
41
0.391574368403342
42
1.474339954302
0
ELLIPSE
5
267
100
AcDbEntity
8
1
62
256
6
ByLayer
370
-1
48
1
60
0
100
AcDbEllipse
10
30.357801
20
-13.042501
30
0
11
0.225910690953892
21
-0.117321608038479
31
0
210
0
220
0
230
1
40
0.957172
41
-1.61459250743369
42
-1.30965524245271
0
ELLIPSE
5
268
100
AcDbEntity
8
1
62
256
6
ByLayer
370
-1
48
1
60
0
100
AcDbEllipse
10
31.064443
20
-13.461337
30
0
11
-0.172938885509711
21
0.0536199570041795
31
0
210
0
220
0
230
1
40
0.960584
41
-2.33004026969578
42
-1.3773205927706
0
ELLIPSE
5
269
100
AcDbEntity
8
1
62
256
6
ByLayer
370
-1
48
1
60
0
100
AcDbEllipse
10
25.133231
20
-22.071792
30
0
11
-0.083396644765514
21
0.124679587911794
31
0
210
0
220
0
230
1
40
0.083235
41
1.72528040972739
42
2.43086659942582
0
ELLIPSE
5
26A
100
AcDbEntity
8
1
62
256
6
ByLayer
370
-1
48
1
60
0
100
AcDbEllipse
10
31.334919
20
-24.214372
30
0
11
-0.167084440122753
21
-0.284574752690512
31
0
210
0
220
0
230
1
40
0.328265
41
1.56622175111538
42
2.38850297345037
0
ELLIPSE
5
26B
100
AcDbEntity
8
1
62
256
6
ByLayer
370
-1
48
1
60
0
100
AcDbEllipse
10
30.022602
20
-12.471656
30
0
11
0.225910690953892
21
-0.117321608038479
31
0
210
0
220
0
230
1
40
0.957172
41
-2.99344383251986
42
-2.68850656753886
0
ELLIPSE
5
26C
100
AcDbEntity
8
1
62
256
6
ByLayer
370
-1
48
1
60
0
100
AcDbEllipse
10
31.04822
20
-13.112833
30
0
11
-0.134508022067322
21
0.0417044109962269
31
0
210
0
220
0
230
1
40
0.960584
41
-0.228991009828161
42
0.811552383836244
0
ELLIPSE
5
26D
100
AcDbEntity
8
1
62
256
6
ByLayer
370
-1
48
1
60
0
100
AcDbEllipse
10
30.329779
20
-13.096458
30
0
11
0.164231671069877
21
0.28623060321635
31
0
210
0
220
0
230
1
40
0.012676
41
1.27733562267072
42
2.15835694867933
0
ELLIPSE
5
26E
100
AcDbEntity
8
1
62
256
6
ByLayer
370
-1
48
1
60
0
100
AcDbEllipse
10
24.603541
20
-13.564728
30
0
11
-0.710106144397323
21
2.45352120080021
31
0
210
0
220
0
230
1
40
0.117393
41
3.13509782668613
42
-2.59575155036897
0
ELLIPSE
5
26F
100
AcDbEntity
8
1
62
256
6
ByLayer
370
-1
48
1
60
0
100
AcDbEllipse
10
21.232077
20
-20.373042
30
0
11
0.318996801417973
21
0.0253187812720521
31
0
210
0
220
0
230
1
40
0.103136
41
0.540764891680794
42
1.62353047750981
0
ELLIPSE
5
270
100
AcDbEntity
8
1
62
256
6
ByLayer
370
-1
48
1
60
0
100
AcDbEllipse
10
30.999125
20
-24.0158
30
0
11
-0.167973549938389
21
-0.284050851998539
31
0
210
0
220
0
230
1
40
0.014557
41
-2.44318016919129
42
-1.56215884318401
0
ELLIPSE
5
271
100
AcDbEntity
8
1
62
256
6
ByLayer
370
-1
48
1
60
0
100
AcDbEllipse
10
31.308391
20
-13.326876
30
0
11
-0.179124471596784
21
-0.0177319958034327
31
0
210
0
220
0
230
1
40
0.984662
41
3.14157948388692
42
-2.71516118948933
0
ELLIPSE
5
272
100
AcDbEntity
8
1
62
256
6
ByLayer
370
-1
48
1
60
0
100
AcDbEllipse
10
20.721017
20
-19.347812
30
0
11
-0.165947090950553
21
0.285239483601147
31
0
210
0
220
0
230
1
40
0.016637
41
1.26039991204628
42
2.14142123805548
0
ELLIPSE
5
273
100
AcDbEntity
8
1
62
256
6
ByLayer
370
-1
48
1
60
0
100
AcDbEllipse
10
30.835327
20
-17.951217
30
0
11
-0.144030684188854
21
0.0418946537411468
31
0
210
0
220
0
230
1
40
0.162256
41
1.6358379131811
42
1.81037083838051
0
ELLIPSE
5
274
100
AcDbEntity
8
1
62
256
6
ByLayer
370
-1
48
1
60
0
100
AcDbEllipse
10
27.244735
20
-18.831618
30
0
11
3.06543254731197
21
0.303455114647884
31
0
210
0
220
0
230
1
40
0.984662
41
0
42
6.28318530717959
0
ELLIPSE
5
275
100
AcDbEntity
8
1
62
256
6
ByLayer
370
-1
48
1
60
0
100
AcDbEllipse
10
29.606661
20
-12.230024
30
0
11
-0.2401928965427
21
0.074472162505235
31
0
210
0
220
0
230
1
40
0.960584
41
-1.28949687602773
42
-0.759243942904179
0
ELLIPSE
5
276
100
AcDbEntity
8
1
62
256
6
ByLayer
370
-1
48
1
60
0
100
AcDbEllipse
10
27.227417
20
-18.656684
30
0
11
-2.99532017044197
21
-0.296514508703052
31
0
210
0
220
0
230
1
40
0.984662
41
-0.378634339733022
42
0
0
ELLIPSE
5
277
100
AcDbEntity
8
1
62
256
6
ByLayer
370
-1
48
1
60
0
100
AcDbEllipse
10
27.227417
20
-18.656684
30
0
11
-2.99532017044197
21
-0.296514508703052
31
0
210
0
220
0
230
1
40
0.984662
41
0
42
1.47362904330712
0
ELLIPSE
5
278
100
AcDbEntity
8
1
62
256
6
ByLayer
370
-1
48
1
60
0
100
AcDbEllipse
10
27.227417
20
-18.656684
30
0
11
-2.99532017044197
21
-0.296514508703052
31
0
210
0
220
0
230
1
40
0.984662
41
1.47362901269947
42
-2.76300496008912
0
ELLIPSE
5
279
100
AcDbEntity
8
1
62
256
6
ByLayer
370
-1
48
1
60
0
100
AcDbEllipse
10
20.145605
20
-18.991807
30
0
11
-0.0118881912270294
21
0.329785795493605
31
0
210
0
220
0
230
1
40
0.163668
41
0.956738698458469
42
1.30580454885731
0
ELLIPSE
5
27A
100
AcDbEntity
8
1
62
256
6
ByLayer
370
-1
48
1
60
0
100
AcDbEllipse
10
24.789563
20
-22.868817
30
0
11
-0.267099046666783
21
0.158301784505403
31
0
210
0
220
0
230
1
40
0.138657
41
-1.4753256959166
42
-0.781963418876573
0
ELLIPSE
5
27B
100
AcDbEntity
8
1
62
256
6
ByLayer
370
-1
48
1
60
0
100
AcDbEllipse
10
23.994399
20
-13.742822
30
0
11
-0.715048513163825
21
2.45240612039582
31
0
210
0
220
0
230
1
40
0.176067
41
2.44609149617707
42
3.13453204107303
0
ELLIPSE
5
27C
100
AcDbEntity
8
1
62
256
6
ByLayer
370
-1
48
1
60
0
100
AcDbEllipse
10
31.083429
20
-11.544574
30
0
11
-0.199027190663093
21
-0.0197022175593696
31
0
210
0
220
0
230
1
40
0.984662
41
-2.71516118948932
42
-1.67461779581898
0
ELLIPSE
5
27D
100
AcDbEntity
8
1
62
256
6
ByLayer
370
-1
48
1
60
0
100
AcDbEllipse
10
20.719027
20
-18.971136
30
0
11
-0.0118881912270294
21
0.329785795493605
31
0
210
0
220
0
230
1
40
0.163668
41
0.956738698458387
42
1.30580454885731
0
ELLIPSE
5
27E
100
AcDbEntity
8
1
62
256
6
ByLayer
370
-1
48
1
60
0
100
AcDbEllipse
10
32.003953
20
-22.02069
30
0
11
-0.000381298909741047
21
0.176125739401869
31
0
210
0
220
0
230
1
40
0.014477
41
-2.75422024573518
42
-1.7192399992911
0
ELLIPSE
5
27F
100
AcDbEntity
8
1
62
256
6
ByLayer
370
-1
48
1
60
0
100
AcDbEllipse
10
24.023053
20
-15.230054
30
0
11
-0.12944767017263
21
-0.0760082363327813
31
0
210
0
220
0
230
1
40
0.158728
41
1.49769557637482
42
2.21022015498088
0
ELLIPSE
5
280
100
AcDbEntity
8
1
62
256
6
ByLayer
370
-1
48
1
60
0
100
AcDbEllipse
10
30.571009
20
-12.542852
30
0
11
0.0098644958236988
21
0.329852530264881
31
0
210
0
220
0
230
1
40
0.130201
41
-1.30693253085108
42
-0.957866680452204
0
ELLIPSE
5
281
100
AcDbEntity
8
1
62
256
6
ByLayer
370
-1
48
1
60
0
100
AcDbEllipse
10
20.323639
20
-17.654251
30
0
11
0.139319033464165
21
0.0137915522915592
31
0
210
0
220
0
230
1
40
0.984662
41
-1.66130948076648
42
-0.620766087096109
0
ELLIPSE
5
282
100
AcDbEntity
8
1
62
256
6
ByLayer
370
-1
48
1
60
0
100
AcDbEllipse
10
29.857352
20
-12.755357
30
0
11
-0.837102468424064
21
0.479796040739955
31
0
210
0
220
0
230
1
40
0.327398
41
2.31333810641889
42
3.13561932875556
0
ELLIPSE
5
283
100
AcDbEntity
8
1
62
256
6
ByLayer
370
-1
48
1
60
0
100
AcDbEllipse
10
31.097592
20
-11.568693
30
0
11
-0.199027190663093
21
-0.0197022175593696
31
0
210
0
220
0
230
1
40
0.984662
41
3.14157835546847
42
-2.71516118948929
0
ELLIPSE
5
284
100
AcDbEntity
8
1
62
256
6
ByLayer
370
-1
48
1
60
0
100
AcDbEllipse
10
20.101182
20
-19.067725
30
0
11
-0.283786516974514
21
-0.168419751761703
31
0
210
0
220
0
230
1
40
0.305589
41
-1.55760914820954
42
-1.20854329781066
0
ELLIPSE
5
285
100
AcDbEntity
8
1
62
256
6
ByLayer
370
-1
48
1
60
0
100
AcDbEllipse
10
30.99558
20
-24.015818
30
0
11
1.55866942272948E-17
21
0.254558441227156
31
0
210
0
220
0
230
1
40
0.999857
41
-0.533972158064287
42
0.539941900357846
0
ELLIPSE
5
286
100
AcDbEntity
8
1
62
256
6
ByLayer
370
-1
48
1
60
0
100
AcDbEllipse
10
31.653908
20
-23.048204
30
0
11
-0.176751670220205
21
0.266756156581939
31
0
210
0
220
0
230
1
40
0.154918
41
-1.46487428237418
42
-0.382108696545066
0
ELLIPSE
5
287
100
AcDbEntity
8
1
62
256
6
ByLayer
370
-1
48
1
60
0
100
AcDbEllipse
10
24.940274
20
-14.744795
30
0
11
-0.266404088813873
21
-0.158769533545314
31
0
210
0
220
0
230
1
40
0.155553
41
-2.330968924024
42
-1.63760664700245
0
ELLIPSE
5
288
100
AcDbEntity
8
1
62
256
6
ByLayer
370
-1
48
1
60
0
100
AcDbEllipse
10
24.606119
20
-13.590772
30
0
11
-0.715048512982723
21
2.45240611994346
31
0
210
0
220
0
230
1
40
0.176067
41
-2.6993200192081
42
-2.45529098897971
0
ELLIPSE
5
289
100
AcDbEntity
8
1
62
256
6
ByLayer
370
-1
48
1
60
0
100
AcDbEllipse
10
31.998474
20
-23.220543
30
0
11
-0.00106954735337106
21
0.358318667299497
31
0
210
0
220
0
230
1
40
0.015116
41
1.37583876385655
42
1.57077375464963
0
ELLIPSE
5
28A
100
AcDbEntity
8
1
62
256
6
ByLayer
370
-1
48
1
60
0
100
AcDbEllipse
10
24.603541
20
-13.564728
30
0
11
-0.710106144572261
21
2.45352120129674
31
0
210
0
220
0
230
1
40
0.117393
41
-2.5957515504263
42
-2.45472520350306
0
ELLIPSE
5
28B
100
AcDbEntity
8
1
62
256
6
ByLayer
370
-1
48
1
60
0
100
AcDbEllipse
10
25.975398
20
-22.916724
30
0
11
0.12640447529284
21
-0.0807583347150108
31
0
210
0
220
0
230
1
40
0.137863
41
-2.1751499219243
42
-1.46262534339753
0
ELLIPSE
5
28C
100
AcDbEntity
8
1
62
256
6
ByLayer
370
-1
48
1
60
0
100
AcDbEllipse
10
31.151057
20
-12.227732
30
0
11
-0.192154317235288
21
0.0595777300000673
31
0
210
0
220
0
230
1
40
0.960584
41
-2.33004026971857
42
-1.28949687604935
0
ELLIPSE
5
28D
100
AcDbEntity
8
1
62
256
6
ByLayer
370
-1
48
1
60
0
100
AcDbEllipse
10
30.661553
20
-18.548641
30
0
11
-0.144030684188854
21
0.0418946537411468
31
0
210
0
220
0
230
1
40
0.162256
41
1.6358379131811
42
1.81037083838051
0
ELLIPSE
5
28E
100
AcDbEntity
8
1
62
256
6
ByLayer
370
-1
48
1
60
0
100
AcDbEllipse
10
31.15583
20
-23.91974
30
0
11
-0.827532009958389
21
-0.496071482933492
31
0
210
0
220
0
230
1
40
0.342016
41
-0.82689875441405
42
-0.0046175320782165
0
ELLIPSE
5
28F
100
AcDbEntity
8
1
62
256
6
ByLayer
370
-1
48
1
60
0
100
AcDbEllipse
10
20.691663
20
-18.12369
30
0
11
-0.164480585856886
21
-0.0749867920381157
31
0
210
0
220
0
230
1
40
0.958576
41
-0.937122012369446
42
0.015597664558111
0
ELLIPSE
5
290
100
AcDbEntity
8
1
62
256
6
ByLayer
370
-1
48
1
60
0
100
AcDbEllipse
10
21.232077
20
-20.373042
30
0
11
-0.179046461892985
21
0.265221349976965
31
0
210
0
220
0
230
1
40
0.004841
41
-1.45494020729376
42
-1.26000520671819
0
ELLIPSE
5
291
100
AcDbEntity
8
1
62
256
6
ByLayer
370
-1
48
1
60
0
100
AcDbEllipse
10
20.68684
20
-19.474454
30
0
11
-0.000752989036910137
21
-0.931731630024937
31
0
210
0
220
0
230
1
40
0.349223
41
2.33218217417803
42
-3.12872191066806
0
ELLIPSE
5
292
100
AcDbEntity
8
1
62
256
6
ByLayer
370
-1
48
1
60
0
100
AcDbEllipse
10
20.626188
20
-17.46228
30
0
11
-0.179124471596784
21
-0.0177319958034327
31
0
210
0
220
0
230
1
40
0.984662
41
-0.620766087096145
42
-1.1999575889603E-05
0
ELLIPSE
5
293
100
AcDbEntity
8
1
62
256
6
ByLayer
370
-1
48
1
60
0
100
AcDbEllipse
10
33.176431
20
-19.161497
30
0
11
-2.48794859177508
21
0.577833479740279
31
0
210
0
220
0
230
1
40
0.115835
41
-0.00832421788713877
42
0.54401171223915
0
ELLIPSE
5
294
100
AcDbEntity
8
1
62
256
6
ByLayer
370
-1
48
1
60
0
100
AcDbEllipse
10
20.935611
20
-16.933484
30
0
11
-0.179124471596784
21
-0.0177319958034327
31
0
210
0
220
0
230
1
40
0.984662
41
-1.66130948076642
42
-0.620766087096118
0
ELLIPSE
5
295
100
AcDbEntity
8
1
62
256
6
ByLayer
370
-1
48
1
60
0
100
AcDbEllipse
10
30.999125
20
-24.0158
30
0
11
-0.169666257141378
21
0.28304303769504
31
0
210
0
220
0
230
1
40
0.014531
41
0.681094103133638
42
1.56211542914271
0
ELLIPSE
5
296
100
AcDbEntity
8
1
62
256
6
ByLayer
370
-1
48
1
60
0
100
AcDbEllipse
10
33.179009
20
-19.18754
30
0
11
-2.5157683747064
21
0.609516693636175
31
0
210
0
220
0
230
1
40
0.171469
41
-0.00778374429425052
42
0.441549502561205
0
ELLIPSE
5
297
100
AcDbEntity
8
1
62
256
6
ByLayer
370
-1
48
1
60
0
100
AcDbEllipse
10
30.99325
20
-23.918908
30
0
11
-0.00250038805065533
21
0.837777203641169
31
0
210
0
220
0
230
1
40
0.179019
41
2.84088303452111
42
-2.84088287634587
0
ELLIPSE
5
298
100
AcDbEntity
8
1
62
256
6
ByLayer
370
-1
48
1
60
0
100
AcDbEllipse
10
20.748154
20
-19.30714
30
0
11
-0.712466639468257
21
0.377871752135208
31
0
210
0
220
0
230
1
40
0.183958
41
-0.308399372821089
42
0.293020023497389
0
ELLIPSE
5
299
100
AcDbEntity
8
1
62
256
6
ByLayer
370
-1
48
1
60
0
100
AcDbEllipse
10
28.822495
20
-12.813755
30
0
11
-0.132407128075035
21
-0.291321733543725
31
0
210
0
220
0
230
1
40
0.160769
41
-1.77205237584619
42
-0.689286790017279
0
ELLIPSE
5
29A
100
AcDbEntity
8
1
62
256
6
ByLayer
370
-1
48
1
60
0
100
AcDbEllipse
10
31.334919
20
-24.214372
30
0
11
0.286289761130406
21
-0.164128524857489
31
0
210
0
220
0
230
1
40
0.008441
41
-1.58546855109514
42
-1.23640270069669
0
ELLIPSE
5
29B
100
AcDbEntity
8
1
62
256
6
ByLayer
370
-1
48
1
60
0
100
AcDbEllipse
10
31.162924
20
-18.962812
30
0
11
-0.0644797548528727
21
-0.13543397363333
31
0
210
0
220
0
230
1
40
0.091176
41
1.42086082938273
42
2.12644701908069
0
ELLIPSE
5
29C
100
AcDbEntity
8
1
62
256
6
ByLayer
370
-1
48
1
60
0
100
AcDbEllipse
10
32.008156
20
-18.27994
30
0
11
-0.000679640553330187
21
0.306791687261855
31
0
210
0
220
0
230
1
40
0.016938
41
0.702997575972422
42
1.3914381208433
0
ELLIPSE
5
29D
100
AcDbEntity
8
1
62
256
6
ByLayer
370
-1
48
1
60
0
100
AcDbEllipse
10
30.225979
20
-24.795053
30
0
11
-0.000422346106564949
21
0.142159098237647
31
0
210
0
220
0
230
1
40
0.984667
41
1.38366288873365E-05
42
0.952733513552682
0
ELLIPSE
5
29E
100
AcDbEntity
8
1
62
256
6
ByLayer
370
-1
48
1
60
0
100
AcDbEllipse
10
24.606119
20
-13.590772
30
0
11
-0.715048513185718
21
2.45240612045867
31
0
210
0
220
0
230
1
40
0.176067
41
3.13453204107298
42
-2.69932001925328
0
ELLIPSE
5
29F
100
AcDbEntity
8
1
62
256
6
ByLayer
370
-1
48
1
60
0
100
AcDbEllipse
10
25.352461
20
-23.192409
30
0
11
-0.267099046673959
21
0.158301784506925
31
0
210
0
220
0
230
1
40
0.138657
41
-2.16376624083506
42
-1.4753256959751
0
ELLIPSE
5
2A0
100
AcDbEntity
8
1
62
256
6
ByLayer
370
-1
48
1
60
0
100
AcDbEllipse
10
21.284443
20
-17.466793
30
0
11
-0.320085891128474
21
-0.0020449091490491
31
0
210
0
220
0
230
1
40
0.174338
41
-1.91120423010738
42
-1.40232089709708
0
ELLIPSE
5
2A1
100
AcDbEntity
8
1
62
256
6
ByLayer
370
-1
48
1
60
0
100
AcDbEllipse
10
31.07023
20
-13.150318
30
0
11
-0.134508022064765
21
0.0417044109998871
31
0
210
0
220
0
230
1
40
0.960584
41
0.811552383869943
42
1.76427206079107
0
ELLIPSE
5
2A2
100
AcDbEntity
8
1
62
256
6
ByLayer
370
-1
48
1
60
0
100
AcDbEllipse
10
31.013704
20
-25.346459
30
0
11
-0.000603351616033747
21
0.203084426055736
31
0
210
0
220
0
230
1
40
0.984667
41
-3.14157881713121
42
-2.10103542346535
0
ELLIPSE
5
2A3
100
AcDbEntity
8
1
62
256
6
ByLayer
370
-1
48
1
60
0
100
AcDbEllipse
10
19.562193
20
-18.680161
30
0
11
-0.182756206514486
21
-0.0833186578107133
31
0
210
0
220
0
230
1
40
0.958576
41
-1.97766540597967
42
-0.93712201231124
0
ELLIPSE
5
2A4
100
AcDbEntity
8
1
62
256
6
ByLayer
370
-1
48
1
60
0
100
AcDbEllipse
10
30.998835
20
-23.9189
30
0
11
-0.00502369679829259
21
-0.896866915205705
31
0
210
0
220
0
230
1
40
0.535097
41
-0.296115106459202
42
0.305304289851328
0
ELLIPSE
5
2A5
100
AcDbEntity
8
1
62
256
6
ByLayer
370
-1
48
1
60
0
100
AcDbEllipse
10
24.384443
20
-24.135872
30
0
11
-1.78601174351761
21
-1.79756032735964
31
0
210
0
220
0
230
1
40
0.117311
41
2.44983432393414
42
3.13827486883055
0
ELLIPSE
5
2A6
100
AcDbEntity
8
1
62
256
6
ByLayer
370
-1
48
1
60
0
100
AcDbEllipse
10
31.045647
20
-24.71895
30
0
11
0.286289761130406
21
-0.164128524857489
31
0
210
0
220
0
230
1
40
0.008441
41
-1.58546855109513
42
-1.236402700696
0
ELLIPSE
5
2A7
100
AcDbEntity
8
1
62
256
6
ByLayer
370
-1
48
1
60
0
100
AcDbEllipse
10
32.003953
20
-19.363224
30
0
11
-0.000403788250365305
21
0.166320387749468
31
0
210
0
220
0
230
1
40
0.01531
41
-1.72806615664513
42
-1.02247996706042
0
ELLIPSE
5
2A8
100
AcDbEntity
8
1
62
256
6
ByLayer
370
-1
48
1
60
0
100
AcDbEllipse
10
30.664521
20
-24.216373
30
0
11
-0.17056445454547
21
0.282502684669733
31
0
210
0
220
0
230
1
40
0.355599
41
0.734659422791397
42
1.55694064512639
0
ELLIPSE
5
2A9
100
AcDbEntity
8
1
62
256
6
ByLayer
370
-1
48
1
60
0
100
AcDbEllipse
10
30.664521
20
-24.216373
30
0
11
-0.2853049298661
21
-0.165834547046446
31
0
210
0
220
0
230
1
40
0.008485
41
-1.55614936114844
42
-1.20708351074923
0
ELLIPSE
5
2AA
100
AcDbEntity
8
1
62
256
6
ByLayer
370
-1
48
1
60
0
100
AcDbEllipse
10
20.383828
20
-19.543982
30
0
11
0.165947090950552
21
-0.285239483601147
31
0
210
0
220
0
230
1
40
0.016637
41
-1.88119274154385
42
-1.00017141553413
0
ELLIPSE
5
2AB
100
AcDbEntity
8
1
62
256
6
ByLayer
370
-1
48
1
60
0
100
AcDbEllipse
10
24.378462
20
-15.071744
30
0
11
-0.266404088814331
21
-0.158769533541309
31
0
210
0
220
0
230
1
40
0.155553
41
-1.63760664692379
42
-0.949166102065721
0
ELLIPSE
5
2AC
100
AcDbEntity
8
1
62
256
6
ByLayer
370
-1
48
1
60
0
100
AcDbEllipse
10
31.745327
20
-23.969376
30
0
11
-0.000754189539497179
21
0.253855532570829
31
0
210
0
220
0
230
1
40
0.984667
41
-2.10103542353699
42
-1.57078249041853
0
ELLIPSE
5
2AD
100
AcDbEntity
8
1
62
256
6
ByLayer
370
-1
48
1
60
0
100
AcDbEllipse
10
20.685887
20
-19.294044
30
0
11
0.213104820120462
21
0.139234821942734
31
0
210
0
220
0
230
1
40
0.952081
41
-1.62521932802716
42
-0.551305267921986
0
ELLIPSE
5
2AE
100
AcDbEntity
8
1
62
256
6
ByLayer
370
-1
48
1
60
0
100
AcDbEllipse
10
25.749394
20
-21.85012
30
0
11
0.10695431699861
21
0.105170214772819
31
0
210
0
220
0
230
1
40
0.13667
41
-1.85502684753501
42
-1.68049392233555
0
ELLIPSE
5
2AF
100
AcDbEntity
8
1
62
256
6
ByLayer
370
-1
48
1
60
0
100
AcDbEllipse
10
31.16522
20
-12.251851
30
0
11
-0.192154317233274
21
0.0595777300030943
31
0
210
0
220
0
230
1
40
0.960584
41
2.91260164380678
42
-2.33004026970033
0
ELLIPSE
5
2B0
100
AcDbEntity
8
1
62
256
6
ByLayer
370
-1
48
1
60
0
100
AcDbEllipse
10
29.908479
20
-12.946619
30
0
11
-0.808215778168271
21
-0.497860414428023
31
0
210
0
220
0
230
1
40
0.499158
41
2.83032562058207
42
-2.85144029028277
0
ELLIPSE
5
2B1
100
AcDbEntity
8
1
62
256
6
ByLayer
370
-1
48
1
60
0
100
AcDbEllipse
10
30.9568
20
-24.719216
30
0
11
-0.2853049298661
21
-0.165834547046446
31
0
210
0
220
0
230
1
40
0.008485
41
-1.55614936114845
42
-1.20708351074927
0
ELLIPSE
5
2B2
100
AcDbEntity
8
1
62
256
6
ByLayer
370
-1
48
1
60
0
100
AcDbEllipse
10
19.480403
20
-18.021205
30
0
11
-0.199027190663093
21
-0.0197022175593696
31
0
210
0
220
0
230
1
40
0.984662
41
-0.620766087096103
42
9.77236594147986E-07
0
ELLIPSE
5
2B3
100
AcDbEntity
8
1
62
256
6
ByLayer
370
-1
48
1
60
0
100
AcDbEllipse
10
25.430315
20
-15.382119
30
0
11
0.149611540162878
21
0.0107882830001623
31
0
210
0
220
0
230
1
40
0.174411
41
-2.27172692594571
42
-1.56614073624739
0
ELLIPSE
5
2B4
100
AcDbEntity
8
1
62
256
6
ByLayer
370
-1
48
1
60
0
100
AcDbEllipse
10
20.383828
20
-19.543982
30
0
11
-0.283786516974514
21
-0.168419751761703
31
0
210
0
220
0
230
1
40
0.305589
41
-1.55760914820952
42
-1.20854329781062
0
ELLIPSE
5
2B5
100
AcDbEntity
8
1
62
256
6
ByLayer
370
-1
48
1
60
0
100
AcDbEllipse
10
29.950227
20
-24.628283
30
0
11
-0.000543016438806849
21
0.182775983449354
31
0
210
0
220
0
230
1
40
0.984667
41
-3.14157881704717
42
-2.18885914012655
0
ELLIPSE
5
2B6
100
AcDbEntity
8
1
62
256
6
ByLayer
370
-1
48
1
60
0
100
AcDbEllipse
10
29.991399
20
-12.902305
30
0
11
-0.164231671069877
21
-0.28623060321635
31
0
210
0
220
0
230
1
40
0.012676
41
-1.86425703091908
42
-0.983235704909605
0
ELLIPSE
5
2B7
100
AcDbEntity
8
1
62
256
6
ByLayer
370
-1
48
1
60
0
100
AcDbEllipse
10
20.348493
20
-19.954798
30
0
11
-0.228445258137626
21
-0.104148322291475
31
0
210
0
220
0
230
1
40
0.958576
41
0.103421381252746
42
0.633674314369423
0
ELLIPSE
5
2B8
100
AcDbEntity
8
1
62
256
6
ByLayer
370
-1
48
1
60
0
100
AcDbEllipse
10
31.681803
20
-15.183959
30
0
11
0.248783988328866
21
0.0246277719492128
31
0
210
0
220
0
230
1
40
0.984662
41
-8.0048538856811E-08
42
0.426431464100504
0
ELLIPSE
5
2B9
100
AcDbEntity
8
1
62
256
6
ByLayer
370
-1
48
1
60
0
100
AcDbEllipse
10
32.007613
20
-18.91404
30
0
11
-0.000679640554272122
21
0.306791686868503
31
0
210
0
220
0
230
1
40
0.016938
41
1.39143812024853
42
2.08480039819055
0
ELLIPSE
5
2BA
100
AcDbEntity
8
1
62
256
6
ByLayer
370
-1
48
1
60
0
100
AcDbEllipse
10
20.683897
20
-18.917368
30
0
11
0.213104820120462
21
0.139234821942734
31
0
210
0
220
0
230
1
40
0.952081
41
-0.551305267921986
42
-0.246368002940986
0
ELLIPSE
5
2BB
100
AcDbEntity
8
1
62
256
6
ByLayer
370
-1
48
1
60
0
100
AcDbEllipse
10
31.373866
20
-13.988286
30
0
11
-0.172938885516699
21
0.0536199569925288
31
0
210
0
220
0
230
1
40
0.960584
41
2.91260164374639
42
-2.33004026977103
0
ELLIPSE
5
2BC
100
AcDbEntity
8
1
62
256
6
ByLayer
370
-1
48
1
60
0
100
AcDbEllipse
10
28.798826
20
-12.441513
30
0
11
-0.308527294930618
21
-0.177903572191463
31
0
210
0
220
0
230
1
40
0.143598
41
-1.79177572586298
42
-1.59684072527186
0
ELLIPSE
5
2BD
100
AcDbEntity
8
1
62
256
6
ByLayer
370
-1
48
1
60
0
100
AcDbEllipse
10
24.387021
20
-24.161916
30
0
11
-1.80184302404276
21
-1.84142902097294
31
0
210
0
220
0
230
1
40
0.173099
41
2.44981513716327
42
3.13825568205725
0
ELLIPSE
5
2BE
100
AcDbEntity
8
1
62
256
6
ByLayer
370
-1
48
1
60
0
100
AcDbEllipse
10
33.176431
20
-19.161497
30
0
11
-2.48794858231519
21
0.577833478185016
31
0
210
0
220
0
230
1
40
0.115835
41
0.544011713182497
42
0.685038060436976
0
ELLIPSE
5
2BF
100
AcDbEntity
8
1
62
256
6
ByLayer
370
-1
48
1
60
0
100
AcDbEllipse
10
28.446555
20
-12.642888
30
0
11
-0.334812745678277
21
-0.197865831523379
31
0
210
0
220
0
230
1
40
0.130762
41
-1.68082760841671
42
-0.598062022588314
0
ELLIPSE
5
2C0
100
AcDbEntity
8
1
62
256
6
ByLayer
370
-1
48
1
60
0
100
AcDbEllipse
10
21.748799
20
-19.859709
30
0
11
-2.27989324636246
21
1.209189606867
31
0
210
0
220
0
230
1
40
0.183958
41
-0.308399372816676
42
0.293020023493224
0
ELLIPSE
5
2C1
100
AcDbEntity
8
1
62
256
6
ByLayer
370
-1
48
1
60
0
100
AcDbEllipse
10
20.383828
20
-19.543982
30
0
11
-0.196617142700669
21
0.265031506044517
31
0
210
0
220
0
230
1
40
0.341239
41
1.24446412044414
42
2.06674534277917
0
ELLIPSE
5
2C2
100
AcDbEntity
8
1
62
256
6
ByLayer
370
-1
48
1
60
0
100
AcDbEllipse
10
30.664521
20
-24.216373
30
0
11
0.169666257141378
21
-0.28304303769504
31
0
210
0
220
0
230
1
40
0.014531
41
-2.46049855045522
42
-1.57947722444709
0
ELLIPSE
5
2C3
100
AcDbEntity
8
1
62
256
6
ByLayer
370
-1
48
1
60
0
100
AcDbEllipse
10
31.55211
20
-14.509665
30
0
11
-0.0541407259908682
21
-0.309881729015355
31
0
210
0
220
0
230
1
40
0.776532
41
-1.12211346094984
42
-0.799981110964033
0
ELLIPSE
5
2C4
100
AcDbEntity
8
1
62
256
6
ByLayer
370
-1
48
1
60
0
100
AcDbEllipse
10
20.389614
20
-18.320715
30
0
11
-0.127929344560918
21
-0.058323060466333
31
0
210
0
220
0
230
1
40
0.958576
41
1.16392724762112
42
2.20447064128781
0
ELLIPSE
5
2C5
100
AcDbEntity
8
1
62
256
6
ByLayer
370
-1
48
1
60
0
100
AcDbEllipse
10
20.348698
20
-19.490214
30
0
11
0.213104820120462
21
0.139234821942734
31
0
210
0
220
0
230
1
40
0.952081
41
-1.93015659300815
42
-1.62521932802714
0
ELLIPSE
5
2C6
100
AcDbEntity
8
1
62
256
6
ByLayer
370
-1
48
1
60
0
100
AcDbEllipse
10
29.99458
20
-12.525613
30
0
11
0.0098644958236988
21
0.329852530264881
31
0
210
0
220
0
230
1
40
0.130201
41
-1.30693253085103
42
-0.957866680452186
0
ELLIPSE
5
2C7
100
AcDbEntity
8
1
62
256
6
ByLayer
370
-1
48
1
60
0
100
AcDbEllipse
10
31.653908
20
-23.048204
30
0
11
0.158214816788844
21
-0.27815116708091
31
0
210
0
220
0
230
1
40
0.014726
41
-2.7642877804426
42
-1.57914315529774
0
ELLIPSE
5
2C8
100
AcDbEntity
8
1
62
256
6
ByLayer
370
-1
48
1
60
0
100
AcDbEllipse
10
20.719027
20
-18.971136
30
0
11
0.329327263846307
21
-0.0210607048197593
31
0
210
0
220
0
230
1
40
0.570429
41
0.940253101468661
42
1.76253432380365
0
ELLIPSE
5
2C9
100
AcDbEntity
8
1
62
256
6
ByLayer
370
-1
48
1
60
0
100
AcDbEllipse
10
25.699464
20
-23.348622
30
0
11
-0.129563385734237
21
0.0758096563420067
31
0
210
0
220
0
230
1
40
0.141815
41
0.960892091786731
42
1.67341667032836
0
ELLIPSE
5
2CA
100
AcDbEntity
8
1
62
256
6
ByLayer
370
-1
48
1
60
0
100
AcDbEllipse
10
21.867737
20
-16.921842
30
0
11
-0.140910408028987
21
-0.243113751235607
31
0
210
0
220
0
230
1
40
0.05457
41
0.460158572378019
42
1.49513881879181
0
ELLIPSE
5
2CB
100
AcDbEntity
8
1
62
256
6
ByLayer
370
-1
48
1
60
0
100
AcDbEllipse
10
33.350206
20
-18.564072
30
0
11
-2.48794859183002
21
0.577833479752801
31
0
210
0
220
0
230
1
40
0.115835
41
-0.696764762780857
42
-0.00832421788701518
0
ELLIPSE
5
2CC
100
AcDbEntity
8
1
62
256
6
ByLayer
370
-1
48
1
60
0
100
AcDbEllipse
10
30.83474
20
-23.920698
30
0
11
-0.830478379882662
21
0.491122290585889
31
0
210
0
220
0
230
1
40
0.342017
41
-3.13697527937252
42
-2.31469405703939
0
ELLIPSE
5
2CD
100
AcDbEntity
8
1
62
256
6
ByLayer
370
-1
48
1
60
0
100
AcDbEllipse
10
30.019421
20
-12.848347
30
0
11
0.225910690953892
21
-0.117321608038479
31
0
210
0
220
0
230
1
40
0.957172
41
-2.68850656753883
42
-1.61459250743366
0
ELLIPSE
5
2CE
100
AcDbEntity
8
1
62
256
6
ByLayer
370
-1
48
1
60
0
100
AcDbEllipse
10
30.329779
20
-13.096458
30
0
11
-0.193176188500919
21
-0.26754992094235
31
0
210
0
220
0
230
1
40
0.315435
41
1.05367964949653
42
1.87596087183147
0
ELLIPSE
5
2CF
100
AcDbEntity
8
1
62
256
6
ByLayer
370
-1
48
1
60
0
100
AcDbEllipse
10
22.457501
20
-16.436805
30
0
11
0.248783988328866
21
0.0246277719492128
31
0
210
0
220
0
230
1
40
0.984662
41
1.99722779089538
42
2.52082656649366
0
ELLIPSE
5
2D0
100
AcDbEntity
8
1
62
256
6
ByLayer
370
-1
48
1
60
0
100
AcDbEllipse
10
20.912733
20
-20.588626
30
0
11
-0.308313413492034
21
0.177191051526206
31
0
210
0
220
0
230
1
40
0.128687
41
-1.51787485924848
42
-1.32293985913561
0
ELLIPSE
5
2D1
100
AcDbEntity
8
1
62
256
6
ByLayer
370
-1
48
1
60
0
100
AcDbEllipse
10
29.99458
20
-12.525613
30
0
11
0.329646231381945
21
0.0152761950655631
31
0
210
0
220
0
230
1
40
0.571959
41
1.42024116993656
42
2.24252239227156
0
ELLIPSE
5
2D2
100
AcDbEntity
8
1
62
256
6
ByLayer
370
-1
48
1
60
0
100
AcDbEllipse
10
20.803359
20
-19.391633
30
0
11
-0.814823328560739
21
0.491423519012609
31
0
210
0
220
0
230
1
40
0.499305
41
-0.294082193529962
42
0.307337202776764
0
ELLIPSE
5
2D3
100
AcDbEntity
8
1
62
256
6
ByLayer
370
-1
48
1
60
0
100
AcDbEllipse
10
29.039929
20
-24.535058
30
0
11
-0.160658795770442
21
0.276760933388437
31
0
210
0
220
0
230
1
40
0.073503
41
-1.56309533908448
42
-1.05421200569492
0
ELLIPSE
5
2D4
100
AcDbEntity
8
1
62
256
6
ByLayer
370
-1
48
1
60
0
100
AcDbEllipse
10
27.223095
20
-18.613019
30
0
11
-2.90683965172194
21
-0.287755592779153
31
0
210
0
220
0
230
1
40
0.984662
41
-0.769370102186319
42
0
0
ELLIPSE
5
2D5
100
AcDbEntity
8
1
62
256
6
ByLayer
370
-1
48
1
60
0
100
AcDbEllipse
10
27.223095
20
-18.613019
30
0
11
-2.90683965172194
21
-0.287755592779153
31
0
210
0
220
0
230
1
40
0.984662
41
0
42
1.15456090089942
0
ELLIPSE
5
2D6
100
AcDbEntity
8
1
62
256
6
ByLayer
370
-1
48
1
60
0
100
AcDbEllipse
10
27.223095
20
-18.613019
30
0
11
-2.90683965172194
21
-0.287755592779153
31
0
210
0
220
0
230
1
40
0.984662
41
2.03607226832189
42
-2.37217112616082
0
ELLIPSE
5
2D7
100
AcDbEntity
8
1
62
256
6
ByLayer
370
-1
48
1
60
0
100
AcDbEllipse
10
25.364072
20
-14.463462
30
0
11
-0.143955835656361
21
-0.0840928201710967
31
0
210
0
220
0
230
1
40
0.142991
41
0.799722217127643
42
1.50530840681838
0
ELLIPSE
5
2D8
100
AcDbEntity
8
1
62
256
6
ByLayer
370
-1
48
1
60
0
100
AcDbEllipse
10
23.946497
20
-23.690498
30
0
11
-1.78601174352382
21
-1.79756032736643
31
0
210
0
220
0
230
1
40
0.117311
41
3.13827486883053
42
-2.59257450822814
0
ELLIPSE
5
2D9
100
AcDbEntity
8
1
62
256
6
ByLayer
370
-1
48
1
60
0
100
AcDbEllipse
10
29.952513
20
-12.861829
30
0
11
-0.717458492137683
21
-0.382156626967724
31
0
210
0
220
0
230
1
40
0.182032
41
2.84844605654539
42
-2.83331985431841
0
ELLIPSE
5
2DA
100
AcDbEntity
8
1
62
256
6
ByLayer
370
-1
48
1
60
0
100
AcDbEllipse
10
21.001086
20
-17.594894
30
0
11
-0.164480585863699
21
-0.0749867920283518
31
0
210
0
220
0
230
1
40
0.958576
41
-1.97766540597114
42
-0.93712201230309
0
ELLIPSE
5
2DB
100
AcDbEntity
8
1
62
256
6
ByLayer
370
-1
48
1
60
0
100
AcDbEllipse
10
20.411625
20
-18.283099
30
0
11
-0.127929344556848
21
-0.0583230604713778
31
0
210
0
220
0
230
1
40
0.958576
41
2.20447064124222
42
-3.12599498901095
0
ELLIPSE
5
2DC
100
AcDbEntity
8
1
62
256
6
ByLayer
370
-1
48
1
60
0
100
AcDbEllipse
10
29.991399
20
-12.902305
30
0
11
0.329988233375588
21
-0.00278672453945328
31
0
210
0
220
0
230
1
40
0.260309
41
1.43915566762722
42
2.32017699363659
0
ELLIPSE
5
2DD
100
AcDbEntity
8
1
62
256
6
ByLayer
370
-1
48
1
60
0
100
AcDbEllipse
10
23.946497
20
-23.690498
30
0
11
-1.78601174060015
21
-1.79756032396737
31
0
210
0
220
0
230
1
40
0.117311
41
-2.59257450780939
42
-2.45154816071675
0
ELLIPSE
5
2DE
100
AcDbEntity
8
1
62
256
6
ByLayer
370
-1
48
1
60
0
100
AcDbEllipse
10
24.358445
20
-22.590037
30
0
11
-0.144059584458135
21
0.0837513584037619
31
0
210
0
220
0
230
1
40
0.12788
41
1.66285292860927
42
2.36843911836191
0
ELLIPSE
5
2DF
100
AcDbEntity
8
1
62
256
6
ByLayer
370
-1
48
1
60
0
100
AcDbEllipse
10
31.599753
20
-15.158104
30
0
11
-0.141218484151646
21
0.242332973127727
31
0
210
0
220
0
230
1
40
0.03895
41
0.620771685080207
42
1.6557519315168
0
ELLIPSE
5
2E0
100
AcDbEntity
8
1
62
256
6
ByLayer
370
-1
48
1
60
0
100
AcDbEllipse
10
30.985379
20
-25.346543
30
0
11
-0.000603351597776327
21
0.20308442605384
31
0
210
0
220
0
230
1
40
0.984667
41
2.10106309646499
42
-3.1415788170429
0
ELLIPSE
5
2E1
100
AcDbEntity
8
1
62
256
6
ByLayer
370
-1
48
1
60
0
100
AcDbEllipse
10
23.949075
20
-23.716541
30
0
11
-1.80184302400575
21
-1.84142902093508
31
0
210
0
220
0
230
1
40
0.173099
41
3.13825568205727
42
-2.69559637825949
0
ELLIPSE
5
2E2
100
AcDbEntity
8
1
62
256
6
ByLayer
370
-1
48
1
60
0
100
AcDbEllipse
10
21.232077
20
-20.373042
30
0
11
-0.319948065602383
21
0.00576500800463161
31
0
210
0
220
0
230
1
40
0.256807
41
-2.5832099541333
42
-1.39806532898907
0
ELLIPSE
5
2E3
100
AcDbEntity
8
1
62
256
6
ByLayer
370
-1
48
1
60
0
100
AcDbEllipse
10
30.615432
20
-12.618504
30
0
11
0.283264944422895
21
-0.169295514592367
31
0
210
0
220
0
230
1
40
0.289048
41
1.23900716994402
42
1.58807302034287
0
ELLIPSE
5
2E4
100
AcDbEntity
8
1
62
256
6
ByLayer
370
-1
48
1
60
0
100
AcDbEllipse
10
30.27
20
-24.794921
30
0
11
-0.000422346109879643
21
0.142159098238248
31
0
210
0
220
0
230
1
40
0.984667
41
-1.04052955706336
42
1.3836606095899E-05
0
ELLIPSE
5
2E5
100
AcDbEntity
8
1
62
256
6
ByLayer
370
-1
48
1
60
0
100
AcDbEllipse
10
31.334919
20
-24.214372
30
0
11
0.167973549938388
21
0.284050851998539
31
0
210
0
220
0
230
1
40
0.014557
41
0.698412484396709
42
1.57943381040578
0
ELLIPSE
5
2E6
100
AcDbEntity
8
1
62
256
6
ByLayer
370
-1
48
1
60
0
100
AcDbEllipse
10
30.660977
20
-24.216392
30
0
11
1.55866942272948E-17
21
0.254558441227156
31
0
210
0
220
0
230
1
40
0.999857
41
0.539941900357865
42
0.844879039200705
0
ELLIPSE
5
2E7
100
AcDbEntity
8
1
62
256
6
ByLayer
370
-1
48
1
60
0
100
AcDbEllipse
10
33.179009
20
-19.18754
30
0
11
-2.51576837373456
21
0.609516693493018
31
0
210
0
220
0
230
1
40
0.171469
41
0.441549502640115
42
0.685578532892813
0
ELLIPSE
5
2E8
100
AcDbEntity
8
1
62
256
6
ByLayer
370
-1
48
1
60
0
100
AcDbEllipse
10
21.265004
20
-20.787898
30
0
11
-0.335569278104265
21
0.196863405728496
31
0
210
0
220
0
230
1
40
0.116742
41
-2.51945740056394
42
-1.43669181473858
0
ELLIPSE
5
2E9
100
AcDbEntity
8
1
62
256
6
ByLayer
370
-1
48
1
60
0
100
AcDbEllipse
10
24.703803
20
-16.170012
30
0
11
0.036183213669872
21
-0.145570515725268
31
0
210
0
220
0
230
1
40
0.025586
41
-1.57181851514538
42
-1.39728558994583
0
ELLIPSE
5
2EA
100
AcDbEntity
8
1
62
256
6
ByLayer
370
-1
48
1
60
0
100
AcDbEllipse
10
19.548031
20
-18.704364
30
0
11
-0.182756206514412
21
-0.0833186578101938
31
0
210
0
220
0
230
1
40
0.958576
41
-0.937122012307782
42
0.103421381362378
0
ELLIPSE
5
2EB
100
AcDbEntity
8
1
62
256
6
ByLayer
370
-1
48
1
60
0
100
AcDbEllipse
10
26.187339
20
-22.295494
30
0
11
0.10695431699861
21
0.105170214772819
31
0
210
0
220
0
230
1
40
0.13667
41
-1.85502684753495
42
-1.68049392233553
0
ELLIPSE
5
2EC
100
AcDbEntity
8
1
62
256
6
ByLayer
370
-1
48
1
60
0
100
AcDbEllipse
10
27.222051
20
-18.563759
30
0
11
-1.28294760339763
21
-0.137548307646007
31
0
210
0
220
0
230
1
40
0.984637
41
-0.268604301886442
42
0.418422689998891
0
ELLIPSE
5
2ED
100
AcDbEntity
8
1
62
256
6
ByLayer
370
-1
48
1
60
0
100
AcDbEllipse
10
27.222051
20
-18.563759
30
0
11
-1.28294760339763
21
-0.137548307646007
31
0
210
0
220
0
230
1
40
0.984637
41
1.46562024119554
42
2.5128177923921
0
ELLIPSE
5
2EE
100
AcDbEntity
8
1
62
256
6
ByLayer
370
-1
48
1
60
0
100
AcDbEllipse
10
27.251368
20
-18.837207
30
0
11
1.66684752564193
21
0.17870726415389
31
0
210
0
220
0
230
1
40
0.984637
41
-1.15237363679601
42
-0.105176085599394
0
ELLIPSE
5
2EF
100
AcDbEntity
8
1
62
256
6
ByLayer
370
-1
48
1
60
0
100
AcDbEllipse
10
28.705194
20
-18.558964
30
0
11
-0.000412013910123773
21
-0.388113182761356
31
0
210
0
220
0
230
1
40
0.49719
41
-0.0550099510603335
42
1.50740706106797
0
ELLIPSE
5
2F0
100
AcDbEntity
8
1
62
256
6
ByLayer
370
-1
48
1
60
0
100
AcDbEllipse
10
27.222051
20
-18.563759
30
0
11
-1.28294760339763
21
-0.137548307646007
31
0
210
0
220
0
230
1
40
0.984637
41
2.51281779239213
42
-3.03435118588102
0
ELLIPSE
5
2F1
100
AcDbEntity
8
1
62
256
6
ByLayer
370
-1
48
1
60
0
100
AcDbEllipse
10
27.251368
20
-18.837207
30
0
11
1.66684752564193
21
0.17870726415389
31
0
210
0
220
0
230
1
40
0.984637
41
3.0364165679904
42
-2.1995711879926
0
ELLIPSE
5
2F2
100
AcDbEntity
8
1
62
256
6
ByLayer
370
-1
48
1
60
0
100
AcDbEllipse
10
27.963623
20
-19.826507
30
0
11
-0.34193499491102
21
-0.193958055348328
31
0
210
0
220
0
230
1
40
0.48462
41
-0.0498633390776646
42
2.50463066339564
0
ELLIPSE
5
2F3
100
AcDbEntity
8
1
62
256
6
ByLayer
370
-1
48
1
60
0
100
AcDbEllipse
10
27.222051
20
-18.563759
30
0
11
1.28294760339763
21
0.137548307646007
31
0
210
0
220
0
230
1
40
0.984637
41
-2.72316996359088
42
-1.6759724123943
0
ELLIPSE
5
2F4
100
AcDbEntity
8
1
62
256
6
ByLayer
370
-1
48
1
60
0
100
AcDbEllipse
10
27.222051
20
-20.024524
30
0
11
-0.394030905813937
21
-0.00166011276154407
31
0
210
0
220
0
230
1
40
0.48236
41
-1.57282858259524
42
-0.162555121136395
0
ELLIPSE
5
2F5
100
AcDbEntity
8
1
62
256
6
ByLayer
370
-1
48
1
60
0
100
AcDbEllipse
10
26.48048
20
-19.831301
30
0
11
-0.342134594454295
21
0.191392218429854
31
0
210
0
220
0
230
1
40
0.487307
41
0.903795301551826
42
-3.09386107380849
0
ELLIPSE
5
2F6
100
AcDbEntity
8
1
62
256
6
ByLayer
370
-1
48
1
60
0
100
AcDbEllipse
10
25.937698
20
-19.298294
30
0
11
-0.198269006353549
21
0.33474916335314
31
0
210
0
220
0
230
1
40
0.494774
41
-1.5783285967113
42
-0.168055135251851
0
ELLIPSE
5
2F7
100
AcDbEntity
8
1
62
256
6
ByLayer
370
-1
48
1
60
0
100
AcDbEllipse
10
28.506404
20
-17.829224
30
0
11
-0.198269006353228
21
0.334749163352796
31
0
210
0
220
0
230
1
40
0.494774
41
0.152990595418507
42
0.826042228555515
0
ELLIPSE
5
2F8
100
AcDbEntity
8
1
62
256
6
ByLayer
370
-1
48
1
60
0
100
AcDbEllipse
10
28.506404
20
-19.289989
30
0
11
-0.19860462790851
21
-0.33583356858844
31
0
210
0
220
0
230
1
40
0.491978
41
-1.56123520036852
42
-0.583099866534959
0
ELLIPSE
5
2F9
100
AcDbEntity
8
1
62
256
6
ByLayer
370
-1
48
1
60
0
100
AcDbEllipse
10
27.250226
20
-18.82655
30
0
11
-2.70947238569212
21
-0.290489915783437
31
0
210
0
220
0
230
1
40
0.984637
41
0
42
6.28318530717959
0
ELLIPSE
5
2FA
100
AcDbEntity
8
1
62
256
6
ByLayer
370
-1
48
1
60
0
100
AcDbEllipse
10
27.251368
20
-18.837207
30
0
11
1.66684752564193
21
0.17870726415389
31
0
210
0
220
0
230
1
40
0.984637
41
-2.1995711879926
42
-1.15237363679601
0
ELLIPSE
5
2FB
100
AcDbEntity
8
1
62
256
6
ByLayer
370
-1
48
1
60
0
100
AcDbEllipse
10
27.251368
20
-18.837207
30
0
11
-1.78974322724616
21
-0.191883247123003
31
0
210
0
220
0
230
1
40
0.984637
41
0
42
6.28318530717959
0
ELLIPSE
5
2FC
100
AcDbEntity
8
1
62
256
6
ByLayer
370
-1
48
1
60
0
100
AcDbEllipse
10
25.937698
20
-19.298294
30
0
11
-0.198269006353584
21
0.334749163353021
31
0
210
0
220
0
230
1
40
0.494774
41
-2.31554829324788
42
-1.57832859671174
0
ELLIPSE
5
2FD
100
AcDbEntity
8
1
62
256
6
ByLayer
370
-1
48
1
60
0
100
AcDbEllipse
10
27.22717
20
-18.611504
30
0
11
-2.70947238569212
21
-0.290489915783437
31
0
210
0
220
0
230
1
40
0.984637
41
-3.14152530769357
42
0
0
ELLIPSE
5
2FE
100
AcDbEntity
8
1
62
256
6
ByLayer
370
-1
48
1
60
0
100
AcDbEllipse
10
25.738908
20
-18.568554
30
0
11
-0.000412013910123776
21
-0.388113182761358
31
0
210
0
220
0
230
1
40
0.49719
41
-0.78653786283202
42
0.0592802683640321
0
ELLIPSE
5
2FF
100
AcDbEntity
8
1
62
256
6
ByLayer
370
-1
48
1
60
0
100
AcDbEllipse
10
27.222051
20
-20.024524
30
0
11
-0.394030905813785
21
-0.00166011276183601
31
0
210
0
220
0
230
1
40
0.48236
41
-2.98310204405629
42
-1.57282858259707
0
ELLIPSE
5
300
100
AcDbEntity
8
1
62
256
6
ByLayer
370
-1
48
1
60
0
100
AcDbEllipse
10
27.251368
20
-18.837207
30
0
11
1.66684752564193
21
0.17870726415389
31
0
210
0
220
0
230
1
40
0.984637
41
1.98921901679379
42
3.0364165679904
0
ELLIPSE
5
301
100
AcDbEntity
8
1
62
256
6
ByLayer
370
-1
48
1
60
0
100
AcDbEllipse
10
27.251368
20
-18.837207
30
0
11
1.66684752564193
21
0.17870726415389
31
0
210
0
220
0
230
1
40
0.984637
41
0.942021465597189
42
1.98921901679379
0
ELLIPSE
5
302
100
AcDbEntity
8
1
62
256
6
ByLayer
370
-1
48
1
60
0
100
AcDbEllipse
10
28.506404
20
-19.289989
30
0
11
-0.198604627908409
21
-0.335833568588272
31
0
210
0
220
0
230
1
40
0.491978
41
-2.97150866182859
42
-1.56123520036847
0
ELLIPSE
5
303
100
AcDbEntity
8
1
62
256
6
ByLayer
370
-1
48
1
60
0
100
AcDbEllipse
10
27.251368
20
-18.837207
30
0
11
1.66684752564193
21
0.17870726415389
31
0
210
0
220
0
230
1
40
0.984637
41
-0.105176085599394
42
0.942021465597189
0
ELLIPSE
5
304
100
AcDbEntity
8
1
62
256
6
ByLayer
370
-1
48
1
60
0
100
AcDbEllipse
10
27.222051
20
-18.563759
30
0
11
-1.28294760339763
21
-0.137548307646007
31
0
210
0
220
0
230
1
40
0.984637
41
-2.61751741631487
42
-2.01436425224861
0
ELLIPSE
5
305
100
AcDbEntity
8
1
62
256
6
ByLayer
370
-1
48
1
60
0
100
AcDbEllipse
10
27.222051
20
-18.563759
30
0
11
-1.28294760339763
21
-0.137548307646007
31
0
210
0
220
0
230
1
40
0.984637
41
-1.37365937932453
42
-0.776838445829564
0
ELLIPSE
5
306
100
AcDbEntity
8
1
62
256
6
ByLayer
370
-1
48
1
60
0
100
AcDbEllipse
10
23.081237
20
-22.830168
30
0
11
-0.25
21
3.06151588455594E-17
31
0
210
0
220
0
230
1
40
0.173648
41
-2.61275959189266
42
-2.02932409266126
0
ELLIPSE
5
307
100
AcDbEntity
8
1
62
256
6
ByLayer
370
-1
48
1
60
0
100
AcDbEllipse
10
23.72315
20
-22.835158
30
0
11
-0.25
21
3.06151588455594E-17
31
0
210
0
220
0
230
1
40
0.173648
41
0.755725864456257
42
1.58475725915366
0
ELLIPSE
5
308
100
AcDbEntity
8
1
62
256
6
ByLayer
370
-1
48
1
60
0
100
AcDbEllipse
10
22.863309
20
-22.655387
30
0
11
-1.8
21
2.20429143688028E-16
31
0
210
0
220
0
230
1
40
0.173648
41
2.41378865385094
42
2.6406814566102
0
ELLIPSE
5
309
100
AcDbEntity
8
1
62
256
6
ByLayer
370
-1
48
1
60
0
100
AcDbEllipse
10
24.020597
20
-22.834437
30
0
11
-0.25
21
3.06151588455594E-17
31
0
210
0
220
0
230
1
40
0.173648
41
1.58475725915363
42
2.41378865385101
0
ELLIPSE
5
30A
100
AcDbEntity
8
1
62
256
6
ByLayer
370
-1
48
1
60
0
100
AcDbEllipse
10
24.661457
20
-22.826337
30
0
11
-0.25
21
3.06151588455594E-17
31
0
210
0
220
0
230
1
40
0.173648
41
-1.08872741066937
42
-0.500911196979566
0
ELLIPSE
5
30B
100
AcDbEntity
8
1
62
256
6
ByLayer
370
-1
48
1
60
0
100
AcDbEllipse
10
24.8512
20
-22.650567
30
0
11
-1.8
21
2.20429143688028E-16
31
0
210
0
220
0
230
1
40
0.173648
41
0.528833061697063
42
0.755725864456336
0
ELLIPSE
5
30C
100
AcDbEntity
8
1
62
256
6
ByLayer
370
-1
48
1
60
0
100
AcDbEllipse
10
32.12229
20
-11.805971
30
0
11
0.000428787004678435
21
1.40969993478814
31
0
210
0
220
0
230
1
40
0.051912
41
-2.44329568414663
42
-1.39609813295007
0
ELLIPSE
5
30D
100
AcDbEntity
8
1
62
256
6
ByLayer
370
-1
48
1
60
0
100
AcDbEllipse
10
31.023773
20
-11.805636
30
0
11
-0.000942923823867228
21
-3.09999985659591
31
0
210
0
220
0
230
1
40
0.051912
41
-1.83061155789175
42
-1.71928206621506
0
ELLIPSE
5
30E
100
AcDbEntity
8
1
62
256
6
ByLayer
370
-1
48
1
60
0
100
AcDbEllipse
10
32.12229
20
-11.805971
30
0
11
0.000428787004678435
21
1.40969993478814
31
0
210
0
220
0
230
1
40
0.051912
41
-1.39609813295007
42
-0.348900581753505
0
ELLIPSE
5
30F
100
AcDbEntity
8
1
62
256
6
ByLayer
370
-1
48
1
60
0
100
AcDbEllipse
10
32.12229
20
-11.805971
30
0
11
-0.000517087258249768
21
-1.69999992135904
31
0
210
0
220
0
230
1
40
0.051912
41
0
42
6.28318530717959
0
ELLIPSE
5
310
100
AcDbEntity
8
1
62
256
6
ByLayer
370
-1
48
1
60
0
100
AcDbEllipse
10
32.12229
20
-11.805971
30
0
11
0.000428787004678435
21
1.40969993478814
31
0
210
0
220
0
230
1
40
0.051912
41
2.79269207183639
42
-2.44329568414663
0
ELLIPSE
5
311
100
AcDbEntity
8
1
62
256
6
ByLayer
370
-1
48
1
60
0
100
AcDbEllipse
10
32.12229
20
-11.805971
30
0
11
0.000428787004678435
21
1.40969993478814
31
0
210
0
220
0
230
1
40
0.051912
41
-0.348900581753505
42
0.698296969443101
0
ELLIPSE
5
312
100
AcDbEntity
8
1
62
256
6
ByLayer
370
-1
48
1
60
0
100
AcDbEllipse
10
32.12229
20
-11.805971
30
0
11
0.000428787004678435
21
1.40969993478814
31
0
210
0
220
0
230
1
40
0.051912
41
1.74549452063971
42
2.79269207183639
0
ELLIPSE
5
313
100
AcDbEntity
8
1
62
256
6
ByLayer
370
-1
48
1
60
0
100
AcDbEllipse
10
32.12229
20
-11.805971
30
0
11
0.000428787004678435
21
1.40969993478814
31
0
210
0
220
0
230
1
40
0.051912
41
0.698296969443101
42
1.74549452063971
0
POINT
5
41
100
AcDbEntity
8
2
62
256
6
ByLayer
370
-1
48
1
60
0
100
AcDbPoint
10
32.004088
20
26.916295
30
0
39
0
210
0
220
0
230
1
50
360
0
POINT
5
43
100
AcDbEntity
8
2
62
256
6
ByLayer
370
-1
48
1
60
0
100
AcDbPoint
10
31.000148
20
25.549577
30
0
39
0
210
0
220
0
230
1
50
360
0
POINT
5
44
100
AcDbEntity
8
80
62
256
6
ByLayer
370
-1
48
1
60
0
100
AcDbPoint
10
0
20
0
30
0
39
0
210
0
220
0
230
1
50
360
0
POINT
5
46
100
AcDbEntity
8
81
62
256
6
ByLayer
370
-1
48
1
60
0
100
AcDbPoint
10
32
20
-26.875
30
0
39
0
210
0
220
0
230
1
50
360
0
POINT
5
48
100
AcDbEntity
8
2
62
256
6
ByLayer
370
-1
48
1
60
0
100
AcDbPoint
10
32
20
26.875
30
0
39
0
210
0
220
0
230
1
50
360
0
SPLINE
5
314
100
AcDbEntity
8
1
62
256
6
ByLayer
370
-1
48
1
60
0
100
AcDbSpline
70
4
71
1
72
4
73
2
40
0
40
0
40
1
40
1
41
1
10
22.5574061396448
20
-21.975626976058
30
0
41
1
10
22.7270358765616
20
-22.4839272592648
30
0
0
SPLINE
5
315
100
AcDbEntity
8
1
62
256
6
ByLayer
370
-1
48
1
60
0
100
AcDbSpline
70
4
71
3
72
11
73
7
40
0
40
0
40
0
40
0
40
0.156614702704015
40
0.539164026833824
40
0.915368951616519
40
1
40
1
40
1
40
1
41
1
10
32.1374515987203
20
-13.4639094766251
30
0
41
1
10
32.1166474741521
20
-13.5203189755758
30
0
41
1
10
32.0388668015069
20
-13.711362052684
30
0
41
1
10
31.8596398866333
20
-14.0148069532456
30
0
41
1
10
31.6682369946215
20
-14.2750094354109
30
0
41
1
10
31.5537131497928
20
-14.4095876930842
30
0
41
1
10
31.532338277078
20
-14.4340077246705
30
0
0
SPLINE
5
316
100
AcDbEntity
8
1
62
256
6
ByLayer
370
-1
48
1
60
0
100
AcDbSpline
70
4
71
3
72
12
73
8
40
0
40
0
40
0
40
0
40
0.0658054958967972
40
0.384724190033192
40
0.688100026913324
40
0.974234846622513
40
1
40
1
40
1
40
1
41
1
10
31.4362915723486
20
-9.07142422291153
30
0
41
1
10
31.455431286943
20
-9.0917458067149
30
0
41
1
10
31.5660090331438
20
-9.21182543285131
30
0
41
1
10
31.7517343007141
20
-9.43684718136556
30
0
41
1
10
31.9580061613907
20
-9.7617979809441
30
0
41
1
10
32.0828538229214
20
-9.99165037638693
30
0
41
1
10
32.1308018550527
20
-10.114618152926
30
0
41
1
10
32.1346950941011
20
-10.1248076684351
30
0
0
SPLINE
5
317
100
AcDbEntity
8
1
62
256
6
ByLayer
370
-1
48
1
60
0
100
AcDbSpline
70
4
71
3
72
12
73
8
40
0
40
0
40
0
40
0
40
0.38653269211372
40
0.38653269211372
40
0.774059191378478
40
0.774059191378478
40
1
40
1
40
1
40
1
41
1
10
13.6394555997977
20
-20.2459078267004
30
0
41
1
10
13.5826106144117
20
-20.1772063882713
30
0
41
1
10
13.5131753044034
20
-20.1170272517921
30
0
41
1
10
13.3597281399896
20
-20.0240371295068
30
0
41
1
10
13.2735160256563
20
-19.9900298890879
30
0
41
1
10
13.1331919020823
20
-19.9610878850338
30
0
41
1
10
13.0797803536191
20
-19.9555916118143
30
0
41
1
10
13.0266200453029
20
-19.9555288899784
30
0
0
SPLINE
5
318
100
AcDbEntity
8
1
62
256
6
ByLayer
370
-1
48
1
60
0
100
AcDbSpline
70
4
71
3
72
8
73
4
40
0
40
0
40
0
40
0
40
1
40
1
40
1
40
1
41
1
10
0
20
18.8791263469343
30
0
41
1
10
0.13112617985135
20
19.0298873761474
30
0
41
1
10
0.262640357753725
20
19.1801996475001
30
0
41
1
10
0.394519052838319
20
19.3300829388625
30
0
0
SPLINE
5
319
100
AcDbEntity
8
1
62
256
6
ByLayer
370
-1
48
1
60
0
100
AcDbSpline
70
4
71
3
72
8
73
4
40
0
40
0
40
0
40
0
40
1
40
1
40
1
40
1
41
1
10
0
20
18.2427084508718
30
0
41
1
10
0.131466595340072
20
18.355446739373
30
0
41
1
10
0.262973667389161
20
18.4681221179633
30
0
41
1
10
0.394519052838348
20
18.5807377979135
30
0
0
SPLINE
5
31A
100
AcDbEntity
8
1
62
256
6
ByLayer
370
-1
48
1
60
0
100
AcDbSpline
70
4
71
3
72
22
73
18
40
0
40
0
40
0
40
0
40
0.0436369563004696
40
0.0436369563004696
40
0.0744949566618586
40
0.0744949566618586
40
0.105621047709127
40
0.105621047709127
40
0.133748808265416
40
0.133748808265416
40
0.181272372610359
40
0.181272372610359
40
0.272322247199487
40
0.272322247199487
40
0.55030981288234
40
0.55030981288234
40
1
40
1
40
1
40
1
41
1
10
0.394519052838319
20
9.81506636790175
30
0
41
1
10
0.401363938093539
20
9.8219319512765
30
0
41
1
10
0.408643289748198
20
9.82812252942173
30
0
41
1
10
0.421239852648512
20
9.83578748781622
30
0
41
1
10
0.426614581838692
20
9.83813660676901
30
0
41
1
10
0.436849717151375
20
9.84026118884881
30
0
41
1
10
0.441829037005164
20
9.84001190380448
30
0
41
1
10
0.450124298357537
20
9.83714146354649
30
0
41
1
10
0.453657064794498
20
9.83474780709699
30
0
41
1
10
0.461779987613767
20
9.82656502340288
30
0
41
1
10
0.465628585627229
20
9.81950934144652
30
0
41
1
10
0.474208070443382
20
9.79697170415233
30
0
41
1
10
0.476930730974999
20
9.77929436989612
30
0
41
1
10
0.48260427760809
20
9.70621349940819
30
0
41
1
10
0.475888232455674
20
9.64461019196196
30
0
41
1
10
0.450862000692581
20
9.48493275170648
30
0
41
1
10
0.425772182653674
20
9.38336212878835
30
0
41
1
10
0.394519052838319
20
9.28315947401117
30
0
0
SPLINE
5
31B
100
AcDbEntity
8
1
62
256
6
ByLayer
370
-1
48
1
60
0
100
AcDbSpline
70
4
71
3
72
22
73
18
40
0
40
0
40
0
40
0
40
0.326924660114704
40
0.326924660114704
40
0.480227445467508
40
0.480227445467508
40
0.604912955361423
40
0.604912955361423
40
0.694478485193103
40
0.694478485193103
40
0.784923219142227
40
0.784923219142227
40
0.864523302426418
40
0.864523302426418
40
0.971549591847171
40
0.971549591847171
40
1
40
1
40
1
40
1
41
1
10
0.394519052838319
20
17.0553632209806
30
0
41
1
10
0.420017283443855
20
17.093386549631
30
0
41
1
10
0.442601423713171
20
17.1319888896103
30
0
41
1
10
0.466064895883648
20
17.1834891983547
30
0
41
1
10
0.47220367693447
20
17.199485166516
30
0
41
1
10
0.478868193551676
20
17.2251688004805
30
0
41
1
10
0.480260594561116
20
17.2356978586683
30
0
41
1
10
0.478301899123409
20
17.2496039013895
30
0
41
1
10
0.476114604610331
20
17.2542443704308
30
0
41
1
10
0.468595526499001
20
17.2597260488108
30
0
41
1
10
0.463090479114726
20
17.2605622358449
30
0
41
1
10
0.450397277590952
20
17.2581972296418
30
0
41
1
10
0.443352792041708
20
17.2554608325842
30
0
41
1
10
0.425804744107211
20
17.2462471180413
30
0
41
1
10
0.414688144357683
20
17.2387157644607
30
0
41
1
10
0.4005494573926
20
17.2277616222795
30
0
41
1
10
0.397536912384624
20
17.2253512227562
30
0
41
1
10
0.394519052838319
20
17.2228674449602
30
0
0
SPLINE
5
31C
100
AcDbEntity
8
1
62
256
6
ByLayer
370
-1
48
1
60
0
100
AcDbSpline
70
4
71
3
72
22
73
18
40
0
40
0
40
0
40
0
40
0.0775839193109272
40
0.0775839193109272
40
0.156885420043649
40
0.156885420043649
40
0.227587553499006
40
0.227587553499006
40
0.290983349914784
40
0.290983349914784
40
0.39293235423506
40
0.39293235423506
40
0.562762131967825
40
0.562762131967825
40
0.865700677527772
40
0.865700677527772
40
1
40
1
40
1
40
1
41
1
10
0.394519052838319
20
-15.1660973535886
30
0
41
1
10
0.403544704540252
20
-15.173502329075
30
0
41
1
10
0.412739090997519
20
-15.1801161439529
30
0
41
1
10
0.430544112898332
20
-15.1902973078633
30
0
41
1
10
0.439373404865648
20
-15.1938786394794
30
0
41
1
10
0.453778577892564
20
-15.1961404256716
30
0
41
1
10
0.459777612816026
20
-15.195314006757
30
0
41
1
10
0.46864352399524
20
-15.1904857301071
30
0
41
1
10
0.471894332956623
20
-15.1867995374597
30
0
41
1
10
0.477949159839426
20
-15.1748682431631
30
0
41
1
10
0.479468067215947
20
-15.1650828930848
30
0
41
1
10
0.479600311387429
20
-15.1365163306556
30
0
41
1
10
0.47578149961538
20
-15.1155669751218
30
0
41
1
10
0.459761922944551
20
-15.0556485761855
30
0
41
1
10
0.443064184835606
20
-15.0139047011116
30
0
41
1
10
0.414359188756492
20
-14.9538313448656
30
0
41
1
10
0.404752946498292
20
-14.9351407320534
30
0
41
1
10
0.394519052838319
20
-14.9165032325849
30
0
0
SPLINE
5
31D
100
AcDbEntity
8
1
62
256
6
ByLayer
370
-1
48
1
60
0
100
AcDbSpline
70
4
71
3
72
22
73
18
40
0
40
0
40
0
40
0
40
0.351301322823231
40
0.351301322823231
40
0.506290471394933
40
0.506290471394933
40
0.663569563285859
40
0.663569563285859
40
0.739975199861312
40
0.739975199861312
40
0.817498860684146
40
0.817498860684146
40
0.884677341401526
40
0.884677341401526
40
0.963787750922993
40
0.963787750922993
40
1
40
1
40
1
40
1
41
1
10
0.394519052838319
20
14.9165032325849
30
0
41
1
10
0.421036976549772
20
14.9647964634411
30
0
41
1
10
0.443796445492609
20
15.0140037525999
30
0
41
1
10
0.466679802974255
20
15.0807387099843
30
0
41
1
10
0.472404510967948
20
15.1009185887
30
0
41
1
10
0.479461036308123
20
15.1386884811075
30
0
41
1
10
0.480861308008002
20
15.1567939747942
30
0
41
1
10
0.47658660043308
20
15.1778069837906
30
0
41
1
10
0.474085570149583
20
15.1838321663817
30
0
41
1
10
0.466333078762574
20
15.1925121026632
30
0
41
1
10
0.460879153437105
20
15.1951770838996
30
0
41
1
10
0.448406109843859
20
15.1957912136961
30
0
41
1
10
0.441538852840239
20
15.1943275465581
30
0
41
1
10
0.42576002470264
20
15.1879859643433
30
0
41
1
10
0.416484212419618
20
15.1825101074222
30
0
41
1
10
0.403041879497863
20
15.1728856548443
30
0
41
1
10
0.398769950515288
20
15.169584945857
30
0
41
1
10
0.394519052838319
20
15.1660973535886
30
0
0
SPLINE
5
31E
100
AcDbEntity
8
1
62
256
6
ByLayer
370
-1
48
1
60
0
100
AcDbSpline
70
4
71
3
72
22
73
18
40
0
40
0
40
0
40
0
40
0.104318682418402
40
0.104318682418402
40
0.193445107366587
40
0.193445107366587
40
0.283343744032801
40
0.283343744032801
40
0.362608705495849
40
0.362608705495849
40
0.473804161880507
40
0.473804161880507
40
0.64092102443543
40
0.64092102443543
40
0.90626991213341
40
0.90626991213341
40
1
40
1
40
1
40
1
41
1
10
0.394519052838348
20
-17.2228674449602
30
0
41
1
10
0.405473669439715
20
-17.2318833826011
30
0
41
1
10
0.416479652978836
20
-17.2400214788822
30
0
41
1
10
0.435532918358888
20
-17.2517132993882
30
0
41
1
10
0.443955203471091
20
-17.255843436398
30
0
41
1
10
0.458451883226019
20
-17.2602275995547
30
0
41
1
10
0.464685556395807
20
-17.2604700559101
30
0
41
1
10
0.473231946911795
20
-17.2571221831026
30
0
41
1
10
0.476041251445224
20
-17.2539671742059
30
0
41
1
10
0.479932802642821
20
-17.2437036163446
30
0
41
1
10
0.479989904762306
20
-17.2354068026071
30
0
41
1
10
0.47629028403
20
-17.2119916884379
30
0
41
1
10
0.470653225175312
20
-17.1951666646053
30
0
41
1
10
0.4514251703458
20
-17.1497628240649
30
0
41
1
10
0.434780268885334
20
-17.1191022359134
30
0
41
1
10
0.409044256126407
20
-17.07744777963
30
0
41
1
10
0.40192674158854
20
-17.0664096731148
30
0
41
1
10
0.394519052838319
20
-17.0553632209806
30
0
0
SPLINE
5
31F
100
AcDbEntity
8
1
62
256
6
ByLayer
370
-1
48
1
60
0
100
AcDbSpline
70
4
71
3
72
22
73
18
40
0
40
0
40
0
40
0
40
0.117619170449701
40
0.117619170449701
40
0.215008273314094
40
0.215008273314094
40
0.313321090704389
40
0.313321090704389
40
0.399080953499576
40
0.399080953499576
40
0.513763962610516
40
0.513763962610516
40
0.680089136995476
40
0.680089136995476
40
0.933901061714767
40
0.933901061714767
40
1
40
1
40
1
40
1
41
1
10
0.394519052838319
20
17.977360486755
30
0
41
1
10
0.406396631300254
20
17.9872979550967
30
0
41
1
10
0.418251957628655
20
17.99634220228
30
0
41
1
10
0.438217719472959
20
18.009315896833
30
0
41
1
10
0.446803464686582
20
18.013950988077
30
0
41
1
10
0.46134124947514
20
18.019276971381
30
0
41
1
10
0.467448118092932
20
18.0199631128949
30
0
41
1
10
0.475360658845204
20
18.0172279112385
30
0
41
1
10
0.477727927871314
20
18.0143077574716
30
0
41
1
10
0.480228388777931
20
18.0046696804274
30
0
41
1
10
0.479435434549686
20
17.9969031193638
30
0
41
1
10
0.473717250498794
20
17.9751819964867
30
0
41
1
10
0.467091805717843
20
17.9596808386955
30
0
41
1
10
0.446061082873342
20
17.9185982124191
30
0
41
1
10
0.429035680646962
20
17.8911560248138
30
0
41
1
10
0.40500598819446
20
17.8563407243791
30
0
41
1
10
0.399832898020492
20
17.8490401268993
30
0
41
1
10
0.394519052838319
20
17.8417232227022
30
0
0
SPLINE
5
320
100
AcDbEntity
8
1
62
256
6
ByLayer
370
-1
48
1
60
0
100
AcDbSpline
70
4
71
3
72
8
73
4
40
0
40
0
40
0
40
0
40
1
40
1
40
1
40
1
41
1
10
16.2447461152791
20
-23.3809554617177
30
0
41
1
10
16.2060749008317
20
-23.3413185694058
30
0
41
1
10
16.1701581569867
20
-23.3016717200767
30
0
41
1
10
16.1370096382256
20
-23.2620148640097
30
0
0
SPLINE
5
321
100
AcDbEntity
8
1
62
256
6
ByLayer
370
-1
48
1
60
0
100
AcDbSpline
70
4
71
3
72
8
73
4
40
0
40
0
40
0
40
0
40
1
40
1
40
1
40
1
41
1
10
0
20
-19.1454018402203
30
0
41
1
10
0.131209869747579
20
-19.2882257956237
30
0
41
1
10
0.262722134736862
20
-19.4306801575147
30
0
41
1
10
0.394519052838319
20
-19.572781595349
30
0
0
SPLINE
5
322
100
AcDbEntity
8
1
62
256
6
ByLayer
370
-1
48
1
60
0
100
AcDbSpline
70
4
71
3
72
8
73
4
40
0
40
0
40
0
40
0
40
1
40
1
40
1
40
1
41
1
10
0
20
-17.2929584404609
30
0
41
1
10
0.130699965526105
20
-17.4766490191934
30
0
41
1
10
0.262224882939222
20
-17.6595606391472
30
0
41
1
10
0.394519052838319
20
-17.8417232227022
30
0
0
SPLINE
5
323
100
AcDbEntity
8
1
62
256
6
ByLayer
370
-1
48
1
60
0
100
AcDbSpline
70
4
71
3
72
8
73
4
40
0
40
0
40
0
40
0
40
1
40
1
40
1
40
1
41
1
10
0
20
-12.6311682604383
30
0
41
1
10
0.128658059895059
20
-12.914009186291
30
0
41
1
10
0.260243397498556
20
-13.1950971379547
30
0
41
1
10
0.394519052838319
20
-13.4744348947103
30
0
0
SPLINE
5
324
100
AcDbEntity
8
1
62
256
6
ByLayer
370
-1
48
1
60
0
100
AcDbSpline
70
4
71
3
72
8
73
4
40
0
40
0
40
0
40
0
40
1
40
1
40
1
40
1
41
1
10
0.394519052838319
20
19.0473658062967
30
0
41
1
10
0.262949664135363
20
18.9315069156534
30
0
41
1
10
0.131442149365427
20
18.8155542730744
30
0
41
1
10
0
20
18.6995029779807
30
0
0
SPLINE
5
325
100
AcDbEntity
8
1
62
256
6
ByLayer
370
-1
48
1
60
0
100
AcDbSpline
70
4
71
3
72
8
73
4
40
0
40
0
40
0
40
0
40
1
40
1
40
1
40
1
41
1
10
0.394519052838319
20
-18.4734609781557
30
0
41
1
10
0.262402589278366
20
-18.3039576866996
30
0
41
1
10
0.130882435689898
20
-18.1338318440795
30
0
41
1
10
0
20
-17.9630568563235
30
0
0
SPLINE
5
326
100
AcDbEntity
8
1
62
256
6
ByLayer
370
-1
48
1
60
0
100
AcDbSpline
70
4
71
3
72
8
73
4
40
0
40
0
40
0
40
0
40
1
40
1
40
1
40
1
41
1
10
0.394519052838319
20
-6.54042817881556
30
0
41
1
10
0.260749519017878
20
-6.35678893830105
30
0
41
1
10
0.129090328526161
20
-6.17106167059072
30
0
41
1
10
0
20
-5.98301024765146
30
0
0
SPLINE
5
327
100
AcDbEntity
8
1
62
256
6
ByLayer
370
-1
48
1
60
0
100
AcDbSpline
70
4
71
3
72
22
73
18
40
0
40
0
40
0
40
0
40
0.050362724612077
40
0.050362724612077
40
0.101958745990659
40
0.101958745990659
40
0.149530474122574
40
0.149530474122574
40
0.191258249392857
40
0.191258249392857
40
0.262670051298846
40
0.262670051298846
40
0.394492315498876
40
0.394492315498876
40
0.682048144163198
40
0.682048144163198
40
1
40
1
40
1
40
1
41
1
10
0.394519052838319
20
-12.0579374210678
30
0
41
1
10
0.401427601053285
20
-12.0640741157459
30
0
41
1
10
0.408587323029366
20
-12.0695901747023
30
0
41
1
10
0.422949084269305
20
-12.0782128396388
30
0
41
1
10
0.430334711529781
20
-12.0813208938064
30
0
41
1
10
0.443277358798383
20
-12.0834788474439
30
0
41
1
10
0.449089877611812
20
-12.0828231034782
30
0
41
1
10
0.458223885746179
20
-12.0787096230535
30
0
41
1
10
0.46188520740867
20
-12.0755949201754
30
0
41
1
10
0.469999357388019
20
-12.0651611408931
30
0
41
1
10
0.47339040326159
20
-12.0563281186121
30
0
41
1
10
0.479702919706199
20
-12.0289547573174
30
0
41
1
10
0.480165060578685
20
-12.0080137289938
30
0
41
1
10
0.476311579427602
20
-11.9398802480501
30
0
41
1
10
0.46582765248047
20
-11.8888440824657
30
0
41
1
10
0.437121316899862
20
-11.7815626979047
30
0
41
1
10
0.417521665847232
20
-11.7239667278757
30
0
41
1
10
0.394519052838319
20
-11.6669928763094
30
0
0
SPLINE
5
328
100
AcDbEntity
8
1
62
256
6
ByLayer
370
-1
48
1
60
0
100
AcDbSpline
70
4
71
3
72
8
73
4
40
0
40
0
40
0
40
0
40
1
40
1
40
1
40
1
41
1
10
0
20
5.98301024765144
30
0
41
1
10
0.129090328529031
20
6.1710616705949
30
0
41
1
10
0.260749519023733
20
6.35678893830931
30
0
41
1
10
0.394519052847272
20
6.54042817882782
30
0
0
SPLINE
5
329
100
AcDbEntity
8
1
62
256
6
ByLayer
370
-1
48
1
60
0
100
AcDbSpline
70
4
71
3
72
22
73
18
40
0
40
0
40
0
40
0
40
0.0640164757347773
40
0.0640164757347773
40
0.129490059942414
40
0.129490059942414
40
0.189219450406554
40
0.189219450406554
40
0.242602336709541
40
0.242602336709541
40
0.331388955569462
40
0.331388955569462
40
0.486817486684524
40
0.486817486684524
40
0.790430254740947
40
0.790430254740947
40
1
40
1
40
1
40
1
41
1
10
0.394519052838319
20
13.7823140979466
30
0
41
1
10
0.402512983417381
20
13.7890287983262
30
0
41
1
10
0.410720580431388
20
13.7950266334042
30
0
41
1
10
0.426872456875572
20
13.8042814764771
30
0
41
1
10
0.435015052575977
20
13.8075436869248
30
0
41
1
10
0.448826464690626
20
13.8096421921079
30
0
41
1
10
0.454816784341915
20
13.8088424711783
30
0
41
1
10
0.464008772165443
20
13.8042518493918
30
0
41
1
10
0.467564322567796
20
13.8007707114001
30
0
41
1
10
0.474882090678648
20
13.7893208736958
30
0
41
1
10
0.477432596726487
20
13.7797880355793
30
0
41
1
10
0.480735368288748
20
13.7511744282264
30
0
41
1
10
0.478972478514919
20
13.7297698329426
30
0
41
1
10
0.468276638131243
20
13.6649789440841
30
0
41
1
10
0.453991481908133
20
13.6183062162702
30
0
41
1
10
0.424199036825257
20
13.5395635526583
30
0
41
1
10
0.41012229498827
20
13.50689479706
30
0
41
1
10
0.394519052838319
20
13.4744348947103
30
0
0
SPLINE
5
32A
100
AcDbEntity
8
1
62
256
6
ByLayer
370
-1
48
1
60
0
100
AcDbSpline
70
4
71
3
72
18
73
14
40
0
40
0
40
0
40
0
40
0.424992420801014
40
0.424992420801014
40
0.593754962831924
40
0.593754962831924
40
0.763986775462965
40
0.763986775462965
40
0.861690444877604
40
0.861690444877604
40
0.960953447679617
40
0.960953447679617
40
1
40
1
40
1
40
1
41
1
10
5.49999999999974
20
-9.86103442849685
30
0
41
1
10
5.49999999999974
20
-9.97809228112732
30
0
41
1
10
5.51580300274355
20
-10.0961137699805
30
0
41
1
10
5.56929089316779
20
-10.251494642647
30
0
41
1
10
5.58839695862608
20
-10.2951050002849
30
0
41
1
10
5.63670123583751
20
-10.3778273961336
30
0
41
1
10
5.66633335648501
20
-10.417650775704
30
0
41
1
10
5.72425744632352
20
-10.4711018585615
30
0
41
1
10
5.74816657977047
20
-10.4889037068077
30
0
41
1
10
5.80125236203685
20
-10.5173071164489
30
0
41
1
10
5.83136280563531
20
-10.5280603564696
30
0
41
1
10
5.87476053636371
20
-10.5346811183149
30
0
41
1
10
5.88740404777587
20
-10.5356537528529
30
0
41
1
10
5.89999999999984
20
-10.5356537528529
30
0
0
SPLINE
5
32B
100
AcDbEntity
8
1
62
256
6
ByLayer
370
-1
48
1
60
0
100
AcDbSpline
70
4
71
3
72
10
73
6
40
0
40
0
40
0
40
0
40
0.235594173009892
40
0.235594173009892
40
1
40
1
40
1
40
1
41
1
10
10.0301400386128
20
10.0550184146647
30
0
41
1
10
10.1410216033167
20
9.71549780728827
30
0
41
1
10
10.2700260430477
20
9.38016751322274
30
0
41
1
10
10.8932159392611
20
8.00710454199751
30
0
41
1
10
11.5258355507921
20
7.10691915680883
30
0
41
1
10
12.1887492423979
20
6.39171668569605
30
0
0
SPLINE
5
32C
100
AcDbEntity
8
1
62
256
6
ByLayer
370
-1
48
1
60
0
100
AcDbSpline
70
4
71
3
72
8
73
4
40
0
40
0
40
0
40
0
40
1
40
1
40
1
40
1
41
1
10
0.394519052838319
20
-19.3871212716832
30
0
41
1
10
0.26292017266897
20
-19.2673887300816
30
0
41
1
10
0.131412099455616
20
-19.1475229800285
30
0
41
1
10
0
20
-19.0275172217373
30
0
0
SPLINE
5
32D
100
AcDbEntity
8
1
62
256
6
ByLayer
370
-1
48
1
60
0
100
AcDbSpline
70
4
71
2
72
6
73
3
40
0
40
0
40
0
40
1
40
1
40
1
41
0.499806495949074
10
10.0274423741333
20
10.0531095461204
30
0
41
0.500193504050926
10
10.0276559667665
20
10.0524629174969
30
0
41
0.499806495949074
10
10.0278696474624
20
10.051816317986
30
0
0
SPLINE
5
32E
100
AcDbEntity
8
1
62
256
6
ByLayer
370
-1
48
1
60
0
100
AcDbSpline
70
4
71
3
72
14
73
10
40
0
40
0
40
0
40
0
40
0.424228568731725
40
0.424228568731725
40
0.684938302833314
40
0.684938302833314
40
0.90254775961068
40
0.90254775961068
40
1
40
1
40
1
40
1
41
1
10
0.394519052838319
20
19.6986154928503
30
0
41
1
10
0.413046293940766
20
19.7176491513148
30
0
41
1
10
0.430737488838531
20
19.7360292699242
30
0
41
1
10
0.4542731016858
20
19.7609342268498
30
0
41
1
10
0.462229281514254
20
19.7694857689091
30
0
41
1
10
0.473093892054891
20
19.7815159914878
30
0
41
1
10
0.476700066166899
20
19.7856928445034
30
0
41
1
10
0.479139098520335
20
19.7889512146194
30
0
41
1
10
0.479510818827407
20
19.7895781534618
30
0
41
1
10
0.479500453209994
20
19.7898201833885
30
0
0
SPLINE
5
32F
100
AcDbEntity
8
1
62
256
6
ByLayer
370
-1
48
1
60
0
100
AcDbSpline
70
4
71
3
72
16
73
12
40
0
40
0
40
0
40
0
40
0.0013904459323937
40
0.0013904459323937
40
0.233011809110078
40
0.233011809110078
40
0.53675250369394
40
0.53675250369394
40
0.951751586321139
40
0.951751586321139
40
1
40
1
40
1
40
1
41
1
10
0.477709302388718
20
19.7889424897622
30
0
41
1
10
0.477697637378157
20
19.7889337249407
30
0
41
1
10
0.477685915353248
20
19.7889249017542
30
0
41
1
10
0.47570315871647
20
19.7874298753918
30
0
41
1
10
0.472118765301559
20
19.7843051225123
30
0
41
1
10
0.461172605916147
20
19.7743033105186
30
0
41
1
10
0.452850467138347
20
19.7664461517624
30
0
41
1
10
0.430749688780509
20
19.7452578798196
30
0
41
1
10
0.415737486663943
20
19.7306456634328
30
0
41
1
10
0.398238552505063
20
19.7134771055984
30
0
41
1
10
0.396384290205816
20
19.7116562412322
30
0
41
1
10
0.394519052839144
20
19.7098230659524
30
0
0
SPLINE
5
330
100
AcDbEntity
8
1
62
256
6
ByLayer
370
-1
48
1
60
0
100
AcDbSpline
70
4
71
3
72
8
73
4
40
0
40
0
40
0
40
0
40
1
40
1
40
1
40
1
41
1
10
0
20
2.7697313269525
30
0
41
1
10
0.0874358963161512
20
3.72834719988381
30
0
41
1
10
0.220393475081408
20
4.68668072517488
30
0
41
1
10
0.394519052838291
20
5.63341609185696
30
0
0
SPLINE
5
331
100
AcDbEntity
8
1
62
256
6
ByLayer
370
-1
48
1
60
0
100
AcDbSpline
70
4
71
3
72
8
73
4
40
0
40
0
40
0
40
0
40
1
40
1
40
1
40
1
41
1
10
0
20
-18.4877367901945
30
0
41
1
10
0.131019951491623
20
-18.6477021421703
30
0
41
1
10
0.262536668669412
20
-18.8071267308867
30
0
41
1
10
0.394519052838319
20
-18.9660336777981
30
0
0
SPLINE
5
332
100
AcDbEntity
8
1
62
256
6
ByLayer
370
-1
48
1
60
0
100
AcDbSpline
70
4
71
3
72
24
73
20
40
0
40
0
40
0
40
0
40
0.481377986196365
40
0.481377986196365
40
0.639909060809528
40
0.639909060809528
40
0.800676356226434
40
0.800676356226434
40
0.852432573468672
40
0.852432573468672
40
0.886614790918357
40
0.886614790918357
40
0.915369091210942
40
0.915369091210942
40
0.944125270311942
40
0.944125270311942
40
0.983016998003775
40
0.983016998003775
40
1
40
1
40
1
40
1
41
1
10
0.394519052838319
20
-9.28315947401117
30
0
41
1
10
0.427946970388319
20
-9.39033485458813
30
0
41
1
10
0.454524794231901
20
-9.49923364059751
30
0
41
1
10
0.474366783293391
20
-9.63921023331385
30
0
41
1
10
0.477974295001502
20
-9.67383082780086
30
0
41
1
10
0.480317398173582
20
-9.74101878576312
30
0
41
1
10
0.479469166024245
20
-9.77478381062221
30
0
41
1
10
0.469051392891146
20
-9.81157087492787
30
0
41
1
10
0.465623379348301
20
-9.82003083074574
30
0
41
1
10
0.457702567697226
20
-9.83113294006212
30
0
41
1
10
0.453879715144041
20
-9.83482095068899
30
0
41
1
10
0.445632083812768
20
-9.83906552395044
30
0
41
1
10
0.441304302654856
20
-9.84003608412381
30
0
41
1
10
0.432139750800388
20
-9.83963373816039
30
0
41
1
10
0.427200669077962
20
-9.83826113958844
30
0
41
1
10
0.415721979670593
20
-9.83293756758252
30
0
41
1
10
0.409050650370176
20
-9.82822690994971
30
0
41
1
10
0.399949236549787
20
-9.82034185962462
30
0
41
1
10
0.397207580434241
20
-9.8177630252856
30
0
41
1
10
0.394519052838319
20
-9.81506636790175
30
0
0
SPLINE
5
333
100
AcDbEntity
8
1
62
256
6
ByLayer
370
-1
48
1
60
0
100
AcDbSpline
70
4
71
3
72
8
73
4
40
0
40
0
40
0
40
0
40
1
40
1
40
1
40
1
41
1
10
0.394519052838319
20
-17.0553632209806
30
0
41
1
10
0.26198177360439
20
-16.8577217216663
30
0
41
1
10
0.130450045331941
20
-16.6591749695091
30
0
41
1
10
0
20
-16.4596905081325
30
0
0
SPLINE
5
334
100
AcDbEntity
8
1
62
256
6
ByLayer
370
-1
48
1
60
0
100
AcDbSpline
70
4
71
3
72
8
73
4
40
0
40
0
40
0
40
0
40
1
40
1
40
1
40
1
41
1
10
0
20
17.9630568563235
30
0
41
1
10
0.130882435689898
20
18.1338318440795
30
0
41
1
10
0.262402589278366
20
18.3039576866996
30
0
41
1
10
0.394519052838319
20
18.4734609781557
30
0
0
SPLINE
5
335
100
AcDbEntity
8
1
62
256
6
ByLayer
370
-1
48
1
60
0
100
AcDbSpline
70
4
71
3
72
8
73
4
40
0
40
0
40
0
40
0
40
1
40
1
40
1
40
1
41
1
10
0.394519052838319
20
-17.2228674449602
30
0
41
1
10
0.263005974523594
20
-17.1146287218544
30
0
41
1
10
0.131499494301977
20
-17.0063793087006
30
0
41
1
10
0
20
-16.8981185823602
30
0
0
SPLINE
5
336
100
AcDbEntity
8
1
62
256
6
ByLayer
370
-1
48
1
60
0
100
AcDbSpline
70
4
71
3
72
8
73
4
40
0
40
0
40
0
40
0
40
1
40
1
40
1
40
1
41
1
10
0
20
19.0275172217373
30
0
41
1
10
0.131412099455616
20
19.1475229800286
30
0
41
1
10
0.26292017266897
20
19.2673887300816
30
0
41
1
10
0.394519052838319
20
19.3871212716832
30
0
0
SPLINE
5
337
100
AcDbEntity
8
1
62
256
6
ByLayer
370
-1
48
1
60
0
100
AcDbSpline
70
4
71
3
72
8
73
4
40
0
40
0
40
0
40
0
40
1
40
1
40
1
40
1
41
1
10
0
20
10.6499489023893
30
0
41
1
10
0.126948364210165
20
10.9912722816142
30
0
41
1
10
0.258588067896966
20
11.3303132235976
30
0
41
1
10
0.394519052838319
20
11.6669928763094
30
0
0
SPLINE
5
338
100
AcDbEntity
8
1
62
256
6
ByLayer
370
-1
48
1
60
0
100
AcDbSpline
70
4
71
3
72
8
73
4
40
0
40
0
40
0
40
0
40
1
40
1
40
1
40
1
41
1
10
0.394519052838319
20
16.2962828885178
30
0
41
1
10
0.263012503329605
20
16.1888841255729
30
0
41
1
10
0.131506148378492
20
16.0814850449873
30
0
41
1
10
0
20
15.9740856271496
30
0
0
SPLINE
5
339
100
AcDbEntity
8
1
62
256
6
ByLayer
370
-1
48
1
60
0
100
AcDbSpline
70
4
71
3
72
8
73
4
40
0
40
0
40
0
40
0
40
1
40
1
40
1
40
1
41
1
10
0
20
-15.9740856271496
30
0
41
1
10
0.131506148378492
20
-16.0814850449873
30
0
41
1
10
0.263012503329605
20
-16.1888841255729
30
0
41
1
10
0.394519052838319
20
-16.2962828885178
30
0
0
SPLINE
5
33A
100
AcDbEntity
8
1
62
256
6
ByLayer
370
-1
48
1
60
0
100
AcDbSpline
70
4
71
3
72
8
73
4
40
0
40
0
40
0
40
0
40
1
40
1
40
1
40
1
41
1
10
0.394519052838319
20
-12.0579374210678
30
0
41
1
10
0.262899137267397
20
-11.9410226641193
30
0
41
1
10
0.131389411454364
20
-11.8239422884521
30
0
41
1
10
0
20
-11.7066823491331
30
0
0
SPLINE
5
33B
100
AcDbEntity
8
1
62
256
6
ByLayer
370
-1
48
1
60
0
100
AcDbSpline
70
4
71
3
72
8
73
4
40
0
40
0
40
0
40
0
40
1
40
1
40
1
40
1
41
1
10
0.394519052838319
20
-11.6669928763094
30
0
41
1
10
0.258588067896966
20
-11.3303132235976
30
0
41
1
10
0.126948364210165
20
-10.9912722816142
30
0
41
1
10
0
20
-10.6499489023893
30
0
0
SPLINE
5
33C
100
AcDbEntity
8
1
62
256
6
ByLayer
370
-1
48
1
60
0
100
AcDbSpline
70
4
71
3
72
8
73
4
40
0
40
0
40
0
40
0
40
1
40
1
40
1
40
1
41
1
10
0
20
-19.2333411456125
30
0
41
1
10
0.131375561072161
20
-19.3579451495771
30
0
41
1
10
0.262884337371048
20
-19.4823620925447
30
0
41
1
10
0.394519052838319
20
-19.6066008845751
30
0
0
SPLINE
5
33D
100
AcDbEntity
8
1
62
256
6
ByLayer
370
-1
48
1
60
0
100
AcDbSpline
70
4
71
3
72
22
73
18
40
0
40
0
40
0
40
0
40
0.275727316123159
40
0.275727316123159
40
0.428602543447363
40
0.428602543447363
40
0.549120162462184
40
0.549120162462184
40
0.645444488302809
40
0.645444488302809
40
0.742264601009257
40
0.742264601009257
40
0.832567834543573
40
0.832567834543573
40
0.960604338778268
40
0.960604338778268
40
1
40
1
40
1
40
1
41
1
10
0.394519052838319
20
18.4734609781557
30
0
41
1
10
0.416739790093544
20
18.5019698255911
30
0
41
1
10
0.437067535062965
20
18.5304983597117
30
0
41
1
10
0.461249050468751
20
18.5701595535583
30
0
41
1
10
0.468555599248219
20
18.5836738484427
30
0
41
1
10
0.477177908014284
20
18.6042553094808
30
0
41
1
10
0.479479315771357
20
18.6122481662567
30
0
41
1
10
0.479549925426085
20
18.622691477533
30
0
41
1
10
0.478099791999938
20
18.6260021527981
30
0
41
1
10
0.471943773943224
20
18.6289143447912
30
0
41
1
10
0.467122155651594
20
18.6285153753229
30
0
41
1
10
0.455354313901381
20
18.6243038580097
30
0
41
1
10
0.448453389358548
20
18.6206974779665
30
0
41
1
10
0.430377060414429
20
18.6093680373215
30
0
41
1
10
0.418351009332866
20
18.600421221637
30
0
41
1
10
0.402266909816149
20
18.5872977315688
30
0
41
1
10
0.398404796793301
20
18.5840643737269
30
0
41
1
10
0.394519052838348
20
18.5807377979135
30
0
0
SPLINE
5
33E
100
AcDbEntity
8
1
62
256
6
ByLayer
370
-1
48
1
60
0
100
AcDbSpline
70
4
71
3
72
8
73
4
40
0
40
0
40
0
40
0
40
1
40
1
40
1
40
1
41
1
10
0
20
-15.4368523871774
30
0
41
1
10
0.130093023525688
20
-15.6562708260424
30
0
41
1
10
0.261634896238689
20
-15.87455214455
30
0
41
1
10
0.394519052838319
20
-16.0917289824197
30
0
0
SPLINE
5
33F
100
AcDbEntity
8
1
62
256
6
ByLayer
370
-1
48
1
60
0
100
AcDbSpline
70
4
71
3
72
22
73
18
40
0
40
0
40
0
40
0
40
0.0910047741915422
40
0.0910047741915422
40
0.184023049178438
40
0.184023049178438
40
0.264712432995396
40
0.264712432995396
40
0.33664602610819
40
0.33664602610819
40
0.448212359185216
40
0.448212359185216
40
0.625937467640396
40
0.625937467640396
40
0.920973346702054
40
0.920973346702054
40
1
40
1
40
1
40
1
41
1
10
0.394519052838319
20
16.2962828885179
30
0
41
1
10
0.404527168273603
20
16.3044563157819
30
0
41
1
10
0.414650079342181
20
16.3117854929754
30
0
41
1
10
0.433970125828608
20
16.3231245543355
30
0
41
1
10
0.443408611477253
20
16.3271623060183
30
0
41
1
10
0.458167637876272
20
16.3297944771553
30
0
41
1
10
0.464046530848833
20
16.3290462676041
30
0
41
1
10
0.472305217838794
20
16.3241869837802
30
0
41
1
10
0.47511518918796
20
16.3204258707156
30
0
41
1
10
0.479642171430101
20
16.3084062007746
30
0
41
1
10
0.480059805326363
20
16.2986752254001
30
0
41
1
10
0.477148390315193
20
16.2709132845922
30
0
41
1
10
0.471539711438481
20
16.2508928141742
30
0
41
1
10
0.451489991581639
20
16.1960224903627
30
0
41
1
10
0.433291297997727
20
16.1588091241487
30
0
41
1
10
0.406592336284149
20
16.1118163809665
30
0
41
1
10
0.400663120027105
20
16.101770428427
30
0
41
1
10
0.394519052838319
20
16.0917289824197
30
0
0
SPLINE
5
340
100
AcDbEntity
8
1
62
256
6
ByLayer
370
-1
48
1
60
0
100
AcDbSpline
70
4
71
3
72
8
73
4
40
0
40
0
40
0
40
0
40
1
40
1
40
1
40
1
41
1
10
16.2447461152791
20
-23.3809554617177
30
0
41
1
10
15.3743663742122
20
-22.3375161954662
30
0
41
1
10
14.505627970126
20
-21.2927422548369
30
0
41
1
10
13.6394555997977
20
-20.2459078267004
30
0
0
SPLINE
5
341
100
AcDbEntity
8
1
62
256
6
ByLayer
370
-1
48
1
60
0
100
AcDbSpline
70
4
71
3
72
8
73
4
40
0
40
0
40
0
40
0
40
1
40
1
40
1
40
1
41
1
10
0
20
-13.4507030159581
30
0
41
1
10
0.131474683017728
20
-13.5612902597836
30
0
41
1
10
0.262981795084329
20
-13.6718261138648
30
0
41
1
10
0.394519052838319
20
-13.7823140979466
30
0
0
SPLINE
5
342
100
AcDbEntity
8
1
62
256
6
ByLayer
370
-1
48
1
60
0
100
AcDbSpline
70
4
71
3
72
8
73
4
40
0
40
0
40
0
40
0
40
1
40
1
40
1
40
1
41
1
10
0
20
16.4596905081325
30
0
41
1
10
0.130450045331941
20
16.6591749695091
30
0
41
1
10
0.26198177360439
20
16.8577217216663
30
0
41
1
10
0.394519052838319
20
17.0553632209806
30
0
0
SPLINE
5
343
100
AcDbEntity
8
1
62
256
6
ByLayer
370
-1
48
1
60
0
100
AcDbSpline
70
4
71
3
72
22
73
18
40
0
40
0
40
0
40
0
40
0.158340513132241
40
0.158340513132241
40
0.276939831173065
40
0.276939831173065
40
0.397022832656943
40
0.397022832656943
40
0.498084648972833
40
0.498084648972833
40
0.597193131002474
40
0.597193131002474
40
0.746836677106019
40
0.746836677106019
40
0.959222739310269
40
0.959222739310269
40
1
40
1
40
1
40
1
41
1
10
0.394519052838319
20
-19.3871212716832
30
0
41
1
10
0.409128747760207
20
-19.4004136029156
30
0
41
1
10
0.423420951297288
20
-19.4128705550573
30
0
41
1
10
0.445514914376929
20
-19.430739006232
30
0
41
1
10
0.454232597147779
20
-19.4372718152089
30
0
41
1
10
0.468256980664961
20
-19.4463054976485
30
0
41
1
10
0.473690718677204
20
-19.4488389037063
30
0
41
1
10
0.479169338661904
20
-19.4487793396687
30
0
41
1
10
0.480004254824706
20
-19.4469373910693
30
0
41
1
10
0.478484416950579
20
-19.4402837265525
30
0
41
1
10
0.476199320582282
20
-19.4354789912127
30
0
41
1
10
0.467674866747245
20
-19.4210482502573
30
0
41
1
10
0.459928001762677
20
-19.410016598829
30
0
41
1
10
0.437909803413703
20
-19.3810477578902
30
0
41
1
10
0.421904311629987
20
-19.3616383358771
30
0
41
1
10
0.40136195510749
20
-19.3378919974575
30
0
41
1
10
0.397964534263025
20
-19.3339988109139
30
0
41
1
10
0.394519052838319
20
-19.3300829388625
30
0
0
SPLINE
5
344
100
AcDbEntity
8
1
62
256
6
ByLayer
370
-1
48
1
60
0
100
AcDbSpline
70
4
71
3
72
8
73
4
40
0
40
0
40
0
40
0
40
1
40
1
40
1
40
1
41
1
10
0.394519052838319
20
13.4744348947103
30
0
41
1
10
0.260243397498556
20
13.1950971379547
30
0
41
1
10
0.128658059895059
20
12.914009186291
30
0
41
1
10
0
20
12.6311682604383
30
0
0
SPLINE
5
345
100
AcDbEntity
8
1
62
256
6
ByLayer
370
-1
48
1
60
0
100
AcDbSpline
70
4
71
3
72
8
73
4
40
0
40
0
40
0
40
0
40
1
40
1
40
1
40
1
41
1
10
0.394519052838177
20
-5.63341609185615
30
0
41
1
10
0.219335928576925
20
-4.68093075615455
30
0
41
1
10
0.0872579573579912
20
-3.72639634083311
30
0
41
1
10
0
20
-2.7697313269525
30
0
0
SPLINE
5
346
100
AcDbEntity
8
1
62
256
6
ByLayer
370
-1
48
1
60
0
100
AcDbSpline
70
4
71
3
72
8
73
4
40
0
40
0
40
0
40
0
40
1
40
1
40
1
40
1
41
1
10
0.394519052838319
20
-18.5807377979135
30
0
41
1
10
0.262973667389161
20
-18.4681221179633
30
0
41
1
10
0.131466595340072
20
-18.355446739373
30
0
41
1
10
0
20
-18.2427084508718
30
0
0
SPLINE
5
347
100
AcDbEntity
8
1
62
256
6
ByLayer
370
-1
48
1
60
0
100
AcDbSpline
70
4
71
3
72
8
73
4
40
0
40
0
40
0
40
0
40
1
40
1
40
1
40
1
41
1
10
0.394519052838319
20
18.9660336777981
30
0
41
1
10
0.262536668669412
20
18.8071267308867
30
0
41
1
10
0.131019951491623
20
18.6477021421703
30
0
41
1
10
0
20
18.4877367901945
30
0
0
SPLINE
5
348
100
AcDbEntity
8
1
62
256
6
ByLayer
370
-1
48
1
60
0
100
AcDbSpline
70
4
71
3
72
16
73
12
40
0
40
0
40
0
40
0
40
0.0783639217757119
40
0.0783639217757119
40
0.173754824441704
40
0.173754824441704
40
0.31783301549714
40
0.31783301549714
40
0.574019100217118
40
0.574019100217118
40
1
40
1
40
1
40
1
41
1
10
5.89999999999986
20
10.5356537528527
30
0
41
1
10
5.87493632133484
20
10.5356537528528
30
0
41
1
10
5.84956142408058
20
10.5316755669259
30
0
41
1
10
5.79726251369411
20
10.5157582028334
30
0
41
1
10
5.77033942310828
20
10.5021725760057
30
0
41
1
10
5.71046791575293
20
10.4617487386469
30
0
41
1
10
5.68002044558796
20
10.4311599986309
30
0
41
1
10
5.60927173977703
20
10.340793929177
30
0
41
1
10
5.5774254510568
20
10.2749073567421
30
0
41
1
10
5.51587310670934
20
10.0966753973275
30
0
41
1
10
5.49999999999974
20
9.97836690825915
30
0
41
1
10
5.49999999999974
20
9.86103442849685
30
0
0
SPLINE
5
349
100
AcDbEntity
8
1
62
256
6
ByLayer
370
-1
48
1
60
0
100
AcDbSpline
70
4
71
3
72
8
73
4
40
0
40
0
40
0
40
0
40
1
40
1
40
1
40
1
41
1
10
0
20
16.8981185823602
30
0
41
1
10
0.131499494301977
20
17.0063793087006
30
0
41
1
10
0.263005974523594
20
17.1146287218544
30
0
41
1
10
0.394519052838319
20
17.2228674449602
30
0
0
SPLINE
5
34A
100
AcDbEntity
8
1
62
256
6
ByLayer
370
-1
48
1
60
0
100
AcDbSpline
70
4
71
3
72
22
73
18
40
0
40
0
40
0
40
0
40
0.130974566624924
40
0.130974566624924
40
0.235962005115146
40
0.235962005115146
40
0.342043800223119
40
0.342043800223119
40
0.433499584198726
40
0.433499584198726
40
0.550051092896469
40
0.550051092896469
40
0.713937831560577
40
0.713937831560577
40
0.956613812143024
40
0.956613812143024
40
1
40
1
40
1
40
1
41
1
10
0.394519052838319
20
-18.5807377979135
30
0
41
1
10
0.407306951952563
20
-18.5916854867964
30
0
41
1
10
0.419987695493092
20
-18.6017420247622
30
0
41
1
10
0.440755429824492
20
-18.6161634772445
30
0
41
1
10
0.449439597834214
20
-18.6213686776538
30
0
41
1
10
0.463903333892972
20
-18.6277887377414
30
0
41
1
10
0.469830766817182
20
-18.6290081515976
30
0
41
1
10
0.477011742273561
20
-18.6270360141607
30
0
41
1
10
0.478898460828162
20
-18.624421208698
30
0
41
1
10
0.480003530986977
20
-18.6155255334878
30
0
41
1
10
0.478415708351122
20
-18.6083452986138
30
0
41
1
10
0.470927088921258
20
-18.588338657926
30
0
41
1
10
0.463493164027568
20
-18.5741061591377
30
0
41
1
10
0.441112715450629
20
-18.5368015839103
30
0
41
1
10
0.423888232878994
20
-18.5120334732542
30
0
41
1
10
0.401552729564713
20
-18.482547847082
30
0
41
1
10
0.398065399485745
20
-18.4780108836949
30
0
41
1
10
0.394519052838319
20
-18.4734609781557
30
0
0
SPLINE
5
34B
100
AcDbEntity
8
1
62
256
6
ByLayer
370
-1
48
1
60
0
100
AcDbSpline
70
4
71
3
72
8
73
4
40
0
40
0
40
0
40
0
40
1
40
1
40
1
40
1
41
1
10
0.394519052838319
20
-19.709823065951
30
0
41
1
10
0.262840810877805
20
-19.5804082781262
30
0
41
1
10
0.131331144961194
20
-19.4507644040705
30
0
41
1
10
0
20
-19.3208801979494
30
0
0
SPLINE
5
34C
100
AcDbEntity
8
1
62
256
6
ByLayer
370
-1
48
1
60
0
100
AcDbSpline
70
4
71
3
72
22
73
18
40
0
40
0
40
0
40
0
40
0.254870626188923
40
0.254870626188923
40
0.404442713215351
40
0.404442713215351
40
0.523165816630691
40
0.523165816630691
40
0.621531216469595
40
0.621531216469595
40
0.720212233183625
40
0.720212233183625
40
0.814930019931253
40
0.814930019931253
40
0.952302569433041
40
0.952302569433041
40
1
40
1
40
1
40
1
41
1
10
0.394519052838319
20
-18.9660336777981
30
0
41
1
10
0.415397257062637
20
-18.9911710604205
30
0
41
1
10
0.434745901513281
20
-19.0161221644437
30
0
41
1
10
0.458931875838118
20
-19.0511968235287
30
0
41
1
10
0.466623046410064
20
-19.0634552832728
30
0
41
1
10
0.476107730084294
20
-19.0818099803902
30
0
41
1
10
0.478845551808718
20
-19.0888031444728
30
0
41
1
10
0.479875340860843
20
-19.0977256603011
30
0
41
1
10
0.478826576558816
20
-19.1003788452061
30
0
41
1
10
0.473451118959929
20
-19.1020609137239
30
0
41
1
10
0.469035178978999
20
-19.1010894788818
30
0
41
1
10
0.457891153363391
20
-19.0959678596139
30
0
41
1
10
0.451153362829416
20
-19.0919116516006
30
0
41
1
10
0.433072742475133
20
-19.0794582369487
30
0
41
1
10
0.420751809470772
20
-19.0697722314114
30
0
41
1
10
0.403613580947621
20
-19.0552982452463
30
0
41
1
10
0.399086632525979
20
-19.0513879783289
30
0
41
1
10
0.394519052838319
20
-19.0473658062967
30
0
0
SPLINE
5
34D
100
AcDbEntity
8
1
62
256
6
ByLayer
370
-1
48
1
60
0
100
AcDbSpline
70
4
71
3
72
8
73
4
40
0
40
0
40
0
40
0
40
1
40
1
40
1
40
1
41
1
10
0.394519052838319
20
13.7823140979466
30
0
41
1
10
0.262981795084329
20
13.6718261138648
30
0
41
1
10
0.131474683017728
20
13.5612902597836
30
0
41
1
10
0
20
13.4507030159581
30
0
0
SPLINE
5
34E
100
AcDbEntity
8
1
62
256
6
ByLayer
370
-1
48
1
60
0
100
AcDbSpline
70
4
71
3
72
8
73
4
40
0
40
0
40
0
40
0
40
1
40
1
40
1
40
1
41
1
10
0.394519052838319
20
9.81506636790175
30
0
41
1
10
0.262611087046167
20
9.68275952809725
30
0
41
1
10
0.131088642845327
20
9.54993805463116
30
0
41
1
10
0
20
9.41654987898986
30
0
0
SPLINE
5
34F
100
AcDbEntity
8
1
62
256
6
ByLayer
370
-1
48
1
60
0
100
AcDbSpline
70
4
71
3
72
8
73
4
40
0
40
0
40
0
40
0
40
1
40
1
40
1
40
1
41
1
10
0
20
14.183490812332
30
0
41
1
10
0.12955220400724
20
14.429216262006
30
0
41
1
10
0.261110073250762
20
14.6735448954387
30
0
41
1
10
0.394519052838319
20
14.9165032325849
30
0
0
SPLINE
5
350
100
AcDbEntity
8
1
62
256
6
ByLayer
370
-1
48
1
60
0
100
AcDbSpline
70
4
71
3
72
22
73
18
40
0
40
0
40
0
40
0
40
0.144598599285387
40
0.144598599285387
40
0.256699365951616
40
0.256699365951616
40
0.370082641733434
40
0.370082641733434
40
0.466657588575158
40
0.466657588575158
40
0.564068157643561
40
0.564068157643561
40
0.716572393061035
40
0.716572393061035
40
0.936945012758068
40
0.936945012758068
40
1
40
1
40
1
40
1
41
1
10
0.394519052838319
20
19.0473658062967
30
0
41
1
10
0.408214504287599
20
19.0594259049824
30
0
41
1
10
0.42170507190005
20
19.0706140862987
30
0
41
1
10
0.443178844916304
20
19.0866611502955
30
0
41
1
10
0.451905079037545
20
19.0924990294535
30
0
41
1
10
0.466194431389738
20
19.1001562394458
30
0
41
1
10
0.471896102067348
20
19.1019924020467
30
0
41
1
10
0.478262752803943
20
19.1009159444591
30
0
41
1
10
0.479637513823462
20
19.0986636573495
30
0
41
1
10
0.479382488733819
20
19.0913155598733
30
0
41
1
10
0.477750111527598
20
19.0861380753486
30
0
41
1
10
0.470716771417273
20
19.0705543545702
30
0
41
1
10
0.463652883951681
20
19.0586284622445
30
0
41
1
10
0.442780499065123
20
19.0272505359943
30
0
41
1
10
0.427030536295632
20
19.0062328275241
30
0
41
1
10
0.404874748049821
20
18.9786062440512
30
0
41
1
10
0.399756043146454
20
18.9723390203338
30
0
41
1
10
0.394519052838319
20
18.9660336777981
30
0
0
SPLINE
5
351
100
AcDbEntity
8
1
62
256
6
ByLayer
370
-1
48
1
60
0
100
AcDbSpline
70
4
71
3
72
8
73
4
40
0
40
0
40
0
40
0
40
1
40
1
40
1
40
1
41
1
10
0.394519052838319
20
17.8417232227022
30
0
41
1
10
0.262224882939222
20
17.6595606391472
30
0
41
1
10
0.130699965526105
20
17.4766490191934
30
0
41
1
10
0
20
17.2929584404609
30
0
0
SPLINE
5
352
100
AcDbEntity
8
1
62
256
6
ByLayer
370
-1
48
1
60
0
100
AcDbSpline
70
4
71
3
72
8
73
4
40
0
40
0
40
0
40
0
40
1
40
1
40
1
40
1
41
1
10
0.394519052838319
20
19.6066008845751
30
0
41
1
10
0.262884337371048
20
19.4823620925448
30
0
41
1
10
0.131375561072161
20
19.3579451495771
30
0
41
1
10
0
20
19.2333411456125
30
0
0
SPLINE
5
353
100
AcDbEntity
8
1
62
256
6
ByLayer
370
-1
48
1
60
0
100
AcDbSpline
70
4
71
3
72
8
73
4
40
0
40
0
40
0
40
0
40
1
40
1
40
1
40
1
41
1
10
0.394519052838319
20
9.28315947401117
30
0
41
1
10
0.25434140223021
20
8.83372695911297
30
0
41
1
10
0.122557944122832
20
8.38066645202932
30
0
41
1
10
0
20
7.92441869309681
30
0
0
SPLINE
5
354
100
AcDbEntity
8
1
62
256
6
ByLayer
370
-1
48
1
60
0
100
AcDbSpline
70
4
71
3
72
8
73
4
40
0
40
0
40
0
40
0
40
1
40
1
40
1
40
1
41
1
10
0
20
19.2917446495518
30
0
41
1
10
0.131276854193146
20
19.4276643880555
30
0
41
1
10
0.262787655213145
20
19.5632833936142
30
0
41
1
10
0.394519052838319
20
19.6986154928503
30
0
0
SPLINE
5
355
100
AcDbEntity
8
1
62
256
6
ByLayer
370
-1
48
1
60
0
100
AcDbSpline
70
4
71
3
72
8
73
4
40
0
40
0
40
0
40
0
40
1
40
1
40
1
40
1
41
1
10
0.394519052838348
20
-15.1660973535886
30
0
41
1
10
0.263008092457568
20
-15.0582009412332
30
0
41
1
10
0.131501640983174
20
-14.9502972007992
30
0
41
1
10
0
20
-14.8423856446161
30
0
0
SPLINE
5
356
100
AcDbEntity
8
1
62
256
6
ByLayer
370
-1
48
1
60
0
100
AcDbSpline
70
4
71
3
72
8
73
4
40
0
40
0
40
0
40
0
40
1
40
1
40
1
40
1
41
1
10
0
20
19.3208801979494
30
0
41
1
10
0.131331144961194
20
19.4507644040705
30
0
41
1
10
0.262840810877805
20
19.5804082781262
30
0
41
1
10
0.394519052838319
20
19.709823065951
30
0
0
SPLINE
5
357
100
AcDbEntity
8
1
62
256
6
ByLayer
370
-1
48
1
60
0
100
AcDbSpline
70
4
71
3
72
8
73
4
40
0
40
0
40
0
40
0
40
1
40
1
40
1
40
1
41
1
10
0
20
-18.6995029779807
30
0
41
1
10
0.131442149365427
20
-18.8155542730744
30
0
41
1
10
0.262949664135363
20
-18.9315069156534
30
0
41
1
10
0.394519052838319
20
-19.0473658062967
30
0
0
SPLINE
5
358
100
AcDbEntity
8
1
62
256
6
ByLayer
370
-1
48
1
60
0
100
AcDbSpline
70
4
71
3
72
22
73
18
40
0
40
0
40
0
40
0
40
0.437896690009531
40
0.437896690009531
40
0.639990234380837
40
0.639990234380837
40
0.71774841132762
40
0.71774841132762
40
0.796672609064531
40
0.796672609064531
40
0.851154317625829
40
0.851154317625829
40
0.905737447010996
40
0.905737447010996
40
0.973199244945158
40
0.973199244945158
40
1
40
1
40
1
40
1
41
1
10
0.394519052838319
20
-13.4744348947103
30
0
41
1
10
0.42678416475772
20
-13.5415569948574
30
0
41
1
10
0.453440103505045
20
-13.6105944461558
30
0
41
1
10
0.475591486669941
20
-13.7040318631824
30
0
41
1
10
0.480268468420093
20
-13.7333062353311
30
0
41
1
10
0.479098104313295
20
-13.7681879751399
30
0
41
1
10
0.47789108947697
20
-13.7773926265592
30
0
41
1
10
0.47285536890189
20
-13.7932666954997
30
0
41
1
10
0.468887305982122
20
-13.8000695456669
30
0
41
1
10
0.459192308018174
20
-13.8071998127549
30
0
41
1
10
0.454268900350911
20
-13.8089016011102
30
0
41
1
10
0.443084545046645
20
-13.8092232918541
30
0
41
1
10
0.436687456484322
20
-13.8078387655905
30
0
41
1
10
0.42191541107681
20
-13.8019085867757
30
0
41
1
10
0.413220603813215
20
-13.7966620704222
30
0
41
1
10
0.401309145742204
20
-13.7878585523284
30
0
41
1
10
0.39790095191546
20
-13.7851548080068
30
0
41
1
10
0.394519052838319
20
-13.7823140979466
30
0
0
SPLINE
5
359
100
AcDbEntity
8
1
62
256
6
ByLayer
370
-1
48
1
60
0
100
AcDbSpline
70
4
71
3
72
24
73
20
40
0
40
0
40
0
40
0
40
0.43917115628847
40
0.43917115628847
40
0.796834177251203
40
0.796834177251203
40
0.886314705816321
40
0.886314705816321
40
0.915732144741112
40
0.915732144741112
40
0.932646512971609
40
0.932646512971609
40
0.945725223613188
40
0.945725223613188
40
0.958772267798244
40
0.958772267798244
40
0.974771166986145
40
0.974771166986145
40
1
40
1
40
1
40
1
41
1
10
0.394519052838859
20
5.63341609185696
30
0
41
1
10
0.422494396505073
20
5.78552038110107
30
0
41
1
10
0.445669086549742
20
5.93819212682831
30
0
41
1
10
0.474692141763597
20
6.21255310511953
30
0
41
1
10
0.485664759910094
20
6.33747674188595
30
0
41
1
10
0.474681766614623
20
6.48285088107815
30
0
41
1
10
0.471233390621137
20
6.51221066369004
30
0
41
1
10
0.459757107235475
20
6.54539340875959
30
0
41
1
10
0.456219172991979
20
6.55324744873246
30
0
41
1
10
0.448780379272677
20
6.56295064938774
30
0
41
1
10
0.445590502192033
20
6.56596634289443
30
0
41
1
10
0.439149571778785
20
6.56930122141591
30
0
41
1
10
0.436005663187473
20
6.57007979145712
30
0
41
1
10
0.429520094617232
20
6.56993483394837
30
0
41
1
10
0.426105690234181
20
6.56901599233203
30
0
41
1
10
0.418740276415946
20
6.56553420725288
30
0
41
1
10
0.414738320051981
20
6.56263646326019
30
0
41
1
10
0.405067199335747
20
6.55395264447074
30
0
41
1
10
0.399583930816561
20
6.54738125937521
30
0
41
1
10
0.394519052846306
20
6.54042817882649
30
0
0
SPLINE
5
35A
100
AcDbEntity
8
1
62
256
6
ByLayer
370
-1
48
1
60
0
100
AcDbSpline
70
4
71
3
72
8
73
4
40
0
40
0
40
0
40
0
40
1
40
1
40
1
40
1
41
1
10
0
20
-17.6471360742617
30
0
41
1
10
0.131485811585407
20
-17.7572435888389
30
0
41
1
10
0.262992539514613
20
-17.8673178070594
30
0
41
1
10
0.394519052838319
20
-17.977360486755
30
0
0
SPLINE
5
35B
100
AcDbEntity
8
1
62
256
6
ByLayer
370
-1
48
1
60
0
100
AcDbSpline
70
4
71
3
72
8
73
4
40
0
40
0
40
0
40
0
40
1
40
1
40
1
40
1
41
1
10
0
20
-9.41654987898986
30
0
41
1
10
0.131088642845327
20
-9.54993805463116
30
0
41
1
10
0.262611087046167
20
-9.68275952809725
30
0
41
1
10
0.394519052838319
20
-9.81506636790175
30
0
0
SPLINE
5
35C
100
AcDbEntity
8
1
62
256
6
ByLayer
370
-1
48
1
60
0
100
AcDbSpline
70
4
71
3
72
14
73
10
40
0
40
0
40
0
40
0
40
0.277330327757437
40
0.277330327757437
40
0.556956885358186
40
0.556956885358186
40
0.824389149440647
40
0.824389149440647
40
1
40
1
40
1
40
1
41
1
10
10.0266856284883
20
-6.07479345494544
30
0
41
1
10
10.0248101073167
20
-6.28362127237348
30
0
41
1
10
10.037951403545
20
-6.46987033406604
30
0
41
1
10
10.1463598919646
20
-6.79661955118489
30
0
41
1
10
10.2454307850455
20
-6.9427438512831
30
0
41
1
10
10.5132321070784
20
-7.22239211028389
30
0
41
1
10
10.6806856990206
20
-7.36198352212281
30
0
41
1
10
10.9696911117254
20
-7.61304322004575
30
0
41
1
10
11.0890843476451
20
-7.71939350649508
30
0
41
1
10
11.2055349066235
20
-7.83054561644876
30
0
0
SPLINE
5
35D
100
AcDbEntity
8
1
62
256
6
ByLayer
370
-1
48
1
60
0
100
AcDbSpline
70
4
71
3
72
8
73
4
40
0
40
0
40
0
40
0
40
1
40
1
40
1
40
1
41
1
10
9.88143339949778
20
10.5356537528527
30
0
41
1
10
9.7140229383983
20
11.1438312057383
30
0
41
1
10
9.61144933112575
20
11.7400888125603
30
0
41
1
10
9.56088483053205
20
12.3180436990094
30
0
0
SPLINE
5
35E
100
AcDbEntity
8
1
62
256
6
ByLayer
370
-1
48
1
60
0
100
AcDbSpline
70
4
71
3
72
22
73
18
40
0
40
0
40
0
40
0
40
0.24397088943459
40
0.24397088943459
40
0.357396218565109
40
0.357396218565109
40
0.472537561191951
40
0.472537561191951
40
0.541478090497106
40
0.541478090497106
40
0.610872023403968
40
0.610872023403968
40
0.675734910390106
40
0.675734910390106
40
0.787186415801076
40
0.787186415801076
40
1
40
1
40
1
40
1
41
1
10
11.2062776393318
20
-3.63903064122138
30
0
41
1
10
11.0647092948038
20
-3.49782385271816
30
0
41
1
10
10.9207245389814
20
-3.35981887267411
30
0
41
1
10
10.7099542616273
20
-3.18750360084793
30
0
41
1
10
10.6420814813183
20
-3.13666027433254
30
0
41
1
10
10.5067781691964
20
-3.05332597918429
30
0
41
1
10
10.437593471267
20
-3.02007608088448
30
0
41
1
10
10.3339431033008
20
-2.99961425190301
30
0
41
1
10
10.2958761867993
20
-2.99953768406657
30
0
41
1
10
10.2275065611981
20
-3.01904472747421
30
0
41
1
10
10.1964553140238
20
-3.03917141744815
30
0
41
1
10
10.1467567263674
20
-3.0940437389319
30
0
41
1
10
10.1267627148564
20
-3.12815062422567
30
0
41
1
10
10.0829721080912
20
-3.23154237721873
30
0
41
1
10
10.0654014459374
20
-3.30986243298608
30
0
41
1
10
10.0308607183426
20
-3.54634259455052
30
0
41
1
10
10.0264959139916
20
-3.71759490224551
30
0
41
1
10
10.0268824640146
20
-3.88989027526068
30
0
0
SPLINE
5
35F
100
AcDbEntity
8
1
62
256
6
ByLayer
370
-1
48
1
60
0
100
AcDbSpline
70
4
71
3
72
22
73
18
40
0
40
0
40
0
40
0
40
0.21313416020001
40
0.21313416020001
40
0.355084667315864
40
0.355084667315864
40
0.470060516673098
40
0.470060516673098
40
0.586166106097337
40
0.586166106097337
40
0.686807356366404
40
0.686807356366404
40
0.79002268051848
40
0.79002268051848
40
0.949766334771856
40
0.949766334771856
40
1
40
1
40
1
40
1
41
1
10
0.394519052838319
20
-19.572781595349
30
0
41
1
10
0.412606628640191
20
-19.5922833452033
30
0
41
1
10
0.429745252264695
20
-19.6112969007662
30
0
41
1
10
0.453525134465821
20
-19.638934682572
30
0
41
1
10
0.461939836758859
20
-19.6491264635687
30
0
41
1
10
0.473193007674013
20
-19.6638916471194
30
0
41
1
10
0.476866223489594
20
-19.6692815379348
30
0
41
1
10
0.48016470056001
20
-19.6760782172415
30
0
41
1
10
0.479754534579342
20
-19.6775025932125
30
0
41
1
10
0.474943820704027
20
-19.675905001888
30
0
41
1
10
0.471034762474943
20
-19.6734430847121
30
0
41
1
10
0.460675177538832
20
-19.6657200768778
30
0
41
1
10
0.45406687652445
20
-19.6603258471678
30
0
41
1
10
0.435387209108143
20
-19.6443266747826
30
0
41
1
10
0.422018173714974
20
-19.632255516492
30
0
41
1
10
0.403622625873624
20
-19.6151620505896
30
0
41
1
10
0.399099122832325
20
-19.6109236223989
30
0
41
1
10
0.394519052838319
20
-19.6066008845751
30
0
0
SPLINE
5
360
100
AcDbEntity
8
1
62
256
6
ByLayer
370
-1
48
1
60
0
100
AcDbSpline
70
4
71
3
72
22
73
18
40
0
40
0
40
0
40
0
40
0.53574482092229
40
0.53574482092229
40
0.671525719845895
40
0.671525719845895
40
0.766764426725178
40
0.766764426725178
40
0.822586602375154
40
0.822586602375154
40
0.867754001564155
40
0.867754001564155
40
0.913239534006522
40
0.913239534006522
40
0.954758253342654
40
0.954758253342654
40
1
40
1
40
1
40
1
41
1
10
0.394519052838319
20
11.6669928763094
30
0
41
1
10
0.432906177974388
20
11.7620717427283
30
0
41
1
10
0.463648435070809
20
11.8607052207651
30
0
41
1
10
0.478513433997648
20
11.9735896599641
30
0
41
1
10
0.480198002212404
20
11.9963547519699
30
0
41
1
10
0.478624083718103
20
12.0320012500984
30
0
41
1
10
0.476679536000717
20
12.0460484738573
30
0
41
1
10
0.469846607008662
20
12.064548930504
30
0
41
1
10
0.466427345558429
20
12.0706486747575
30
0
41
1
10
0.458218064288644
20
12.0787344319002
30
0
41
1
10
0.453711141939948
20
12.0813193677053
30
0
41
1
10
0.443363993756549
20
12.0834355779887
30
0
41
1
10
0.437371304633132
20
12.0829466385884
30
0
41
1
10
0.425491111788489
20
12.0792684574248
30
0
41
1
10
0.41951589987309
20
12.0763093170355
30
0
41
1
10
0.407198551956697
20
12.0685130160287
30
0
41
1
10
0.40076114853639
20
12.0634821222494
30
0
41
1
10
0.394519052838319
20
12.0579374210678
30
0
0
SPLINE
5
361
100
AcDbEntity
8
1
62
256
6
ByLayer
370
-1
48
1
60
0
100
AcDbSpline
70
4
71
3
72
8
73
4
40
0
40
0
40
0
40
0
40
1
40
1
40
1
40
1
41
1
10
0.394519052838319
20
-19.3300829388625
30
0
41
1
10
0.262640357753725
20
-19.1801996475
30
0
41
1
10
0.13112617985135
20
-19.0298873761474
30
0
41
1
10
0
20
-18.8791263469343
30
0
0
SPLINE
5
362
100
AcDbEntity
8
1
62
256
6
ByLayer
370
-1
48
1
60
0
100
AcDbSpline
70
4
71
3
72
22
73
18
40
0
40
0
40
0
40
0
40
0.360398650986887
40
0.360398650986887
40
0.507040735908437
40
0.507040735908437
40
0.656230896070085
40
0.656230896070085
40
0.735823930778752
40
0.735823930778752
40
0.816184345254592
40
0.816184345254592
40
0.888209392933061
40
0.888209392933061
40
0.986665172848572
40
0.986665172848572
40
1
40
1
40
1
40
1
41
1
10
0.394519052838319
20
-16.0917289824197
30
0
41
1
10
0.422135753480461
20
-16.1368638417689
30
0
41
1
10
0.446097874168828
20
-16.1829720290048
30
0
41
1
10
0.468569613737714
20
-16.2422053548892
30
0
41
1
10
0.473810837718929
20
-16.2590078955548
30
0
41
1
10
0.479858892984282
20
-16.2896129713519
30
0
41
1
10
0.480667866262479
20
-16.3038405651389
30
0
41
1
10
0.475758966214045
20
-16.3194862441535
30
0
41
1
10
0.472803933944476
20
-16.3238530196782
30
0
41
1
10
0.464176767662508
20
-16.3290094465438
30
0
41
1
10
0.45832982234225
20
-16.3297915085337
30
0
41
1
10
0.445334248679558
20
-16.3275336210466
30
0
41
1
10
0.438243093600732
20
-16.3248759927297
30
0
41
1
10
0.420736811112505
20
-16.3158480289951
30
0
41
1
10
0.409793715813919
20
-16.3083897229872
30
0
41
1
10
0.397487609997228
20
-16.2986868578721
30
0
41
1
10
0.396003365879579
20
-16.2974950972351
30
0
41
1
10
0.394519052838348
20
-16.2962828885272
30
0
0
SPLINE
5
363
100
AcDbEntity
8
1
62
256
6
ByLayer
370
-1
48
1
60
0
100
AcDbSpline
70
4
71
3
72
22
73
18
40
0
40
0
40
0
40
0
40
0.299363580156425
40
0.299363580156425
40
0.453915767108517
40
0.453915767108517
40
0.576207771096449
40
0.576207771096449
40
0.669692963969136
40
0.669692963969136
40
0.763865114712142
40
0.763865114712142
40
0.84915036902841
40
0.84915036902841
40
0.96714617985239
40
0.96714617985239
40
1
40
1
40
1
40
1
41
1
10
0.394519052838319
20
-17.8417232227021
30
0
41
1
10
0.418256336885037
20
-17.8744082986343
30
0
41
1
10
0.439649953514021
20
-17.9073632870322
30
0
41
1
10
0.463624123588119
20
-17.9524285851217
30
0
41
1
10
0.470428420787954
20
-17.9672289583493
30
0
41
1
10
0.47810293901847
20
-17.9902449697362
30
0
41
1
10
0.479951931740175
20
-17.9993794851626
30
0
41
1
10
0.479032525939175
20
-18.0114631806348
30
0
41
1
10
0.477199697014498
20
-18.0154401970101
30
0
41
1
10
0.470318232805027
20
-18.01961879863
30
0
41
1
10
0.465125505795214
20
-18.0198181329196
30
0
41
1
10
0.452829072031193
20
-18.0165150970173
30
0
41
1
10
0.445823135259189
20
-18.0133442836213
30
0
41
1
10
0.427913980857426
20
-18.0030824465562
30
0
41
1
10
0.416281382878793
20
-17.9948429972922
30
0
41
1
10
0.40120939848785
20
-17.9828891959178
30
0
41
1
10
0.397870522458106
20
-17.9801645198626
30
0
41
1
10
0.394519052838319
20
-17.977360486755
30
0
0
SPLINE
5
364
100
AcDbEntity
8
1
62
256
6
ByLayer
370
-1
48
1
60
0
100
AcDbSpline
70
4
71
3
72
16
73
12
40
0
40
0
40
0
40
0
40
0.239240341397397
40
0.239240341397397
40
0.477804325218527
40
0.477804325218527
40
0.726943687309934
40
0.726943687309934
40
0.900674414075191
40
0.900674414075191
40
1
40
1
40
1
40
1
41
1
10
10.0287307589835
20
5.46663322850929
30
0
41
1
10
10.0261859720067
20
5.5527827127037
30
0
41
1
10
10.0518705689045
20
5.64683487964896
30
0
41
1
10
10.1508229527785
20
5.8333767577742
30
0
41
1
10
10.2251800090395
20
5.92848492298319
30
0
41
1
10
10.4180970851728
20
6.10659170602148
30
0
41
1
10
10.5419615501143
20
6.19191145809273
30
0
41
1
10
10.7823605468023
20
6.30115786242004
30
0
41
1
10
10.8927074801683
20
6.33667838822444
30
0
41
1
10
11.072603910049
20
6.36818727493181
30
0
41
1
10
11.1404265886808
20
6.37474632601001
30
0
41
1
10
11.2080522650272
20
6.37583755518946
30
0
0
SPLINE
5
365
100
AcDbEntity
8
1
62
256
6
ByLayer
370
-1
48
1
60
0
100
AcDbSpline
70
4
71
3
72
8
73
4
40
0
40
0
40
0
40
0
40
1
40
1
40
1
40
1
41
1
10
0.394519052838319
20
-14.9165032325849
30
0
41
1
10
0.261110073250762
20
-14.6735448954387
30
0
41
1
10
0.12955220400724
20
-14.429216262006
30
0
41
1
10
0
20
-14.183490812332
30
0
0
SPLINE
5
366
100
AcDbEntity
8
1
62
256
6
ByLayer
370
-1
48
1
60
0
100
AcDbSpline
70
4
71
3
72
8
73
4
40
0
40
0
40
0
40
0
40
1
40
1
40
1
40
1
41
1
10
0.394519052838319
20
19.572781595349
30
0
41
1
10
0.262722134736862
20
19.4306801575146
30
0
41
1
10
0.131209869747579
20
19.2882257956237
30
0
41
1
10
0
20
19.1454018402203
30
0
0
SPLINE
5
367
100
AcDbEntity
8
1
62
256
6
ByLayer
370
-1
48
1
60
0
100
AcDbSpline
70
4
71
3
72
8
73
4
40
0
40
0
40
0
40
0
40
1
40
1
40
1
40
1
41
1
10
0.394519052838319
20
17.977360486755
30
0
41
1
10
0.262992539514613
20
17.8673178070594
30
0
41
1
10
0.131485811585407
20
17.7572435888389
30
0
41
1
10
0
20
17.6471360742617
30
0
0
SPLINE
5
368
100
AcDbEntity
8
1
62
256
6
ByLayer
370
-1
48
1
60
0
100
AcDbSpline
70
4
71
3
72
22
73
18
40
0
40
0
40
0
40
0
40
0.210679055338583
40
0.210679055338583
40
0.363680104554599
40
0.363680104554599
40
0.483752370949913
40
0.483752370949913
40
0.584755677908312
40
0.584755677908312
40
0.686031728860165
40
0.686031728860165
40
0.783963016705266
40
0.783963016705266
40
0.925663641799724
40
0.925663641799724
40
1
40
1
40
1
40
1
41
1
10
0.394519052838319
20
19.3300829388625
30
0
41
1
10
0.41212255554322
20
19.3500897407437
30
0
41
1
10
0.428689458905126
20
19.3697530532802
30
0
41
1
10
0.452747829989875
20
19.4003036933854
30
0
41
1
10
0.461670979408723
20
19.4123729195888
30
0
41
1
10
0.473329490273528
20
19.4302053177714
30
0
41
1
10
0.477060936996025
20
19.4369094135752
30
0
41
1
10
0.479978213610366
20
19.4454329106482
30
0
41
1
10
0.479791197946895
20
19.4479190748962
30
0
41
1
10
0.476020455554163
20
19.4492899825392
30
0
41
1
10
0.47237148480508
20
19.4481745515556
30
0
41
1
10
0.462507422169551
20
19.4428112994535
30
0
41
1
10
0.456287111711788
20
19.4386294607178
30
0
41
1
10
0.439226967436724
20
19.4259033781917
30
0
41
1
10
0.427315544760319
20
19.4160814831809
30
0
41
1
10
0.408261527110284
20
19.3995028932816
30
0
41
1
10
0.401442717627674
20
19.393420626065
30
0
41
1
10
0.394519052838319
20
19.3871212716832
30
0
0
SPLINE
5
369
100
AcDbEntity
8
1
62
256
6
ByLayer
370
-1
48
1
60
0
100
AcDbSpline
70
4
71
3
72
8
73
4
40
0
40
0
40
0
40
0
40
1
40
1
40
1
40
1
41
1
10
0
20
-7.92441869309681
30
0
41
1
10
0.122557944122832
20
-8.38066645202932
30
0
41
1
10
0.25434140223021
20
-8.83372695911297
30
0
41
1
10
0.394519052838319
20
-9.28315947401119
30
0
0
SPLINE
5
36A
100
AcDbEntity
8
1
62
256
6
ByLayer
370
-1
48
1
60
0
100
AcDbSpline
70
4
71
3
72
20
73
16
40
0
40
0
40
0
40
0
40
0.215744483256851
40
0.215744483256851
40
0.338701570710834
40
0.338701570710834
40
0.46321575312052
40
0.46321575312052
40
0.569270963802197
40
0.569270963802197
40
0.670103706586263
40
0.670103706586263
40
0.816047342310315
40
0.816047342310315
40
1
40
1
40
1
40
1
41
1
10
0.394519052838319
20
-19.709823065951
30
0
41
1
10
0.413447916421859
20
-19.7284265560034
30
0
41
1
10
0.431681270373929
20
-19.746189098272
30
0
41
1
10
0.454996713047819
20
-19.7684752727375
30
0
41
1
10
0.462534364086139
20
-19.7755666139487
30
0
41
1
10
0.473859966348044
20
-19.7858740690561
30
0
41
1
10
0.477721636108981
20
-19.7891444962885
30
0
41
1
10
0.480111060981045
20
-19.7903895009946
30
0
41
1
10
0.479369952617446
20
-19.7890875887818
30
0
41
1
10
0.474661217045394
20
-19.7833182228387
30
0
41
1
10
0.470823418304946
20
-19.778966626203
30
0
41
1
10
0.458879178753108
20
-19.7658537966699
30
0
41
1
10
0.449480077963273
20
-19.7558186596939
30
0
41
1
10
0.425776441786155
20
-19.7308789605063
30
0
41
1
10
0.410488140427759
20
-19.7150210740961
30
0
41
1
10
0.394519052838319
20
-19.6986154928503
30
0
0
SPLINE
5
36B
100
AcDbEntity
8
1
62
256
6
ByLayer
370
-1
48
1
60
0
100
AcDbSpline
70
4
71
3
72
24
73
20
40
0
40
0
40
0
40
0
40
0.0252288330299177
40
0.0252288330299177
40
0.0412277322175423
40
0.0412277322175423
40
0.0542747764023727
40
0.0542747764023727
40
0.0673534870437264
40
0.0673534870437264
40
0.0842678552739321
40
0.0842678552739321
40
0.113685294198215
40
0.113685294198215
40
0.20316582276179
40
0.20316582276179
40
0.560828843718351
40
0.560828843718351
40
1
40
1
40
1
40
1
41
1
10
0.394519052838319
20
-6.54042817881556
30
0
41
1
10
0.399583930810849
20
-6.54738125936842
30
0
41
1
10
0.405067199332677
20
-6.55395264446797
30
0
41
1
10
0.414738320051981
20
-6.56263646326018
30
0
41
1
10
0.418740276415946
20
-6.5655342072529
30
0
41
1
10
0.426105690234181
20
-6.56901599233203
30
0
41
1
10
0.429520094617232
20
-6.56993483394837
30
0
41
1
10
0.436005663187473
20
-6.57007979145712
30
0
41
1
10
0.439149571778785
20
-6.56930122141593
30
0
41
1
10
0.445590502192033
20
-6.56596634289443
30
0
41
1
10
0.448780379272677
20
-6.56295064938773
30
0
41
1
10
0.456219172991979
20
-6.55324744873246
30
0
41
1
10
0.459757107235475
20
-6.54539340875959
30
0
41
1
10
0.471233390621137
20
-6.51221066369003
30
0
41
1
10
0.474681766614623
20
-6.48285088107816
30
0
41
1
10
0.485664759910094
20
-6.33747674188595
30
0
41
1
10
0.474692141763597
20
-6.21255310511954
30
0
41
1
10
0.445669086549714
20
-5.93819212682806
30
0
41
1
10
0.422494396505016
20
-5.78552038110055
30
0
41
1
10
0.394519052838717
20
-5.63341609185618
30
0
0
SPLINE
5
36C
100
AcDbEntity
8
1
62
256
6
ByLayer
370
-1
48
1
60
0
100
AcDbSpline
70
4
71
3
72
8
73
4
40
0
40
0
40
0
40
0
40
1
40
1
40
1
40
1
41
1
10
0.394519052838319
20
-19.6986154928503
30
0
41
1
10
0.262787655213145
20
-19.5632833936142
30
0
41
1
10
0.131276854193146
20
-19.4276643880555
30
0
41
1
10
0
20
-19.2917446495518
30
0
0
SPLINE
5
36D
100
AcDbEntity
8
1
62
256
6
ByLayer
370
-1
48
1
60
0
100
AcDbSpline
70
4
71
3
72
22
73
18
40
0
40
0
40
0
40
0
40
0.172505560882079
40
0.172505560882079
40
0.297186762886172
40
0.297186762886172
40
0.402001062387786
40
0.402001062387786
40
0.507249591755267
40
0.507249591755267
40
0.606571665766546
40
0.606571665766546
40
0.745072521763331
40
0.745072521763331
40
0.937679274298472
40
0.937679274298472
40
1
40
1
40
1
40
1
41
1
10
0.394519052838319
20
19.6066008845751
30
0
41
1
10
0.410059323498217
20
19.6212680219466
30
0
41
1
10
0.425151937109206
20
19.6351541764503
30
0
41
1
10
0.447786494362617
20
19.6550641246958
30
0
41
1
10
0.456448278435317
20
19.6623555189091
30
0
41
1
10
0.468987372485003
20
19.6720296553174
30
0
41
1
10
0.473511646356769
20
19.6750805195121
30
0
41
1
10
0.479009654360539
20
19.6774970517971
30
0
41
1
10
0.480026806699613
20
19.6768641257725
30
0
41
1
10
0.478550353193469
20
19.6722584840326
30
0
41
1
10
0.476255647446578
20
19.6684434019461
30
0
41
1
10
0.467932133461801
20
19.6567153707543
30
0
41
1
10
0.460702109137827
20
19.6476345231385
30
0
41
1
10
0.440398223370153
20
19.6234481564787
30
0
41
1
10
0.425828992687883
20
19.6069754329105
30
0
41
1
10
0.405117946903942
20
19.5842557332814
30
0
41
1
10
0.399870897837559
20
19.5785518734436
30
0
41
1
10
0.394519052838319
20
19.572781595349
30
0
0
SPLINE
5
36E
100
AcDbEntity
8
1
62
256
6
ByLayer
370
-1
48
1
60
0
100
AcDbSpline
70
4
71
3
72
8
73
4
40
0
40
0
40
0
40
0
40
1
40
1
40
1
40
1
41
1
10
0
20
11.7066823491331
30
0
41
1
10
0.131389411454364
20
11.8239422884521
30
0
41
1
10
0.262899137267397
20
11.9410226641193
30
0
41
1
10
0.394519052838348
20
12.0579374210678
30
0
0
SPLINE
5
36F
100
AcDbEntity
8
1
62
256
6
ByLayer
370
-1
48
1
60
0
100
AcDbSpline
70
4
71
3
72
8
73
4
40
0
40
0
40
0
40
0
40
1
40
1
40
1
40
1
41
1
10
18.5373612540212
20
-18.6900036429706
30
0
41
1
10
18.6153637874138
20
-18.8448551937613
30
0
41
1
10
18.6923889630473
20
-18.995687358587
30
0
41
1
10
18.7683165521541
20
-19.1430467672578
30
0
0
SPLINE
5
370
100
AcDbEntity
8
1
62
256
6
ByLayer
370
-1
48
1
60
0
100
AcDbSpline
70
4
71
3
72
16
73
12
40
0
40
0
40
0
40
0
40
0.226289438372017
40
0.226289438372017
40
0.45299926640759
40
0.45299926640759
40
0.673127202743605
40
0.673127202743605
40
0.885001159218439
40
0.885001159218439
40
1
40
1
40
1
40
1
41
1
10
10.024248794443
20
-19.8267479342915
30
0
41
1
10
10.0218758006169
20
-19.8457028172247
30
0
41
1
10
10.0437599383569
20
-19.8633421816868
30
0
41
1
10
10.1339761236623
20
-19.8935483098134
30
0
41
1
10
10.2037564656985
20
-19.9065490989673
30
0
41
1
10
10.3795446476943
20
-19.9269554226555
30
0
41
1
10
10.487010412657
20
-19.9348356844543
30
0
41
1
10
10.7211225235118
20
-19.946020904213
30
0
41
1
10
10.8502051747084
20
-19.9496730153457
30
0
41
1
10
11.0549379587805
20
-19.9526876102881
30
0
41
1
10
11.1292660164754
20
-19.9532617022856
30
0
41
1
10
11.2033867562886
20
-19.9533513033184
30
0
0
SPLINE
5
371
100
AcDbEntity
8
1
62
256
6
ByLayer
370
-1
48
1
60
0
100
AcDbSpline
70
4
71
3
72
8
73
4
40
0
40
0
40
0
40
0
40
1
40
1
40
1
40
1
41
1
10
0
20
14.8423856446161
30
0
41
1
10
0.131501640983174
20
14.9502972007992
30
0
41
1
10
0.263008092457539
20
15.0582009412332
30
0
41
1
10
0.394519052838319
20
15.1660973535886
30
0
0
SPLINE
5
372
100
AcDbEntity
8
1
62
256
6
ByLayer
370
-1
48
1
60
0
100
AcDbSpline
70
4
71
3
72
8
73
4
40
0
40
0
40
0
40
0
40
1
40
1
40
1
40
1
41
1
10
0.394519052838319
20
16.0917289824197
30
0
41
1
10
0.261634896238689
20
15.87455214455
30
0
41
1
10
0.130093023525688
20
15.6562708260424
30
0
41
1
10
0
20
15.4368523871774
30
0
0
SPLINE
5
373
100
AcDbEntity
8
SK1
62
256
6
ByLayer
370
-1
48
1
60
0
100
AcDbSpline
70
4
71
3
72
16
73
12
40
0
40
0
40
0
40
0
40
0.211149623058203
40
0.211149623058203
40
0.42594831560744
40
0.42594831560744
40
0.621562080863177
40
0.621562080863177
40
0.814615131718166
40
0.814615131718166
40
1
40
1
40
1
40
1
41
1
10
-0.324519052838326
20
16.6784633080723
30
0
41
1
10
-0.324519052838326
20
16.6728280398634
30
0
41
1
10
-0.323426708403986
20
16.6680648537593
30
0
41
1
10
-0.318521005972968
20
16.6614849911426
30
0
41
1
10
-0.31455880361878
20
16.6596729133821
30
0
41
1
10
-0.304563128691598
20
16.6598066765478
30
0
41
1
10
-0.298625746186531
20
16.6614306467995
30
0
41
1
10
-0.285664426601556
20
16.6672033698362
30
0
41
1
10
-0.278524478665617
20
16.6713577152732
30
0
41
1
10
-0.264156666422281
20
16.6810793119385
30
0
41
1
10
-0.25683859486665
20
16.6866468865912
30
0
41
1
10
-0.249519052838338
20
16.6926741335383
30
0
0
SPLINE
5
374
100
AcDbEntity
8
SK1
62
256
6
ByLayer
370
-1
48
1
60
0
100
AcDbSpline
70
4
71
3
72
8
73
4
40
0
40
0
40
0
40
0
40
1
40
1
40
1
40
1
41
1
10
-0.249519052838338
20
16.6926741335383
30
0
41
1
10
-0.166348900140491
20
16.76116025562
30
0
41
1
10
-0.0831758476997777
20
16.8296416826295
30
0
41
1
10
0
20
16.8981185823602
30
0
0
SPLINE
5
375
100
AcDbEntity
8
SK1
62
256
6
ByLayer
370
-1
48
1
60
0
100
AcDbSpline
70
4
71
3
72
12
73
8
40
0
40
0
40
0
40
0
40
0.547982201163934
40
0.547982201163934
40
0.845853588693653
40
0.845853588693653
40
1
40
1
40
1
40
1
41
1
10
-0.249519052838338
20
16.9398705309347
30
0
41
1
10
-0.271270568203306
20
16.908876543003
30
0
41
1
10
-0.290644176716427
20
16.877498070952
30
0
41
1
10
-0.312225003099854
20
16.833464238582
30
0
41
1
10
-0.31836395283284
20
16.818445143655
30
0
41
1
10
-0.323501261087358
20
16.7987427364084
30
0
41
1
10
-0.324519052838326
20
16.7924907253144
30
0
41
1
10
-0.324519052838326
20
16.787151188174
30
0
0
SPLINE
5
376
100
AcDbEntity
8
SK1
62
256
6
ByLayer
370
-1
48
1
60
0
100
AcDbSpline
70
4
71
3
72
8
73
4
40
0
40
0
40
0
40
0
40
1
40
1
40
1
40
1
41
1
10
0
20
17.2929584404609
30
0
41
1
10
-0.0835139622307679
20
17.1755848207154
30
0
41
1
10
-0.166692173533136
20
17.0578915172672
30
0
41
1
10
-0.249519052838338
20
16.9398705309347
30
0
0
SPLINE
5
377
100
AcDbEntity
8
SK1
62
256
6
ByLayer
370
-1
48
1
60
0
100
AcDbSpline
70
4
71
3
72
12
73
8
40
0
40
0
40
0
40
0
40
0.264463236759315
40
0.264463236759315
40
0.622665857900503
40
0.622665857900503
40
1
40
1
40
1
40
1
41
1
10
-0.324519052838326
20
17.5001524600012
30
0
41
1
10
-0.324519052838326
20
17.5072972255263
30
0
41
1
10
-0.321624964649345
20
17.5171453539007
30
0
41
1
10
-0.310764903028144
20
17.5427734757379
30
0
41
1
10
-0.301233631961224
20
17.5598977037521
30
0
41
1
10
-0.278327850859085
20
17.5962059994125
30
0
41
1
10
-0.26448519955693
20
17.6159077300313
30
0
41
1
10
-0.249519052838338
20
17.6356568712878
30
0
0
SPLINE
5
378
100
AcDbEntity
8
SK1
62
256
6
ByLayer
370
-1
48
1
60
0
100
AcDbSpline
70
4
71
3
72
16
73
12
40
0
40
0
40
0
40
0
40
0.271287166541257
40
0.271287166541257
40
0.495849247911302
40
0.495849247911302
40
0.722496354028585
40
0.722496354028585
40
0.920757420964226
40
0.920757420964226
40
1
40
1
40
1
40
1
41
1
10
-0.249519052838338
20
17.4381246139465
30
0
41
1
10
-0.260087617632081
20
17.4292691316671
30
0
41
1
10
-0.270631215497218
20
17.4212069762917
30
0
41
1
10
-0.28835648275745
20
17.4096304521675
30
0
41
1
10
-0.295965814726003
20
17.4054879654697
30
0
41
1
10
-0.308812233682033
20
17.4006852458105
30
0
41
1
10
-0.314185683458874
20
17.4000256496255
30
0
41
1
10
-0.321100950955923
20
17.4023296699407
30
0
41
1
10
-0.32313629646319
20
17.4048592634195
30
0
41
1
10
-0.324351578837138
20
17.4099176102427
30
0
41
1
10
-0.324519052838326
20
17.4115519336131
30
0
41
1
10
-0.324519052838326
20
17.4133353269855
30
0
0
SPLINE
5
379
100
AcDbEntity
8
SK1
62
256
6
ByLayer
370
-1
48
1
60
0
100
AcDbSpline
70
4
71
3
72
8
73
4
40
0
40
0
40
0
40
0
40
1
40
1
40
1
40
1
41
1
10
-0.249519052838338
20
17.6356568712878
30
0
41
1
10
-0.166612124255238
20
17.7450598241335
30
0
41
1
10
-0.0834352757658792
20
17.8541907726337
30
0
41
1
10
0
20
17.9630568563235
30
0
0
SPLINE
5
37A
100
AcDbEntity
8
SK1
62
256
6
ByLayer
370
-1
48
1
60
0
100
AcDbSpline
70
4
71
3
72
8
73
4
40
0
40
0
40
0
40
0
40
1
40
1
40
1
40
1
41
1
10
0
20
17.6471360742617
30
0
41
1
10
-0.0831814897333629
20
17.5774790749024
30
0
41
1
10
-0.166354608804397
20
17.507808745594
30
0
41
1
10
-0.249519052838338
20
17.4381246139465
30
0
0
SPLINE
5
37B
100
AcDbEntity
8
SK1
62
256
6
ByLayer
370
-1
48
1
60
0
100
AcDbSpline
70
4
71
3
72
8
73
4
40
0
40
0
40
0
40
0
40
1
40
1
40
1
40
1
41
1
10
-0.249519052838338
20
-18.181682346768
30
0
41
1
10
-0.16655242241734
20
-18.2839243209088
30
0
41
1
10
-0.083376546037556
20
-18.3859403967323
30
0
41
1
10
0
20
-18.4877367901945
30
0
0
SPLINE
5
37C
100
AcDbEntity
8
SK1
62
256
6
ByLayer
370
-1
48
1
60
0
100
AcDbSpline
70
4
71
3
72
8
73
4
40
0
40
0
40
0
40
0
40
1
40
1
40
1
40
1
41
1
10
0
20
-18.2427084508718
30
0
41
1
10
-0.0831894147874266
20
-18.1713699316054
30
0
41
1
10
-0.166362626497147
20
-18.1000062119281
30
0
41
1
10
-0.249519052838338
20
-18.0286164298471
30
0
0
SPLINE
5
37D
100
AcDbEntity
8
SK1
62
256
6
ByLayer
370
-1
48
1
60
0
100
AcDbSpline
70
4
71
3
72
16
73
12
40
0
40
0
40
0
40
0
40
0.294252714393228
40
0.294252714393228
40
0.529898215766517
40
0.529898215766517
40
0.767965977116175
40
0.767965977116175
40
0.973600455338375
40
0.973600455338375
40
1
40
1
40
1
40
1
41
1
10
-0.249519052838338
20
-18.0286164298471
30
0
41
1
10
-0.260923587708845
20
-18.018825638023
30
0
41
1
10
-0.272223717922031
20
-18.0098251146612
30
0
41
1
10
-0.290679810990809
20
-17.9968972347042
30
0
41
1
10
-0.298377115552597
20
-17.9922197116286
30
0
41
1
10
-0.311145567526211
20
-17.9863871625771
30
0
41
1
10
-0.316346496481771
20
-17.9852237644193
30
0
41
1
10
-0.322566393250241
20
-17.986801178794
30
0
41
1
10
-0.324146381287477
20
-17.9890373581814
30
0
41
1
10
-0.324499025888883
20
-17.9928736424809
30
0
41
1
10
-0.324519052840685
20
-17.9933346587517
30
0
41
1
10
-0.324519052840685
20
-17.993814384429
30
0
0
SPLINE
5
37E
100
AcDbEntity
8
SK1
62
256
6
ByLayer
370
-1
48
1
60
0
100
AcDbSpline
70
4
71
3
72
12
73
8
40
0
40
0
40
0
40
0
40
0.253641376617096
40
0.253641376617096
40
0.58074340677927
40
0.58074340677927
40
1
40
1
40
1
40
1
41
1
10
-0.324519052838326
20
-18.0610693822919
30
0
41
1
10
-0.324519052838326
20
-18.0662979442687
30
0
41
1
10
-0.321895408668212
20
-18.07405155422
30
0
41
1
10
-0.31208082273875
20
-18.0944701761884
30
0
41
1
10
-0.303683047257039
20
-18.1082450563928
30
0
41
1
10
-0.281272710505931
20
-18.1412100687847
30
0
41
1
10
-0.265995960588612
20
-18.1613774173334
30
0
41
1
10
-0.249519052838338
20
-18.181682346768
30
0
0
SPLINE
5
37F
100
AcDbEntity
8
SK1
62
256
6
ByLayer
370
-1
48
1
60
0
100
AcDbSpline
70
4
71
3
72
12
73
8
40
0
40
0
40
0
40
0
40
0.484360704776294
40
0.484360704776294
40
0.758944015301489
40
0.758944015301489
40
1
40
1
40
1
40
1
41
1
10
-0.249519052838338
20
18.181682346768
30
0
41
1
10
-0.268486304763485
20
18.1583085003069
30
0
41
1
10
-0.285941951223037
20
18.1350199861427
30
0
41
1
10
-0.307182540152667
20
18.1024469830297
30
0
41
1
10
-0.313746593133686
20
18.0912263791263
30
0
41
1
10
-0.322144505375832
20
18.0733092758655
30
0
41
1
10
-0.324519052838326
20
18.0660466306376
30
0
41
1
10
-0.324519052838326
20
18.0610693822919
30
0
0
SPLINE
5
380
100
AcDbEntity
8
SK1
62
256
6
ByLayer
370
-1
48
1
60
0
100
AcDbSpline
70
4
71
3
72
8
73
4
40
0
40
0
40
0
40
0
40
1
40
1
40
1
40
1
41
1
10
0
20
18.4877367901945
30
0
41
1
10
-0.083376546037556
20
18.3859403967323
30
0
41
1
10
-0.16655242241734
20
18.2839243209088
30
0
41
1
10
-0.249519052838338
20
18.181682346768
30
0
0
SPLINE
5
381
100
AcDbEntity
8
SK1
62
256
6
ByLayer
370
-1
48
1
60
0
100
AcDbSpline
70
4
71
3
72
16
73
12
40
0
40
0
40
0
40
0
40
0.210224895571941
40
0.210224895571941
40
0.422611356221281
40
0.422611356221281
40
0.625869325623
40
0.625869325623
40
0.913852544759781
40
0.913852544759781
40
1
40
1
40
1
40
1
41
1
10
-0.324519052838326
20
17.9938143844313
30
0
41
1
10
-0.324519052838326
20
17.9900475966146
30
0
41
1
10
-0.323236918855798
20
17.9874282966573
30
0
41
1
10
-0.317891789879042
20
17.9852817286343
30
0
41
1
10
-0.313719154277408
20
17.9857737563884
30
0
41
1
10
-0.303426245198977
20
17.9896516272587
30
0
41
1
10
-0.297292975915326
20
17.9929378899092
30
0
41
1
10
-0.281207039541584
20
18.003180592669
30
0
41
1
10
-0.270488816608804
20
18.0112186764518
30
0
41
1
10
-0.256237488845812
20
18.0229090274812
30
0
41
1
10
-0.252888711364932
20
18.0257235784045
30
0
41
1
10
-0.249519052838338
20
18.0286164298472
30
0
0
SPLINE
5
382
100
AcDbEntity
8
SK1
62
256
6
ByLayer
370
-1
48
1
60
0
100
AcDbSpline
70
4
71
3
72
8
73
4
40
0
40
0
40
0
40
0
40
1
40
1
40
1
40
1
41
1
10
-0.249519052838338
20
18.0286164298472
30
0
41
1
10
-0.166362626497147
20
18.1000062119281
30
0
41
1
10
-0.0831894147874266
20
18.1713699316054
30
0
41
1
10
0
20
18.2427084508718
30
0
0
SPLINE
5
383
100
AcDbEntity
8
SK1
62
256
6
ByLayer
370
-1
48
1
60
0
100
AcDbSpline
70
4
71
3
72
8
73
4
40
0
40
0
40
0
40
0
40
1
40
1
40
1
40
1
41
1
10
-0.249519052838338
20
18.5911471576056
30
0
41
1
10
-0.166506688858249
20
18.6873254601423
30
0
41
1
10
-0.0833315242048229
20
18.7833167506412
30
0
41
1
10
0
20
18.8791263469343
30
0
0
SPLINE
5
384
100
AcDbEntity
8
SK1
62
256
6
ByLayer
370
-1
48
1
60
0
100
AcDbSpline
70
4
71
3
72
8
73
4
40
0
40
0
40
0
40
0
40
1
40
1
40
1
40
1
41
1
10
0
20
18.6995029779807
30
0
41
1
10
-0.0831995072585414
20
18.6260454864902
30
0
41
1
10
-0.166372838435052
20
18.5525484468556
30
0
41
1
10
-0.249519052838338
20
18.4790105443333
30
0
0
SPLINE
5
385
100
AcDbEntity
8
SK1
62
256
6
ByLayer
370
-1
48
1
60
0
100
AcDbSpline
70
4
71
3
72
14
73
10
40
0
40
0
40
0
40
0
40
0.316895144360519
40
0.316895144360519
40
0.562168438036201
40
0.562168438036201
40
0.810227665569687
40
0.810227665569687
40
1
40
1
40
1
40
1
41
1
10
-0.249519052838338
20
18.4790105443333
30
0
41
1
10
-0.261758456916198
20
18.4681855162732
30
0
41
1
10
-0.273801280056034
20
18.4581311775523
30
0
41
1
10
-0.292898155610345
20
18.4436785214857
30
0
41
1
10
-0.300630418859043
20
18.4384045914485
30
0
41
1
10
-0.313225525760458
20
18.4314029039591
30
0
41
1
10
-0.318209284397199
20
18.4296548339051
30
0
41
1
10
-0.323400842601245
20
18.4303455145907
30
0
41
1
10
-0.324519052838326
20
18.4318962207165
30
0
41
1
10
-0.324519052838326
20
18.4344911780253
30
0
0
SPLINE
5
386
100
AcDbEntity
8
SK1
62
256
6
ByLayer
370
-1
48
1
60
0
100
AcDbSpline
70
4
71
3
72
12
73
8
40
0
40
0
40
0
40
0
40
0.244382081688521
40
0.244382081688521
40
0.545489326418063
40
0.545489326418063
40
1
40
1
40
1
40
1
41
1
10
-0.324519052838326
20
18.4837528208056
30
0
41
1
10
-0.324519052838326
20
18.4873744367385
30
0
41
1
10
-0.322128618712242
20
18.4933432827467
30
0
41
1
10
-0.313183882397595
20
18.5095109152339
30
0
41
1
10
-0.305704760138468
20
18.5206052291406
30
0
41
1
10
-0.28374770105026
20
18.5503630366426
30
0
41
1
10
-0.267231283716455
20
18.5706257290097
30
0
41
1
10
-0.249519052838338
20
18.5911471576056
30
0
0
SPLINE
5
387
100
AcDbEntity
8
SK1
62
256
6
ByLayer
370
-1
48
1
60
0
100
AcDbSpline
70
4
71
3
72
22
73
18
40
0
40
0
40
0
40
0
40
0.0856174634481561
40
0.0856174634481561
40
0.134825029442243
40
0.134825029442243
40
0.174527146179651
40
0.174527146179651
40
0.214477434778859
40
0.214477434778859
40
0.261551162214559
40
0.261551162214559
40
0.340810854424602
40
0.340810854424602
40
0.577132586944293
40
0.577132586944293
40
1
40
1
40
1
40
1
41
1
10
-0.249519052838338
20
-5.61145683315186
30
0
41
1
10
-0.253798716498892
20
-5.60493653117052
30
0
41
1
10
-0.258449695359957
20
-5.5987002268925
30
0
41
1
10
-0.266520083320302
20
-5.59059483615645
30
0
41
1
10
-0.269677491386176
20
-5.58796821863443
30
0
41
1
10
-0.2755695212837
20
-5.58457740664718
30
0
41
1
10
-0.278323684911072
20
-5.583542252656
30
0
41
1
10
-0.283666175074785
20
-5.58287503764208
30
0
41
1
10
-0.286316303058072
20
-5.58325414631425
30
0
41
1
10
-0.291520597236769
20
-5.58542279538239
30
0
41
1
10
-0.29406097905732
20
-5.58744936764259
30
0
41
1
10
-0.299958132475013
20
-5.5940339804104
30
0
41
1
10
-0.302866290294219
20
-5.59942932034254
30
0
41
1
10
-0.312410070826701
20
-5.62209996439327
30
0
41
1
10
-0.315974274426225
20
-5.64238315515723
30
0
41
1
10
-0.323309536962483
20
-5.69892560251589
30
0
41
1
10
-0.324519052838326
20
-5.73700047251158
30
0
41
1
10
-0.324519052838326
20
-5.77516103418449
30
0
0
SPLINE
5
388
100
AcDbEntity
8
SK1
62
256
6
ByLayer
370
-1
48
1
60
0
100
AcDbSpline
70
4
71
3
72
8
73
4
40
0
40
0
40
0
40
0
40
1
40
1
40
1
40
1
41
1
10
0
20
7.92441869309681
30
0
41
1
10
-0.0880009987361632
20
7.5968164414063
30
0
41
1
10
-0.171274600487806
20
7.2674660296901
30
0
41
1
10
-0.249519052838366
20
6.93657952761939
30
0
0
SPLINE
5
389
100
AcDbEntity
8
SK1
62
256
6
ByLayer
370
-1
48
1
60
0
100
AcDbSpline
70
4
71
3
72
10
73
6
40
0
40
0
40
0
40
0
40
0.51612089783664
40
0.51612089783664
40
1
40
1
40
1
40
1
41
1
10
-0.324519052838326
20
-6.37393899896699
30
0
41
1
10
-0.324519052838326
20
-6.46848413226296
30
0
41
1
10
-0.314804489987182
20
-6.56605508744215
30
0
41
1
10
-0.288139098852241
20
-6.75418772188657
30
0
41
1
10
-0.271010764248047
20
-6.84569363094244
30
0
41
1
10
-0.249519052838338
20
-6.93657952761937
30
0
0
SPLINE
5
38A
100
AcDbEntity
8
SK1
62
256
6
ByLayer
370
-1
48
1
60
0
100
AcDbSpline
70
4
71
3
72
8
73
4
40
0
40
0
40
0
40
0
40
1
40
1
40
1
40
1
41
1
10
-0.249519052838338
20
5.61145683315186
30
0
41
1
10
-0.167536471258103
20
5.73636178632353
30
0
41
1
10
-0.0843116200382781
20
5.86018989155255
30
0
41
1
10
0
20
5.98301024765146
30
0
0
SPLINE
5
38B
100
AcDbEntity
8
SK1
62
256
6
ByLayer
370
-1
48
1
60
0
100
AcDbSpline
70
4
71
3
72
8
73
4
40
0
40
0
40
0
40
0
40
1
40
1
40
1
40
1
41
1
10
-0.249519052838366
20
-6.93657952761939
30
0
41
1
10
-0.171274600487806
20
-7.2674660296901
30
0
41
1
10
-0.0880009987361632
20
-7.59681644140632
30
0
41
1
10
0
20
-7.92441869309681
30
0
0
SPLINE
5
38C
100
AcDbEntity
8
SK1
62
256
6
ByLayer
370
-1
48
1
60
0
100
AcDbSpline
70
4
71
3
72
8
73
4
40
0
40
0
40
0
40
0
40
1
40
1
40
1
40
1
41
1
10
0
20
-5.98301024765146
30
0
41
1
10
-0.0843116200382781
20
-5.86018989155255
30
0
41
1
10
-0.167536471258103
20
-5.73636178632354
30
0
41
1
10
-0.249519052838338
20
-5.61145683315186
30
0
0
SPLINE
5
38D
100
AcDbEntity
8
SK1
62
256
6
ByLayer
370
-1
48
1
60
0
100
AcDbSpline
70
4
71
3
72
24
73
20
40
0
40
0
40
0
40
0
40
0.403503335254803
40
0.403503335254803
40
0.606711906865478
40
0.606711906865478
40
0.676515638214978
40
0.676515638214978
40
0.747118092000871
40
0.747118092000871
40
0.788567893742621
40
0.788567893742621
40
0.830538706496999
40
0.830538706496999
40
0.867732737396276
40
0.867732737396276
40
0.927484719514768
40
0.927484719514768
40
1
40
1
40
1
40
1
41
1
10
-0.324519052838326
20
5.77516103418449
30
0
41
1
10
-0.324519052838326
20
5.73867453764595
30
0
41
1
10
-0.323379330325082
20
5.70230504651735
30
0
41
1
10
-0.317094816541413
20
5.64986850688985
30
0
41
1
10
-0.314245184388796
20
5.63248269647693
30
0
41
1
10
-0.307731450287548
20
5.61123082253584
30
0
41
1
10
-0.305799099762027
20
5.60595567847204
30
0
41
1
10
-0.30110247853267
20
5.59626380188212
30
0
41
1
10
-0.298288183110458
20
5.59175561188735
30
0
41
1
10
-0.292778362914078
20
5.58643594655018
30
0
41
1
10
-0.290462694549774
20
5.58485485836476
30
0
41
1
10
-0.285410952440032
20
5.58305045672094
30
0
41
1
10
-0.282597900576007
20
5.58284693597045
30
0
41
1
10
-0.277288613949196
20
5.58389902383405
30
0
41
1
10
-0.274736107865152
20
5.58498818736919
30
0
41
1
10
-0.268384586562519
20
5.5888497908536
30
0
41
1
10
-0.264646061622813
20
5.59225991710198
30
0
41
1
10
-0.257005229928069
20
5.60067036363165
30
0
41
1
10
-0.253133915202227
20
5.60594939235674
30
0
41
1
10
-0.249519052838338
20
5.61145683315186
30
0
0
SPLINE
5
38E
100
AcDbEntity
8
SK1
62
256
6
ByLayer
370
-1
48
1
60
0
100
AcDbSpline
70
4
71
3
72
10
73
6
40
0
40
0
40
0
40
0
40
0.513375337451243
40
0.513375337451243
40
1
40
1
40
1
40
1
41
1
10
-0.249519052838338
20
6.93657952761939
30
0
41
1
10
-0.272315306293393
20
6.84017687747019
30
0
41
1
10
-0.29023253751842
20
6.74306482713487
30
0
41
1
10
-0.315788365312358
20
6.55499292611643
30
0
41
1
10
-0.324519052838326
20
6.46310244771587
30
0
41
1
10
-0.324519052838326
20
6.37393899896699
30
0
0
SPLINE
5
38F
100
AcDbEntity
8
SK1
62
256
6
ByLayer
370
-1
48
1
60
0
100
AcDbSpline
70
4
71
3
72
8
73
4
40
0
40
0
40
0
40
0
40
1
40
1
40
1
40
1
41
1
10
0
20
-10.6499489023893
30
0
41
1
10
-0.0853229403857085
20
-10.4205429189484
30
0
41
1
10
-0.168538126347244
20
-10.1900748976197
30
0
41
1
10
-0.249519052838338
20
-9.95857998009566
30
0
0
SPLINE
5
390
100
AcDbEntity
8
SK1
62
256
6
ByLayer
370
-1
48
1
60
0
100
AcDbSpline
70
4
71
3
72
10
73
6
40
0
40
0
40
0
40
0
40
0.552682639196674
40
0.552682639196674
40
1
40
1
40
1
40
1
41
1
10
-0.324519052838326
20
9.59551923927148
30
0
41
1
10
-0.324519052838326
20
9.65818243950838
30
0
41
1
10
-0.31298851795168
20
9.72645273607179
30
0
41
1
10
-0.284745961794215
20
9.84854031294879
30
0
41
1
10
-0.268671396765569
20
9.90383041782292
30
0
41
1
10
-0.249519052838338
20
9.95857998009566
30
0
0
SPLINE
5
391
100
AcDbEntity
8
SK1
62
256
6
ByLayer
370
-1
48
1
60
0
100
AcDbSpline
70
4
71
3
72
8
73
4
40
0
40
0
40
0
40
0
40
1
40
1
40
1
40
1
41
1
10
0
20
9.41654987898986
30
0
41
1
10
-0.0833526587894937
20
9.33173506323269
30
0
41
1
10
-0.166530386803458
20
9.24669039428301
30
0
41
1
10
-0.249519052838338
20
9.16140099075224
30
0
0
SPLINE
5
392
100
AcDbEntity
8
SK1
62
256
6
ByLayer
370
-1
48
1
60
0
100
AcDbSpline
70
4
71
3
72
20
73
16
40
0
40
0
40
0
40
0
40
0.129391398627121
40
0.129391398627121
40
0.220458200384517
40
0.220458200384517
40
0.312379509132678
40
0.312379509132678
40
0.394769845010268
40
0.394769845010268
40
0.533954665856946
40
0.533954665856946
40
0.802759335600818
40
0.802759335600818
40
1
40
1
40
1
40
1
41
1
10
-0.249519052838309
20
9.16140099075224
30
0
41
1
10
-0.255362040070764
20
9.15539601537785
30
0
41
1
10
-0.26158530331864
20
9.14995408544223
30
0
41
1
10
-0.272397150019259
20
9.14315542354134
30
0
41
1
10
-0.277015653486984
20
9.14104445330935
30
0
41
1
10
-0.285864724264968
20
9.13904191818955
30
0
41
1
10
-0.290199085765948
20
9.13917353773411
30
0
41
1
10
-0.297427390436127
20
9.14151478857605
30
0
41
1
10
-0.300513117526208
20
9.14350839566708
30
0
41
1
10
-0.307648911384433
20
9.15037575216957
30
0
41
1
10
-0.311079358948092
20
9.15633702430398
30
0
41
1
10
-0.318874261048876
20
9.17550517435612
30
0
41
1
10
-0.321502736864034
20
9.19062343783872
30
0
41
1
10
-0.324080154367181
20
9.21760140429069
30
0
41
1
10
-0.324519052838326
20
9.22946789997459
30
0
41
1
10
-0.324519052838326
20
9.24151469522658
30
0
0
SPLINE
5
393
100
AcDbEntity
8
SK1
62
256
6
ByLayer
370
-1
48
1
60
0
100
AcDbSpline
70
4
71
3
72
8
73
4
40
0
40
0
40
0
40
0
40
1
40
1
40
1
40
1
41
1
10
-0.249519052838338
20
9.95857998009566
30
0
41
1
10
-0.168538126347244
20
10.1900748976197
30
0
41
1
10
-0.0853229403857085
20
10.4205429189484
30
0
41
1
10
0
20
10.6499489023893
30
0
0
SPLINE
5
394
100
AcDbEntity
8
SK1
62
256
6
ByLayer
370
-1
48
1
60
0
100
AcDbSpline
70
4
71
3
72
20
73
16
40
0
40
0
40
0
40
0
40
0.385406985191178
40
0.385406985191178
40
0.579616154909684
40
0.579616154909684
40
0.671848246021603
40
0.671848246021603
40
0.76524764880691
40
0.76524764880691
40
0.84851143696937
40
0.84851143696937
40
0.971663017794213
40
0.971663017794213
40
1
40
1
40
1
40
1
41
1
10
-0.324519052838326
20
-9.24151469522658
30
0
41
1
10
-0.324519052838326
20
-9.21814827719885
30
0
41
1
10
-0.32305425626214
20
-9.19503803794194
30
0
41
1
10
-0.315092437748234
20
-9.16504459765713
30
0
41
1
10
-0.311326104686998
20
-9.15557781466973
30
0
41
1
10
-0.302956414001983
20
-9.14549610651345
30
0
41
1
10
-0.299741503737749
20
-9.14282351615424
30
0
41
1
10
-0.292368279739037
20
-9.13955644084855
30
0
41
1
10
-0.288086393789286
20
-9.13898493962385
30
0
41
1
10
-0.27963901652609
20
-9.14021746380293
30
0
41
1
10
-0.275421117819008
20
-9.14176754777201
30
0
41
1
10
-0.265204329535152
20
-9.14728600941044
30
0
41
1
10
-0.259144614642707
20
-9.15208597074678
30
0
41
1
10
-0.252125062080978
20
-9.1587697932906
30
0
41
1
10
-0.250814811624679
20
-9.16006930897824
30
0
41
1
10
-0.249519052838963
20
-9.16140099075159
30
0
0
SPLINE
5
395
100
AcDbEntity
8
SK1
62
256
6
ByLayer
370
-1
48
1
60
0
100
AcDbSpline
70
4
71
3
72
8
73
4
40
0
40
0
40
0
40
0
40
1
40
1
40
1
40
1
41
1
10
-0.249519052838963
20
-9.16140099075159
30
0
41
1
10
-0.166530386803885
20
-9.24669039428258
30
0
41
1
10
-0.0833526587897211
20
-9.33173506323246
30
0
41
1
10
0
20
-9.41654987898986
30
0
0
SPLINE
5
396
100
AcDbEntity
8
SK1
62
256
6
ByLayer
370
-1
48
1
60
0
100
AcDbSpline
70
4
71
3
72
10
73
6
40
0
40
0
40
0
40
0
40
0.768045832176213
40
0.768045832176213
40
1
40
1
40
1
40
1
41
1
10
-0.249519052838338
20
-9.95857998009566
30
0
41
1
10
-0.282220574569095
20
-9.86509826280752
30
0
41
1
10
-0.30695605067865
20
-9.76924729934063
30
0
41
1
10
-0.322219142887974
20
-9.64976843816068
30
0
41
1
10
-0.324519052838326
20
-9.622064957834
30
0
41
1
10
-0.324519052838326
20
-9.59551923927148
30
0
0
SPLINE
5
397
100
AcDbEntity
8
SK1
62
256
6
ByLayer
370
-1
48
1
60
0
100
AcDbSpline
70
4
71
3
72
8
73
4
40
0
40
0
40
0
40
0
40
1
40
1
40
1
40
1
41
1
10
0
20
-14.183490812332
30
0
41
1
10
-0.0840281136433134
20
-14.0241122346499
30
0
41
1
10
-0.167216153527676
20
-13.8641387078905
30
0
41
1
10
-0.249519052838338
20
-13.7035643018125
30
0
0
SPLINE
5
398
100
AcDbEntity
8
SK1
62
256
6
ByLayer
370
-1
48
1
60
0
100
AcDbSpline
70
4
71
3
72
8
73
4
40
0
40
0
40
0
40
0
40
1
40
1
40
1
40
1
41
1
10
-0.314905718354424
20
11.870468492407
30
0
41
1
10
-0.320551432226068
20
11.9106311774575
30
0
41
1
10
-0.324519052838355
20
11.9503615377857
30
0
41
1
10
-0.324519052838326
20
11.9878176024207
30
0
0
SPLINE
5
399
100
AcDbEntity
8
SK1
62
256
6
ByLayer
370
-1
48
1
60
0
100
AcDbSpline
70
4
71
3
72
18
73
14
40
0
40
0
40
0
40
0
40
0.169247904249822
40
0.169247904249822
40
0.342555548337606
40
0.342555548337606
40
0.500577267541833
40
0.500577267541833
40
0.642414387875974
40
0.642414387875974
40
0.879948043499346
40
0.879948043499346
40
1
40
1
40
1
40
1
41
1
10
-0.249519052838338
20
13.2407291626788
30
0
41
1
10
-0.256523342066231
20
13.2348322155265
30
0
41
1
10
-0.263718898509694
20
13.229564385463
30
0
41
1
10
-0.27790100621624
20
13.2214327771424
30
0
41
1
10
-0.285061655336875
20
13.2185685046563
30
0
41
1
10
-0.297217913654578
20
13.2167282477592
30
0
41
1
10
-0.302495198082056
20
13.2174295348524
30
0
41
1
10
-0.310628666182652
20
13.2214452940038
30
0
41
1
10
-0.313787913507269
20
13.2244988947863
30
0
41
1
10
-0.320334718871123
20
13.234578634272
30
0
41
1
10
-0.322631157732815
20
13.2429990984549
30
0
41
1
10
-0.324272134418209
20
13.2568957746325
30
0
41
1
10
-0.324519052838326
20
13.2618399062863
30
0
41
1
10
-0.324519052838326
20
13.2669443220638
30
0
0
SPLINE
5
39A
100
AcDbEntity
8
SK1
62
256
6
ByLayer
370
-1
48
1
60
0
100
AcDbSpline
70
4
71
3
72
8
73
4
40
0
40
0
40
0
40
0
40
1
40
1
40
1
40
1
41
1
10
-0.249519052838338
20
-13.2407291626788
30
0
41
1
10
-0.166359434825864
20
-13.3107416731093
30
0
41
1
10
-0.0831862082839905
20
-13.380732636207
30
0
41
1
10
0
20
-13.4507030159581
30
0
0
SPLINE
5
39B
100
AcDbEntity
8
SK1
62
256
6
ByLayer
370
-1
48
1
60
0
100
AcDbSpline
70
4
71
3
72
10
73
6
40
0
40
0
40
0
40
0
40
0.341349123091376
40
0.341349123091376
40
1
40
1
40
1
40
1
41
1
10
-0.324519052838326
20
13.4709974273838
30
0
41
1
10
-0.324519052838326
20
13.4935735308694
30
0
41
1
10
-0.319632073347577
20
13.5196269639021
30
0
41
1
10
-0.298930169003057
20
13.596569945203
30
0
41
1
10
-0.276571866160452
20
13.6507837865654
30
0
41
1
10
-0.249519052838338
20
13.7035643018125
30
0
0
SPLINE
5
39C
100
AcDbEntity
8
SK1
62
256
6
ByLayer
370
-1
48
1
60
0
100
AcDbSpline
70
4
71
3
72
10
73
6
40
0
40
0
40
0
40
0
40
0.662657911971726
40
0.662657911971726
40
1
40
1
40
1
40
1
41
1
10
-0.249519052838338
20
-13.7035643018125
30
0
41
1
10
-0.276732417370795
20
-13.6504705483264
30
0
41
1
10
-0.299206461546106
20
-13.5959134000062
30
0
41
1
10
-0.319738815083696
20
-13.5190351780072
30
0
41
1
10
-0.324519052838326
20
-13.4933149479983
30
0
41
1
10
-0.324519052838326
20
-13.4709974273838
30
0
0
SPLINE
5
39D
100
AcDbEntity
8
SK1
62
256
6
ByLayer
370
-1
48
1
60
0
100
AcDbSpline
70
4
71
3
72
8
73
4
40
0
40
0
40
0
40
0
40
1
40
1
40
1
40
1
41
1
10
0
20
13.4507030159581
30
0
41
1
10
-0.0831862082840189
20
13.380732636207
30
0
41
1
10
-0.166359434825864
20
13.3107416731093
30
0
41
1
10
-0.249519052838338
20
13.2407291626788
30
0
0
SPLINE
5
39E
100
AcDbEntity
8
SK1
62
256
6
ByLayer
370
-1
48
1
60
0
100
AcDbSpline
70
4
71
3
72
8
73
4
40
0
40
0
40
0
40
0
40
1
40
1
40
1
40
1
41
1
10
-0.324519052838326
20
-11.9878176024207
30
0
41
1
10
-0.324519052838326
20
-11.9525372444424
30
0
41
1
10
-0.321217151674375
20
-11.9153956448563
30
0
41
1
10
-0.316083863445073
20
-11.8775276898427
30
0
0
SPLINE
5
39F
100
AcDbEntity
8
SK1
62
256
6
ByLayer
370
-1
48
1
60
0
100
AcDbSpline
70
4
71
3
72
18
73
14
40
0
40
0
40
0
40
0
40
0.25766559186793
40
0.25766559186793
40
0.442636803225034
40
0.442636803225034
40
0.590466321133836
40
0.590466321133836
40
0.738820296478184
40
0.738820296478184
40
0.88163858359393
40
0.88163858359393
40
1
40
1
40
1
40
1
41
1
10
-0.324519052838326
20
-13.2669443220638
30
0
41
1
10
-0.324519052838326
20
-13.2560769005284
30
0
41
1
10
-0.323411955597265
20
-13.2458223023132
30
0
41
1
10
-0.318453698673636
20
-13.2312497625183
30
0
41
1
10
-0.315391962062449
20
-13.2259872468159
30
0
41
1
10
-0.307740395707668
20
-13.2195459723056
30
0
41
1
10
-0.303482884406861
20
-13.2177332297189
30
0
41
1
10
-0.293680306675697
20
-13.2169063642198
30
0
41
1
10
-0.28800734034823
20
-13.2179014108895
30
0
41
1
10
-0.276412927178654
20
-13.2222281571865
30
0
41
1
10
-0.27038952240639
20
-13.2254905906541
30
0
41
1
10
-0.259443145393305
20
-13.2327617174657
30
0
41
1
10
-0.254442441863119
20
-13.2365841361179
30
0
41
1
10
-0.249519052838338
20
-13.2407291626788
30
0
0
SPLINE
5
3A0
100
AcDbEntity
8
SK1
62
256
6
ByLayer
370
-1
48
1
60
0
100
AcDbSpline
70
4
71
3
72
8
73
4
40
0
40
0
40
0
40
0
40
1
40
1
40
1
40
1
41
1
10
-0.249519052838338
20
13.7035643018125
30
0
41
1
10
-0.167216153527676
20
13.8641387078905
30
0
41
1
10
-0.0840281136433134
20
14.0241122346499
30
0
41
1
10
0
20
14.183490812332
30
0
0
SPLINE
5
3A1
100
AcDbEntity
8
SK1
62
256
6
ByLayer
370
-1
48
1
60
0
100
AcDbSpline
70
4
71
3
72
8
73
4
40
0
40
0
40
0
40
0
40
1
40
1
40
1
40
1
41
1
10
0
20
19.1454018402203
30
0
41
1
10
-0.0832962738564049
20
19.0547325687286
30
0
41
1
10
-0.166470906512473
20
18.9639140498514
30
0
41
1
10
-0.249519052838338
20
18.8729418033523
30
0
0
SPLINE
5
3A2
100
AcDbEntity
8
SK1
62
256
6
ByLayer
370
-1
48
1
60
0
100
AcDbSpline
70
4
71
3
72
14
73
10
40
0
40
0
40
0
40
0
40
0.407876602330535
40
0.407876602330535
40
0.691435932390086
40
0.691435932390086
40
0.915731781658023
40
0.915731781658023
40
1
40
1
40
1
40
1
41
1
10
-0.249519052838338
20
18.8729418033523
30
0
41
1
10
-0.265341404734016
20
18.8556097500731
30
0
41
1
10
-0.280286621582661
20
18.838661302219
30
0
41
1
10
-0.301439688224548
20
18.8132351704067
30
0
41
1
10
-0.309086006481437
20
18.8035417311858
30
0
41
1
10
-0.319109111519055
20
18.7894239104498
30
0
41
1
10
-0.322320713382538
20
18.7842104298646
30
0
41
1
10
-0.324244100885295
20
18.779425111899
30
0
41
1
10
-0.324519052838326
20
18.7783468613494
30
0
41
1
10
-0.324519052838326
20
18.7775400265667
30
0
0
SPLINE
5
3A3
100
AcDbEntity
8
SK1
62
256
6
ByLayer
370
-1
48
1
60
0
100
AcDbSpline
70
4
71
3
72
14
73
10
40
0
40
0
40
0
40
0
40
0.215671456023021
40
0.215671456023021
40
0.432055502470583
40
0.432055502470583
40
0.651295319439995
40
0.651295319439995
40
1
40
1
40
1
40
1
41
1
10
-0.324519052838326
20
18.7452280296618
30
0
41
1
10
-0.324519052838326
20
18.7432262310315
30
0
41
1
10
-0.322986587936356
20
18.7426935981352
30
0
41
1
10
-0.317027347027277
20
18.7447580700333
30
0
41
1
10
-0.312525063511828
20
18.7473811701276
30
0
41
1
10
-0.301460306286572
20
18.7550744803925
30
0
41
1
10
-0.294765490337795
20
18.7602413969045
30
0
41
1
10
-0.27606276845782
20
18.7755611962421
30
0
41
1
10
-0.262946308913087
20
18.7870872215574
30
0
41
1
10
-0.249519052838338
20
18.7993790062494
30
0
0
SPLINE
5
3A4
100
AcDbEntity
8
SK1
62
256
6
ByLayer
370
-1
48
1
60
0
100
AcDbSpline
70
4
71
3
72
8
73
4
40
0
40
0
40
0
40
0
40
1
40
1
40
1
40
1
41
1
10
-0.249519052838338
20
18.7993790062494
30
0
41
1
10
-0.166385417532922
20
18.875482473715
30
0
41
1
10
-0.0832119351491656
20
18.9515279375099
30
0
41
1
10
0
20
19.0275172217373
30
0
0
SPLINE
5
3A5
100
AcDbEntity
8
SK1
62
256
6
ByLayer
370
-1
48
1
60
0
100
AcDbSpline
70
4
71
3
72
14
73
10
40
0
40
0
40
0
40
0
40
0.237410249611162
40
0.237410249611162
40
0.472928506373312
40
0.472928506373312
40
0.843868254150533
40
0.843868254150533
40
1
40
1
40
1
40
1
41
1
10
-0.324519052838326
20
-18.7775400265667
30
0
41
1
10
-0.324519052838326
20
-18.7797786852478
30
0
41
1
10
-0.32233454525948
20
-18.7841867362847
30
0
41
1
10
-0.314826585930604
20
-18.7957146895275
30
0
41
1
10
-0.309465003063025
20
-18.8029340035142
30
0
41
1
10
-0.293265720328463
20
-18.8233657535545
30
0
41
1
10
-0.280807865435577
20
-18.8379745799745
30
0
41
1
10
-0.261601752026053
20
-18.8596200369761
30
0
41
1
10
-0.255639597729328
20
-18.8662372621534
30
0
41
1
10
-0.249519052838338
20
-18.8729418033523
30
0
0
SPLINE
5
3A6
100
AcDbEntity
8
SK1
62
256
6
ByLayer
370
-1
48
1
60
0
100
AcDbSpline
70
4
71
3
72
14
73
10
40
0
40
0
40
0
40
0
40
0.339601837560697
40
0.339601837560697
40
0.593375305699849
40
0.593375305699849
40
0.809229904298043
40
0.809229904298043
40
1
40
1
40
1
40
1
41
1
10
-0.249519052838338
20
-18.7993790062494
30
0
41
1
10
-0.26260151986736
20
-18.7874028536337
30
0
41
1
10
-0.275380287377004
20
-18.7761610329438
30
0
41
1
10
-0.29503729128038
20
-18.7599909580239
30
0
41
1
10
-0.302756917796728
20
-18.7540587951265
30
0
41
1
10
-0.314132639676984
20
-18.7463972372463
30
0
41
1
10
-0.318322371631524
20
-18.7441162535515
30
0
41
1
10
-0.323323307682159
20
-18.7428229180693
30
0
41
1
10
-0.324519052838326
20
-18.7434511633463
30
0
41
1
10
-0.324519052838326
20
-18.7452280296618
30
0
0
SPLINE
5
3A7
100
AcDbEntity
8
SK1
62
256
6
ByLayer
370
-1
48
1
60
0
100
AcDbSpline
70
4
71
3
72
8
73
4
40
0
40
0
40
0
40
0
40
1
40
1
40
1
40
1
41
1
10
0
20
-19.0275172217373
30
0
41
1
10
-0.0832119351491656
20
-18.9515279375099
30
0
41
1
10
-0.166385417532922
20
-18.875482473715
30
0
41
1
10
-0.249519052838338
20
-18.7993790062494
30
0
0
SPLINE
5
3A8
100
AcDbEntity
8
SK1
62
256
6
ByLayer
370
-1
48
1
60
0
100
AcDbSpline
70
4
71
3
72
8
73
4
40
0
40
0
40
0
40
0
40
1
40
1
40
1
40
1
41
1
10
-0.249519052838338
20
-18.8729418033523
30
0
41
1
10
-0.166470906512473
20
-18.9639140498515
30
0
41
1
10
-0.0832962738564049
20
-19.0547325687286
30
0
41
1
10
0
20
-19.1454018402203
30
0
0
SPLINE
5
3A9
100
AcDbEntity
8
SK1
62
256
6
ByLayer
370
-1
48
1
60
0
100
AcDbSpline
70
4
71
3
72
16
73
12
40
0
40
0
40
0
40
0
40
0.212430474389447
40
0.212430474389447
40
0.426295978708325
40
0.426295978708325
40
0.636556268297902
40
0.636556268297902
40
0.95354695766652
40
0.95354695766652
40
1
40
1
40
1
40
1
41
1
10
-0.324519052838326
20
-18.4344911780253
30
0
41
1
10
-0.324519052838326
20
-18.4315992676575
30
0
41
1
10
-0.323117923704416
20
-18.4300114617852
30
0
41
1
10
-0.317479667023633
20
-18.4299661489408
30
0
41
1
10
-0.313150660150427
20
-18.4315306558945
30
0
41
1
10
-0.302517607566244
20
-18.4372835390707
30
0
41
1
10
-0.296144295624288
20
-18.4414712478929
30
0
41
1
10
-0.278863540551981
20
-18.4540802831147
30
0
41
1
10
-0.267028157326337
20
-18.4637422062463
30
0
41
1
10
-0.253135491921768
20
-18.4758249333406
30
0
41
1
10
-0.251331288975706
20
-18.4774077287948
30
0
41
1
10
-0.249519052838338
20
-18.4790105443333
30
0
0
SPLINE
5
3AA
100
AcDbEntity
8
SK1
62
256
6
ByLayer
370
-1
48
1
60
0
100
AcDbSpline
70
4
71
3
72
14
73
10
40
0
40
0
40
0
40
0
40
0.393621224318929
40
0.393621224318929
40
0.694221223982595
40
0.694221223982595
40
0.925984743280957
40
0.925984743280957
40
1
40
1
40
1
40
1
41
1
10
-0.249519052838338
20
-18.5911471576056
30
0
41
1
10
-0.264885296613954
20
-18.5733437946866
30
0
41
1
10
-0.279300162301951
20
-18.5557955374966
30
0
41
1
10
-0.300741320455614
20
-18.527587554582
30
0
41
1
10
-0.308883950365839
20
-18.5160367177047
30
0
41
1
10
-0.319313667439644
20
-18.4988657561025
30
0
41
1
10
-0.322582421844231
20
-18.4923544618305
30
0
41
1
10
-0.324300283222385
20
-18.4861869777089
30
0
41
1
10
-0.324519052838326
20
-18.484863400127
30
0
41
1
10
-0.324519052838326
20
-18.4837528208056
30
0
0
SPLINE
5
3AB
100
AcDbEntity
8
SK1
62
256
6
ByLayer
370
-1
48
1
60
0
100
AcDbSpline
70
4
71
3
72
8
73
4
40
0
40
0
40
0
40
0
40
1
40
1
40
1
40
1
41
1
10
0
20
-18.8791263469343
30
0
41
1
10
-0.0833315242048229
20
-18.7833167506412
30
0
41
1
10
-0.166506688858249
20
-18.6873254601423
30
0
41
1
10
-0.249519052838338
20
-18.5911471576056
30
0
0
SPLINE
5
3AC
100
AcDbEntity
8
SK1
62
256
6
ByLayer
370
-1
48
1
60
0
100
AcDbSpline
70
4
71
3
72
8
73
4
40
0
40
0
40
0
40
0
40
1
40
1
40
1
40
1
41
1
10
-0.249519052838338
20
-18.4790105443333
30
0
41
1
10
-0.166372838435052
20
-18.5525484468556
30
0
41
1
10
-0.0831995072585414
20
-18.6260454864902
30
0
41
1
10
0
20
-18.6995029779807
30
0
0
SPLINE
5
3AD
100
AcDbEntity
8
SK1
62
256
6
ByLayer
370
-1
48
1
60
0
100
AcDbSpline
70
4
71
3
72
8
73
4
40
0
40
0
40
0
40
0
40
1
40
1
40
1
40
1
41
1
10
0
20
-19.2917446495518
30
0
41
1
10
-0.0832682037895154
20
-19.2055314891718
30
0
41
1
10
-0.166442432040981
20
-19.1191971441407
30
0
41
1
10
-0.249519052838338
20
-19.0327379005148
30
0
0
SPLINE
5
3AE
100
AcDbEntity
8
1
62
256
6
ByLayer
370
-1
48
1
60
0
100
AcDbSpline
70
4
71
3
72
12
73
8
40
0
40
0
40
0
40
0
40
0.551530897336997
40
0.551530897336997
40
0.901245334834385
40
0.901245334834385
40
1
40
1
40
1
40
1
41
1
10
21.5575238894621
20
-17.3757512840706
30
0
41
1
10
21.5376556924904
20
-17.3868330153709
30
0
41
1
10
21.5117088253411
20
-17.3982955656658
30
0
41
1
10
21.4599424576881
20
-17.4104632850844
30
0
41
1
10
21.4369652155682
20
-17.4136559077754
30
0
41
1
10
21.4054128137416
20
-17.4140551906452
30
0
41
1
10
21.3982405472935
20
-17.4139114346042
30
0
41
1
10
21.3909747475258
20
-17.4135093498575
30
0
0
SPLINE
5
3AF
100
AcDbEntity
8
1
62
256
6
ByLayer
370
-1
48
1
60
0
100
AcDbSpline
70
4
71
3
72
12
73
8
40
0
40
0
40
0
40
0
40
0.551530897337004
40
0.551530897337004
40
0.90124533483438
40
0.90124533483438
40
1
40
1
40
1
40
1
41
1
10
31.3118096581105
20
-14.6062044480729
30
0
41
1
10
31.3060761038545
20
-14.5755311936244
30
0
41
1
10
31.3034892095831
20
-14.5400692085595
30
0
41
1
10
31.311240868956
20
-14.4794574764977
30
0
41
1
10
31.3173595926684
20
-14.4546646354179
30
0
41
1
10
31.3302576350567
20
-14.4239646080081
30
0
41
1
10
31.333453586718
20
-14.4171822654759
30
0
41
1
10
31.3369749534934
20
-14.4105190875265
30
0
0
SPLINE
5
3B0
100
AcDbEntity
8
1
62
256
6
ByLayer
370
-1
48
1
60
0
100
AcDbSpline
70
4
71
3
72
8
73
4
40
0
40
0
40
0
40
0
40
1
40
1
40
1
40
1
41
1
10
31.0130020216988
20
-18.816240361135
30
0
41
1
10
30.9639506283311
20
-18.8191312371096
30
0
41
1
10
30.9116561150882
20
-18.8206719868477
30
0
41
1
10
30.8598642349701
20
-18.8208265851905
30
0
0
SPLINE
5
3B1
100
AcDbEntity
8
1
62
256
6
ByLayer
370
-1
48
1
60
0
100
AcDbSpline
70
4
71
3
72
12
73
8
40
0
40
0
40
0
40
0
40
0.551530897337001
40
0.551530897337001
40
0.901245334834382
40
0.901245334834382
40
1
40
1
40
1
40
1
41
1
10
28.8442048250126
20
-24.3041378250272
30
0
41
1
10
28.8680801464245
20
-24.3062893582302
30
0
41
1
10
28.8950106043393
20
-24.3140925962227
30
0
41
1
10
28.9368387626621
20
-24.3404485929382
30
0
41
1
10
28.9529395076504
20
-24.3543939615973
30
0
41
1
10
28.9708398994039
20
-24.3770783010448
30
0
41
1
10
28.9746615425488
20
-24.3824419428899
30
0
41
1
10
28.97826611404
20
-24.388094357436
30
0
0
SPLINE
5
3B2
100
AcDbEntity
8
1
62
256
6
ByLayer
370
-1
48
1
60
0
100
AcDbSpline
70
4
71
3
72
8
73
4
40
0
40
0
40
0
40
0
40
1
40
1
40
1
40
1
41
1
10
25.3599880565446
20
-22.04777455783
30
0
41
1
10
25.3849211543572
20
-22.0083723464801
30
0
41
1
10
25.4112739555358
20
-21.9649545152563
30
0
41
1
10
25.4371698955949
20
-21.9206990256148
30
0
0
SPLINE
5
3B3
100
AcDbEntity
8
1
62
256
6
ByLayer
370
-1
48
1
60
0
100
AcDbSpline
70
4
71
3
72
10
73
6
40
0
40
0
40
0
40
0
40
0.335161959918888
40
0.335161959918888
40
1
40
1
40
1
40
1
41
1
10
25.4371698955949
20
-15.7533275421708
30
0
41
1
10
25.4284466130665
20
-15.7384717565275
30
0
41
1
10
25.4196962632057
20
-15.7234326928421
30
0
41
1
10
25.3937815160928
20
-15.6785207394962
30
0
41
1
10
25.376586352953
20
-15.6482400980519
30
0
41
1
10
25.3599880565446
20
-15.6184545662813
30
0
0
SPLINE
5
3B4
100
AcDbEntity
8
1
62
256
6
ByLayer
370
-1
48
1
60
0
100
AcDbSpline
70
4
71
3
72
8
73
4
40
0
40
0
40
0
40
0
40
1
40
1
40
1
40
1
41
1
10
27.645107372313
20
-20.2701406226403
30
0
41
1
10
27.6428975011763
20
-20.2631003404314
30
0
41
1
10
27.6406876196865
20
-20.2560600349542
30
0
41
1
10
27.6384777274168
20
-20.2490197052502
30
0
0
SPLINE
5
3B5
100
AcDbEntity
8
1
62
256
6
ByLayer
370
-1
48
1
60
0
100
AcDbSpline
70
4
71
3
72
24
73
20
40
0
40
0
40
0
40
0
40
0.0380198325519801
40
0.0380198325519801
40
0.24683465467514
40
0.24683465467514
40
0.404726505663529
40
0.404726505663529
40
0.526150637963034
40
0.526150637963034
40
0.621531995503836
40
0.621531995503836
40
0.776890538332251
40
0.776890538332251
40
0.873684213898128
40
0.873684213898128
40
0.971746172255127
40
0.971746172255127
40
1
40
1
40
1
40
1
41
1
10
28.0894230312228
20
-17.4047492804758
30
0
41
1
10
28.094911317053
20
-17.407852602552
30
0
41
1
10
28.1003621782874
20
-17.4110162324033
30
0
41
1
10
28.1354415804784
20
-17.4319091120127
30
0
41
1
10
28.1640134873951
20
-17.4513957973169
30
0
41
1
10
28.211254857939
20
-17.4886129593912
30
0
41
1
10
28.2307253487341
20
-17.5056844722214
30
0
41
1
10
28.262796096958
20
-17.5376963080304
30
0
41
1
10
28.275995565862
20
-17.5522716095779
30
0
41
1
10
28.2975446698069
20
-17.5794127140585
30
0
41
1
10
28.3063617076326
20
-17.5917851373457
30
0
41
1
10
28.326842557125
20
-17.6251033037101
30
0
41
1
10
28.3371835880719
20
-17.64708085757
30
0
41
1
10
28.3459512581354
20
-17.6829382490062
30
0
41
1
10
28.3473802688364
20
-17.6970255890118
30
0
41
1
10
28.3447048504869
20
-17.7236705875815
30
0
41
1
10
28.3403975558361
20
-17.7365533393497
30
0
41
1
10
28.3312858954809
20
-17.7505612457526
30
0
41
1
10
28.3289835634193
20
-17.7535914944455
30
0
41
1
10
28.3264762877569
20
-17.7564498396036
30
0
0
SPLINE
5
3B6
100
AcDbEntity
8
1
62
256
6
ByLayer
370
-1
48
1
60
0
100
AcDbSpline
70
4
71
3
72
8
73
4
40
0
40
0
40
0
40
0
40
1
40
1
40
1
40
1
41
1
10
25.7973863788683
20
-18.4411870946205
30
0
41
1
10
25.7907938762845
20
-18.4405297671494
30
0
41
1
10
25.78420141242
20
-18.4398724587383
30
0
41
1
10
25.7776089857416
20
-18.4392151686319
30
0
0
SPLINE
5
3B7
100
AcDbEntity
8
1
62
256
6
ByLayer
370
-1
48
1
60
0
100
AcDbSpline
70
4
71
3
72
8
73
4
40
0
40
0
40
0
40
0
40
1
40
1
40
1
40
1
41
1
10
28.326476287757
20
-17.7564498396036
30
0
41
1
10
28.3218745868664
20
-17.7607888080105
30
0
41
1
10
28.317272862705
20
-17.765127814606
30
0
41
1
10
28.3126711143134
20
-17.7694668609652
30
0
0
SPLINE
5
3B8
100
AcDbEntity
8
1
62
256
6
ByLayer
370
-1
48
1
60
0
100
AcDbSpline
70
4
71
3
72
22
73
18
40
0
40
0
40
0
40
0
40
0.0973712659846962
40
0.0973712659846962
40
0.18029683263071
40
0.18029683263071
40
0.307445080803022
40
0.307445080803022
40
0.411978418514875
40
0.411978418514875
40
0.516185210011073
40
0.516185210011073
40
0.62025014529191
40
0.62025014529191
40
0.829289859626068
40
0.829289859626068
40
1
40
1
40
1
40
1
41
1
10
28.7218527781327
20
-18.4296968429731
30
0
41
1
10
28.7358505738112
20
-18.4294418305964
30
0
41
1
10
28.7505964766833
20
-18.4323059809862
30
0
41
1
10
28.7763056254345
20
-18.4428582249198
30
0
41
1
10
28.7878100432715
20
-18.449842366965
30
0
41
1
10
28.8144011875228
20
-18.470760729248
30
0
41
1
10
28.8286549209575
20
-18.4866675023468
30
0
41
1
10
28.8509673168392
20
-18.5178050722808
30
0
41
1
10
28.8598688557797
20
-18.5329053712597
30
0
41
1
10
28.8755663801638
20
-18.5639430163827
30
0
41
1
10
28.8824168231391
20
-18.5799779753137
30
0
41
1
10
28.8944239577764
20
-18.6125209905989
30
0
41
1
10
28.8996018681729
20
-18.6290864590714
30
0
41
1
10
28.9130005516456
20
-18.6792679925898
30
0
41
1
10
28.9191272508183
20
-18.7134769873023
30
0
41
1
10
28.9259721721633
20
-18.7756775389919
30
0
41
1
10
28.9274778073863
20
-18.8037928625344
30
0
41
1
10
28.9274778073863
20
-18.8317887743398
30
0
0
SPLINE
5
3B9
100
AcDbEntity
8
1
62
256
6
ByLayer
370
-1
48
1
60
0
100
AcDbSpline
70
4
71
3
72
34
73
30
40
0
40
0
40
0
40
0
40
0.0514465755209349
40
0.0514465755209349
40
0.135786144735401
40
0.135786144735401
40
0.203131635218855
40
0.203131635218855
40
0.270315608875085
40
0.270315608875085
40
0.337431278535917
40
0.337431278535917
40
0.404515897625502
40
0.404515897625502
40
0.49992988369086
40
0.49992988369086
40
0.599210771748106
40
0.599210771748106
40
0.697083019894202
40
0.697083019894202
40
0.780957226922736
40
0.780957226922736
40
0.847546414393252
40
0.847546414393252
40
0.89887523558036
40
0.89887523558036
40
0.980803570703555
40
0.980803570703555
40
1
40
1
40
1
40
1
41
1
10
27.6384777274168
20
-20.2490197052502
30
0
41
1
10
27.6339947717877
20
-20.2347377938152
30
0
41
1
10
27.6268712598601
20
-20.2211872065378
30
0
41
1
10
27.6040570099722
20
-20.188846982306
30
0
41
1
10
27.5855240632311
20
-20.1714990726245
30
0
41
1
10
27.5491396609248
20
-20.1449357186021
30
0
41
1
10
27.5315954139646
20
-20.1345876864752
30
0
41
1
10
27.49516987202
20
-20.1165176329178
30
0
41
1
10
27.4761685497477
20
-20.1087351262756
30
0
41
1
10
27.4373204846987
20
-20.095411443813
30
0
41
1
10
27.4173878993251
20
-20.0898417002912
30
0
41
1
10
27.3770104233657
20
-20.0807310630809
30
0
41
1
10
27.3564953396334
20
-20.0771749867632
30
0
41
1
10
27.3065401116926
20
-20.0708852922284
30
0
41
1
10
27.2768213099036
20
-20.0691070774704
30
0
41
1
10
27.2164241830676
20
-20.0693023328781
30
0
41
1
10
27.1855614431739
20
-20.0714303148055
30
0
41
1
10
27.1253063154781
20
-20.079766492944
30
0
41
1
10
27.0956962853916
20
-20.0859396451836
30
0
41
1
10
27.042492627168
20
-20.1014656223845
30
0
41
1
10
27.0184811123405
20
-20.110282477234
30
0
41
1
10
26.9774928537383
20
-20.1294306385184
30
0
41
1
10
26.9599740969323
20
-20.1391292269535
30
0
41
1
10
26.9310118954599
20
-20.1587596337183
30
0
41
1
10
26.9190237515542
20
-20.1681824009284
30
0
41
1
10
26.8908488220448
20
-20.1949240038526
30
0
41
1
10
26.8757873606961
20
-20.2141802540793
30
0
41
1
10
26.8640722047354
20
-20.2408491270298
30
0
41
1
10
26.8621242865135
20
-20.2461391634426
30
0
41
1
10
26.8605457529822
20
-20.251534649798
30
0
0
SPLINE
5
3BA
100
AcDbEntity
8
1
62
256
6
ByLayer
370
-1
48
1
60
0
100
AcDbSpline
70
4
71
3
72
34
73
30
40
0
40
0
40
0
40
0
40
0.0514465755209383
40
0.0514465755209383
40
0.135786144735412
40
0.135786144735412
40
0.20313163521887
40
0.20313163521887
40
0.270315608875101
40
0.270315608875101
40
0.337431278535939
40
0.337431278535939
40
0.404515897625532
40
0.404515897625532
40
0.499929883690859
40
0.499929883690859
40
0.599210771748103
40
0.599210771748103
40
0.697083019894202
40
0.697083019894202
40
0.780957226922738
40
0.780957226922738
40
0.847546414393249
40
0.847546414393249
40
0.898875235580353
40
0.898875235580353
40
0.980803570703557
40
0.980803570703557
40
1
40
1
40
1
40
1
41
1
10
28.3126711143134
20
-17.7694668609652
30
0
41
1
10
28.3033360738056
20
-17.7782689879138
30
0
41
1
10
28.2959553705587
20
-17.7889590291518
30
0
41
1
10
28.2813232975897
20
-17.819224778239
30
0
41
1
10
28.2767036588789
20
-17.8406084925682
30
0
41
1
10
28.2737001131804
20
-17.8799824911358
30
0
41
1
10
28.2742435356508
20
-17.8981119354471
30
0
41
1
10
28.2781119101851
20
-17.9346169474212
30
0
41
1
10
28.2814489793247
20
-17.9531128378777
30
0
41
1
10
28.2903269399499
20
-17.9901138636429
30
0
41
1
10
28.2958882306267
20
-18.0087002910807
30
0
41
1
10
28.3088620160517
20
-18.0457054947144
30
0
41
1
10
28.3162976260604
20
-18.0641883053203
30
0
41
1
10
28.33625303773
20
-18.1085224769933
30
0
41
1
10
28.349656672411
20
-18.1343412483084
30
0
41
1
10
28.379855235829
20
-18.185763355647
30
0
41
1
10
28.3968618166838
20
-18.2114815395046
30
0
41
1
10
28.4333281762618
20
-18.260506495047
30
0
41
1
10
28.4528687177073
20
-18.2840090627501
30
0
41
1
10
28.4914826502486
20
-18.3248859299958
30
0
41
1
10
28.5103395683298
20
-18.3427819172374
30
0
41
1
10
28.5458084889746
20
-18.3719869446023
30
0
41
1
10
28.5621804950196
20
-18.3839725812487
30
0
41
1
10
28.5921519244672
20
-18.4025493693957
30
0
41
1
10
28.6056057127552
20
-18.4097920638228
30
0
41
1
10
28.6409563221491
20
-18.4251902735926
30
0
41
1
10
28.663881454107
20
-18.4316682166137
30
0
41
1
10
28.6912373203892
20
-18.4325027170459
30
0
41
1
10
28.6964829700926
20
-18.4323337932066
30
0
41
1
10
28.7016371015307
20
-18.4317980609256
30
0
0
SPLINE
5
3BB
100
AcDbEntity
8
1
62
256
6
ByLayer
370
-1
48
1
60
0
100
AcDbSpline
70
4
71
3
72
34
73
30
40
0
40
0
40
0
40
0
40
0.0514465755209355
40
0.0514465755209355
40
0.135786144735405
40
0.135786144735405
40
0.203131635218865
40
0.203131635218865
40
0.270315608875096
40
0.270315608875096
40
0.337431278535936
40
0.337431278535936
40
0.404515897625529
40
0.404515897625529
40
0.499929883690861
40
0.499929883690861
40
0.599210771748106
40
0.599210771748106
40
0.697083019894204
40
0.697083019894204
40
0.780957226922733
40
0.780957226922733
40
0.847546414393252
40
0.847546414393252
40
0.898875235580362
40
0.898875235580362
40
0.980803570703563
40
0.980803570703563
40
1
40
1
40
1
40
1
41
1
10
26.8605457529822
20
-17.3907627353071
30
0
41
1
10
26.8647323483794
20
-17.4022804204447
30
0
41
1
10
26.8715599295484
20
-17.4130707872285
30
0
41
1
10
26.8936401816953
20
-17.4385648302254
30
0
41
1
10
26.9117496530494
20
-17.451962878639
30
0
41
1
10
26.947458888357
20
-17.472228780532
30
0
41
1
10
26.9647288086467
20
-17.48001809892
30
0
41
1
10
27.0006629998759
20
-17.4935052009787
30
0
41
1
10
27.0194456198615
20
-17.4992478164775
30
0
41
1
10
27.057912111444
20
-17.5090124674057
30
0
41
1
10
27.0776809784726
20
-17.5130551688141
30
0
41
1
10
27.1177869047034
20
-17.5196329935207
30
0
41
1
10
27.1381936894654
20
-17.5221789381481
30
0
41
1
10
27.1879550240129
20
-17.526660140318
30
0
41
1
10
27.2176164922763
20
-17.5279035908871
30
0
41
1
10
27.2780136191124
20
-17.5277083354794
30
0
41
1
10
27.3089384311131
20
-17.5261593156815
30
0
41
1
10
27.3694380144748
20
-17.5201032369206
30
0
41
1
10
27.3992294220957
20
-17.5156218384881
30
0
41
1
10
27.4528769024735
20
-17.5042355019608
30
0
41
1
10
27.4771368355695
20
-17.497735706679
30
0
41
1
10
27.5186455242123
20
-17.4834417270615
30
0
41
1
10
27.5364223171365
20
-17.4761499062932
30
0
41
1
10
27.5658878392155
20
-17.4612140972092
30
0
41
1
10
27.5781119777641
20
-17.4539925112906
30
0
41
1
10
27.6069339758448
20
-17.433286279408
30
0
41
1
10
27.6224410188641
20
-17.4181860813072
30
0
41
1
10
27.634727969865
20
-17.3968504842727
30
0
41
1
10
27.6367874528361
20
-17.3926010402887
30
0
41
1
10
27.6384777274168
20
-17.3882477907593
30
0
0
SPLINE
5
3BC
100
AcDbEntity
8
1
62
256
6
ByLayer
370
-1
48
1
60
0
100
AcDbSpline
70
4
71
3
72
24
73
20
40
0
40
0
40
0
40
0
40
0.0380198325520007
40
0.0380198325520007
40
0.246834654675162
40
0.246834654675162
40
0.404726505663558
40
0.404726505663558
40
0.526150637963071
40
0.526150637963071
40
0.621531995503864
40
0.621531995503864
40
0.776890538332246
40
0.776890538332246
40
0.873684213898133
40
0.873684213898133
40
0.971746172255139
40
0.971746172255139
40
1
40
1
40
1
40
1
41
1
10
26.4133134788959
20
-20.269665520608
30
0
41
1
10
26.4078251930657
20
-20.2665621985317
30
0
41
1
10
26.4023734955265
20
-20.2633907682552
30
0
41
1
10
26.3672832235386
20
-20.2423965033214
30
0
41
1
10
26.3386774326826
20
-20.2225937740067
30
0
41
1
10
26.2913238746561
20
-20.1843302111128
30
0
41
1
10
26.2717876619671
20
-20.1666456936752
30
0
41
1
10
26.2395584750194
20
-20.1331560601069
30
0
41
1
10
26.2262757496363
20
-20.1178042044727
30
0
41
1
10
26.2045426325486
20
-20.0889467632045
30
0
41
1
10
26.1956320881032
20
-20.0757021801954
30
0
41
1
10
26.1748631506961
20
-20.0396969455125
30
0
41
1
10
26.1642975118555
20
-20.0156244174299
30
0
41
1
10
26.155052328829
20
-19.9753131426848
30
0
41
1
10
26.1534078444797
20
-19.9592160258571
30
0
41
1
10
26.1555937386149
20
-19.9280051120227
30
0
41
1
10
26.1596181397474
20
-19.9124837413765
30
0
41
1
10
26.1683509163126
20
-19.8949418907266
30
0
41
1
10
26.1705659607498
20
-19.8910974884434
30
0
41
1
10
26.1729854761175
20
-19.8874205809803
30
0
0
SPLINE
5
3BD
100
AcDbEntity
8
1
62
256
6
ByLayer
370
-1
48
1
60
0
100
AcDbSpline
70
4
71
3
72
8
73
4
40
0
40
0
40
0
40
0
40
1
40
1
40
1
40
1
41
1
10
26.1863523660856
20
-17.7763409501123
30
0
41
1
10
26.1818967097456
20
-17.7720311850675
30
0
41
1
10
26.1774410801087
20
-17.7677214596216
30
0
41
1
10
26.1729854761175
20
-17.7634117722062
30
0
0
SPLINE
5
3BE
100
AcDbEntity
8
1
62
256
6
ByLayer
370
-1
48
1
60
0
100
AcDbSpline
70
4
71
3
72
8
73
4
40
0
40
0
40
0
40
0
40
1
40
1
40
1
40
1
41
1
10
26.8605457529822
20
-20.251534649798
30
0
41
1
10
26.8584819527642
20
-20.2585887957482
30
0
41
1
10
26.8564181657988
20
-20.2656429173938
30
0
41
1
10
26.8543543915614
20
-20.2726970156964
30
0
0
SPLINE
5
3BF
100
AcDbEntity
8
1
62
256
6
ByLayer
370
-1
48
1
60
0
100
AcDbSpline
70
4
71
3
72
8
73
4
40
0
40
0
40
0
40
0
40
1
40
1
40
1
40
1
41
1
10
28.3126711143134
20
-19.863441490445
30
0
41
1
10
28.317272862705
20
-19.869113892739
30
0
41
1
10
28.3218745868664
20
-19.8747862784986
30
0
41
1
10
28.3264762877569
20
-19.8804586483776
30
0
0
SPLINE
5
3C0
100
AcDbEntity
8
1
62
256
6
ByLayer
370
-1
48
1
60
0
100
AcDbSpline
70
4
71
3
72
8
73
4
40
0
40
0
40
0
40
0
40
1
40
1
40
1
40
1
41
1
10
26.8543543915614
20
-17.3737297979435
30
0
41
1
10
26.8564181657988
20
-17.3794073976887
30
0
41
1
10
26.8584819527642
20
-17.3850850428522
30
0
41
1
10
26.8605457529822
20
-17.3907627353071
30
0
0
SPLINE
5
3C1
100
AcDbEntity
8
1
62
256
6
ByLayer
370
-1
48
1
60
0
100
AcDbSpline
70
4
71
3
72
24
73
20
40
0
40
0
40
0
40
0
40
0.0380198325520457
40
0.0380198325520457
40
0.246834654675229
40
0.246834654675229
40
0.404726505663604
40
0.404726505663604
40
0.526150637963107
40
0.526150637963107
40
0.621531995503893
40
0.621531995503893
40
0.776890538332263
40
0.776890538332263
40
0.87368421389813
40
0.87368421389813
40
0.97174617225512
40
0.97174617225512
40
1
40
1
40
1
40
1
41
1
10
26.4133134788959
20
-17.4101679066779
30
0
41
1
10
26.4188017647261
20
-17.4070290988908
30
0
41
1
10
26.4243274777678
20
-17.4039498798183
30
0
41
1
10
26.4603784652324
20
-17.3843831814034
30
0
41
1
10
26.4920094823086
20
-17.3696046567682
30
0
41
1
10
26.5489191284096
20
-17.347498419342
30
0
41
1
10
26.5739727026967
20
-17.3391946721016
30
0
41
1
10
26.6188553742085
20
-17.327313306134
30
0
41
1
10
26.6386284018446
20
-17.3230692916993
30
0
41
1
10
26.6740363453921
20
-17.3176707542195
30
0
41
1
10
26.6897083395485
20
-17.3160414786088
30
0
41
1
10
26.7304110741085
20
-17.3143367107467
30
0
41
1
10
26.7557995236791
20
-17.3158193355628
30
0
41
1
10
26.7935745786088
20
-17.3248435965547
30
0
41
1
10
26.8075091671422
20
-17.3300310388123
30
0
41
1
10
26.831476578234
20
-17.3442032451991
30
0
41
1
10
26.8417272855797
20
-17.3534981724427
30
0
41
1
10
26.8509211655302
20
-17.3671846804682
30
0
41
1
10
26.8527639670119
20
-17.3704132147393
30
0
41
1
10
26.8543543915614
20
-17.3737297979435
30
0
0
SPLINE
5
3C2
100
AcDbEntity
8
1
62
256
6
ByLayer
370
-1
48
1
60
0
100
AcDbSpline
70
4
71
3
72
30
73
26
40
0
40
0
40
0
40
0
40
0.0515194889309869
40
0.0515194889309869
40
0.0928771460763345
40
0.0928771460763345
40
0.148185150442208
40
0.148185150442208
40
0.20333892304328
40
0.20333892304328
40
0.287955708682684
40
0.287955708682684
40
0.372427214532616
40
0.372427214532616
40
0.435367147735169
40
0.435367147735169
40
0.49897102078286
40
0.49897102078286
40
0.701334348038917
40
0.701334348038917
40
0.838887327921278
40
0.838887327921278
40
0.925006664597038
40
0.925006664597038
40
1
40
1
40
1
40
1
41
1
10
25.7973863788683
20
-19.2079843796317
30
0
41
1
10
25.8107598346574
20
-19.2037992812037
30
0
41
1
10
25.8248201536939
20
-19.2022269786448
30
0
41
1
10
25.8497825427432
20
-19.2029901937767
30
0
41
1
10
25.8609266161305
20
-19.2046084600397
30
0
41
1
10
25.8864525682063
20
-19.2106172145607
30
0
41
1
10
25.9007980008177
20
-19.2157781850669
30
0
41
1
10
25.9285507503861
20
-19.2284639651249
30
0
41
1
10
25.9420540571224
20
-19.2360279735353
30
0
41
1
10
25.9751292849157
20
-19.2574404356863
30
0
41
1
10
25.9942592160363
20
-19.2725802801424
30
0
41
1
10
26.0304690261356
20
-19.3057856155358
30
0
41
1
10
26.047669053815
20
-19.3239645367003
30
0
41
1
10
26.07593482299
20
-19.3576923697267
30
0
41
1
10
26.087489422639
20
-19.3727879208886
30
0
41
1
10
26.1095554766791
20
-19.4042224077531
30
0
41
1
10
26.120083780434
20
-19.4206147788763
30
0
41
1
10
26.1610895043432
20
-19.4904393167912
30
0
41
1
10
26.1866049340703
20
-19.5489553471721
30
0
41
1
10
26.2143220031258
20
-19.6498597280517
30
0
41
1
10
26.2216361751678
20
-19.6923856252633
30
0
41
1
10
26.2226569512198
20
-19.7603171126012
30
0
41
1
10
26.220385102914
20
-19.7866822585037
30
0
41
1
10
26.2084401957748
20
-19.8327599802795
30
0
41
1
10
26.1994729047066
20
-19.8535258735913
30
0
41
1
10
26.1863523660856
20
-19.8703155795921
30
0
0
SPLINE
5
3C3
100
AcDbEntity
8
1
62
256
6
ByLayer
370
-1
48
1
60
0
100
AcDbSpline
70
4
71
3
72
8
73
4
40
0
40
0
40
0
40
0
40
1
40
1
40
1
40
1
41
1
10
26.1729854761174
20
-19.8874205809802
30
0
41
1
10
26.1774410801087
20
-19.8817189301097
30
0
41
1
10
26.1818967097456
20
-19.8760172632004
30
0
41
1
10
26.1863523660856
20
-19.8703155795921
30
0
0
SPLINE
5
3C4
100
AcDbEntity
8
1
62
256
6
ByLayer
370
-1
48
1
60
0
100
AcDbSpline
70
4
71
3
72
22
73
18
40
0
40
0
40
0
40
0
40
0.0973712659847008
40
0.0973712659847008
40
0.180296832630704
40
0.180296832630704
40
0.307445080803025
40
0.307445080803025
40
0.411978418514881
40
0.411978418514881
40
0.516185210011074
40
0.516185210011074
40
0.620250145291912
40
0.620250145291912
40
0.829289859626074
40
0.829289859626074
40
1
40
1
40
1
40
1
41
1
10
26.1729854761174
20
-17.7634117722062
30
0
41
1
10
26.1648079499511
20
-17.7538049128784
30
0
41
1
10
26.1590081512497
20
-17.7419755153908
30
0
41
1
10
26.1538795443625
20
-17.7183434718538
30
0
41
1
10
26.1536120096921
20
-17.7065457262354
30
0
41
1
10
26.157258972409
20
-17.6767273498391
30
0
41
1
10
26.1634051932356
20
-17.6582407055411
30
0
41
1
10
26.1785649983025
20
-17.6260450018807
30
0
41
1
10
26.1869912923892
20
-17.611801265186
30
0
41
1
10
26.2057513021044
20
-17.584412429872
30
0
41
1
10
26.2161413770713
20
-17.5711770977066
30
0
41
1
10
26.2382680421451
20
-17.5457170576918
30
0
41
1
10
26.2500437636045
20
-17.5334471511131
30
0
41
1
10
26.2869584478475
20
-17.4979939690427
30
0
41
1
10
26.3137565771594
20
-17.4760842070491
30
0
41
1
10
26.3647827442031
20
-17.4395440928402
30
0
41
1
10
26.3886985526719
20
-17.4242454391715
30
0
41
1
10
26.4133134788959
20
-17.4101679066779
30
0
0
SPLINE
5
3C5
100
AcDbEntity
8
1
62
256
6
ByLayer
370
-1
48
1
60
0
100
AcDbSpline
70
4
71
3
72
8
73
4
40
0
40
0
40
0
40
0
40
1
40
1
40
1
40
1
41
1
10
28.7218527781327
20
-19.204655251952
30
0
41
1
10
28.7151142545552
20
-19.2026352793818
30
0
41
1
10
28.7083756961662
20
-19.200615310657
30
0
41
1
10
28.7016371015307
20
-19.1985953459367
30
0
0
SPLINE
5
3C6
100
AcDbEntity
8
1
62
256
6
ByLayer
370
-1
48
1
60
0
100
AcDbSpline
70
4
71
3
72
22
73
18
40
0
40
0
40
0
40
0
40
0.142057608739392
40
0.142057608739392
40
0.351004812993074
40
0.351004812993074
40
0.487763342942156
40
0.487763342942156
40
0.591529353509637
40
0.591529353509637
40
0.758694969227228
40
0.758694969227228
40
0.858776631809018
40
0.858776631809018
40
0.960359919517501
40
0.960359919517501
40
1
40
1
40
1
40
1
41
1
10
25.5752587027324
20
-18.842626026744
30
0
41
1
10
25.5752587027324
20
-18.865919023594
30
0
41
1
10
25.5762913774193
20
-18.8891811638777
30
0
41
1
10
25.58146905824
20
-18.9461708407877
30
0
41
1
10
25.5868463177661
20
-18.9798573798433
30
0
41
1
10
25.6001817030094
20
-19.0340083062475
30
0
41
1
10
25.6066376416592
20
-19.0551145490818
30
0
41
1
10
25.6204528927781
20
-19.0909398389603
30
0
41
1
10
25.6272433806366
20
-19.1060292690766
30
0
41
1
10
25.6474078431614
20
-19.1434111132084
30
0
41
1
10
25.6625418823719
20
-19.1651088955811
30
0
41
1
10
25.691871197506
20
-19.1926720166591
30
0
41
1
10
25.7042757334385
20
-19.2015238257725
30
0
41
1
10
25.7310336178344
20
-19.2136050243645
30
0
41
1
10
25.7458402016427
20
-19.2168141166728
30
0
41
1
10
25.7661428596407
20
-19.2161639879338
30
0
41
1
10
25.7719258509197
20
-19.2154269141506
30
0
41
1
10
25.7776089857416
20
-19.2141735776107
30
0
0
SPLINE
5
3C7
100
AcDbEntity
8
1
62
256
6
ByLayer
370
-1
48
1
60
0
100
AcDbSpline
70
4
71
3
72
24
73
20
40
0
40
0
40
0
40
0
40
0.09740215662699
40
0.09740215662699
40
0.180354031075318
40
0.180354031075318
40
0.307542616517194
40
0.307542616517194
40
0.412109117009587
40
0.412109117009587
40
0.516348967690845
40
0.516348967690845
40
0.620446917153423
40
0.620446917153423
40
0.724476829460023
40
0.724476829460023
40
0.933310901386239
40
0.933310901386239
40
1
40
1
40
1
40
1
41
1
10
25.7776089857416
20
-18.4392151686319
30
0
41
1
10
25.7639078040529
20
-18.4390497031492
30
0
41
1
10
25.7494563718229
20
-18.4420082444127
30
0
41
1
10
25.7242320289715
20
-18.4527251491537
30
0
41
1
10
25.7129330848044
20
-18.4597830112577
30
0
41
1
10
25.6867969632891
20
-18.4808718333674
30
0
41
1
10
25.672767938389
20
-18.4968700406419
30
0
41
1
10
25.6507910584836
20
-18.5281507915689
30
0
41
1
10
25.6420162912961
20
-18.5433082355568
30
0
41
1
10
25.6265351157664
20
-18.5744466770269
30
0
41
1
10
25.6197749632501
20
-18.5905256370964
30
0
41
1
10
25.6079220087479
20
-18.6231457886905
30
0
41
1
10
25.6028082261705
20
-18.6397445287577
30
0
41
1
10
25.5939983718192
20
-18.673202585281
30
0
41
1
10
25.5902927714243
20
-18.690099669024
30
0
41
1
10
25.5810559397403
20
-18.741057971471
30
0
41
1
10
25.5773824072927
20
-18.7754684755904
30
0
41
1
10
25.5754875017184
20
-18.8207164508192
30
0
41
1
10
25.5752587027324
20
-18.8316788982917
30
0
41
1
10
25.5752587027324
20
-18.842626026744
30
0
0
SPLINE
5
3C8
100
AcDbEntity
8
1
62
256
6
ByLayer
370
-1
48
1
60
0
100
AcDbSpline
70
4
71
3
72
22
73
18
40
0
40
0
40
0
40
0
40
0.0973712659846937
40
0.0973712659846937
40
0.18029683263072
40
0.18029683263072
40
0.307445080803032
40
0.307445080803032
40
0.411978418514878
40
0.411978418514878
40
0.516185210011072
40
0.516185210011072
40
0.620250145291896
40
0.620250145291896
40
0.82928985962605
40
0.82928985962605
40
1
40
1
40
1
40
1
41
1
10
26.8543543915614
20
-20.2726970156964
30
0
41
1
10
26.8489790430339
20
-20.2867087771424
30
0
41
1
10
26.8404746448262
20
-20.2997939266691
30
0
41
1
10
26.820621311812
20
-20.3196565858137
30
0
41
1
10
26.8096926391503
20
-20.327344946158
30
0
41
1
10
26.780137066286
20
-20.3426111272411
30
0
41
1
10
26.7600741748265
20
-20.348334867827
30
0
41
1
10
26.7231052478423
20
-20.3540871641904
30
0
41
1
10
26.7059675724446
20
-20.3550042498641
30
0
41
1
10
26.6718345616269
20
-20.3543823501894
30
0
41
1
10
26.6547294793748
20
-20.3528459661129
30
0
41
1
10
26.6208269498665
20
-20.3479201060957
30
0
41
1
10
26.6039695097377
20
-20.344521748594
30
0
41
1
10
26.5539001785296
20
-20.3320695869292
30
0
41
1
10
26.5210798937923
20
-20.3207454599911
30
0
41
1
10
26.4633249800955
20
-20.2961686130333
30
0
41
1
10
26.4379284051199
20
-20.2835838999198
30
0
41
1
10
26.4133134788959
20
-20.269665520608
30
0
0
SPLINE
5
3C9
100
AcDbEntity
8
1
62
256
6
ByLayer
370
-1
48
1
60
0
100
AcDbSpline
70
4
71
3
72
24
73
20
40
0
40
0
40
0
40
0
40
0.0380198325520192
40
0.0380198325520192
40
0.246834654675167
40
0.246834654675167
40
0.404726505663561
40
0.404726505663561
40
0.526150637963079
40
0.526150637963079
40
0.621531995503863
40
0.621531995503863
40
0.776890538332257
40
0.776890538332257
40
0.873684213898129
40
0.873684213898129
40
0.971746172255134
40
0.971746172255134
40
1
40
1
40
1
40
1
41
1
10
28.9274778073863
20
-18.8317887743398
30
0
41
1
10
28.9274778073863
20
-18.8380309042031
30
0
41
1
10
28.9274025374265
20
-18.8442698529143
30
0
41
1
10
28.9264255172545
20
-18.8846787382762
30
0
41
1
10
28.9233494651254
20
-18.9187859262106
30
0
41
1
10
28.913625095827
20
-18.9775861253011
30
0
41
1
10
28.908009151388
20
-19.0026548830681
30
0
41
1
10
28.8951180087383
20
-19.045809185965
30
0
41
1
10
28.8885028217665
20
-19.0642402249039
30
0
41
1
10
28.8745519755926
20
-19.0959216984706
30
0
41
1
10
28.867650265952
20
-19.1094873175074
30
0
41
1
10
28.847284336927
20
-19.1431667175748
30
0
41
1
10
28.8321246143565
20
-19.1626141595071
30
0
41
1
10
28.8028784730087
20
-19.187220348297
30
0
41
1
10
28.7902651583522
20
-19.1951153576339
30
0
41
1
10
28.7633775668039
20
-19.2053051921845
30
0
41
1
10
28.7486781180483
20
-19.2075737072701
30
0
41
1
10
28.7301831358473
20
-19.206128133524
30
0
41
1
10
28.725994358492
20
-19.2055227711507
30
0
41
1
10
28.7218527781327
20
-19.2046552519519
30
0
0
SPLINE
5
3CA
100
AcDbEntity
8
1
62
256
6
ByLayer
370
-1
48
1
60
0
100
AcDbSpline
70
4
71
3
72
34
73
30
40
0
40
0
40
0
40
0
40
0.0514465755209354
40
0.0514465755209354
40
0.135786144735406
40
0.135786144735406
40
0.203131635218862
40
0.203131635218862
40
0.270315608875097
40
0.270315608875097
40
0.337431278535936
40
0.337431278535936
40
0.404515897625525
40
0.404515897625525
40
0.499929883690859
40
0.499929883690859
40
0.599210771748114
40
0.599210771748114
40
0.697083019894208
40
0.697083019894208
40
0.780957226922738
40
0.780957226922738
40
0.847546414393257
40
0.847546414393257
40
0.898875235580363
40
0.898875235580363
40
0.980803570703564
40
0.980803570703564
40
1
40
1
40
1
40
1
41
1
10
28.7016371015307
20
-19.1985953459367
30
0
41
1
10
28.6879672855098
20
-19.194497674599
30
0
41
1
10
28.6736110357145
20
-19.1930172388064
30
0
41
1
10
28.6365317117281
20
-19.1943658542793
30
0
41
1
10
28.6135908639698
20
-19.200376589561
30
0
41
1
10
28.5745404994643
20
-19.2163359601709
30
0
41
1
10
28.5576768383098
20
-19.2253967292247
30
0
41
1
10
28.5253653462572
20
-19.2461231633907
30
0
41
1
10
28.5098104442678
20
-19.2578564927767
30
0
41
1
10
28.4800311265773
20
-19.2833133518466
30
0
41
1
10
28.465741691053
20
-19.2970935568192
30
0
41
1
10
28.4384737753829
20
-19.3262545294944
30
0
41
1
10
28.4254484511444
20
-19.3416863296279
30
0
41
1
10
28.3955455815699
20
-19.3806350529485
30
0
41
1
10
28.3792590812247
20
-19.4049429916001
30
0
41
1
10
28.3490605178067
20
-19.4565603543464
30
0
41
1
10
28.3351733227142
20
-19.4841170390666
30
0
41
1
10
28.3112623267635
20
-19.5403381230587
30
0
41
1
10
28.3011021493552
20
-19.5691679660978
30
0
41
1
10
28.2862905125959
20
-19.6235009902077
30
0
41
1
10
28.2810117067153
20
-19.6490553025149
30
0
41
1
10
28.2752321537376
20
-19.6949814003307
30
0
41
1
10
28.2739563849175
20
-19.7154622415788
30
0
41
1
10
28.2747139525894
20
-19.7513221376503
30
0
41
1
10
28.2760615996502
20
-19.7668870086417
30
0
41
1
10
28.2829137452491
20
-19.8060091358149
30
0
41
1
10
28.290554625023
20
-19.8296653029997
30
0
41
1
10
28.3059094378244
20
-19.8545020384245
30
0
41
1
10
28.3091513869314
20
-19.8591028547835
30
0
41
1
10
28.3126711143134
20
-19.8634414904449
30
0
0
SPLINE
5
3CB
100
AcDbEntity
8
1
62
256
6
ByLayer
370
-1
48
1
60
0
100
AcDbSpline
70
4
71
3
72
8
73
4
40
0
40
0
40
0
40
0
40
1
40
1
40
1
40
1
41
1
10
28.7016371015307
20
-18.4317980609256
30
0
41
1
10
28.7083756961662
20
-18.4310976358941
30
0
41
1
10
28.7151142545552
20
-18.4303972301649
30
0
41
1
10
28.7218527781327
20
-18.4296968429731
30
0
0
SPLINE
5
3CC
100
AcDbEntity
8
1
62
256
6
ByLayer
370
-1
48
1
60
0
100
AcDbSpline
70
4
71
3
72
30
73
26
40
0
40
0
40
0
40
0
40
0.0511772287528879
40
0.0511772287528879
40
0.135075241067789
40
0.135075241067789
40
0.271834780652416
40
0.271834780652416
40
0.469061266910857
40
0.469061266910857
40
0.500636061959799
40
0.500636061959799
40
0.599800502489192
40
0.599800502489192
40
0.697557955314509
40
0.697557955314509
40
0.781333785463099
40
0.781333785463099
40
0.847844869822081
40
0.847844869822081
40
0.899113486931146
40
0.899113486931146
40
0.939077913069156
40
0.939077913069156
40
1
40
1
40
1
40
1
41
1
10
26.1863523660856
20
-17.7763409501124
30
0
41
1
10
26.1953910463616
20
-17.7850836774086
30
0
41
1
10
26.2024758188498
20
-17.7957269538
30
0
41
1
10
26.2163738940778
20
-17.8259004689348
30
0
41
1
10
26.2205700574016
20
-17.8472556830174
30
0
41
1
10
26.2239572623365
20
-17.9045098641312
30
0
41
1
10
26.2186348865364
20
-17.942389896128
30
0
41
1
10
26.1954946539051
20
-18.0338025351656
30
0
41
1
10
26.1726606052084
20
-18.0888966802633
30
0
41
1
10
26.1396615020005
20
-18.1498998063219
30
0
41
1
10
26.134896401081
20
-18.1583649262829
30
0
41
1
10
26.1145825663509
20
-18.1930866632581
30
0
41
1
10
26.0976380576033
20
-18.2189146062084
30
0
41
1
10
26.0614161536913
20
-18.2681745526728
30
0
41
1
10
26.0420569897817
20
-18.2918028776475
30
0
41
1
10
26.0038868793945
20
-18.3329279768936
30
0
41
1
10
25.9852783795803
20
-18.3509450845555
30
0
41
1
10
25.9503298889759
20
-18.3803777614969
30
0
41
1
10
25.9342159190492
20
-18.3924684207299
30
0
41
1
10
25.9047478102083
20
-18.4112373685357
30
0
41
1
10
25.8915300165632
20
-18.4185662884321
30
0
41
1
10
25.8675724744467
20
-18.4293527684125
30
0
41
1
10
25.8568664572412
20
-18.4333313459695
30
0
41
1
10
25.8298696052211
20
-18.4406893520315
30
0
41
1
10
25.8131502101392
20
-18.4427588800256
30
0
41
1
10
25.7973863788683
20
-18.4411870946205
30
0
0
SPLINE
5
3CD
100
AcDbEntity
8
1
62
256
6
ByLayer
370
-1
48
1
60
0
100
AcDbSpline
70
4
71
3
72
8
73
4
40
0
40
0
40
0
40
0
40
1
40
1
40
1
40
1
41
1
10
25.7776089857416
20
-19.2141735776107
30
0
41
1
10
25.78420141242
20
-19.2121105079553
30
0
41
1
10
25.7907938762845
20
-19.2100474419124
30
0
41
1
10
25.7973863788683
20
-19.2079843796317
30
0
0
SPLINE
5
3CE
100
AcDbEntity
8
1
62
256
6
ByLayer
370
-1
48
1
60
0
100
AcDbSpline
70
4
71
3
72
22
73
18
40
0
40
0
40
0
40
0
40
0.097371265984679
40
0.097371265984679
40
0.180296832630704
40
0.180296832630704
40
0.307445080803016
40
0.307445080803016
40
0.411978418514863
40
0.411978418514863
40
0.516185210011051
40
0.516185210011051
40
0.620250145291881
40
0.620250145291881
40
0.829289859626028
40
0.829289859626028
40
1
40
1
40
1
40
1
41
1
10
27.645107372313
20
-17.3711734048874
30
0
41
1
10
27.6507793348302
20
-17.3599282366024
30
0
41
1
10
27.6595782036799
20
-17.349589688695
30
0
41
1
10
27.679916342594
20
-17.3342489359112
30
0
41
1
10
27.6910504889257
20
-17.3284770800809
30
0
41
1
10
27.7210610845259
20
-17.317455010311
30
0
41
1
10
27.7413486845199
20
-17.3138271826496
30
0
41
1
10
27.7786531274804
20
-17.3112043280442
30
0
41
1
10
27.795917574631
20
-17.3114696743425
30
0
41
1
10
27.8302669343032
20
-17.3141095141067
30
0
41
1
10
27.8474623070153
20
-17.3164880599759
30
0
41
1
10
27.8815190166588
20
-17.3228519968286
30
0
41
1
10
27.8984405846057
20
-17.3268484905917
30
0
41
1
10
27.9486726068188
20
-17.340818112112
30
0
41
1
10
27.9815625873877
20
-17.3527923095705
30
0
41
1
10
28.0393949508791
20
-17.3780915502103
30
0
41
1
10
28.0648081049988
20
-17.390830901164
30
0
41
1
10
28.0894230312228
20
-17.4047492804758
30
0
0
SPLINE
5
3CF
100
AcDbEntity
8
1
62
256
6
ByLayer
370
-1
48
1
60
0
100
AcDbSpline
70
4
71
3
72
22
73
18
40
0
40
0
40
0
40
0
40
0.0973712659846943
40
0.0973712659846943
40
0.180296832630723
40
0.180296832630723
40
0.30744508080302
40
0.30744508080302
40
0.411978418514867
40
0.411978418514867
40
0.516185210011056
40
0.516185210011056
40
0.620250145291881
40
0.620250145291881
40
0.829289859626023
40
0.829289859626023
40
1
40
1
40
1
40
1
41
1
10
28.326476287757
20
-19.8804586483776
30
0
41
1
10
28.334950427913
20
-19.8928321008664
30
0
41
1
10
28.3410446972564
20
-19.9074080999732
30
0
41
1
10
28.3466581100435
20
-19.9355620498711
30
0
41
1
10
28.3471311183839
20
-19.9492763000036
30
0
41
1
10
28.3439391784029
20
-19.983338787713
30
0
41
1
10
28.3380176661108
20
-20.0039213449355
30
0
41
1
10
28.3231933770202
20
-20.0392464903539
30
0
41
1
10
28.3148938546865
20
-20.0546726590205
30
0
41
1
10
28.2963501938256
20
-20.0840794344241
30
0
41
1
10
28.2860504093189
20
-20.0981569283822
30
0
41
1
10
28.2640779243802
20
-20.1250550452325
30
0
41
1
10
28.2523663307389
20
-20.1379230880726
30
0
41
1
10
28.215614337501
20
-20.1748937299984
30
0
41
1
10
28.1888859040206
20
-20.1974535625125
30
0
41
1
10
28.1379371867715
20
-20.2347160704034
30
0
41
1
10
28.1140379574468
20
-20.2501693619123
30
0
41
1
10
28.0894230312228
20
-20.2642468944059
30
0
0
SPLINE
5
3D0
100
AcDbEntity
8
1
62
256
6
ByLayer
370
-1
48
1
60
0
100
AcDbSpline
70
4
71
3
72
24
73
20
40
0
40
0
40
0
40
0
40
0.0380198325519775
40
0.0380198325519775
40
0.246834654675143
40
0.246834654675143
40
0.404726505663527
40
0.404726505663527
40
0.526150637963047
40
0.526150637963047
40
0.621531995503838
40
0.621531995503838
40
0.776890538332231
40
0.776890538332231
40
0.873684213898115
40
0.873684213898115
40
0.971746172255123
40
0.971746172255123
40
1
40
1
40
1
40
1
41
1
10
28.0894230312228
20
-20.2642468944059
30
0
41
1
10
28.0839347453926
20
-20.2673857021929
30
0
41
1
10
28.078408196046
20
-20.2704571208402
30
0
41
1
10
28.0423463387847
20
-20.2899224339306
30
0
41
1
10
28.0106814377691
20
-20.3043849145555
30
0
41
1
10
27.9536596041855
20
-20.3254447511619
30
0
41
1
10
27.9285403080045
20
-20.333135493795
30
0
41
1
10
27.883499197769
20
-20.3435390620033
30
0
41
1
10
27.8636429136537
20
-20.3470065223513
30
0
41
1
10
27.8280509569635
20
-20.3506887230435
30
0
41
1
10
27.8122854561873
20
-20.3514458389323
30
0
41
1
10
27.7712946337126
20
-20.350463538476
30
0
41
1
10
27.7456815762483
20
-20.3468859394371
30
0
41
1
10
27.7074290083555
20
-20.3334077951363
30
0
41
1
10
27.6932789461739
20
-20.3262105760566
30
0
41
1
10
27.6688220108678
20
-20.3074724544051
30
0
41
1
10
27.6582884100039
20
-20.2955389082835
30
0
41
1
10
27.6487156462632
20
-20.278318456011
30
0
41
1
10
27.6467855571572
20
-20.2742757681496
30
0
41
1
10
27.645107372313
20
-20.2701406226403
30
0
0
SPLINE
5
3D1
100
AcDbEntity
8
1
62
256
6
ByLayer
370
-1
48
1
60
0
100
AcDbSpline
70
4
71
3
72
8
73
4
40
0
40
0
40
0
40
0
40
1
40
1
40
1
40
1
41
1
10
27.6384777274168
20
-17.3882477907593
30
0
41
1
10
27.6406876196865
20
-17.3825562820583
30
0
41
1
10
27.6428975011763
20
-17.3768648207264
30
0
41
1
10
27.645107372313
20
-17.3711734048874
30
0
0
SPLINE
5
3D2
100
AcDbEntity
8
SK1
62
256
6
ByLayer
370
-1
48
1
60
0
100
AcDbSpline
70
4
71
3
72
14
73
10
40
0
40
0
40
0
40
0
40
0.219964312915531
40
0.219964312915531
40
0.439935265063836
40
0.439935265063836
40
0.730440072114299
40
0.730440072114299
40
1
40
1
40
1
40
1
41
1
10
-0.324519052838326
20
-18.9324241124939
30
0
41
1
10
-0.324519052838326
20
-18.9313546580718
30
0
41
1
10
-0.322843598611456
20
-18.9319253303128
30
0
41
1
10
-0.31653964590447
20
-18.9361536330603
30
0
41
1
10
-0.311849867729734
20
-18.9398451886151
30
0
41
1
10
-0.298757700405332
20
-18.9508691130917
30
0
41
1
10
-0.289472419167168
20
-18.959126379535
30
0
41
1
10
-0.27011474460852
20
-18.9768556719407
30
0
41
1
10
-0.25995972345072
20
-18.9863668564595
30
0
41
1
10
-0.249519052838338
20
-18.9963015174965
30
0
0
SPLINE
5
3D3
100
AcDbEntity
8
SK1
62
256
6
ByLayer
370
-1
48
1
60
0
100
AcDbSpline
70
4
71
3
72
14
73
10
40
0
40
0
40
0
40
0
40
0.420767572538387
40
0.420767572538387
40
0.689032461479675
40
0.689032461479675
40
0.910590925525609
40
0.910590925525609
40
1
40
1
40
1
40
1
41
1
10
-0.249519052838338
20
-19.0327379005148
30
0
41
1
10
-0.26575349800612
20
-19.0158424389948
30
0
41
1
10
-0.281208146423893
20
-18.999478290443
30
0
41
1
10
-0.302114376358674
20
-18.9766269871991
30
0
41
1
10
-0.309318125509236
20
-18.9685312786032
30
0
41
1
10
-0.319033328950354
20
-18.9569877045766
30
0
41
1
10
-0.322214231576424
20
-18.9528843741229
30
0
41
1
10
-0.324219940534505
20
-18.9495287305081
30
0
41
1
10
-0.324519052838326
20
-18.9488295545045
30
0
41
1
10
-0.324519052838326
20
-18.9484273901026
30
0
0
SPLINE
5
3D4
100
AcDbEntity
8
SK1
62
256
6
ByLayer
370
-1
48
1
60
0
100
AcDbSpline
70
4
71
3
72
8
73
4
40
0
40
0
40
0
40
0
40
1
40
1
40
1
40
1
41
1
10
-0.249519052838338
20
-18.9963015174965
30
0
41
1
10
-0.166400755928578
20
-19.0753914664499
30
0
41
1
10
-0.0832270823895556
20
-19.1544038788987
30
0
41
1
10
0
20
-19.2333411456125
30
0
0
SPLINE
5
3D5
100
AcDbEntity
8
SK1
62
256
6
ByLayer
370
-1
48
1
60
0
100
AcDbSpline
70
4
71
3
72
8
73
4
40
0
40
0
40
0
40
0
40
1
40
1
40
1
40
1
41
1
10
-0.249519052838338
20
19.0327379005148
30
0
41
1
10
-0.166442432040981
20
19.1191971441407
30
0
41
1
10
-0.0832682037895154
20
19.2055314891717
30
0
41
1
10
0
20
19.2917446495518
30
0
0
SPLINE
5
3D6
100
AcDbEntity
8
SK1
62
256
6
ByLayer
370
-1
48
1
60
0
100
AcDbSpline
70
4
71
3
72
8
73
4
40
0
40
0
40
0
40
0
40
1
40
1
40
1
40
1
41
1
10
0
20
19.2333411456125
30
0
41
1
10
-0.0832270823895556
20
19.1544038788987
30
0
41
1
10
-0.166400755928578
20
19.0753914664499
30
0
41
1
10
-0.249519052838338
20
18.9963015174965
30
0
0
SPLINE
5
3D7
100
AcDbEntity
8
SK1
62
256
6
ByLayer
370
-1
48
1
60
0
100
AcDbSpline
70
4
71
3
72
14
73
10
40
0
40
0
40
0
40
0
40
0.362203630042166
40
0.362203630042166
40
0.623194640203971
40
0.623194640203971
40
0.842318788675735
40
0.842318788675735
40
1
40
1
40
1
40
1
41
1
10
-0.249519052838338
20
18.9963015174965
30
0
41
1
10
-0.263462353376582
20
18.983033982323
30
0
41
1
10
-0.276976984035883
20
18.9704469491028
30
0
41
1
10
-0.297119030409903
20
18.9523406520921
30
0
41
1
10
-0.304781405826446
20
18.9456860752016
30
0
41
1
10
-0.315773498902729
20
18.9367473854937
30
0
41
1
10
-0.319691897097101
20
18.9338657283653
30
0
41
1
10
-0.323662536225584
20
18.9317185216818
30
0
41
1
10
-0.324519052838326
20
18.9316511709397
30
0
41
1
10
-0.324519052838326
20
18.932424112494
30
0
0
SPLINE
5
3D8
100
AcDbEntity
8
SK1
62
256
6
ByLayer
370
-1
48
1
60
0
100
AcDbSpline
70
4
71
3
72
14
73
10
40
0
40
0
40
0
40
0
40
0.230774734198141
40
0.230774734198141
40
0.460243147902721
40
0.460243147902721
40
0.801894458421471
40
0.801894458421471
40
1
40
1
40
1
40
1
41
1
10
-0.324519052838326
20
18.9484273901026
30
0
41
1
10
-0.324519052838326
20
18.9494492221481
30
0
41
1
10
-0.322519729188173
20
18.952462750139
30
0
41
1
10
-0.315447865823927
20
18.9613658746406
30
0
41
1
10
-0.310333289381418
20
18.9673248530255
30
0
41
1
10
-0.295297642800307
20
18.9842056521681
30
0
41
1
10
-0.284031796598953
20
18.996386063672
30
0
41
1
10
-0.264753764627272
20
19.0168196261959
30
0
41
1
10
-0.257247743342703
20
19.0246945216579
30
0
41
1
10
-0.249519052838338
20
19.0327379005148
30
0
0
SPLINE
5
3D9
100
AcDbEntity
8
SK1
62
256
6
ByLayer
370
-1
48
1
60
0
100
AcDbSpline
70
4
71
3
72
8
73
4
40
0
40
0
40
0
40
0
40
1
40
1
40
1
40
1
41
1
10
0
20
-14.8423856446161
30
0
41
1
10
-0.0831749697857163
20
-14.774131436091
30
0
41
1
10
-0.166348014707381
20
-14.7058740999149
30
0
41
1
10
-0.249519052838338
20
-14.637613503657
30
0
0
SPLINE
5
3DA
100
AcDbEntity
8
SK1
62
256
6
ByLayer
370
-1
48
1
60
0
100
AcDbSpline
70
4
71
3
72
16
73
12
40
0
40
0
40
0
40
0
40
0.19660452944643
40
0.19660452944643
40
0.397753669143357
40
0.397753669143357
40
0.577066618867397
40
0.577066618867397
40
0.738670781269067
40
0.738670781269067
40
1
40
1
40
1
40
1
41
1
10
-0.249519052838338
20
-14.637613503657
30
0
41
1
10
-0.257471316975881
20
-14.6310868772756
30
0
41
1
10
-0.265574472151627
20
-14.6252592563981
30
0
41
1
10
-0.281277117941556
20
-14.6162897929247
30
0
41
1
10
-0.289068554053785
20
-14.6131393983352
30
0
41
1
10
-0.301780059707625
20
-14.611149841991
30
0
41
1
10
-0.307073212276066
20
-14.6118745909008
30
0
41
1
10
-0.314921610889172
20
-14.6161054180538
30
0
41
1
10
-0.317805451302036
20
-14.619347791567
30
0
41
1
10
-0.323187338690502
20
-14.6298744249309
30
0
41
1
10
-0.324519052838326
20
-14.6385341235637
30
0
41
1
10
-0.324519052838326
20
-14.6480346987596
30
0
0
SPLINE
5
3DB
100
AcDbEntity
8
SK1
62
256
6
ByLayer
370
-1
48
1
60
0
100
AcDbSpline
70
4
71
3
72
12
73
8
40
0
40
0
40
0
40
0
40
0.299428144559046
40
0.299428144559046
40
0.798476334754698
40
0.798476334754698
40
1
40
1
40
1
40
1
41
1
10
-0.324519052838326
20
-14.8126521189576
30
0
41
1
10
-0.324519052838326
20
-14.8285037391865
30
0
41
1
10
-0.320734298944188
20
-14.8473379769856
30
0
41
1
10
-0.305612291705671
20
-14.8989605565873
30
0
41
1
10
-0.290623213035133
20
-14.9339908415919
30
0
41
1
10
-0.265573612198182
20
-14.9829869700513
30
0
41
1
10
-0.257778028133714
20
-14.9972577358847
30
0
41
1
10
-0.249519052838338
20
-15.0114907404589
30
0
0
SPLINE
5
3DC
100
AcDbEntity
8
SK1
62
256
6
ByLayer
370
-1
48
1
60
0
100
AcDbSpline
70
4
71
3
72
8
73
4
40
0
40
0
40
0
40
0
40
1
40
1
40
1
40
1
41
1
10
-0.249519052838338
20
-15.0114907404589
30
0
41
1
10
-0.166964923531196
20
-15.1537593946222
30
0
41
1
10
-0.0837817374583381
20
-15.2955438255014
30
0
41
1
10
0
20
-15.4368523871774
30
0
0
SPLINE
5
3DD
100
AcDbEntity
8
SK1
62
256
6
ByLayer
370
-1
48
1
60
0
100
AcDbSpline
70
4
71
3
72
8
73
4
40
0
40
0
40
0
40
0
40
1
40
1
40
1
40
1
41
1
10
0
20
-16.8981185823602
30
0
41
1
10
-0.0831758476997777
20
-16.8296416826295
30
0
41
1
10
-0.166348900140491
20
-16.76116025562
30
0
41
1
10
-0.249519052838338
20
-16.6926741335383
30
0
0
SPLINE
5
3DE
100
AcDbEntity
8
SK1
62
256
6
ByLayer
370
-1
48
1
60
0
100
AcDbSpline
70
4
71
3
72
18
73
14
40
0
40
0
40
0
40
0
40
0.229345296545338
40
0.229345296545338
40
0.421145408004467
40
0.421145408004467
40
0.584059575953199
40
0.584059575953199
40
0.74679571442304
40
0.74679571442304
40
0.962805581120729
40
0.962805581120729
40
1
40
1
40
1
40
1
41
1
10
-0.324519052838326
20
14.6480346987596
30
0
41
1
10
-0.324519052838326
20
14.6396791951525
30
0
41
1
10
-0.323493278895029
20
14.6319977561569
30
0
41
1
10
-0.318910317288356
20
14.6207214398974
30
0
41
1
10
-0.315719347805157
20
14.616588504455
30
0
41
1
10
-0.307615092479097
20
14.6121232407988
30
0
41
1
10
-0.302930125421909
20
14.6112940868226
30
0
41
1
10
-0.292305298224989
20
14.6124028699919
30
0
41
1
10
-0.286247885804016
20
14.6143421188411
30
0
41
1
10
-0.271674487083516
20
14.6212968164628
30
0
41
1
10
-0.262787049856684
20
14.627165967273
30
0
41
1
10
-0.252552342463161
20
14.6351535508655
30
0
41
1
10
-0.251034543647421
20
14.6363697016247
30
0
41
1
10
-0.249519052838338
20
14.637613503657
30
0
0
SPLINE
5
3DF
100
AcDbEntity
8
SK1
62
256
6
ByLayer
370
-1
48
1
60
0
100
AcDbSpline
70
4
71
3
72
10
73
6
40
0
40
0
40
0
40
0
40
0.599902116640991
40
0.599902116640991
40
1
40
1
40
1
40
1
41
1
10
-0.249519052838338
20
15.0114907404588
30
0
41
1
10
-0.273885994261604
20
14.9694982684715
30
0
41
1
10
-0.294696453476916
20
14.9265709293308
30
0
41
1
10
-0.317917590072824
20
14.8600836524593
30
0
41
1
10
-0.324519052838326
20
14.8337903920928
30
0
41
1
10
-0.324519052838326
20
14.8126521189576
30
0
0
SPLINE
5
3E0
100
AcDbEntity
8
SK1
62
256
6
ByLayer
370
-1
48
1
60
0
100
AcDbSpline
70
4
71
3
72
16
73
12
40
0
40
0
40
0
40
0
40
0.222771344639826
40
0.222771344639826
40
0.450654338437164
40
0.450654338437164
40
0.648277798447987
40
0.648277798447987
40
0.82532120630811
40
0.82532120630811
40
1
40
1
40
1
40
1
41
1
10
-0.249519052838338
20
15.7703059388672
30
0
41
1
10
-0.258372853288392
20
15.7630751074216
30
0
41
1
10
-0.2673284002706
20
15.756592918016
30
0
41
1
10
-0.284420209767831
20
15.7465638730825
30
0
41
1
10
-0.292768565489297
20
15.742995516769
30
0
41
1
10
-0.305806106248781
20
15.7406563916084
30
0
41
1
10
-0.310991226949767
20
15.7413031254806
30
0
41
1
10
-0.318281132649531
20
15.7455489093593
30
0
41
1
10
-0.320756045158447
20
15.748853780123
30
0
41
1
10
-0.323842932562314
20
15.7571225376409
30
0
41
1
10
-0.324519052838326
20
15.7621180518632
30
0
41
1
10
-0.324519052838326
20
15.7676259921204
30
0
0
SPLINE
5
3E1
100
AcDbEntity
8
SK1
62
256
6
ByLayer
370
-1
48
1
60
0
100
AcDbSpline
70
4
71
3
72
8
73
4
40
0
40
0
40
0
40
0
40
1
40
1
40
1
40
1
41
1
10
0
20
15.9740856271496
30
0
41
1
10
-0.0831731013446984
20
15.9061592010903
30
0
41
1
10
-0.166346120039435
20
15.8382326400955
30
0
41
1
10
-0.249519052838338
20
15.7703059388672
30
0
0
SPLINE
5
3E2
100
AcDbEntity
8
SK1
62
256
6
ByLayer
370
-1
48
1
60
0
100
AcDbSpline
70
4
71
3
72
8
73
4
40
0
40
0
40
0
40
0
40
1
40
1
40
1
40
1
41
1
10
-0.249519052838338
20
16.0748883021891
30
0
41
1
10
-0.166803293990711
20
16.2035493499351
30
0
41
1
10
-0.083623106564545
20
16.3318138919978
30
0
41
1
10
0
20
16.4596905081325
30
0
0
SPLINE
5
3E3
100
AcDbEntity
8
SK1
62
256
6
ByLayer
370
-1
48
1
60
0
100
AcDbSpline
70
4
71
3
72
12
73
8
40
0
40
0
40
0
40
0
40
0.327025023567502
40
0.327025023567502
40
0.787085296139235
40
0.787085296139235
40
1
40
1
40
1
40
1
41
1
10
-0.324519052838326
20
15.9016211093691
30
0
41
1
10
-0.324519052838326
20
15.9155577312447
30
0
41
1
10
-0.320056187790954
20
15.9332695578562
30
0
41
1
10
-0.304106585504684
20
15.9776569215537
30
0
41
1
10
-0.290155590930652
20
16.0061652935337
30
0
41
1
10
-0.266325543110156
20
16.0480025991564
30
0
41
1
10
-0.258156326111163
20
16.061453369784
30
0
41
1
10
-0.249519052838338
20
16.0748883021891
30
0
0
SPLINE
5
3E4
100
AcDbEntity
8
SK1
62
256
6
ByLayer
370
-1
48
1
60
0
100
AcDbSpline
70
4
71
3
72
16
73
12
40
0
40
0
40
0
40
0
40
0.216525341083707
40
0.216525341083707
40
0.437598882768676
40
0.437598882768676
40
0.632197208818113
40
0.632197208818113
40
0.809603864970845
40
0.809603864970845
40
1
40
1
40
1
40
1
41
1
10
-0.324519052838326
20
-15.7676259921204
30
0
41
1
10
-0.324519052838326
20
-15.7608343707043
30
0
41
1
10
-0.323483716408788
20
-15.7548038014129
30
0
41
1
10
-0.318639718248534
20
-15.7456414697231
30
0
41
1
10
-0.314655274291312
20
-15.7424942643018
30
0
41
1
10
-0.304458771015504
20
-15.7406986315941
30
0
41
1
10
-0.298427824021189
20
-15.7415508978682
30
0
41
1
10
-0.285708667223162
20
-15.7460934281866
30
0
41
1
10
-0.278994071361069
20
-15.7495500558628
30
0
41
1
10
-0.264772620289221
20
-15.7584578599996
30
0
41
1
10
-0.257117310111909
20
-15.7641004999785
30
0
41
1
10
-0.249519052838338
20
-15.7703059388672
30
0
0
SPLINE
5
3E5
100
AcDbEntity
8
SK1
62
256
6
ByLayer
370
-1
48
1
60
0
100
AcDbSpline
70
4
71
3
72
12
73
8
40
0
40
0
40
0
40
0
40
0.58692894146783
40
0.58692894146783
40
0.899803830264789
40
0.899803830264789
40
1
40
1
40
1
40
1
41
1
10
-0.249519052838338
20
-16.0748883021891
30
0
41
1
10
-0.273031817321254
20
-16.0383151393973
30
0
41
1
10
-0.293531671147491
20
-16.0010313969561
30
0
41
1
10
-0.315053692739923
20
-15.9486930185265
30
0
41
1
10
-0.320835978604379
20
-15.930933385035
30
0
41
1
10
-0.324078278764006
20
-15.9106792734836
30
0
41
1
10
-0.324519052838326
20
-15.9059636217426
30
0
41
1
10
-0.324519052838326
20
-15.9016211093692
30
0
0
SPLINE
5
3E6
100
AcDbEntity
8
1
62
256
6
ByLayer
370
-1
48
1
60
0
100
AcDbSpline
70
4
71
3
72
8
73
4
40
0
40
0
40
0
40
0
40
1
40
1
40
1
40
1
41
1
10
0
20
-2.7697313269525
30
0
41
1
10
-0.167692085966053
20
-0.931215315281534
30
0
41
1
10
-0.169152595808299
20
0.915202808103956
30
0
41
1
10
0
20
2.7697313269525
30
0
0
SPLINE
5
3E7
100
AcDbEntity
8
SK1
62
256
6
ByLayer
370
-1
48
1
60
0
100
AcDbSpline
70
4
71
3
72
12
73
8
40
0
40
0
40
0
40
0
40
0.277415679706919
40
0.277415679706919
40
0.673634013454208
40
0.673634013454208
40
1
40
1
40
1
40
1
41
1
10
-0.324519052838326
20
-16.787151188174
30
0
41
1
10
-0.324519052838326
20
-16.7966543472907
30
0
41
1
10
-0.321301686784096
20
-16.8090410966392
30
0
41
1
10
-0.309146518767818
20
-16.8412807102613
30
0
41
1
10
-0.298175211391168
20
-16.8627355192172
30
0
41
1
10
-0.274710570806576
20
-16.9025986668713
30
0
41
1
10
-0.262594071091541
20
-16.9212397849316
30
0
41
1
10
-0.249519052838338
20
-16.9398705309347
30
0
0
SPLINE
5
3E8
100
AcDbEntity
8
SK1
62
256
6
ByLayer
370
-1
48
1
60
0
100
AcDbSpline
70
4
71
3
72
8
73
4
40
0
40
0
40
0
40
0
40
1
40
1
40
1
40
1
41
1
10
-0.249519052838338
20
-16.9398705309347
30
0
41
1
10
-0.166692173533136
20
-17.0578915172672
30
0
41
1
10
-0.0835139622307679
20
-17.1755848207153
30
0
41
1
10
0
20
-17.2929584404609
30
0
0
SPLINE
5
3E9
100
AcDbEntity
8
SK1
62
256
6
ByLayer
370
-1
48
1
60
0
100
AcDbSpline
70
4
71
3
72
16
73
12
40
0
40
0
40
0
40
0
40
0.247558680792328
40
0.247558680792328
40
0.459132017404154
40
0.459132017404154
40
0.6724863834057
40
0.6724863834057
40
0.861284656994213
40
0.861284656994213
40
1
40
1
40
1
40
1
41
1
10
-0.249519052838338
20
-16.6926741335383
30
0
41
1
10
-0.259240911168234
20
-16.6846687090579
30
0
41
1
10
-0.269006136766222
20
-16.6774429614849
30
0
41
1
10
-0.285896697970458
20
-16.6670573149427
30
0
41
1
10
-0.293356741332559
20
-16.6633865594013
30
0
41
1
10
-0.30617165679584
20
-16.6594665199252
30
0
41
1
10
-0.311667032141656
20
-16.6592244557159
30
0
41
1
10
-0.319182939636676
20
-16.6621116375743
30
0
41
1
10
-0.321636225919747
20
-16.6648679976982
30
0
41
1
10
-0.324047988810065
20
-16.6713930700812
30
0
41
1
10
-0.324519052838326
20
-16.6747331071713
30
0
41
1
10
-0.324519052838326
20
-16.6784633080723
30
0
0
SPLINE
5
3EA
100
AcDbEntity
8
SK1
62
256
6
ByLayer
370
-1
48
1
60
0
100
AcDbSpline
70
4
71
3
72
8
73
4
40
0
40
0
40
0
40
0
40
1
40
1
40
1
40
1
41
1
10
0
20
12.6311682604383
30
0
41
1
10
-0.0844518749535723
20
12.4455098841085
30
0
41
1
10
-0.167648592736953
20
12.2590823591226
30
0
41
1
10
-0.249519052838338
20
12.0718886217914
30
0
0
SPLINE
5
3EB
100
AcDbEntity
8
SK1
62
256
6
ByLayer
370
-1
48
1
60
0
100
AcDbSpline
70
4
71
3
72
8
73
4
40
0
40
0
40
0
40
0
40
1
40
1
40
1
40
1
41
1
10
0
20
15.4368523871774
30
0
41
1
10
-0.0837817374583381
20
15.2955438255014
30
0
41
1
10
-0.166964923531196
20
15.1537593946222
30
0
41
1
10
-0.249519052838338
20
15.0114907404588
30
0
0
SPLINE
5
3EC
100
AcDbEntity
8
SK1
62
256
6
ByLayer
370
-1
48
1
60
0
100
AcDbSpline
70
4
71
3
72
8
73
4
40
0
40
0
40
0
40
0
40
1
40
1
40
1
40
1
41
1
10
-0.249519052838338
20
-15.7703059388672
30
0
41
1
10
-0.166346120039435
20
-15.8382326400955
30
0
41
1
10
-0.0831731013446984
20
-15.9061592010903
30
0
41
1
10
0
20
-15.9740856271496
30
0
0
SPLINE
5
3ED
100
AcDbEntity
8
SK1
62
256
6
ByLayer
370
-1
48
1
60
0
100
AcDbSpline
70
4
71
3
72
8
73
4
40
0
40
0
40
0
40
0
40
1
40
1
40
1
40
1
41
1
10
0
20
-16.4596905081325
30
0
41
1
10
-0.083623106564545
20
-16.3318138919978
30
0
41
1
10
-0.166803293990711
20
-16.2035493499351
30
0
41
1
10
-0.249519052838338
20
-16.0748883021891
30
0
0
SPLINE
5
3EE
100
AcDbEntity
8
SK1
62
256
6
ByLayer
370
-1
48
1
60
0
100
AcDbSpline
70
4
71
3
72
16
73
12
40
0
40
0
40
0
40
0
40
0.209479155782296
40
0.209479155782296
40
0.421847879524335
40
0.421847879524335
40
0.620161699554187
40
0.620161699554187
40
0.880473932719267
40
0.880473932719267
40
1
40
1
40
1
40
1
41
1
10
-0.324519052838326
20
-17.4133353269855
30
0
41
1
10
-0.324519052838326
20
-17.4086730762758
30
0
41
1
10
-0.323341381830914
20
-17.4050131309646
30
0
41
1
10
-0.31824939650744
20
-17.4007174301237
30
0
41
1
10
-0.314206727296238
20
-17.4000963464948
30
0
41
1
10
-0.304142388946502
20
-17.4021153047519
30
0
41
1
10
-0.298160226702635
20
-17.4045527194701
30
0
41
1
10
-0.283076283088803
20
-17.4127143000575
30
0
41
1
10
-0.273370059462707
20
-17.4193113747992
30
0
41
1
10
-0.258886607687714
20
-17.4304261009954
30
0
41
1
10
-0.254215317784571
20
-17.4341895771821
30
0
41
1
10
-0.249519052838338
20
-17.4381246139465
30
0
0
SPLINE
5
3EF
100
AcDbEntity
8
SK1
62
256
6
ByLayer
370
-1
48
1
60
0
100
AcDbSpline
70
4
71
3
72
12
73
8
40
0
40
0
40
0
40
0
40
0.514374796179559
40
0.514374796179559
40
0.799677103656323
40
0.799677103656323
40
1
40
1
40
1
40
1
41
1
10
-0.249519052838338
20
-17.6356568712878
30
0
41
1
10
-0.269783320475057
20
-17.6089163954965
30
0
41
1
10
-0.288154837836117
20
-17.5820507193339
30
0
41
1
10
-0.309617190623357
20
-17.5444018641692
30
0
41
1
10
-0.31600194403967
20
-17.5314968240923
30
0
41
1
10
-0.322840504691811
20
-17.5126171162788
30
0
41
1
10
-0.324519052838326
20
-17.5056005989192
30
0
41
1
10
-0.324519052838326
20
-17.5001524600012
30
0
0
SPLINE
5
3F0
100
AcDbEntity
8
SK1
62
256
6
ByLayer
370
-1
48
1
60
0
100
AcDbSpline
70
4
71
3
72
8
73
4
40
0
40
0
40
0
40
0
40
1
40
1
40
1
40
1
41
1
10
-0.249519052838338
20
-17.4381246139465
30
0
41
1
10
-0.166354608804397
20
-17.507808745594
30
0
41
1
10
-0.0831814897333629
20
-17.5774790749024
30
0
41
1
10
0
20
-17.6471360742617
30
0
0
SPLINE
5
3F1
100
AcDbEntity
8
SK1
62
256
6
ByLayer
370
-1
48
1
60
0
100
AcDbSpline
70
4
71
3
72
8
73
4
40
0
40
0
40
0
40
0
40
1
40
1
40
1
40
1
41
1
10
0
20
-17.9630568563235
30
0
41
1
10
-0.0834352757658792
20
-17.8541907726337
30
0
41
1
10
-0.166612124255238
20
-17.7450598241335
30
0
41
1
10
-0.249519052838338
20
-17.6356568712878
30
0
0
SPLINE
5
3F2
100
AcDbEntity
8
SK1
62
256
6
ByLayer
370
-1
48
1
60
0
100
AcDbSpline
70
4
71
3
72
8
73
4
40
0
40
0
40
0
40
0
40
1
40
1
40
1
40
1
41
1
10
-0.249519052838338
20
19.0736019583787
30
0
41
1
10
-0.166419466436651
20
19.1561267310563
30
0
41
1
10
-0.0832455498896536
20
19.2385518046065
30
0
41
1
10
0
20
19.3208801979494
30
0
0
SPLINE
5
3F3
100
AcDbEntity
8
SK1
62
256
6
ByLayer
370
-1
48
1
60
0
100
AcDbSpline
70
4
71
3
72
14
73
10
40
0
40
0
40
0
40
0
40
0.224988908767943
40
0.224988908767943
40
0.449307446414288
40
0.449307446414288
40
0.764271595107042
40
0.764271595107042
40
1
40
1
40
1
40
1
41
1
10
-0.324519052838326
20
18.9997313577499
30
0
41
1
10
-0.324519052838326
20
18.9996610306687
30
0
41
1
10
-0.322688493619154
20
19.0014055692112
30
0
41
1
10
-0.316015221172592
20
19.0078965099529
30
0
41
1
10
-0.311122586485027
20
19.012690801461
30
0
41
1
10
-0.297114830857851
20
19.0264704212903
30
0
41
1
10
-0.286897940776583
20
19.0365572483739
30
0
41
1
10
-0.267570126463596
20
19.0556894266828
30
0
41
1
10
-0.25867869207795
20
19.0645056778942
30
0
41
1
10
-0.249519052838338
20
19.0736019583787
30
0
0
SPLINE
5
3F4
100
AcDbEntity
8
SK1
62
256
6
ByLayer
370
-1
48
1
60
0
100
AcDbSpline
70
4
71
3
72
14
73
10
40
0
40
0
40
0
40
0
40
0.431988199166862
40
0.431988199166862
40
0.68608693001285
40
0.68608693001285
40
0.943546696531175
40
0.943546696531175
40
1
40
1
40
1
40
1
41
1
10
-0.249519052838338
20
-19.0736019583787
30
0
41
1
10
-0.26612816946502
20
-19.0571077297869
30
0
41
1
10
-0.282079861488512
20
-19.0413128931183
30
0
41
1
10
-0.302768475341224
20
-19.0209026362754
30
0
41
1
10
-0.309572242547404
20
-19.0142107147592
30
0
41
1
10
-0.31973314348258
20
-19.0042656693031
30
0
41
1
10
-0.323154010967585
20
-19.0009515866635
30
0
41
1
10
-0.324404072908948
20
-18.9998094040996
30
0
41
1
10
-0.324519052838326
20
-18.9997133562905
30
0
41
1
10
-0.324519052838326
20
-18.99973135775
30
0
0
SPLINE
5
3F5
100
AcDbEntity
8
SK1
62
256
6
ByLayer
370
-1
48
1
60
0
100
AcDbSpline
70
4
71
3
72
8
73
4
40
0
40
0
40
0
40
0
40
1
40
1
40
1
40
1
41
1
10
-0.249519052838338
20
-12.0718886217914
30
0
41
1
10
-0.167648592736953
20
-12.2590823591226
30
0
41
1
10
-0.0844518749535723
20
-12.4455098841085
30
0
41
1
10
0
20
-12.6311682604383
30
0
0
SPLINE
5
3F6
100
AcDbEntity
8
SK1
62
256
6
ByLayer
370
-1
48
1
60
0
100
AcDbSpline
70
4
71
3
72
8
73
4
40
0
40
0
40
0
40
0
40
1
40
1
40
1
40
1
41
1
10
-0.249519052838338
20
11.483644388276
30
0
41
1
10
-0.166396158696614
20
11.5580650812788
30
0
41
1
10
-0.0832221958467869
20
11.6324097762753
30
0
41
1
10
0
20
11.7066823491331
30
0
0
SPLINE
5
3F7
100
AcDbEntity
8
SK1
62
256
6
ByLayer
370
-1
48
1
60
0
100
AcDbSpline
70
4
71
3
72
18
73
14
40
0
40
0
40
0
40
0
40
0.140124930238981
40
0.140124930238981
40
0.283917050894812
40
0.283917050894812
40
0.416086444514683
40
0.416086444514683
40
0.53217769638527
40
0.53217769638527
40
0.732824601273379
40
0.732824601273379
40
1
40
1
40
1
40
1
41
1
10
-0.249519052838338
20
-11.483644388276
30
0
41
1
10
-0.255526209508417
20
-11.4782661255606
30
0
41
1
10
-0.261757909792522
20
-11.4734263222854
30
0
41
1
10
-0.274293036239527
20
-11.465845043188
30
0
41
1
10
-0.280758574931212
20
-11.4631062870923
30
0
41
1
10
-0.292096801883048
20
-11.4612021725887
30
0
41
1
10
-0.297193487605028
20
-11.4617681095187
30
0
41
1
10
-0.305233753672383
20
-11.4653392215912
30
0
41
1
10
-0.308470473353708
20
-11.4680478274888
30
0
41
1
10
-0.315720510016405
20
-11.4771715978621
30
0
41
1
10
-0.318786933413037
20
-11.4849346022656
30
0
41
1
10
-0.323531211386523
20
-11.5046951200955
30
0
41
1
10
-0.324519052838326
20
-11.5175083314951
30
0
41
1
10
-0.324519052838326
20
-11.5307719929506
30
0
0
SPLINE
5
3F8
100
AcDbEntity
8
SK1
62
256
6
ByLayer
370
-1
48
1
60
0
100
AcDbSpline
70
4
71
3
72
10
73
6
40
0
40
0
40
0
40
0
40
0.384847239802077
40
0.384847239802077
40
1
40
1
40
1
40
1
41
1
10
-0.324519052838326
20
-11.7907116231339
30
0
41
1
10
-0.324519052838326
20
-11.823098572442
30
0
41
1
10
-0.318462256776428
20
-11.8592176392477
30
0
41
1
10
-0.296162605285048
20
-11.9530775692916
30
0
41
1
10
-0.275235094192823
20
-12.0130898574439
30
0
41
1
10
-0.249519052838338
20
-12.0718886217914
30
0
0
SPLINE
5
3F9
100
AcDbEntity
8
SK1
62
256
6
ByLayer
370
-1
48
1
60
0
100
AcDbSpline
70
4
71
3
72
8
73
4
40
0
40
0
40
0
40
0
40
1
40
1
40
1
40
1
41
1
10
0
20
-11.7066823491331
30
0
41
1
10
-0.0832221958467869
20
-11.6324097762753
30
0
41
1
10
-0.166396158696614
20
-11.5580650812788
30
0
41
1
10
-0.249519052838338
20
-11.483644388276
30
0
0
SPLINE
5
3FA
100
AcDbEntity
8
SK1
62
256
6
ByLayer
370
-1
48
1
60
0
100
AcDbSpline
70
4
71
3
72
10
73
6
40
0
40
0
40
0
40
0
40
0.769673970735105
40
0.769673970735105
40
1
40
1
40
1
40
1
41
1
10
-0.249519052838338
20
12.0718886217914
30
0
41
1
10
-0.281564031317714
20
11.9986189800081
30
0
41
1
10
-0.306800677815431
20
11.9228168658542
30
0
41
1
10
-0.322210829766476
20
11.8312878095864
30
0
41
1
10
-0.324519052838326
20
11.8102779902036
30
0
41
1
10
-0.324519052838326
20
11.7907116231339
30
0
0
SPLINE
5
3FB
100
AcDbEntity
8
SK1
62
256
6
ByLayer
370
-1
48
1
60
0
100
AcDbSpline
70
4
71
3
72
18
73
14
40
0
40
0
40
0
40
0
40
0.32083029364833
40
0.32083029364833
40
0.476811069138415
40
0.476811069138415
40
0.609697449132548
40
0.609697449132548
40
0.744015930930369
40
0.744015930930369
40
0.859671294155377
40
0.859671294155377
40
1
40
1
40
1
40
1
41
1
10
-0.324519052838326
20
11.5307719929506
30
0
41
1
10
-0.324519052838326
20
11.5149110219309
30
0
41
1
10
-0.323132417764185
20
11.4995838321521
30
0
41
1
10
-0.316964200684765
20
11.4806760840516
30
0
41
1
10
-0.314220739890175
20
11.4750394838329
30
0
41
1
10
-0.307408577791023
20
11.4669600705495
30
0
41
1
10
-0.30350734729106
20
11.464123894537
30
0
41
1
10
-0.294336844123023
20
11.4613051848511
30
0
41
1
10
-0.288908281993827
20
11.4613547971215
30
0
41
1
10
-0.278332460249459
20
11.4641633284413
30
0
41
1
10
-0.273138707681426
20
11.4665477933462
30
0
41
1
10
-0.261790314299759
20
11.4734011769204
30
0
41
1
10
-0.255541685027822
20
11.4782522701855
30
0
41
1
10
-0.249519052838338
20
11.483644388276
30
0
0
SPLINE
5
3FC
100
AcDbEntity
8
SK1
62
256
6
ByLayer
370
-1
48
1
60
0
100
AcDbSpline
70
4
71
3
72
8
73
4
40
0
40
0
40
0
40
0
40
1
40
1
40
1
40
1
41
1
10
-0.249519052838338
20
14.637613503657
30
0
41
1
10
-0.166348014707381
20
14.7058740999149
30
0
41
1
10
-0.0831749697857163
20
14.774131436091
30
0
41
1
10
0
20
14.8423856446161
30
0
0
SPLINE
5
3FD
100
AcDbEntity
8
SK1
62
256
6
ByLayer
370
-1
48
1
60
0
100
AcDbSpline
70
4
71
3
72
8
73
4
40
0
40
0
40
0
40
0
40
1
40
1
40
1
40
1
41
1
10
0
20
-19.3208801979494
30
0
41
1
10
-0.0832455498896536
20
-19.2385518046065
30
0
41
1
10
-0.166419466436651
20
-19.1561267310563
30
0
41
1
10
-0.249519052838338
20
-19.0736019583787
30
0
0
SPLINE
5
3FE
100
AcDbEntity
8
1
62
256
6
ByLayer
370
-1
48
1
60
0
100
AcDbSpline
70
4
71
3
72
12
73
8
40
0
40
0
40
0
40
0
40
0.404644073901355
40
0.404644073901355
40
0.80928594775572
40
0.80928594775572
40
1
40
1
40
1
40
1
41
1
10
22.6976081257363
20
-22.3173148929363
30
0
41
1
10
22.6976081257363
20
-22.3724186503983
30
0
41
1
10
22.7072682772495
20
-22.4282588934718
30
0
41
1
10
22.7443076706025
20
-22.5321635735848
30
0
41
1
10
22.7721974635625
20
-22.5816608200582
30
0
41
1
10
22.8238027273011
20
-22.6450717378577
30
0
41
1
10
22.8421877707245
20
-22.6642782751917
30
0
41
1
10
22.8619506933208
20
-22.6818584476715
30
0
0
SPLINE
5
3FF
100
AcDbEntity
8
1
62
256
6
ByLayer
370
-1
48
1
60
0
100
AcDbSpline
70
4
71
3
72
12
73
8
40
0
40
0
40
0
40
0
40
0.342001576379177
40
0.342001576379177
40
0.751585308242129
40
0.751585308242129
40
1
40
1
40
1
40
1
41
1
10
19.6735014801951
20
-19.2278175713757
30
0
41
1
10
19.7094825843996
20
-19.3130265675108
30
0
41
1
10
19.7579971695891
20
-19.3938699509395
30
0
41
1
10
19.8862469514508
20
-19.5514524326923
30
0
41
1
10
19.9721841798833
20
-19.6265917882689
30
0
41
1
10
20.1245875695425
20
-19.7200660339758
30
0
41
1
10
20.1863710913679
20
-19.74970891554
30
0
41
1
10
20.2504362665717
20
-19.7729155121356
30
0
0
SPLINE
5
400
100
AcDbEntity
8
1
62
256
6
ByLayer
370
-1
48
1
60
0
100
AcDbSpline
70
4
71
3
72
8
73
4
40
0
40
0
40
0
40
0
40
1
40
1
40
1
40
1
41
1
10
23.1918941367646
20
-22.7912400754598
30
0
41
1
10
23.1915667861555
20
-22.7912120164051
30
0
41
1
10
23.1912390807145
20
-22.7911837835818
30
0
41
1
10
23.1909110258429
20
-22.7911553752348
30
0
0
SPLINE
5
401
100
AcDbEntity
8
1
62
256
6
ByLayer
370
-1
48
1
60
0
100
AcDbSpline
70
4
71
3
72
10
73
6
40
0
40
0
40
0
40
0
40
0.638091248905418
40
0.638091248905418
40
1
40
1
40
1
40
1
41
1
10
22.9653337039457
20
-22.7382775809851
30
0
41
1
10
22.9373029195691
20
-22.7263846324089
30
0
41
1
10
22.9125428385954
20
-22.7132702084747
30
0
41
1
10
22.8808186678728
20
-22.6942869772879
30
0
41
1
10
22.8705908144666
20
-22.6876336764037
30
0
41
1
10
22.8619506933189
20
-22.6818584476694
30
0
0
SPLINE
5
402
100
AcDbEntity
8
1
62
256
6
ByLayer
370
-1
48
1
60
0
100
AcDbSpline
70
4
71
1
72
5
73
3
40
0
40
0
40
0.72149339345841
40
1
40
1
41
1.08358774580744
10
19.4526165043449
20
-16.5360000601319
30
0
41
1.08358774580744
10
19.5570117010124
20
-16.8891037884992
30
0
41
1.08358774580744
10
19.5973097165268
20
-17.0254067983901
30
0
0
SPLINE
5
403
100
AcDbEntity
8
1
62
256
6
ByLayer
370
-1
48
1
60
0
100
AcDbSpline
70
4
71
3
72
10
73
6
40
0
40
0
40
0
40
0
40
0.722254617258793
40
0.722254617258793
40
1
40
1
40
1
40
1
41
1
10
22.9653337039457
20
-22.7382775809851
30
0
41
1
10
23.0152381539758
20
-22.7631280838506
30
0
41
1
10
23.0702085059961
20
-22.7798240622104
30
0
41
1
10
23.1472895937449
20
-22.7897707913764
30
0
41
1
10
23.1691221327276
20
-22.7911672515034
30
0
41
1
10
23.1909110258418
20
-22.7911553752349
30
0
0
SPLINE
5
404
100
AcDbEntity
8
1
62
256
6
ByLayer
370
-1
48
1
60
0
100
AcDbSpline
70
4
71
2
72
6
73
3
40
0
40
0
40
0
40
1
40
1
40
1
41
0.972514239109755
10
22.5575794278573
20
-21.9761083483388
30
0
41
1.01182408442503
10
22.5291003946149
20
-21.896690155249
30
0
41
1.08358774580744
10
22.5291003946149
20
-21.8123767316892
30
0
0
SPLINE
5
405
100
AcDbEntity
8
1
62
256
6
ByLayer
370
-1
48
1
60
0
100
AcDbSpline
70
4
71
3
72
8
73
4
40
0
40
0
40
0
40
0
40
1
40
1
40
1
40
1
41
1
10
32.1117301786313
20
-11.9160212444674
30
0
41
1
10
32.1074635004526
20
-11.915853857501
30
0
41
1
10
32.1031969092264
20
-11.9156864692979
30
0
41
1
10
32.0989304092564
20
-11.9155190797971
30
0
0
SPLINE
5
406
100
AcDbEntity
8
1
62
256
6
ByLayer
370
-1
48
1
60
0
100
AcDbSpline
70
4
71
3
72
24
73
20
40
0
40
0
40
0
40
0
40
0.104000448201695
40
0.104000448201695
40
0.192499055460848
40
0.192499055460848
40
0.328500518746473
40
0.328500518746473
40
0.438682575665111
40
0.438682575665111
40
0.54853315817156
40
0.54853315817156
40
0.658237202769618
40
0.658237202769618
40
0.767870673660749
40
0.767870673660749
40
0.988088331634126
40
0.988088331634126
40
1
40
1
40
1
40
1
41
1
10
32.0997712966331
20
-12.5392397463316
30
0
41
1
10
32.107391608892
20
-12.5480328603856
30
0
41
1
10
32.1148412075564
20
-12.5591720285208
30
0
41
1
10
32.1268972257404
20
-12.5818664572079
30
0
41
1
10
32.1319181046699
20
-12.5933516982463
30
0
41
1
10
32.1428703515078
20
-12.6227561972227
30
0
41
1
10
32.1480929921393
20
-12.641308725512
30
0
41
1
10
32.1555675296855
20
-12.6737888792113
30
0
41
1
10
32.1582569146788
20
-12.6881929510608
30
0
41
1
10
32.1626504518653
20
-12.7161237583096
30
0
41
1
10
32.1643695323833
20
-12.7297422453894
30
0
41
1
10
32.1670966320357
20
-12.7561300947175
30
0
41
1
10
32.1681089665797
20
-12.7689480525715
30
0
41
1
10
32.1695852071148
20
-12.7937634086258
30
0
41
1
10
32.1700503427961
20
-12.8057907262929
30
0
41
1
10
32.1707695210763
20
-12.8407140035429
30
0
41
1
10
32.1703573413211
20
-12.8625183835071
30
0
41
1
10
32.1691414135624
20
-12.8836775242739
30
0
41
1
10
32.1690766198553
20
-12.8847610669668
30
0
41
1
10
32.1690095872488
20
-12.8858396176832
30
0
0
SPLINE
5
407
100
AcDbEntity
8
1
62
256
6
ByLayer
370
-1
48
1
60
0
100
AcDbSpline
70
4
71
3
72
8
73
4
40
0
40
0
40
0
40
0
40
1
40
1
40
1
40
1
41
1
10
32.0872061245279
20
-12.5265119104865
30
0
41
1
10
32.0913944247936
20
-12.5307545557258
30
0
41
1
10
32.0955828169398
20
-12.5349971671436
30
0
41
1
10
32.0997712966331
20
-12.5392397463316
30
0
0
SPLINE
5
408
100
AcDbEntity
8
1
62
256
6
ByLayer
370
-1
48
1
60
0
100
AcDbSpline
70
4
71
3
72
10
73
6
40
0
40
0
40
0
40
0
40
0.656177422365985
40
0.656177422365985
40
1
40
1
40
1
40
1
41
1
10
32.0671797374123
20
-11.2821858605275
30
0
41
1
10
32.072656653431
20
-11.282159800176
30
0
41
1
10
32.0783051868767
20
-11.2812048093428
30
0
41
1
10
32.0870807293815
20
-11.2779818816416
30
0
41
1
10
32.0901687149253
20
-11.2765294353227
30
0
41
1
10
32.0932541851148
20
-11.2747243430849
30
0
0
SPLINE
5
409
100
AcDbEntity
8
1
62
256
6
ByLayer
370
-1
48
1
60
0
100
AcDbSpline
70
4
71
3
72
16
73
12
40
0
40
0
40
0
40
0
40
0.0292671347693393
40
0.0292671347693393
40
0.265150064972481
40
0.265150064972481
40
0.500881249332105
40
0.500881249332105
40
0.974387824550522
40
0.974387824550522
40
1
40
1
40
1
40
1
41
1
10
32.1273308485338
20
-10.4451238458584
30
0
41
1
10
32.1276595171991
20
-10.4451218854253
30
0
41
1
10
32.1279830975477
20
-10.4451328297193
30
0
41
1
10
32.1308714071961
20
-10.4453453765507
30
0
41
1
10
32.1331300396545
20
-10.4463494722838
30
0
41
1
10
32.1371462634351
20
-10.4497122939984
30
0
41
1
10
32.1389081709841
20
-10.4520753433268
30
0
41
1
10
32.1435736168059
20
-10.4609550335103
30
0
41
1
10
32.1458739382576
20
-10.4692733878502
30
0
41
1
10
32.1475446845611
20
-10.4801846079139
30
0
41
1
10
32.1476284934569
20
-10.4807520472571
30
0
41
1
10
32.1477101605109
20
-10.4813255942455
30
0
0
SPLINE
5
40A
100
AcDbEntity
8
1
62
256
6
ByLayer
370
-1
48
1
60
0
100
AcDbSpline
70
4
71
3
72
8
73
4
40
0
40
0
40
0
40
0
40
1
40
1
40
1
40
1
41
1
10
32.0932541851148
20
-11.2747243430849
30
0
41
1
10
32.0974972138816
20
-11.2722420444978
30
0
41
1
10
32.1017403340919
20
-11.2697597657595
30
0
41
1
10
32.1059835414332
20
-11.2672775059358
30
0
0
SPLINE
5
40B
100
AcDbEntity
8
1
62
256
6
ByLayer
370
-1
48
1
60
0
100
AcDbSpline
70
4
71
3
72
22
73
18
40
0
40
0
40
0
40
0
40
0.208266363442903
40
0.208266363442903
40
0.317899168105628
40
0.317899168105628
40
0.427584739861996
40
0.427584739861996
40
0.537377253733144
40
0.537377253733144
40
0.647402228731127
40
0.647402228731127
40
0.811583680502362
40
0.811583680502362
40
0.906636022131544
40
0.906636022131544
40
1
40
1
40
1
40
1
41
1
10
32.194430220286
20
-11.5610829355556
30
0
41
1
10
32.1946854036216
20
-11.5898908427677
30
0
41
1
10
32.1942386404044
20
-11.6191220790116
30
0
41
1
10
32.1923351451823
20
-11.6637346902524
30
0
41
1
10
32.1914511986906
20
-11.6791700950856
30
0
41
1
10
32.1891500981007
20
-11.7099259883693
30
0
41
1
10
32.1877308960573
20
-11.7252811444336
30
0
41
1
10
32.1842226441177
20
-11.7556899636576
30
0
41
1
10
32.1821285907599
20
-11.7707940279068
30
0
41
1
10
32.1770508104902
20
-11.8003687049876
30
0
41
1
10
32.1740530575094
20
-11.8149219974381
30
0
41
1
10
32.1651177662106
20
-11.8493096798525
30
0
41
1
10
32.1582889161025
20
-11.868924793162
30
0
41
1
10
32.1444130608423
20
-11.8933901052807
30
0
41
1
10
32.1385107688339
20
-11.9011173296107
30
0
41
1
10
32.1257688805795
20
-11.9119135827848
30
0
41
1
10
32.1187807588171
20
-11.9151593068927
30
0
41
1
10
32.1117301786336
20
-11.9160212444672
30
0
0
SPLINE
5
40C
100
AcDbEntity
8
1
62
256
6
ByLayer
370
-1
48
1
60
0
100
AcDbSpline
70
4
71
3
72
18
73
14
40
0
40
0
40
0
40
0
40
0.291135785405836
40
0.291135785405836
40
0.444391607248997
40
0.444391607248997
40
0.597721192272145
40
0.597721192272145
40
0.751200271798696
40
0.751200271798696
40
0.905004308997814
40
0.905004308997814
40
1
40
1
40
1
40
1
41
1
10
32.1690095872488
20
-12.8858396176832
30
0
41
1
10
32.1678407283462
20
-12.9046464890152
30
0
41
1
10
32.1660012227022
20
-12.9220042894297
30
0
41
1
10
32.1620570587428
20
-12.945689753546
30
0
41
1
10
32.1604826352888
20
-12.9533702558614
30
0
41
1
10
32.1568403304309
20
-12.9675306250416
30
0
41
1
10
32.1547688801053
20
-12.9740267571378
30
0
41
1
10
32.1500097887844
20
-12.9855417688748
30
0
41
1
10
32.1473150653611
20
-12.9905799249019
30
0
41
1
10
32.141113060819
20
-12.9987293059912
30
0
41
1
10
32.1375886632143
20
-13.001861580032
30
0
41
1
10
32.131024162034
20
-13.0047498589921
30
0
41
1
10
32.1282966165245
20
-13.0053476518907
30
0
41
1
10
32.1253119377114
20
-13.0053117146578
30
0
0
SPLINE
5
40D
100
AcDbEntity
8
1
62
256
6
ByLayer
370
-1
48
1
60
0
100
AcDbSpline
70
4
71
3
72
10
73
6
40
0
40
0
40
0
40
0
40
0.438104536409347
40
0.438104536409347
40
1
40
1
40
1
40
1
41
1
10
32.0989304092564
20
-11.9155190797971
30
0
41
1
10
32.0911220145302
20
-11.9152127295557
30
0
41
1
10
32.0833181244746
20
-11.9173681980933
30
0
41
1
10
32.066570348948
20
-11.9261325522814
30
0
41
1
10
32.05768498045
20
-11.933840824158
30
0
41
1
10
32.0495472176456
20
-11.9432064059297
30
0
0
SPLINE
5
40E
100
AcDbEntity
8
1
62
256
6
ByLayer
370
-1
48
1
60
0
100
AcDbSpline
70
4
71
3
72
10
73
6
40
0
40
0
40
0
40
0
40
0.701952221330488
40
0.701952221330488
40
1
40
1
40
1
40
1
41
1
10
32.0582713944947
20
-12.4877362719815
30
0
41
1
10
32.0645917135621
20
-12.4982485379492
30
0
41
1
10
32.0712713176339
20
-12.5080010661539
30
0
41
1
10
32.0811321082632
20
-12.5200316473844
30
0
41
1
10
32.0841604521261
20
-12.5234267191926
30
0
41
1
10
32.0872061245278
20
-12.5265119104865
30
0
0
SPLINE
5
40F
100
AcDbEntity
8
1
62
256
6
ByLayer
370
-1
48
1
60
0
100
AcDbSpline
70
4
71
3
72
22
73
18
40
0
40
0
40
0
40
0
40
0.208266363442833
40
0.208266363442833
40
0.317899168105557
40
0.317899168105557
40
0.427584739861923
40
0.427584739861923
40
0.537377253733069
40
0.537377253733069
40
0.647402228731053
40
0.647402228731053
40
0.811583680502332
40
0.811583680502332
40
0.906636022131531
40
0.906636022131531
40
1
40
1
40
1
40
1
41
1
10
32.1477101605109
20
-10.4813255942455
30
0
41
1
10
32.1491342027491
20
-10.4913266301256
30
0
41
1
10
32.1499246703509
20
-10.5031998827617
30
0
41
1
10
32.1499926889678
20
-10.5241264298672
30
0
41
1
10
32.1498061237128
20
-10.531881065616
30
0
41
1
10
32.1489285218665
20
-10.5484759148274
30
0
41
1
10
32.1482370328583
20
-10.5573345300723
30
0
41
1
10
32.1462099671966
20
-10.5762273405223
30
0
41
1
10
32.1448718364042
20
-10.5862926590212
30
0
41
1
10
32.1413251059284
20
-10.6077165342532
30
0
41
1
10
32.1391068118426
20
-10.6191367177376
30
0
41
1
10
32.1321011718268
20
-10.6490824499733
30
0
41
1
10
32.1264558232009
20
-10.6689539958033
30
0
41
1
10
32.1142854255846
20
-10.7014654804472
30
0
41
1
10
32.1089865239955
20
-10.7139150612789
30
0
41
1
10
32.0972735783606
20
-10.7375728495152
30
0
41
1
10
32.0907251974095
20
-10.7490789121198
30
0
41
1
10
32.084004557632
20
-10.7593164881067
30
0
0
SPLINE
5
410
100
AcDbEntity
8
1
62
256
6
ByLayer
370
-1
48
1
60
0
100
AcDbSpline
70
4
71
3
72
24
73
20
40
0
40
0
40
0
40
0
40
0.104000448201692
40
0.104000448201692
40
0.192499055460833
40
0.192499055460833
40
0.328500518746467
40
0.328500518746467
40
0.438682575665108
40
0.438682575665108
40
0.548533158171555
40
0.548533158171555
40
0.658237202769616
40
0.658237202769616
40
0.76787067366075
40
0.76787067366075
40
0.988088331634131
40
0.988088331634131
40
1
40
1
40
1
40
1
41
1
10
32.1059835414332
20
-11.2672775059358
30
0
41
1
10
32.113769310658
20
-11.2638859364239
30
0
41
1
10
32.1215365816925
20
-11.2632309270309
30
0
41
1
10
32.1343972063181
20
-11.2671999532614
30
0
41
1
10
32.1398799784726
20
-11.2710516304024
30
0
41
1
10
32.1521166494756
20
-11.2843458505799
30
0
41
1
10
32.1582405732419
20
-11.295796254899
30
0
41
1
10
32.1673955578958
20
-11.3192986245026
30
0
41
1
10
32.1708684317597
20
-11.3310104246746
30
0
41
1
10
32.1768381199026
20
-11.3556379538335
30
0
41
1
10
32.179354919102
20
-11.36863050494
30
0
41
1
10
32.1836749024091
20
-11.3953956271492
30
0
41
1
10
32.1854853278977
20
-11.4092172364849
30
0
41
1
10
32.1885487663628
20
-11.4373946754194
30
0
41
1
10
32.1898049306787
20
-11.4517847471036
30
0
41
1
10
32.1928808790137
20
-11.4955870123096
30
0
41
1
10
32.1940224778269
20
-11.5257095195385
30
0
41
1
10
32.1943985945161
20
-11.5577798564303
30
0
41
1
10
32.1944155858386
20
-11.5594308378507
30
0
41
1
10
32.194430220286
20
-11.5610829355556
30
0
0
LINE
5
49
100
AcDbEntity
8
80
62
256
6
ByLayer
370
-1
48
1
60
0
100
AcDbLine
10
0
20
0
30
0
11
-5
21
0
31
0
39
0
210
0
220
0
230
1
0
LINE
5
4A
100
AcDbEntity
8
4
62
256
6
ByLayer
370
-1
48
0.05
60
0
100
AcDbLine
10
0
20
0
30
0
11
32
21
0
31
0
39
0
210
0
220
0
230
1
0
LINE
5
4C
100
AcDbEntity
8
81
62
256
6
ByLayer
370
-1
48
1
60
0
100
AcDbLine
10
32
20
-26.875
30
0
11
37
21
-26.875
31
0
39
0
210
0
220
0
230
1
0
LINE
5
4D
100
AcDbEntity
8
SK4
62
256
6
ByLayer
370
-1
48
0.05
60
0
100
AcDbLine
10
-5
20
0
30
0
11
37
21
0
31
0
39
0
210
0
220
0
230
1
0
LINE
5
4F
100
AcDbEntity
8
SK1
62
256
6
ByLayer
370
-1
48
1
60
0
100
AcDbLine
10
-0.324519
20
-19
30
0
11
0
21
-19.324519
31
0
39
0
210
0
220
0
230
1
0
LINE
5
51
100
AcDbEntity
8
1
62
256
6
ByLayer
370
-1
48
1
60
0
100
AcDbLine
10
29.959698
20
-18.53606
30
0
11
29.936642
21
-18.321014
31
0
39
0
210
0
220
0
230
1
0
LINE
5
53
100
AcDbEntity
8
1
62
256
6
ByLayer
370
-1
48
1
60
0
100
AcDbLine
10
24.517698
20
-18.901994
30
0
11
24.540753
21
-19.11704
31
0
39
0
210
0
220
0
230
1
0
LINE
5
54
100
AcDbEntity
8
1
62
256
6
ByLayer
370
-1
48
1
60
0
100
AcDbLine
10
26.220964
20
-17.858207
30
0
11
26.194459
21
-17.610985
31
0
39
0
210
0
220
0
230
1
0
LINE
5
55
100
AcDbEntity
8
1
62
256
6
ByLayer
370
-1
48
1
60
0
100
AcDbLine
10
28.250242
20
-17.674458
30
0
11
28.276227
21
-17.916831
31
0
39
0
210
0
220
0
230
1
0
LINE
5
56
100
AcDbEntity
8
1
62
256
6
ByLayer
370
-1
48
1
60
0
100
AcDbLine
10
26.219886
20
-19.695805
30
0
11
26.19386
21
-19.45306
31
0
39
0
210
0
220
0
230
1
0
LINE
5
57
100
AcDbEntity
8
1
62
256
6
ByLayer
370
-1
48
1
60
0
100
AcDbLine
10
28.249643
20
-19.516533
30
0
11
28.276145
21
-19.763723
31
0
39
0
210
0
220
0
230
1
0
LINE
5
58
100
AcDbEntity
8
1
62
256
6
ByLayer
370
-1
48
1
60
0
100
AcDbLine
10
32.054496
20
-11.28219
30
0
11
32.067731
21
-11.282194
31
0
39
0
210
0
220
0
230
1
0
LINE
5
59
100
AcDbEntity
8
1
62
256
6
ByLayer
370
-1
48
1
60
0
100
AcDbLine
10
0.675481
20
20
30
0
11
0
21
19.324519
31
0
39
0
210
0
220
0
230
1
0
LINE
5
5A
100
AcDbEntity
8
1
62
256
6
ByLayer
370
-1
48
1
60
0
100
AcDbLine
10
0
20
-19.324519
30
0
11
0.675481
21
-20
31
0
39
0
210
0
220
0
230
1
0
LINE
5
5B
100
AcDbEntity
8
1
62
256
6
ByLayer
370
-1
48
1
60
0
100
AcDbLine
10
0.675481
20
-20
30
0
11
13.02662
21
-20
31
0
39
0
210
0
220
0
230
1
0
LINE
5
5C
100
AcDbEntity
8
1
62
256
6
ByLayer
370
-1
48
1
60
0
100
AcDbLine
10
8.888801
20
20
30
0
11
0.675481
21
20
31
0
39
0
210
0
220
0
230
1
0
LINE
5
5D
100
AcDbEntity
8
1
62
256
6
ByLayer
370
-1
48
1
60
0
100
AcDbLine
10
13.639456
20
-20.28577
30
0
11
16.14452
21
-23.271189
31
0
39
0
210
0
220
0
230
1
0
LINE
5
5E
100
AcDbEntity
8
1
62
256
6
ByLayer
370
-1
48
1
60
0
100
AcDbLine
10
31.364799
20
-12.237723
30
0
11
31.296619
21
-11.54899
31
0
39
0
210
0
220
0
230
1
0
LINE
5
5F
100
AcDbEntity
8
1
62
256
6
ByLayer
370
-1
48
1
60
0
100
AcDbLine
10
32.005352
20
-15.914589
30
0
11
31.930587
21
-15.159331
31
0
39
0
210
0
220
0
230
1
0
LINE
5
60
100
AcDbEntity
8
1
62
256
6
ByLayer
370
-1
48
1
60
0
100
AcDbLine
10
31.553487
20
-13.975571
30
0
11
31.487516
21
-13.309144
31
0
39
0
210
0
220
0
230
1
0
LINE
5
61
100
AcDbEntity
8
1
62
256
6
ByLayer
370
-1
48
1
60
0
100
AcDbLine
10
19.281376
20
-18.040908
30
0
11
19.349497
21
-18.729047
31
0
39
0
210
0
220
0
230
1
0
LINE
5
62
100
AcDbEntity
8
1
62
256
6
ByLayer
370
-1
48
1
60
0
100
AcDbLine
10
20.447064
20
-17.480012
30
0
11
20.512982
21
-18.145905
31
0
39
0
210
0
220
0
230
1
0
LINE
5
63
100
AcDbEntity
8
SK1
62
256
6
ByLayer
370
-1
48
1
60
0
100
AcDbLine
10
0
20
19.324519
30
0
11
-0.324519
21
19
31
0
39
0
210
0
220
0
230
1
0
LINE
5
64
100
AcDbEntity
8
1
62
256
6
ByLayer
370
-1
48
1
60
0
100
AcDbLine
10
10.027442
20
10.05311
30
0
11
10.022956
21
-10.535654
31
0
39
0
210
0
220
0
230
1
0
LINE
5
65
100
AcDbEntity
8
1
62
256
6
ByLayer
370
-1
48
1
60
0
100
AcDbLine
10
0
20
19.233341
30
0
11
0
21
19.291745
31
0
39
0
210
0
220
0
230
1
0
LINE
5
66
100
AcDbEntity
8
1
62
256
6
ByLayer
370
-1
48
1
60
0
100
AcDbLine
10
0.394519
20
-15.166097
30
0
11
0.394519
21
-14.916479
31
0
39
0
210
0
220
0
230
1
0
LINE
5
67
100
AcDbEntity
8
1
62
256
6
ByLayer
370
-1
48
1
60
0
100
AcDbLine
10
0
20
18.487583
30
0
11
0
21
18.699503
31
0
39
0
210
0
220
0
230
1
0
LINE
5
68
100
AcDbEntity
8
1
62
256
6
ByLayer
370
-1
48
1
60
0
100
AcDbLine
10
0
20
-14.183485
30
0
11
0
21
-14.842386
31
0
39
0
210
0
220
0
230
1
0
LINE
5
69
100
AcDbEntity
8
1
62
256
6
ByLayer
370
-1
48
1
60
0
100
AcDbLine
10
0
20
-19.291745
30
0
11
0
21
-19.233341
31
0
39
0
210
0
220
0
230
1
0
LINE
5
6A
100
AcDbEntity
8
1
62
256
6
ByLayer
370
-1
48
1
60
0
100
AcDbLine
10
20.841141
20
-16.743863
30
0
11
20.650149
21
-16.74215
31
0
39
0
210
0
220
0
230
1
0
LINE
5
6B
100
AcDbEntity
8
1
62
256
6
ByLayer
370
-1
48
1
60
0
100
AcDbLine
10
0.394519
20
-17.222867
30
0
11
0.394519
21
-17.055333
31
0
39
0
210
0
220
0
230
1
0
LINE
5
6C
100
AcDbEntity
8
1
62
256
6
ByLayer
370
-1
48
1
60
0
100
AcDbLine
10
0
20
13.450703
30
0
11
0
21
14.183491
31
0
39
0
210
0
220
0
230
1
0
LINE
5
6D
100
AcDbEntity
8
1
62
256
6
ByLayer
370
-1
48
1
60
0
100
AcDbLine
10
13.02662
20
-20
30
0
11
13.02662
21
-19.955529
31
0
39
0
210
0
220
0
230
1
0
LINE
5
6E
100
AcDbEntity
8
1
62
256
6
ByLayer
370
-1
48
1
60
0
100
AcDbLine
10
0.394519
20
-13.782314
30
0
11
0.394519
21
-13.474366
31
0
39
0
210
0
220
0
230
1
0
LINE
5
6F
100
AcDbEntity
8
1
62
256
6
ByLayer
370
-1
48
1
60
0
100
AcDbLine
10
0.394519
20
13.474366
30
0
11
0.394519
21
13.782314
31
0
39
0
210
0
220
0
230
1
0
LINE
5
70
100
AcDbEntity
8
1
62
256
6
ByLayer
370
-1
48
1
60
0
100
AcDbLine
10
28.88432
20
-12.143885
30
0
11
31.419457
21
-10.694014
31
0
39
0
210
0
220
0
230
1
0
LINE
5
71
100
AcDbEntity
8
1
62
256
6
ByLayer
370
-1
48
1
60
0
100
AcDbLine
10
16.244746
20
-23.380955
30
0
11
22.438376
21
-23.362468
31
0
39
0
210
0
220
0
230
1
0
LINE
5
72
100
AcDbEntity
8
1
62
256
6
ByLayer
370
-1
48
1
60
0
100
AcDbLine
10
0
20
-19.324519
30
0
11
0
21
-19.32088
31
0
39
0
210
0
220
0
230
1
0
LINE
5
73
100
AcDbEntity
8
1
62
256
6
ByLayer
370
-1
48
1
60
0
100
AcDbLine
10
20.13459
20
-20.085891
30
0
11
18.270412
21
-19.031802
31
0
39
0
210
0
220
0
230
1
0
LINE
5
74
100
AcDbEntity
8
1
62
256
6
ByLayer
370
-1
48
1
60
0
100
AcDbLine
10
22.208522
20
-21.398463
30
0
11
22.438376
21
-21.902576
31
0
39
0
210
0
220
0
230
1
0
LINE
5
75
100
AcDbEntity
8
1
62
256
6
ByLayer
370
-1
48
1
60
0
100
AcDbLine
10
0.394519
20
17.055333
30
0
11
0.394519
21
17.222867
31
0
39
0
210
0
220
0
230
1
0
LINE
5
76
100
AcDbEntity
8
1
62
256
6
ByLayer
370
-1
48
1
60
0
100
AcDbLine
10
0
20
-19.291583
30
0
11
0
21
-19.32088
31
0
39
0
210
0
220
0
230
1
0
LINE
5
77
100
AcDbEntity
8
1
62
256
6
ByLayer
370
-1
48
1
60
0
100
AcDbLine
10
0
20
16.898119
30
0
11
0
21
16.459648
31
0
39
0
210
0
220
0
230
1
0
LINE
5
78
100
AcDbEntity
8
1
62
256
6
ByLayer
370
-1
48
1
60
0
100
AcDbLine
10
0
20
-12.631168
30
0
11
0
21
-11.706682
31
0
39
0
210
0
220
0
230
1
0
LINE
5
79
100
AcDbEntity
8
1
62
256
6
ByLayer
370
-1
48
1
60
0
100
AcDbLine
10
23.531649
20
-15.259574
30
0
11
28.271633
21
-12.548728
31
0
39
0
210
0
220
0
230
1
0
LINE
5
7A
100
AcDbEntity
8
1
62
256
6
ByLayer
370
-1
48
1
60
0
100
AcDbLine
10
9.560885
20
12.318044
30
0
11
8.888801
21
20
31
0
39
0
210
0
220
0
230
1
0
LINE
5
7B
100
AcDbEntity
8
1
62
256
6
ByLayer
370
-1
48
1
60
0
100
AcDbLine
10
0.394519
20
18.965951
30
0
11
0.394519
21
19.047366
31
0
39
0
210
0
220
0
230
1
0
LINE
5
7C
100
AcDbEntity
8
1
62
256
6
ByLayer
370
-1
48
1
60
0
100
AcDbLine
10
22.406518
20
-21.832702
30
0
11
22.406518
21
-21.510458
31
0
39
0
210
0
220
0
230
1
0
LINE
5
7D
100
AcDbEntity
8
1
62
256
6
ByLayer
370
-1
48
1
60
0
100
AcDbLine
10
0.394519
20
-19.606601
30
0
11
0.394519
21
-19.572716
31
0
39
0
210
0
220
0
230
1
0
LINE
5
7E
100
AcDbEntity
8
1
62
256
6
ByLayer
370
-1
48
1
60
0
100
AcDbLine
10
10.022956
20
-10.535654
30
0
11
5.9
21
-10.535654
31
0
39
0
210
0
220
0
230
1
0
LINE
5
7F
100
AcDbEntity
8
1
62
256
6
ByLayer
370
-1
48
1
60
0
100
AcDbLine
10
0
20
15.974086
30
0
11
0
21
16.459691
31
0
39
0
210
0
220
0
230
1
0
LINE
5
80
100
AcDbEntity
8
1
62
256
6
ByLayer
370
-1
48
1
60
0
100
AcDbLine
10
0.394519
20
19.330076
30
0
11
0.394519
21
19.387121
31
0
39
0
210
0
220
0
230
1
0
LINE
5
81
100
AcDbEntity
8
1
62
256
6
ByLayer
370
-1
48
1
60
0
100
AcDbLine
10
0.394519
20
-16.296283
30
0
11
0.394519
21
-16.091699
31
0
39
0
210
0
220
0
230
1
0
LINE
5
82
100
AcDbEntity
8
1
62
256
6
ByLayer
370
-1
48
1
60
0
100
AcDbLine
10
22.438376
20
-21.902576
30
0
11
19.030331
21
-19.974987
31
0
39
0
210
0
220
0
230
1
0
LINE
5
83
100
AcDbEntity
8
1
62
256
6
ByLayer
370
-1
48
1
60
0
100
AcDbLine
10
10.028731
20
5.466633
30
0
11
10.027065
21
-3.932183
31
0
39
0
210
0
220
0
230
1
0
LINE
5
84
100
AcDbEntity
8
1
62
256
6
ByLayer
370
-1
48
1
60
0
100
AcDbLine
10
5.5
20
9.861034
30
0
11
5.5
21
-9.861034
31
0
39
0
210
0
220
0
230
1
0
LINE
5
85
100
AcDbEntity
8
1
62
256
6
ByLayer
370
-1
48
1
60
0
100
AcDbLine
10
0
20
-2.769731
30
0
11
0
21
2.769731
31
0
39
0
210
0
220
0
230
1
0
LINE
5
86
100
AcDbEntity
8
1
62
256
6
ByLayer
370
-1
48
1
60
0
100
AcDbLine
10
0
20
5.98301
30
0
11
0
21
7.924419
31
0
39
0
210
0
220
0
230
1
0
LINE
5
87
100
AcDbEntity
8
1
62
256
6
ByLayer
370
-1
48
1
60
0
100
AcDbLine
10
0.394519
20
19.698551
30
0
11
0.394519
21
19.709823
31
0
39
0
210
0
220
0
230
1
0
LINE
5
88
100
AcDbEntity
8
1
62
256
6
ByLayer
370
-1
48
1
60
0
100
AcDbLine
10
10.026686
20
-6.074793
30
0
11
10.024249
21
-19.826748
31
0
39
0
210
0
220
0
230
1
0
LINE
5
89
100
AcDbEntity
8
1
62
256
6
ByLayer
370
-1
48
1
60
0
100
AcDbLine
10
0.394519
20
-18.580738
30
0
11
0.394519
21
-18.473429
31
0
39
0
210
0
220
0
230
1
0
LINE
5
8A
100
AcDbEntity
8
1
62
256
6
ByLayer
370
-1
48
1
60
0
100
AcDbLine
10
20.650149
20
-16.74215
30
0
11
20.620922
21
-16.71539
31
0
39
0
210
0
220
0
230
1
0
LINE
5
8B
100
AcDbEntity
8
1
62
256
6
ByLayer
370
-1
48
1
60
0
100
AcDbLine
10
0
20
19.145388
30
0
11
0
21
19.233341
31
0
39
0
210
0
220
0
230
1
0
LINE
5
8C
100
AcDbEntity
8
1
62
256
6
ByLayer
370
-1
48
1
60
0
100
AcDbLine
10
31.433168
20
-10.573047
30
0
11
31.433168
21
-1.776994
31
0
39
0
210
0
220
0
230
1
0
LINE
5
8D
100
AcDbEntity
8
1
62
256
6
ByLayer
370
-1
48
1
60
0
100
AcDbLine
10
0.394519
20
-12.057937
30
0
11
0.394519
21
-11.666808
31
0
39
0
210
0
220
0
230
1
0
LINE
5
8E
100
AcDbEntity
8
1
62
256
6
ByLayer
370
-1
48
1
60
0
100
AcDbLine
10
0.394519
20
11.666808
30
0
11
0.394519
21
12.057937
31
0
39
0
210
0
220
0
230
1
0
LINE
5
8F
100
AcDbEntity
8
1
62
256
6
ByLayer
370
-1
48
1
60
0
100
AcDbLine
10
0
20
19.027517
30
0
11
0
21
18.879056
31
0
39
0
210
0
220
0
230
1
0
LINE
5
90
100
AcDbEntity
8
1
62
256
6
ByLayer
370
-1
48
1
60
0
100
AcDbLine
10
0
20
-19.233341
30
0
11
0
21
-19.145388
31
0
39
0
210
0
220
0
230
1
0
LINE
5
91
100
AcDbEntity
8
1
62
256
6
ByLayer
370
-1
48
1
60
0
100
AcDbLine
10
0
20
18.242708
30
0
11
0
21
18.487737
31
0
39
0
210
0
220
0
230
1
0
LINE
5
92
100
AcDbEntity
8
1
62
256
6
ByLayer
370
-1
48
1
60
0
100
AcDbLine
10
0.394519
20
16.091699
30
0
11
0.394519
21
16.296283
31
0
39
0
210
0
220
0
230
1
0
LINE
5
93
100
AcDbEntity
8
1
62
256
6
ByLayer
370
-1
48
1
60
0
100
AcDbLine
10
0
20
17.647136
30
0
11
0
21
17.963057
31
0
39
0
210
0
220
0
230
1
0
LINE
5
94
100
AcDbEntity
8
1
62
256
6
ByLayer
370
-1
48
1
60
0
100
AcDbLine
10
0
20
-18.699503
30
0
11
0
21
-18.487583
31
0
39
0
210
0
220
0
230
1
0
LINE
5
95
100
AcDbEntity
8
1
62
256
6
ByLayer
370
-1
48
1
60
0
100
AcDbLine
10
0
20
9.41655
30
0
11
0
21
10.649949
31
0
39
0
210
0
220
0
230
1
0
LINE
5
96
100
AcDbEntity
8
1
62
256
6
ByLayer
370
-1
48
1
60
0
100
AcDbLine
10
0
20
-17.963057
30
0
11
0
21
-17.647136
31
0
39
0
210
0
220
0
230
1
0
LINE
5
97
100
AcDbEntity
8
1
62
256
6
ByLayer
370
-1
48
1
60
0
100
AcDbLine
10
0
20
-16.459691
30
0
11
0
21
-15.974086
31
0
39
0
210
0
220
0
230
1
0
LINE
5
98
100
AcDbEntity
8
1
62
256
6
ByLayer
370
-1
48
1
60
0
100
AcDbLine
10
0
20
11.706682
30
0
11
0
21
12.631168
31
0
39
0
210
0
220
0
230
1
0
LINE
5
99
100
AcDbEntity
8
1
62
256
6
ByLayer
370
-1
48
1
60
0
100
AcDbLine
10
11.205535
20
-7.830546
30
0
11
11.203387
21
-19.953351
31
0
39
0
210
0
220
0
230
1
0
LINE
5
9A
100
AcDbEntity
8
1
62
256
6
ByLayer
370
-1
48
1
60
0
100
AcDbLine
10
0
20
16.898119
30
0
11
0
21
17.292958
31
0
39
0
210
0
220
0
230
1
0
LINE
5
9B
100
AcDbEntity
8
1
62
256
6
ByLayer
370
-1
48
1
60
0
100
AcDbLine
10
0
20
-17.963025
30
0
11
0
21
-18.242708
31
0
39
0
210
0
220
0
230
1
0
LINE
5
9C
100
AcDbEntity
8
1
62
256
6
ByLayer
370
-1
48
1
60
0
100
AcDbLine
10
0
20
-14.183491
30
0
11
0
21
-13.450703
31
0
39
0
210
0
220
0
230
1
0
LINE
5
9D
100
AcDbEntity
8
1
62
256
6
ByLayer
370
-1
48
1
60
0
100
AcDbLine
10
0
20
-10.649949
30
0
11
0
21
-9.41655
31
0
39
0
210
0
220
0
230
1
0
LINE
5
9E
100
AcDbEntity
8
1
62
256
6
ByLayer
370
-1
48
1
60
0
100
AcDbLine
10
0
20
5.98301
30
0
11
0
21
2.769573
31
0
39
0
210
0
220
0
230
1
0
LINE
5
9F
100
AcDbEntity
8
1
62
256
6
ByLayer
370
-1
48
1
60
0
100
AcDbLine
10
0
20
-2.769573
30
0
11
0
21
-5.98301
31
0
39
0
210
0
220
0
230
1
0
LINE
5
A0
100
AcDbEntity
8
1
62
256
6
ByLayer
370
-1
48
1
60
0
100
AcDbLine
10
0
20
-18.879056
30
0
11
0
21
-19.027517
31
0
39
0
210
0
220
0
230
1
0
LINE
5
A1
100
AcDbEntity
8
1
62
256
6
ByLayer
370
-1
48
1
60
0
100
AcDbLine
10
5.9
20
10.535654
30
0
11
5.9
21
-10.535654
31
0
39
0
210
0
220
0
230
1
0
LINE
5
A2
100
AcDbEntity
8
1
62
256
6
ByLayer
370
-1
48
1
60
0
100
AcDbLine
10
0.394519
20
14.916479
30
0
11
0.394519
21
15.166097
31
0
39
0
210
0
220
0
230
1
0
LINE
5
A3
100
AcDbEntity
8
1
62
256
6
ByLayer
370
-1
48
1
60
0
100
AcDbLine
10
22.604623
20
-22.116869
30
0
11
22.438492
21
-22.117406
31
0
39
0
210
0
220
0
230
1
0
LINE
5
A4
100
AcDbEntity
8
1
62
256
6
ByLayer
370
-1
48
1
60
0
100
AcDbLine
10
31.433168
20
-10.573047
30
0
11
31.419457
21
-10.694014
31
0
39
0
210
0
220
0
230
1
0
LINE
5
A5
100
AcDbEntity
8
1
62
256
6
ByLayer
370
-1
48
1
60
0
100
AcDbLine
10
0.394519
20
-19.047366
30
0
11
0.394519
21
-18.965951
31
0
39
0
210
0
220
0
230
1
0
LINE
5
A6
100
AcDbEntity
8
1
62
256
6
ByLayer
370
-1
48
1
60
0
100
AcDbLine
10
0
20
17.292952
30
0
11
0
21
17.647136
31
0
39
0
210
0
220
0
230
1
0
LINE
5
A7
100
AcDbEntity
8
1
62
256
6
ByLayer
370
-1
48
1
60
0
100
AcDbLine
10
0
20
18.699503
30
0
11
0
21
18.879126
31
0
39
0
210
0
220
0
230
1
0
LINE
5
A8
100
AcDbEntity
8
1
62
256
6
ByLayer
370
-1
48
1
60
0
100
AcDbLine
10
20.841141
20
-16.743863
30
0
11
22.823192
21
-15.610307
31
0
39
0
210
0
220
0
230
1
0
LINE
5
A9
100
AcDbEntity
8
1
62
256
6
ByLayer
370
-1
48
1
60
0
100
AcDbLine
10
0.675481
20
0
30
0
11
0.675481
21
-20
31
0
39
0
210
0
220
0
230
1
0
LINE
5
AA
100
AcDbEntity
8
1
62
256
6
ByLayer
370
-1
48
1
60
0
100
AcDbLine
10
0.675481
20
20
30
0
11
0.675481
21
0
31
0
39
0
210
0
220
0
230
1
0
LINE
5
AB
100
AcDbEntity
8
1
62
256
6
ByLayer
370
-1
48
1
60
0
100
AcDbLine
10
0
20
-15.436852
30
0
11
0
21
-14.842386
31
0
39
0
210
0
220
0
230
1
0
LINE
5
AC
100
AcDbEntity
8
1
62
256
6
ByLayer
370
-1
48
1
60
0
100
AcDbLine
10
0
20
15.43684
30
0
11
0
21
15.974086
31
0
39
0
210
0
220
0
230
1
0
LINE
5
AD
100
AcDbEntity
8
1
62
256
6
ByLayer
370
-1
48
1
60
0
100
AcDbLine
10
0.394519
20
19.572716
30
0
11
0.394519
21
19.606601
31
0
39
0
210
0
220
0
230
1
0
LINE
5
AE
100
AcDbEntity
8
1
62
256
6
ByLayer
370
-1
48
1
60
0
100
AcDbLine
10
0
20
19.32088
30
0
11
0
21
19.291583
31
0
39
0
210
0
220
0
230
1
0
LINE
5
AF
100
AcDbEntity
8
1
62
256
6
ByLayer
370
-1
48
1
60
0
100
AcDbLine
10
0.394519
20
17.841722
30
0
11
0.394519
21
17.97736
31
0
39
0
210
0
220
0
230
1
0
LINE
5
B0
100
AcDbEntity
8
1
62
256
6
ByLayer
370
-1
48
1
60
0
100
AcDbLine
10
0.394519
20
18.473429
30
0
11
0.394519
21
18.580738
31
0
39
0
210
0
220
0
230
1
0
LINE
5
B1
100
AcDbEntity
8
1
62
256
6
ByLayer
370
-1
48
1
60
0
100
AcDbLine
10
0.394519
20
-19.387121
30
0
11
0.394519
21
-19.330076
31
0
39
0
210
0
220
0
230
1
0
LINE
5
B2
100
AcDbEntity
8
1
62
256
6
ByLayer
370
-1
48
1
60
0
100
AcDbLine
10
0
20
-17.292958
30
0
11
0
21
-16.898119
31
0
39
0
210
0
220
0
230
1
0
LINE
5
B3
100
AcDbEntity
8
1
62
256
6
ByLayer
370
-1
48
1
60
0
100
AcDbLine
10
0
20
14.842386
30
0
11
0
21
15.436852
31
0
39
0
210
0
220
0
230
1
0
LINE
5
B4
100
AcDbEntity
8
1
62
256
6
ByLayer
370
-1
48
1
60
0
100
AcDbLine
10
0
20
-15.974086
30
0
11
0
21
-15.43684
31
0
39
0
210
0
220
0
230
1
0
LINE
5
B5
100
AcDbEntity
8
1
62
256
6
ByLayer
370
-1
48
1
60
0
100
AcDbLine
10
0
20
-17.647136
30
0
11
0
21
-17.292952
31
0
39
0
210
0
220
0
230
1
0
LINE
5
B6
100
AcDbEntity
8
1
62
256
6
ByLayer
370
-1
48
1
60
0
100
AcDbLine
10
0
20
-16.459648
30
0
11
0
21
-16.898119
31
0
39
0
210
0
220
0
230
1
0
LINE
5
B7
100
AcDbEntity
8
1
62
256
6
ByLayer
370
-1
48
1
60
0
100
AcDbLine
10
0
20
-9.41655
30
0
11
0
21
-7.924321
31
0
39
0
210
0
220
0
230
1
0
LINE
5
B8
100
AcDbEntity
8
1
62
256
6
ByLayer
370
-1
48
1
60
0
100
AcDbLine
10
0
20
7.924321
30
0
11
0
21
9.41655
31
0
39
0
210
0
220
0
230
1
0
LINE
5
B9
100
AcDbEntity
8
1
62
256
6
ByLayer
370
-1
48
1
60
0
100
AcDbLine
10
0.394519
20
-6.540428
30
0
11
0.394519
21
-5.633353
31
0
39
0
210
0
220
0
230
1
0
LINE
5
BA
100
AcDbEntity
8
1
62
256
6
ByLayer
370
-1
48
1
60
0
100
AcDbLine
10
0.394519
20
5.633353
30
0
11
0.394519
21
6.540428
31
0
39
0
210
0
220
0
230
1
0
LINE
5
BB
100
AcDbEntity
8
1
62
256
6
ByLayer
370
-1
48
1
60
0
100
AcDbLine
10
0
20
-7.924419
30
0
11
0
21
-5.98301
31
0
39
0
210
0
220
0
230
1
0
LINE
5
BC
100
AcDbEntity
8
1
62
256
6
ByLayer
370
-1
48
1
60
0
100
AcDbLine
10
0
20
19.32088
30
0
11
0
21
19.324519
31
0
39
0
210
0
220
0
230
1
0
LINE
5
BD
100
AcDbEntity
8
1
62
256
6
ByLayer
370
-1
48
1
60
0
100
AcDbLine
10
0.394519
20
-17.97736
30
0
11
0.394519
21
-17.841722
31
0
39
0
210
0
220
0
230
1
0
LINE
5
BE
100
AcDbEntity
8
1
62
256
6
ByLayer
370
-1
48
1
60
0
100
AcDbLine
10
0
20
-18.879126
30
0
11
0
21
-18.699503
31
0
39
0
210
0
220
0
230
1
0
LINE
5
BF
100
AcDbEntity
8
1
62
256
6
ByLayer
370
-1
48
1
60
0
100
AcDbLine
10
11.208052
20
6.375838
30
0
11
11.206278
21
-3.639031
31
0
39
0
210
0
220
0
230
1
0
LINE
5
C0
100
AcDbEntity
8
1
62
256
6
ByLayer
370
-1
48
1
60
0
100
AcDbLine
10
13.639456
20
-20.28577
30
0
11
13.639456
21
-20.245908
31
0
39
0
210
0
220
0
230
1
0
LINE
5
C1
100
AcDbEntity
8
1
62
256
6
ByLayer
370
-1
48
1
60
0
100
AcDbLine
10
0
20
18.242708
30
0
11
0
21
17.963025
31
0
39
0
210
0
220
0
230
1
0
LINE
5
C2
100
AcDbEntity
8
1
62
256
6
ByLayer
370
-1
48
1
60
0
100
AcDbLine
10
0
20
19.027517
30
0
11
0
21
19.145402
31
0
39
0
210
0
220
0
230
1
0
LINE
5
C3
100
AcDbEntity
8
1
62
256
6
ByLayer
370
-1
48
1
60
0
100
AcDbLine
10
0.394519
20
-9.815066
30
0
11
0.394519
21
-9.282906
31
0
39
0
210
0
220
0
230
1
0
LINE
5
C4
100
AcDbEntity
8
1
62
256
6
ByLayer
370
-1
48
1
60
0
100
AcDbLine
10
0.394519
20
9.282906
30
0
11
0.394519
21
9.815066
31
0
39
0
210
0
220
0
230
1
0
LINE
5
C5
100
AcDbEntity
8
1
62
256
6
ByLayer
370
-1
48
1
60
0
100
AcDbLine
10
0
20
14.842386
30
0
11
0
21
14.183485
31
0
39
0
210
0
220
0
230
1
0
LINE
5
C6
100
AcDbEntity
8
1
62
256
6
ByLayer
370
-1
48
1
60
0
100
AcDbLine
10
0
20
-19.145402
30
0
11
0
21
-19.027517
31
0
39
0
210
0
220
0
230
1
0
LINE
5
C7
100
AcDbEntity
8
1
62
256
6
ByLayer
370
-1
48
1
60
0
100
AcDbLine
10
0
20
-18.487737
30
0
11
0
21
-18.242708
31
0
39
0
210
0
220
0
230
1
0
LINE
5
C8
100
AcDbEntity
8
1
62
256
6
ByLayer
370
-1
48
1
60
0
100
AcDbLine
10
0
20
11.706682
30
0
11
0
21
10.649788
31
0
39
0
210
0
220
0
230
1
0
LINE
5
C9
100
AcDbEntity
8
1
62
256
6
ByLayer
370
-1
48
1
60
0
100
AcDbLine
10
0
20
-10.649788
30
0
11
0
21
-11.706682
31
0
39
0
210
0
220
0
230
1
0
LINE
5
CA
100
AcDbEntity
8
1
62
256
6
ByLayer
370
-1
48
1
60
0
100
AcDbLine
10
25.522832
20
3.189601
30
0
11
19.522832
21
3.189601
31
0
39
0
210
0
220
0
230
1
0
LINE
5
CB
100
AcDbEntity
8
1
62
256
6
ByLayer
370
-1
48
1
60
0
100
AcDbLine
10
0
20
-13.450703
30
0
11
0
21
-12.631051
31
0
39
0
210
0
220
0
230
1
0
LINE
5
CC
100
AcDbEntity
8
1
62
256
6
ByLayer
370
-1
48
1
60
0
100
AcDbLine
10
0
20
12.631051
30
0
11
0
21
13.450703
31
0
39
0
210
0
220
0
230
1
0
LINE
5
CD
100
AcDbEntity
8
1
62
256
6
ByLayer
370
-1
48
1
60
0
100
AcDbLine
10
31.433168
20
-10.573047
30
0
11
20.650149
21
-16.74215
31
0
39
0
210
0
220
0
230
1
0
LINE
5
CE
100
AcDbEntity
8
1
62
256
6
ByLayer
370
-1
48
1
60
0
100
AcDbLine
10
5.9
20
10.535654
30
0
11
9.881433
21
10.535654
31
0
39
0
210
0
220
0
230
1
0
LINE
5
CF
100
AcDbEntity
8
1
62
256
6
ByLayer
370
-1
48
1
60
0
100
AcDbLine
10
0.394519
20
-19.709823
30
0
11
0.394519
21
-19.698551
31
0
39
0
210
0
220
0
230
1
0
LINE
5
D0
100
AcDbEntity
8
1
62
256
6
ByLayer
370
-1
48
1
60
0
100
AcDbLine
10
22.438376
20
-23.362468
30
0
11
22.438376
21
-21.902576
31
0
39
0
210
0
220
0
230
1
0
LINE
5
D1
100
AcDbEntity
8
SK1
62
256
6
ByLayer
370
-1
48
1
60
0
100
AcDbLine
10
0
20
17.292952
30
0
11
0
21
17.647136
31
0
39
0
210
0
220
0
230
1
0
LINE
5
D2
100
AcDbEntity
8
SK1
62
256
6
ByLayer
370
-1
48
1
60
0
100
AcDbLine
10
-0.324519
20
15.901587
30
0
11
-0.324519
21
16.678463
31
0
39
0
210
0
220
0
230
1
0
LINE
5
D3
100
AcDbEntity
8
SK1
62
256
6
ByLayer
370
-1
48
1
60
0
100
AcDbLine
10
0
20
16.898119
30
0
11
0
21
17.292958
31
0
39
0
210
0
220
0
230
1
0
LINE
5
D4
100
AcDbEntity
8
SK1
62
256
6
ByLayer
370
-1
48
1
60
0
100
AcDbLine
10
-0.249519
20
16.074887
30
0
11
-0.249519
21
16.692674
31
0
39
0
210
0
220
0
230
1
0
LINE
5
D5
100
AcDbEntity
8
SK1
62
256
6
ByLayer
370
-1
48
1
60
0
100
AcDbLine
10
-0.324519
20
16.787151
30
0
11
-0.324519
21
16.678463
31
0
39
0
210
0
220
0
230
1
0
LINE
5
D6
100
AcDbEntity
8
SK1
62
256
6
ByLayer
370
-1
48
1
60
0
100
AcDbLine
10
0
20
16.898119
30
0
11
0
21
16.459648
31
0
39
0
210
0
220
0
230
1
0
LINE
5
D7
100
AcDbEntity
8
SK1
62
256
6
ByLayer
370
-1
48
1
60
0
100
AcDbLine
10
-0.249519
20
16.939826
30
0
11
-0.249519
21
17.438125
31
0
39
0
210
0
220
0
230
1
0
LINE
5
D8
100
AcDbEntity
8
SK1
62
256
6
ByLayer
370
-1
48
1
60
0
100
AcDbLine
10
0
20
17.647136
30
0
11
0
21
17.963057
31
0
39
0
210
0
220
0
230
1
0
LINE
5
D9
100
AcDbEntity
8
SK1
62
256
6
ByLayer
370
-1
48
1
60
0
100
AcDbLine
10
-0.324519
20
16.787098
30
0
11
-0.324519
21
17.413335
31
0
39
0
210
0
220
0
230
1
0
LINE
5
DA
100
AcDbEntity
8
SK1
62
256
6
ByLayer
370
-1
48
1
60
0
100
AcDbLine
10
-0.324519
20
17.500152
30
0
11
-0.324519
21
17.413335
31
0
39
0
210
0
220
0
230
1
0
LINE
5
DB
100
AcDbEntity
8
SK1
62
256
6
ByLayer
370
-1
48
1
60
0
100
AcDbLine
10
0
20
-18.487737
30
0
11
0
21
-18.242708
31
0
39
0
210
0
220
0
230
1
0
LINE
5
DC
100
AcDbEntity
8
SK1
62
256
6
ByLayer
370
-1
48
1
60
0
100
AcDbLine
10
-0.324519
20
-17.993814
30
0
11
-0.324519
21
-18.061069
31
0
39
0
210
0
220
0
230
1
0
LINE
5
DD
100
AcDbEntity
8
SK1
62
256
6
ByLayer
370
-1
48
1
60
0
100
AcDbLine
10
-0.249519
20
-18.028616
30
0
11
-0.249519
21
-17.635622
31
0
39
0
210
0
220
0
230
1
0
LINE
5
DE
100
AcDbEntity
8
SK1
62
256
6
ByLayer
370
-1
48
1
60
0
100
AcDbLine
10
-0.324519
20
-17.993814
30
0
11
-0.324519
21
-17.500131
31
0
39
0
210
0
220
0
230
1
0
LINE
5
DF
100
AcDbEntity
8
SK1
62
256
6
ByLayer
370
-1
48
1
60
0
100
AcDbLine
10
0
20
-17.963025
30
0
11
0
21
-18.242708
31
0
39
0
210
0
220
0
230
1
0
LINE
5
E0
100
AcDbEntity
8
SK1
62
256
6
ByLayer
370
-1
48
1
60
0
100
AcDbLine
10
0
20
18.242708
30
0
11
0
21
18.487737
31
0
39
0
210
0
220
0
230
1
0
LINE
5
E1
100
AcDbEntity
8
SK1
62
256
6
ByLayer
370
-1
48
1
60
0
100
AcDbLine
10
-0.249519
20
17.635622
30
0
11
-0.249519
21
18.028616
31
0
39
0
210
0
220
0
230
1
0
LINE
5
E2
100
AcDbEntity
8
SK1
62
256
6
ByLayer
370
-1
48
1
60
0
100
AcDbLine
10
0
20
18.242708
30
0
11
0
21
17.963025
31
0
39
0
210
0
220
0
230
1
0
LINE
5
E3
100
AcDbEntity
8
SK1
62
256
6
ByLayer
370
-1
48
1
60
0
100
AcDbLine
10
-0.324519
20
17.500131
30
0
11
-0.324519
21
17.993814
31
0
39
0
210
0
220
0
230
1
0
LINE
5
E4
100
AcDbEntity
8
SK1
62
256
6
ByLayer
370
-1
48
1
60
0
100
AcDbLine
10
-0.324519
20
18.061069
30
0
11
-0.324519
21
17.993814
31
0
39
0
210
0
220
0
230
1
0
LINE
5
E5
100
AcDbEntity
8
SK1
62
256
6
ByLayer
370
-1
48
1
60
0
100
AcDbLine
10
-0.324519
20
18.061058
30
0
11
-0.324519
21
18.434491
31
0
39
0
210
0
220
0
230
1
0
LINE
5
E6
100
AcDbEntity
8
SK1
62
256
6
ByLayer
370
-1
48
1
60
0
100
AcDbLine
10
0
20
18.487583
30
0
11
0
21
18.699503
31
0
39
0
210
0
220
0
230
1
0
LINE
5
E7
100
AcDbEntity
8
SK1
62
256
6
ByLayer
370
-1
48
1
60
0
100
AcDbLine
10
-0.249519
20
18.181625
30
0
11
-0.249519
21
18.479011
31
0
39
0
210
0
220
0
230
1
0
LINE
5
E8
100
AcDbEntity
8
SK1
62
256
6
ByLayer
370
-1
48
1
60
0
100
AcDbLine
10
-0.324519
20
18.483753
30
0
11
-0.324519
21
18.434491
31
0
39
0
210
0
220
0
230
1
0
LINE
5
E9
100
AcDbEntity
8
SK1
62
256
6
ByLayer
370
-1
48
1
60
0
100
AcDbLine
10
0
20
18.699503
30
0
11
0
21
18.879126
31
0
39
0
210
0
220
0
230
1
0
LINE
5
EA
100
AcDbEntity
8
SK1
62
256
6
ByLayer
370
-1
48
1
60
0
100
AcDbLine
10
0
20
-7.924419
30
0
11
0
21
-5.98301
31
0
39
0
210
0
220
0
230
1
0
LINE
5
EB
100
AcDbEntity
8
SK1
62
256
6
ByLayer
370
-1
48
1
60
0
100
AcDbLine
10
-0.324519
20
6.373939
30
0
11
-0.324519
21
5.775161
31
0
39
0
210
0
220
0
230
1
0
LINE
5
EC
100
AcDbEntity
8
SK1
62
256
6
ByLayer
370
-1
48
1
60
0
100
AcDbLine
10
-0.324519
20
-5.775161
30
0
11
-0.324519
21
-6.373939
31
0
39
0
210
0
220
0
230
1
0
LINE
5
ED
100
AcDbEntity
8
SK1
62
256
6
ByLayer
370
-1
48
1
60
0
100
AcDbLine
10
0
20
5.98301
30
0
11
0
21
7.924419
31
0
39
0
210
0
220
0
230
1
0
LINE
5
EE
100
AcDbEntity
8
SK1
62
256
6
ByLayer
370
-1
48
1
60
0
100
AcDbLine
10
-0.249519
20
-5.611457
30
0
11
-0.249519
21
5.611457
31
0
39
0
210
0
220
0
230
1
0
LINE
5
EF
100
AcDbEntity
8
SK1
62
256
6
ByLayer
370
-1
48
1
60
0
100
AcDbLine
10
0
20
5.98301
30
0
11
0
21
2.769573
31
0
39
0
210
0
220
0
230
1
0
LINE
5
F0
100
AcDbEntity
8
SK1
62
256
6
ByLayer
370
-1
48
1
60
0
100
AcDbLine
10
0
20
-2.769573
30
0
11
0
21
-5.98301
31
0
39
0
210
0
220
0
230
1
0
LINE
5
F1
100
AcDbEntity
8
SK1
62
256
6
ByLayer
370
-1
48
1
60
0
100
AcDbLine
10
-0.324519
20
-5.775161
30
0
11
-0.324519
21
5.775161
31
0
39
0
210
0
220
0
230
1
0
LINE
5
F2
100
AcDbEntity
8
SK1
62
256
6
ByLayer
370
-1
48
1
60
0
100
AcDbLine
10
-0.324519
20
-9.241515
30
0
11
-0.324519
21
-6.373757
31
0
39
0
210
0
220
0
230
1
0
LINE
5
F3
100
AcDbEntity
8
SK1
62
256
6
ByLayer
370
-1
48
1
60
0
100
AcDbLine
10
-0.324519
20
6.373757
30
0
11
-0.324519
21
9.241515
31
0
39
0
210
0
220
0
230
1
0
LINE
5
F4
100
AcDbEntity
8
SK1
62
256
6
ByLayer
370
-1
48
1
60
0
100
AcDbLine
10
0
20
-9.41655
30
0
11
0
21
-7.924321
31
0
39
0
210
0
220
0
230
1
0
LINE
5
F5
100
AcDbEntity
8
SK1
62
256
6
ByLayer
370
-1
48
1
60
0
100
AcDbLine
10
0
20
7.924321
30
0
11
0
21
9.41655
31
0
39
0
210
0
220
0
230
1
0
LINE
5
F6
100
AcDbEntity
8
SK1
62
256
6
ByLayer
370
-1
48
1
60
0
100
AcDbLine
10
-0.324519
20
9.595519
30
0
11
-0.324519
21
9.241515
31
0
39
0
210
0
220
0
230
1
0
LINE
5
F7
100
AcDbEntity
8
SK1
62
256
6
ByLayer
370
-1
48
1
60
0
100
AcDbLine
10
0
20
9.41655
30
0
11
0
21
10.649949
31
0
39
0
210
0
220
0
230
1
0
LINE
5
F8
100
AcDbEntity
8
SK1
62
256
6
ByLayer
370
-1
48
1
60
0
100
AcDbLine
10
-0.324519
20
-9.241515
30
0
11
-0.324519
21
-9.595519
31
0
39
0
210
0
220
0
230
1
0
LINE
5
F9
100
AcDbEntity
8
SK1
62
256
6
ByLayer
370
-1
48
1
60
0
100
AcDbLine
10
-0.249519
20
-9.161401
30
0
11
-0.249519
21
-6.936326
31
0
39
0
210
0
220
0
230
1
0
LINE
5
FA
100
AcDbEntity
8
SK1
62
256
6
ByLayer
370
-1
48
1
60
0
100
AcDbLine
10
-0.249519
20
6.936326
30
0
11
-0.249519
21
9.161401
31
0
39
0
210
0
220
0
230
1
0
LINE
5
FB
100
AcDbEntity
8
SK1
62
256
6
ByLayer
370
-1
48
1
60
0
100
AcDbLine
10
0
20
-10.649949
30
0
11
0
21
-9.41655
31
0
39
0
210
0
220
0
230
1
0
LINE
5
FC
100
AcDbEntity
8
SK1
62
256
6
ByLayer
370
-1
48
1
60
0
100
AcDbLine
10
-0.324519
20
-11.530772
30
0
11
-0.324519
21
-11.790712
31
0
39
0
210
0
220
0
230
1
0
LINE
5
FD
100
AcDbEntity
8
SK1
62
256
6
ByLayer
370
-1
48
1
60
0
100
AcDbLine
10
-0.324519
20
-13.266944
30
0
11
-0.324519
21
-13.470997
31
0
39
0
210
0
220
0
230
1
0
LINE
5
FE
100
AcDbEntity
8
SK1
62
256
6
ByLayer
370
-1
48
1
60
0
100
AcDbLine
10
-0.324519
20
-14.648035
30
0
11
-0.324519
21
-14.812652
31
0
39
0
210
0
220
0
230
1
0
LINE
5
FF
100
AcDbEntity
8
SK1
62
256
6
ByLayer
370
-1
48
1
60
0
100
AcDbLine
10
0
20
-14.183491
30
0
11
0
21
-13.450703
31
0
39
0
210
0
220
0
230
1
0
LINE
5
100
100
AcDbEntity
8
SK1
62
256
6
ByLayer
370
-1
48
1
60
0
100
AcDbLine
10
0
20
-13.450703
30
0
11
0
21
-12.631051
31
0
39
0
210
0
220
0
230
1
0
LINE
5
101
100
AcDbEntity
8
SK1
62
256
6
ByLayer
370
-1
48
1
60
0
100
AcDbLine
10
0
20
12.631051
30
0
11
0
21
13.450703
31
0
39
0
210
0
220
0
230
1
0
LINE
5
102
100
AcDbEntity
8
SK1
62
256
6
ByLayer
370
-1
48
1
60
0
100
AcDbLine
10
-0.324519
20
11.987818
30
0
11
-0.324519
21
13.266944
31
0
39
0
210
0
220
0
230
1
0
LINE
5
103
100
AcDbEntity
8
SK1
62
256
6
ByLayer
370
-1
48
1
60
0
100
AcDbLine
10
-0.249519
20
-13.240729
30
0
11
-0.249519
21
-12.071893
31
0
39
0
210
0
220
0
230
1
0
LINE
5
104
100
AcDbEntity
8
SK1
62
256
6
ByLayer
370
-1
48
1
60
0
100
AcDbLine
10
-0.324519
20
-13.266944
30
0
11
-0.324519
21
-11.987818
31
0
39
0
210
0
220
0
230
1
0
LINE
5
105
100
AcDbEntity
8
SK1
62
256
6
ByLayer
370
-1
48
1
60
0
100
AcDbLine
10
-0.324519
20
13.470997
30
0
11
-0.324519
21
13.266944
31
0
39
0
210
0
220
0
230
1
0
LINE
5
106
100
AcDbEntity
8
SK1
62
256
6
ByLayer
370
-1
48
1
60
0
100
AcDbLine
10
-0.249519
20
12.071893
30
0
11
-0.249519
21
13.240729
31
0
39
0
210
0
220
0
230
1
0
LINE
5
107
100
AcDbEntity
8
SK1
62
256
6
ByLayer
370
-1
48
1
60
0
100
AcDbLine
10
0
20
13.450703
30
0
11
0
21
14.183491
31
0
39
0
210
0
220
0
230
1
0
LINE
5
108
100
AcDbEntity
8
SK1
62
256
6
ByLayer
370
-1
48
1
60
0
100
AcDbLine
10
0
20
19.027517
30
0
11
0
21
19.145402
31
0
39
0
210
0
220
0
230
1
0
LINE
5
109
100
AcDbEntity
8
SK1
62
256
6
ByLayer
370
-1
48
1
60
0
100
AcDbLine
10
-0.249519
20
18.591085
30
0
11
-0.249519
21
18.799379
31
0
39
0
210
0
220
0
230
1
0
LINE
5
10A
100
AcDbEntity
8
SK1
62
256
6
ByLayer
370
-1
48
1
60
0
100
AcDbLine
10
0
20
19.027517
30
0
11
0
21
18.879056
31
0
39
0
210
0
220
0
230
1
0
LINE
5
10B
100
AcDbEntity
8
SK1
62
256
6
ByLayer
370
-1
48
1
60
0
100
AcDbLine
10
-0.324519
20
18.483743
30
0
11
-0.324519
21
18.745228
31
0
39
0
210
0
220
0
230
1
0
LINE
5
10C
100
AcDbEntity
8
SK1
62
256
6
ByLayer
370
-1
48
1
60
0
100
AcDbLine
10
-0.324519
20
18.77754
30
0
11
-0.324519
21
18.745228
31
0
39
0
210
0
220
0
230
1
0
LINE
5
10D
100
AcDbEntity
8
SK1
62
256
6
ByLayer
370
-1
48
1
60
0
100
AcDbLine
10
-0.249519
20
-18.799379
30
0
11
-0.249519
21
-18.591085
31
0
39
0
210
0
220
0
230
1
0
LINE
5
10E
100
AcDbEntity
8
SK1
62
256
6
ByLayer
370
-1
48
1
60
0
100
AcDbLine
10
0
20
-18.879056
30
0
11
0
21
-19.027517
31
0
39
0
210
0
220
0
230
1
0
LINE
5
10F
100
AcDbEntity
8
SK1
62
256
6
ByLayer
370
-1
48
1
60
0
100
AcDbLine
10
-0.324519
20
-18.745228
30
0
11
-0.324519
21
-18.77754
31
0
39
0
210
0
220
0
230
1
0
LINE
5
110
100
AcDbEntity
8
SK1
62
256
6
ByLayer
370
-1
48
1
60
0
100
AcDbLine
10
-0.324519
20
-18.745228
30
0
11
-0.324519
21
-18.483743
31
0
39
0
210
0
220
0
230
1
0
LINE
5
111
100
AcDbEntity
8
SK1
62
256
6
ByLayer
370
-1
48
1
60
0
100
AcDbLine
10
0
20
-19.145402
30
0
11
0
21
-19.027517
31
0
39
0
210
0
220
0
230
1
0
LINE
5
112
100
AcDbEntity
8
SK1
62
256
6
ByLayer
370
-1
48
1
60
0
100
AcDbLine
10
0
20
-18.879126
30
0
11
0
21
-18.699503
31
0
39
0
210
0
220
0
230
1
0
LINE
5
113
100
AcDbEntity
8
SK1
62
256
6
ByLayer
370
-1
48
1
60
0
100
AcDbLine
10
0
20
-18.699503
30
0
11
0
21
-18.487583
31
0
39
0
210
0
220
0
230
1
0
LINE
5
114
100
AcDbEntity
8
SK1
62
256
6
ByLayer
370
-1
48
1
60
0
100
AcDbLine
10
-0.324519
20
-18.434491
30
0
11
-0.324519
21
-18.061058
31
0
39
0
210
0
220
0
230
1
0
LINE
5
115
100
AcDbEntity
8
SK1
62
256
6
ByLayer
370
-1
48
1
60
0
100
AcDbLine
10
-0.249519
20
-18.479011
30
0
11
-0.249519
21
-18.181625
31
0
39
0
210
0
220
0
230
1
0
LINE
5
116
100
AcDbEntity
8
SK1
62
256
6
ByLayer
370
-1
48
1
60
0
100
AcDbLine
10
-0.324519
20
-18.434491
30
0
11
-0.324519
21
-18.483753
31
0
39
0
210
0
220
0
230
1
0
LINE
5
117
100
AcDbEntity
8
SK1
62
256
6
ByLayer
370
-1
48
1
60
0
100
AcDbLine
10
0
20
-19.324519
30
0
11
0
21
-19.32088
31
0
39
0
210
0
220
0
230
1
0
LINE
5
118
100
AcDbEntity
8
1
62
256
6
ByLayer
370
-1
48
1
60
0
100
AcDbLine
10
28.261557
20
-24.36282
30
0
11
32.006531
21
-22.046733
31
0
39
0
210
0
220
0
230
1
0
LINE
5
119
100
AcDbEntity
8
1
62
256
6
ByLayer
370
-1
48
1
60
0
100
AcDbLine
10
30.038614
20
-12.440823
30
0
11
30.035433
21
-12.817515
31
0
39
0
210
0
220
0
230
1
0
LINE
5
11A
100
AcDbEntity
8
1
62
256
6
ByLayer
370
-1
48
1
60
0
100
AcDbLine
10
30.857325
20
-25.32598
30
0
11
30.853989
21
-24.775948
31
0
39
0
210
0
220
0
230
1
0
LINE
5
11B
100
AcDbEntity
8
1
62
256
6
ByLayer
370
-1
48
1
60
0
100
AcDbLine
10
31.341772
20
-14.695407
30
0
11
31.318787
21
-14.463214
31
0
39
0
210
0
220
0
230
1
0
LINE
5
11C
100
AcDbEntity
8
1
62
256
6
ByLayer
370
-1
48
1
60
0
100
AcDbLine
10
30.862901
20
-17.98386
30
0
11
30.689126
21
-18.581285
31
0
39
0
210
0
220
0
230
1
0
LINE
5
11D
100
AcDbEntity
8
1
62
256
6
ByLayer
370
-1
48
1
60
0
100
AcDbLine
10
22.332519
20
-16.223961
30
0
11
24.025631
21
-15.256097
31
0
39
0
210
0
220
0
230
1
0
LINE
5
11E
100
AcDbEntity
8
1
62
256
6
ByLayer
370
-1
48
1
60
0
100
AcDbLine
10
29.331927
20
-24.812906
30
0
11
29.950773
21
-24.811059
31
0
39
0
210
0
220
0
230
1
0
LINE
5
11F
100
AcDbEntity
8
1
62
256
6
ByLayer
370
-1
48
1
60
0
100
AcDbLine
10
20.09464
20
-18.803379
30
0
11
20.668062
21
-18.782708
31
0
39
0
210
0
220
0
230
1
0
LINE
5
120
100
AcDbEntity
8
1
62
256
6
ByLayer
370
-1
48
1
60
0
100
AcDbLine
10
21.000164
20
-17.420423
30
0
11
20.934414
21
-16.756226
31
0
39
0
210
0
220
0
230
1
0
LINE
5
121
100
AcDbEntity
8
1
62
256
6
ByLayer
370
-1
48
1
60
0
100
AcDbLine
10
30.658936
20
-24.216381
30
0
11
30.993539
21
-24.015808
31
0
39
0
210
0
220
0
230
1
0
LINE
5
122
100
AcDbEntity
8
1
62
256
6
ByLayer
370
-1
48
1
60
0
100
AcDbLine
10
20.532426
20
-18.347387
30
0
11
20.510416
21
-18.385003
31
0
39
0
210
0
220
0
230
1
0
LINE
5
123
100
AcDbEntity
8
1
62
256
6
ByLayer
370
-1
48
1
60
0
100
AcDbLine
10
32.006531
20
-19.389267
30
0
11
31.165502
21
-18.988855
31
0
39
0
210
0
220
0
230
1
0
LINE
5
124
100
AcDbEntity
8
1
62
256
6
ByLayer
370
-1
48
1
60
0
100
AcDbLine
10
25.10594
20
-14.605363
30
0
11
25.335264
21
-15.409019
31
0
39
0
210
0
220
0
230
1
0
LINE
5
125
100
AcDbEntity
8
1
62
256
6
ByLayer
370
-1
48
1
60
0
100
AcDbLine
10
25.36665
20
-14.489506
30
0
11
27.703242
21
-13.153798
31
0
39
0
210
0
220
0
230
1
0
LINE
5
126
100
AcDbEntity
8
1
62
256
6
ByLayer
370
-1
48
1
60
0
100
AcDbLine
10
30.097221
20
-24.733758
30
0
11
30.11165
21
-24.713016
31
0
39
0
210
0
220
0
230
1
0
LINE
5
127
100
AcDbEntity
8
1
62
256
6
ByLayer
370
-1
48
1
60
0
100
AcDbLine
10
28.69053
20
-13.02503
30
0
11
28.155288
21
-12.78176
31
0
39
0
210
0
220
0
230
1
0
LINE
5
128
100
AcDbEntity
8
1
62
256
6
ByLayer
370
-1
48
1
60
0
100
AcDbLine
10
20.934414
20
-16.756226
30
0
11
21.325539
21
-16.752495
31
0
39
0
210
0
220
0
230
1
0
LINE
5
129
100
AcDbEntity
8
1
62
256
6
ByLayer
370
-1
48
1
60
0
100
AcDbLine
10
21.212655
20
-20.341523
30
0
11
20.919195
21
-20.539633
31
0
39
0
210
0
220
0
230
1
0
LINE
5
12A
100
AcDbEntity
8
1
62
256
6
ByLayer
370
-1
48
1
60
0
100
AcDbLine
10
31.505313
20
-22.790476
30
0
11
31.995885
21
-22.465425
31
0
39
0
210
0
220
0
230
1
0
LINE
5
12B
100
AcDbEntity
8
1
62
256
6
ByLayer
370
-1
48
1
60
0
100
AcDbLine
10
25.977977
20
-22.942768
30
0
11
25.702042
21
-23.374666
31
0
39
0
210
0
220
0
230
1
0
LINE
5
12C
100
AcDbEntity
8
1
62
256
6
ByLayer
370
-1
48
1
60
0
100
AcDbLine
10
30.390543
20
-24.722663
30
0
11
30.813175
21
-25.449768
31
0
39
0
210
0
220
0
230
1
0
LINE
5
12D
100
AcDbEntity
8
1
62
256
6
ByLayer
370
-1
48
1
60
0
100
AcDbLine
10
30.985985
20
-25.549628
30
0
11
31.01431
21
-25.549543
31
0
39
0
210
0
220
0
230
1
0
LINE
5
12E
100
AcDbEntity
8
1
62
256
6
ByLayer
370
-1
48
1
60
0
100
AcDbLine
10
28.865195
20
-12.731535
30
0
11
31.415896
21
-14.270136
31
0
39
0
210
0
220
0
230
1
0
LINE
5
12F
100
AcDbEntity
8
1
62
256
6
ByLayer
370
-1
48
1
60
0
100
AcDbLine
10
31.602331
20
-15.184147
30
0
11
31.973042
21
-15.81547
31
0
39
0
210
0
220
0
230
1
0
LINE
5
130
100
AcDbEntity
8
1
62
256
6
ByLayer
370
-1
48
1
60
0
100
AcDbLine
10
24.45407
20
-22.662845
30
0
11
24.615516
21
-22.7304
31
0
39
0
210
0
220
0
230
1
0
LINE
5
131
100
AcDbEntity
8
1
62
256
6
ByLayer
370
-1
48
1
60
0
100
AcDbLine
10
20.014174
20
-19.686495
30
0
11
20.235132
21
-19.522574
31
0
39
0
210
0
220
0
230
1
0
LINE
5
132
100
AcDbEntity
8
1
62
256
6
ByLayer
370
-1
48
1
60
0
100
AcDbLine
10
30.327523
20
-24.414499
30
0
11
30.857325
21
-25.32598
31
0
39
0
210
0
220
0
230
1
0
LINE
5
133
100
AcDbEntity
8
1
62
256
6
ByLayer
370
-1
48
1
60
0
100
AcDbLine
10
20.683405
20
-18.542796
30
0
11
19.643987
21
-18.580265
31
0
39
0
210
0
220
0
230
1
0
LINE
5
134
100
AcDbEntity
8
1
62
256
6
ByLayer
370
-1
48
1
60
0
100
AcDbLine
10
21.551093
20
-20.925046
30
0
11
21.891477
21
-21.207079
31
0
39
0
210
0
220
0
230
1
0
LINE
5
135
100
AcDbEntity
8
1
62
256
6
ByLayer
370
-1
48
1
60
0
100
AcDbLine
10
25.751972
20
-21.876163
30
0
11
26.189917
21
-22.321538
31
0
39
0
210
0
220
0
230
1
0
LINE
5
136
100
AcDbEntity
8
1
62
256
6
ByLayer
370
-1
48
1
60
0
100
AcDbLine
10
30.373813
20
-13.011668
30
0
11
30.035433
21
-12.817515
31
0
39
0
210
0
220
0
230
1
0
LINE
5
137
100
AcDbEntity
8
1
62
256
6
ByLayer
370
-1
48
1
60
0
100
AcDbLine
10
30.035385
20
-12.336911
30
0
11
30.611813
21
-12.354149
31
0
39
0
210
0
220
0
230
1
0
LINE
5
138
100
AcDbEntity
8
1
62
256
6
ByLayer
370
-1
48
1
60
0
100
AcDbLine
10
31.211292
20
-12.370415
30
0
11
30.753967
21
-12.596238
31
0
39
0
210
0
220
0
230
1
0
LINE
5
139
100
AcDbEntity
8
1
62
256
6
ByLayer
370
-1
48
1
60
0
100
AcDbLine
10
32.002379
20
-18.859321
30
0
11
32.002922
21
-18.22522
31
0
39
0
210
0
220
0
230
1
0
LINE
5
13A
100
AcDbEntity
8
1
62
256
6
ByLayer
370
-1
48
1
60
0
100
AcDbLine
10
31.141633
20
-25.325132
30
0
11
31.665985
21
-24.410504
31
0
39
0
210
0
220
0
230
1
0
LINE
5
13B
100
AcDbEntity
8
1
62
256
6
ByLayer
370
-1
48
1
60
0
100
AcDbLine
10
25.733199
20
-21.893642
30
0
11
24.785952
21
-22.816861
31
0
39
0
210
0
220
0
230
1
0
LINE
5
13C
100
AcDbEntity
8
1
62
256
6
ByLayer
370
-1
48
1
60
0
100
AcDbLine
10
21.178545
20
-20.291109
30
0
11
21.23042
21
-17.412123
31
0
39
0
210
0
220
0
230
1
0
LINE
5
13D
100
AcDbEntity
8
1
62
256
6
ByLayer
370
-1
48
1
60
0
100
AcDbLine
10
32.005904
20
-17.9544
30
0
11
31.485097
21
-17.935975
31
0
39
0
210
0
220
0
230
1
0
LINE
5
13E
100
AcDbEntity
8
1
62
256
6
ByLayer
370
-1
48
1
60
0
100
AcDbLine
10
25.36665
20
-14.489506
30
0
11
25.432893
21
-15.408162
31
0
39
0
210
0
220
0
230
1
0
LINE
5
13F
100
AcDbEntity
8
1
62
256
6
ByLayer
370
-1
48
1
60
0
100
AcDbLine
10
30.864724
20
-23.79746
30
0
11
30.530121
21
-23.998034
31
0
39
0
210
0
220
0
230
1
0
LINE
5
140
100
AcDbEntity
8
1
62
256
6
ByLayer
370
-1
48
1
60
0
100
AcDbLine
10
31.138297
20
-24.7751
30
0
11
31.141633
21
-25.325132
31
0
39
0
210
0
220
0
230
1
0
LINE
5
141
100
AcDbEntity
8
1
62
256
6
ByLayer
370
-1
48
1
60
0
100
AcDbLine
10
28.803074
20
-12.734662
30
0
11
28.781322
21
-12.392592
31
0
39
0
210
0
220
0
230
1
0
LINE
5
142
100
AcDbEntity
8
1
62
256
6
ByLayer
370
-1
48
1
60
0
100
AcDbLine
10
31.676315
20
-22.992773
30
0
11
31.992953
21
-23.151143
31
0
39
0
210
0
220
0
230
1
0
LINE
5
143
100
AcDbEntity
8
1
62
256
6
ByLayer
370
-1
48
1
60
0
100
AcDbLine
10
32.002922
20
-18.22522
30
0
11
30.862901
21
-17.98386
31
0
39
0
210
0
220
0
230
1
0
LINE
5
144
100
AcDbEntity
8
1
62
256
6
ByLayer
370
-1
48
1
60
0
100
AcDbLine
10
24.361023
20
-22.61608
30
0
11
25.135809
21
-22.097836
31
0
39
0
210
0
220
0
230
1
0
LINE
5
145
100
AcDbEntity
8
1
62
256
6
ByLayer
370
-1
48
1
60
0
100
AcDbLine
10
30.92657
20
-13.177846
30
0
11
30.91548
21
-13.065824
31
0
39
0
210
0
220
0
230
1
0
LINE
5
146
100
AcDbEntity
8
1
62
256
6
ByLayer
370
-1
48
1
60
0
100
AcDbLine
10
25.272372
20
-14.53683
30
0
11
25.10594
21
-14.605363
31
0
39
0
210
0
220
0
230
1
0
LINE
5
147
100
AcDbEntity
8
1
62
256
6
ByLayer
370
-1
48
1
60
0
100
AcDbLine
10
31.530273
20
-13.904699
30
0
11
31.464253
21
-13.237778
31
0
39
0
210
0
220
0
230
1
0
LINE
5
148
100
AcDbEntity
8
1
62
256
6
ByLayer
370
-1
48
1
60
0
100
AcDbLine
10
30.689126
20
-18.581285
30
0
11
32.002379
21
-18.859321
31
0
39
0
210
0
220
0
230
1
0
LINE
5
149
100
AcDbEntity
8
1
62
256
6
ByLayer
370
-1
48
1
60
0
100
AcDbLine
10
32.005269
20
-22.183763
30
0
11
28.503651
21
-24.349347
31
0
39
0
210
0
220
0
230
1
0
LINE
5
14A
100
AcDbEntity
8
1
62
256
6
ByLayer
370
-1
48
1
60
0
100
AcDbLine
10
20.683405
20
-18.542796
30
0
11
20.668062
21
-18.782708
31
0
39
0
210
0
220
0
230
1
0
LINE
5
14B
100
AcDbEntity
8
1
62
256
6
ByLayer
370
-1
48
1
60
0
100
AcDbLine
10
27.395153
20
-24.332422
30
0
11
25.702042
21
-23.374666
31
0
39
0
210
0
220
0
230
1
0
LINE
5
14C
100
AcDbEntity
8
1
62
256
6
ByLayer
370
-1
48
1
60
0
100
AcDbLine
10
20.469472
20
-19.70038
30
0
11
20.806661
21
-19.50421
31
0
39
0
210
0
220
0
230
1
0
LINE
5
14D
100
AcDbEntity
8
1
62
256
6
ByLayer
370
-1
48
1
60
0
100
AcDbLine
10
31.425206
20
-14.254569
30
0
11
31.898278
21
-15.060212
31
0
39
0
210
0
220
0
230
1
0
LINE
5
14E
100
AcDbEntity
8
1
62
256
6
ByLayer
370
-1
48
1
60
0
100
AcDbLine
10
21.242913
20
-20.722753
30
0
11
21.212655
21
-20.341523
31
0
39
0
210
0
220
0
230
1
0
LINE
5
14F
100
AcDbEntity
8
1
62
256
6
ByLayer
370
-1
48
1
60
0
100
AcDbLine
10
30.693501
20
-13.236781
30
0
11
30.468314
21
-13.074192
31
0
39
0
210
0
220
0
230
1
0
LINE
5
150
100
AcDbEntity
8
1
62
256
6
ByLayer
370
-1
48
1
60
0
100
AcDbLine
10
20.528324
20
-18.201127
30
0
11
20.538667
21
-18.22287
31
0
39
0
210
0
220
0
230
1
0
LINE
5
151
100
AcDbEntity
8
1
62
256
6
ByLayer
370
-1
48
1
60
0
100
AcDbLine
10
25.311762
20
-16.018739
30
0
11
24.933417
21
-14.692848
31
0
39
0
210
0
220
0
230
1
0
LINE
5
152
100
AcDbEntity
8
1
62
256
6
ByLayer
370
-1
48
1
60
0
100
AcDbLine
10
31.995885
20
-22.465425
30
0
11
32.005269
21
-22.183763
31
0
39
0
210
0
220
0
230
1
0
LINE
5
153
100
AcDbEntity
8
1
62
256
6
ByLayer
370
-1
48
1
60
0
100
AcDbLine
10
19.501833
20
-18.823203
30
0
11
20.014174
21
-19.686495
31
0
39
0
210
0
220
0
230
1
0
LINE
5
154
100
AcDbEntity
8
1
62
256
6
ByLayer
370
-1
48
1
60
0
100
AcDbLine
10
29.770328
20
-12.460827
30
0
11
29.767147
21
-12.837519
31
0
39
0
210
0
220
0
230
1
0
LINE
5
155
100
AcDbEntity
8
1
62
256
6
ByLayer
370
-1
48
1
60
0
100
AcDbLine
10
31.648492
20
-23.048212
30
0
11
29.059034
21
-24.521118
31
0
39
0
210
0
220
0
230
1
0
LINE
5
156
100
AcDbEntity
8
1
62
256
6
ByLayer
370
-1
48
1
60
0
100
AcDbLine
10
19.561169
20
-18.486304
30
0
11
19.493235
21
-17.800049
31
0
39
0
210
0
220
0
230
1
0
LINE
5
157
100
AcDbEntity
8
1
62
256
6
ByLayer
370
-1
48
1
60
0
100
AcDbLine
10
21.870315
20
-16.947886
30
0
11
22.024431
21
-21.294322
31
0
39
0
210
0
220
0
230
1
0
LINE
5
158
100
AcDbEntity
8
1
62
256
6
ByLayer
370
-1
48
1
60
0
100
AcDbLine
10
31.485097
20
-17.935975
30
0
11
32.004278
21
-18.045893
31
0
39
0
210
0
220
0
230
1
0
LINE
5
159
100
AcDbEntity
8
1
62
256
6
ByLayer
370
-1
48
1
60
0
100
AcDbLine
10
20.84577
20
-17.512237
30
0
11
20.536347
21
-18.041033
31
0
39
0
210
0
220
0
230
1
0
LINE
5
15A
100
AcDbEntity
8
1
62
256
6
ByLayer
370
-1
48
1
60
0
100
AcDbLine
10
31.479392
20
-14.964182
30
0
11
31.341772
21
-14.695407
31
0
39
0
210
0
220
0
230
1
0
LINE
5
15B
100
AcDbEntity
8
1
62
256
6
ByLayer
370
-1
48
1
60
0
100
AcDbLine
10
31.081737
20
-13.288005
30
0
11
31.038836
21
-12.854621
31
0
39
0
210
0
220
0
230
1
0
LINE
5
15C
100
AcDbEntity
8
1
62
256
6
ByLayer
370
-1
48
1
60
0
100
AcDbLine
10
21.609756
20
-17.329883
30
0
11
21.54035
21
-16.628758
31
0
39
0
210
0
220
0
230
1
0
LINE
5
15D
100
AcDbEntity
8
1
62
256
6
ByLayer
370
-1
48
1
60
0
100
AcDbLine
10
20.532426
20
-18.347387
30
0
11
20.466876
21
-17.68521
31
0
39
0
210
0
220
0
230
1
0
LINE
5
15E
100
AcDbEntity
8
1
62
256
6
ByLayer
370
-1
48
1
60
0
100
AcDbLine
10
28.841525
20
-12.359293
30
0
11
28.865195
21
-12.731535
31
0
39
0
210
0
220
0
230
1
0
LINE
5
15F
100
AcDbEntity
8
1
62
256
6
ByLayer
370
-1
48
1
60
0
100
AcDbLine
10
30.327523
20
-24.414499
30
0
11
30.56171
21
-24.273106
31
0
39
0
210
0
220
0
230
1
0
LINE
5
160
100
AcDbEntity
8
1
62
256
6
ByLayer
370
-1
48
1
60
0
100
AcDbLine
10
21.242913
20
-20.722753
30
0
11
20.919195
21
-20.539633
31
0
39
0
210
0
220
0
230
1
0
LINE
5
161
100
AcDbEntity
8
1
62
256
6
ByLayer
370
-1
48
1
60
0
100
AcDbLine
10
28.457604
20
-12.577645
30
0
11
28.781322
21
-12.392592
31
0
39
0
210
0
220
0
230
1
0
LINE
5
162
100
AcDbEntity
8
1
62
256
6
ByLayer
370
-1
48
1
60
0
100
AcDbLine
10
31.602331
20
-15.184147
30
0
11
27.703242
21
-13.153798
31
0
39
0
210
0
220
0
230
1
0
LINE
5
163
100
AcDbEntity
8
1
62
256
6
ByLayer
370
-1
48
1
60
0
100
AcDbLine
10
30.225554
20
-24.652893
30
0
11
30.269576
21
-24.652762
31
0
39
0
210
0
220
0
230
1
0
LINE
5
164
100
AcDbEntity
8
1
62
256
6
ByLayer
370
-1
48
1
60
0
100
AcDbLine
10
31.31181
20
-14.606204
30
0
11
28.69053
21
-13.02503
31
0
39
0
210
0
220
0
230
1
0
LINE
5
165
100
AcDbEntity
8
1
62
256
6
ByLayer
370
-1
48
1
60
0
100
AcDbLine
10
19.375458
20
-18.612523
30
0
11
19.307224
21
-17.923242
31
0
39
0
210
0
220
0
230
1
0
LINE
5
166
100
AcDbEntity
8
1
62
256
6
ByLayer
370
-1
48
1
60
0
100
AcDbLine
10
31.665985
20
-24.410504
30
0
11
31.42757
21
-24.270521
31
0
39
0
210
0
220
0
230
1
0
LINE
5
167
100
AcDbEntity
8
1
62
256
6
ByLayer
370
-1
48
1
60
0
100
AcDbLine
10
25.519925
20
-23.25016
30
0
11
25.616439
21
-23.320261
31
0
39
0
210
0
220
0
230
1
0
LINE
5
168
100
AcDbEntity
8
1
62
256
6
ByLayer
370
-1
48
1
60
0
100
AcDbLine
10
20.390331
20
-18.456414
30
0
11
20.324571
21
-17.792119
31
0
39
0
210
0
220
0
230
1
0
LINE
5
169
100
AcDbEntity
8
1
62
256
6
ByLayer
370
-1
48
1
60
0
100
AcDbLine
10
21.23042
20
-17.412123
30
0
11
21.000164
21
-17.420423
31
0
39
0
210
0
220
0
230
1
0
LINE
5
16A
100
AcDbEntity
8
1
62
256
6
ByLayer
370
-1
48
1
60
0
100
AcDbLine
10
29.461543
20
-11.813759
30
0
11
29.48168
21
-12.01718
31
0
39
0
210
0
220
0
230
1
0
LINE
5
16B
100
AcDbEntity
8
1
62
256
6
ByLayer
370
-1
48
1
60
0
100
AcDbLine
10
24.700041
20
-16.170789
30
0
11
25.311762
21
-16.018739
31
0
39
0
210
0
220
0
230
1
0
LINE
5
16C
100
AcDbEntity
8
1
62
256
6
ByLayer
370
-1
48
1
60
0
100
AcDbLine
10
28.503651
20
-24.349347
30
0
11
28.766599
21
-24.307163
31
0
39
0
210
0
220
0
230
1
0
LINE
5
16D
100
AcDbEntity
8
1
62
256
6
ByLayer
370
-1
48
1
60
0
100
AcDbLine
10
24.266688
20
-15.706285
30
0
11
24.025631
21
-15.256097
31
0
39
0
210
0
220
0
230
1
0
LINE
5
16E
100
AcDbEntity
8
1
62
256
6
ByLayer
370
-1
48
1
60
0
100
AcDbLine
10
28.457604
20
-12.577645
30
0
11
28.803074
21
-12.734662
31
0
39
0
210
0
220
0
230
1
0
LINE
5
16F
100
AcDbEntity
8
1
62
256
6
ByLayer
370
-1
48
1
60
0
100
AcDbLine
10
20.510416
20
-18.385003
30
0
11
20.444865
21
-17.722826
31
0
39
0
210
0
220
0
230
1
0
LINE
5
170
100
AcDbEntity
8
1
62
256
6
ByLayer
370
-1
48
1
60
0
100
AcDbLine
10
30.94858
20
-13.21533
30
0
11
30.930771
21
-13.035425
31
0
39
0
210
0
220
0
230
1
0
LINE
5
171
100
AcDbEntity
8
1
62
256
6
ByLayer
370
-1
48
1
60
0
100
AcDbLine
10
20.536347
20
-18.041033
30
0
11
20.470327
21
-17.374112
31
0
39
0
210
0
220
0
230
1
0
LINE
5
172
100
AcDbEntity
8
1
62
256
6
ByLayer
370
-1
48
1
60
0
100
AcDbLine
10
21.870315
20
-16.947886
30
0
11
22.241027
21
-16.31435
31
0
39
0
210
0
220
0
230
1
0
LINE
5
173
100
AcDbEntity
8
1
62
256
6
ByLayer
370
-1
48
1
60
0
100
AcDbLine
10
32.004278
20
-18.045893
30
0
11
32.005904
21
-17.9544
31
0
39
0
210
0
220
0
230
1
0
LINE
5
174
100
AcDbEntity
8
1
62
256
6
ByLayer
370
-1
48
1
60
0
100
AcDbLine
10
29.897341
20
-13.059239
30
0
11
30.235721
21
-13.253392
31
0
39
0
210
0
220
0
230
1
0
LINE
5
175
100
AcDbEntity
8
1
62
256
6
ByLayer
370
-1
48
1
60
0
100
AcDbLine
10
27.833672
20
-13.065769
30
0
11
31.479392
21
-14.964182
31
0
39
0
210
0
220
0
230
1
0
LINE
5
176
100
AcDbEntity
8
1
62
256
6
ByLayer
370
-1
48
1
60
0
100
AcDbLine
10
31.48954
20
-17.8458
30
0
11
32.006531
21
-17.864091
31
0
39
0
210
0
220
0
230
1
0
LINE
5
177
100
AcDbEntity
8
1
62
256
6
ByLayer
370
-1
48
1
60
0
100
AcDbLine
10
30.281647
20
-11.344746
30
0
11
31.08476
21
-11.347613
31
0
39
0
210
0
220
0
230
1
0
LINE
5
178
100
AcDbEntity
8
1
62
256
6
ByLayer
370
-1
48
1
60
0
100
AcDbLine
10
31.22085
20
-13.37775
30
0
11
31.15483
21
-12.710829
31
0
39
0
210
0
220
0
230
1
0
LINE
5
179
100
AcDbEntity
8
1
62
256
6
ByLayer
370
-1
48
1
60
0
100
AcDbLine
10
19.952486
20
-19.046316
30
0
11
19.501833
21
-18.823203
31
0
39
0
210
0
220
0
230
1
0
LINE
5
17A
100
AcDbEntity
8
1
62
256
6
ByLayer
370
-1
48
1
60
0
100
AcDbLine
10
31.152694
20
-12.033868
30
0
11
29.608708
21
-11.987694
31
0
39
0
210
0
220
0
230
1
0
LINE
5
17B
100
AcDbEntity
8
1
62
256
6
ByLayer
370
-1
48
1
60
0
100
AcDbLine
10
31.993058
20
-23.220551
30
0
11
31.648492
21
-23.048212
31
0
39
0
210
0
220
0
230
1
0
LINE
5
17C
100
AcDbEntity
8
1
62
256
6
ByLayer
370
-1
48
1
60
0
100
AcDbLine
10
22.206258
20
-15.963131
30
0
11
22.241027
21
-16.31435
31
0
39
0
210
0
220
0
230
1
0
LINE
5
17D
100
AcDbEntity
8
1
62
256
6
ByLayer
370
-1
48
1
60
0
100
AcDbLine
10
31.056779
20
-13.285132
30
0
11
31.017668
21
-12.890043
31
0
39
0
210
0
220
0
230
1
0
LINE
5
17E
100
AcDbEntity
8
1
62
256
6
ByLayer
370
-1
48
1
60
0
100
AcDbLine
10
24.203241
20
-15.130518
30
0
11
24.109979
21
-15.201185
31
0
39
0
210
0
220
0
230
1
0
LINE
5
17F
100
AcDbEntity
8
1
62
256
6
ByLayer
370
-1
48
1
60
0
100
AcDbLine
10
31.530273
20
-13.904699
30
0
11
31.22085
21
-13.37775
31
0
39
0
210
0
220
0
230
1
0
LINE
5
180
100
AcDbEntity
8
1
62
256
6
ByLayer
370
-1
48
1
60
0
100
AcDbLine
10
31.207428
20
-18.896365
30
0
11
32.005916
21
-19.276524
31
0
39
0
210
0
220
0
230
1
0
LINE
5
181
100
AcDbEntity
8
1
62
256
6
ByLayer
370
-1
48
1
60
0
100
AcDbLine
10
28.261557
20
-24.36282
30
0
11
27.520135
21
-24.365033
31
0
39
0
210
0
220
0
230
1
0
LINE
5
182
100
AcDbEntity
8
1
62
256
6
ByLayer
370
-1
48
1
60
0
100
AcDbLine
10
20.663822
20
-18.886643
30
0
11
20.665812
21
-19.263319
31
0
39
0
210
0
220
0
230
1
0
LINE
5
183
100
AcDbEntity
8
1
62
256
6
ByLayer
370
-1
48
1
60
0
100
AcDbLine
10
31.040061
20
-24.718959
30
0
11
31.329333
21
-24.21438
31
0
39
0
210
0
220
0
230
1
0
LINE
5
184
100
AcDbEntity
8
1
62
256
6
ByLayer
370
-1
48
1
60
0
100
AcDbLine
10
20.045977
20
-18.983232
30
0
11
20.328623
21
-19.459489
31
0
39
0
210
0
220
0
230
1
0
LINE
5
185
100
AcDbEntity
8
1
62
256
6
ByLayer
370
-1
48
1
60
0
100
AcDbLine
10
24.785952
20
-22.816861
30
0
11
25.348849
21
-23.140453
31
0
39
0
210
0
220
0
230
1
0
LINE
5
186
100
AcDbEntity
8
1
62
256
6
ByLayer
370
-1
48
1
60
0
100
AcDbLine
10
31.898278
20
-15.060212
30
0
11
31.973042
21
-15.81547
31
0
39
0
210
0
220
0
230
1
0
LINE
5
187
100
AcDbEntity
8
1
62
256
6
ByLayer
370
-1
48
1
60
0
100
AcDbLine
10
20.328623
20
-19.459489
30
0
11
20.665812
21
-19.263319
31
0
39
0
210
0
220
0
230
1
0
LINE
5
188
100
AcDbEntity
8
1
62
256
6
ByLayer
370
-1
48
1
60
0
100
AcDbLine
10
21.390975
20
-17.413509
30
0
11
21.325539
21
-16.752495
31
0
39
0
210
0
220
0
230
1
0
LINE
5
189
100
AcDbEntity
8
1
62
256
6
ByLayer
370
-1
48
1
60
0
100
AcDbLine
10
20.84577
20
-17.512237
30
0
11
20.77975
21
-16.845316
31
0
39
0
210
0
220
0
230
1
0
LINE
5
18A
100
AcDbEntity
8
1
62
256
6
ByLayer
370
-1
48
1
60
0
100
AcDbLine
10
31.992953
20
-22.78297
30
0
11
31.992953
21
-23.151143
31
0
39
0
210
0
220
0
230
1
0
LINE
5
18B
100
AcDbEntity
8
1
62
256
6
ByLayer
370
-1
48
1
60
0
100
AcDbLine
10
19.38962
20
-18.58832
30
0
11
19.375458
21
-18.612523
31
0
39
0
210
0
220
0
230
1
0
LINE
5
18C
100
AcDbEntity
8
1
62
256
6
ByLayer
370
-1
48
1
60
0
100
AcDbLine
10
19.493235
20
-17.800049
30
0
11
20.324571
21
-17.792119
31
0
39
0
210
0
220
0
230
1
0
LINE
5
18D
100
AcDbEntity
8
1
62
256
6
ByLayer
370
-1
48
1
60
0
100
AcDbLine
10
20.223512
20
-20.168389
30
0
11
20.859201
21
-20.506693
31
0
39
0
210
0
220
0
230
1
0
LINE
5
18E
100
AcDbEntity
8
1
62
256
6
ByLayer
370
-1
48
1
60
0
100
AcDbLine
10
20.663822
20
-18.886643
30
0
11
20.0904
21
-18.907313
31
0
39
0
210
0
220
0
230
1
0
LINE
5
18F
100
AcDbEntity
8
1
62
256
6
ByLayer
370
-1
48
1
60
0
100
AcDbLine
10
30.693501
20
-13.236781
30
0
11
31.211292
21
-12.370415
31
0
39
0
210
0
220
0
230
1
0
LINE
5
190
100
AcDbEntity
8
1
62
256
6
ByLayer
370
-1
48
1
60
0
100
AcDbLine
10
25.348849
20
-23.140453
30
0
11
26.171144
21
-22.339017
31
0
39
0
210
0
220
0
230
1
0
LINE
5
191
100
AcDbEntity
8
1
62
256
6
ByLayer
370
-1
48
1
60
0
100
AcDbLine
10
29.059034
20
-24.521118
30
0
11
29.176398
21
-24.723033
31
0
39
0
210
0
220
0
230
1
0
LINE
5
192
100
AcDbEntity
8
1
62
256
6
ByLayer
370
-1
48
1
60
0
100
AcDbLine
10
31.069138
20
-12.128326
30
0
11
30.02427
21
-12.097078
31
0
39
0
210
0
220
0
230
1
0
LINE
5
193
100
AcDbEntity
8
1
62
256
6
ByLayer
370
-1
48
1
60
0
100
AcDbLine
10
19.307224
20
-17.923242
30
0
11
19.321386
21
-17.899038
31
0
39
0
210
0
220
0
230
1
0
LINE
5
194
100
AcDbEntity
8
1
62
256
6
ByLayer
370
-1
48
1
60
0
100
AcDbLine
10
30.373813
20
-13.011668
30
0
11
30.659466
21
-12.533715
31
0
39
0
210
0
220
0
230
1
0
LINE
5
195
100
AcDbEntity
8
1
62
256
6
ByLayer
370
-1
48
1
60
0
100
AcDbLine
10
21.504213
20
-20.3344
30
0
11
21.551093
21
-20.925046
31
0
39
0
210
0
220
0
230
1
0
LINE
5
196
100
AcDbEntity
8
1
62
256
6
ByLayer
370
-1
48
1
60
0
100
AcDbLine
10
31.42757
20
-24.270521
30
0
11
31.138297
21
-24.7751
31
0
39
0
210
0
220
0
230
1
0
LINE
5
197
100
AcDbEntity
8
1
62
256
6
ByLayer
370
-1
48
1
60
0
100
AcDbLine
10
31.99529
20
-23.96863
30
0
11
31.993058
21
-23.220551
31
0
39
0
210
0
220
0
230
1
0
LINE
5
198
100
AcDbEntity
8
1
62
256
6
ByLayer
370
-1
48
1
60
0
100
AcDbLine
10
31.324843
20
-12.134857
30
0
11
31.256609
21
-11.445576
31
0
39
0
210
0
220
0
230
1
0
LINE
5
199
100
AcDbEntity
8
1
62
256
6
ByLayer
370
-1
48
1
60
0
100
AcDbLine
10
31.992953
20
-22.78297
30
0
11
31.676315
21
-22.992773
31
0
39
0
210
0
220
0
230
1
0
LINE
5
19A
100
AcDbEntity
8
1
62
256
6
ByLayer
370
-1
48
1
60
0
100
AcDbLine
10
30.753967
20
-12.596238
30
0
11
30.468314
21
-13.074192
31
0
39
0
210
0
220
0
230
1
0
LINE
5
19B
100
AcDbEntity
8
1
62
256
6
ByLayer
370
-1
48
1
60
0
100
AcDbLine
10
31.152694
20
-12.033868
30
0
11
31.08476
21
-11.347613
31
0
39
0
210
0
220
0
230
1
0
LINE
5
19C
100
AcDbEntity
8
1
62
256
6
ByLayer
370
-1
48
1
60
0
100
AcDbLine
10
19.643987
20
-18.580265
30
0
11
20.09464
21
-18.803379
31
0
39
0
210
0
220
0
230
1
0
LINE
5
19D
100
AcDbEntity
8
1
62
256
6
ByLayer
370
-1
48
1
60
0
100
AcDbLine
10
21.747376
20
-17.143083
30
0
11
21.609756
21
-17.329883
31
0
39
0
210
0
220
0
230
1
0
LINE
5
19E
100
AcDbEntity
8
1
62
256
6
ByLayer
370
-1
48
1
60
0
100
AcDbLine
10
24.361023
20
-22.61608
30
0
11
22.024431
21
-21.294322
31
0
39
0
210
0
220
0
230
1
0
LINE
5
19F
100
AcDbEntity
8
1
62
256
6
ByLayer
370
-1
48
1
60
0
100
AcDbLine
10
19.374496
20
-18.805323
30
0
11
20.131575
21
-20.080997
31
0
39
0
210
0
220
0
230
1
0
LINE
5
1A0
100
AcDbEntity
8
1
62
256
6
ByLayer
370
-1
48
1
60
0
100
AcDbLine
10
32.006531
20
-19.389267
30
0
11
32.006531
21
-22.046733
31
0
39
0
210
0
220
0
230
1
0
LINE
5
1A1
100
AcDbEntity
8
1
62
256
6
ByLayer
370
-1
48
1
60
0
100
AcDbLine
10
30.853989
20
-24.775948
30
0
11
30.56171
21
-24.273106
31
0
39
0
210
0
220
0
230
1
0
LINE
5
1A2
100
AcDbEntity
8
1
62
256
6
ByLayer
370
-1
48
1
60
0
100
AcDbLine
10
19.38962
20
-18.58832
30
0
11
19.321386
21
-17.899038
31
0
39
0
210
0
220
0
230
1
0
LINE
5
1A3
100
AcDbEntity
8
1
62
256
6
ByLayer
370
-1
48
1
60
0
100
AcDbLine
10
25.318101
20
-16.044006
30
0
11
24.706381
21
-16.196056
31
0
39
0
210
0
220
0
230
1
0
LINE
5
1A4
100
AcDbEntity
8
1
62
256
6
ByLayer
370
-1
48
1
60
0
100
AcDbLine
10
32.003423
20
-19.06489
30
0
11
31.207428
21
-18.896365
31
0
39
0
210
0
220
0
230
1
0
LINE
5
1A5
100
AcDbEntity
8
1
62
256
6
ByLayer
370
-1
48
1
60
0
100
AcDbLine
10
20.444865
20
-17.722826
30
0
11
20.466876
21
-17.68521
31
0
39
0
210
0
220
0
230
1
0
LINE
5
1A6
100
AcDbEntity
8
1
62
256
6
ByLayer
370
-1
48
1
60
0
100
AcDbLine
10
24.109979
20
-15.201185
30
0
11
24.352816
21
-15.654696
31
0
39
0
210
0
220
0
230
1
0
LINE
5
1A7
100
AcDbEntity
8
1
62
256
6
ByLayer
370
-1
48
1
60
0
100
AcDbLine
10
20.470327
20
-17.374112
30
0
11
20.77975
21
-16.845316
31
0
39
0
210
0
220
0
230
1
0
LINE
5
1A8
100
AcDbEntity
8
1
62
256
6
ByLayer
370
-1
48
1
60
0
100
AcDbLine
10
25.616439
20
-23.320261
30
0
11
25.89441
21
-22.885175
31
0
39
0
210
0
220
0
230
1
0
LINE
5
1A9
100
AcDbEntity
8
1
62
256
6
ByLayer
370
-1
48
1
60
0
100
AcDbLine
10
30.926316
20
-13.042888
30
0
11
31.339367
21
-12.351772
31
0
39
0
210
0
220
0
230
1
0
LINE
5
1AA
100
AcDbEntity
8
1
62
256
6
ByLayer
370
-1
48
1
60
0
100
AcDbLine
10
30.658936
20
-24.216381
30
0
11
30.951215
21
-24.719224
31
0
39
0
210
0
220
0
230
1
0
LINE
5
1AB
100
AcDbEntity
8
1
62
256
6
ByLayer
370
-1
48
1
60
0
100
AcDbLine
10
31.415896
20
-14.270136
30
0
11
31.530599
21
-14.078215
31
0
39
0
210
0
220
0
230
1
0
LINE
5
1AC
100
AcDbEntity
8
1
62
256
6
ByLayer
370
-1
48
1
60
0
100
AcDbLine
10
20.936855
20
-19.281713
30
0
11
20.934865
21
-18.905037
31
0
39
0
210
0
220
0
230
1
0
LINE
5
1AD
100
AcDbEntity
8
1
62
256
6
ByLayer
370
-1
48
1
60
0
100
AcDbLine
10
26.171144
20
-22.339017
30
0
11
25.733199
21
-21.893642
31
0
39
0
210
0
220
0
230
1
0
LINE
5
1AE
100
AcDbEntity
8
1
62
256
6
ByLayer
370
-1
48
1
60
0
100
AcDbLine
10
29.48168
20
-12.01718
30
0
11
28.841525
21
-12.359293
31
0
39
0
210
0
220
0
230
1
0
LINE
5
1AF
100
AcDbEntity
8
1
62
256
6
ByLayer
370
-1
48
1
60
0
100
AcDbLine
10
31.186521
20
-25.448654
30
0
11
31.961348
21
-24.09712
31
0
39
0
210
0
220
0
230
1
0
LINE
5
1B0
100
AcDbEntity
8
1
62
256
6
ByLayer
370
-1
48
1
60
0
100
AcDbLine
10
31.329333
20
-24.21438
30
0
11
30.993539
21
-24.015808
31
0
39
0
210
0
220
0
230
1
0
LINE
5
1B1
100
AcDbEntity
8
1
62
256
6
ByLayer
370
-1
48
1
60
0
100
AcDbLine
10
32.006531
20
-15.938471
30
0
11
32.006531
21
-17.864091
31
0
39
0
210
0
220
0
230
1
0
LINE
5
1B2
100
AcDbEntity
8
1
62
256
6
ByLayer
370
-1
48
1
60
0
100
AcDbLine
10
28.155288
20
-12.78176
30
0
11
27.833672
21
-13.065769
31
0
39
0
210
0
220
0
230
1
0
LINE
5
1B3
100
AcDbEntity
8
1
62
256
6
ByLayer
370
-1
48
1
60
0
100
AcDbLine
10
31.081737
20
-13.288005
30
0
11
31.056779
21
-13.285132
31
0
39
0
210
0
220
0
230
1
0
LINE
5
1B4
100
AcDbEntity
8
1
62
256
6
ByLayer
370
-1
48
1
60
0
100
AcDbLine
10
32.005916
20
-19.276524
30
0
11
32.003423
21
-19.06489
31
0
39
0
210
0
220
0
230
1
0
LINE
5
1B5
100
AcDbEntity
8
1
62
256
6
ByLayer
370
-1
48
1
60
0
100
AcDbLine
10
28.844205
20
-24.304138
30
0
11
31.505313
21
-22.790476
31
0
39
0
210
0
220
0
230
1
0
LINE
5
1B6
100
AcDbEntity
8
1
62
256
6
ByLayer
370
-1
48
1
60
0
100
AcDbLine
10
21.54035
20
-16.628758
30
0
11
21.790803
21
-16.200741
31
0
39
0
210
0
220
0
230
1
0
LINE
5
1B7
100
AcDbEntity
8
1
62
256
6
ByLayer
370
-1
48
1
60
0
100
AcDbLine
10
30.615043
20
-12.458062
30
0
11
30.038614
21
-12.440823
31
0
39
0
210
0
220
0
230
1
0
LINE
5
1B8
100
AcDbEntity
8
1
62
256
6
ByLayer
370
-1
48
1
60
0
100
AcDbLine
10
31.460905
20
-23.995255
30
0
11
31.125111
21
-23.796683
31
0
39
0
210
0
220
0
230
1
0
LINE
5
1B9
100
AcDbEntity
8
1
62
256
6
ByLayer
370
-1
48
1
60
0
100
AcDbLine
10
24.352816
20
-15.654696
30
0
11
24.203241
21
-15.130518
31
0
39
0
210
0
220
0
230
1
0
LINE
5
1BA
100
AcDbEntity
8
1
62
256
6
ByLayer
370
-1
48
1
60
0
100
AcDbLine
10
24.371605
20
-15.019797
30
0
11
24.700041
21
-16.170789
31
0
39
0
210
0
220
0
230
1
0
LINE
5
1BB
100
AcDbEntity
8
1
62
256
6
ByLayer
370
-1
48
1
60
0
100
AcDbLine
10
31.15483
20
-12.710829
30
0
11
31.464253
21
-13.237778
31
0
39
0
210
0
220
0
230
1
0
LINE
5
1BC
100
AcDbEntity
8
1
62
256
6
ByLayer
370
-1
48
1
60
0
100
AcDbLine
10
25.335264
20
-15.409019
30
0
11
25.272372
21
-14.53683
31
0
39
0
210
0
220
0
230
1
0
LINE
5
1BD
100
AcDbEntity
8
1
62
256
6
ByLayer
370
-1
48
1
60
0
100
AcDbLine
10
29.608708
20
-11.987694
30
0
11
29.584527
21
-11.743423
31
0
39
0
210
0
220
0
230
1
0
LINE
5
1BE
100
AcDbEntity
8
1
62
256
6
ByLayer
370
-1
48
1
60
0
100
AcDbLine
10
20.235132
20
-19.522574
30
0
11
19.952486
21
-19.046316
31
0
39
0
210
0
220
0
230
1
0
LINE
5
1BF
100
AcDbEntity
8
1
62
256
6
ByLayer
370
-1
48
1
60
0
100
AcDbLine
10
30.02427
20
-12.097078
30
0
11
30.035385
21
-12.336911
31
0
39
0
210
0
220
0
230
1
0
LINE
5
1C0
100
AcDbEntity
8
1
62
256
6
ByLayer
370
-1
48
1
60
0
100
AcDbLine
10
20.390331
20
-18.456414
30
0
11
19.561169
21
-18.486304
31
0
39
0
210
0
220
0
230
1
0
LINE
5
1C1
100
AcDbEntity
8
1
62
256
6
ByLayer
370
-1
48
1
60
0
100
AcDbLine
10
22.332519
20
-16.223961
30
0
11
22.301318
21
-15.90877
31
0
39
0
210
0
220
0
230
1
0
LINE
5
1C2
100
AcDbEntity
8
1
62
256
6
ByLayer
370
-1
48
1
60
0
100
AcDbLine
10
30.664131
20
-18.574685
30
0
11
30.837906
21
-17.97726
31
0
39
0
210
0
220
0
230
1
0
LINE
5
1C3
100
AcDbEntity
8
1
62
256
6
ByLayer
370
-1
48
1
60
0
100
AcDbLine
10
24.933417
20
-14.692848
30
0
11
24.371605
21
-15.019797
31
0
39
0
210
0
220
0
230
1
0
LINE
5
1C4
100
AcDbEntity
8
1
62
256
6
ByLayer
370
-1
48
1
60
0
100
AcDbLine
10
21.557524
20
-17.375751
30
0
11
21.504213
21
-20.3344
31
0
39
0
210
0
220
0
230
1
0
LINE
5
1C5
100
AcDbEntity
8
1
62
256
6
ByLayer
370
-1
48
1
60
0
100
AcDbLine
10
25.189666
20
-22.170814
30
0
11
24.45407
21
-22.662845
31
0
39
0
210
0
220
0
230
1
0
LINE
5
1C6
100
AcDbEntity
8
1
62
256
6
ByLayer
370
-1
48
1
60
0
100
AcDbLine
10
21.891477
20
-21.207079
30
0
11
21.747376
21
-17.143083
31
0
39
0
210
0
220
0
230
1
0
LINE
5
1C7
100
AcDbEntity
8
1
62
256
6
ByLayer
370
-1
48
1
60
0
100
AcDbLine
10
25.89441
20
-22.885175
30
0
11
25.519925
21
-23.25016
31
0
39
0
210
0
220
0
230
1
0
LINE
5
1C8
100
AcDbEntity
8
1
62
256
6
ByLayer
370
-1
48
1
60
0
100
AcDbLine
10
24.615516
20
-22.7304
30
0
11
25.189666
21
-22.170814
31
0
39
0
210
0
220
0
230
1
0
LINE
5
1C9
100
AcDbEntity
8
1
62
256
6
ByLayer
370
-1
48
1
60
0
100
AcDbLine
10
30.611813
20
-12.354149
30
0
11
31.069138
21
-12.128326
31
0
39
0
210
0
220
0
230
1
0
LINE
5
1CA
100
AcDbEntity
8
1
62
256
6
ByLayer
370
-1
48
1
60
0
100
AcDbLine
10
20.859201
20
-20.506693
30
0
11
21.178545
21
-20.291109
31
0
39
0
210
0
220
0
230
1
0
LINE
5
1CB
100
AcDbEntity
8
1
62
256
6
ByLayer
370
-1
48
1
60
0
100
AcDbLine
10
31.339005
20
-12.158976
30
0
11
31.324843
21
-12.134857
31
0
39
0
210
0
220
0
230
1
0
LINE
5
1CC
100
AcDbEntity
8
1
62
256
6
ByLayer
370
-1
48
1
60
0
100
AcDbLine
10
31.339005
20
-12.158976
30
0
11
31.270771
21
-11.469695
31
0
39
0
210
0
220
0
230
1
0
LINE
5
1CD
100
AcDbEntity
8
1
62
256
6
ByLayer
370
-1
48
1
60
0
100
AcDbLine
10
30.94858
20
-13.21533
30
0
11
30.92657
21
-13.177846
31
0
39
0
210
0
220
0
230
1
0
LINE
5
1CE
100
AcDbEntity
8
1
62
256
6
ByLayer
370
-1
48
1
60
0
100
AcDbLine
10
31.256609
20
-11.445576
30
0
11
31.270771
21
-11.469695
31
0
39
0
210
0
220
0
230
1
0
LINE
5
1CF
100
AcDbEntity
8
1
62
256
6
ByLayer
370
-1
48
1
60
0
100
AcDbLine
10
25.749929
20
-18.955997
30
0
11
25.769926
21
-18.951852
31
0
39
0
210
0
220
0
230
1
0
LINE
5
1D0
100
AcDbEntity
8
1
62
256
6
ByLayer
370
-1
48
1
60
0
100
AcDbLine
10
28.694173
20
-18.946479
30
0
11
28.721853
21
-19.204655
31
0
39
0
210
0
220
0
230
1
0
LINE
5
1D1
100
AcDbEntity
8
1
62
256
6
ByLayer
370
-1
48
1
60
0
100
AcDbLine
10
28.674176
20
-18.942463
30
0
11
28.701637
21
-19.198595
31
0
39
0
210
0
220
0
230
1
0
LINE
5
1D2
100
AcDbEntity
8
1
62
256
6
ByLayer
370
-1
48
1
60
0
100
AcDbLine
10
28.291544
20
-17.572409
30
0
11
28.312671
21
-17.769467
31
0
39
0
210
0
220
0
230
1
0
LINE
5
1D3
100
AcDbEntity
8
1
62
256
6
ByLayer
370
-1
48
1
60
0
100
AcDbLine
10
28.674176
20
-18.942463
30
0
11
28.694173
21
-18.946479
31
0
39
0
210
0
220
0
230
1
0
LINE
5
1D4
100
AcDbEntity
8
1
62
256
6
ByLayer
370
-1
48
1
60
0
100
AcDbLine
10
26.826675
20
-20.014521
30
0
11
26.854354
21
-20.272697
31
0
39
0
210
0
220
0
230
1
0
LINE
5
1D5
100
AcDbEntity
8
1
62
256
6
ByLayer
370
-1
48
1
60
0
100
AcDbLine
10
27.617428
20
-20.011964
30
0
11
27.645107
21
-20.270141
31
0
39
0
210
0
220
0
230
1
0
LINE
5
1D6
100
AcDbEntity
8
1
62
256
6
ByLayer
370
-1
48
1
60
0
100
AcDbLine
10
25.749929
20
-18.955997
30
0
11
25.777609
21
-19.214174
31
0
39
0
210
0
220
0
230
1
0
LINE
5
1D7
100
AcDbEntity
8
1
62
256
6
ByLayer
370
-1
48
1
60
0
100
AcDbLine
10
26.826675
20
-20.014521
30
0
11
26.833085
21
-19.995402
31
0
39
0
210
0
220
0
230
1
0
LINE
5
1D8
100
AcDbEntity
8
1
62
256
6
ByLayer
370
-1
48
1
60
0
100
AcDbLine
10
26.833085
20
-19.995402
30
0
11
26.860546
21
-20.251535
31
0
39
0
210
0
220
0
230
1
0
LINE
5
1D9
100
AcDbEntity
8
1
62
256
6
ByLayer
370
-1
48
1
60
0
100
AcDbLine
10
25.769926
20
-18.951852
30
0
11
25.797386
21
-19.207984
31
0
39
0
210
0
220
0
230
1
0
LINE
5
1DA
100
AcDbEntity
8
1
62
256
6
ByLayer
370
-1
48
1
60
0
100
AcDbLine
10
27.611017
20
-19.992887
30
0
11
27.617428
21
-20.011964
31
0
39
0
210
0
220
0
230
1
0
LINE
5
1DB
100
AcDbEntity
8
1
62
256
6
ByLayer
370
-1
48
1
60
0
100
AcDbLine
10
28.30947
20
-17.597829
30
0
11
28.326476
21
-17.75645
31
0
39
0
210
0
220
0
230
1
0
LINE
5
1DC
100
AcDbEntity
8
1
62
256
6
ByLayer
370
-1
48
1
60
0
100
AcDbLine
10
27.611017
20
-19.992887
30
0
11
27.638478
21
-20.24902
31
0
39
0
210
0
220
0
230
1
0
LINE
5
1DD
100
AcDbEntity
8
1
62
256
6
ByLayer
370
-1
48
1
60
0
100
AcDbLine
10
26.171786
20
-17.640479
30
0
11
26.186352
21
-17.776341
31
0
39
0
210
0
220
0
230
1
0
LINE
5
1DE
100
AcDbEntity
8
1
62
256
6
ByLayer
370
-1
48
1
60
0
100
AcDbLine
10
26.162891
20
-17.669262
30
0
11
26.172985
21
-17.763412
31
0
39
0
210
0
220
0
230
1
0
LINE
5
1DF
100
AcDbEntity
8
SK1
62
256
6
ByLayer
370
-1
48
1
60
0
100
AcDbLine
10
-0.249519
20
-18.996302
30
0
11
-0.249519
21
-18.87287
31
0
39
0
210
0
220
0
230
1
0
LINE
5
1E0
100
AcDbEntity
8
SK1
62
256
6
ByLayer
370
-1
48
1
60
0
100
AcDbLine
10
-0.324519
20
-18.932424
30
0
11
-0.324519
21
-18.948427
31
0
39
0
210
0
220
0
230
1
0
LINE
5
1E1
100
AcDbEntity
8
SK1
62
256
6
ByLayer
370
-1
48
1
60
0
100
AcDbLine
10
0
20
-19.233341
30
0
11
0
21
-19.145388
31
0
39
0
210
0
220
0
230
1
0
LINE
5
1E2
100
AcDbEntity
8
SK1
62
256
6
ByLayer
370
-1
48
1
60
0
100
AcDbLine
10
0
20
-19.291745
30
0
11
0
21
-19.233341
31
0
39
0
210
0
220
0
230
1
0
LINE
5
1E3
100
AcDbEntity
8
SK1
62
256
6
ByLayer
370
-1
48
1
60
0
100
AcDbLine
10
-0.324519
20
-18.932424
30
0
11
-0.324519
21
-18.777527
31
0
39
0
210
0
220
0
230
1
0
LINE
5
1E4
100
AcDbEntity
8
SK1
62
256
6
ByLayer
370
-1
48
1
60
0
100
AcDbLine
10
0
20
19.233341
30
0
11
0
21
19.291745
31
0
39
0
210
0
220
0
230
1
0
LINE
5
1E5
100
AcDbEntity
8
SK1
62
256
6
ByLayer
370
-1
48
1
60
0
100
AcDbLine
10
0
20
19.145388
30
0
11
0
21
19.233341
31
0
39
0
210
0
220
0
230
1
0
LINE
5
1E6
100
AcDbEntity
8
SK1
62
256
6
ByLayer
370
-1
48
1
60
0
100
AcDbLine
10
-0.324519
20
18.777527
30
0
11
-0.324519
21
18.932424
31
0
39
0
210
0
220
0
230
1
0
LINE
5
1E7
100
AcDbEntity
8
SK1
62
256
6
ByLayer
370
-1
48
1
60
0
100
AcDbLine
10
-0.324519
20
18.948427
30
0
11
-0.324519
21
18.932424
31
0
39
0
210
0
220
0
230
1
0
LINE
5
1E8
100
AcDbEntity
8
SK1
62
256
6
ByLayer
370
-1
48
1
60
0
100
AcDbLine
10
-0.249519
20
18.87287
30
0
11
-0.249519
21
18.996302
31
0
39
0
210
0
220
0
230
1
0
LINE
5
1E9
100
AcDbEntity
8
SK1
62
256
6
ByLayer
370
-1
48
1
60
0
100
AcDbLine
10
0
20
-15.436852
30
0
11
0
21
-14.842386
31
0
39
0
210
0
220
0
230
1
0
LINE
5
1EA
100
AcDbEntity
8
SK1
62
256
6
ByLayer
370
-1
48
1
60
0
100
AcDbLine
10
-0.249519
20
-14.637614
30
0
11
-0.249519
21
-13.703567
31
0
39
0
210
0
220
0
230
1
0
LINE
5
1EB
100
AcDbEntity
8
SK1
62
256
6
ByLayer
370
-1
48
1
60
0
100
AcDbLine
10
0
20
-14.183485
30
0
11
0
21
-14.842386
31
0
39
0
210
0
220
0
230
1
0
LINE
5
1EC
100
AcDbEntity
8
SK1
62
256
6
ByLayer
370
-1
48
1
60
0
100
AcDbLine
10
-0.324519
20
-14.648035
30
0
11
-0.324519
21
-13.534838
31
0
39
0
210
0
220
0
230
1
0
LINE
5
1ED
100
AcDbEntity
8
SK1
62
256
6
ByLayer
370
-1
48
1
60
0
100
AcDbLine
10
-0.324519
20
13.534838
30
0
11
-0.324519
21
14.648035
31
0
39
0
210
0
220
0
230
1
0
LINE
5
1EE
100
AcDbEntity
8
SK1
62
256
6
ByLayer
370
-1
48
1
60
0
100
AcDbLine
10
-0.249519
20
13.703567
30
0
11
-0.249519
21
14.637614
31
0
39
0
210
0
220
0
230
1
0
LINE
5
1EF
100
AcDbEntity
8
SK1
62
256
6
ByLayer
370
-1
48
1
60
0
100
AcDbLine
10
0
20
15.974086
30
0
11
0
21
16.459691
31
0
39
0
210
0
220
0
230
1
0
LINE
5
1F0
100
AcDbEntity
8
SK1
62
256
6
ByLayer
370
-1
48
1
60
0
100
AcDbLine
10
-0.249519
20
15.011486
30
0
11
-0.249519
21
15.770306
31
0
39
0
210
0
220
0
230
1
0
LINE
5
1F1
100
AcDbEntity
8
SK1
62
256
6
ByLayer
370
-1
48
1
60
0
100
AcDbLine
10
-0.324519
20
15.901621
30
0
11
-0.324519
21
15.767626
31
0
39
0
210
0
220
0
230
1
0
LINE
5
1F2
100
AcDbEntity
8
SK1
62
256
6
ByLayer
370
-1
48
1
60
0
100
AcDbLine
10
0
20
15.43684
30
0
11
0
21
15.974086
31
0
39
0
210
0
220
0
230
1
0
LINE
5
1F3
100
AcDbEntity
8
SK1
62
256
6
ByLayer
370
-1
48
1
60
0
100
AcDbLine
10
-0.324519
20
14.812662
30
0
11
-0.324519
21
15.767626
31
0
39
0
210
0
220
0
230
1
0
LINE
5
1F4
100
AcDbEntity
8
SK1
62
256
6
ByLayer
370
-1
48
1
60
0
100
AcDbLine
10
-0.324519
20
14.812652
30
0
11
-0.324519
21
14.648035
31
0
39
0
210
0
220
0
230
1
0
LINE
5
1F5
100
AcDbEntity
8
SK1
62
256
6
ByLayer
370
-1
48
1
60
0
100
AcDbLine
10
-0.324519
20
-15.767626
30
0
11
-0.324519
21
-14.812662
31
0
39
0
210
0
220
0
230
1
0
LINE
5
1F6
100
AcDbEntity
8
1
62
256
6
ByLayer
370
-1
48
1
60
0
100
AcDbLine
10
0
20
-2.769731
30
0
11
0
21
2.769731
31
0
39
0
210
0
220
0
230
1
0
LINE
5
1F7
100
AcDbEntity
8
SK1
62
256
6
ByLayer
370
-1
48
1
60
0
100
AcDbLine
10
-0.324519
20
-18.999731
30
0
11
-0.324519
21
-19
31
0
39
0
210
0
220
0
230
1
0
LINE
5
1F8
100
AcDbEntity
8
SK1
62
256
6
ByLayer
370
-1
48
1
60
0
100
AcDbLine
10
-0.324519
20
19
30
0
11
-0.324519
21
18.999731
31
0
39
0
210
0
220
0
230
1
0
LINE
5
1F9
100
AcDbEntity
8
SK1
62
256
6
ByLayer
370
-1
48
1
60
0
100
AcDbLine
10
-0.249519
20
-16.692674
30
0
11
-0.249519
21
-16.074887
31
0
39
0
210
0
220
0
230
1
0
LINE
5
1FA
100
AcDbEntity
8
SK1
62
256
6
ByLayer
370
-1
48
1
60
0
100
AcDbLine
10
0
20
-17.292958
30
0
11
0
21
-16.898119
31
0
39
0
210
0
220
0
230
1
0
LINE
5
1FB
100
AcDbEntity
8
SK1
62
256
6
ByLayer
370
-1
48
1
60
0
100
AcDbLine
10
-0.324519
20
-16.678463
30
0
11
-0.324519
21
-16.787151
31
0
39
0
210
0
220
0
230
1
0
LINE
5
1FC
100
AcDbEntity
8
SK1
62
256
6
ByLayer
370
-1
48
1
60
0
100
AcDbLine
10
-0.324519
20
-16.678463
30
0
11
-0.324519
21
-15.901587
31
0
39
0
210
0
220
0
230
1
0
LINE
5
1FD
100
AcDbEntity
8
SK1
62
256
6
ByLayer
370
-1
48
1
60
0
100
AcDbLine
10
0
20
-16.459648
30
0
11
0
21
-16.898119
31
0
39
0
210
0
220
0
230
1
0
LINE
5
1FE
100
AcDbEntity
8
SK1
62
256
6
ByLayer
370
-1
48
1
60
0
100
AcDbLine
10
-0.324519
20
-17.413335
30
0
11
-0.324519
21
-17.500152
31
0
39
0
210
0
220
0
230
1
0
LINE
5
1FF
100
AcDbEntity
8
SK1
62
256
6
ByLayer
370
-1
48
1
60
0
100
AcDbLine
10
0
20
-15.974086
30
0
11
0
21
-15.43684
31
0
39
0
210
0
220
0
230
1
0
LINE
5
200
100
AcDbEntity
8
SK1
62
256
6
ByLayer
370
-1
48
1
60
0
100
AcDbLine
10
-0.249519
20
-15.770306
30
0
11
-0.249519
21
-15.011486
31
0
39
0
210
0
220
0
230
1
0
LINE
5
201
100
AcDbEntity
8
SK1
62
256
6
ByLayer
370
-1
48
1
60
0
100
AcDbLine
10
-0.324519
20
-15.767626
30
0
11
-0.324519
21
-15.901621
31
0
39
0
210
0
220
0
230
1
0
LINE
5
202
100
AcDbEntity
8
SK1
62
256
6
ByLayer
370
-1
48
1
60
0
100
AcDbLine
10
0
20
-16.459691
30
0
11
0
21
-15.974086
31
0
39
0
210
0
220
0
230
1
0
LINE
5
203
100
AcDbEntity
8
SK1
62
256
6
ByLayer
370
-1
48
1
60
0
100
AcDbLine
10
0
20
-17.963057
30
0
11
0
21
-17.647136
31
0
39
0
210
0
220
0
230
1
0
LINE
5
204
100
AcDbEntity
8
SK1
62
256
6
ByLayer
370
-1
48
1
60
0
100
AcDbLine
10
0
20
-17.647136
30
0
11
0
21
-17.292952
31
0
39
0
210
0
220
0
230
1
0
LINE
5
205
100
AcDbEntity
8
SK1
62
256
6
ByLayer
370
-1
48
1
60
0
100
AcDbLine
10
-0.324519
20
-17.413335
30
0
11
-0.324519
21
-16.787098
31
0
39
0
210
0
220
0
230
1
0
LINE
5
206
100
AcDbEntity
8
SK1
62
256
6
ByLayer
370
-1
48
1
60
0
100
AcDbLine
10
-0.249519
20
-17.438125
30
0
11
-0.249519
21
-16.939826
31
0
39
0
210
0
220
0
230
1
0
LINE
5
207
100
AcDbEntity
8
SK1
62
256
6
ByLayer
370
-1
48
1
60
0
100
AcDbLine
10
-0.324519
20
11.790712
30
0
11
-0.324519
21
11.530772
31
0
39
0
210
0
220
0
230
1
0
LINE
5
208
100
AcDbEntity
8
SK1
62
256
6
ByLayer
370
-1
48
1
60
0
100
AcDbLine
10
-0.249519
20
19.032647
30
0
11
-0.249519
21
19.073602
31
0
39
0
210
0
220
0
230
1
0
LINE
5
209
100
AcDbEntity
8
SK1
62
256
6
ByLayer
370
-1
48
1
60
0
100
AcDbLine
10
0
20
19.32088
30
0
11
0
21
19.291583
31
0
39
0
210
0
220
0
230
1
0
LINE
5
20A
100
AcDbEntity
8
SK1
62
256
6
ByLayer
370
-1
48
1
60
0
100
AcDbLine
10
-0.324519
20
18.948416
30
0
11
-0.324519
21
18.999731
31
0
39
0
210
0
220
0
230
1
0
LINE
5
20B
100
AcDbEntity
8
SK1
62
256
6
ByLayer
370
-1
48
1
60
0
100
AcDbLine
10
0
20
19.32088
30
0
11
0
21
19.324519
31
0
39
0
210
0
220
0
230
1
0
LINE
5
20C
100
AcDbEntity
8
SK1
62
256
6
ByLayer
370
-1
48
1
60
0
100
AcDbLine
10
-0.324519
20
-18.999731
30
0
11
-0.324519
21
-18.948416
31
0
39
0
210
0
220
0
230
1
0
LINE
5
20D
100
AcDbEntity
8
SK1
62
256
6
ByLayer
370
-1
48
1
60
0
100
AcDbLine
10
-0.324519
20
-11.530772
30
0
11
-0.324519
21
-9.595404
31
0
39
0
210
0
220
0
230
1
0
LINE
5
20E
100
AcDbEntity
8
SK1
62
256
6
ByLayer
370
-1
48
1
60
0
100
AcDbLine
10
-0.324519
20
9.595404
30
0
11
-0.324519
21
11.530772
31
0
39
0
210
0
220
0
230
1
0
LINE
5
20F
100
AcDbEntity
8
SK1
62
256
6
ByLayer
370
-1
48
1
60
0
100
AcDbLine
10
0
20
-12.631168
30
0
11
0
21
-11.706682
31
0
39
0
210
0
220
0
230
1
0
LINE
5
210
100
AcDbEntity
8
SK1
62
256
6
ByLayer
370
-1
48
1
60
0
100
AcDbLine
10
0
20
11.706682
30
0
11
0
21
10.649788
31
0
39
0
210
0
220
0
230
1
0
LINE
5
211
100
AcDbEntity
8
SK1
62
256
6
ByLayer
370
-1
48
1
60
0
100
AcDbLine
10
0
20
-10.649788
30
0
11
0
21
-11.706682
31
0
39
0
210
0
220
0
230
1
0
LINE
5
212
100
AcDbEntity
8
SK1
62
256
6
ByLayer
370
-1
48
1
60
0
100
AcDbLine
10
0
20
11.706682
30
0
11
0
21
12.631168
31
0
39
0
210
0
220
0
230
1
0
LINE
5
213
100
AcDbEntity
8
SK1
62
256
6
ByLayer
370
-1
48
1
60
0
100
AcDbLine
10
-0.249519
20
-11.483644
30
0
11
-0.249519
21
-9.958473
31
0
39
0
210
0
220
0
230
1
0
LINE
5
214
100
AcDbEntity
8
SK1
62
256
6
ByLayer
370
-1
48
1
60
0
100
AcDbLine
10
-0.249519
20
9.958473
30
0
11
-0.249519
21
11.483644
31
0
39
0
210
0
220
0
230
1
0
LINE
5
215
100
AcDbEntity
8
SK1
62
256
6
ByLayer
370
-1
48
1
60
0
100
AcDbLine
10
0
20
14.842386
30
0
11
0
21
14.183485
31
0
39
0
210
0
220
0
230
1
0
LINE
5
216
100
AcDbEntity
8
SK1
62
256
6
ByLayer
370
-1
48
1
60
0
100
AcDbLine
10
0
20
14.842386
30
0
11
0
21
15.436852
31
0
39
0
210
0
220
0
230
1
0
LINE
5
217
100
AcDbEntity
8
SK1
62
256
6
ByLayer
370
-1
48
1
60
0
100
AcDbLine
10
0
20
-19.291583
30
0
11
0
21
-19.32088
31
0
39
0
210
0
220
0
230
1
0
LINE
5
218
100
AcDbEntity
8
SK1
62
256
6
ByLayer
370
-1
48
1
60
0
100
AcDbLine
10
-0.249519
20
-19.073602
30
0
11
-0.249519
21
-19.032647
31
0
39
0
210
0
220
0
230
1
0
LINE
5
219
100
AcDbEntity
8
1
62
256
6
ByLayer
370
-1
48
1
60
0
100
AcDbLine
10
19.429637
20
-17.810879
30
0
11
19.429637
21
-16.501923
31
0
39
0
210
0
220
0
230
1
0
LINE
5
21A
100
AcDbEntity
8
1
62
256
6
ByLayer
370
-1
48
1
60
0
100
AcDbLine
10
22.965334
20
-22.738278
30
0
11
22.965334
21
-21.826451
31
0
39
0
210
0
220
0
230
1
0
LINE
5
21B
100
AcDbEntity
8
1
62
256
6
ByLayer
370
-1
48
1
60
0
100
AcDbLine
10
19.59731
20
-17.025407
30
0
11
19.59731
21
-17.799061
31
0
39
0
210
0
220
0
230
1
0
LINE
5
21C
100
AcDbEntity
8
1
62
256
6
ByLayer
370
-1
48
1
60
0
100
AcDbLine
10
22.697608
20
-21.675121
30
0
11
22.697608
21
-22.317315
31
0
39
0
210
0
220
0
230
1
0
LINE
5
21D
100
AcDbEntity
8
1
62
256
6
ByLayer
370
-1
48
1
60
0
100
AcDbLine
10
24.207256
20
-22.863316
30
0
11
24.207256
21
-22.529055
31
0
39
0
210
0
220
0
230
1
0
LINE
5
21E
100
AcDbEntity
8
1
62
256
6
ByLayer
370
-1
48
1
60
0
100
AcDbLine
10
20.364296
20
-16.587577
30
0
11
19.59731
21
-17.025407
31
0
39
0
210
0
220
0
230
1
0
LINE
5
21F
100
AcDbEntity
8
1
62
256
6
ByLayer
370
-1
48
1
60
0
100
AcDbLine
10
24.545554
20
-22.787872
30
0
11
24.733019
21
-22.787418
31
0
39
0
210
0
220
0
230
1
0
LINE
5
220
100
AcDbEntity
8
1
62
256
6
ByLayer
370
-1
48
1
60
0
100
AcDbLine
10
22.5291
20
-21.812377
30
0
11
22.697608
21
-22.317315
31
0
39
0
210
0
220
0
230
1
0
LINE
5
221
100
AcDbEntity
8
1
62
256
6
ByLayer
370
-1
48
1
60
0
100
AcDbLine
10
24.024087
20
-22.877845
30
0
11
23.72664
21
-22.878566
31
0
39
0
210
0
220
0
230
1
0
LINE
5
222
100
AcDbEntity
8
1
62
256
6
ByLayer
370
-1
48
1
60
0
100
AcDbLine
10
23.541207
20
-22.864931
30
0
11
23.541207
21
-22.152312
31
0
39
0
210
0
220
0
230
1
0
LINE
5
223
100
AcDbEntity
8
1
62
256
6
ByLayer
370
-1
48
1
60
0
100
AcDbLine
10
23.297086
20
-22.808265
30
0
11
23.297086
21
-22.014215
31
0
39
0
210
0
220
0
230
1
0
LINE
5
224
100
AcDbEntity
8
1
62
256
6
ByLayer
370
-1
48
1
60
0
100
AcDbLine
10
24.545554
20
-22.787872
30
0
11
24.545554
21
-22.70109
31
0
39
0
210
0
220
0
230
1
0
LINE
5
225
100
AcDbEntity
8
1
62
256
6
ByLayer
370
-1
48
1
60
0
100
AcDbLine
10
22.861951
20
-22.681858
30
0
11
22.861951
21
-21.768054
31
0
39
0
210
0
220
0
230
1
0
LINE
5
226
100
AcDbEntity
8
1
62
256
6
ByLayer
370
-1
48
1
60
0
100
AcDbLine
10
23.190911
20
-22.791156
30
0
11
23.190911
21
-21.95411
31
0
39
0
210
0
220
0
230
1
0
LINE
5
227
100
AcDbEntity
8
1
62
256
6
ByLayer
370
-1
48
1
60
0
100
AcDbLine
10
24.442171
20
-22.805489
30
0
11
24.442171
21
-22.657662
31
0
39
0
210
0
220
0
230
1
0
LINE
5
228
100
AcDbEntity
8
1
62
256
6
ByLayer
370
-1
48
1
60
0
100
AcDbLine
10
24.024087
20
-22.877845
30
0
11
24.024087
21
-22.425433
31
0
39
0
210
0
220
0
230
1
0
LINE
5
229
100
AcDbEntity
8
1
62
256
6
ByLayer
370
-1
48
1
60
0
100
AcDbLine
10
22.5291
20
-21.812377
30
0
11
22.5291
21
-21.579789
31
0
39
0
210
0
220
0
230
1
0
LINE
5
22A
100
AcDbEntity
8
1
62
256
6
ByLayer
370
-1
48
1
60
0
100
AcDbLine
10
23.72664
20
-22.878566
30
0
11
23.72664
21
-22.25716
31
0
39
0
210
0
220
0
230
1
0
LINE
5
22B
100
AcDbEntity
8
1
62
256
6
ByLayer
370
-1
48
1
60
0
100
AcDbLine
10
32.059557
20
-12.539228
30
0
11
32.099771
21
-12.53924
31
0
39
0
210
0
220
0
230
1
0
LINE
5
22C
100
AcDbEntity
8
1
62
256
6
ByLayer
370
-1
48
1
60
0
100
AcDbLine
10
32.049284
20
-11.915504
30
0
11
32.09893
21
-11.915519
31
0
39
0
210
0
220
0
230
1
0
LINE
5
22D
100
AcDbEntity
8
1
62
256
6
ByLayer
370
-1
48
1
60
0
100
AcDbLine
10
32.073573
20
-10.759313
30
0
11
32.084005
21
-10.759316
31
0
39
0
210
0
220
0
230
1
0
LINE
5
22E
100
AcDbEntity
8
1
62
256
6
ByLayer
370
-1
48
1
60
0
100
AcDbLine
10
32.059154
20
-12.526503
30
0
11
32.087206
21
-12.526512
31
0
39
0
210
0
220
0
230
1
0
LINE
5
22F
100
AcDbEntity
8
2
62
256
6
ByLayer
370
-1
48
1
60
1
100
AcDbLine
10
0
20
0
30
0
11
0
21
-0.001
31
0
39
0
210
0
220
0
230
1
0
MTEXT
5
411
100
AcDbEntity
8
SK6
62
256
6
ByLayer
370
-1
48
1
60
0
100
AcDbMText
10
16.875
20
32.5625
30
0
210
0
220
0
230
1
1
\W00.742;\fsimplex.shx,bigfont.shx;SL-266LFG-403227-16 
40
3.5
41
0
44
1.084337
50
0
71
7
72
5
7
DEFAULT
0
DIMENSION
5
444
100
AcDbEntity
8
2
62
256
6
ByLayer
370
-3
48
1
60
0
100
AcDbDimension
2
DimnDraft3D1
10
0
20
-51.125
30
0
11
13.371053
21
-51.125
31
0
70
32
71
5
72
1
41
1
210
0
220
0
230
1
3
Standard
100
AcDbAlignedDimension
13
32
23
-28.375
33
0
14
0
24
-1.501
34
0
50
0
100
AcDbRotatedDimension
1001
ACAD
1000
DSTYLE
1002
{
1070
   279
1070
     0
1070
   172
1070
     1
1070
   173
1070
     1
1070
   340
1005
412
1070
   271
1070
     3
1070
   272
1070
     3
1070
    77
1070
     1
1070
    73
1070
     0
1070
   171
1070
     4
1070
   274
1070
     4
1070
   177
1070
     2
1070
   176
1070
     2
1070
   178
1070
     7
1070
    78
1070
     8
1070
    41
1041
3.0
1070
   147
1041
2.25
1070
    42
1041
1.5
1070
    44
1041
3.0
1070
   140
1041
4.5
1070
   343
1005
445
1070
   344
1005
445
1002
}
0
DIMENSION
5
45A
100
AcDbEntity
8
SK2
62
256
6
ByLayer
370
-3
48
1
60
0
100
AcDbDimension
2
DimnDraft3D2
10
-9.75
20
-20
30
0
11
-9.75
21
-5.021053
31
0
70
32
71
5
72
1
41
1
210
0
220
0
230
1
3
Standard
100
AcDbAlignedDimension
13
-1.5
23
20
33
0
14
-1.5
24
-20
34
0
50
90
100
AcDbRotatedDimension
1001
ACAD
1000
DSTYLE
1002
{
1070
    74
1070
     0
1070
   279
1070
     0
1070
   172
1070
     1
1070
   173
1070
     1
1070
   340
1005
412
1070
   271
1070
     3
1070
   272
1070
     3
1070
    77
1070
     1
1070
    73
1070
     0
1070
   171
1070
     4
1070
   274
1070
     4
1070
   177
1070
     2
1070
   176
1070
     2
1070
   178
1070
     7
1070
    78
1070
     8
1070
    41
1041
3.0
1070
   147
1041
2.25
1070
    42
1041
1.5
1070
    44
1041
3.0
1070
   140
1041
4.5
1070
   343
1005
445
1070
   344
1005
445
1002
}
0
DIMENSION
5
468
100
AcDbEntity
8
2
62
256
6
ByLayer
370
-3
48
1
60
0
100
AcDbDimension
2
DimnDraft3D3
10
46.25
20
-26.875
30
0
11
46.25
21
-16.066447
31
0
70
32
71
5
72
1
41
1
210
0
220
0
230
1
3
Standard
100
AcDbAlignedDimension
13
38.5
23
0
33
0
14
33.5
24
-26.875
34
0
50
90
100
AcDbRotatedDimension
1001
ACAD
1000
DSTYLE
1002
{
1070
    74
1070
     0
1070
   279
1070
     0
1070
   172
1070
     1
1070
   173
1070
     1
1070
   340
1005
412
1070
   271
1070
     3
1070
   272
1070
     3
1070
    77
1070
     1
1070
    73
1070
     0
1070
   171
1070
     4
1070
   274
1070
     4
1070
   177
1070
     2
1070
   176
1070
     2
1070
   178
1070
     7
1070
    78
1070
     8
1070
    41
1041
3.0
1070
   147
1041
2.25
1070
    42
1041
1.5
1070
    44
1041
3.0
1070
   140
1041
4.5
1070
   343
1005
445
1070
   344
1005
445
1002
}
0
ENDSEC
0
SECTION
2
OBJECTS
0
DICTIONARY
5
499
330
0
100
AcDbDictionary
280
0
281
1
3
ACAD_GROUP
350
49a
3
ACAD_MLINESTYLE
350
49b
0
DICTIONARY
5
49a
330
0
100
AcDbDictionary
280
0
281
1
0
DICTIONARY
5
49b
330
0
100
AcDbDictionary
280
0
281
1
3
Standard
350
18
0
MLINESTYLE
5
18
330
49b
100
AcDbMlineStyle
2
Standard
70
0
3

62
256
51
90
52
90
71
2
49
-0.5
62
256
6
ByLayer
49
0.5
62
256
6
ByLayer
0
RASTERVARIABLES
5
487
330

100
AcDbRasterVariables
90
0
70
1
71
1
72
1
0
ENDSEC
0
EOF
