0
SECTION
2
HEADER
9
$ACADVER
1
AC1015
9
$DWGCODEPAGE
3
ANSI_1252
9
$HANDSEED
5
420
9
$ANGBASE
50
0
9
$ANGDIR
70
0
9
$ATTMODE
70
1
9
$AUNITS
70
0
9
$AUPREC
70
0
9
$CECOLOR
62
256
9
$CELTSCALE
40
1
9
$CELTYPE
6
ByLayer
9
$CELWEIGHT
370
-1
9
$CLAYER
8
0
9
$CMLJUST
70
0
9
$CMLSCALE
40
1
9
$CMLSTYLE
2
Standard
9
$DIMSTYLE
2
Standard
9
$TEXTSIZE
40
0.2
9
$TEXTSTYLE
7
Standard
9
$LUNITS
70
2
9
$LUPREC
70
4
9
$EXTNAMES
290
1
9
$INSUNITS
70
4
9
$LTSCALE
40
1
9
$LWDISPLAY
290
0
9
$PDMODE
70
0
9
$PDSIZE
40
0
9
$PLINEGEN
70
0
0
ENDSEC
0
SECTION
2
CLASSES
0
CLASS
1
RASTERVARIABLES
2
AcDbRasterVariables
3
ISM
90
0
280
0
281
0
0
ENDSEC
0
SECTION
2
TABLES
0
TABLE
2
VPORT
5
416
100
AcDbSymbolTable
0
VPORT
5
1
100
AcDbSymbolTableRecord
100
AcDbViewportTableRecord
2
*Active
70
0
10
0
20
0
11
1
21
1
12
-1
22
1
13
0
23
0
14
0.5
24
0.5
15
10
25
10
16
0
26
0
36
1
17
0
27
0
37
0
0
ENDTAB
0
TABLE
2
LTYPE
5
417
100
AcDbSymbolTable
0
LTYPE
5
14
100
AcDbSymbolTableRecord
100
AcDbLinetypeTableRecord
70
0
2
ByBlock
3

72
65
73
0
40
0
0
LTYPE
5
15
100
AcDbSymbolTableRecord
100
AcDbLinetypeTableRecord
70
0
2
ByLayer
3

72
65
73
0
40
0
0
LTYPE
5
16
100
AcDbSymbolTableRecord
100
AcDbLinetypeTableRecord
70
0
2
CONTINUOUS
3
Solid line
72
65
73
0
40
0
0
LTYPE
5
3B
100
AcDbSymbolTableRecord
100
AcDbLinetypeTableRecord
70
0
2
DASHED
3
__ __ __ __ __ __ __ __ __
72
65
73
2
40
25.72
49
12.86
74
0
49
-12.86
74
0
0
LTYPE
5
3C
100
AcDbSymbolTableRecord
100
AcDbLinetypeTableRecord
70
0
2
HIDDEN
3
_ _ _ _ _ _ _ _ _ _ _ _ _ _ _
72
65
73
2
40
0.5
49
0.25
74
0
49
-0.25
74
0
0
LTYPE
5
3D
100
AcDbSymbolTableRecord
100
AcDbLinetypeTableRecord
70
0
2
PHANTOM
3
____ _ _ ____ _ _ _____ _ _ ____
72
65
73
6
40
50.5
49
18
74
0
49
-6.5
74
0
49
6.5
74
0
49
-6.5
74
0
49
6.5
74
0
49
-6.5
74
0
0
LTYPE
5
3E
100
AcDbSymbolTableRecord
100
AcDbLinetypeTableRecord
70
0
2
CENTER
3
____ _ ____ _ ____ _ ____
72
65
73
4
40
47.5
49
22
74
0
49
-8.5
74
0
49
8.5
74
0
49
-8.5
74
0
0
LTYPE
5
3F
100
AcDbSymbolTableRecord
100
AcDbLinetypeTableRecord
70
0
2
DOT
3
.........................
72
65
73
2
40
10
49
0
74
0
49
-10
74
0
0
LTYPE
5
40
100
AcDbSymbolTableRecord
100
AcDbLinetypeTableRecord
70
0
2
DASHDOT
3
_._._._._._._._._._._._._._._._.
72
65
73
4
40
70
49
31
74
0
49
-13
74
0
49
13
74
0
49
-13
74
0
0
ENDTAB
0
TABLE
2
LAYER
5
418
100
AcDbSymbolTable
0
LAYER
5
10
100
AcDbSymbolTableRecord
100
AcDbLayerTableRecord
2
0
70
0
62
7
6
CONTINUOUS
290
1
370
-3
390
0
0
LAYER
5
42
100
AcDbSymbolTableRecord
100
AcDbLayerTableRecord
2
2
70
0
62
7
6
CONTINUOUS
290
1
370
-3
390
0
0
LAYER
5
45
100
AcDbSymbolTableRecord
100
AcDbLayerTableRecord
2
80
70
0
62
-6
6
CONTINUOUS
290
1
370
-3
390
0
0
LAYER
5
47
100
AcDbSymbolTableRecord
100
AcDbLayerTableRecord
2
81
70
0
62
-3
6
CONTINUOUS
290
1
370
-3
390
0
0
LAYER
5
4B
100
AcDbSymbolTableRecord
100
AcDbLayerTableRecord
2
4
70
0
62
-2
6
CENTER
290
1
370
-3
390
0
0
LAYER
5
50
100
AcDbSymbolTableRecord
100
AcDbLayerTableRecord
2
1
70
0
62
4
6
CONTINUOUS
290
1
370
-3
390
0
0
LAYER
5
402
100
AcDbSymbolTableRecord
100
AcDbLayerTableRecord
2
SK4
70
0
62
2
6
CENTER
290
1
370
-3
390
0
0
LAYER
5
403
100
AcDbSymbolTableRecord
100
AcDbLayerTableRecord
2
SK1
70
0
62
4
6
CONTINUOUS
290
1
370
-3
390
0
0
LAYER
5
404
100
AcDbSymbolTableRecord
100
AcDbLayerTableRecord
2
SK6
70
0
62
5
6
CONTINUOUS
290
1
370
-3
390
0
0
LAYER
5
405
100
AcDbSymbolTableRecord
100
AcDbLayerTableRecord
2
SK2
70
0
62
7
6
CONTINUOUS
290
1
370
-3
390
0
0
ENDTAB
0
TABLE
2
STYLE
5
419
100
AcDbSymbolTable
0
STYLE
5
11
100
AcDbSymbolTableRecord
100
AcDbTextStyleTableRecord
2
Standard
3
txt
70
0
71
0
40
0
41
1
42
0
50
0
0
STYLE
5
38C
100
AcDbSymbolTableRecord
100
AcDbTextStyleTableRecord
2
DEFAULT
3
simplex.shx
70
0
71
0
40
0
41
1
42
0
50
0
0
STYLE
5
3AF
100
AcDbSymbolTableRecord
100
AcDbTextStyleTableRecord
2
DWGDirectTextStyle
3
SIMPLEX
70
0
71
0
40
0
41
1
42
0
50
0
0
ENDTAB
0
TABLE
2
DIMSTYLE
5
41a
100
AcDbSymbolTable
100
AcDbDimStyleTable
0
DIMSTYLE
105
27
100
AcDbSymbolTableRecord
100
AcDbDimStyleTableRecord
2
Standard
70
0
3
<>
41
0.18
42
0.0625
44
0.18
140
0.18
147
0.09
73
0
74
0
77
1
271
2
275
0
278
52
280
0
340
11
0
ENDTAB
0
TABLE
2
VIEW
5
41b
100
AcDbSymbolTable
0
ENDTAB
0
TABLE
2
UCS
5
41c
100
AcDbSymbolTable
0
ENDTAB
0
TABLE
2
APPID
5
41d
100
AcDbSymbolTable
0
APPID
5
12
100
AcDbSymbolTableRecord
100
AcDbRegAppTableRecord
2
ACAD
70
0
0
ENDTAB
0
TABLE
2
BLOCK_RECORD
5
41e
100
AcDbSymbolTable
0
BLOCK_RECORD
5
1F
100
AcDbSymbolTableRecord
100
AcDbBlockTableRecord
2
*Model_Space
340
0
70
0
0
BLOCK_RECORD
5
1B
100
AcDbSymbolTableRecord
100
AcDbBlockTableRecord
2
*Paper_Space
340
0
70
0
0
BLOCK_RECORD
5
23
100
AcDbSymbolTableRecord
100
AcDbBlockTableRecord
2
*Paper_Space0
340
0
70
0
0
BLOCK_RECORD
5
3B1
100
AcDbSymbolTableRecord
100
AcDbBlockTableRecord
2
DimnDraft3D1
340
0
70
0
0
BLOCK_RECORD
5
3BF
100
AcDbSymbolTableRecord
100
AcDbBlockTableRecord
2
_CLOSED
340
0
70
0
0
BLOCK_RECORD
5
3C6
100
AcDbSymbolTableRecord
100
AcDbBlockTableRecord
2
DimnDraft3D2
340
0
70
0
0
BLOCK_RECORD
5
3D5
100
AcDbSymbolTableRecord
100
AcDbBlockTableRecord
2
DimnDraft3D3
340
0
70
0
0
ENDTAB
0
ENDSEC
0
SECTION
2
BLOCKS
0
BLOCK
5
20
100
AcDbEntity
8
0
100
AcDbBlockBegin
2
*Model_Space
70
0
10
0
20
0
30
0
3
*Model_Space
0
ENDBLK
5
21
100
AcDbEntity
8
0
100
AcDbBlockEnd
0
BLOCK
5
1C
100
AcDbEntity
8
0
100
AcDbBlockBegin
2
*Paper_Space
70
0
10
0
20
0
30
0
3
*Paper_Space
0
ENDBLK
5
1D
100
AcDbEntity
8
0
100
AcDbBlockEnd
0
BLOCK
5
24
100
AcDbEntity
8
0
100
AcDbBlockBegin
2
*Paper_Space0
70
0
10
0
20
0
30
0
3
*Paper_Space0
0
ENDBLK
5
25
100
AcDbEntity
8
0
100
AcDbBlockEnd
0
BLOCK
5
3BC
100
AcDbEntity
8
0
100
AcDbBlockBegin
2
DimnDraft3D1
70
0
10
0
20
0
30
0
3
DimnDraft3D1
0
MTEXT
5
3B2
100
AcDbEntity
8
2
62
256
6
ByLayer
370
-1
48
1
60
0
100
AcDbMText
10
10.996053
20
-40
30
0
210
0
220
0
230
1
1
\W01.000;\fsimplex.shx,bigfont.shx;25 
40
4.5
41
0
44
1.084337
50
0
71
7
72
5
7
DEFAULT
0
LINE
5
3B3
100
AcDbEntity
8
2
62
256
6
ByLayer
370
-1
48
1
60
0
100
AcDbLine
10
25
20
-18.375
30
0
11
25
21
-44.125
31
0
39
0
210
0
220
0
230
1
0
LINE
5
3B4
100
AcDbEntity
8
2
62
256
6
ByLayer
370
-1
48
1
60
0
100
AcDbLine
10
0
20
-1.501
30
0
11
0
21
-44.125
31
0
39
0
210
0
220
0
230
1
0
LINE
5
3B5
100
AcDbEntity
8
2
62
256
6
ByLayer
370
-1
48
1
60
0
100
AcDbLine
10
25
20
-41.125
30
0
11
0
21
-41.125
31
0
39
0
210
0
220
0
230
1
0
LINE
5
3B6
100
AcDbEntity
8
2
62
256
6
ByLayer
370
-1
48
1
60
0
100
AcDbLine
10
25
20
-41.125
30
0
11
22.000001
21
-41.519957
31
0
39
0
210
0
220
0
230
1
0
LINE
5
3B7
100
AcDbEntity
8
2
62
256
6
ByLayer
370
-1
48
1
60
0
100
AcDbLine
10
25
20
-41.125
30
0
11
21.999999
21
-40.730043
31
0
39
0
210
0
220
0
230
1
0
LINE
5
3B8
100
AcDbEntity
8
2
62
256
6
ByLayer
370
-1
48
1
60
0
100
AcDbLine
10
22.000001
20
-41.519957
30
0
11
21.999999
21
-40.730043
31
0
39
0
210
0
220
0
230
1
0
LINE
5
3B9
100
AcDbEntity
8
2
62
256
6
ByLayer
370
-1
48
1
60
0
100
AcDbLine
10
0
20
-41.125
30
0
11
2.999999
21
-40.730043
31
0
39
0
210
0
220
0
230
1
0
LINE
5
3BA
100
AcDbEntity
8
2
62
256
6
ByLayer
370
-1
48
1
60
0
100
AcDbLine
10
0
20
-41.125
30
0
11
3.000001
21
-41.519957
31
0
39
0
210
0
220
0
230
1
0
LINE
5
3BB
100
AcDbEntity
8
2
62
256
6
ByLayer
370
-1
48
1
60
0
100
AcDbLine
10
2.999999
20
-40.730043
30
0
11
3.000001
21
-41.519957
31
0
39
0
210
0
220
0
230
1
0
ENDBLK
5
3BD
100
AcDbEntity
8
0
100
AcDbBlockEnd
0
BLOCK
5
3C0
100
AcDbEntity
8
0
100
AcDbBlockBegin
2
_CLOSED
70
0
10
0
20
0
30
0
3
_CLOSED
0
LINE
5
3C2
100
AcDbEntity
8
0
62
256
6
ByLayer
370
-2
48
1
60
0
100
AcDbLine
10
-1
20
0.166667
30
0
11
0
21
0
31
0
39
0
210
0
220
0
230
1
0
LINE
5
3C3
100
AcDbEntity
8
0
62
256
6
ByLayer
370
-2
48
1
60
0
100
AcDbLine
10
0
20
0
30
0
11
-1
21
-0.166667
31
0
39
0
210
0
220
0
230
1
0
LINE
5
3C4
100
AcDbEntity
8
0
62
256
6
ByLayer
370
-2
48
1
60
0
100
AcDbLine
10
-1
20
0.166667
30
0
11
-1
21
-0.166667
31
0
39
0
210
0
220
0
230
1
0
LINE
5
3C5
100
AcDbEntity
8
0
62
256
6
ByLayer
370
-2
48
1
60
0
100
AcDbLine
10
0
20
0
30
0
11
-1
21
0
31
0
39
0
210
0
220
0
230
1
0
ENDBLK
5
3C1
100
AcDbEntity
8
0
100
AcDbBlockEnd
0
BLOCK
5
3D2
100
AcDbEntity
8
0
100
AcDbBlockBegin
2
DimnDraft3D2
70
0
10
0
20
0
30
0
3
DimnDraft3D2
0
MTEXT
5
3C7
100
AcDbEntity
8
SK2
62
256
6
ByLayer
370
-1
48
1
60
0
100
AcDbMText
10
-10.875
20
-3.659211
30
0
210
0
220
0
230
1
1
\W01.000;\fsimplex.shx,bigfont.shx;%%c25 
40
4.5
41
0
44
1.084337
50
90
71
7
72
5
7
DEFAULT
0
LINE
5
3C9
100
AcDbEntity
8
SK2
62
256
6
ByLayer
370
-1
48
1
60
0
100
AcDbLine
10
-1.5
20
12.5
30
0
11
-12.75
21
12.5
31
0
39
0
210
0
220
0
230
1
0
LINE
5
3CA
100
AcDbEntity
8
SK2
62
256
6
ByLayer
370
-1
48
1
60
0
100
AcDbLine
10
-1.5
20
-12.5
30
0
11
-12.75
21
-12.5
31
0
39
0
210
0
220
0
230
1
0
LINE
5
3CB
100
AcDbEntity
8
SK2
62
256
6
ByLayer
370
-1
48
1
60
0
100
AcDbLine
10
-9.75
20
12.5
30
0
11
-9.75
21
-12.5
31
0
39
0
210
0
220
0
230
1
0
LINE
5
3CC
100
AcDbEntity
8
SK2
62
256
6
ByLayer
370
-1
48
1
60
0
100
AcDbLine
10
-9.75
20
12.5
30
0
11
-9.355043
21
9.500001
31
0
39
0
210
0
220
0
230
1
0
LINE
5
3CD
100
AcDbEntity
8
SK2
62
256
6
ByLayer
370
-1
48
1
60
0
100
AcDbLine
10
-9.75
20
12.5
30
0
11
-10.144957
21
9.499999
31
0
39
0
210
0
220
0
230
1
0
LINE
5
3CE
100
AcDbEntity
8
SK2
62
256
6
ByLayer
370
-1
48
1
60
0
100
AcDbLine
10
-9.355043
20
9.500001
30
0
11
-10.144957
21
9.499999
31
0
39
0
210
0
220
0
230
1
0
LINE
5
3CF
100
AcDbEntity
8
SK2
62
256
6
ByLayer
370
-1
48
1
60
0
100
AcDbLine
10
-9.75
20
-12.5
30
0
11
-10.144957
21
-9.500001
31
0
39
0
210
0
220
0
230
1
0
LINE
5
3D0
100
AcDbEntity
8
SK2
62
256
6
ByLayer
370
-1
48
1
60
0
100
AcDbLine
10
-9.75
20
-12.5
30
0
11
-9.355043
21
-9.499999
31
0
39
0
210
0
220
0
230
1
0
LINE
5
3D1
100
AcDbEntity
8
SK2
62
256
6
ByLayer
370
-1
48
1
60
0
100
AcDbLine
10
-10.144957
20
-9.500001
30
0
11
-9.355043
21
-9.499999
31
0
39
0
210
0
220
0
230
1
0
ENDBLK
5
3D3
100
AcDbEntity
8
0
100
AcDbBlockEnd
0
BLOCK
5
3E0
100
AcDbEntity
8
0
100
AcDbBlockBegin
2
DimnDraft3D3
70
0
10
0
20
0
30
0
3
DimnDraft3D3
0
MTEXT
5
3D6
100
AcDbEntity
8
2
62
256
6
ByLayer
370
-1
48
1
60
0
100
AcDbMText
10
38.125
20
-9.378947
30
0
210
0
220
0
230
1
1
\W01.000;\fsimplex.shx,bigfont.shx;17 
40
4.5
41
0
44
1.084337
50
90
71
7
72
5
7
DEFAULT
0
LINE
5
3D7
100
AcDbEntity
8
2
62
256
6
ByLayer
370
-1
48
1
60
0
100
AcDbLine
10
31.5
20
0
30
0
11
42.25
21
0
31
0
39
0
210
0
220
0
230
1
0
LINE
5
3D8
100
AcDbEntity
8
2
62
256
6
ByLayer
370
-1
48
1
60
0
100
AcDbLine
10
26.5
20
-16.875
30
0
11
42.25
21
-16.875
31
0
39
0
210
0
220
0
230
1
0
LINE
5
3D9
100
AcDbEntity
8
2
62
256
6
ByLayer
370
-1
48
1
60
0
100
AcDbLine
10
39.25
20
0
30
0
11
39.25
21
-16.875
31
0
39
0
210
0
220
0
230
1
0
LINE
5
3DA
100
AcDbEntity
8
2
62
256
6
ByLayer
370
-1
48
1
60
0
100
AcDbLine
10
39.25
20
0
30
0
11
39.644957
21
-2.999999
31
0
39
0
210
0
220
0
230
1
0
LINE
5
3DB
100
AcDbEntity
8
2
62
256
6
ByLayer
370
-1
48
1
60
0
100
AcDbLine
10
39.25
20
0
30
0
11
38.855043
21
-3.000001
31
0
39
0
210
0
220
0
230
1
0
LINE
5
3DC
100
AcDbEntity
8
2
62
256
6
ByLayer
370
-1
48
1
60
0
100
AcDbLine
10
39.644957
20
-2.999999
30
0
11
38.855043
21
-3.000001
31
0
39
0
210
0
220
0
230
1
0
LINE
5
3DD
100
AcDbEntity
8
2
62
256
6
ByLayer
370
-1
48
1
60
0
100
AcDbLine
10
39.25
20
-16.875
30
0
11
38.855043
21
-13.875001
31
0
39
0
210
0
220
0
230
1
0
LINE
5
3DE
100
AcDbEntity
8
2
62
256
6
ByLayer
370
-1
48
1
60
0
100
AcDbLine
10
39.25
20
-16.875
30
0
11
39.644957
21
-13.874999
31
0
39
0
210
0
220
0
230
1
0
LINE
5
3DF
100
AcDbEntity
8
2
62
256
6
ByLayer
370
-1
48
1
60
0
100
AcDbLine
10
38.855043
20
-13.875001
30
0
11
39.644957
21
-13.874999
31
0
39
0
210
0
220
0
230
1
0
ENDBLK
5
3E1
100
AcDbEntity
8
0
100
AcDbBlockEnd
0
ENDSEC
0
SECTION
2
ENTITIES
0
ARC
5
1E3
100
AcDbEntity
8
1
62
256
6
ByLayer
370
-1
48
1
60
0
100
AcDbCircle
39
0
10
-7.849074
20
-13.3
30
0
40
0.8
210
0
220
0
230
-1
100
AcDbArc
50
90
51
140
0
ARC
5
1E4
100
AcDbEntity
8
1
62
256
6
ByLayer
370
-1
48
1
60
0
100
AcDbCircle
39
0
10
19.519027
20
0.560779
30
0
40
4.99999999993839
210
0
220
0
230
1
100
AcDbArc
50
10.633287
51
26.225006
0
ELLIPSE
5
1E5
100
AcDbEntity
8
1
62
256
6
ByLayer
370
-1
48
1
60
0
100
AcDbEllipse
10
12.045233
20
-8.350076
30
0
11
-1.64197701257211
21
-0.1625330168413
31
0
210
0
220
0
230
1
40
0.984661
41
-1.54396472894467
42
1.46460210359507
0
ELLIPSE
5
1E6
100
AcDbEntity
8
1
62
256
6
ByLayer
370
-1
48
1
60
0
100
AcDbEllipse
10
17.030275
20
-6.292309
30
0
11
-2.62219199737614
21
-1.08677507148463
31
0
210
0
220
0
230
1
40
0.403474
41
-1.54781500114905
42
-1.26520199899398
0
ELLIPSE
5
1E7
100
AcDbEntity
8
1
62
256
6
ByLayer
370
-1
48
1
60
0
100
AcDbEllipse
10
6.026466
20
5.656854
30
0
11
-0.000817086614919864
21
-3.74999999999993
31
0
210
0
220
0
230
1
40
0.000231
41
-3.05971068289248
42
0.267177980752167
0
ELLIPSE
5
1E8
100
AcDbEntity
8
1
62
256
6
ByLayer
370
-1
48
1
60
0
100
AcDbEllipse
10
6.026539
20
0
30
0
11
-0.00272362204973176
21
-12.4999999999946
31
0
210
0
220
0
230
1
40
0.000231
41
-2.60675738875134
42
-0.171680774340277
0
ELLIPSE
5
1E9
100
AcDbEntity
8
1
62
256
6
ByLayer
370
-1
48
1
60
0
100
AcDbEllipse
10
13.161667
20
-7.348449
30
0
11
-2.10465975395978
21
-0.225646305867167
31
0
210
0
220
0
230
1
40
0.984637
41
0.590685496656646
42
1.25571814686241
0
ELLIPSE
5
1EA
100
AcDbEntity
8
1
62
256
6
ByLayer
370
-1
48
1
60
0
100
AcDbEllipse
10
11.910022
20
-7.088926
30
0
11
-1.64059795830899
21
-0.175892976529408
31
0
210
0
220
0
230
1
40
0.984637
41
0.400816393931073
42
1.46562003040127
0
ELLIPSE
5
1EB
100
AcDbEntity
8
1
62
256
6
ByLayer
370
-1
48
1
60
0
100
AcDbEllipse
10
11.910022
20
-7.088926
30
0
11
-1.64059795830899
21
-0.175892976529408
31
0
210
0
220
0
230
1
40
0.984637
41
1.46562003040127
42
1.73079027436304
0
ELLIPSE
5
1EC
100
AcDbEntity
8
1
62
256
6
ByLayer
370
-1
48
1
60
0
100
AcDbEllipse
10
13.206899
20
-7.770341
30
0
11
-1.98860358582908
21
-0.213203607914434
31
0
210
0
220
0
230
1
40
0.984637
41
0.662659215388582
42
1.32033434948344
0
ELLIPSE
5
1ED
100
AcDbEntity
8
1
62
256
6
ByLayer
370
-1
48
1
60
0
100
AcDbEllipse
10
11.911883
20
-7.106288
30
0
11
1.64059795830899
21
0.175892976529409
31
0
210
0
220
0
230
1
40
0.984637
41
-1.90499166511709
42
-1.41093210178732
0
ELLIPSE
5
1EE
100
AcDbEntity
8
1
62
256
6
ByLayer
370
-1
48
1
60
0
100
AcDbEllipse
10
-83.974662
20
5.656854
30
0
11
-218.15156833912
21
-0.651367333920427
31
0
210
0
220
0
230
1
40
0.016929
41
2.00195041999001
42
2.08854890710923
0
ELLIPSE
5
1EF
100
AcDbEntity
8
1
62
256
6
ByLayer
370
-1
48
1
60
0
100
AcDbEllipse
10
14.640143
20
-5.656854
30
0
11
-6.74594631978216
21
-3.72987330889701
31
0
210
0
220
0
230
1
40
0.057516
41
1.64469336761622
42
1.99379768677394
0
ELLIPSE
5
1F0
100
AcDbEntity
8
1
62
256
6
ByLayer
370
-1
48
1
60
0
100
AcDbEllipse
10
12.601846
20
-13.541745
30
0
11
-1.78200909412293
21
4.60881674562171
31
0
210
0
220
0
230
1
40
0.218025
41
-0.774230585579409
42
-0.362436267242823
0
ELLIPSE
5
1F1
100
AcDbEntity
8
1
62
256
6
ByLayer
370
-1
48
1
60
0
100
AcDbEllipse
10
-198.263098
20
-5.656854
30
0
11
-218.151568352118
21
-0.651367333878827
31
0
210
0
220
0
230
1
40
0.016929
41
-2.99682731416662
42
-2.79895543439662
0
ELLIPSE
5
1F2
100
AcDbEntity
8
1
62
256
6
ByLayer
370
-1
48
1
60
0
100
AcDbEllipse
10
7.222568
20
-15.801533
30
0
11
-0.0012245596126539
21
-6.91064214362428
31
0
210
0
220
0
230
1
40
0.173645
41
-2.12048213381919
42
-2.08379256727977
0
ELLIPSE
5
1F3
100
AcDbEntity
8
1
62
256
6
ByLayer
370
-1
48
1
60
0
100
AcDbEllipse
10
23.091403
20
-2.825887
30
0
11
-2.62219199760496
21
-1.0867750715009
31
0
210
0
220
0
230
1
40
0.403474
41
-1.26520199894635
42
-0.982588996809402
0
ELLIPSE
5
1F4
100
AcDbEntity
8
1
62
256
6
ByLayer
370
-1
48
1
60
0
100
AcDbEllipse
10
12.745017
20
-8.101786
30
0
11
-1.64779218112847
21
-0.163108613695852
31
0
210
0
220
0
230
1
40
0.984661
41
-2.22544437015671
42
-1.09047605446434
0
ELLIPSE
5
1F5
100
AcDbEntity
8
1
62
256
6
ByLayer
370
-1
48
1
60
0
100
AcDbEllipse
10
12.227016
20
-10.045621
30
0
11
-2.2261590235348
21
6.17322393643179
31
0
210
0
220
0
230
1
40
0.086374
41
1.37011714664375
42
1.38505974126219
0
ELLIPSE
5
1F6
100
AcDbEntity
8
1
62
256
6
ByLayer
370
-1
48
1
60
0
100
AcDbEllipse
10
11.957116
20
-7.52818
30
0
11
1.64059795830899
21
0.175892976529409
31
0
210
0
220
0
230
1
40
0.984637
41
-2.11174258782688
42
-1.79066724047501
0
ELLIPSE
5
1F7
100
AcDbEntity
8
1
62
256
6
ByLayer
370
-1
48
1
60
0
100
AcDbEllipse
10
-198.263098
20
-5.656854
30
0
11
-218.151568316577
21
-0.651367333899813
31
0
210
0
220
0
230
1
40
0.016929
41
2.79884834253769
42
2.93725367385098
0
ELLIPSE
5
1F8
100
AcDbEntity
8
1
62
256
6
ByLayer
370
-1
48
1
60
0
100
AcDbEllipse
10
6.024001
20
-5.656854
30
0
11
-0.000817086614919897
21
-3.75000000000008
31
0
210
0
220
0
230
1
40
0.000231
41
2.65195839865574
42
0.838694206385158
0
ELLIPSE
5
1F9
100
AcDbEntity
8
1
62
256
6
ByLayer
370
-1
48
1
60
0
100
AcDbEllipse
10
24.097592
20
-1.568693
30
0
11
-0.199027190663093
21
-0.0197022175593688
31
0
210
0
220
0
230
1
40
0.984662
41
3.14157835546846
42
-2.71516118948932
0
ELLIPSE
5
1FA
100
AcDbEntity
8
1
62
256
6
ByLayer
370
-1
48
1
60
0
100
AcDbEllipse
10
15.021853
20
-11.268279
30
0
11
-0.152805304687532
21
0.0885670091600488
31
0
210
0
220
0
230
1
40
0.12071
41
0.622497921364682
42
1.65747816780936
0
ELLIPSE
5
1FB
100
AcDbEntity
8
1
62
256
6
ByLayer
370
-1
48
1
60
0
100
AcDbEllipse
10
20.244735
20
-8.831618
30
0
11
3.06543254731197
21
0.303455114647858
31
0
210
0
220
0
230
1
40
0.984662
41
0
42
6.28318530717959
0
ELLIPSE
5
1FC
100
AcDbEntity
8
1
62
256
6
ByLayer
370
-1
48
1
60
0
100
AcDbEllipse
10
17.384443
20
-14.135872
30
0
11
-1.78601174350119
21
-1.79756032734429
31
0
210
0
220
0
230
1
40
0.117311
41
2.44983432393092
42
3.13827486883055
0
ELLIPSE
5
1FD
100
AcDbEntity
8
1
62
256
6
ByLayer
370
-1
48
1
60
0
100
AcDbEllipse
10
24.397351
20
-4.366926
30
0
11
-0.155721789724458
21
-0.27977516999034
31
0
210
0
220
0
230
1
40
0.100809
41
-1.86742547963988
42
-1.35854214681563
0
ELLIPSE
5
1FE
100
AcDbEntity
8
1
62
256
6
ByLayer
370
-1
48
1
60
0
100
AcDbEllipse
10
24.162924
20
-8.962812
30
0
11
-0.0644797548528733
21
-0.135433973633329
31
0
210
0
220
0
230
1
40
0.091176
41
1.42086082938269
42
2.12644701908109
0
ELLIPSE
5
1FF
100
AcDbEntity
8
1
62
256
6
ByLayer
370
-1
48
1
60
0
100
AcDbEllipse
10
24.756568
20
-5.939217
30
0
11
0.248783988328867
21
0.0246277719492108
31
0
210
0
220
0
230
1
40
0.984662
41
-0.0971673114978115
42
0.426431464100481
0
ELLIPSE
5
200
100
AcDbEntity
8
1
62
256
6
ByLayer
370
-1
48
1
60
0
100
AcDbEllipse
10
17.358445
20
-12.590037
30
0
11
-0.144059584479033
21
0.083751358418636
31
0
210
0
220
0
230
1
40
0.12788
41
1.66285292871522
42
2.36843911837522
0
ELLIPSE
5
201
100
AcDbEntity
8
1
62
256
6
ByLayer
370
-1
48
1
60
0
100
AcDbEllipse
10
18.364072
20
-4.463462
30
0
11
-0.14395583565997
21
-0.0840928201738034
31
0
210
0
220
0
230
1
40
0.142991
41
0.79972221712061
42
1.50530840679616
0
ELLIPSE
5
202
100
AcDbEntity
8
1
62
256
6
ByLayer
370
-1
48
1
60
0
100
AcDbEllipse
10
14.232077
20
-10.373042
30
0
11
0.318996801417973
21
0.0253187812720539
31
0
210
0
220
0
230
1
40
0.103136
41
0.540764891680797
42
1.62353047750981
0
ELLIPSE
5
203
100
AcDbEntity
8
1
62
256
6
ByLayer
370
-1
48
1
60
0
100
AcDbEllipse
10
17.940274
20
-4.744795
30
0
11
-0.26640408878947
21
-0.158769533527036
31
0
210
0
220
0
230
1
40
0.155553
41
-2.33096892402085
42
-1.63760664693875
0
ELLIPSE
5
204
100
AcDbEntity
8
1
62
256
6
ByLayer
370
-1
48
1
60
0
100
AcDbEllipse
10
13.389614
20
-8.320715
30
0
11
-0.127929344559532
21
-0.0583230604675625
31
0
210
0
220
0
230
1
40
0.958576
41
1.16392724760623
42
2.20447064127895
0
ELLIPSE
5
205
100
AcDbEntity
8
1
62
256
6
ByLayer
370
-1
48
1
60
0
100
AcDbEllipse
10
22.99458
20
-2.525613
30
0
11
0.329646231381945
21
0.0152761950655633
31
0
210
0
220
0
230
1
40
0.571959
41
1.42024116993656
42
2.24252239227156
0
ELLIPSE
5
206
100
AcDbEntity
8
1
62
256
6
ByLayer
370
-1
48
1
60
0
100
AcDbEllipse
10
24.998474
20
-13.220543
30
0
11
-0.00106954717776872
21
0.358318639209262
31
0
210
0
220
0
230
1
40
0.015116
41
1.37583876569831
42
1.57077377164202
0
ELLIPSE
5
207
100
AcDbEntity
8
1
62
256
6
ByLayer
370
-1
48
1
60
0
100
AcDbEllipse
10
24.045647
20
-14.71895
30
0
11
0.286289761130408
21
-0.164128524857485
31
0
210
0
220
0
230
1
40
0.008441
41
-1.58546855109511
42
-1.23640270069643
0
ELLIPSE
5
208
100
AcDbEntity
8
1
62
256
6
ByLayer
370
-1
48
1
60
0
100
AcDbEllipse
10
25.007613
20
-8.91404
30
0
11
-0.000679640553138033
21
0.306791687299655
31
0
210
0
220
0
230
1
40
0.016938
41
1.39143812090754
42
2.08480039785417
0
ELLIPSE
5
209
100
AcDbEntity
8
1
62
256
6
ByLayer
370
-1
48
1
60
0
100
AcDbEllipse
10
14.232077
20
-10.373042
30
0
11
-0.179046461892985
21
0.265221349976966
31
0
210
0
220
0
230
1
40
0.004841
41
-1.45494020729368
42
-1.26000520671817
0
ELLIPSE
5
20A
100
AcDbEntity
8
1
62
256
6
ByLayer
370
-1
48
1
60
0
100
AcDbEllipse
10
24.653908
20
-13.048204
30
0
11
0.158214816788841
21
-0.278151167080912
31
0
210
0
220
0
230
1
40
0.014726
41
-2.7642877804414
42
-1.57914315529771
0
ELLIPSE
5
20B
100
AcDbEntity
8
1
62
256
6
ByLayer
370
-1
48
1
60
0
100
AcDbEllipse
10
13.68684
20
-9.474454
30
0
11
-0.000752989036632039
21
-0.931731630022836
31
0
210
0
220
0
230
1
40
0.349223
41
2.33218217417696
42
-3.12872191066813
0
ELLIPSE
5
20C
100
AcDbEntity
8
1
62
256
6
ByLayer
370
-1
48
1
60
0
100
AcDbEllipse
10
13.803359
20
-9.391633
30
0
11
-0.81482332854769
21
0.491423519004822
31
0
210
0
220
0
230
1
40
0.499305
41
-0.294082193532271
42
0.307337202779267
0
ELLIPSE
5
20D
100
AcDbEntity
8
1
62
256
6
ByLayer
370
-1
48
1
60
0
100
AcDbEllipse
10
13.685887
20
-9.294044
30
0
11
0.213104820120463
21
0.139234821942732
31
0
210
0
220
0
230
1
40
0.952081
41
-1.62521932802713
42
-0.551305267921976
0
ELLIPSE
5
20E
100
AcDbEntity
8
1
62
256
6
ByLayer
370
-1
48
1
60
0
100
AcDbEllipse
10
17.603541
20
-3.564728
30
0
11
-0.710106144400826
21
2.45352120081137
31
0
210
0
220
0
230
1
40
0.117393
41
3.13509782668612
42
-2.59575155037026
0
ELLIPSE
5
20F
100
AcDbEntity
8
1
62
256
6
ByLayer
370
-1
48
1
60
0
100
AcDbEllipse
10
14.387145
20
-7.145433
30
0
11
-0.209095460508847
21
0.200510589552093
31
0
210
0
220
0
230
1
40
0.746902
41
2.9164196816296
42
-3.04463327561836
0
ELLIPSE
5
210
100
AcDbEntity
8
1
62
256
6
ByLayer
370
-1
48
1
60
0
100
AcDbEllipse
10
22.606661
20
-2.230024
30
0
11
-0.240192896539418
21
0.0744721625215331
31
0
210
0
220
0
230
1
40
0.960584
41
-1.28949687595911
42
-0.759243942837854
0
ELLIPSE
5
211
100
AcDbEntity
8
1
62
256
6
ByLayer
370
-1
48
1
60
0
100
AcDbEllipse
10
26.176431
20
-9.161497
30
0
11
-2.48794858732841
21
0.577833479014024
31
0
210
0
220
0
230
1
40
0.115835
41
0.544011712677948
42
0.685038059766605
0
ELLIPSE
5
212
100
AcDbEntity
8
1
62
256
6
ByLayer
370
-1
48
1
60
0
100
AcDbEllipse
10
24.334919
20
-14.214372
30
0
11
0.286289761130408
21
-0.164128524857485
31
0
210
0
220
0
230
1
40
0.008441
41
-1.58546855109513
42
-1.23640270069611
0
ELLIPSE
5
213
100
AcDbEntity
8
1
62
256
6
ByLayer
370
-1
48
1
60
0
100
AcDbEllipse
10
21.822495
20
-2.813755
30
0
11
0.319355024773582
21
0.0203068498754733
31
0
210
0
220
0
230
1
40
0.25077
41
1.42076268968339
42
1.61569769025886
0
ELLIPSE
5
214
100
AcDbEntity
8
1
62
256
6
ByLayer
370
-1
48
1
60
0
100
AcDbEllipse
10
24.083429
20
-1.544574
30
0
11
-0.199027190663093
21
-0.0197022175593688
31
0
210
0
220
0
230
1
40
0.984662
41
-2.71516118948932
42
-1.67461779581898
0
ELLIPSE
5
215
100
AcDbEntity
8
1
62
256
6
ByLayer
370
-1
48
1
60
0
100
AcDbEllipse
10
13.912733
20
-10.588626
30
0
11
-0.308313413860287
21
0.17719105175224
31
0
210
0
220
0
230
1
40
0.128687
41
-1.51787485903768
42
-1.32293985915971
0
ELLIPSE
5
216
100
AcDbEntity
8
1
62
256
6
ByLayer
370
-1
48
1
60
0
100
AcDbEllipse
10
18.749394
20
-11.85012
30
0
11
0.106954316998609
21
0.10517021477282
31
0
210
0
220
0
230
1
40
0.13667
41
-1.85502684753504
42
-1.68049392233558
0
ELLIPSE
5
217
100
AcDbEntity
8
1
62
256
6
ByLayer
370
-1
48
1
60
0
100
AcDbEllipse
10
23.999125
20
-14.0158
30
0
11
-0.167973549938388
21
-0.284050851998539
31
0
210
0
220
0
230
1
40
0.014557
41
-2.44318016919409
42
-1.56215884318401
0
ELLIPSE
5
218
100
AcDbEntity
8
1
62
256
6
ByLayer
370
-1
48
1
60
0
100
AcDbEllipse
10
24.55211
20
-4.509665
30
0
11
-0.054140726359946
21
-0.30988172919243
31
0
210
0
220
0
230
1
40
0.776532
41
-1.12211345976586
42
-0.7999811099647
0
ELLIPSE
5
219
100
AcDbEntity
8
1
62
256
6
ByLayer
370
-1
48
1
60
0
100
AcDbEllipse
10
13.935611
20
-6.933484
30
0
11
-0.179124471596784
21
-0.0177319958034319
31
0
210
0
220
0
230
1
40
0.984662
41
-1.66130948076642
42
-0.620766087096104
0
ELLIPSE
5
21A
100
AcDbEntity
8
1
62
256
6
ByLayer
370
-1
48
1
60
0
100
AcDbEllipse
10
14.748799
20
-9.859709
30
0
11
-2.27989324635493
21
1.20918960686301
31
0
210
0
220
0
230
1
40
0.183958
41
-0.308399372817186
42
0.293020023493709
0
ELLIPSE
5
21B
100
AcDbEntity
8
1
62
256
6
ByLayer
370
-1
48
1
60
0
100
AcDbEllipse
10
24.599753
20
-5.158104
30
0
11
-0.141218484148812
21
0.242332973123138
31
0
210
0
220
0
230
1
40
0.03895
41
0.620771685073157
42
1.65575193153002
0
ELLIPSE
5
21C
100
AcDbEntity
8
1
62
256
6
ByLayer
370
-1
48
1
60
0
100
AcDbEllipse
10
13.348698
20
-9.490214
30
0
11
0.213104820120464
21
0.139234821942732
31
0
210
0
220
0
230
1
40
0.952081
41
-1.93015659300815
42
-1.62521932802713
0
ELLIPSE
5
21D
100
AcDbEntity
8
1
62
256
6
ByLayer
370
-1
48
1
60
0
100
AcDbEllipse
10
23.225979
20
-14.795053
30
0
11
-0.000422346124018186
21
0.14215909823862
31
0
210
0
220
0
230
1
40
0.984667
41
1.38365084076469E-05
42
0.95273351342805
0
ELLIPSE
5
21E
100
AcDbEntity
8
1
62
256
6
ByLayer
370
-1
48
1
60
0
100
AcDbEllipse
10
22.950227
20
-14.628283
30
0
11
-0.000543016442669466
21
0.182775983449655
31
0
210
0
220
0
230
1
40
0.984667
41
-3.14157881706808
42
-2.18885914014826
0
ELLIPSE
5
21F
100
AcDbEntity
8
1
62
256
6
ByLayer
370
-1
48
1
60
0
100
AcDbEllipse
10
24.064443
20
-3.461337
30
0
11
-0.172938885509117
21
0.053619957005716
31
0
210
0
220
0
230
1
40
0.960584
41
-2.33004026968659
42
-1.377320592761
0
ELLIPSE
5
220
100
AcDbEntity
8
1
62
256
6
ByLayer
370
-1
48
1
60
0
100
AcDbEllipse
10
23.99325
20
-13.918908
30
0
11
-0.0025003880507648
21
0.837777203646682
31
0
210
0
220
0
230
1
40
0.179019
41
2.84088303452207
42
-2.84088287634687
0
ELLIPSE
5
221
100
AcDbEntity
8
1
62
256
6
ByLayer
370
-1
48
1
60
0
100
AcDbEllipse
10
14.265004
20
-10.787898
30
0
11
-0.335569278099616
21
0.196863405726289
31
0
210
0
220
0
230
1
40
0.116742
41
-2.51945740056556
42
-1.43669181472692
0
ELLIPSE
5
222
100
AcDbEntity
8
1
62
256
6
ByLayer
370
-1
48
1
60
0
100
AcDbEllipse
10
12.562193
20
-8.680161
30
0
11
-0.18275620651408
21
-0.0833186578104786
31
0
210
0
220
0
230
1
40
0.958576
41
-1.97766540598043
42
-0.937122012309298
0
ELLIPSE
5
223
100
AcDbEntity
8
1
62
256
6
ByLayer
370
-1
48
1
60
0
100
AcDbEllipse
10
17.378462
20
-5.071744
30
0
11
-0.266404088801475
21
-0.158769533535055
31
0
210
0
220
0
230
1
40
0.155553
41
-1.63760664695209
42
-0.949166102063656
0
ELLIPSE
5
224
100
AcDbEntity
8
1
62
256
6
ByLayer
370
-1
48
1
60
0
100
AcDbEllipse
10
23.27
20
-14.794921
30
0
11
-0.000422346107627639
21
0.142159098238324
31
0
210
0
220
0
230
1
40
0.984667
41
-1.04052955704748
42
1.38366215397156E-05
0
ELLIPSE
5
225
100
AcDbEntity
8
1
62
256
6
ByLayer
370
-1
48
1
60
0
100
AcDbEllipse
10
14.284443
20
-7.466793
30
0
11
-0.320085891111902
21
-0.0020449091482417
31
0
210
0
220
0
230
1
40
0.174338
41
-1.91120423011236
42
-1.40232089707551
0
ELLIPSE
5
226
100
AcDbEntity
8
1
62
256
6
ByLayer
370
-1
48
1
60
0
100
AcDbEllipse
10
13.383828
20
-9.543982
30
0
11
-0.196617142700669
21
0.265031506044517
31
0
210
0
220
0
230
1
40
0.341239
41
1.24446412044414
42
2.06674534277916
0
ELLIPSE
5
227
100
AcDbEntity
8
1
62
256
6
ByLayer
370
-1
48
1
60
0
100
AcDbEllipse
10
21.798826
20
-2.441513
30
0
11
-0.308527293925471
21
-0.177903571545001
31
0
210
0
220
0
230
1
40
0.143598
41
-1.79177572544566
42
-1.59684072421639
0
ELLIPSE
5
228
100
AcDbEntity
8
1
62
256
6
ByLayer
370
-1
48
1
60
0
100
AcDbEllipse
10
13.721017
20
-9.347812
30
0
11
-0.165947090950555
21
0.285239483601146
31
0
210
0
220
0
230
1
40
0.016637
41
1.26039991204624
42
2.14142123805556
0
ELLIPSE
5
229
100
AcDbEntity
8
1
62
256
6
ByLayer
370
-1
48
1
60
0
100
AcDbEllipse
10
24.151057
20
-2.227732
30
0
11
-0.192154317233819
21
0.0595777300031212
31
0
210
0
220
0
230
1
40
0.960584
41
-2.33004026970319
42
-1.28949687603132
0
ELLIPSE
5
22A
100
AcDbEntity
8
1
62
256
6
ByLayer
370
-1
48
1
60
0
100
AcDbEllipse
10
12.480403
20
-8.021205
30
0
11
-0.199027190663093
21
-0.0197022175593688
31
0
210
0
220
0
230
1
40
0.984662
41
-0.620766087096108
42
9.77236585127852E-07
0
ELLIPSE
5
22B
100
AcDbEntity
8
1
62
256
6
ByLayer
370
-1
48
1
60
0
100
AcDbEllipse
10
24.013704
20
-15.346459
30
0
11
-0.000603351602067666
21
0.203084426055007
31
0
210
0
220
0
230
1
40
0.984667
41
-3.1415788170637
42
-2.10103542339551
0
ELLIPSE
5
22C
100
AcDbEntity
8
1
62
256
6
ByLayer
370
-1
48
1
60
0
100
AcDbEllipse
10
23.661553
20
-8.548641
30
0
11
-0.144030684188854
21
0.0418946537411486
31
0
210
0
220
0
230
1
40
0.162256
41
1.6358379131811
42
1.81037083838053
0
ELLIPSE
5
22D
100
AcDbEntity
8
1
62
256
6
ByLayer
370
-1
48
1
60
0
100
AcDbEllipse
10
18.430315
20
-5.382119
30
0
11
0.149611540162878
21
0.0107882830001623
31
0
210
0
220
0
230
1
40
0.174411
41
-2.27172692594571
42
-1.56614073624734
0
ELLIPSE
5
22E
100
AcDbEntity
8
1
62
256
6
ByLayer
370
-1
48
1
60
0
100
AcDbEllipse
10
15.457501
20
-6.436805
30
0
11
0.248783988328867
21
0.0246277719492108
31
0
210
0
220
0
230
1
40
0.984662
41
1.9972277908954
42
2.52082656649368
0
ELLIPSE
5
22F
100
AcDbEntity
8
1
62
256
6
ByLayer
370
-1
48
1
60
0
100
AcDbEllipse
10
13.721017
20
-9.347812
30
0
11
0.329995395511928
21
0.00174325584072258
31
0
210
0
220
0
230
1
40
0.260533
41
0.85647890531428
42
1.73750023132366
0
ELLIPSE
5
230
100
AcDbEntity
8
1
62
256
6
ByLayer
370
-1
48
1
60
0
100
AcDbEllipse
10
23.9568
20
-14.719216
30
0
11
-0.285304929866103
21
-0.16583454704644
31
0
210
0
220
0
230
1
40
0.008485
41
-1.55614936114846
42
-1.20708351074988
0
ELLIPSE
5
231
100
AcDbEntity
8
1
62
256
6
ByLayer
370
-1
48
1
60
0
100
AcDbEllipse
10
20.700663
20
-3.127755
30
0
11
-0.152707630866056
21
-0.0889897064809647
31
0
210
0
220
0
230
1
40
0.134911
41
1.50917053216918
42
2.54415077860111
0
ELLIPSE
5
232
100
AcDbEntity
8
1
62
256
6
ByLayer
370
-1
48
1
60
0
100
AcDbEllipse
10
17.789563
20
-12.868817
30
0
11
-0.267099046651975
21
0.158301784494577
31
0
210
0
220
0
230
1
40
0.138657
41
-1.47532569595505
42
-0.781963418879308
0
ELLIPSE
5
233
100
AcDbEntity
8
1
62
256
6
ByLayer
370
-1
48
1
60
0
100
AcDbEllipse
10
22.857352
20
-2.755357
30
0
11
-0.837102468425974
21
0.479796040741421
31
0
210
0
220
0
230
1
40
0.327398
41
2.31333810642008
42
3.13561932875564
0
ELLIPSE
5
234
100
AcDbEntity
8
1
62
256
6
ByLayer
370
-1
48
1
60
0
100
AcDbEllipse
10
17.26411
20
-5.680242
30
0
11
-0.132236073363839
21
-0.0708069269303047
31
0
210
0
220
0
230
1
40
0.161535
41
1.50394059570727
42
2.21646517423385
0
ELLIPSE
5
235
100
AcDbEntity
8
1
62
256
6
ByLayer
370
-1
48
1
60
0
100
AcDbEllipse
10
23.83474
20
-13.920698
30
0
11
-0.830478379882853
21
0.491122290585962
31
0
210
0
220
0
230
1
40
0.342017
41
-3.13697527937248
42
-2.31469405703948
0
ELLIPSE
5
236
100
AcDbEntity
8
1
62
256
6
ByLayer
370
-1
48
1
60
0
100
AcDbEllipse
10
21.258979
20
-14.336777
30
0
11
-0.283031911620203
21
-0.000612742690086292
31
0
210
0
220
0
230
1
40
0.092039
41
1.57970606844568
42
2.61468631488317
0
ELLIPSE
5
237
100
AcDbEntity
8
1
62
256
6
ByLayer
370
-1
48
1
60
0
100
AcDbEllipse
10
12.548031
20
-8.704364
30
0
11
-0.182756206511079
21
-0.0833186578148705
31
0
210
0
220
0
230
1
40
0.958576
41
-0.937122012337465
42
0.103421381335895
0
ELLIPSE
5
238
100
AcDbEntity
8
1
62
256
6
ByLayer
370
-1
48
1
60
0
100
AcDbEllipse
10
13.719027
20
-8.971136
30
0
11
-0.0118881912270361
21
0.329785795493604
31
0
210
0
220
0
230
1
40
0.163668
41
0.956738698458428
42
1.30580454885732
0
ELLIPSE
5
239
100
AcDbEntity
8
1
62
256
6
ByLayer
370
-1
48
1
60
0
100
AcDbEllipse
10
13.383828
20
-9.543982
30
0
11
0.165947090950554
21
-0.285239483601146
31
0
210
0
220
0
230
1
40
0.016637
41
-1.88119274154372
42
-1.00017141553413
0
ELLIPSE
5
23A
100
AcDbEntity
8
1
62
256
6
ByLayer
370
-1
48
1
60
0
100
AcDbEllipse
10
16.994399
20
-3.742822
30
0
11
-0.715048513159094
21
2.45240612037498
31
0
210
0
220
0
230
1
40
0.176067
41
2.44609149617395
42
3.13453204107297
0
ELLIPSE
5
23B
100
AcDbEntity
8
1
62
256
6
ByLayer
370
-1
48
1
60
0
100
AcDbEllipse
10
24.04822
20
-3.112833
30
0
11
-0.134508022064436
21
0.0417044110010102
31
0
210
0
220
0
230
1
40
0.960584
41
-0.228991009792294
42
0.811552383877334
0
ELLIPSE
5
23C
100
AcDbEntity
8
1
62
256
6
ByLayer
370
-1
48
1
60
0
100
AcDbEllipse
10
21.949042
20
-3.420381
30
0
11
-2.29586717487857
21
-1.22290120631687
31
0
210
0
220
0
230
1
40
0.182032
41
2.84844605654783
42
-2.83331985432099
0
ELLIPSE
5
23D
100
AcDbEntity
8
1
62
256
6
ByLayer
370
-1
48
1
60
0
100
AcDbEllipse
10
18.699464
20
-13.348622
30
0
11
-0.129563385741391
21
0.0758096563455845
31
0
210
0
220
0
230
1
40
0.141815
41
0.96089209179513
42
1.67341667029912
0
ELLIPSE
5
23E
100
AcDbEntity
8
1
62
256
6
ByLayer
370
-1
48
1
60
0
100
AcDbEllipse
10
23.357801
20
-3.042501
30
0
11
0.225910690953892
21
-0.117321608038479
31
0
210
0
220
0
230
1
40
0.957172
41
-1.61459250743368
42
-1.30965524245268
0
ELLIPSE
5
23F
100
AcDbEntity
8
1
62
256
6
ByLayer
370
-1
48
1
60
0
100
AcDbEllipse
10
17.387021
20
-14.161916
30
0
11
-1.8018430240265
21
-1.84142902095841
31
0
210
0
220
0
230
1
40
0.173099
41
2.44981513716013
42
3.13825568205724
0
ELLIPSE
5
240
100
AcDbEntity
8
1
62
256
6
ByLayer
370
-1
48
1
60
0
100
AcDbEllipse
10
24.373866
20
-3.988286
30
0
11
-0.172938885509962
21
0.0536199570032058
31
0
210
0
220
0
230
1
40
0.960584
41
2.91260164380891
42
-2.33004026969855
0
ELLIPSE
5
241
100
AcDbEntity
8
1
62
256
6
ByLayer
370
-1
48
1
60
0
100
AcDbEllipse
10
26.176431
20
-9.161497
30
0
11
-2.48794859180389
21
0.577833479746073
31
0
210
0
220
0
230
1
40
0.115835
41
-0.00832421788706706
42
0.544011712235912
0
ELLIPSE
5
242
100
AcDbEntity
8
1
62
256
6
ByLayer
370
-1
48
1
60
0
100
AcDbEllipse
10
12.494566
20
-7.997002
30
0
11
-0.199027190663093
21
-0.0197022175593688
31
0
210
0
220
0
230
1
40
0.984662
41
-1.66130948076645
42
-0.620766087096108
0
ELLIPSE
5
243
100
AcDbEntity
8
1
62
256
6
ByLayer
370
-1
48
1
60
0
100
AcDbEllipse
10
20.520135
20
-14.118831
30
0
11
0.248783988328867
21
0.0246277719492108
31
0
210
0
220
0
230
1
40
0.984662
41
-2.19156241389097
42
-1.6679636382927
0
ELLIPSE
5
244
100
AcDbEntity
8
1
62
256
6
ByLayer
370
-1
48
1
60
0
100
AcDbEllipse
10
22.908479
20
-2.946619
30
0
11
-0.808215778182882
21
-0.497860414436383
31
0
210
0
220
0
230
1
40
0.499158
41
2.83032562058513
42
-2.85144029028507
0
ELLIPSE
5
245
100
AcDbEntity
8
1
62
256
6
ByLayer
370
-1
48
1
60
0
100
AcDbEllipse
10
19.187339
20
-12.295494
30
0
11
0.106954316998609
21
0.10517021477282
31
0
210
0
220
0
230
1
40
0.13667
41
-1.85502684753504
42
-1.6804939223356
0
ELLIPSE
5
246
100
AcDbEntity
8
1
62
256
6
ByLayer
370
-1
48
1
60
0
100
AcDbEllipse
10
23.835327
20
-7.951217
30
0
11
-0.144030684188854
21
0.0418946537411486
31
0
210
0
220
0
230
1
40
0.162256
41
1.63583791318105
42
1.8103708383805
0
ELLIPSE
5
247
100
AcDbEntity
8
1
62
256
6
ByLayer
370
-1
48
1
60
0
100
AcDbEllipse
10
16.949075
20
-13.716541
30
0
11
-1.80184302405832
21
-1.84142902099661
31
0
210
0
220
0
230
1
40
0.173099
41
-2.69559637826685
42
-2.45156734806798
0
ELLIPSE
5
248
100
AcDbEntity
8
1
62
256
6
ByLayer
370
-1
48
1
60
0
100
AcDbEllipse
10
16.946497
20
-13.690498
30
0
11
-1.78601174352296
21
-1.79756032736558
31
0
210
0
220
0
230
1
40
0.117311
41
3.13827486883056
42
-2.59257450822799
0
ELLIPSE
5
249
100
AcDbEntity
8
1
62
256
6
ByLayer
370
-1
48
1
60
0
100
AcDbEllipse
10
13.847385
20
-9.200087
30
0
11
-0.83362873859165
21
-0.485696724093087
31
0
210
0
220
0
230
1
40
0.325694
41
0.00262434550501608
42
0.824905567841786
0
ELLIPSE
5
24A
100
AcDbEntity
8
1
62
256
6
ByLayer
370
-1
48
1
60
0
100
AcDbEllipse
10
16.949075
20
-13.716541
30
0
11
-1.80184302400942
21
-1.84142902093912
31
0
210
0
220
0
230
1
40
0.173099
41
3.13825568205725
42
-2.69559637825999
0
ELLIPSE
5
24B
100
AcDbEntity
8
1
62
256
6
ByLayer
370
-1
48
1
60
0
100
AcDbEllipse
10
14.867737
20
-6.921842
30
0
11
-0.140910408027166
21
-0.24311375123212
31
0
210
0
220
0
230
1
40
0.05457
41
0.460158572374936
42
1.49513881880197
0
ELLIPSE
5
24C
100
AcDbEntity
8
1
62
256
6
ByLayer
370
-1
48
1
60
0
100
AcDbEllipse
10
21.822495
20
-2.813755
30
0
11
-0.132407128075035
21
-0.291321733543725
31
0
210
0
220
0
230
1
40
0.160769
41
-1.77205237584621
42
-0.689286790017197
0
ELLIPSE
5
24D
100
AcDbEntity
8
1
62
256
6
ByLayer
370
-1
48
1
60
0
100
AcDbEllipse
10
23.017897
20
-3.028765
30
0
11
-0.00335270464617015
21
-0.931737718908637
31
0
210
0
220
0
230
1
40
0.351081
41
3.13235786887143
42
-2.32854621597295
0
ELLIPSE
5
24E
100
AcDbEntity
8
1
62
256
6
ByLayer
370
-1
48
1
60
0
100
AcDbEllipse
10
23.022602
20
-2.471656
30
0
11
0.225910690953892
21
-0.117321608038479
31
0
210
0
220
0
230
1
40
0.957172
41
-2.99344383251985
42
-2.68850656753885
0
ELLIPSE
5
24F
100
AcDbEntity
8
1
62
256
6
ByLayer
370
-1
48
1
60
0
100
AcDbEllipse
10
22.331381
20
-14.63013
30
0
11
-0.000543016421533902
21
0.18277598344951
31
0
210
0
220
0
230
1
40
0.984667
41
2.10106309655684
42
-3.14157881695439
0
ELLIPSE
5
250
100
AcDbEntity
8
1
62
256
6
ByLayer
370
-1
48
1
60
0
100
AcDbEllipse
10
22.991399
20
-2.902305
30
0
11
0.329988233375588
21
-0.0027867245394527
31
0
210
0
220
0
230
1
40
0.260309
41
1.43915566762722
42
2.3201769936366
0
ELLIPSE
5
251
100
AcDbEntity
8
1
62
256
6
ByLayer
370
-1
48
1
60
0
100
AcDbEllipse
10
16.991821
20
-3.716778
30
0
11
-0.710106144397882
21
2.45352120079704
31
0
210
0
220
0
230
1
40
0.117393
41
2.44665728178609
42
3.13509782668615
0
ELLIPSE
5
252
100
AcDbEntity
8
1
62
256
6
ByLayer
370
-1
48
1
60
0
100
AcDbEllipse
10
13.719027
20
-8.971136
30
0
11
-0.329995395511928
21
-0.00174325584072243
31
0
210
0
220
0
230
1
40
0.260533
41
-2.28511374827551
42
-1.40409242226613
0
ELLIPSE
5
253
100
AcDbEntity
8
1
62
256
6
ByLayer
370
-1
48
1
60
0
100
AcDbEllipse
10
23.329779
20
-3.096458
30
0
11
0.164231671069877
21
0.28623060321635
31
0
210
0
220
0
230
1
40
0.012676
41
1.27733562267108
42
2.15835694867946
0
ELLIPSE
5
254
100
AcDbEntity
8
1
62
256
6
ByLayer
370
-1
48
1
60
0
100
AcDbEllipse
10
13.691663
20
-8.12369
30
0
11
-0.164480585863713
21
-0.0749867920281156
31
0
210
0
220
0
230
1
40
0.958576
41
-0.937122012300382
42
0.0155976646209356
0
ELLIPSE
5
255
100
AcDbEntity
8
1
62
256
6
ByLayer
370
-1
48
1
60
0
100
AcDbEllipse
10
25.003953
20
-7.838047
30
0
11
-0.000447417580032175
21
0.15010963958619
31
0
210
0
220
0
230
1
40
0.016914
41
-2.45774943120436
42
-1.74522485220742
0
ELLIPSE
5
256
100
AcDbEntity
8
1
62
256
6
ByLayer
370
-1
48
1
60
0
100
AcDbEllipse
10
22.99458
20
-2.525613
30
0
11
-0.329988233375588
21
0.00278672453945266
31
0
210
0
220
0
230
1
40
0.260309
41
-1.70243698596256
42
-0.821415659953182
0
ELLIPSE
5
257
100
AcDbEntity
8
1
62
256
6
ByLayer
370
-1
48
1
60
0
100
AcDbEllipse
10
18.133231
20
-12.071792
30
0
11
-0.083396644765514
21
0.124679587911794
31
0
210
0
220
0
230
1
40
0.083235
41
1.72528040972736
42
2.43086659942564
0
ELLIPSE
5
258
100
AcDbEntity
8
1
62
256
6
ByLayer
370
-1
48
1
60
0
100
AcDbEllipse
10
20.227417
20
-8.656684
30
0
11
-2.99532017044197
21
-0.29651450870304
31
0
210
0
220
0
230
1
40
0.984662
41
-0.378634339733028
42
0
0
ELLIPSE
5
259
100
AcDbEntity
8
1
62
256
6
ByLayer
370
-1
48
1
60
0
100
AcDbEllipse
10
20.227417
20
-8.656684
30
0
11
-2.99532017044197
21
-0.29651450870304
31
0
210
0
220
0
230
1
40
0.984662
41
0
42
1.47362904330712
0
ELLIPSE
5
25A
100
AcDbEntity
8
1
62
256
6
ByLayer
370
-1
48
1
60
0
100
AcDbEllipse
10
20.227417
20
-8.656684
30
0
11
-2.99532017044197
21
-0.29651450870304
31
0
210
0
220
0
230
1
40
0.984662
41
1.47362901269947
42
-2.76300496008912
0
ELLIPSE
5
25B
100
AcDbEntity
8
1
62
256
6
ByLayer
370
-1
48
1
60
0
100
AcDbEllipse
10
22.99458
20
-2.525613
30
0
11
0.0098644958237021
21
0.329852530264881
31
0
210
0
220
0
230
1
40
0.130201
41
-1.30693253085106
42
-0.957866680452172
0
ELLIPSE
5
25C
100
AcDbEntity
8
1
62
256
6
ByLayer
370
-1
48
1
60
0
100
AcDbEllipse
10
24.653908
20
-13.048204
30
0
11
-0.176751670220205
21
0.266756156581939
31
0
210
0
220
0
230
1
40
0.154918
41
-1.46487428237414
42
-0.382108696545108
0
ELLIPSE
5
25D
100
AcDbEntity
8
1
62
256
6
ByLayer
370
-1
48
1
60
0
100
AcDbEllipse
10
17.023053
20
-5.230054
30
0
11
-0.129447670200626
21
-0.0760082363461455
31
0
210
0
220
0
230
1
40
0.158728
41
1.49769557650205
42
2.21022015496646
0
ELLIPSE
5
25E
100
AcDbEntity
8
1
62
256
6
ByLayer
370
-1
48
1
60
0
100
AcDbEllipse
10
23.991837
20
-12.76497
30
0
11
-0.0080012417624245
21
2.68088705166412
31
0
210
0
220
0
230
1
40
0.179019
41
2.84088303452178
42
-2.84088287634665
0
ELLIPSE
5
25F
100
AcDbEntity
8
1
62
256
6
ByLayer
370
-1
48
1
60
0
100
AcDbEllipse
10
24.486962
20
-7.819757
30
0
11
0.00530342657157402
21
0.149906216237353
31
0
210
0
220
0
230
1
40
0.023672
41
-2.45710055365918
42
-1.74457597513361
0
ELLIPSE
5
260
100
AcDbEntity
8
1
62
256
6
ByLayer
370
-1
48
1
60
0
100
AcDbEllipse
10
24.334919
20
-14.214372
30
0
11
-0.167084440122754
21
-0.284574752690512
31
0
210
0
220
0
230
1
40
0.328265
41
1.56622175111537
42
2.38850297345036
0
ELLIPSE
5
261
100
AcDbEntity
8
1
62
256
6
ByLayer
370
-1
48
1
60
0
100
AcDbEllipse
10
17.606119
20
-3.590772
30
0
11
-0.715048513166633
21
2.45240612040188
31
0
210
0
220
0
230
1
40
0.176067
41
3.134532041073
42
-2.69932001924784
0
ELLIPSE
5
262
100
AcDbEntity
8
1
62
256
6
ByLayer
370
-1
48
1
60
0
100
AcDbEllipse
10
13.348493
20
-9.954798
30
0
11
-0.22844525813517
21
-0.104148322301757
31
0
210
0
220
0
230
1
40
0.958576
41
0.103421381212964
42
0.63367431432721
0
ELLIPSE
5
263
100
AcDbEntity
8
1
62
256
6
ByLayer
370
-1
48
1
60
0
100
AcDbEllipse
10
20.223095
20
-8.613019
30
0
11
-2.90683965172194
21
-0.287755592779141
31
0
210
0
220
0
230
1
40
0.984662
41
-0.769370102186322
42
0
0
ELLIPSE
5
264
100
AcDbEntity
8
1
62
256
6
ByLayer
370
-1
48
1
60
0
100
AcDbEllipse
10
20.223095
20
-8.613019
30
0
11
-2.90683965172194
21
-0.287755592779141
31
0
210
0
220
0
230
1
40
0.984662
41
0
42
1.15456090089942
0
ELLIPSE
5
265
100
AcDbEntity
8
1
62
256
6
ByLayer
370
-1
48
1
60
0
100
AcDbEllipse
10
20.223095
20
-8.613019
30
0
11
-2.90683965172194
21
-0.287755592779141
31
0
210
0
220
0
230
1
40
0.984662
41
2.03607226832189
42
-2.37217112616082
0
ELLIPSE
5
266
100
AcDbEntity
8
1
62
256
6
ByLayer
370
-1
48
1
60
0
100
AcDbEllipse
10
25.003953
20
-9.363224
30
0
11
-0.000403788250569817
21
0.166320387740656
31
0
210
0
220
0
230
1
40
0.01531
41
-1.72806615674685
42
-1.02247996713621
0
ELLIPSE
5
267
100
AcDbEntity
8
1
62
256
6
ByLayer
370
-1
48
1
60
0
100
AcDbEllipse
10
23.664521
20
-14.216373
30
0
11
-0.17056445454547
21
0.282502684669733
31
0
210
0
220
0
230
1
40
0.355599
41
0.73465942279139
42
1.55694064512636
0
ELLIPSE
5
268
100
AcDbEntity
8
1
62
256
6
ByLayer
370
-1
48
1
60
0
100
AcDbEllipse
10
23.998968
20
-2.799927
30
0
11
-0.179124471596784
21
-0.0177319958034319
31
0
210
0
220
0
230
1
40
0.984662
41
-2.71516118948929
42
-2.55608947285494
0
ELLIPSE
5
269
100
AcDbEntity
8
1
62
256
6
ByLayer
370
-1
48
1
60
0
100
AcDbEllipse
10
17.703803
20
-6.170012
30
0
11
0.0361832136698721
21
-0.145570515725268
31
0
210
0
220
0
230
1
40
0.025586
41
-1.57181851514538
42
-1.39728558994603
0
ELLIPSE
5
26A
100
AcDbEntity
8
1
62
256
6
ByLayer
370
-1
48
1
60
0
100
AcDbEllipse
10
14.001086
20
-7.594894
30
0
11
-0.164480585863314
21
-0.0749867920288618
31
0
210
0
220
0
230
1
40
0.958576
41
-1.97766540597506
42
-0.937122012306138
0
ELLIPSE
5
26B
100
AcDbEntity
8
1
62
256
6
ByLayer
370
-1
48
1
60
0
100
AcDbEllipse
10
13.383828
20
-9.543982
30
0
11
-0.283786516974516
21
-0.1684197517617
31
0
210
0
220
0
230
1
40
0.305589
41
-1.55760914820953
42
-1.20854329781066
0
ELLIPSE
5
26C
100
AcDbEntity
8
1
62
256
6
ByLayer
370
-1
48
1
60
0
100
AcDbEllipse
10
17.606119
20
-3.590772
30
0
11
-0.715048512879491
21
2.45240611968138
31
0
210
0
220
0
230
1
40
0.176067
41
-2.69932001918442
42
-2.45529098894059
0
ELLIPSE
5
26D
100
AcDbEntity
8
1
62
256
6
ByLayer
370
-1
48
1
60
0
100
AcDbEllipse
10
26.350206
20
-8.564072
30
0
11
-2.48794859180495
21
0.577833479745953
31
0
210
0
220
0
230
1
40
0.115835
41
-0.696764762784595
42
-0.00832421788704577
0
ELLIPSE
5
26E
100
AcDbEntity
8
1
62
256
6
ByLayer
370
-1
48
1
60
0
100
AcDbEllipse
10
23.664521
20
-14.216373
30
0
11
0.169666257141379
21
-0.28304303769504
31
0
210
0
220
0
230
1
40
0.014531
41
-2.46049855045713
42
-1.57947722444707
0
ELLIPSE
5
26F
100
AcDbEntity
8
1
62
256
6
ByLayer
370
-1
48
1
60
0
100
AcDbEllipse
10
13.101182
20
-9.067725
30
0
11
-0.283786516974516
21
-0.1684197517617
31
0
210
0
220
0
230
1
40
0.305589
41
-1.55760914820953
42
-1.20854329781066
0
ELLIPSE
5
270
100
AcDbEntity
8
1
62
256
6
ByLayer
370
-1
48
1
60
0
100
AcDbEllipse
10
13.323639
20
-7.654251
30
0
11
0.139319033464165
21
0.013791552291558
31
0
210
0
220
0
230
1
40
0.984662
41
-1.66130948076642
42
-0.620766087096093
0
ELLIPSE
5
271
100
AcDbEntity
8
1
62
256
6
ByLayer
370
-1
48
1
60
0
100
AcDbEllipse
10
17.603541
20
-3.564728
30
0
11
-0.710106145799221
21
2.45352120465747
31
0
210
0
220
0
230
1
40
0.117393
41
-2.59575155076999
42
-2.45472520396597
0
ELLIPSE
5
272
100
AcDbEntity
8
1
62
256
6
ByLayer
370
-1
48
1
60
0
100
AcDbEllipse
10
23.985379
20
-15.346543
30
0
11
-0.000603351587181039
21
0.203084426054447
31
0
210
0
220
0
230
1
40
0.984667
41
2.10106309651796
42
-3.14157881699169
0
ELLIPSE
5
273
100
AcDbEntity
8
1
62
256
6
ByLayer
370
-1
48
1
60
0
100
AcDbEllipse
10
23.329779
20
-3.096458
30
0
11
0.283264944422895
21
-0.169295514592367
31
0
210
0
220
0
230
1
40
0.289048
41
1.239007169944
42
1.58807302034287
0
ELLIPSE
5
274
100
AcDbEntity
8
1
62
256
6
ByLayer
370
-1
48
1
60
0
100
AcDbEllipse
10
18.352461
20
-13.192409
30
0
11
-0.267099046648911
21
0.158301784494526
31
0
210
0
220
0
230
1
40
0.138657
41
-2.1637662408367
42
-1.47532569591736
0
ELLIPSE
5
275
100
AcDbEntity
8
1
62
256
6
ByLayer
370
-1
48
1
60
0
100
AcDbEllipse
10
24.16522
20
-2.251851
30
0
11
-0.192154317236299
21
0.0595777299990189
31
0
210
0
220
0
230
1
40
0.960584
41
2.91260164378483
42
-2.33004026972679
0
ELLIPSE
5
276
100
AcDbEntity
8
1
62
256
6
ByLayer
370
-1
48
1
60
0
100
AcDbEllipse
10
18.975398
20
-12.916724
30
0
11
0.12640447529284
21
-0.0807583347150108
31
0
210
0
220
0
230
1
40
0.137863
41
-2.17514992192417
42
-1.46262534339755
0
ELLIPSE
5
277
100
AcDbEntity
8
1
62
256
6
ByLayer
370
-1
48
1
60
0
100
AcDbEllipse
10
24.653908
20
-13.048204
30
0
11
-0.143145469478479
21
-0.286198138651854
31
0
210
0
220
0
230
1
40
0.015127
41
-1.75813705875662
42
-1.56320205818124
0
ELLIPSE
5
278
100
AcDbEntity
8
1
62
256
6
ByLayer
370
-1
48
1
60
0
100
AcDbEllipse
10
26.352784
20
-8.590116
30
0
11
-2.51576837466052
21
0.609516693627298
31
0
210
0
220
0
230
1
40
0.171469
41
-0.696224289190617
42
-0.00778374429423479
0
ELLIPSE
5
279
100
AcDbEntity
8
1
62
256
6
ByLayer
370
-1
48
1
60
0
100
AcDbEllipse
10
13.683897
20
-8.917368
30
0
11
0.213104820120463
21
0.139234821942732
31
0
210
0
220
0
230
1
40
0.952081
41
-0.55130526792196
42
-0.246368002940956
0
ELLIPSE
5
27A
100
AcDbEntity
8
1
62
256
6
ByLayer
370
-1
48
1
60
0
100
AcDbEllipse
10
23.615432
20
-2.618504
30
0
11
0.283264944422895
21
-0.169295514592367
31
0
210
0
220
0
230
1
40
0.289048
41
1.23900716994398
42
1.58807302034285
0
ELLIPSE
5
27B
100
AcDbEntity
8
1
62
256
6
ByLayer
370
-1
48
1
60
0
100
AcDbEllipse
10
16.946497
20
-13.690498
30
0
11
-1.7860117534934
21
-1.79756033884451
31
0
210
0
220
0
230
1
40
0.117311
41
-2.59257450973864
42
-2.45154816330576
0
ELLIPSE
5
27C
100
AcDbEntity
8
1
62
256
6
ByLayer
370
-1
48
1
60
0
100
AcDbEllipse
10
25.008156
20
-8.27994
30
0
11
-0.000679640551757689
21
0.306791687158391
31
0
210
0
220
0
230
1
40
0.016938
41
0.702997576028385
42
1.39143812108043
0
ELLIPSE
5
27D
100
AcDbEntity
8
1
62
256
6
ByLayer
370
-1
48
1
60
0
100
AcDbEllipse
10
24.745327
20
-13.969376
30
0
11
-0.000754189548735067
21
0.253855532572898
31
0
210
0
220
0
230
1
40
0.984667
41
-2.1010354235692
42
-1.57078249045539
0
ELLIPSE
5
27E
100
AcDbEntity
8
1
62
256
6
ByLayer
370
-1
48
1
60
0
100
AcDbEllipse
10
24.15583
20
-13.91974
30
0
11
-0.827532009965005
21
-0.496071482936284
31
0
210
0
220
0
230
1
40
0.342016
41
-0.82689875441046
42
-0.00461753207791869
0
ELLIPSE
5
27F
100
AcDbEntity
8
1
62
256
6
ByLayer
370
-1
48
1
60
0
100
AcDbEllipse
10
23.664521
20
-14.216373
30
0
11
-0.285304929866103
21
-0.16583454704644
31
0
210
0
220
0
230
1
40
0.008485
41
-1.55614936114845
42
-1.20708351074984
0
ELLIPSE
5
280
100
AcDbEntity
8
1
62
256
6
ByLayer
370
-1
48
1
60
0
100
AcDbEllipse
10
23.329779
20
-3.096458
30
0
11
-0.193176188500919
21
-0.267549920942349
31
0
210
0
220
0
230
1
40
0.315435
41
1.05367964949649
42
1.87596087183148
0
ELLIPSE
5
281
100
AcDbEntity
8
1
62
256
6
ByLayer
370
-1
48
1
60
0
100
AcDbEllipse
10
13.626188
20
-7.46228
30
0
11
-0.179124471596784
21
-0.0177319958034319
31
0
210
0
220
0
230
1
40
0.984662
41
-0.620766087096113
42
-1.19995758545246E-05
0
ELLIPSE
5
282
100
AcDbEntity
8
1
62
256
6
ByLayer
370
-1
48
1
60
0
100
AcDbEllipse
10
22.952513
20
-2.861829
30
0
11
-0.717458492154626
21
-0.382156626976719
31
0
210
0
220
0
230
1
40
0.182032
41
2.84844605654887
42
-2.83331985432205
0
ELLIPSE
5
283
100
AcDbEntity
8
1
62
256
6
ByLayer
370
-1
48
1
60
0
100
AcDbEllipse
10
21.760462
20
-14.49137
30
0
11
-0.238311883192893
21
-0.0886581204276301
31
0
210
0
220
0
230
1
40
0.697513
41
-2.17175058760327
42
-1.84961823763376
0
ELLIPSE
5
284
100
AcDbEntity
8
1
62
256
6
ByLayer
370
-1
48
1
60
0
100
AcDbEllipse
10
14.323876
20
-6.506303
30
0
11
0.248783988328866
21
0.0246277719492107
31
0
210
0
220
0
230
1
40
0.984662
41
-1.66130948076643
42
-0.620766087096106
0
ELLIPSE
5
285
100
AcDbEntity
8
1
62
256
6
ByLayer
370
-1
48
1
60
0
100
AcDbEllipse
10
24.998474
20
-12.819896
30
0
11
-0.000531706301041107
21
0.383501674005038
31
0
210
0
220
0
230
1
40
0.014329
41
0.391574368397134
42
1.47433995415891
0
ELLIPSE
5
286
100
AcDbEntity
8
1
62
256
6
ByLayer
370
-1
48
1
60
0
100
AcDbEllipse
10
24.331371
20
-14.214387
30
0
11
1.55866942272948E-17
21
0.254558441227156
31
0
210
0
220
0
230
1
40
0.999857
41
-0.838909548964178
42
-0.533972158064268
0
ELLIPSE
5
287
100
AcDbEntity
8
1
62
256
6
ByLayer
370
-1
48
1
60
0
100
AcDbEllipse
10
26.179009
20
-9.18754
30
0
11
-2.51576837468373
21
0.60951669363166
31
0
210
0
220
0
230
1
40
0.171469
41
-0.00778374429426793
42
0.441549502563263
0
ELLIPSE
5
288
100
AcDbEntity
8
1
62
256
6
ByLayer
370
-1
48
1
60
0
100
AcDbEllipse
10
24.308391
20
-3.326876
30
0
11
-0.179124471596784
21
-0.0177319958034319
31
0
210
0
220
0
230
1
40
0.984662
41
3.14157948388694
42
-2.7151611894893
0
ELLIPSE
5
289
100
AcDbEntity
8
1
62
256
6
ByLayer
370
-1
48
1
60
0
100
AcDbEllipse
10
13.748154
20
-9.30714
30
0
11
-0.712466639484716
21
0.377871752144027
31
0
210
0
220
0
230
1
40
0.183958
41
-0.308399372817458
42
0.293020023494017
0
ELLIPSE
5
28A
100
AcDbEntity
8
1
62
256
6
ByLayer
370
-1
48
1
60
0
100
AcDbEllipse
10
23.019421
20
-2.848347
30
0
11
0.225910690953892
21
-0.117321608038479
31
0
210
0
220
0
230
1
40
0.957172
41
-2.68850656753884
42
-1.61459250743365
0
ELLIPSE
5
28B
100
AcDbEntity
8
1
62
256
6
ByLayer
370
-1
48
1
60
0
100
AcDbEllipse
10
23.571009
20
-2.542852
30
0
11
0.0098644958237021
21
0.329852530264881
31
0
210
0
220
0
230
1
40
0.130201
41
-1.30693253085104
42
-0.95786668045211
0
ELLIPSE
5
28C
100
AcDbEntity
8
1
62
256
6
ByLayer
370
-1
48
1
60
0
100
AcDbEllipse
10
23.998835
20
-13.9189
30
0
11
-0.00502369679846721
21
-0.896866915209716
31
0
210
0
220
0
230
1
40
0.535097
41
-0.29611510645846
42
0.305304289850745
0
ELLIPSE
5
28D
100
AcDbEntity
8
1
62
256
6
ByLayer
370
-1
48
1
60
0
100
AcDbEllipse
10
24.07023
20
-3.150318
30
0
11
-0.134508022063006
21
0.0417044110033999
31
0
210
0
220
0
230
1
40
0.960584
41
0.811552383895051
42
1.7642720608206
0
ELLIPSE
5
28E
100
AcDbEntity
8
1
62
256
6
ByLayer
370
-1
48
1
60
0
100
AcDbEllipse
10
26.179009
20
-9.18754
30
0
11
-2.51576837416573
21
0.609516693554623
31
0
210
0
220
0
230
1
40
0.171469
41
0.44154950260579
42
0.685578532834339
0
ELLIPSE
5
28F
100
AcDbEntity
8
1
62
256
6
ByLayer
370
-1
48
1
60
0
100
AcDbEllipse
10
21.822495
20
-2.813755
30
0
11
0.16528437023268
21
0.274009264363062
31
0
210
0
220
0
230
1
40
0.019277
41
1.27768491381988
42
2.46282953896422
0
ELLIPSE
5
290
100
AcDbEntity
8
1
62
256
6
ByLayer
370
-1
48
1
60
0
100
AcDbEllipse
10
14.232077
20
-10.373042
30
0
11
-0.319948065602383
21
0.00576500800463161
31
0
210
0
220
0
230
1
40
0.256807
41
-2.58320995413322
42
-1.39806532898907
0
ELLIPSE
5
291
100
AcDbEntity
8
1
62
256
6
ByLayer
370
-1
48
1
60
0
100
AcDbEllipse
10
13.719027
20
-8.971136
30
0
11
0.329327263846307
21
-0.021060704819759
31
0
210
0
220
0
230
1
40
0.570429
41
0.940253101468671
42
1.76253432380364
0
ELLIPSE
5
292
100
AcDbEntity
8
1
62
256
6
ByLayer
370
-1
48
1
60
0
100
AcDbEllipse
10
22.991399
20
-2.902305
30
0
11
-0.164231671069877
21
-0.28623060321635
31
0
210
0
220
0
230
1
40
0.012676
41
-1.86425703091925
42
-0.983235704909389
0
ELLIPSE
5
293
100
AcDbEntity
8
1
62
256
6
ByLayer
370
-1
48
1
60
0
100
AcDbEllipse
10
22.039929
20
-14.535058
30
0
11
-0.16065879586876
21
0.276760933572361
31
0
210
0
220
0
230
1
40
0.073503
41
-1.56309533877354
42
-1.05421200570179
0
ELLIPSE
5
294
100
AcDbEntity
8
1
62
256
6
ByLayer
370
-1
48
1
60
0
100
AcDbEllipse
10
13.411625
20
-8.283099
30
0
11
-0.127929344556632
21
-0.0583230604723095
31
0
210
0
220
0
230
1
40
0.958576
41
2.20447064123655
42
-3.12599498901708
0
ELLIPSE
5
295
100
AcDbEntity
8
1
62
256
6
ByLayer
370
-1
48
1
60
0
100
AcDbEllipse
10
25.003953
20
-12.02069
30
0
11
-0.000381298910169031
21
0.176125739433313
31
0
210
0
220
0
230
1
40
0.014477
41
-2.75422024574181
42
-1.71923999943446
0
ELLIPSE
5
296
100
AcDbEntity
8
1
62
256
6
ByLayer
370
-1
48
1
60
0
100
AcDbEllipse
10
18.315523
20
-6.017962
30
0
11
0.0361832136698721
21
-0.145570515725268
31
0
210
0
220
0
230
1
40
0.025586
41
-1.57181851514535
42
-1.39728558994594
0
ELLIPSE
5
297
100
AcDbEntity
8
1
62
256
6
ByLayer
370
-1
48
1
60
0
100
AcDbEllipse
10
21.446555
20
-2.642888
30
0
11
-0.334812745676204
21
-0.197865831522407
31
0
210
0
220
0
230
1
40
0.130762
41
-1.6808276084216
42
-0.598062022587148
0
ELLIPSE
5
298
100
AcDbEntity
8
1
62
256
6
ByLayer
370
-1
48
1
60
0
100
AcDbEllipse
10
23.995576
20
-14.015815
30
0
11
1.55866942272948E-17
21
0.254558441227156
31
0
210
0
220
0
230
1
40
0.999857
41
-0.533972158064256
42
0.539941900357871
0
ELLIPSE
5
299
100
AcDbEntity
8
1
62
256
6
ByLayer
370
-1
48
1
60
0
100
AcDbEllipse
10
24.334919
20
-14.214372
30
0
11
0.167973549938388
21
0.284050851998539
31
0
210
0
220
0
230
1
40
0.014557
41
0.698412484395714
42
1.57943381040578
0
ELLIPSE
5
29A
100
AcDbEntity
8
1
62
256
6
ByLayer
370
-1
48
1
60
0
100
AcDbEllipse
10
23.660973
20
-14.216389
30
0
11
1.55866942272948E-17
21
0.254558441227156
31
0
210
0
220
0
230
1
40
0.999857
41
0.539941900357852
42
0.84487903920071
0
ELLIPSE
5
29B
100
AcDbEntity
8
1
62
256
6
ByLayer
370
-1
48
1
60
0
100
AcDbEllipse
10
13.145605
20
-8.991807
30
0
11
-0.0118881912270361
21
0.329785795493604
31
0
210
0
220
0
230
1
40
0.163668
41
0.956738698458469
42
1.30580454885731
0
ELLIPSE
5
29C
100
AcDbEntity
8
1
62
256
6
ByLayer
370
-1
48
1
60
0
100
AcDbEllipse
10
23.999125
20
-14.0158
30
0
11
-0.169666257141379
21
0.28304303769504
31
0
210
0
220
0
230
1
40
0.014531
41
0.681094103132669
42
1.56211542914272
0
ELLIPSE
5
29D
100
AcDbEntity
8
1
62
256
6
ByLayer
370
-1
48
1
60
0
100
AcDbEllipse
10
24.681803
20
-5.183959
30
0
11
0.248783988328867
21
0.0246277719492108
31
0
210
0
220
0
230
1
40
0.984662
41
-8.00485568970811E-08
42
0.426431464100485
0
ELLIPSE
5
29E
100
AcDbEntity
8
1
62
256
6
ByLayer
370
-1
48
1
60
0
100
AcDbEllipse
10
18.937698
20
-9.298294
30
0
11
-0.198269006353325
21
0.334749163352868
31
0
210
0
220
0
230
1
40
0.494774
41
-2.31554829324742
42
-1.5783285967109
0
ELLIPSE
5
29F
100
AcDbEntity
8
1
62
256
6
ByLayer
370
-1
48
1
60
0
100
AcDbEllipse
10
20.222051
20
-10.024524
30
0
11
-0.394030905813695
21
-0.00166011276178716
31
0
210
0
220
0
230
1
40
0.48236
41
-2.98310204405627
42
-1.57282858259675
0
ELLIPSE
5
2A0
100
AcDbEntity
8
1
62
256
6
ByLayer
370
-1
48
1
60
0
100
AcDbEllipse
10
20.251368
20
-8.837207
30
0
11
1.66684752564193
21
0.178707264153879
31
0
210
0
220
0
230
1
40
0.984637
41
0.942021465597196
42
1.9892190167938
0
ELLIPSE
5
2A1
100
AcDbEntity
8
1
62
256
6
ByLayer
370
-1
48
1
60
0
100
AcDbEllipse
10
20.251368
20
-8.837207
30
0
11
1.66684752564193
21
0.178707264153879
31
0
210
0
220
0
230
1
40
0.984637
41
-2.19957118799259
42
-1.152373636796
0
ELLIPSE
5
2A2
100
AcDbEntity
8
1
62
256
6
ByLayer
370
-1
48
1
60
0
100
AcDbEllipse
10
20.251368
20
-8.837207
30
0
11
-1.78974322724617
21
-0.191883247122992
31
0
210
0
220
0
230
1
40
0.984637
41
0
42
6.28318530717959
0
ELLIPSE
5
2A3
100
AcDbEntity
8
1
62
256
6
ByLayer
370
-1
48
1
60
0
100
AcDbEllipse
10
18.738908
20
-8.568554
30
0
11
-0.000412013910120327
21
-0.388113182761357
31
0
210
0
220
0
230
1
40
0.49719
41
-0.786537862831975
42
0.059280268364097
0
ELLIPSE
5
2A4
100
AcDbEntity
8
1
62
256
6
ByLayer
370
-1
48
1
60
0
100
AcDbEllipse
10
20.222051
20
-8.563759
30
0
11
-1.28294760339763
21
-0.137548307645998
31
0
210
0
220
0
230
1
40
0.984637
41
2.51281779239212
42
-3.03435118588103
0
ELLIPSE
5
2A5
100
AcDbEntity
8
1
62
256
6
ByLayer
370
-1
48
1
60
0
100
AcDbEllipse
10
20.22717
20
-8.611504
30
0
11
-2.70947238569212
21
-0.290489915783418
31
0
210
0
220
0
230
1
40
0.984637
41
-3.14152530769358
42
0
0
ELLIPSE
5
2A6
100
AcDbEntity
8
1
62
256
6
ByLayer
370
-1
48
1
60
0
100
AcDbEllipse
10
21.506404
20
-7.829224
30
0
11
-0.198269006353832
21
0.334749163353159
31
0
210
0
220
0
230
1
40
0.494774
41
0.152990595418169
42
0.826042228554429
0
ELLIPSE
5
2A7
100
AcDbEntity
8
1
62
256
6
ByLayer
370
-1
48
1
60
0
100
AcDbEllipse
10
19.48048
20
-9.831301
30
0
11
-0.342134594454296
21
0.191392218429861
31
0
210
0
220
0
230
1
40
0.487307
41
0.903795301551858
42
-3.09386107380847
0
ELLIPSE
5
2A8
100
AcDbEntity
8
1
62
256
6
ByLayer
370
-1
48
1
60
0
100
AcDbEllipse
10
18.937698
20
-9.298294
30
0
11
-0.198269006353563
21
0.334749163353193
31
0
210
0
220
0
230
1
40
0.494774
41
-1.57832859671113
42
-0.168055135251772
0
ELLIPSE
5
2A9
100
AcDbEntity
8
1
62
256
6
ByLayer
370
-1
48
1
60
0
100
AcDbEllipse
10
20.963623
20
-9.826507
30
0
11
-0.341934994911018
21
-0.193958055348331
31
0
210
0
220
0
230
1
40
0.48462
41
-0.049863339077693
42
2.50463066339562
0
ELLIPSE
5
2AA
100
AcDbEntity
8
1
62
256
6
ByLayer
370
-1
48
1
60
0
100
AcDbEllipse
10
20.222051
20
-8.563759
30
0
11
-1.28294760339763
21
-0.137548307645998
31
0
210
0
220
0
230
1
40
0.984637
41
-1.3736593793245
42
-0.776838445829533
0
ELLIPSE
5
2AB
100
AcDbEntity
8
1
62
256
6
ByLayer
370
-1
48
1
60
0
100
AcDbEllipse
10
20.222051
20
-8.563759
30
0
11
-1.28294760339763
21
-0.137548307645998
31
0
210
0
220
0
230
1
40
0.984637
41
-0.268604301886431
42
0.418422689998906
0
ELLIPSE
5
2AC
100
AcDbEntity
8
1
62
256
6
ByLayer
370
-1
48
1
60
0
100
AcDbEllipse
10
21.506404
20
-9.289989
30
0
11
-0.198604627908439
21
-0.3358335685887
31
0
210
0
220
0
230
1
40
0.491978
41
-2.97150866182879
42
-1.56123520036968
0
ELLIPSE
5
2AD
100
AcDbEntity
8
1
62
256
6
ByLayer
370
-1
48
1
60
0
100
AcDbEllipse
10
20.222051
20
-8.563759
30
0
11
1.28294760339763
21
0.137548307645998
31
0
210
0
220
0
230
1
40
0.984637
41
-2.72316996359088
42
-1.6759724123943
0
ELLIPSE
5
2AE
100
AcDbEntity
8
1
62
256
6
ByLayer
370
-1
48
1
60
0
100
AcDbEllipse
10
20.251368
20
-8.837207
30
0
11
1.66684752564193
21
0.178707264153879
31
0
210
0
220
0
230
1
40
0.984637
41
1.9892190167938
42
3.03641656799039
0
ELLIPSE
5
2AF
100
AcDbEntity
8
1
62
256
6
ByLayer
370
-1
48
1
60
0
100
AcDbEllipse
10
20.251368
20
-8.837207
30
0
11
1.66684752564193
21
0.178707264153879
31
0
210
0
220
0
230
1
40
0.984637
41
3.03641656799039
42
-2.19957118799259
0
ELLIPSE
5
2B0
100
AcDbEntity
8
1
62
256
6
ByLayer
370
-1
48
1
60
0
100
AcDbEllipse
10
20.251368
20
-8.837207
30
0
11
1.66684752564193
21
0.178707264153879
31
0
210
0
220
0
230
1
40
0.984637
41
-0.105176085599403
42
0.942021465597196
0
ELLIPSE
5
2B1
100
AcDbEntity
8
1
62
256
6
ByLayer
370
-1
48
1
60
0
100
AcDbEllipse
10
20.250226
20
-8.82655
30
0
11
-2.70947238569212
21
-0.290489915783418
31
0
210
0
220
0
230
1
40
0.984637
41
0
42
6.28318530717959
0
ELLIPSE
5
2B2
100
AcDbEntity
8
1
62
256
6
ByLayer
370
-1
48
1
60
0
100
AcDbEllipse
10
20.222051
20
-8.563759
30
0
11
-1.28294760339763
21
-0.137548307645998
31
0
210
0
220
0
230
1
40
0.984637
41
1.46562024119551
42
2.5128177923921
0
ELLIPSE
5
2B3
100
AcDbEntity
8
1
62
256
6
ByLayer
370
-1
48
1
60
0
100
AcDbEllipse
10
20.222051
20
-10.024524
30
0
11
-0.394030905813401
21
-0.00166011276180989
31
0
210
0
220
0
230
1
40
0.48236
41
-1.57282858259686
42
-0.162555121136494
0
ELLIPSE
5
2B4
100
AcDbEntity
8
1
62
256
6
ByLayer
370
-1
48
1
60
0
100
AcDbEllipse
10
20.251368
20
-8.837207
30
0
11
1.66684752564193
21
0.178707264153879
31
0
210
0
220
0
230
1
40
0.984637
41
-1.152373636796
42
-0.105176085599403
0
ELLIPSE
5
2B5
100
AcDbEntity
8
1
62
256
6
ByLayer
370
-1
48
1
60
0
100
AcDbEllipse
10
21.506404
20
-9.289989
30
0
11
-0.198604627908523
21
-0.335833568588474
31
0
210
0
220
0
230
1
40
0.491978
41
-1.56123520036842
42
-0.583099866534912
0
ELLIPSE
5
2B6
100
AcDbEntity
8
1
62
256
6
ByLayer
370
-1
48
1
60
0
100
AcDbEllipse
10
21.705194
20
-8.558964
30
0
11
-0.000412013910120326
21
-0.388113182761356
31
0
210
0
220
0
230
1
40
0.49719
41
-0.055009951060361
42
1.50740706106795
0
ELLIPSE
5
2B7
100
AcDbEntity
8
1
62
256
6
ByLayer
370
-1
48
1
60
0
100
AcDbEllipse
10
20.222051
20
-8.563759
30
0
11
-1.28294760339763
21
-0.137548307645998
31
0
210
0
220
0
230
1
40
0.984637
41
-2.61751741631486
42
-2.0143642522486
0
ELLIPSE
5
2B8
100
AcDbEntity
8
1
62
256
6
ByLayer
370
-1
48
1
60
0
100
AcDbEllipse
10
17.661457
20
-12.826337
30
0
11
-0.25
21
3.06151588455594E-17
31
0
210
0
220
0
230
1
40
0.173648
41
-1.08872741066934
42
-0.500911196979659
0
ELLIPSE
5
2B9
100
AcDbEntity
8
1
62
256
6
ByLayer
370
-1
48
1
60
0
100
AcDbEllipse
10
17.020597
20
-12.834437
30
0
11
-0.25
21
3.06151588455594E-17
31
0
210
0
220
0
230
1
40
0.173648
41
1.58475725915362
42
2.41378865385096
0
ELLIPSE
5
2BA
100
AcDbEntity
8
1
62
256
6
ByLayer
370
-1
48
1
60
0
100
AcDbEllipse
10
16.72315
20
-12.835158
30
0
11
-0.25
21
3.06151588455594E-17
31
0
210
0
220
0
230
1
40
0.173648
41
0.755725864456297
42
1.58475725915362
0
ELLIPSE
5
2BB
100
AcDbEntity
8
1
62
256
6
ByLayer
370
-1
48
1
60
0
100
AcDbEllipse
10
15.863309
20
-12.655387
30
0
11
-1.8
21
2.20429143688028E-16
31
0
210
0
220
0
230
1
40
0.173648
41
2.41378865385094
42
2.64068145661021
0
ELLIPSE
5
2BC
100
AcDbEntity
8
1
62
256
6
ByLayer
370
-1
48
1
60
0
100
AcDbEllipse
10
16.081237
20
-12.830168
30
0
11
-0.25
21
3.06151588455594E-17
31
0
210
0
220
0
230
1
40
0.173648
41
-2.61275959189271
42
-2.02932409266123
0
ELLIPSE
5
2BD
100
AcDbEntity
8
1
62
256
6
ByLayer
370
-1
48
1
60
0
100
AcDbEllipse
10
17.8512
20
-12.650567
30
0
11
-1.8
21
2.20429143688028E-16
31
0
210
0
220
0
230
1
40
0.173648
41
0.528833061697063
42
0.755725864456321
0
ELLIPSE
5
2BE
100
AcDbEntity
8
1
62
256
6
ByLayer
370
-1
48
1
60
0
100
AcDbEllipse
10
24.023773
20
-1.805636
30
0
11
-0.000942923823867228
21
-3.09999985659591
31
0
210
0
220
0
230
1
40
0.051912
41
-1.83061155789176
42
-1.71928206621506
0
ELLIPSE
5
2BF
100
AcDbEntity
8
1
62
256
6
ByLayer
370
-1
48
1
60
0
100
AcDbEllipse
10
25.12229
20
-1.805971
30
0
11
0.000428787004678438
21
1.40969993478815
31
0
210
0
220
0
230
1
40
0.051912
41
-2.44329568414664
42
-1.39609813295006
0
ELLIPSE
5
2C0
100
AcDbEntity
8
1
62
256
6
ByLayer
370
-1
48
1
60
0
100
AcDbEllipse
10
25.12229
20
-1.805971
30
0
11
0.000428787004678438
21
1.40969993478815
31
0
210
0
220
0
230
1
40
0.051912
41
-0.348900581753473
42
0.69829696944315
0
ELLIPSE
5
2C1
100
AcDbEntity
8
1
62
256
6
ByLayer
370
-1
48
1
60
0
100
AcDbEllipse
10
25.12229
20
-1.805971
30
0
11
0.000428787004678438
21
1.40969993478815
31
0
210
0
220
0
230
1
40
0.051912
41
1.74549452063972
42
2.79269207183631
0
ELLIPSE
5
2C2
100
AcDbEntity
8
1
62
256
6
ByLayer
370
-1
48
1
60
0
100
AcDbEllipse
10
25.12229
20
-1.805971
30
0
11
-0.000517087258249771
21
-1.69999992135905
31
0
210
0
220
0
230
1
40
0.051912
41
0
42
6.28318530717959
0
ELLIPSE
5
2C3
100
AcDbEntity
8
1
62
256
6
ByLayer
370
-1
48
1
60
0
100
AcDbEllipse
10
25.12229
20
-1.805971
30
0
11
0.000428787004678438
21
1.40969993478815
31
0
210
0
220
0
230
1
40
0.051912
41
0.69829696944315
42
1.74549452063972
0
ELLIPSE
5
2C4
100
AcDbEntity
8
1
62
256
6
ByLayer
370
-1
48
1
60
0
100
AcDbEllipse
10
25.12229
20
-1.805971
30
0
11
0.000428787004678438
21
1.40969993478815
31
0
210
0
220
0
230
1
40
0.051912
41
-1.39609813295006
42
-0.348900581753473
0
ELLIPSE
5
2C5
100
AcDbEntity
8
1
62
256
6
ByLayer
370
-1
48
1
60
0
100
AcDbEllipse
10
25.12229
20
-1.805971
30
0
11
0.000428787004678438
21
1.40969993478815
31
0
210
0
220
0
230
1
40
0.051912
41
2.79269207183631
42
-2.44329568414664
0
POINT
5
41
100
AcDbEntity
8
2
62
256
6
ByLayer
370
-1
48
1
60
0
100
AcDbPoint
10
25.004088
20
16.916295
30
0
39
0
210
0
220
0
230
1
50
360
0
POINT
5
43
100
AcDbEntity
8
2
62
256
6
ByLayer
370
-1
48
1
60
0
100
AcDbPoint
10
24.000148
20
15.549577
30
0
39
0
210
0
220
0
230
1
50
360
0
POINT
5
44
100
AcDbEntity
8
80
62
256
6
ByLayer
370
-1
48
1
60
0
100
AcDbPoint
10
0
20
0
30
0
39
0
210
0
220
0
230
1
50
360
0
POINT
5
46
100
AcDbEntity
8
81
62
256
6
ByLayer
370
-1
48
1
60
0
100
AcDbPoint
10
25
20
-16.875
30
0
39
0
210
0
220
0
230
1
50
360
0
POINT
5
48
100
AcDbEntity
8
2
62
256
6
ByLayer
370
-1
48
1
60
0
100
AcDbPoint
10
25
20
16.875
30
0
39
0
210
0
220
0
230
1
50
360
0
SPLINE
5
2C6
100
AcDbEntity
8
1
62
256
6
ByLayer
370
-1
48
1
60
0
100
AcDbSpline
70
4
71
1
72
4
73
2
40
0
40
0
40
1
40
1
41
1
10
15.5574061396448
20
-11.975626976058
30
0
41
1
10
15.7270358765616
20
-12.4839272592648
30
0
0
SPLINE
5
2C7
100
AcDbEntity
8
1
62
256
6
ByLayer
370
-1
48
1
60
0
100
AcDbSpline
70
4
71
3
72
12
73
8
40
0
40
0
40
0
40
0
40
0.0658054958965895
40
0.384724190033006
40
0.688100026913111
40
0.974234846622315
40
1
40
1
40
1
40
1
41
1
10
24.4362915723486
20
0.928575777088511
30
0
41
1
10
24.4554312869429
20
0.908254193285202
30
0
41
1
10
24.5660090331437
20
0.788174567148843
30
0
41
1
10
24.751734300714
20
0.563152818634677
30
0
41
1
10
24.9580061613906
20
0.238202019056146
30
0
41
1
10
25.0828538229214
20
0.0083496236132987
30
0
41
1
10
25.1308018550526
20
-0.114618152925914
30
0
41
1
10
25.1346950941011
20
-0.124807668435096
30
0
0
SPLINE
5
2C8
100
AcDbEntity
8
1
62
256
6
ByLayer
370
-1
48
1
60
0
100
AcDbSpline
70
4
71
3
72
11
73
7
40
0
40
0
40
0
40
0
40
0.15661470270373
40
0.539164026833044
40
0.915368951615227
40
1
40
1
40
1
40
1
41
1
10
25.1374515987203
20
-3.4639094766251
30
0
41
1
10
25.1166474741521
20
-3.52031897557576
30
0
41
1
10
25.038866801507
20
-3.71136205268392
30
0
41
1
10
24.8596398866333
20
-4.01480695324558
30
0
41
1
10
24.6682369946212
20
-4.27500943541125
30
0
41
1
10
24.5537131497921
20
-4.40958769308493
30
0
41
1
10
24.5323382770769
20
-4.43400772467162
30
0
0
SPLINE
5
2C9
100
AcDbEntity
8
1
62
256
6
ByLayer
370
-1
48
1
60
0
100
AcDbSpline
70
4
71
3
72
14
73
10
40
0
40
0
40
0
40
0
40
0.0817473904606555
40
0.0817473904606555
40
0.197235807788151
40
0.197235807788151
40
0.439671763929748
40
0.439671763929748
40
1
40
1
40
1
40
1
41
1
10
6.02745105773369
20
10.7543045467676
30
0
41
1
10
6.02641432097357
20
10.7570720020157
30
0
41
1
10
6.0301328543886
20
10.7470895305408
30
0
41
1
10
6.04667902625377
20
10.7033720747486
30
0
41
1
10
6.06255935602545
20
10.6618712699026
30
0
41
1
10
6.12024379526414
20
10.5162350234559
30
0
41
1
10
6.17233729785224
20
10.3912160707489
30
0
41
1
10
6.3643240306902
20
9.96697385214554
30
0
41
1
10
6.53706280634907
20
9.63650220680515
30
0
41
1
10
6.74127270972662
20
9.31083125181618
30
0
0
SPLINE
5
2CA
100
AcDbEntity
8
1
62
256
6
ByLayer
370
-1
48
1
60
0
100
AcDbSpline
70
4
71
3
72
8
73
4
40
0
40
0
40
0
40
0
40
1
40
1
40
1
40
1
41
1
10
0.346265877365255
20
3.90926663646293
30
0
41
1
10
0.227359890226524
20
3.73881296987808
30
0
41
1
10
0.111578923425668
20
3.5653499708732
30
0
41
1
10
6.5654E-12
20
3.38841451384539
30
0
0
SPLINE
5
2CB
100
AcDbEntity
8
1
62
256
6
ByLayer
370
-1
48
1
60
0
100
AcDbSpline
70
4
71
3
72
8
73
4
40
0
40
0
40
0
40
0
40
1
40
1
40
1
40
1
41
1
10
11.5373612540212
20
-8.69000364297057
30
0
41
1
10
11.6153637874138
20
-8.84485519376123
30
0
41
1
10
11.6923889630473
20
-8.99568735858702
30
0
41
1
10
11.7683165521541
20
-9.1430467672578
30
0
0
SPLINE
5
2CC
100
AcDbEntity
8
1
62
256
6
ByLayer
370
-1
48
1
60
0
100
AcDbSpline
70
4
71
3
72
8
73
4
40
0
40
0
40
0
40
0
40
1
40
1
40
1
40
1
41
1
10
0.346265877365255
20
-10.987126560104
30
0
41
1
10
0.229729664239528
20
-10.8205218195503
30
0
41
1
10
0.114269838928095
20
-10.652904136356
30
0
41
1
10
0
20
-10.4842192326163
30
0
0
SPLINE
5
2CD
100
AcDbEntity
8
1
62
256
6
ByLayer
370
-1
48
1
60
0
100
AcDbSpline
70
4
71
3
72
22
73
18
40
0
40
0
40
0
40
0
40
0.047912519068037
40
0.047912519068037
40
0.0820624641789726
40
0.0820624641789726
40
0.116468624686352
40
0.116468624686352
40
0.148035618421806
40
0.148035618421806
40
0.201848864027685
40
0.201848864027685
40
0.304248920768651
40
0.304248920768651
40
0.606177712089761
40
0.606177712089761
40
1
40
1
40
1
40
1
41
1
10
0.346265877365255
20
-6.56703185455439
30
0
41
1
10
0.351809765583283
20
-6.57237199788257
30
0
41
1
10
0.357684033582075
20
-6.57715094112274
30
0
41
1
10
0.367781181833124
20
-6.58298730596937
30
0
41
1
10
0.372080053091963
20
-6.58473778906733
30
0
41
1
10
0.380182470440417
20
-6.58619255022232
30
0
41
1
10
0.384078551334085
20
-6.58588028144888
30
0
41
1
10
0.390561356880767
20
-6.58341828742329
30
0
41
1
10
0.393310642457749
20
-6.58141760162407
30
0
41
1
10
0.399600857145344
20
-6.57461945814664
30
0
41
1
10
0.40250077969057
20
-6.56878804925816
30
0
41
1
10
0.408739250414726
20
-6.55029393553887
30
0
41
1
10
0.410422260473837
20
-6.53588369251834
30
0
41
1
10
0.412775529623787
20
-6.47787911164299
30
0
41
1
10
0.405949963550654
20
-6.42958064468257
30
0
41
1
10
0.384682204571817
20
-6.31927000907072
30
0
41
1
10
0.367332524316083
20
-6.25528269104478
30
0
41
1
10
0.346265877365255
20
-6.1920204313958
30
0
0
SPLINE
5
2CE
100
AcDbEntity
8
1
62
256
6
ByLayer
370
-1
48
1
60
0
100
AcDbSpline
70
4
71
3
72
10
73
6
40
0
40
0
40
0
40
0
40
0.659295753258962
40
0.659295753258962
40
1
40
1
40
1
40
1
41
1
10
6.02336297827844
20
-12.3162376120288
30
0
41
1
10
6.02099168223506
20
-12.3411994433199
30
0
41
1
10
6.04281373582495
20
-12.3639196783624
30
0
41
1
10
6.11172465547858
20
-12.3927170281526
30
0
41
1
10
6.1417135707261
20
-12.4016760358972
30
0
41
1
10
6.17763505768283
20
-12.4096736459909
30
0
0
SPLINE
5
2CF
100
AcDbEntity
8
1
62
256
6
ByLayer
370
-1
48
1
60
0
100
AcDbSpline
70
4
71
3
72
8
73
4
40
0
40
0
40
0
40
0
40
1
40
1
40
1
40
1
41
1
10
0.346265877365255
20
12.2346362764258
30
0
41
1
10
0.230435625110601
20
12.106423347816
30
0
41
1
10
0.115001762472986
20
11.9777309575305
30
0
41
1
10
0
20
11.8485274577714
30
0
0
SPLINE
5
2D0
100
AcDbEntity
8
1
62
256
6
ByLayer
370
-1
48
1
60
0
100
AcDbSpline
70
4
71
3
72
10
73
6
40
0
40
0
40
0
40
0
40
0.49056839005665
40
0.49056839005665
40
1
40
1
40
1
40
1
41
1
10
6.78415296645324
20
-12.463502482352
30
0
41
1
10
6.84889271397114
20
-12.465508460504
30
0
41
1
10
6.91625679662798
20
-12.4669982069592
30
0
41
1
10
7.05617252135986
20
-12.4690893778519
30
0
41
1
10
7.12943302504235
20
-12.4696570713157
30
0
41
1
10
7.20249617238952
20
-12.4697470673893
30
0
0
SPLINE
5
2D1
100
AcDbEntity
8
1
62
256
6
ByLayer
370
-1
48
1
60
0
100
AcDbSpline
70
4
71
3
72
22
73
18
40
0
40
0
40
0
40
0
40
0.211681005287411
40
0.211681005287411
40
0.358865067454461
40
0.358865067454461
40
0.47623511333246
40
0.47623511333246
40
0.594943769528849
40
0.594943769528849
40
0.695709219858455
40
0.695709219858455
40
0.796855446613136
40
0.796855446613136
40
0.951499789890484
40
0.951499789890484
40
1
40
1
40
1
40
1
41
1
10
0.346265877365255
20
-12.2346362764258
30
0
41
1
10
0.359897943066585
20
-12.2497256596616
30
0
41
1
10
0.372770597480098
20
-12.2644997576674
30
0
41
1
10
0.391049178604732
20
-12.2867182654336
30
0
41
1
10
0.39767523177656
20
-12.2952039928828
30
0
41
1
10
0.406445335378976
20
-12.3076317214513
30
0
41
1
10
0.409285349024458
20
-12.3122448613141
30
0
41
1
10
0.411787148559796
20
-12.3183716780987
30
0
41
1
10
0.411410134675094
20
-12.3199037798468
30
0
41
1
10
0.40747235660109
20
-12.3192754591657
30
0
41
1
10
0.404358615666467
20
-12.317637340799
30
0
41
1
10
0.396237688026161
20
-12.3121674865849
30
0
41
1
10
0.391147528307357
20
-12.3082841619879
30
0
41
1
10
0.37692356397838
20
-12.2966974376908
30
0
41
1
10
0.366856655526618
20
-12.2878975199698
30
0
41
1
10
0.353065493124234
20
-12.2753706822286
30
0
41
1
10
0.349685067617628
20
-12.2722660219198
30
0
41
1
10
0.346265877365283
20
-12.2690953042644
30
0
0
SPLINE
5
2D2
100
AcDbEntity
8
1
62
256
6
ByLayer
370
-1
48
1
60
0
100
AcDbSpline
70
4
71
3
72
8
73
4
40
0
40
0
40
0
40
0
40
1
40
1
40
1
40
1
41
1
10
0
20
8.60124135910399
30
0
41
1
10
0.112822336155318
20
8.82318279305082
30
0
41
1
10
0.228340842567064
20
9.04332109595023
30
0
41
1
10
0.346265877365255
20
9.26169711960412
30
0
0
SPLINE
5
2D3
100
AcDbEntity
8
1
62
256
6
ByLayer
370
-1
48
1
60
0
100
AcDbSpline
70
4
71
3
72
8
73
4
40
0
40
0
40
0
40
0
40
1
40
1
40
1
40
1
41
1
10
-4.263E-13
20
-3.38841451383432
30
0
41
1
10
0.11157892342294
20
-3.56534997086926
30
0
41
1
10
0.227359890228371
20
-3.738812969881
30
0
41
1
10
0.346265877371906
20
-3.90926663647245
30
0
0
SPLINE
5
2D4
100
AcDbEntity
8
1
62
256
6
ByLayer
370
-1
48
1
60
0
100
AcDbSpline
70
4
71
3
72
8
73
4
40
0
40
0
40
0
40
0
40
1
40
1
40
1
40
1
41
1
10
0.346265877365255
20
-12.023400427556
30
0
41
1
10
0.230759121535556
20
-11.9210318587676
30
0
41
1
10
0.11533495691981
20
-11.8185388964186
30
0
41
1
10
0
20
-11.7159123809271
30
0
0
SPLINE
5
2D5
100
AcDbEntity
8
1
62
256
6
ByLayer
370
-1
48
1
60
0
100
AcDbSpline
70
4
71
3
72
8
73
4
40
0
40
0
40
0
40
0
40
1
40
1
40
1
40
1
41
1
10
0.346265877365283
20
11.6390985947187
30
0
41
1
10
0.230798820375043
20
11.5405459370123
30
0
41
1
10
0.115375688133611
20
11.4419246184803
30
0
41
1
10
0
20
11.3432293866236
30
0
0
SPLINE
5
2D6
100
AcDbEntity
8
1
62
256
6
ByLayer
370
-1
48
1
60
0
100
AcDbSpline
70
4
71
3
72
8
73
4
40
0
40
0
40
0
40
0
40
1
40
1
40
1
40
1
41
1
10
0.346265877365255
20
-11.9647342870706
30
0
41
1
10
0.2302775415329
20
-11.826454009731
30
0
41
1
10
0.114838291584874
20
-11.6875563471868
30
0
41
1
10
0
20
-11.5480021180099
30
0
0
SPLINE
5
2D7
100
AcDbEntity
8
1
62
256
6
ByLayer
370
-1
48
1
60
0
100
AcDbSpline
70
4
71
3
72
22
73
18
40
0
40
0
40
0
40
0
40
0.311884300959237
40
0.311884300959237
40
0.465968148306108
40
0.465968148306108
40
0.589165383849381
40
0.589165383849381
40
0.680901708381323
40
0.680901708381323
40
0.773412121124607
40
0.773412121124607
40
0.856097586472542
40
0.856097586472542
40
0.969121184006609
40
0.969121184006609
40
1
40
1
40
1
40
1
41
1
10
0.346265877365255
20
10.987126560104
30
0
41
1
10
0.365019408399974
20
11.0139373435395
30
0
41
1
10
0.381793635901658
20
11.0410587782309
30
0
41
1
10
0.399968420371351
20
11.0777206053032
30
0
41
1
10
0.40494274191704
20
11.089462603473
30
0
41
1
10
0.410460359423951
20
11.1079756222918
30
0
41
1
10
0.411718151073131
20
11.1154260796129
30
0
41
1
10
0.410665704232173
20
11.1252907388565
30
0
41
1
10
0.409142432182591
20
11.1285670491561
30
0
41
1
10
0.403660684510641
20
11.1322193505593
30
0
41
1
10
0.39958209753766
20
11.1325928358937
30
0
41
1
10
0.390041844068889
20
11.1303972088145
30
0
41
1
10
0.384671726153471
20
11.12812744597
30
0
41
1
10
0.371096742201047
20
11.1206555724069
30
0
41
1
10
0.362374426103088
20
11.1146056412353
30
0
41
1
10
0.351161946283071
20
11.1058147907816
30
0
41
1
10
0.34871742353738
20
11.103839332372
30
0
41
1
10
0.346265877365255
20
11.1018050043141
30
0
0
SPLINE
5
2D8
100
AcDbEntity
8
1
62
256
6
ByLayer
370
-1
48
1
60
0
100
AcDbSpline
70
4
71
3
72
10
73
6
40
0
40
0
40
0
40
0
40
0.001105039255263
40
0.001105039255263
40
1
40
1
40
1
40
1
41
1
10
6.6820103270328
20
9.40683963979544
30
0
41
1
10
6.68200975552526
20
9.40684058926217
30
0
41
1
10
6.68200921098119
20
9.40684148994796
30
0
41
1
10
6.68154082727182
20
9.40761240877754
30
0
41
1
10
6.70375099877123
20
9.36761704535161
30
0
41
1
10
6.74928287843883
20
9.29448054401988
30
0
0
SPLINE
5
2D9
100
AcDbEntity
8
1
62
256
6
ByLayer
370
-1
48
1
60
0
100
AcDbSpline
70
4
71
3
72
22
73
18
40
0
40
0
40
0
40
0
40
0.347878771885175
40
0.347878771885175
40
0.504265863018444
40
0.504265863018444
40
0.662888634847354
40
0.662888634847354
40
0.739143923400673
40
0.739143923400673
40
0.816554116248826
40
0.816554116248826
40
0.883605498439367
40
0.883605498439367
40
0.946498597364854
40
0.946498597364854
40
1
40
1
40
1
40
1
41
1
10
0.346265877365255
20
9.26169711960412
30
0
41
1
10
0.366274728170595
20
9.29874992424587
30
0
41
1
10
0.383456169467706
20
9.33647187791232
30
0
41
1
10
0.401032009849274
20
9.38812676386112
30
0
41
1
10
0.405505721737598
20
9.40396107155431
30
0
41
1
10
0.411112145227037
20
9.43369559580424
30
0
41
1
10
0.412305279142686
20
9.44799507894703
30
0
41
1
10
0.409211398904347
20
9.46472902496856
30
0
41
1
10
0.407379241288908
20
9.46954009071652
30
0
41
1
10
0.401608330623134
20
9.47662233853595
30
0
41
1
10
0.397514162786933
20
9.47890660004865
30
0
41
1
10
0.388054262423196
20
9.47976443409331
30
0
41
1
10
0.382811073308034
20
9.47879812069075
30
0
41
1
10
0.372026875593377
20
9.474672866692
30
0
41
1
10
0.366413193063693
20
9.47163297005366
30
0
41
1
10
0.355977234112487
20
9.46479165097011
30
0
41
1
10
0.351096993348449
20
9.46113487300113
30
0
41
1
10
0.346265877365255
20
9.45716611180498
30
0
0
SPLINE
5
2DA
100
AcDbEntity
8
1
62
256
6
ByLayer
370
-1
48
1
60
0
100
AcDbSpline
70
4
71
3
72
26
73
22
40
0
40
0
40
0
40
0
40
0.0234760969784365
40
0.0234760969784365
40
0.0379403017443504
40
0.0379403017443504
40
0.0496343598989342
40
0.0496343598989342
40
0.0613746244080723
40
0.0613746244080723
40
0.0759633127848566
40
0.0759633127848566
40
0.100897192300089
40
0.100897192300089
40
0.175550805278485
40
0.175550805278485
40
0.474994357819951
40
0.474994357819951
40
0.978449480167231
40
0.978449480167231
40
1
40
1
40
1
40
1
41
1
10
0.346265877365283
20
3.90926663646292
30
0
41
1
10
0.350044980273054
20
3.91468404194882
30
0
41
1
10
0.354145003400532
20
3.91982820960992
30
0
41
1
10
0.361354553333001
20
3.92661858176517
30
0
41
1
10
0.364293496737702
20
3.92887545085794
30
0
41
1
10
0.36972408127238
20
3.93166606170212
30
0
41
1
10
0.372244691055101
20
3.93245325859232
30
0
41
1
10
0.377073515010522
20
3.93276482232845
30
0
41
1
10
0.37943632959616
20
3.93228311844915
30
0
41
1
10
0.384187574617414
20
3.93002639738688
30
0
41
1
10
0.386527065070652
20
3.92796446499253
30
0
41
1
10
0.391958926544533
20
3.92132124998828
30
0
41
1
10
0.394583001608851
20
3.91592721724609
30
0
41
1
10
0.403093935091135
20
3.89331024655675
30
0
41
1
10
0.405949554049187
20
3.87324528234981
30
0
41
1
10
0.415844835011228
20
3.77346988155709
30
0
41
1
10
0.410147811892642
20
3.68731393541643
30
0
41
1
10
0.391926820896885
20
3.45946915233969
30
0
41
1
10
0.372416928601155
20
3.31471564910016
30
0
41
1
10
0.348276170534746
20
3.16430004271618
30
0
41
1
10
0.347275169430787
20
3.15811464784567
30
0
41
1
10
0.346265877365255
20
3.15192937208195
30
0
0
SPLINE
5
2DB
100
AcDbEntity
8
1
62
256
6
ByLayer
370
-1
48
1
60
0
100
AcDbSpline
70
4
71
3
72
10
73
6
40
0
40
0
40
0
40
0
40
0.5
40
0.5
40
1
40
1
40
1
40
1
41
1
10
24.0043544745554
20
2.77026576874962
30
0
41
1
10
23.7109768389324
20
3.36583156325594
30
0
41
1
10
23.1128768465518
20
4.17227372571317
30
0
41
1
10
21.4852484688952
20
5.26105824509648
30
0
41
1
10
20.5099103179031
20
5.56077871373829
30
0
41
1
10
19.5190265095413
20
5.56077871373829
30
0
0
SPLINE
5
2DC
100
AcDbEntity
8
1
62
256
6
ByLayer
370
-1
48
1
60
0
100
AcDbSpline
70
4
71
3
72
8
73
4
40
0
40
0
40
0
40
0
40
1
40
1
40
1
40
1
41
1
10
0.45123412263473
20
-12.4096736459909
30
0
41
1
10
0.300802011250568
20
-12.2581465836406
30
0
41
1
10
0.150389851485215
20
-12.1065997105978
30
0
41
1
10
0
20
-11.9550307054211
30
0
0
SPLINE
5
2DD
100
AcDbEntity
8
1
62
256
6
ByLayer
370
-1
48
1
60
0
100
AcDbSpline
70
4
71
3
72
8
73
4
40
0
40
0
40
0
40
0
40
1
40
1
40
1
40
1
41
1
10
0.346265877365255
20
-9.26169711960412
30
0
41
1
10
0.228340842567064
20
-9.04332109595022
30
0
41
1
10
0.112822336155318
20
-8.82318279305082
30
0
41
1
10
0
20
-8.60124135910399
30
0
0
SPLINE
5
2DE
100
AcDbEntity
8
1
62
256
6
ByLayer
370
-1
48
1
60
0
100
AcDbSpline
70
4
71
3
72
8
73
4
40
0
40
0
40
0
40
0
40
1
40
1
40
1
40
1
41
1
10
0
20
6.23097929041342
30
0
41
1
10
0.115045831014498
20
6.34351153311647
30
0
41
1
10
0.23048637372662
20
6.45550739381841
30
0
41
1
10
0.346265877365255
20
6.56703185455439
30
0
0
SPLINE
5
2DF
100
AcDbEntity
8
1
62
256
6
ByLayer
370
-1
48
1
60
0
100
AcDbSpline
70
4
71
3
72
8
73
4
40
0
40
0
40
0
40
0
40
1
40
1
40
1
40
1
41
1
10
0.346265877365283
20
10.2376995361025
30
0
41
1
10
0.229219722500602
20
10.0498655286572
30
0
41
1
10
0.113739105797208
20
9.8607150529516
30
0
41
1
10
0
20
9.67019146230109
30
0
0
SPLINE
5
2E0
100
AcDbEntity
8
1
62
256
6
ByLayer
370
-1
48
1
60
0
100
AcDbSpline
70
4
71
3
72
8
73
4
40
0
40
0
40
0
40
0
40
1
40
1
40
1
40
1
41
1
10
0.346265877365283
20
8.23677419397316
30
0
41
1
10
0.230775716236821
20
8.13796096661619
30
0
41
1
10
0.115351215931071
20
8.03904531451656
30
0
41
1
10
0
20
7.94001592678256
30
0
0
SPLINE
5
2E1
100
AcDbEntity
8
1
62
256
6
ByLayer
370
-1
48
1
60
0
100
AcDbSpline
70
4
71
3
72
8
73
4
40
0
40
0
40
0
40
0
40
1
40
1
40
1
40
1
41
1
10
0
20
-7.94001592678256
30
0
41
1
10
0.115351215931071
20
-8.03904531451656
30
0
41
1
10
0.230775716236821
20
-8.13796096661621
30
0
41
1
10
0.346265877365283
20
-8.23677419397316
30
0
0
SPLINE
5
2E2
100
AcDbEntity
8
1
62
256
6
ByLayer
370
-1
48
1
60
0
100
AcDbSpline
70
4
71
3
72
8
73
4
40
0
40
0
40
0
40
0
40
1
40
1
40
1
40
1
41
1
10
0
20
-11.3432293866236
30
0
41
1
10
0.115375688133611
20
-11.4419246184803
30
0
41
1
10
0.230798820375043
20
-11.5405459370123
30
0
41
1
10
0.346265877365283
20
-11.6390985947187
30
0
0
SPLINE
5
2E3
100
AcDbEntity
8
1
62
256
6
ByLayer
370
-1
48
1
60
0
100
AcDbSpline
70
4
71
3
72
8
73
4
40
0
40
0
40
0
40
0
40
1
40
1
40
1
40
1
41
1
10
0.346265877365255
20
11.5541511286625
30
0
41
1
10
0.23005558511332
20
11.4034243160505
30
0
41
1
10
0.114608295288491
20
11.2519077114624
30
0
41
1
10
0
20
11.0995541765226
30
0
0
SPLINE
5
2E4
100
AcDbEntity
8
1
62
256
6
ByLayer
370
-1
48
1
60
0
100
AcDbSpline
70
4
71
3
72
14
73
10
40
0
40
0
40
0
40
0
40
0.199492959214093
40
0.199492959214093
40
0.481609235343943
40
0.481609235343943
40
0.780103949225406
40
0.780103949225406
40
1
40
1
40
1
40
1
41
1
10
6.74127270972662
20
9.31083125181618
30
0
41
1
10
6.65556403949199
20
9.32009807870193
30
0
41
1
10
6.57435040302494
20
9.33112209918735
30
0
41
1
10
6.39632295245053
20
9.35787505447593
30
0
41
1
10
6.30463508729514
20
9.37393110983757
30
0
41
1
10
6.15461928065807
20
9.3984346311457
30
0
41
1
10
6.09636131677567
20
9.40661052436045
30
0
41
1
10
6.03755720870248
20
9.40702518923354
30
0
41
1
10
6.02540892730113
20
9.40288877051267
30
0
41
1
10
6.02721006438102
20
9.39429005505184
30
0
0
SPLINE
5
2E5
100
AcDbEntity
8
1
62
256
6
ByLayer
370
-1
48
1
60
0
100
AcDbSpline
70
4
71
3
72
8
73
4
40
0
40
0
40
0
40
0
40
1
40
1
40
1
40
1
41
1
10
0
20
11.5480021180099
30
0
41
1
10
0.114838291584874
20
11.6875563471868
30
0
41
1
10
0.2302775415329
20
11.826454009731
30
0
41
1
10
0.346265877365255
20
11.9647342870706
30
0
0
SPLINE
5
2E6
100
AcDbEntity
8
1
62
256
6
ByLayer
370
-1
48
1
60
0
100
AcDbSpline
70
4
71
3
72
8
73
4
40
0
40
0
40
0
40
0
40
1
40
1
40
1
40
1
41
1
10
0
20
-7.16415402664968
30
0
41
1
10
0.110951948162125
20
-7.43737501593759
30
0
41
1
10
0.226551674694605
20
-7.70813209030852
30
0
41
1
10
0.346265877365255
20
-7.97637607432429
30
0
0
SPLINE
5
2E7
100
AcDbEntity
8
1
62
256
6
ByLayer
370
-1
48
1
60
0
100
AcDbSpline
70
4
71
3
72
8
73
4
40
0
40
0
40
0
40
0
40
1
40
1
40
1
40
1
41
1
10
8.86160388112955
20
-13.2609252321753
30
0
41
1
10
8.89474515684756
20
-13.301251064682
30
0
41
1
10
8.93299379128328
20
-13.3415338040736
30
0
41
1
10
8.97637809016189
20
-13.3817565381
30
0
0
SPLINE
5
2E8
100
AcDbEntity
8
1
62
256
6
ByLayer
370
-1
48
1
60
0
100
AcDbSpline
70
4
71
3
72
22
73
18
40
0
40
0
40
0
40
0
40
0.0579606326123945
40
0.0579606326123945
40
0.11743246651474
40
0.11743246651474
40
0.172080770318652
40
0.172080770318652
40
0.220598143404019
40
0.220598143404019
40
0.302231310800994
40
0.302231310800994
40
0.448314356305543
40
0.448314356305543
40
0.747292843339461
40
0.747292843339461
40
1
40
1
40
1
40
1
41
1
10
0.346265877365283
20
8.23677419397316
30
0
41
1
10
0.352019173101127
20
8.24169670610792
30
0
41
1
10
0.357947364008595
20
8.24610240699562
30
0
41
1
10
0.369720177768698
20
8.2529455053141
30
0
41
1
10
0.37571043926647
20
8.25537996936694
30
0
41
1
10
0.386027517323043
20
8.25699584944564
30
0
41
1
10
0.39057506363261
20
8.25642441872694
30
0
41
1
10
0.397632369509523
20
8.2530492756301
30
0
41
1
10
0.400408629689281
20
8.25049190255419
30
0
41
1
10
0.406315233496571
20
8.24201972579004
30
0
41
1
10
0.408563769937984
20
8.23491945047897
30
0
41
1
10
0.412108036421842
20
8.21332516813919
30
0
41
1
10
0.411488905987056
20
8.19701959008833
30
0
41
1
10
0.405446007553678
20
8.14614702573405
30
0
41
1
10
0.39565344119643
20
8.1088736568162
30
0
41
1
10
0.37296577993385
20
8.04019375421305
30
0
41
1
10
0.360448762908305
20
8.0081557098064
30
0
41
1
10
0.346265877365255
20
7.97637607432429
30
0
0
SPLINE
5
2E9
100
AcDbEntity
8
1
62
256
6
ByLayer
370
-1
48
1
60
0
100
AcDbSpline
70
4
71
3
72
18
73
14
40
0
40
0
40
0
40
0
40
0.237862082009847
40
0.237862082009847
40
0.573901131531375
40
0.573901131531375
40
0.777153307273711
40
0.777153307273711
40
0.87437738701664
40
0.87437738701664
40
0.952910211565054
40
0.952910211565054
40
1
40
1
40
1
40
1
41
1
10
6.02409884247842
20
-8.16348416505802
30
0
41
1
10
6.02137799917978
20
-8.01278126842639
30
0
41
1
10
6.05077260922366
20
-7.84917432693238
30
0
41
1
10
6.17154555266453
20
-7.45157459620579
30
0
41
1
10
6.28390709237684
20
-7.20839482198491
30
0
41
1
10
6.51142013421799
20
-6.83535381303216
30
0
41
1
10
6.60945480358725
20
-6.69535326285529
30
0
41
1
10
6.78071899403548
20
-6.5092863001983
30
0
41
1
10
6.84099889672461
20
-6.45175444674624
30
0
41
1
10
6.96164346181294
20
-6.36349916749282
30
0
41
1
10
7.02094233896625
20
-6.32916220194898
30
0
41
1
10
7.12274504381915
20
-6.29478080619903
30
0
41
1
10
7.16316160688305
20
-6.2865286701885
30
0
41
1
10
7.20359219449321
20
-6.28448955781703
30
0
0
SPLINE
5
2EA
100
AcDbEntity
8
1
62
256
6
ByLayer
370
-1
48
1
60
0
100
AcDbSpline
70
4
71
3
72
8
73
4
40
0
40
0
40
0
40
0
40
1
40
1
40
1
40
1
41
1
10
0.346265877365255
20
12.2690953042644
30
0
41
1
10
0.230707112539193
20
12.161934196277
30
0
41
1
10
0.115281542761721
20
12.0545812521827
30
0
41
1
10
0
20
11.9470227637501
30
0
0
SPLINE
5
2EB
100
AcDbEntity
8
1
62
256
6
ByLayer
370
-1
48
1
60
0
100
AcDbSpline
70
4
71
3
72
16
73
12
40
0
40
0
40
0
40
0
40
0.210473479338247
40
0.210473479338247
40
0.420356697080325
40
0.420356697080325
40
0.639180800745521
40
0.639180800745521
40
0.862263933633334
40
0.862263933633334
40
1
40
1
40
1
40
1
41
1
10
6.02590687392603
20
2.0399050285274
30
0
41
1
10
6.0236204262049
20
2.07520594999876
30
0
41
1
10
6.04413614000396
20
2.11835478081254
30
0
41
1
10
6.12551575028991
20
2.21112605365386
30
0
41
1
10
6.18723493907586
20
2.26189308179298
30
0
41
1
10
6.34596712141996
20
2.36195788788356
30
0
41
1
10
6.44657816937195
20
2.41242206310967
30
0
41
1
10
6.67465906925619
20
2.49746875809882
30
0
41
1
10
6.80627463258855
20
2.5327848854492
30
0
41
1
10
7.02831575439362
20
2.56589436769527
30
0
41
1
10
7.11694073679922
20
2.57309488635018
30
0
41
1
10
7.20516191896178
20
2.57404534250791
30
0
0
SPLINE
5
2EC
100
AcDbEntity
8
1
62
256
6
ByLayer
370
-1
48
1
60
0
100
AcDbSpline
70
4
71
3
72
22
73
18
40
0
40
0
40
0
40
0
40
0.111422414433504
40
0.111422414433504
40
0.205111172273924
40
0.205111172273924
40
0.299657140499009
40
0.299657140499009
40
0.382486320635791
40
0.382486320635791
40
0.495613585904334
40
0.495613585904334
40
0.662349487041781
40
0.662349487041781
40
0.921512922257098
40
0.921512922257098
40
1
40
1
40
1
40
1
41
1
10
0.346265877365255
20
-11.1018050043141
30
0
41
1
10
0.355023063017256
20
-11.1090718421502
30
0
41
1
10
0.363788987443428
20
-11.1156611768721
30
0
41
1
10
0.378747405177222
20
-11.1251291664588
30
0
41
1
10
0.385265192512691
20
-11.128498750246
30
0
41
1
10
0.396385436677235
20
-11.1322419855247
30
0
41
1
10
0.401108130389133
20
-11.1326092035909
30
0
41
1
10
0.407391363284773
20
-11.1302941327085
30
0
41
1
10
0.409359911166717
20
-11.1279738226419
30
0
41
1
10
0.411758588645455
20
-11.120376774234
30
0
41
1
10
0.411446700103085
20
-11.1142498565473
30
0
41
1
10
0.407766825470617
20
-11.0970475640183
30
0
41
1
10
0.403038219661454
20
-11.0847336117631
30
0
41
1
10
0.387560797644795
20
-11.0518258049637
30
0
41
1
10
0.374663188185224
20
-11.0297313270701
30
0
41
1
10
0.355680213817067
20
-11.0007934437107
30
0
41
1
10
0.351049668056788
20
-10.9939656548854
30
0
41
1
10
0.346265877365255
20
-10.987126560104
30
0
0
SPLINE
5
2ED
100
AcDbEntity
8
1
62
256
6
ByLayer
370
-1
48
1
60
0
100
AcDbSpline
70
4
71
3
72
22
73
18
40
0
40
0
40
0
40
0
40
0.477178642487609
40
0.477178642487609
40
0.659175456068532
40
0.659175456068532
40
0.736104569890872
40
0.736104569890872
40
0.814382117909336
40
0.814382117909336
40
0.863913762798868
40
0.863913762798868
40
0.913546342599439
40
0.913546342599439
40
0.975074166835151
40
0.975074166835151
40
1
40
1
40
1
40
1
41
1
10
0.346265877365255
20
-7.97637607432429
30
0
41
1
10
0.372778154651485
20
-8.03578221600117
30
0
41
1
10
0.394400157228034
20
-8.09707740388515
30
0
41
1
10
0.409434752644927
20
-8.17508192335136
30
0
41
1
10
0.412041066221491
20
-8.19648428882579
30
0
41
1
10
0.410659271015419
20
-8.22320983200302
30
0
41
1
10
0.409565154625028
20
-8.23077165946216
30
0
41
1
10
0.405274018447045
20
-8.24387335831761
30
0
41
1
10
0.401947400514729
20
-8.24953857106073
30
0
41
1
10
0.394108553840425
20
-8.25513076380884
30
0
41
1
10
0.390382910386563
20
-8.25641347658166
30
0
41
1
10
0.382017011442088
20
-8.25669809163008
30
0
41
1
10
0.377275238983202
20
-8.25569635864159
30
0
41
1
10
0.366386136226794
20
-8.25135011345853
30
0
41
1
10
0.360018907213913
20
-8.2474803602076
30
0
41
1
10
0.351293317230301
20
-8.24095059115768
30
0
41
1
10
0.348767421550036
20
-8.23891451183106
30
0
41
1
10
0.346265877365283
20
-8.23677419397318
30
0
0
SPLINE
5
2EE
100
AcDbEntity
8
1
62
256
6
ByLayer
370
-1
48
1
60
0
100
AcDbSpline
70
4
71
3
72
22
73
18
40
0
40
0
40
0
40
0
40
0.165560074114725
40
0.165560074114725
40
0.287334689196969
40
0.287334689196969
40
0.390247095847815
40
0.390247095847815
40
0.493512754322351
40
0.493512754322351
40
0.592108808155919
40
0.592108808155919
40
0.732314561320585
40
0.732314561320585
40
0.928845505575987
40
0.928845505575987
40
1
40
1
40
1
40
1
41
1
10
0.346265877365283
20
12.2690953042644
30
0
41
1
10
0.357799583619709
20
12.2797908559458
30
0
41
1
10
0.369040108069868
20
12.2898692880663
30
0
41
1
10
0.386152608347459
20
12.3043308346909
30
0
41
1
10
0.39280113962576
20
12.3096273696433
30
0
41
1
10
0.402542863488861
20
12.3165297273373
30
0
41
1
10
0.406110251470324
20
12.3186298789994
30
0
41
1
10
0.410593149844118
20
12.3200427247317
30
0
41
1
10
0.411549468561276
20
12.3193551528903
30
0
41
1
10
0.410844222274619
20
12.3155080909522
30
0
41
1
10
0.409308242994314
20
12.3124342069743
30
0
41
1
10
0.403413103679299
20
12.3030442816101
30
0
41
1
10
0.398079874829477
20
12.2957891019168
30
0
41
1
10
0.382856676349491
20
12.2764957997901
30
0
41
1
10
0.371760782843893
20
12.2633826977337
30
0
41
1
10
0.355420407242747
20
12.2448298676077
30
0
41
1
10
0.350896308718035
20
12.2397617177756
30
0
41
1
10
0.346265877365255
20
12.2346362764258
30
0
0
SPLINE
5
2EF
100
AcDbEntity
8
1
62
256
6
ByLayer
370
-1
48
1
60
0
100
AcDbSpline
70
4
71
3
72
8
73
4
40
0
40
0
40
0
40
0
40
1
40
1
40
1
40
1
41
1
10
0.346265877365255
20
-6.56703185455439
30
0
41
1
10
0.23048637372662
20
-6.45550739381842
30
0
41
1
10
0.115045831014498
20
-6.34351153311646
30
0
41
1
10
0
20
-6.2309792904134
30
0
0
SPLINE
5
2F0
100
AcDbEntity
8
1
62
256
6
ByLayer
370
-1
48
1
60
0
100
AcDbSpline
70
4
71
3
72
8
73
4
40
0
40
0
40
0
40
0
40
1
40
1
40
1
40
1
41
1
10
0
20
-11.94702276375
30
0
41
1
10
0.115281542761721
20
-12.0545812521827
30
0
41
1
10
0.230707112539193
20
-12.161934196277
30
0
41
1
10
0.346265877365283
20
-12.2690953042644
30
0
0
SPLINE
5
2F1
100
AcDbEntity
8
1
62
256
6
ByLayer
370
-1
48
1
60
0
100
AcDbSpline
70
4
71
3
72
8
73
4
40
0
40
0
40
0
40
0
40
1
40
1
40
1
40
1
41
1
10
0
20
9.17265517271639
30
0
41
1
10
0.115414428426249
20
9.26750437160226
30
0
41
1
10
0.230836614090947
20
9.36234098597942
30
0
41
1
10
0.346265877365255
20
9.45716611180498
30
0
0
SPLINE
5
2F2
100
AcDbEntity
8
1
62
256
6
ByLayer
370
-1
48
1
60
0
100
AcDbSpline
70
4
71
3
72
22
73
18
40
0
40
0
40
0
40
0
40
0.207675188636617
40
0.207675188636617
40
0.370644281583627
40
0.370644281583627
40
0.494997184196364
40
0.494997184196364
40
0.596186530762269
40
0.596186530762269
40
0.697879528049507
40
0.697879528049507
40
0.792807826306803
40
0.792807826306803
40
0.925276789612654
40
0.925276789612654
40
1
40
1
40
1
40
1
41
1
10
0.346265877365255
20
11.9647342870706
30
0
41
1
10
0.359372209632937
20
11.9803595415229
30
0
41
1
10
0.371647363562147
20
11.995802080732
30
0
41
1
10
0.390236131413815
20
12.0211362171773
30
0
41
1
10
0.39741732413583
20
12.0317253186461
30
0
41
1
10
0.40660963514938
20
12.0475379397915
30
0
41
1
10
0.409501414892276
20
12.0535649594317
30
0
41
1
10
0.411627869726516
20
12.061536775635
30
0
41
1
10
0.411437888994186
20
12.0640888370587
30
0
41
1
10
0.40840132201302
20
12.0663483395009
30
0
41
1
10
0.405487448283225
20
12.0660570999757
30
0
41
1
10
0.39771825370812
20
12.0628501293161
30
0
41
1
10
0.392928021107508
20
12.0600898295608
30
0
41
1
10
0.38010492766972
20
12.0514703650392
30
0
41
1
10
0.371354499046873
20
12.044714471476
30
0
41
1
10
0.357058756644648
20
12.0328337851015
30
0
41
1
10
0.35169804073729
20
12.0282147155673
30
0
41
1
10
0.346265877365255
20
12.023400427556
30
0
0
SPLINE
5
2F3
100
AcDbEntity
8
1
62
256
6
ByLayer
370
-1
48
1
60
0
100
AcDbSpline
70
4
71
3
72
8
73
4
40
0
40
0
40
0
40
0
40
1
40
1
40
1
40
1
41
1
10
0
20
11.9550307054211
30
0
41
1
10
0.150389851485187
20
12.1065997105978
30
0
41
1
10
0.300802011250568
20
12.2581465836406
30
0
41
1
10
0.45123412263473
20
12.4096736459909
30
0
0
SPLINE
5
2F4
100
AcDbEntity
8
1
62
256
6
ByLayer
370
-1
48
1
60
0
100
AcDbSpline
70
4
71
3
72
8
73
4
40
0
40
0
40
0
40
0
40
1
40
1
40
1
40
1
41
1
10
0
20
11.7159123809271
30
0
41
1
10
0.11533495691981
20
11.8185388964186
30
0
41
1
10
0.230759121535556
20
11.9210318587676
30
0
41
1
10
0.346265877365255
20
12.023400427556
30
0
0
SPLINE
5
2F5
100
AcDbEntity
8
1
62
256
6
ByLayer
370
-1
48
1
60
0
100
AcDbSpline
70
4
71
3
72
8
73
4
40
0
40
0
40
0
40
0
40
1
40
1
40
1
40
1
41
1
10
0
20
5.05409268984661
30
0
41
1
10
0.10545472559312
20
5.43725176603041
30
0
41
1
10
0.221303491542955
20
5.81676361351231
30
0
41
1
10
0.346265877365198
20
6.19202043139583
30
0
0
SPLINE
5
2F6
100
AcDbEntity
8
1
62
256
6
ByLayer
370
-1
48
1
60
0
100
AcDbSpline
70
4
71
3
72
8
73
4
40
0
40
0
40
0
40
0
40
1
40
1
40
1
40
1
41
1
10
0
20
10.8143470869748
30
0
41
1
10
0.115404887590415
20
10.9101938054917
30
0
41
1
10
0.230827288584976
20
11.0060124131739
30
0
41
1
10
0.346265877365255
20
11.1018050043141
30
0
0
SPLINE
5
2F7
100
AcDbEntity
8
1
62
256
6
ByLayer
370
-1
48
1
60
0
100
AcDbSpline
70
4
71
3
72
12
73
8
40
0
40
0
40
0
40
0
40
0.25
40
0.25
40
0.5
40
0.5
40
1
40
1
40
1
40
1
41
1
10
6.74127270972662
20
9.31083125181618
30
0
41
1
10
6.85025162700023
20
9.1370332749544
30
0
41
1
10
7.11241481195466
20
8.72797767917029
30
0
41
1
10
7.95211226573332
20
7.78063121687774
30
0
41
1
10
8.51331202938044
20
7.27442371846413
30
0
41
1
10
10.4194484332687
20
6.03121285088193
30
0
41
1
10
11.9651277213448
20
5.5607787137383
30
0
41
1
10
13.5190265095413
20
5.56077871373829
30
0
0
SPLINE
5
2F8
100
AcDbEntity
8
1
62
256
6
ByLayer
370
-1
48
1
60
0
100
AcDbSpline
70
4
71
3
72
8
73
4
40
0
40
0
40
0
40
0
40
1
40
1
40
1
40
1
41
1
10
-1.137E-13
20
-10.1047688205899
30
0
41
1
10
0.115420765530558
20
-10.1991168007114
30
0
41
1
10
0.230842757174344
20
-10.293462780903
30
0
41
1
10
0.346265877365283
20
-10.3878069201368
30
0
0
SPLINE
5
2F9
100
AcDbEntity
8
1
62
256
6
ByLayer
370
-1
48
1
60
0
100
AcDbSpline
70
4
71
3
72
8
73
4
40
0
40
0
40
0
40
0
40
1
40
1
40
1
40
1
41
1
10
8.97637809016189
20
-13.3817565381
30
0
41
1
10
8.80474193190497
20
-13.1749491488769
30
0
41
1
10
8.6332452376796
20
-12.968029231644
30
0
41
1
10
8.46190984774097
20
-12.7609797330097
30
0
0
SPLINE
5
2FA
100
AcDbEntity
8
1
62
256
6
ByLayer
370
-1
48
1
60
0
100
AcDbSpline
70
4
71
3
72
22
73
18
40
0
40
0
40
0
40
0
40
0.50859174063716
40
0.50859174063716
40
0.647845461867348
40
0.647845461867348
40
0.788896273306471
40
0.788896273306471
40
0.846386804156537
40
0.846386804156537
40
0.882332196000897
40
0.882332196000897
40
0.918719530208233
40
0.918719530208233
40
0.950428846197531
40
0.950428846197531
40
1
40
1
40
1
40
1
41
1
10
0.346265877365255
20
6.1920204313958
30
0
41
1
10
0.373388420424675
20
6.27346829376182
30
0
41
1
10
0.394971184528174
20
6.35664104750251
30
0
41
1
10
0.408625851331067
20
6.45763251998042
30
0
41
1
10
0.410693645492358
20
6.47931010629293
30
0
41
1
10
0.411644943802145
20
6.5211304545538
30
0
41
1
10
0.41069000362296
20
6.54189457324304
30
0
41
1
10
0.403655776404833
20
6.56610129268435
30
0
41
1
10
0.400831866990586
20
6.5726185213137
30
0
41
1
10
0.394339150576769
20
6.58058665555734
30
0
41
1
10
0.391310697182973
20
6.58304786763239
30
0
41
1
10
0.38428147256144
20
6.58588133170812
30
0
41
1
10
0.380158396257542
20
6.58622995625581
30
0
41
1
10
0.372090265079009
20
6.58470056389604
30
0
41
1
10
0.368104510284752
20
6.58310502244856
30
0
41
1
10
0.358092830509463
20
6.57748204639393
30
0
41
1
10
0.351999194687295
20
6.57255446522788
30
0
41
1
10
0.346265877365255
20
6.56703185455439
30
0
0
SPLINE
5
2FB
100
AcDbEntity
8
1
62
256
6
ByLayer
370
-1
48
1
60
0
100
AcDbSpline
70
4
71
3
72
22
73
18
40
0
40
0
40
0
40
0
40
0.076003412125595
40
0.076003412125595
40
0.15387019842922
40
0.15387019842922
40
0.223455688856948
40
0.223455688856948
40
0.285796807149923
40
0.285796807149923
40
0.386327790897014
40
0.386327790897014
40
0.554663739773593
40
0.554663739773593
40
0.858182253120758
40
0.858182253120758
40
1
40
1
40
1
40
1
41
1
10
0.346265877365255
20
-9.45716611180497
30
0
41
1
10
0.353080398826194
20
-9.46276424036131
30
0
41
1
10
0.36002674908471
20
-9.46776433143455
30
0
41
1
10
0.373516527129453
20
-9.47547667452697
30
0
41
1
10
0.380224615466545
20
-9.47819364590518
30
0
41
1
10
0.39121288921217
20
-9.47991266801968
30
0
41
1
10
0.395808338589916
20
-9.47928157766455
30
0
41
1
10
0.402625282773812
20
-9.4756007962355
30
0
41
1
10
0.405139438569961
20
-9.47279367063128
30
0
41
1
10
0.409875329987244
20
-9.46369612926208
30
0
41
1
10
0.411120970949412
20
-9.45622582342217
30
0
41
1
10
0.411475421061681
20
-9.43435359058292
30
0
41
1
10
0.40871843436426
20
-9.41827884048826
30
0
41
1
10
0.396869003968817
20
-9.37199306815334
30
0
41
1
10
0.384269477335408
20
-9.33961147704819
30
0
41
1
10
0.362194018163137
20
-9.29222705574227
30
0
41
1
10
0.354496231725022
20
-9.27693826039686
30
0
41
1
10
0.346265877365255
20
-9.26169711960411
30
0
0
SPLINE
5
2FC
100
AcDbEntity
8
1
62
256
6
ByLayer
370
-1
48
1
60
0
100
AcDbSpline
70
4
71
3
72
8
73
4
40
0
40
0
40
0
40
0
40
1
40
1
40
1
40
1
41
1
10
0.346265877365198
20
-6.19202043139583
30
0
41
1
10
0.221303491542955
20
-5.81676361351229
30
0
41
1
10
0.10545472559312
20
-5.43725176603041
30
0
41
1
10
0
20
-5.05409268984661
30
0
0
SPLINE
5
2FD
100
AcDbEntity
8
1
62
256
6
ByLayer
370
-1
48
1
60
0
100
AcDbSpline
70
4
71
3
72
8
73
4
40
0
40
0
40
0
40
0
40
1
40
1
40
1
40
1
41
1
10
6.02741234074554
20
10.7544078996977
30
0
41
1
10
5.70223973573331
20
11.6224570123901
30
0
41
1
10
5.6323889035933
20
12.2025634237715
30
0
41
1
10
5.60227483205347
20
12.4096736459909
30
0
0
SPLINE
5
2FE
100
AcDbEntity
8
1
62
256
6
ByLayer
370
-1
48
1
60
0
100
AcDbSpline
70
4
71
2
72
6
73
3
40
0
40
0
40
0
40
1
40
1
40
1
41
0.499999774860357
10
7.84907429324618
20
-12.4705381698451
30
0
41
0.500000225139643
10
7.5257484138014
20
-12.4701452357348
30
0
41
0.499999774860357
10
7.20249617238951
20
-12.4697470673893
30
0
0
SPLINE
5
2FF
100
AcDbEntity
8
1
62
256
6
ByLayer
370
-1
48
1
60
0
100
AcDbSpline
70
4
71
3
72
22
73
18
40
0
40
0
40
0
40
0
40
0.0937899592824883
40
0.0937899592824883
40
0.189854034426562
40
0.189854034426562
40
0.272605725624804
40
0.272605725624804
40
0.346148559318351
40
0.346148559318351
40
0.459236172195494
40
0.459236172195494
40
0.637860101421922
40
0.637860101421922
40
0.93102931569287
40
0.93102931569287
40
1
40
1
40
1
40
1
41
1
10
0.346265877365283
20
10.3878069201368
30
0
41
1
10
0.354074084013234
20
10.3941891643003
30
0
41
1
10
0.361959053222535
20
10.3999207606531
30
0
41
1
10
0.376978434313315
20
10.4088208375763
30
0
41
1
10
0.38430014974017
20
10.4120085908662
30
0
41
1
10
0.395632421950808
20
10.4141125277954
30
0
41
1
10
0.400098122400777
20
10.4135650107224
30
0
41
1
10
0.406284689033498
20
10.4098610546666
30
0
41
1
10
0.408346128861012
20
10.4069832633312
30
0
41
1
10
0.411528330630574
20
10.3978083856368
30
0
41
1
10
0.411660331481983
20
10.390400372159
30
0
41
1
10
0.408950615759494
20
10.3693495326978
30
0
41
1
10
0.404396282509708
20
10.3542127341877
30
0
41
1
10
0.388508267453517
20
10.3129918015878
30
0
41
1
10
0.374404158784216
20
10.2851494179618
30
0
41
1
10
0.35436625391759
20
10.2508990114363
30
0
41
1
10
0.350378224558852
20
10.2442989724895
30
0
41
1
10
0.346265877365255
20
10.2376995361025
30
0
0
SPLINE
5
300
100
AcDbEntity
8
1
62
256
6
ByLayer
370
-1
48
1
60
0
100
AcDbSpline
70
4
71
3
72
16
73
12
40
0
40
0
40
0
40
0
40
0.0673269423741369
40
0.0673269423741369
40
0.162312952897939
40
0.162312952897939
40
0.366244279352845
40
0.366244279352845
40
0.721308662264238
40
0.721308662264238
40
1
40
1
40
1
40
1
41
1
10
7.20403198209769
20
-3.80260568518196
30
0
41
1
10
7.14643058295343
20
-3.80004439237068
30
0
41
1
10
7.08886608923311
20
-3.78609788033043
30
0
41
1
10
6.96235210246951
20
-3.73606301896081
30
0
41
1
10
6.89525446460075
20
-3.69349058985706
30
0
41
1
10
6.70532575145873
20
-3.54888935543452
30
0
41
1
10
6.59880326774456
20
-3.43192172496663
30
0
41
1
10
6.34285847902339
20
-3.11868108230985
30
0
41
1
10
6.21446861734273
20
-2.91588033145284
30
0
41
1
10
6.06250908719642
20
-2.59231370767812
30
0
41
1
10
6.02189804846591
20
-2.45885011841848
30
0
41
1
10
6.02512943661179
20
-2.34746085559526
30
0
0
SPLINE
5
301
100
AcDbEntity
8
1
62
256
6
ByLayer
370
-1
48
1
60
0
100
AcDbSpline
70
4
71
3
72
8
73
4
40
0
40
0
40
0
40
0
40
1
40
1
40
1
40
1
41
1
10
0
20
-11.8485274577714
30
0
41
1
10
0.115001762472986
20
-11.9777309575305
30
0
41
1
10
0.230435625110601
20
-12.106423347816
30
0
41
1
10
0.346265877365255
20
-12.2346362764258
30
0
0
SPLINE
5
302
100
AcDbEntity
8
1
62
256
6
ByLayer
370
-1
48
1
60
0
100
AcDbSpline
70
4
71
3
72
8
73
4
40
0
40
0
40
0
40
0
40
1
40
1
40
1
40
1
41
1
10
0.346265877365283
20
10.3878069201368
30
0
41
1
10
0.230842757174344
20
10.293462780903
30
0
41
1
10
0.115420765530558
20
10.1991168007114
30
0
41
1
10
-1.137E-13
20
10.1047688205899
30
0
0
SPLINE
5
303
100
AcDbEntity
8
1
62
256
6
ByLayer
370
-1
48
1
60
0
100
AcDbSpline
70
4
71
3
72
8
73
4
40
0
40
0
40
0
40
0
40
1
40
1
40
1
40
1
41
1
10
0
20
10.4842192326163
30
0
41
1
10
0.114269838928095
20
10.652904136356
30
0
41
1
10
0.229729664239528
20
10.8205218195503
30
0
41
1
10
0.346265877365255
20
10.987126560104
30
0
0
SPLINE
5
304
100
AcDbEntity
8
1
62
256
6
ByLayer
370
-1
48
1
60
0
100
AcDbSpline
70
4
71
3
72
8
73
4
40
0
40
0
40
0
40
0
40
1
40
1
40
1
40
1
41
1
10
0.346265877365283
20
3.15192937208195
30
0
41
1
10
0.0033852009711381
20
1.05064312402732
30
0
41
1
10
0.0033852009711381
20
-1.0506431240273
30
0
41
1
10
0.346265877365255
20
-3.15192937208194
30
0
0
SPLINE
5
305
100
AcDbEntity
8
1
62
256
6
ByLayer
370
-1
48
1
60
0
100
AcDbSpline
70
4
71
3
72
20
73
16
40
0
40
0
40
0
40
0
40
0.353208827241179
40
0.353208827241179
40
0.501260849719145
40
0.501260849719145
40
0.652000542139395
40
0.652000542139395
40
0.732433063749092
40
0.732433063749092
40
0.813569072455397
40
0.813569072455397
40
0.886953367887478
40
0.886953367887478
40
1
40
1
40
1
40
1
41
1
10
0.346265877365255
20
-10.2376995361025
30
0
41
1
10
0.367024394813001
20
-10.2710125101625
30
0
41
1
10
0.385125926464383
20
-10.3050003885362
30
0
41
1
10
0.402490572695484
20
-10.3489824587486
30
0
41
1
10
0.406644118009922
20
-10.3617025373474
30
0
41
1
10
0.411488599477963
20
-10.3847639906631
30
0
41
1
10
0.412177663029439
20
-10.3954310328708
30
0
41
1
10
0.408445488673777
20
-10.4069467225303
30
0
41
1
10
0.406175720657586
20
-10.4101051689533
30
0
41
1
10
0.399557977012137
20
-10.413679442094
30
0
41
1
10
0.395081463021853
20
-10.4140899161444
30
0
41
1
10
0.385114609086685
20
-10.4120793834186
30
0
41
1
10
0.379655484006946
20
-10.4099187424723
30
0
41
1
10
0.365215379560397
20
-10.40225185236
30
0
41
1
10
0.355659448274849
20
-10.3954850036987
30
0
41
1
10
0.346265877365283
20
-10.3878069201368
30
0
0
SPLINE
5
306
100
AcDbEntity
8
1
62
256
6
ByLayer
370
-1
48
1
60
0
100
AcDbSpline
70
4
71
3
72
22
73
18
40
0
40
0
40
0
40
0
40
0.14712764913231
40
0.14712764913231
40
0.260485434751287
40
0.260485434751287
40
0.375168964926516
40
0.375168964926516
40
0.47256630673283
40
0.47256630673283
40
0.570229196564232
40
0.570229196564232
40
0.722117072447015
40
0.722117072447015
40
0.940988336750846
40
0.940988336750846
40
1
40
1
40
1
40
1
41
1
10
0.346265877365255
20
-12.023400427556
30
0
41
1
10
0.356868283759098
20
-12.0327968750664
30
0
41
1
10
0.367297545093294
20
-12.0415328318057
30
0
41
1
10
0.383811426077585
20
-12.0540717641356
30
0
41
1
10
0.390486692564679
20
-12.0586421363153
30
0
41
1
10
0.401383430943582
20
-12.0647065742613
30
0
41
1
10
0.40570927072099
20
-12.0662154735187
30
0
41
1
10
0.410454269801903
20
-12.065541083902
30
0
41
1
10
0.411429459743687
20
-12.063878295389
30
0
41
1
10
0.411054614865179
20
-12.0583608575976
30
0
41
1
10
0.40971409884412
20
-12.054457413458
30
0
41
1
10
0.404123992963207
20
-12.0427133159693
30
0
41
1
10
0.398626833027038
20
-12.0337262881214
30
0
41
1
10
0.382505397514137
20
-12.0100824394028
30
0
41
1
10
0.370426840784205
20
-11.9942400498638
30
0
41
1
10
0.353703980384722
20
-11.9736684794656
30
0
41
1
10
0.350024309849346
20
-11.9692150573354
30
0
41
1
10
0.346265877365255
20
-11.9647342870706
30
0
0
SPLINE
5
307
100
AcDbEntity
8
1
62
256
6
ByLayer
370
-1
48
1
60
0
100
AcDbSpline
70
4
71
3
72
26
73
22
40
0
40
0
40
0
40
0
40
0.0215505198331115
40
0.0215505198331115
40
0.525005642187974
40
0.525005642187974
40
0.824449194733949
40
0.824449194733949
40
0.89910280771347
40
0.89910280771347
40
0.924036687229077
40
0.924036687229077
40
0.938625375606082
40
0.938625375606082
40
0.950365640115396
40
0.950365640115396
40
0.962059698270156
40
0.962059698270156
40
0.976523903036288
40
0.976523903036288
40
1
40
1
40
1
40
1
41
1
10
0.346265877365255
20
-3.15192937208194
30
0
41
1
10
0.347275169430787
20
-3.15811464784565
30
0
41
1
10
0.348276170534746
20
-3.16430004271616
30
0
41
1
10
0.372416928601155
20
-3.31471564910016
30
0
41
1
10
0.391926820896885
20
-3.45946915233969
30
0
41
1
10
0.410147811892642
20
-3.68731393541643
30
0
41
1
10
0.415844835011228
20
-3.77346988155709
30
0
41
1
10
0.405949554049187
20
-3.87324528234981
30
0
41
1
10
0.403093935091135
20
-3.89331024655675
30
0
41
1
10
0.394583001608851
20
-3.91592721724609
30
0
41
1
10
0.391958926544533
20
-3.92132124998828
30
0
41
1
10
0.386527065070652
20
-3.92796446499253
30
0
41
1
10
0.384187574617414
20
-3.93002639738688
30
0
41
1
10
0.37943632959616
20
-3.93228311844915
30
0
41
1
10
0.377073515010522
20
-3.93276482232845
30
0
41
1
10
0.372244691055101
20
-3.93245325859232
30
0
41
1
10
0.36972408127238
20
-3.93166606170212
30
0
41
1
10
0.364293496737702
20
-3.92887545085794
30
0
41
1
10
0.361354553333001
20
-3.92661858176517
30
0
41
1
10
0.354145003402834
20
-3.91982820961208
30
0
41
1
10
0.350044980277261
20
-3.91468404195408
30
0
41
1
10
0.346265877371167
20
-3.90926663647136
30
0
0
SPLINE
5
308
100
AcDbEntity
8
1
62
256
6
ByLayer
370
-1
48
1
60
0
100
AcDbSpline
70
4
71
3
72
22
73
18
40
0
40
0
40
0
40
0
40
0.278994554121862
40
0.278994554121862
40
0.431992036032686
40
0.431992036032686
40
0.552666573772419
40
0.552666573772419
40
0.648553314219654
40
0.648553314219654
40
0.744960055493873
40
0.744960055493873
40
0.834535819088658
40
0.834535819088658
40
0.961189644705772
40
0.961189644705772
40
1
40
1
40
1
40
1
41
1
10
0.346265877365255
20
-11.5541511286625
30
0
41
1
10
0.363411421661198
20
-11.57638920407
30
0
41
1
10
0.379066550646996
20
-11.5986681115014
30
0
41
1
10
0.397538236924703
20
-11.6295557843882
30
0
41
1
10
0.403071023539496
20
-11.6400215441734
30
0
41
1
10
0.409569583288032
20
-11.6560087830561
30
0
41
1
10
0.411286714963666
20
-11.6622372072947
30
0
41
1
10
0.411248946879653
20
-11.6703928249904
30
0
41
1
10
0.410105628114763
20
-11.6729948760845
30
0
41
1
10
0.405335505900212
20
-11.675354983723
30
0
41
1
10
0.401617619872496
20
-11.6751126740786
30
0
41
1
10
0.392577979999487
20
-11.6719915696825
30
0
41
1
10
0.387296366402552
20
-11.6692825034614
30
0
41
1
10
0.373500436120253
20
-11.660738655423
30
0
41
1
10
0.364347430904871
20
-11.6539747618803
30
0
41
1
10
0.352129910353142
20
-11.6440472880504
30
0
41
1
10
0.349206449933632
20
-11.6416084122316
30
0
41
1
10
0.346265877365283
20
-11.6390985947187
30
0
0
SPLINE
5
309
100
AcDbEntity
8
1
62
256
6
ByLayer
370
-1
48
1
60
0
100
AcDbSpline
70
4
71
3
72
12
73
8
40
0
40
0
40
0
40
0
40
0.386680707231832
40
0.386680707231832
40
0.774363466126557
40
0.774363466126557
40
1
40
1
40
1
40
1
41
1
10
8.46190984774097
20
-12.7609797330097
30
0
41
1
10
8.40503748413479
20
-12.6922525752694
30
0
41
1
10
8.33557181563486
20
-12.6320505754356
30
0
41
1
10
8.18205780694578
20
-12.5390244154337
30
0
41
1
10
8.09580596213232
20
-12.5050043803122
30
0
41
1
10
7.95550708896428
20
-12.4760892772706
30
0
41
1
10
7.9021655990976
20
-12.4706026910772
30
0
41
1
10
7.84907429324608
20
-12.4705381698423
30
0
0
SPLINE
5
30A
100
AcDbEntity
8
1
62
256
6
ByLayer
370
-1
48
1
60
0
100
AcDbSpline
70
4
71
3
72
8
73
4
40
0
40
0
40
0
40
0
40
1
40
1
40
1
40
1
41
1
10
0.346265877365255
20
7.97637607432429
30
0
41
1
10
0.226551674694605
20
7.70813209030851
30
0
41
1
10
0.110951948162125
20
7.43737501593759
30
0
41
1
10
0
20
7.1641540266497
30
0
0
SPLINE
5
30B
100
AcDbEntity
8
1
62
256
6
ByLayer
370
-1
48
1
60
0
100
AcDbSpline
70
4
71
3
72
8
73
4
40
0
40
0
40
0
40
0
40
1
40
1
40
1
40
1
41
1
10
0.346265877365255
20
-11.1018050043141
30
0
41
1
10
0.230827288584976
20
-11.0060124131739
30
0
41
1
10
0.115404887590415
20
-10.9101938054917
30
0
41
1
10
0
20
-10.8143470869749
30
0
0
SPLINE
5
30C
100
AcDbEntity
8
1
62
256
6
ByLayer
370
-1
48
1
60
0
100
AcDbSpline
70
4
71
3
72
8
73
4
40
0
40
0
40
0
40
0
40
1
40
1
40
1
40
1
41
1
10
0.346265877365255
20
-9.45716611180497
30
0
41
1
10
0.230836614090947
20
-9.36234098597943
30
0
41
1
10
0.115414428426249
20
-9.26750437160226
30
0
41
1
10
0
20
-9.1726551727164
30
0
0
SPLINE
5
30D
100
AcDbEntity
8
1
62
256
6
ByLayer
370
-1
48
1
60
0
100
AcDbSpline
70
4
71
3
72
8
73
4
40
0
40
0
40
0
40
0
40
1
40
1
40
1
40
1
41
1
10
0
20
-9.6701914623011
30
0
41
1
10
0.113739105797208
20
-9.8607150529516
30
0
41
1
10
0.229219722500602
20
-10.0498655286572
30
0
41
1
10
0.346265877365283
20
-10.2376995361025
30
0
0
SPLINE
5
30E
100
AcDbEntity
8
1
62
256
6
ByLayer
370
-1
48
1
60
0
100
AcDbSpline
70
4
71
3
72
22
73
18
40
0
40
0
40
0
40
0
40
0.12909646557881
40
0.12909646557881
40
0.23309286199016
40
0.23309286199016
40
0.338165588650447
40
0.338165588650447
40
0.428832221516919
40
0.428832221516919
40
0.545043792869115
40
0.545043792869115
40
0.709173541959672
40
0.709173541959672
40
0.953399099907675
40
0.953399099907675
40
1
40
1
40
1
40
1
41
1
10
0.346265877365283
20
11.6390985947187
30
0
41
1
10
0.355948425049377
20
11.6473627770103
30
0
41
1
10
0.365557239060536
20
11.6549464285523
30
0
41
1
10
0.38135902531468
20
11.6658316067365
30
0
41
1
10
0.387994066200008
20
11.6697594578585
30
0
41
1
10
0.399070997344353
20
11.6745666840586
30
0
41
1
10
0.403626772714347
20
11.6754483057535
30
0
41
1
10
0.409197431365612
20
11.6738631837349
30
0
41
1
10
0.410690880175849
20
11.6718321804927
30
0
41
1
10
0.411679255294416
20
11.6649547943325
30
0
41
1
10
0.410547474357997
20
11.6594064821057
30
0
41
1
10
0.405005776545721
20
11.6439370302391
30
0
41
1
10
0.399407852916312
20
11.6329253302104
30
0
41
1
10
0.382437205879938
20
11.6040063758033
30
0
41
1
10
0.369287916310981
20
11.5847824383228
30
0
41
1
10
0.352022862222526
20
11.5616751241132
30
0
41
1
10
0.349170470757855
20
11.5579184378699
30
0
41
1
10
0.346265877365255
20
11.5541511286625
30
0
0
SPLINE
5
30F
100
AcDbEntity
8
1
62
256
6
ByLayer
370
-1
48
1
60
0
100
AcDbSpline
70
4
71
3
72
8
73
4
40
0
40
0
40
0
40
0
40
1
40
1
40
1
40
1
41
1
10
0
20
-11.0995541765226
30
0
41
1
10
0.114608295288491
20
-11.2519077114624
30
0
41
1
10
0.23005558511332
20
-11.4034243160505
30
0
41
1
10
0.346265877365255
20
-11.5541511286625
30
0
0
SPLINE
5
310
100
AcDbEntity
8
SK1
62
256
6
ByLayer
370
-1
48
1
60
0
100
AcDbSpline
70
4
71
3
72
8
73
4
40
0
40
0
40
0
40
0
40
1
40
1
40
1
40
1
41
1
10
-0.238765877365267
20
8.97640635612146
30
0
41
1
10
-0.159181106889804
20
9.0418288819516
30
0
41
1
10
-0.0795923986217701
20
9.10724502123347
30
0
41
1
10
0
20
9.17265517271639
30
0
0
SPLINE
5
311
100
AcDbEntity
8
SK1
62
256
6
ByLayer
370
-1
48
1
60
0
100
AcDbSpline
70
4
71
3
72
8
73
4
40
0
40
0
40
0
40
0
40
1
40
1
40
1
40
1
41
1
10
0
20
9.67019146230109
30
0
41
1
10
-0.080478593082205
20
9.53538232680586
30
0
41
1
10
-0.160090205844057
20
9.39987687468368
30
0
41
1
10
-0.238765877365267
20
9.26365612288765
30
0
0
SPLINE
5
312
100
AcDbEntity
8
SK1
62
256
6
ByLayer
370
-1
48
1
60
0
100
AcDbSpline
70
4
71
3
72
18
73
14
40
0
40
0
40
0
40
0
40
0.231364130267331
40
0.231364130267331
40
0.423018276302015
40
0.423018276302015
40
0.58448612678702
40
0.58448612678702
40
0.745846932488442
40
0.745846932488442
40
0.957614777614412
40
0.957614777614412
40
1
40
1
40
1
40
1
41
1
10
-0.29876587736527
20
8.98591212938507
30
0
41
1
10
-0.29876587736527
20
8.97907505018273
30
0
41
1
10
-0.297941575861017
20
8.9727703941397
30
0
41
1
10
-0.294256705909334
20
8.96351033998559
30
0
41
1
10
-0.291709473078186
20
8.96010446225606
30
0
41
1
10
-0.285251518735805
20
8.95636911104307
30
0
41
1
10
-0.281536242470622
20
8.95562459102783
30
0
41
1
10
-0.273099041772014
20
8.95635498020698
30
0
41
1
10
-0.268282440295934
20
8.9578313545357
30
0
41
1
10
-0.256765136198936
20
8.96321412954867
30
0
41
1
10
-0.249776689926478
20
8.96777615161204
30
0
41
1
10
-0.241536840072371
20
8.97416001024368
30
0
41
1
10
-0.240149961705953
20
8.97526857193253
30
0
41
1
10
-0.238765877365267
20
8.97640635612146
30
0
0
SPLINE
5
313
100
AcDbEntity
8
SK1
62
256
6
ByLayer
370
-1
48
1
60
0
100
AcDbSpline
70
4
71
3
72
10
73
6
40
0
40
0
40
0
40
0
40
0.596087017044984
40
0.596087017044984
40
1
40
1
40
1
40
1
41
1
10
-0.238765877365267
20
9.26365612288765
30
0
41
1
10
-0.258177986783465
20
9.23004557863979
30
0
41
1
10
-0.274733722240171
20
9.19569141208962
30
0
41
1
10
-0.293406206355655
20
9.14199387211551
30
0
41
1
10
-0.29876587736527
20
9.1205304502254
30
0
41
1
10
-0.29876587736527
20
9.10320707422949
30
0
0
SPLINE
5
314
100
AcDbEntity
8
SK1
62
256
6
ByLayer
370
-1
48
1
60
0
100
AcDbSpline
70
4
71
3
72
12
73
8
40
0
40
0
40
0
40
0
40
0.297414859166426
40
0.297414859166426
40
0.799854936467184
40
0.799854936467184
40
1
40
1
40
1
40
1
41
1
10
-0.29876587736527
20
-9.10320707422949
30
0
41
1
10
-0.29876587736527
20
-9.11599358348202
30
0
41
1
10
-0.295784951491669
20
-9.13110530495071
30
0
41
1
10
-0.28374599238083
20
-9.17283777111275
30
0
41
1
10
-0.271680716458263
20
-9.20126910941364
30
0
41
1
10
-0.251545879823823
20
-9.24085646295391
30
0
41
1
10
-0.245340818838969
20
-9.2522721276418
30
0
41
1
10
-0.238765877365267
20
-9.26365612288765
30
0
0
SPLINE
5
315
100
AcDbEntity
8
SK1
62
256
6
ByLayer
370
-1
48
1
60
0
100
AcDbSpline
70
4
71
3
72
16
73
12
40
0
40
0
40
0
40
0
40
0.193433579471105
40
0.193433579471105
40
0.391767673980788
40
0.391767673980788
40
0.569013280049542
40
0.569013280049542
40
0.72883115361672
40
0.72883115361672
40
1
40
1
40
1
40
1
41
1
10
-0.238765877365267
20
-8.97640635612146
30
0
41
1
10
-0.245038393437568
20
-8.97125004490378
30
0
41
1
10
-0.251435042692265
20
-8.96664634074146
30
0
41
1
10
-0.263867371760171
20
-8.95954936784649
30
0
41
1
10
-0.270054134436663
20
-8.95705473683877
30
0
41
1
10
-0.280192124794951
20
-8.95547795116543
30
0
41
1
10
-0.284433212958589
20
-8.95605705346573
30
0
41
1
10
-0.290753716088574
20
-8.95942545428665
30
0
41
1
10
-0.293092798719158
20
-8.96200588568568
30
0
41
1
10
-0.297634717199315
20
-8.97062575318351
30
0
41
1
10
-0.29876587736527
20
-8.97792240770085
30
0
41
1
10
-0.29876587736527
20
-8.98591212938508
30
0
0
SPLINE
5
316
100
AcDbEntity
8
SK1
62
256
6
ByLayer
370
-1
48
1
60
0
100
AcDbSpline
70
4
71
3
72
8
73
4
40
0
40
0
40
0
40
0
40
1
40
1
40
1
40
1
41
1
10
0
20
-9.1726551727164
30
0
41
1
10
-0.0795923986217701
20
-9.10724502123347
30
0
41
1
10
-0.159181106889804
20
-9.04182888195162
30
0
41
1
10
-0.238765877365267
20
-8.97640635612147
30
0
0
SPLINE
5
317
100
AcDbEntity
8
SK1
62
256
6
ByLayer
370
-1
48
1
60
0
100
AcDbSpline
70
4
71
3
72
8
73
4
40
0
40
0
40
0
40
0
40
1
40
1
40
1
40
1
41
1
10
-0.238765877365267
20
-9.26365612288765
30
0
41
1
10
-0.160090205844057
20
-9.3998768746837
30
0
41
1
10
-0.080478593082205
20
-9.53538232680586
30
0
41
1
10
0
20
-9.6701914623011
30
0
0
SPLINE
5
318
100
AcDbEntity
8
SK1
62
256
6
ByLayer
370
-1
48
1
60
0
100
AcDbSpline
70
4
71
3
72
8
73
4
40
0
40
0
40
0
40
0
40
1
40
1
40
1
40
1
41
1
10
0
20
-8.60124135910399
30
0
41
1
10
-0.0810089209749663
20
-8.44188252382055
30
0
41
1
10
-0.160636834672829
20
-8.28157539894052
30
0
41
1
10
-0.238765877365267
20
-8.12031070244164
30
0
0
SPLINE
5
319
100
AcDbEntity
8
SK1
62
256
6
ByLayer
370
-1
48
1
60
0
100
AcDbSpline
70
4
71
3
72
18
73
14
40
0
40
0
40
0
40
0
40
0.155962719707662
40
0.155962719707662
40
0.316191253865889
40
0.316191253865889
40
0.463249051640795
40
0.463249051640795
40
0.59433326381777
40
0.59433326381777
40
0.817301503146326
40
0.817301503146326
40
1
40
1
40
1
40
1
41
1
10
-0.238765877365267
20
7.73477536384496
30
0
41
1
10
-0.244000003617089
20
7.73027033063539
30
0
41
1
10
-0.24939895328933
20
7.72623582217693
30
0
41
1
10
-0.260148081082662
20
7.71996293203006
30
0
41
1
10
-0.265631979707933
20
7.71773050220111
30
0
41
1
10
-0.275094048606803
20
7.71624772580867
30
0
41
1
10
-0.27927304236556
20
7.71676691016663
30
0
41
1
10
-0.285796989435369
20
7.71983448026506
30
0
41
1
10
-0.288379389627295
20
7.72216561169233
30
0
41
1
10
-0.293940532646417
20
7.72993371369111
30
0
41
1
10
-0.296088840058417
20
7.73647927933084
30
0
41
1
10
-0.298344174071161
20
7.74951880175573
30
0
41
1
10
-0.29876587736527
20
7.75591705973869
30
0
41
1
10
-0.29876587736527
20
7.76255777930768
30
0
0
SPLINE
5
31A
100
AcDbEntity
8
SK1
62
256
6
ByLayer
370
-1
48
1
60
0
100
AcDbSpline
70
4
71
3
72
8
73
4
40
0
40
0
40
0
40
0
40
1
40
1
40
1
40
1
41
1
10
-0.238765877365267
20
8.12031070244166
30
0
41
1
10
-0.160636834672829
20
8.28157539894053
30
0
41
1
10
-0.0810089209749663
20
8.44188252382057
30
0
41
1
10
0
20
8.60124135910399
30
0
0
SPLINE
5
31B
100
AcDbEntity
8
SK1
62
256
6
ByLayer
370
-1
48
1
60
0
100
AcDbSpline
70
4
71
3
72
10
73
6
40
0
40
0
40
0
40
0
40
0.358354645666515
40
0.358354645666515
40
1
40
1
40
1
40
1
41
1
10
-0.29876587736527
20
7.92039724737597
30
0
41
1
10
-0.29876587736527
20
7.94125551722695
30
0
41
1
10
-0.294515007603536
20
7.9649635119265
30
0
41
1
10
-0.277470018670925
20
8.03140495798044
30
0
41
1
10
-0.260038212961973
20
8.07640287219567
30
0
41
1
10
-0.238765877365267
20
8.12031070244166
30
0
0
SPLINE
5
31C
100
AcDbEntity
8
SK1
62
256
6
ByLayer
370
-1
48
1
60
0
100
AcDbSpline
70
4
71
3
72
10
73
6
40
0
40
0
40
0
40
0
40
0.699816394681511
40
0.699816394681511
40
1
40
1
40
1
40
1
41
1
10
-0.238765877365267
20
-8.12031070244164
30
0
41
1
10
-0.261922899786072
20
-8.07251272535385
30
0
41
1
10
-0.280673182390814
20
-8.02326065273671
30
0
41
1
10
-0.295715024309288
20
-7.9575344759666
30
0
41
1
10
-0.29876587736527
20
-7.93793733713127
30
0
41
1
10
-0.29876587736527
20
-7.92039724737599
30
0
0
SPLINE
5
31D
100
AcDbEntity
8
SK1
62
256
6
ByLayer
370
-1
48
1
60
0
100
AcDbSpline
70
4
71
3
72
18
73
14
40
0
40
0
40
0
40
0
40
0.279852181851577
40
0.279852181851577
40
0.45609182131848
40
0.45609182131848
40
0.596962647630668
40
0.596962647630668
40
0.738728013213223
40
0.738728013213223
40
0.869502521555015
40
0.869502521555015
40
1
40
1
40
1
40
1
41
1
10
-0.29876587736527
20
-7.76255777930768
30
0
41
1
10
-0.29876587736527
20
-7.75245201904451
30
0
41
1
10
-0.297804401213938
20
-7.74281601282981
30
0
41
1
10
-0.293524517674939
20
-7.72973859458529
30
0
41
1
10
-0.29115326171754
20
-7.725258901564
30
0
41
1
10
-0.285267993870264
20
-7.71944942576489
30
0
41
1
10
-0.282003561316145
20
-7.71764254724292
30
0
41
1
10
-0.27442588039159
20
-7.71627318222055
30
0
41
1
10
-0.270002541715684
20
-7.71672439308087
30
0
41
1
10
-0.261125761033867
20
-7.71959297042625
30
0
41
1
10
-0.256609053618263
20
-7.72186433602899
30
0
41
1
10
-0.24766221663856
20
-7.72754832307889
30
0
41
1
10
-0.243161121055039
20
-7.73099236018138
30
0
41
1
10
-0.238765877365836
20
-7.73477536384449
30
0
0
SPLINE
5
31E
100
AcDbEntity
8
SK1
62
256
6
ByLayer
370
-1
48
1
60
0
100
AcDbSpline
70
4
71
3
72
8
73
4
40
0
40
0
40
0
40
0
40
1
40
1
40
1
40
1
41
1
10
0
20
7.94001592678256
30
0
41
1
10
-0.0796244802621118
20
7.87165805586332
30
0
41
1
10
-0.159214054156138
20
7.80324593337252
30
0
41
1
10
-0.238765877365267
20
7.73477536384496
30
0
0
SPLINE
5
31F
100
AcDbEntity
8
SK1
62
256
6
ByLayer
370
-1
48
1
60
0
100
AcDbSpline
70
4
71
3
72
8
73
4
40
0
40
0
40
0
40
0
40
1
40
1
40
1
40
1
41
1
10
-0.238765877365864
20
-7.73477536384448
30
0
41
1
10
-0.159214054156536
20
-7.8032459333722
30
0
41
1
10
-0.0796244802622823
20
-7.87165805586316
30
0
41
1
10
0
20
-7.94001592678256
30
0
0
SPLINE
5
320
100
AcDbEntity
8
SK1
62
256
6
ByLayer
370
-1
48
1
60
0
100
AcDbSpline
70
4
71
3
72
10
73
6
40
0
40
0
40
0
40
0
40
0.481083552375838
40
0.481083552375838
40
1
40
1
40
1
40
1
41
1
10
-0.29876587736527
20
3.61750184466014
30
0
41
1
10
-0.29876587736527
20
3.69371940226704
30
0
41
1
10
-0.292130917382622
20
3.77176695180694
30
0
41
1
10
-0.271987947971837
20
3.93308169944626
30
0
41
1
10
-0.257531566578876
20
4.01701318090893
30
0
41
1
10
-0.238765877365267
20
4.10032781449698
30
0
0
SPLINE
5
321
100
AcDbEntity
8
SK1
62
256
6
ByLayer
370
-1
48
1
60
0
100
AcDbSpline
70
4
71
3
72
8
73
4
40
0
40
0
40
0
40
0
40
1
40
1
40
1
40
1
41
1
10
0
20
-5.05409268984661
30
0
41
1
10
-0.0868041138065507
20
-4.73869872463547
30
0
41
1
10
-0.166625773327553
20
-4.42061055319698
30
0
41
1
10
-0.238765877365495
20
-4.10032781449706
30
0
0
SPLINE
5
322
100
AcDbEntity
8
SK1
62
256
6
ByLayer
370
-1
48
1
60
0
100
AcDbSpline
70
4
71
3
72
8
73
4
40
0
40
0
40
0
40
0
40
1
40
1
40
1
40
1
41
1
10
1.03171E-11
20
3.38841451385133
30
0
41
1
10
-0.0820185112492879
20
3.25835426295673
30
0
41
1
10
-0.161799340829702
20
3.1263553226827
30
0
41
1
10
-0.238765877365324
20
2.99224124144324
30
0
0
SPLINE
5
323
100
AcDbEntity
8
SK1
62
256
6
ByLayer
370
-1
48
1
60
0
100
AcDbSpline
70
4
71
3
72
24
73
20
40
0
40
0
40
0
40
0
40
0.0832000397086008
40
0.0832000397086008
40
0.122087539725297
40
0.122087539725297
40
0.1552386845278
40
0.1552386845278
40
0.188798997941688
40
0.188798997941688
40
0.217237575740967
40
0.217237575740967
40
0.268128981657875
40
0.268128981657875
40
0.403293075744324
40
0.403293075744324
40
0.918571691058269
40
0.918571691058269
40
1
40
1
40
1
40
1
41
1
10
-0.238765877365267
20
2.99224124144321
30
0
41
1
10
-0.242146788682021
20
2.98635000824751
30
0
41
1
10
-0.245848049758962
20
2.98064306655441
30
0
41
1
10
-0.252027155238437
20
2.97365129659056
30
0
41
1
10
-0.254141759385078
20
2.97161274048884
30
0
41
1
10
-0.258256997942595
20
2.96867919350304
30
0
41
1
10
-0.260269750215002
20
2.96764656465935
30
0
41
1
10
-0.26427534757741
20
2.96665412864262
30
0
41
1
10
-0.266321163784312
20
2.96671271228836
30
0
41
1
10
-0.269760042284929
20
2.96781969976833
30
0
41
1
10
-0.271246670612584
20
2.96871400675425
30
0
41
1
10
-0.274971164976137
20
2.97186653350602
30
0
41
1
10
-0.276968524148287
20
2.97466198029585
30
0
41
1
10
-0.283145482671983
20
2.9857430719323
30
0
41
1
10
-0.28594001102735
20
2.9956772992598
30
0
41
1
10
-0.296640081252008
20
3.04364744914943
30
0
41
1
10
-0.298070396750262
20
3.08575482779807
30
0
41
1
10
-0.298723871153499
20
3.13381259169323
30
0
41
1
10
-0.29876587736527
20
3.14040695431841
30
0
41
1
10
-0.29876587736527
20
3.14701068272913
30
0
0
SPLINE
5
324
100
AcDbEntity
8
SK1
62
256
6
ByLayer
370
-1
48
1
60
0
100
AcDbSpline
70
4
71
3
72
8
73
4
40
0
40
0
40
0
40
0
40
1
40
1
40
1
40
1
41
1
10
-0.238765877365495
20
4.10032781449706
30
0
41
1
10
-0.166625773327553
20
4.42061055319698
30
0
41
1
10
-0.0868041138065507
20
4.73869872463547
30
0
41
1
10
0
20
5.05409268984661
30
0
0
SPLINE
5
325
100
AcDbEntity
8
SK1
62
256
6
ByLayer
370
-1
48
1
60
0
100
AcDbSpline
70
4
71
3
72
24
73
20
40
0
40
0
40
0
40
0
40
0.479739039551829
40
0.479739039551829
40
0.723737062054127
40
0.723737062054127
40
0.764376308822537
40
0.764376308822537
40
0.805646615986497
40
0.805646615986497
40
0.834501279787415
40
0.834501279787415
40
0.863334099815487
40
0.863334099815487
40
0.904654852561973
40
0.904654852561973
40
0.982024721761678
40
0.982024721761678
40
1
40
1
40
1
40
1
41
1
10
-0.29876587736527
20
-3.14701068272913
30
0
41
1
10
-0.29876587736527
20
-3.10821797927608
30
0
41
1
10
-0.29769332659879
20
-3.06937700377377
30
0
41
1
10
-0.290273440450051
20
-3.01356780666677
30
0
41
1
10
-0.287129412531044
20
-2.99425411358236
30
0
41
1
10
-0.278263063775142
20
-2.97683901158274
30
0
41
1
10
-0.276801392134587
20
-2.97445264062415
30
0
41
1
10
-0.273410374353887
20
-2.97037971092668
30
0
41
1
10
-0.27142485806084
20
-2.96866530566342
30
0
41
1
10
-0.267645721871503
20
-2.96702024202355
30
0
41
1
10
-0.265935523645538
20
-2.96670953496111
30
0
41
1
10
-0.262474891376485
20
-2.96696639244001
30
0
41
1
10
-0.260686982208199
20
-2.96753276948952
30
0
41
1
10
-0.256525856462758
20
-2.96968656220989
30
0
41
1
10
-0.254161631987387
20
-2.97161482624802
30
0
41
1
10
-0.247908877898794
20
-2.97793518037429
30
0
41
1
10
-0.244301250766569
20
-2.98308443845151
30
0
41
1
10
-0.24025416758758
20
-2.98968703294486
30
0
41
1
10
-0.239502827138551
20
-2.99095710750392
30
0
41
1
10
-0.238765877367683
20
-2.99224124143902
30
0
0
SPLINE
5
326
100
AcDbEntity
8
SK1
62
256
6
ByLayer
370
-1
48
1
60
0
100
AcDbSpline
70
4
71
3
72
8
73
4
40
0
40
0
40
0
40
0
40
1
40
1
40
1
40
1
41
1
10
-0.238765877367655
20
-2.99224124143915
30
0
41
1
10
-0.161799340834676
20
-3.12635532267417
30
0
41
1
10
-0.0820185112570755
20
-3.2583542629439
30
0
41
1
10
-4.263E-13
20
-3.38841451383432
30
0
0
SPLINE
5
327
100
AcDbEntity
8
SK1
62
256
6
ByLayer
370
-1
48
1
60
0
100
AcDbSpline
70
4
71
3
72
10
73
6
40
0
40
0
40
0
40
0
40
0.518916447624164
40
0.518916447624164
40
1
40
1
40
1
40
1
41
1
10
-0.238765877365267
20
-4.10032781449698
30
0
41
1
10
-0.257531566578876
20
-4.01701318090893
30
0
41
1
10
-0.271987947971837
20
-3.93308169944626
30
0
41
1
10
-0.292130917382622
20
-3.77176695180694
30
0
41
1
10
-0.29876587736527
20
-3.69371940226705
30
0
41
1
10
-0.29876587736527
20
-3.61750184466014
30
0
0
SPLINE
5
328
100
AcDbEntity
8
SK1
62
256
6
ByLayer
370
-1
48
1
60
0
100
AcDbSpline
70
4
71
3
72
8
73
4
40
0
40
0
40
0
40
0
40
1
40
1
40
1
40
1
41
1
10
-0.238765877365267
20
5.99605109952111
30
0
41
1
10
-0.159381307385502
20
6.07463617565884
30
0
41
1
10
-0.0797852962249692
20
6.15293718980229
30
0
41
1
10
0
20
6.23097929041342
30
0
0
SPLINE
5
329
100
AcDbEntity
8
SK1
62
256
6
ByLayer
370
-1
48
1
60
0
100
AcDbSpline
70
4
71
3
72
8
73
4
40
0
40
0
40
0
40
0
40
1
40
1
40
1
40
1
41
1
10
0
20
7.1641540266497
30
0
41
1
10
-0.0821982891991127
20
6.96173939342538
30
0
41
1
10
-0.161864666216957
20
6.75792418630598
30
0
41
1
10
-0.238765877365296
20
6.55275263116678
30
0
0
SPLINE
5
32A
100
AcDbEntity
8
SK1
62
256
6
ByLayer
370
-1
48
1
60
0
100
AcDbSpline
70
4
71
3
72
8
73
4
40
0
40
0
40
0
40
0
40
1
40
1
40
1
40
1
41
1
10
0
20
-6.2309792904134
30
0
41
1
10
-0.0797852962249692
20
-6.15293718980229
30
0
41
1
10
-0.159381307385502
20
-6.07463617565884
30
0
41
1
10
-0.238765877365267
20
-5.99605109952111
30
0
0
SPLINE
5
32B
100
AcDbEntity
8
SK1
62
256
6
ByLayer
370
-1
48
1
60
0
100
AcDbSpline
70
4
71
3
72
20
73
16
40
0
40
0
40
0
40
0
40
0.371557089871401
40
0.371557089871401
40
0.54796745611351
40
0.54796745611351
40
0.651761826966437
40
0.651761826966437
40
0.756978995077812
40
0.756978995077812
40
0.847809177992069
40
0.847809177992069
40
0.983214186629639
40
0.983214186629639
40
1
40
1
40
1
40
1
41
1
10
-0.29876587736527
20
6.05334533602297
30
0
41
1
10
-0.29876587736527
20
6.03618474628615
30
0
41
1
10
-0.297586840943779
20
6.01928195538792
30
0
41
1
10
-0.291587129137326
20
5.99799381625229
30
0
41
1
10
-0.288918731985348
20
5.99158924089926
30
0
41
1
10
-0.282851335326797
20
5.98388507734103
30
0
41
1
10
-0.2801396360382
20
5.9815454505343
30
0
41
1
10
-0.273836631334916
20
5.97871974620085
30
0
41
1
10
-0.270131204618537
20
5.97825755441343
30
0
41
1
10
-0.26289799927315
20
5.97942600754413
30
0
41
1
10
-0.259337776708946
20
5.98077647349041
30
0
41
1
10
-0.250654077105821
20
5.98553157239985
30
0
41
1
10
-0.245471323006882
20
5.98964617933623
30
0
41
1
10
-0.239978694875276
20
5.99486240648923
30
0
41
1
10
-0.239370582162792
20
5.99545248474797
30
0
41
1
10
-0.238765877352563
20
5.99605109948618
30
0
0
SPLINE
5
32C
100
AcDbEntity
8
SK1
62
256
6
ByLayer
370
-1
48
1
60
0
100
AcDbSpline
70
4
71
3
72
8
73
4
40
0
40
0
40
0
40
0
40
1
40
1
40
1
40
1
41
1
10
-0.238765877365296
20
-6.55275263116677
30
0
41
1
10
-0.161864666216957
20
-6.75792418630598
30
0
41
1
10
-0.0821982891991127
20
-6.96173939342538
30
0
41
1
10
0
20
-7.16415402664968
30
0
0
SPLINE
5
32D
100
AcDbEntity
8
SK1
62
256
6
ByLayer
370
-1
48
1
60
0
100
AcDbSpline
70
4
71
3
72
10
73
6
40
0
40
0
40
0
40
0
40
0.819455868218799
40
0.819455868218799
40
1
40
1
40
1
40
1
41
1
10
-0.238765877365267
20
6.55275263116675
30
0
41
1
10
-0.266587606639973
20
6.47852457445978
30
0
41
1
10
-0.287582546423039
20
6.40182222649028
30
0
41
1
10
-0.29763016643679
20
6.31387340961507
30
0
41
1
10
-0.29876587736527
20
6.29797221549205
30
0
41
1
10
-0.29876587736527
20
6.28267507326143
30
0
0
SPLINE
5
32E
100
AcDbEntity
8
SK1
62
256
6
ByLayer
370
-1
48
1
60
0
100
AcDbSpline
70
4
71
3
72
20
73
16
40
0
40
0
40
0
40
0
40
0.137921400070282
40
0.137921400070282
40
0.235836963560455
40
0.235836963560455
40
0.334552114107333
40
0.334552114107333
40
0.424407727099833
40
0.424407727099833
40
0.578099622764308
40
0.578099622764308
40
0.873815550805933
40
0.873815550805933
40
1
40
1
40
1
40
1
41
1
10
-0.238765877365267
20
-5.99605109952111
30
0
41
1
10
-0.243677414243194
20
-5.99118902746351
30
0
41
1
10
-0.248892622815816
20
-5.98681268459779
30
0
41
1
10
-0.257906474560826
20
-5.98141021194542
30
0
41
1
10
-0.261754067843839
20
-5.97976375138758
30
0
41
1
10
-0.269058185841516
20
-5.9783098270895
30
0
41
1
10
-0.272598628226689
20
-5.97851856163167
30
0
41
1
10
-0.27850492948312
20
-5.98060936605074
30
0
41
1
10
-0.281020959805176
20
-5.98234184140836
30
0
41
1
10
-0.286836328686718
20
-5.9882834782829
30
0
41
1
10
-0.289574712930801
20
-5.99342361840961
30
0
41
1
10
-0.295631057684289
20
-6.00986238258204
30
0
41
1
10
-0.297443395295431
20
-6.02275721056145
30
0
41
1
10
-0.298611388991873
20
-6.04167041093768
30
0
41
1
10
-0.29876587736527
20
-6.04747194175164
30
0
41
1
10
-0.29876587736527
20
-6.05334533602297
30
0
0
SPLINE
5
32F
100
AcDbEntity
8
SK1
62
256
6
ByLayer
370
-1
48
1
60
0
100
AcDbSpline
70
4
71
3
72
10
73
6
40
0
40
0
40
0
40
0
40
0.530419996776523
40
0.530419996776523
40
1
40
1
40
1
40
1
41
1
10
-0.29876587736527
20
-6.28267507326142
30
0
41
1
10
-0.29876587736527
20
-6.32700950789096
30
0
41
1
10
-0.29020998218445
20
-6.37573892309631
30
0
41
1
10
-0.268219532290971
20
-6.46660789749895
30
0
41
1
10
-0.25481659894939
20
-6.50992948886065
30
0
41
1
10
-0.238765877365267
20
-6.55275263116677
30
0
0
SPLINE
5
330
100
AcDbEntity
8
SK1
62
256
6
ByLayer
370
-1
48
1
60
0
100
AcDbSpline
70
4
71
3
72
8
73
4
40
0
40
0
40
0
40
0
40
1
40
1
40
1
40
1
41
1
10
0
20
-11.5480021180099
30
0
41
1
10
-0.0798848200118982
20
-11.4509241806265
30
0
41
1
10
-0.159479868968901
20
-11.3535270823981
30
0
41
1
10
-0.238765877365267
20
-11.2557967883171
30
0
0
SPLINE
5
331
100
AcDbEntity
8
SK1
62
256
6
ByLayer
370
-1
48
1
60
0
100
AcDbSpline
70
4
71
3
72
8
73
4
40
0
40
0
40
0
40
0
40
1
40
1
40
1
40
1
41
1
10
-0.238765877365267
20
-9.90959092048166
30
0
41
1
10
-0.159177858211592
20
-9.97465120998778
30
0
41
1
10
-0.0795892207059126
20
-10.0397104909339
30
0
41
1
10
-1.137E-13
20
-10.1047688205899
30
0
0
SPLINE
5
332
100
AcDbEntity
8
SK1
62
256
6
ByLayer
370
-1
48
1
60
0
100
AcDbSpline
70
4
71
3
72
8
73
4
40
0
40
0
40
0
40
0
40
1
40
1
40
1
40
1
41
1
10
0
20
-10.4842192326163
30
0
41
1
10
-0.0801862240620892
20
-10.3658484917975
30
0
41
1
10
-0.159789338391789
20
-10.2469475923676
30
0
41
1
10
-0.238765877365267
20
-10.1274974017296
30
0
0
SPLINE
5
333
100
AcDbEntity
8
SK1
62
256
6
ByLayer
370
-1
48
1
60
0
100
AcDbSpline
70
4
71
3
72
12
73
8
40
0
40
0
40
0
40
0
40
0.573995963408261
40
0.573995963408261
40
0.883237318344663
40
0.883237318344663
40
1
40
1
40
1
40
1
41
1
10
-0.238765877365267
20
-10.1274974017296
30
0
41
1
10
-0.257126354705463
20
-10.0997276039264
30
0
41
1
10
-0.273233723682324
20
-10.0714721889067
30
0
41
1
10
-0.290502439897068
20
-10.0317043742365
30
0
41
1
10
-0.295238975170918
20
-10.0181423168519
30
0
41
1
10
-0.298291467288777
20
-10.0019764534974
30
0
41
1
10
-0.29876587736527
20
-9.99776023823972
30
0
41
1
10
-0.29876587736527
20
-9.9939514465682
30
0
0
SPLINE
5
334
100
AcDbEntity
8
SK1
62
256
6
ByLayer
370
-1
48
1
60
0
100
AcDbSpline
70
4
71
3
72
16
73
12
40
0
40
0
40
0
40
0
40
0.21465801150329
40
0.21465801150329
40
0.433974712539642
40
0.433974712539642
40
0.628894734527343
40
0.628894734527343
40
0.810218601981051
40
0.810218601981051
40
1
40
1
40
1
40
1
41
1
10
-0.29876587736527
20
-9.90509617908728
30
0
41
1
10
-0.29876587736527
20
-9.89991843015498
30
0
41
1
10
-0.297928870707324
20
-9.89536820681532
30
0
41
1
10
-0.294052756620886
20
-9.88857909029605
30
0
41
1
10
-0.290875331874162
20
-9.88633662419321
30
0
41
1
10
-0.282770923805742
20
-9.8852826702057
30
0
41
1
10
-0.27796878789357
20
-9.8861133087654
30
0
41
1
10
-0.267751432123589
20
-9.88997157391211
30
0
41
1
10
-0.26229731401645
20
-9.89286375870753
30
0
41
1
10
-0.250878967960631
20
-9.9001472912572
30
0
41
1
10
-0.244805851873764
20
-9.90465346262921
30
0
41
1
10
-0.238765877365267
20
-9.90959092048168
30
0
0
SPLINE
5
335
100
AcDbEntity
8
SK1
62
256
6
ByLayer
370
-1
48
1
60
0
100
AcDbSpline
70
4
71
3
72
12
73
8
40
0
40
0
40
0
40
0
40
0.334159016265323
40
0.334159016265323
40
0.785142639537227
40
0.785142639537227
40
1
40
1
40
1
40
1
41
1
10
-0.29876587736527
20
9.99395144656819
30
0
41
1
10
-0.29876587736527
20
10.0046742975357
30
0
41
1
10
-0.295057916091821
20
10.0185740298973
30
0
41
1
10
-0.282130682144668
20
10.05271997426
30
0
41
1
10
-0.271156331256407
20
10.074343234747
30
0
41
1
10
-0.252315399761443
20
10.106434498115
30
0
41
1
10
-0.245726673726779
20
10.1169693580449
30
0
41
1
10
-0.238765877365267
20
10.1274974017296
30
0
0
SPLINE
5
336
100
AcDbEntity
8
SK1
62
256
6
ByLayer
370
-1
48
1
60
0
100
AcDbSpline
70
4
71
3
72
8
73
4
40
0
40
0
40
0
40
0
40
1
40
1
40
1
40
1
41
1
10
-0.238765877365267
20
10.1274974017296
30
0
41
1
10
-0.159789338391789
20
10.2469475923676
30
0
41
1
10
-0.0801862240620892
20
10.3658484917975
30
0
41
1
10
0
20
10.4842192326163
30
0
0
SPLINE
5
337
100
AcDbEntity
8
SK1
62
256
6
ByLayer
370
-1
48
1
60
0
100
AcDbSpline
70
4
71
3
72
16
73
12
40
0
40
0
40
0
40
0
40
0.228549310179964
40
0.228549310179964
40
0.462777162604809
40
0.462777162604809
40
0.664452649220864
40
0.664452649220864
40
0.844763102553302
40
0.844763102553302
40
1
40
1
40
1
40
1
41
1
10
-0.238765877365267
20
9.90959092048166
30
0
41
1
10
-0.246008246130742
20
9.90367054938056
30
0
41
1
10
-0.253321397934627
20
9.89835531107175
30
0
41
1
10
-0.267244857910583
20
9.89010267447617
30
0
41
1
10
-0.274027522908966
20
9.88714943684971
30
0
41
1
10
-0.284502863770939
20
9.88518313170721
30
0
41
1
10
-0.288620246190476
20
9.88567189364898
30
0
41
1
10
-0.294323386407029
20
9.88904418677447
30
0
41
1
10
-0.296214446551943
20
9.8916848989353
30
0
41
1
10
-0.298326684128796
20
9.89789820701844
30
0
41
1
10
-0.29876587736527
20
9.901326026715
30
0
41
1
10
-0.29876587736527
20
9.90509617908728
30
0
0
SPLINE
5
338
100
AcDbEntity
8
SK1
62
256
6
ByLayer
370
-1
48
1
60
0
100
AcDbSpline
70
4
71
3
72
8
73
4
40
0
40
0
40
0
40
0
40
1
40
1
40
1
40
1
41
1
10
-1.137E-13
20
10.1047688205899
30
0
41
1
10
-0.0795892207059126
20
10.0397104909339
30
0
41
1
10
-0.159177858211592
20
9.9746512099878
30
0
41
1
10
-0.238765877365267
20
9.90959092048166
30
0
0
SPLINE
5
339
100
AcDbEntity
8
SK1
62
256
6
ByLayer
370
-1
48
1
60
0
100
AcDbSpline
70
4
71
3
72
8
73
4
40
0
40
0
40
0
40
0
40
1
40
1
40
1
40
1
41
1
10
-0.238765877365267
20
10.6159838617232
30
0
41
1
10
-0.159185900775327
20
10.6821188157543
30
0
41
1
10
-0.0795971164004925
20
10.748239640664
30
0
41
1
10
0
20
10.8143470869748
30
0
0
SPLINE
5
33A
100
AcDbEntity
8
SK1
62
256
6
ByLayer
370
-1
48
1
60
0
100
AcDbSpline
70
4
71
3
72
12
73
8
40
0
40
0
40
0
40
0
40
0.52543165796393
40
0.52543165796393
40
0.815757207557959
40
0.815757207557959
40
1
40
1
40
1
40
1
41
1
10
-0.238765877365267
20
10.7792431311741
30
0
41
1
10
-0.255379109730001
20
10.7567475464128
30
0
41
1
10
-0.27034588896646
20
10.7340820414756
30
0
41
1
10
-0.287573524473885
20
10.7022379463445
30
0
41
1
10
-0.292629687149542
20
10.6913138956421
30
0
41
1
10
-0.297621894307184
20
10.6759163113556
30
0
41
1
10
-0.29876587736527
20
10.6704607773984
30
0
41
1
10
-0.29876587736527
20
10.6660560656891
30
0
0
SPLINE
5
33B
100
AcDbEntity
8
SK1
62
256
6
ByLayer
370
-1
48
1
60
0
100
AcDbSpline
70
4
71
3
72
16
73
12
40
0
40
0
40
0
40
0
40
0.2096782408889
40
0.2096782408889
40
0.422880221604212
40
0.422880221604212
40
0.619995482772675
40
0.619995482772675
40
0.869457005193572
40
0.869457005193572
40
1
40
1
40
1
40
1
41
1
10
-0.298765877365298
20
10.5995397936377
30
0
41
1
10
-0.298765877365298
20
10.5955120372414
30
0
41
1
10
-0.29785402330657
20
10.5922399845028
30
0
41
1
10
-0.293849319830144
20
10.58807856899
30
0
41
1
10
-0.290643767309604
20
10.5872022240513
30
0
41
1
10
-0.282622200099581
20
10.5882078098061
30
0
41
1
10
-0.277855489883962
20
10.5898910548946
30
0
41
1
10
-0.266055538090001
20
10.5958109717812
30
0
41
1
10
-0.258592672110865
20
10.6006630651702
30
0
41
1
10
-0.246975821648618
20
10.6093199070543
30
0
41
1
10
-0.242879346175925
20
10.6125653627193
30
0
41
1
10
-0.238765877365267
20
10.6159838617232
30
0
0
SPLINE
5
33C
100
AcDbEntity
8
SK1
62
256
6
ByLayer
370
-1
48
1
60
0
100
AcDbSpline
70
4
71
3
72
8
73
4
40
0
40
0
40
0
40
0
40
1
40
1
40
1
40
1
41
1
10
0
20
11.0995541765226
30
0
41
1
10
-0.080005291008888
20
10.9931998426727
30
0
41
1
10
-0.159603446789845
20
10.8864351048867
30
0
41
1
10
-0.238765877365267
20
10.7792431311741
30
0
0
SPLINE
5
33D
100
AcDbEntity
8
SK1
62
256
6
ByLayer
370
-1
48
1
60
0
100
AcDbSpline
70
4
71
3
72
16
73
12
40
0
40
0
40
0
40
0
40
0.292491579582493
40
0.292491579582493
40
0.527631995282122
40
0.527631995282122
40
0.765166109719466
40
0.765166109719466
40
0.97059714519833
40
0.97059714519833
40
1
40
1
40
1
40
1
41
1
10
-0.238765877365267
20
11.1388165661098
30
0
41
1
10
-0.247837214062542
20
11.1310439474749
30
0
41
1
10
-0.256829760825184
20
11.1239037323205
30
0
41
1
10
-0.271558256549156
20
11.1136371742293
30
0
41
1
10
-0.277718386787626
20
11.1099214964727
30
0
41
1
10
-0.287948077838706
20
11.1053063028291
30
0
41
1
10
-0.292121988616742
20
11.1044002778149
30
0
41
1
10
-0.297140012927798
20
11.1056941402468
30
0
41
1
10
-0.298428795335383
20
11.1074954259507
30
0
41
1
10
-0.298746081603156
20
11.1106138309926
30
0
41
1
10
-0.298765877368936
20
11.1110280281527
30
0
41
1
10
-0.298765877368936
20
11.1114606311129
30
0
0
SPLINE
5
33E
100
AcDbEntity
8
SK1
62
256
6
ByLayer
370
-1
48
1
60
0
100
AcDbSpline
70
4
71
3
72
8
73
4
40
0
40
0
40
0
40
0
40
1
40
1
40
1
40
1
41
1
10
0
20
11.3432293866236
30
0
41
1
10
-0.0796116290942734
20
11.2751276199598
30
0
41
1
10
-0.159200675789634
20
11.2069906389168
30
0
41
1
10
-0.238765877365267
20
11.1388165661098
30
0
0
SPLINE
5
33F
100
AcDbEntity
8
SK1
62
256
6
ByLayer
370
-1
48
1
60
0
100
AcDbSpline
70
4
71
3
72
8
73
4
40
0
40
0
40
0
40
0
40
1
40
1
40
1
40
1
41
1
10
-0.238765877365267
20
11.2557967883171
30
0
41
1
10
-0.159479868968901
20
11.3535270823981
30
0
41
1
10
-0.0798848200118982
20
11.4509241806265
30
0
41
1
10
0
20
11.5480021180099
30
0
0
SPLINE
5
340
100
AcDbEntity
8
SK1
62
256
6
ByLayer
370
-1
48
1
60
0
100
AcDbSpline
70
4
71
3
72
12
73
8
40
0
40
0
40
0
40
0
40
0.253957747132074
40
0.253957747132074
40
0.582089054619914
40
0.582089054619914
40
1
40
1
40
1
40
1
41
1
10
-0.298765877365298
20
11.1590966693763
30
0
41
1
10
-0.29876587736527
20
11.1633235063877
30
0
41
1
10
-0.296663419366013
20
11.1695667994603
30
0
41
1
10
-0.288791107664821
20
11.1859990663606
30
0
41
1
10
-0.282045506154418
20
11.1970807629067
30
0
41
1
10
-0.264101945293163
20
11.2234935642837
30
0
41
1
10
-0.251913376698269
20
11.2395907892735
30
0
41
1
10
-0.238765877365267
20
11.2557967883171
30
0
0
SPLINE
5
341
100
AcDbEntity
8
SK1
62
256
6
ByLayer
370
-1
48
1
60
0
100
AcDbSpline
70
4
71
3
72
12
73
8
40
0
40
0
40
0
40
0
40
0.484332075892093
40
0.484332075892093
40
0.759599113932283
40
0.759599113932283
40
1
40
1
40
1
40
1
41
1
10
-0.238765877365267
20
-11.2557967883171
30
0
41
1
10
-0.253947320922464
20
-11.2370836890777
30
0
41
1
10
-0.267914047667574
20
-11.2184369514559
30
0
41
1
10
-0.284918456751626
20
-11.1923133728769
30
0
41
1
10
-0.290177835347833
20
-11.1832967108164
30
0
41
1
10
-0.296877828596564
20
-11.1689238453736
30
0
41
1
10
-0.29876587736527
20
-11.1631048086578
30
0
41
1
10
-0.298765877365298
20
-11.1590966693763
30
0
0
SPLINE
5
342
100
AcDbEntity
8
SK1
62
256
6
ByLayer
370
-1
48
1
60
0
100
AcDbSpline
70
4
71
3
72
16
73
12
40
0
40
0
40
0
40
0
40
0.210039912463107
40
0.210039912463107
40
0.422600373301738
40
0.422600373301738
40
0.625709443917088
40
0.625709443917088
40
0.912004007402002
40
0.912004007402002
40
1
40
1
40
1
40
1
41
1
10
-0.29876587736527
20
-11.1114606311163
30
0
41
1
10
-0.29876587736527
20
-11.1084130121703
30
0
41
1
10
-0.297746293284973
20
-11.1062733994642
30
0
41
1
10
-0.293484377719807
20
-11.1044554474082
30
0
41
1
10
-0.290149978961608
20
-11.1047962449267
30
0
41
1
10
-0.281919625731803
20
-11.1078100000203
30
0
41
1
10
-0.277015883809611
20
-11.1103984677619
30
0
41
1
10
-0.264189867832783
20
-11.1184878603832
30
0
41
1
10
-0.255663847027563
20
-11.1248436274716
30
0
41
1
10
-0.244257279562163
20
-11.1341627417141
30
0
41
1
10
-0.241520089959209
20
-11.136456666478
30
0
41
1
10
-0.238765877365267
20
-11.1388165661098
30
0
0
SPLINE
5
343
100
AcDbEntity
8
SK1
62
256
6
ByLayer
370
-1
48
1
60
0
100
AcDbSpline
70
4
71
3
72
14
73
10
40
0
40
0
40
0
40
0
40
0.398059746195393
40
0.398059746195393
40
0.69332369379723
40
0.69332369379723
40
0.922806602741038
40
0.922806602741038
40
1
40
1
40
1
40
1
41
1
10
-0.238765877365267
20
11.5788099647078
30
0
41
1
10
-0.251174659992955
20
11.564714644084
30
0
41
1
10
-0.262840240377841
20
11.5508559119363
30
0
41
1
10
-0.279922046802881
20
11.5290447140746
30
0
41
1
10
-0.286311380066678
20
11.5203057387915
30
0
41
1
10
-0.294552822892086
20
11.5073910162738
30
0
41
1
10
-0.297152754621379
20
11.502528709658
30
0
41
1
10
-0.298577488330949
20
11.4979555647165
30
0
41
1
10
-0.29876587736527
20
11.4969534311447
30
0
41
1
10
-0.29876587736527
20
11.4961352182612
30
0
0
SPLINE
5
344
100
AcDbEntity
8
SK1
62
256
6
ByLayer
370
-1
48
1
60
0
100
AcDbSpline
70
4
71
3
72
8
73
4
40
0
40
0
40
0
40
0
40
1
40
1
40
1
40
1
41
1
10
0
20
11.8485274577714
30
0
41
1
10
-0.0798004508245356
20
11.7588723315613
30
0
41
1
10
-0.159393454826983
20
11.6689702792148
30
0
41
1
10
-0.238765877365267
20
11.5788099647078
30
0
0
SPLINE
5
345
100
AcDbEntity
8
SK1
62
256
6
ByLayer
370
-1
48
1
60
0
100
AcDbSpline
70
4
71
3
72
14
73
10
40
0
40
0
40
0
40
0
40
0.212950562836663
40
0.212950562836663
40
0.427428050810884
40
0.427428050810884
40
0.640050359310837
40
0.640050359310837
40
1
40
1
40
1
40
1
41
1
10
-0.298765877365298
20
11.4653334394072
30
0
41
1
10
-0.298765877365298
20
11.4632300242236
30
0
41
1
10
-0.297616838400671
20
11.4622038288371
30
0
41
1
10
-0.293036027323183
20
11.4626507621602
30
0
41
1
10
-0.289531278889285
20
11.4641459722421
30
0
41
1
10
-0.280923527143187
20
11.4691883037868
30
0
41
1
10
-0.275751144194516
20
11.4727574768906
30
0
41
1
10
-0.260733018879335
20
11.4840987776231
30
0
41
1
10
-0.24984315026856
20
11.4932597388786
30
0
41
1
10
-0.238765877365267
20
11.5031454669806
30
0
0
SPLINE
5
346
100
AcDbEntity
8
SK1
62
256
6
ByLayer
370
-1
48
1
60
0
100
AcDbSpline
70
4
71
3
72
8
73
4
40
0
40
0
40
0
40
0
40
1
40
1
40
1
40
1
41
1
10
-0.238765877365267
20
11.5031454669806
30
0
41
1
10
-0.159221330323163
20
11.5741336759854
30
0
41
1
10
-0.0796319116662971
20
11.64505489041
30
0
41
1
10
0
20
11.7159123809271
30
0
0
SPLINE
5
347
100
AcDbEntity
8
SK1
62
256
6
ByLayer
370
-1
48
1
60
0
100
AcDbSpline
70
4
71
3
72
14
73
10
40
0
40
0
40
0
40
0
40
0.322986443618753
40
0.322986443618753
40
0.570965853381241
40
0.570965853381241
40
0.821832336284767
40
0.821832336284767
40
1
40
1
40
1
40
1
41
1
10
-0.238765877365267
20
-11.5031454669806
30
0
41
1
10
-0.248738130945043
20
-11.4942458950088
30
0
41
1
10
-0.258530665092337
20
-11.4859559893805
30
0
41
1
10
-0.273942062548628
20
-11.4740242858109
30
0
41
1
10
-0.28013509697189
20
-11.4696579187186
30
0
41
1
10
-0.290168207869527
20
-11.4637651762911
30
0
41
1
10
-0.294102839154249
20
-11.4622189878207
30
0
41
1
10
-0.297964519279333
20
-11.4625513755992
30
0
41
1
10
-0.298765877365298
20
-11.4635650918897
30
0
41
1
10
-0.298765877365298
20
-11.4653334394072
30
0
0
SPLINE
5
348
100
AcDbEntity
8
SK1
62
256
6
ByLayer
370
-1
48
1
60
0
100
AcDbSpline
70
4
71
3
72
14
73
10
40
0
40
0
40
0
40
0
40
0.242050302543071
40
0.242050302543071
40
0.536389825503336
40
0.536389825503336
40
0.949282256315957
40
0.949282256315957
40
1
40
1
40
1
40
1
41
1
10
-0.29876587736527
20
-11.4961352182612
30
0
41
1
10
-0.29876587736527
20
-11.498666489242
30
0
41
1
10
-0.296910420715108
20
-11.5030232937529
30
0
41
1
10
-0.28995594190755
20
-11.5149862169268
30
0
41
1
10
-0.284176055445983
20
-11.5232580950904
30
0
41
1
10
-0.26788309470976
20
-11.5447002958532
30
0
41
1
10
-0.256130001342797
20
-11.5588906375721
30
0
41
1
10
-0.241949322257568
20
-11.5751837517705
30
0
41
1
10
-0.240365079560121
20
-11.576993407165
30
0
41
1
10
-0.238765877365267
20
-11.5788099647078
30
0
0
SPLINE
5
349
100
AcDbEntity
8
SK1
62
256
6
ByLayer
370
-1
48
1
60
0
100
AcDbSpline
70
4
71
3
72
16
73
12
40
0
40
0
40
0
40
0
40
0.261334481281272
40
0.261334481281272
40
0.480926293513676
40
0.480926293513676
40
0.702467905700653
40
0.702467905700653
40
0.897306639604516
40
0.897306639604516
40
1
40
1
40
1
40
1
41
1
10
-0.238765877365267
20
-10.6159838617232
30
0
41
1
10
-0.246933690799978
20
-10.6091959988815
30
0
41
1
10
-0.255105225208354
20
-10.6030392244446
30
0
41
1
10
-0.269018448199176
20
-10.5941866909431
30
0
41
1
10
-0.275067758048976
20
-10.5910318483189
30
0
41
1
10
-0.285353755871881
20
-10.5874900519906
30
0
41
1
10
-0.289701245004579
20
-10.5871056806544
30
0
41
1
10
-0.295447130297077
20
-10.5891482342205
30
0
41
1
10
-0.297219003298949
20
-10.5912502493987
30
0
41
1
10
-0.298548138973644
20
-10.5957450822788
30
0
41
1
10
-0.298765877365298
20
-10.5975482439017
30
0
41
1
10
-0.298765877365298
20
-10.5995397936377
30
0
0
SPLINE
5
34A
100
AcDbEntity
8
SK1
62
256
6
ByLayer
370
-1
48
1
60
0
100
AcDbSpline
70
4
71
3
72
12
73
8
40
0
40
0
40
0
40
0
40
0.269166044990058
40
0.269166044990058
40
0.640990785123442
40
0.640990785123442
40
1
40
1
40
1
40
1
41
1
10
-0.29876587736527
20
-10.6660560656891
30
0
41
1
10
-0.29876587736527
20
-10.6724375981006
30
0
41
1
10
-0.296360985002479
20
-10.6810273129771
30
0
41
1
10
-0.287309657354115
20
-10.7033515105428
30
0
41
1
10
-0.27927917237156
20
-10.7182345266058
30
0
41
1
10
-0.260787526217712
20
-10.7482809922032
30
0
41
1
10
-0.250205346169054
20
-10.7637532172037
30
0
41
1
10
-0.238765877365267
20
-10.7792431311741
30
0
0
SPLINE
5
34B
100
AcDbEntity
8
SK1
62
256
6
ByLayer
370
-1
48
1
60
0
100
AcDbSpline
70
4
71
3
72
8
73
4
40
0
40
0
40
0
40
0
40
1
40
1
40
1
40
1
41
1
10
-0.238765877365267
20
-10.7792431311741
30
0
41
1
10
-0.159603446789845
20
-10.8864351048867
30
0
41
1
10
-0.080005291008888
20
-10.9931998426727
30
0
41
1
10
0
20
-11.0995541765226
30
0
0
SPLINE
5
34C
100
AcDbEntity
8
SK1
62
256
6
ByLayer
370
-1
48
1
60
0
100
AcDbSpline
70
4
71
3
72
8
73
4
40
0
40
0
40
0
40
0
40
1
40
1
40
1
40
1
41
1
10
0
20
-10.8143470869749
30
0
41
1
10
-0.0795971164004925
20
-10.748239640664
30
0
41
1
10
-0.159185900775327
20
-10.6821188157543
30
0
41
1
10
-0.238765877365267
20
-10.6159838617232
30
0
0
SPLINE
5
34D
100
AcDbEntity
8
1
62
256
6
ByLayer
370
-1
48
1
60
0
100
AcDbSpline
70
4
71
3
72
12
73
8
40
0
40
0
40
0
40
0
40
0.551530897336997
40
0.551530897336997
40
0.901245334834381
40
0.901245334834381
40
1
40
1
40
1
40
1
41
1
10
21.8442048250126
20
-14.3041378250272
30
0
41
1
10
21.8680801464245
20
-14.3062893582302
30
0
41
1
10
21.8950106043393
20
-14.3140925962227
30
0
41
1
10
21.9368387626621
20
-14.3404485929382
30
0
41
1
10
21.9529395076504
20
-14.3543939615973
30
0
41
1
10
21.9708398994039
20
-14.3770783010447
30
0
41
1
10
21.9746615425488
20
-14.3824419428899
30
0
41
1
10
21.97826611404
20
-14.388094357436
30
0
0
SPLINE
5
34E
100
AcDbEntity
8
1
62
256
6
ByLayer
370
-1
48
1
60
0
100
AcDbSpline
70
4
71
3
72
10
73
6
40
0
40
0
40
0
40
0
40
0.335161959918881
40
0.335161959918881
40
1
40
1
40
1
40
1
41
1
10
18.4371698955949
20
-5.75332754217081
30
0
41
1
10
18.4284466130665
20
-5.73847175652747
30
0
41
1
10
18.4196962632057
20
-5.72343269284211
30
0
41
1
10
18.3937815160928
20
-5.67852073949617
30
0
41
1
10
18.376586352953
20
-5.64824009805192
30
0
41
1
10
18.3599880565446
20
-5.61845456628126
30
0
0
SPLINE
5
34F
100
AcDbEntity
8
1
62
256
6
ByLayer
370
-1
48
1
60
0
100
AcDbSpline
70
4
71
3
72
12
73
8
40
0
40
0
40
0
40
0
40
0.551530897337
40
0.551530897337
40
0.901245334834383
40
0.901245334834383
40
1
40
1
40
1
40
1
41
1
10
24.3118096581105
20
-4.60620444807287
30
0
41
1
10
24.3060761038545
20
-4.5755311936244
30
0
41
1
10
24.3034892095831
20
-4.54006920855954
30
0
41
1
10
24.311240868956
20
-4.47945747649774
30
0
41
1
10
24.3173595926684
20
-4.45466463541787
30
0
41
1
10
24.3302576350567
20
-4.42396460800809
30
0
41
1
10
24.333453586718
20
-4.41718226547593
30
0
41
1
10
24.3369749534934
20
-4.41051908752647
30
0
0
SPLINE
5
350
100
AcDbEntity
8
1
62
256
6
ByLayer
370
-1
48
1
60
0
100
AcDbSpline
70
4
71
3
72
12
73
8
40
0
40
0
40
0
40
0
40
0.551530897336998
40
0.551530897336998
40
0.90124533483438
40
0.90124533483438
40
1
40
1
40
1
40
1
41
1
10
14.5575238894621
20
-7.3757512840706
30
0
41
1
10
14.5376556924904
20
-7.38683301537088
30
0
41
1
10
14.5117088253412
20
-7.3982955656658
30
0
41
1
10
14.4599424576881
20
-7.41046328508439
30
0
41
1
10
14.4369652155682
20
-7.41365590777539
30
0
41
1
10
14.4054128137416
20
-7.41405519064521
30
0
41
1
10
14.3982405472935
20
-7.41391143460415
30
0
41
1
10
14.3909747475257
20
-7.41350934985746
30
0
0
SPLINE
5
351
100
AcDbEntity
8
1
62
256
6
ByLayer
370
-1
48
1
60
0
100
AcDbSpline
70
4
71
3
72
8
73
4
40
0
40
0
40
0
40
0
40
1
40
1
40
1
40
1
41
1
10
24.0130020216988
20
-8.81624036113503
30
0
41
1
10
23.9639506283311
20
-8.81913123710956
30
0
41
1
10
23.9116561150882
20
-8.82067198684769
30
0
41
1
10
23.8598642349701
20
-8.82082658519053
30
0
0
SPLINE
5
352
100
AcDbEntity
8
1
62
256
6
ByLayer
370
-1
48
1
60
0
100
AcDbSpline
70
4
71
3
72
8
73
4
40
0
40
0
40
0
40
0
40
1
40
1
40
1
40
1
41
1
10
18.3599880565446
20
-12.04777455783
30
0
41
1
10
18.3849211543572
20
-12.0083723464801
30
0
41
1
10
18.4112739555358
20
-11.9649545152563
30
0
41
1
10
18.4371698955949
20
-11.9206990256148
30
0
0
SPLINE
5
353
100
AcDbEntity
8
1
62
256
6
ByLayer
370
-1
48
1
60
0
100
AcDbSpline
70
4
71
3
72
34
73
30
40
0
40
0
40
0
40
0
40
0.0514465755209408
40
0.0514465755209408
40
0.135786144735407
40
0.135786144735407
40
0.203131635218863
40
0.203131635218863
40
0.270315608875092
40
0.270315608875092
40
0.337431278535927
40
0.337431278535927
40
0.404515897625519
40
0.404515897625519
40
0.499929883690865
40
0.499929883690865
40
0.599210771748119
40
0.599210771748119
40
0.697083019894214
40
0.697083019894214
40
0.780957226922741
40
0.780957226922741
40
0.84754641439326
40
0.84754641439326
40
0.898875235580361
40
0.898875235580361
40
0.980803570703552
40
0.980803570703552
40
1
40
1
40
1
40
1
41
1
10
20.6384777274168
20
-10.2490197052502
30
0
41
1
10
20.6339947717878
20
-10.2347377938152
30
0
41
1
10
20.6268712598601
20
-10.2211872065378
30
0
41
1
10
20.6040570099722
20
-10.188846982306
30
0
41
1
10
20.5855240632311
20
-10.1714990726245
30
0
41
1
10
20.5491396609248
20
-10.1449357186021
30
0
41
1
10
20.5315954139646
20
-10.1345876864752
30
0
41
1
10
20.49516987202
20
-10.1165176329178
30
0
41
1
10
20.4761685497477
20
-10.1087351262756
30
0
41
1
10
20.4373204846987
20
-10.095411443813
30
0
41
1
10
20.4173878993251
20
-10.0898417002913
30
0
41
1
10
20.3770104233657
20
-10.0807310630809
30
0
41
1
10
20.3564953396334
20
-10.0771749867632
30
0
41
1
10
20.3065401116926
20
-10.0708852922284
30
0
41
1
10
20.2768213099036
20
-10.0691070774704
30
0
41
1
10
20.2164241830676
20
-10.0693023328781
30
0
41
1
10
20.185561443174
20
-10.0714303148055
30
0
41
1
10
20.1253063154781
20
-10.079766492944
30
0
41
1
10
20.0956962853916
20
-10.0859396451836
30
0
41
1
10
20.042492627168
20
-10.1014656223845
30
0
41
1
10
20.0184811123405
20
-10.110282477234
30
0
41
1
10
19.9774928537383
20
-10.1294306385184
30
0
41
1
10
19.9599740969323
20
-10.1391292269535
30
0
41
1
10
19.9310118954599
20
-10.1587596337183
30
0
41
1
10
19.9190237515542
20
-10.1681824009284
30
0
41
1
10
19.8908488220448
20
-10.1949240038526
30
0
41
1
10
19.8757873606961
20
-10.2141802540793
30
0
41
1
10
19.8640722047354
20
-10.2408491270298
30
0
41
1
10
19.8621242865135
20
-10.2461391634426
30
0
41
1
10
19.8605457529822
20
-10.251534649798
30
0
0
SPLINE
5
354
100
AcDbEntity
8
1
62
256
6
ByLayer
370
-1
48
1
60
0
100
AcDbSpline
70
4
71
3
72
24
73
20
40
0
40
0
40
0
40
0
40
0.0380198325519295
40
0.0380198325519295
40
0.246834654675065
40
0.246834654675065
40
0.40472650566348
40
0.40472650566348
40
0.526150637963
40
0.526150637963
40
0.621531995503802
40
0.621531995503802
40
0.776890538332217
40
0.776890538332217
40
0.873684213898093
40
0.873684213898093
40
0.971746172255096
40
0.971746172255096
40
1
40
1
40
1
40
1
41
1
10
19.4133134788959
20
-7.41016790667786
30
0
41
1
10
19.4188017647261
20
-7.40702909889083
30
0
41
1
10
19.4243274777678
20
-7.40394987981827
30
0
41
1
10
19.4603784652323
20
-7.38438318140342
30
0
41
1
10
19.4920094823085
20
-7.36960465676817
30
0
41
1
10
19.5489191284096
20
-7.347498419342
30
0
41
1
10
19.5739727026966
20
-7.33919467210163
30
0
41
1
10
19.6188553742084
20
-7.32731330613399
30
0
41
1
10
19.6386284018446
20
-7.32306929169934
30
0
41
1
10
19.674036345392
20
-7.31767075421949
30
0
41
1
10
19.6897083395485
20
-7.31604147860884
30
0
41
1
10
19.7304110741084
20
-7.31433671074667
30
0
41
1
10
19.7557995236791
20
-7.31581933556281
30
0
41
1
10
19.7935745786088
20
-7.32484359655472
30
0
41
1
10
19.8075091671422
20
-7.33003103881231
30
0
41
1
10
19.831476578234
20
-7.34420324519907
30
0
41
1
10
19.8417272855797
20
-7.35349817244266
30
0
41
1
10
19.8509211655302
20
-7.3671846804682
30
0
41
1
10
19.8527639670119
20
-7.37041321473934
30
0
41
1
10
19.8543543915614
20
-7.37372979794352
30
0
0
SPLINE
5
355
100
AcDbEntity
8
1
62
256
6
ByLayer
370
-1
48
1
60
0
100
AcDbSpline
70
4
71
3
72
8
73
4
40
0
40
0
40
0
40
0
40
1
40
1
40
1
40
1
41
1
10
19.8605457529822
20
-10.251534649798
30
0
41
1
10
19.8584819527642
20
-10.2585887957481
30
0
41
1
10
19.8564181657988
20
-10.2656429173938
30
0
41
1
10
19.8543543915614
20
-10.2726970156964
30
0
0
SPLINE
5
356
100
AcDbEntity
8
1
62
256
6
ByLayer
370
-1
48
1
60
0
100
AcDbSpline
70
4
71
3
72
8
73
4
40
0
40
0
40
0
40
0
40
1
40
1
40
1
40
1
41
1
10
20.645107372313
20
-10.2701406226403
30
0
41
1
10
20.6428975011763
20
-10.2631003404314
30
0
41
1
10
20.6406876196865
20
-10.2560600349543
30
0
41
1
10
20.6384777274168
20
-10.2490197052502
30
0
0
SPLINE
5
357
100
AcDbEntity
8
1
62
256
6
ByLayer
370
-1
48
1
60
0
100
AcDbSpline
70
4
71
3
72
22
73
18
40
0
40
0
40
0
40
0
40
0.097371265984687
40
0.097371265984687
40
0.180296832630718
40
0.180296832630718
40
0.307445080803026
40
0.307445080803026
40
0.41197841851487
40
0.41197841851487
40
0.516185210011068
40
0.516185210011068
40
0.62025014529189
40
0.62025014529189
40
0.829289859626039
40
0.829289859626039
40
1
40
1
40
1
40
1
41
1
10
20.645107372313
20
-7.3711734048874
30
0
41
1
10
20.6507793348302
20
-7.35992823660237
30
0
41
1
10
20.6595782036799
20
-7.34958968869498
30
0
41
1
10
20.679916342594
20
-7.33424893591119
30
0
41
1
10
20.6910504889257
20
-7.3284770800809
30
0
41
1
10
20.7210610845259
20
-7.31745501031098
30
0
41
1
10
20.7413486845199
20
-7.31382718264959
30
0
41
1
10
20.7786531274804
20
-7.3112043280442
30
0
41
1
10
20.795917574631
20
-7.31146967434245
30
0
41
1
10
20.8302669343032
20
-7.31410951410668
30
0
41
1
10
20.8474623070153
20
-7.31648805997592
30
0
41
1
10
20.8815190166589
20
-7.32285199682862
30
0
41
1
10
20.8984405846057
20
-7.32684849059169
30
0
41
1
10
20.9486726068188
20
-7.34081811211198
30
0
41
1
10
20.9815625873877
20
-7.35279230957053
30
0
41
1
10
21.0393949508791
20
-7.3780915502103
30
0
41
1
10
21.0648081049988
20
-7.39083090116401
30
0
41
1
10
21.0894230312228
20
-7.40474928047577
30
0
0
SPLINE
5
358
100
AcDbEntity
8
1
62
256
6
ByLayer
370
-1
48
1
60
0
100
AcDbSpline
70
4
71
3
72
24
73
20
40
0
40
0
40
0
40
0
40
0.0380198325519175
40
0.0380198325519175
40
0.246834654675049
40
0.246834654675049
40
0.404726505663456
40
0.404726505663456
40
0.526150637962981
40
0.526150637962981
40
0.621531995503794
40
0.621531995503794
40
0.77689053833221
40
0.77689053833221
40
0.873684213898088
40
0.873684213898088
40
0.971746172255093
40
0.971746172255093
40
1
40
1
40
1
40
1
41
1
10
21.9274778073863
20
-8.83178877433978
30
0
41
1
10
21.9274778073863
20
-8.83803090420307
30
0
41
1
10
21.9274025374265
20
-8.84426985291427
30
0
41
1
10
21.9264255172545
20
-8.88467873827621
30
0
41
1
10
21.9233494651254
20
-8.91878592621055
30
0
41
1
10
21.913625095827
20
-8.97758612530106
30
0
41
1
10
21.908009151388
20
-9.002654883068
30
0
41
1
10
21.8951180087383
20
-9.04580918596498
30
0
41
1
10
21.8885028217666
20
-9.06424022490384
30
0
41
1
10
21.8745519755927
20
-9.09592169847053
30
0
41
1
10
21.867650265952
20
-9.1094873175074
30
0
41
1
10
21.8472843369271
20
-9.14316671757476
30
0
41
1
10
21.8321246143565
20
-9.16261415950714
30
0
41
1
10
21.8028784730087
20
-9.18722034829696
30
0
41
1
10
21.7902651583523
20
-9.19511535763391
30
0
41
1
10
21.7633775668039
20
-9.20530519218451
30
0
41
1
10
21.7486781180483
20
-9.20757370727009
30
0
41
1
10
21.7301831358474
20
-9.206128133524
30
0
41
1
10
21.725994358492
20
-9.20552277115065
30
0
41
1
10
21.7218527781327
20
-9.20465525195193
30
0
0
SPLINE
5
359
100
AcDbEntity
8
1
62
256
6
ByLayer
370
-1
48
1
60
0
100
AcDbSpline
70
4
71
3
72
34
73
30
40
0
40
0
40
0
40
0
40
0.0514465755209372
40
0.0514465755209372
40
0.135786144735402
40
0.135786144735402
40
0.203131635218859
40
0.203131635218859
40
0.270315608875093
40
0.270315608875093
40
0.337431278535929
40
0.337431278535929
40
0.404515897625517
40
0.404515897625517
40
0.499929883690859
40
0.499929883690859
40
0.59921077174812
40
0.59921077174812
40
0.697083019894202
40
0.697083019894202
40
0.780957226922731
40
0.780957226922731
40
0.847546414393251
40
0.847546414393251
40
0.898875235580357
40
0.898875235580357
40
0.980803570703553
40
0.980803570703553
40
1
40
1
40
1
40
1
41
1
10
19.8605457529822
20
-7.39076273530708
30
0
41
1
10
19.8647323483794
20
-7.4022804204447
30
0
41
1
10
19.8715599295484
20
-7.41307078722849
30
0
41
1
10
19.8936401816953
20
-7.43856483022535
30
0
41
1
10
19.9117496530494
20
-7.45196287863898
30
0
41
1
10
19.947458888357
20
-7.47222878053198
30
0
41
1
10
19.9647288086467
20
-7.48001809892003
30
0
41
1
10
20.0006629998759
20
-7.49350520097875
30
0
41
1
10
20.0194456198615
20
-7.49924781647748
30
0
41
1
10
20.057912111444
20
-7.5090124674057
30
0
41
1
10
20.0776809784726
20
-7.51305516881409
30
0
41
1
10
20.1177869047034
20
-7.5196329935207
30
0
41
1
10
20.1381936894653
20
-7.52217893814812
30
0
41
1
10
20.1879550240128
20
-7.52666014031801
30
0
41
1
10
20.2176164922763
20
-7.52790359088706
30
0
41
1
10
20.2780136191123
20
-7.52770833547936
30
0
41
1
10
20.3089384311131
20
-7.5261593156815
30
0
41
1
10
20.3694380144748
20
-7.5201032369206
30
0
41
1
10
20.3992294220957
20
-7.51562183848813
30
0
41
1
10
20.4528769024735
20
-7.50423550196079
30
0
41
1
10
20.4771368355695
20
-7.49773570667902
30
0
41
1
10
20.5186455242123
20
-7.4834417270615
30
0
41
1
10
20.5364223171365
20
-7.47614990629324
30
0
41
1
10
20.5658878392155
20
-7.46121409720922
30
0
41
1
10
20.5781119777641
20
-7.45399251129064
30
0
41
1
10
20.6069339758448
20
-7.43328627940804
30
0
41
1
10
20.6224410188641
20
-7.41818608130717
30
0
41
1
10
20.634727969865
20
-7.39685048427266
30
0
41
1
10
20.6367874528361
20
-7.39260104028871
30
0
41
1
10
20.6384777274168
20
-7.38824779075932
30
0
0
SPLINE
5
35A
100
AcDbEntity
8
1
62
256
6
ByLayer
370
-1
48
1
60
0
100
AcDbSpline
70
4
71
3
72
22
73
18
40
0
40
0
40
0
40
0
40
0.0973712659846841
40
0.0973712659846841
40
0.180296832630711
40
0.180296832630711
40
0.307445080803013
40
0.307445080803013
40
0.411978418514851
40
0.411978418514851
40
0.516185210011033
40
0.516185210011033
40
0.620250145291853
40
0.620250145291853
40
0.82928985962599
40
0.82928985962599
40
1
40
1
40
1
40
1
41
1
10
21.7218527781327
20
-8.42969684297313
30
0
41
1
10
21.7358505738112
20
-8.42944183059636
30
0
41
1
10
21.7505964766833
20
-8.43230598098619
30
0
41
1
10
21.7763056254345
20
-8.44285822491982
30
0
41
1
10
21.7878100432715
20
-8.44984236696499
30
0
41
1
10
21.8144011875229
20
-8.47076072924797
30
0
41
1
10
21.8286549209575
20
-8.4866675023468
30
0
41
1
10
21.8509673168392
20
-8.51780507228081
30
0
41
1
10
21.8598688557797
20
-8.53290537125967
30
0
41
1
10
21.8755663801638
20
-8.56394301638268
30
0
41
1
10
21.8824168231391
20
-8.57997797531371
30
0
41
1
10
21.8944239577764
20
-8.61252099059891
30
0
41
1
10
21.8996018681729
20
-8.62908645907143
30
0
41
1
10
21.9130005516456
20
-8.67926799258977
30
0
41
1
10
21.9191272508183
20
-8.71347698730224
30
0
41
1
10
21.9259721721633
20
-8.77567753899191
30
0
41
1
10
21.9274778073863
20
-8.80379286253439
30
0
41
1
10
21.9274778073863
20
-8.83178877433978
30
0
0
SPLINE
5
35B
100
AcDbEntity
8
1
62
256
6
ByLayer
370
-1
48
1
60
0
100
AcDbSpline
70
4
71
3
72
8
73
4
40
0
40
0
40
0
40
0
40
1
40
1
40
1
40
1
41
1
10
18.7776089857416
20
-9.21417357761067
30
0
41
1
10
18.78420141242
20
-9.21211050795526
30
0
41
1
10
18.7907938762845
20
-9.21004744191238
30
0
41
1
10
18.7973863788683
20
-9.20798437963171
30
0
0
SPLINE
5
35C
100
AcDbEntity
8
1
62
256
6
ByLayer
370
-1
48
1
60
0
100
AcDbSpline
70
4
71
3
72
22
73
18
40
0
40
0
40
0
40
0
40
0.1420576087393
40
0.1420576087393
40
0.351004812992946
40
0.351004812992946
40
0.487763342942041
40
0.487763342942041
40
0.591529353509534
40
0.591529353509534
40
0.758694969227162
40
0.758694969227162
40
0.858776631808951
40
0.858776631808951
40
0.960359919517439
40
0.960359919517439
40
1
40
1
40
1
40
1
41
1
10
18.5752587027324
20
-8.84262602674396
30
0
41
1
10
18.5752587027324
20
-8.865919023594
30
0
41
1
10
18.5762913774193
20
-8.88918116387765
30
0
41
1
10
18.58146905824
20
-8.94617084078764
30
0
41
1
10
18.5868463177661
20
-8.97985737984325
30
0
41
1
10
18.6001817030094
20
-9.03400830624739
30
0
41
1
10
18.6066376416592
20
-9.05511454908176
30
0
41
1
10
18.6204528927781
20
-9.09093983896025
30
0
41
1
10
18.6272433806365
20
-9.10602926907653
30
0
41
1
10
18.6474078431614
20
-9.14341111320837
30
0
41
1
10
18.6625418823719
20
-9.16510889558107
30
0
41
1
10
18.691871197506
20
-9.19267201665907
30
0
41
1
10
18.7042757334385
20
-9.20152382577245
30
0
41
1
10
18.7310336178344
20
-9.21360502436443
30
0
41
1
10
18.7458402016426
20
-9.21681411667279
30
0
41
1
10
18.7661428596407
20
-9.21616398793381
30
0
41
1
10
18.7719258509197
20
-9.21542691415056
30
0
41
1
10
18.7776089857416
20
-9.21417357761068
30
0
0
SPLINE
5
35D
100
AcDbEntity
8
1
62
256
6
ByLayer
370
-1
48
1
60
0
100
AcDbSpline
70
4
71
3
72
34
73
30
40
0
40
0
40
0
40
0
40
0.0514465755209355
40
0.0514465755209355
40
0.135786144735399
40
0.135786144735399
40
0.203131635218856
40
0.203131635218856
40
0.270315608875081
40
0.270315608875081
40
0.337431278535914
40
0.337431278535914
40
0.404515897625498
40
0.404515897625498
40
0.499929883690866
40
0.499929883690866
40
0.599210771748118
40
0.599210771748118
40
0.697083019894211
40
0.697083019894211
40
0.780957226922734
40
0.780957226922734
40
0.847546414393253
40
0.847546414393253
40
0.898875235580359
40
0.898875235580359
40
0.980803570703554
40
0.980803570703554
40
1
40
1
40
1
40
1
41
1
10
21.7016371015307
20
-9.19859534593675
30
0
41
1
10
21.6879672855098
20
-9.19449767459899
30
0
41
1
10
21.6736110357145
20
-9.19301723880639
30
0
41
1
10
21.6365317117281
20
-9.19436585427928
30
0
41
1
10
21.6135908639698
20
-9.20037658956097
30
0
41
1
10
21.5745404994643
20
-9.21633596017088
30
0
41
1
10
21.5576768383098
20
-9.22539672922468
30
0
41
1
10
21.5253653462572
20
-9.24612316339065
30
0
41
1
10
21.5098104442678
20
-9.25785649277671
30
0
41
1
10
21.4800311265773
20
-9.28331335184657
30
0
41
1
10
21.465741691053
20
-9.29709355681919
30
0
41
1
10
21.4384737753829
20
-9.32625452949442
30
0
41
1
10
21.4254484511444
20
-9.34168632962785
30
0
41
1
10
21.3955455815699
20
-9.38063505294852
30
0
41
1
10
21.3792590812247
20
-9.40494299160008
30
0
41
1
10
21.3490605178067
20
-9.45656035434638
30
0
41
1
10
21.3351733227142
20
-9.48411703906655
30
0
41
1
10
21.3112623267634
20
-9.54033812305875
30
0
41
1
10
21.3011021493552
20
-9.56916796609778
30
0
41
1
10
21.2862905125959
20
-9.62350099020767
30
0
41
1
10
21.2810117067153
20
-9.64905530251487
30
0
41
1
10
21.2752321537376
20
-9.69498140033072
30
0
41
1
10
21.2739563849175
20
-9.71546224157876
30
0
41
1
10
21.2747139525894
20
-9.75132213765029
30
0
41
1
10
21.2760615996502
20
-9.7668870086417
30
0
41
1
10
21.2829137452491
20
-9.80600913581489
30
0
41
1
10
21.290554625023
20
-9.82966530299974
30
0
41
1
10
21.3059094378244
20
-9.8545020384245
30
0
41
1
10
21.3091513869314
20
-9.8591028547835
30
0
41
1
10
21.3126711143134
20
-9.8634414904449
30
0
0
SPLINE
5
35E
100
AcDbEntity
8
1
62
256
6
ByLayer
370
-1
48
1
60
0
100
AcDbSpline
70
4
71
3
72
8
73
4
40
0
40
0
40
0
40
0
40
1
40
1
40
1
40
1
41
1
10
19.1863523660856
20
-7.77634095011234
30
0
41
1
10
19.1818967097456
20
-7.77203118506745
30
0
41
1
10
19.1774410801087
20
-7.76772145962158
30
0
41
1
10
19.1729854761175
20
-7.76341177220618
30
0
0
SPLINE
5
35F
100
AcDbEntity
8
1
62
256
6
ByLayer
370
-1
48
1
60
0
100
AcDbSpline
70
4
71
3
72
8
73
4
40
0
40
0
40
0
40
0
40
1
40
1
40
1
40
1
41
1
10
19.1729854761174
20
-9.88742058098023
30
0
41
1
10
19.1774410801087
20
-9.8817189301097
30
0
41
1
10
19.1818967097456
20
-9.87601726320047
30
0
41
1
10
19.1863523660856
20
-9.87031557959212
30
0
0
SPLINE
5
360
100
AcDbEntity
8
1
62
256
6
ByLayer
370
-1
48
1
60
0
100
AcDbSpline
70
4
71
3
72
30
73
26
40
0
40
0
40
0
40
0
40
0.051519488930985
40
0.051519488930985
40
0.0928771460763235
40
0.0928771460763235
40
0.148185150442192
40
0.148185150442192
40
0.20333892304326
40
0.20333892304326
40
0.287955708682657
40
0.287955708682657
40
0.372427214532586
40
0.372427214532586
40
0.435367147735143
40
0.435367147735143
40
0.498971020782845
40
0.498971020782845
40
0.701334348038902
40
0.701334348038902
40
0.838887327921259
40
0.838887327921259
40
0.925006664597016
40
0.925006664597016
40
1
40
1
40
1
40
1
41
1
10
18.7973863788683
20
-9.20798437963172
30
0
41
1
10
18.8107598346574
20
-9.20379928120364
30
0
41
1
10
18.8248201536939
20
-9.2022269786448
30
0
41
1
10
18.8497825427432
20
-9.20299019377671
30
0
41
1
10
18.8609266161305
20
-9.20460846003969
30
0
41
1
10
18.8864525682063
20
-9.21061721456067
30
0
41
1
10
18.9007980008177
20
-9.21577818506691
30
0
41
1
10
18.9285507503861
20
-9.22846396512492
30
0
41
1
10
18.9420540571224
20
-9.23602797353529
30
0
41
1
10
18.9751292849157
20
-9.25744043568623
30
0
41
1
10
18.9942592160363
20
-9.27258028014239
30
0
41
1
10
19.0304690261356
20
-9.30578561553575
30
0
41
1
10
19.047669053815
20
-9.32396453670032
30
0
41
1
10
19.07593482299
20
-9.35769236972669
30
0
41
1
10
19.087489422639
20
-9.37278792088854
30
0
41
1
10
19.1095554766791
20
-9.40422240775304
30
0
41
1
10
19.120083780434
20
-9.42061477887627
30
0
41
1
10
19.1610895043432
20
-9.49043931679114
30
0
41
1
10
19.1866049340703
20
-9.54895534717211
30
0
41
1
10
19.2143220031259
20
-9.64985972805165
30
0
41
1
10
19.2216361751678
20
-9.69238562526331
30
0
41
1
10
19.2226569512198
20
-9.7603171126012
30
0
41
1
10
19.220385102914
20
-9.78668225850366
30
0
41
1
10
19.2084401957748
20
-9.83275998027952
30
0
41
1
10
19.1994729047066
20
-9.85352587359134
30
0
41
1
10
19.1863523660856
20
-9.87031557959212
30
0
0
SPLINE
5
361
100
AcDbEntity
8
1
62
256
6
ByLayer
370
-1
48
1
60
0
100
AcDbSpline
70
4
71
3
72
22
73
18
40
0
40
0
40
0
40
0
40
0.0973712659846855
40
0.0973712659846855
40
0.180296832630712
40
0.180296832630712
40
0.307445080803013
40
0.307445080803013
40
0.411978418514854
40
0.411978418514854
40
0.516185210011033
40
0.516185210011033
40
0.620250145291847
40
0.620250145291847
40
0.829289859625971
40
0.829289859625971
40
1
40
1
40
1
40
1
41
1
10
19.8543543915614
20
-10.2726970156964
30
0
41
1
10
19.8489790430339
20
-10.2867087771424
30
0
41
1
10
19.8404746448262
20
-10.2997939266691
30
0
41
1
10
19.820621311812
20
-10.3196565858137
30
0
41
1
10
19.8096926391503
20
-10.327344946158
30
0
41
1
10
19.780137066286
20
-10.3426111272411
30
0
41
1
10
19.7600741748265
20
-10.348334867827
30
0
41
1
10
19.7231052478423
20
-10.3540871641904
30
0
41
1
10
19.7059675724446
20
-10.3550042498641
30
0
41
1
10
19.6718345616269
20
-10.3543823501894
30
0
41
1
10
19.6547294793748
20
-10.3528459661129
30
0
41
1
10
19.6208269498665
20
-10.3479201060957
30
0
41
1
10
19.6039695097377
20
-10.344521748594
30
0
41
1
10
19.5539001785297
20
-10.3320695869292
30
0
41
1
10
19.5210798937923
20
-10.3207454599911
30
0
41
1
10
19.4633249800955
20
-10.2961686130333
30
0
41
1
10
19.4379284051199
20
-10.2835838999197
30
0
41
1
10
19.4133134788959
20
-10.269665520608
30
0
0
SPLINE
5
362
100
AcDbEntity
8
1
62
256
6
ByLayer
370
-1
48
1
60
0
100
AcDbSpline
70
4
71
3
72
24
73
20
40
0
40
0
40
0
40
0
40
0.038019832551983
40
0.038019832551983
40
0.246834654675118
40
0.246834654675118
40
0.404726505663515
40
0.404726505663515
40
0.526150637963032
40
0.526150637963032
40
0.621531995503831
40
0.621531995503831
40
0.776890538332233
40
0.776890538332233
40
0.873684213898108
40
0.873684213898108
40
0.971746172255107
40
0.971746172255107
40
1
40
1
40
1
40
1
41
1
10
21.0894230312228
20
-7.40474928047577
30
0
41
1
10
21.094911317053
20
-7.40785260255203
30
0
41
1
10
21.1003621782874
20
-7.41101623240331
30
0
41
1
10
21.1354415804784
20
-7.43190911201263
30
0
41
1
10
21.164013487395
20
-7.45139579731692
30
0
41
1
10
21.211254857939
20
-7.48861295939113
30
0
41
1
10
21.2307253487341
20
-7.50568447222135
30
0
41
1
10
21.262796096958
20
-7.53769630803035
30
0
41
1
10
21.275995565862
20
-7.55227160957789
30
0
41
1
10
21.2975446698069
20
-7.57941271405853
30
0
41
1
10
21.3063617076326
20
-7.59178513734571
30
0
41
1
10
21.326842557125
20
-7.62510330371012
30
0
41
1
10
21.3371835880719
20
-7.64708085757
30
0
41
1
10
21.3459512581354
20
-7.6829382490062
30
0
41
1
10
21.3473802688364
20
-7.69702558901176
30
0
41
1
10
21.3447048504869
20
-7.72367058758147
30
0
41
1
10
21.3403975558362
20
-7.73655333934967
30
0
41
1
10
21.3312858954809
20
-7.75056124575262
30
0
41
1
10
21.3289835634193
20
-7.75359149444553
30
0
41
1
10
21.326476287757
20
-7.75644983960356
30
0
0
SPLINE
5
363
100
AcDbEntity
8
1
62
256
6
ByLayer
370
-1
48
1
60
0
100
AcDbSpline
70
4
71
3
72
22
73
18
40
0
40
0
40
0
40
0
40
0.0973712659846902
40
0.0973712659846902
40
0.180296832630714
40
0.180296832630714
40
0.307445080803025
40
0.307445080803025
40
0.411978418514874
40
0.411978418514874
40
0.516185210011062
40
0.516185210011062
40
0.620250145291883
40
0.620250145291883
40
0.829289859626036
40
0.829289859626036
40
1
40
1
40
1
40
1
41
1
10
21.326476287757
20
-9.88045864837761
30
0
41
1
10
21.334950427913
20
-9.89283210086639
30
0
41
1
10
21.3410446972564
20
-9.90740809997322
30
0
41
1
10
21.3466581100435
20
-9.93556204987107
30
0
41
1
10
21.3471311183839
20
-9.94927630000355
30
0
41
1
10
21.3439391784029
20
-9.98333878771304
30
0
41
1
10
21.3380176661108
20
-10.0039213449355
30
0
41
1
10
21.3231933770202
20
-10.0392464903539
30
0
41
1
10
21.3148938546865
20
-10.0546726590205
30
0
41
1
10
21.2963501938256
20
-10.084079434424
30
0
41
1
10
21.2860504093189
20
-10.0981569283822
30
0
41
1
10
21.2640779243802
20
-10.1250550452324
30
0
41
1
10
21.2523663307389
20
-10.1379230880726
30
0
41
1
10
21.215614337501
20
-10.1748937299984
30
0
41
1
10
21.1888859040206
20
-10.1974535625125
30
0
41
1
10
21.1379371867715
20
-10.2347160704034
30
0
41
1
10
21.1140379574468
20
-10.2501693619123
30
0
41
1
10
21.0894230312228
20
-10.2642468944059
30
0
0
SPLINE
5
364
100
AcDbEntity
8
1
62
256
6
ByLayer
370
-1
48
1
60
0
100
AcDbSpline
70
4
71
3
72
24
73
20
40
0
40
0
40
0
40
0
40
0.0974021566269861
40
0.0974021566269861
40
0.18035403107531
40
0.18035403107531
40
0.307542616517188
40
0.307542616517188
40
0.412109117009567
40
0.412109117009567
40
0.516348967690823
40
0.516348967690823
40
0.620446917153396
40
0.620446917153396
40
0.724476829459976
40
0.724476829459976
40
0.933310901386173
40
0.933310901386173
40
1
40
1
40
1
40
1
41
1
10
18.7776089857417
20
-8.43921516863186
30
0
41
1
10
18.7639078040529
20
-8.43904970314917
30
0
41
1
10
18.7494563718229
20
-8.44200824441268
30
0
41
1
10
18.7242320289715
20
-8.45272514915369
30
0
41
1
10
18.7129330848044
20
-8.45978301125773
30
0
41
1
10
18.6867969632891
20
-8.48087183336737
30
0
41
1
10
18.672767938389
20
-8.49687004064188
30
0
41
1
10
18.6507910584836
20
-8.52815079156889
30
0
41
1
10
18.6420162912961
20
-8.54330823555678
30
0
41
1
10
18.6265351157664
20
-8.57444667702687
30
0
41
1
10
18.6197749632501
20
-8.59052563709636
30
0
41
1
10
18.6079220087479
20
-8.62314578869042
30
0
41
1
10
18.6028082261705
20
-8.63974452875772
30
0
41
1
10
18.5939983718192
20
-8.67320258528095
30
0
41
1
10
18.5902927714243
20
-8.69009966902399
30
0
41
1
10
18.5810559397403
20
-8.74105797147094
30
0
41
1
10
18.5773824072927
20
-8.77546847559032
30
0
41
1
10
18.5754875017184
20
-8.82071645081916
30
0
41
1
10
18.5752587027324
20
-8.83167889829164
30
0
41
1
10
18.5752587027324
20
-8.84262602674396
30
0
0
SPLINE
5
365
100
AcDbEntity
8
1
62
256
6
ByLayer
370
-1
48
1
60
0
100
AcDbSpline
70
4
71
3
72
8
73
4
40
0
40
0
40
0
40
0
40
1
40
1
40
1
40
1
41
1
10
21.326476287757
20
-7.75644983960356
30
0
41
1
10
21.3218745868664
20
-7.76078880801047
30
0
41
1
10
21.317272862705
20
-7.76512781460598
30
0
41
1
10
21.3126711143134
20
-7.76946686096518
30
0
0
SPLINE
5
366
100
AcDbEntity
8
1
62
256
6
ByLayer
370
-1
48
1
60
0
100
AcDbSpline
70
4
71
3
72
24
73
20
40
0
40
0
40
0
40
0
40
0.0380198325518905
40
0.0380198325518905
40
0.246834654675004
40
0.246834654675004
40
0.404726505663426
40
0.404726505663426
40
0.526150637962955
40
0.526150637962955
40
0.621531995503771
40
0.621531995503771
40
0.776890538332195
40
0.776890538332195
40
0.873684213898069
40
0.873684213898069
40
0.971746172255074
40
0.971746172255074
40
1
40
1
40
1
40
1
41
1
10
19.4133134788959
20
-10.269665520608
30
0
41
1
10
19.4078251930657
20
-10.2665621985317
30
0
41
1
10
19.4023734955265
20
-10.2633907682552
30
0
41
1
10
19.3672832235387
20
-10.2423965033214
30
0
41
1
10
19.3386774326827
20
-10.2225937740068
30
0
41
1
10
19.2913238746561
20
-10.1843302111128
30
0
41
1
10
19.2717876619671
20
-10.1666456936753
30
0
41
1
10
19.2395584750195
20
-10.133156060107
30
0
41
1
10
19.2262757496364
20
-10.1178042044727
30
0
41
1
10
19.2045426325487
20
-10.0889467632045
30
0
41
1
10
19.1956320881032
20
-10.0757021801954
30
0
41
1
10
19.1748631506961
20
-10.0396969455125
30
0
41
1
10
19.1642975118555
20
-10.0156244174299
30
0
41
1
10
19.155052328829
20
-9.9753131426848
30
0
41
1
10
19.1534078444796
20
-9.95921602585716
30
0
41
1
10
19.1555937386149
20
-9.92800511202277
30
0
41
1
10
19.1596181397474
20
-9.91248374137651
30
0
41
1
10
19.1683509163126
20
-9.89494189072659
30
0
41
1
10
19.1705659607497
20
-9.89109748844342
30
0
41
1
10
19.1729854761174
20
-9.88742058098023
30
0
0
SPLINE
5
367
100
AcDbEntity
8
1
62
256
6
ByLayer
370
-1
48
1
60
0
100
AcDbSpline
70
4
71
3
72
8
73
4
40
0
40
0
40
0
40
0
40
1
40
1
40
1
40
1
41
1
10
21.7218527781327
20
-9.20465525195193
30
0
41
1
10
21.7151142545552
20
-9.20263527938182
30
0
41
1
10
21.7083756961662
20
-9.200615310657
30
0
41
1
10
21.7016371015307
20
-9.19859534593675
30
0
0
SPLINE
5
368
100
AcDbEntity
8
1
62
256
6
ByLayer
370
-1
48
1
60
0
100
AcDbSpline
70
4
71
3
72
34
73
30
40
0
40
0
40
0
40
0
40
0.0514465755209378
40
0.0514465755209378
40
0.135786144735401
40
0.135786144735401
40
0.203131635218854
40
0.203131635218854
40
0.27031560887508
40
0.27031560887508
40
0.337431278535913
40
0.337431278535913
40
0.404515897625498
40
0.404515897625498
40
0.499929883690861
40
0.499929883690861
40
0.599210771748124
40
0.599210771748124
40
0.697083019894214
40
0.697083019894214
40
0.780957226922739
40
0.780957226922739
40
0.84754641439325
40
0.84754641439325
40
0.898875235580361
40
0.898875235580361
40
0.980803570703552
40
0.980803570703552
40
1
40
1
40
1
40
1
41
1
10
21.3126711143134
20
-7.76946686096518
30
0
41
1
10
21.3033360738056
20
-7.77826898791376
30
0
41
1
10
21.2959553705587
20
-7.78895902915174
30
0
41
1
10
21.2813232975897
20
-7.81922477823895
30
0
41
1
10
21.2767036588789
20
-7.84060849256819
30
0
41
1
10
21.2737001131804
20
-7.87998249113582
30
0
41
1
10
21.2742435356508
20
-7.89811193544709
30
0
41
1
10
21.2781119101851
20
-7.93461694742112
30
0
41
1
10
21.2814489793247
20
-7.95311283787767
30
0
41
1
10
21.2903269399499
20
-7.9901138636429
30
0
41
1
10
21.2958882306267
20
-8.00870029108061
30
0
41
1
10
21.3088620160517
20
-8.04570549471433
30
0
41
1
10
21.3162976260604
20
-8.06418830532029
30
0
41
1
10
21.33625303773
20
-8.10852247699331
30
0
41
1
10
21.349656672411
20
-8.1343412483084
30
0
41
1
10
21.3798552358291
20
-8.185763355647
30
0
41
1
10
21.3968618166838
20
-8.21148153950456
30
0
41
1
10
21.4333281762618
20
-8.26050649504705
30
0
41
1
10
21.4528687177073
20
-8.28400906275007
30
0
41
1
10
21.4914826502486
20
-8.32488592999582
30
0
41
1
10
21.5103395683298
20
-8.34278191723737
30
0
41
1
10
21.5458084889746
20
-8.37198694460227
30
0
41
1
10
21.5621804950196
20
-8.38397258124866
30
0
41
1
10
21.5921519244672
20
-8.40254936939573
30
0
41
1
10
21.6056057127552
20
-8.40979206382282
30
0
41
1
10
21.6409563221491
20
-8.42519027359259
30
0
41
1
10
21.663881454107
20
-8.4316682166137
30
0
41
1
10
21.6912373203892
20
-8.43250271704594
30
0
41
1
10
21.6964829700926
20
-8.43233379320655
30
0
41
1
10
21.7016371015307
20
-8.43179806092557
30
0
0
SPLINE
5
369
100
AcDbEntity
8
1
62
256
6
ByLayer
370
-1
48
1
60
0
100
AcDbSpline
70
4
71
3
72
8
73
4
40
0
40
0
40
0
40
0
40
1
40
1
40
1
40
1
41
1
10
21.7016371015307
20
-8.43179806092559
30
0
41
1
10
21.7083756961662
20
-8.43109763589406
30
0
41
1
10
21.7151142545552
20
-8.4303972301649
30
0
41
1
10
21.7218527781327
20
-8.42969684297313
30
0
0
SPLINE
5
36A
100
AcDbEntity
8
1
62
256
6
ByLayer
370
-1
48
1
60
0
100
AcDbSpline
70
4
71
3
72
8
73
4
40
0
40
0
40
0
40
0
40
1
40
1
40
1
40
1
41
1
10
18.7973863788683
20
-8.44118709462055
30
0
41
1
10
18.7907938762845
20
-8.44052976714944
30
0
41
1
10
18.78420141242
20
-8.43987245873834
30
0
41
1
10
18.7776089857417
20
-8.43921516863186
30
0
0
SPLINE
5
36B
100
AcDbEntity
8
1
62
256
6
ByLayer
370
-1
48
1
60
0
100
AcDbSpline
70
4
71
3
72
8
73
4
40
0
40
0
40
0
40
0
40
1
40
1
40
1
40
1
41
1
10
21.3126711143134
20
-9.86344149044496
30
0
41
1
10
21.317272862705
20
-9.86911389273899
30
0
41
1
10
21.3218745868664
20
-9.87478627849858
30
0
41
1
10
21.326476287757
20
-9.88045864837763
30
0
0
SPLINE
5
36C
100
AcDbEntity
8
1
62
256
6
ByLayer
370
-1
48
1
60
0
100
AcDbSpline
70
4
71
3
72
8
73
4
40
0
40
0
40
0
40
0
40
1
40
1
40
1
40
1
41
1
10
19.8543543915614
20
-7.37372979794352
30
0
41
1
10
19.8564181657988
20
-7.37940739768874
30
0
41
1
10
19.8584819527642
20
-7.3850850428522
30
0
41
1
10
19.8605457529822
20
-7.39076273530708
30
0
0
SPLINE
5
36D
100
AcDbEntity
8
1
62
256
6
ByLayer
370
-1
48
1
60
0
100
AcDbSpline
70
4
71
3
72
24
73
20
40
0
40
0
40
0
40
0
40
0.0380198325519737
40
0.0380198325519737
40
0.246834654675115
40
0.246834654675115
40
0.40472650566352
40
0.40472650566352
40
0.526150637963036
40
0.526150637963036
40
0.621531995503836
40
0.621531995503836
40
0.776890538332228
40
0.776890538332228
40
0.873684213898112
40
0.873684213898112
40
0.971746172255121
40
0.971746172255121
40
1
40
1
40
1
40
1
41
1
10
21.0894230312228
20
-10.2642468944059
30
0
41
1
10
21.0839347453926
20
-10.2673857021929
30
0
41
1
10
21.0784081960461
20
-10.2704571208402
30
0
41
1
10
21.0423463387847
20
-10.2899224339306
30
0
41
1
10
21.0106814377692
20
-10.3043849145555
30
0
41
1
10
20.9536596041855
20
-10.3254447511619
30
0
41
1
10
20.9285403080045
20
-10.333135493795
30
0
41
1
10
20.883499197769
20
-10.3435390620033
30
0
41
1
10
20.8636429136537
20
-10.3470065223513
30
0
41
1
10
20.8280509569635
20
-10.3506887230435
30
0
41
1
10
20.8122854561873
20
-10.3514458389323
30
0
41
1
10
20.7712946337126
20
-10.350463538476
30
0
41
1
10
20.7456815762483
20
-10.3468859394371
30
0
41
1
10
20.7074290083555
20
-10.3334077951362
30
0
41
1
10
20.6932789461739
20
-10.3262105760566
30
0
41
1
10
20.6688220108678
20
-10.3074724544052
30
0
41
1
10
20.6582884100039
20
-10.2955389082835
30
0
41
1
10
20.6487156462632
20
-10.278318456011
30
0
41
1
10
20.6467855571572
20
-10.2742757681496
30
0
41
1
10
20.645107372313
20
-10.2701406226403
30
0
0
SPLINE
5
36E
100
AcDbEntity
8
1
62
256
6
ByLayer
370
-1
48
1
60
0
100
AcDbSpline
70
4
71
3
72
22
73
18
40
0
40
0
40
0
40
0
40
0.0973712659846973
40
0.0973712659846973
40
0.180296832630717
40
0.180296832630717
40
0.307445080803022
40
0.307445080803022
40
0.411978418514864
40
0.411978418514864
40
0.516185210011047
40
0.516185210011047
40
0.620250145291866
40
0.620250145291866
40
0.829289859625996
40
0.829289859625996
40
1
40
1
40
1
40
1
41
1
10
19.1729854761174
20
-7.76341177220618
30
0
41
1
10
19.1648079499511
20
-7.75380491287841
30
0
41
1
10
19.1590081512497
20
-7.74197551539082
30
0
41
1
10
19.1538795443625
20
-7.71834347185379
30
0
41
1
10
19.1536120096921
20
-7.70654572623538
30
0
41
1
10
19.157258972409
20
-7.67672734983904
30
0
41
1
10
19.1634051932356
20
-7.65824070554109
30
0
41
1
10
19.1785649983025
20
-7.6260450018807
30
0
41
1
10
19.1869912923892
20
-7.61180126518605
30
0
41
1
10
19.2057513021044
20
-7.58441242987203
30
0
41
1
10
19.2161413770712
20
-7.57117709770664
30
0
41
1
10
19.2382680421451
20
-7.54571705769186
30
0
41
1
10
19.2500437636045
20
-7.53344715111309
30
0
41
1
10
19.2869584478474
20
-7.49799396904278
30
0
41
1
10
19.3137565771593
20
-7.47608420704908
30
0
41
1
10
19.364782744203
20
-7.43954409284018
30
0
41
1
10
19.3886985526718
20
-7.42424543917149
30
0
41
1
10
19.4133134788959
20
-7.41016790667786
30
0
0
SPLINE
5
36F
100
AcDbEntity
8
1
62
256
6
ByLayer
370
-1
48
1
60
0
100
AcDbSpline
70
4
71
3
72
30
73
26
40
0
40
0
40
0
40
0
40
0.0511772287528867
40
0.0511772287528867
40
0.135075241067786
40
0.135075241067786
40
0.271834780652408
40
0.271834780652408
40
0.469061266910846
40
0.469061266910846
40
0.500636061959792
40
0.500636061959792
40
0.599800502489186
40
0.599800502489186
40
0.697557955314501
40
0.697557955314501
40
0.781333785463085
40
0.781333785463085
40
0.847844869822071
40
0.847844869822071
40
0.899113486931131
40
0.899113486931131
40
0.939077913069152
40
0.939077913069152
40
1
40
1
40
1
40
1
41
1
10
19.1863523660856
20
-7.7763409501124
30
0
41
1
10
19.1953910463616
20
-7.78508367740854
30
0
41
1
10
19.2024758188498
20
-7.79572695379997
30
0
41
1
10
19.2163738940778
20
-7.82590046893482
30
0
41
1
10
19.2205700574016
20
-7.84725568301738
30
0
41
1
10
19.2239572623365
20
-7.90450986413121
30
0
41
1
10
19.2186348865364
20
-7.94238989612796
30
0
41
1
10
19.1954946539051
20
-8.03380253516562
30
0
41
1
10
19.1726606052084
20
-8.0888966802633
30
0
41
1
10
19.1396615020005
20
-8.14989980632191
30
0
41
1
10
19.134896401081
20
-8.15836492628287
30
0
41
1
10
19.1145825663509
20
-8.19308666325814
30
0
41
1
10
19.0976380576033
20
-8.21891460620841
30
0
41
1
10
19.0614161536913
20
-8.26817455267283
30
0
41
1
10
19.0420569897817
20
-8.29180287764747
30
0
41
1
10
19.0038868793945
20
-8.33292797689359
30
0
41
1
10
18.9852783795803
20
-8.35094508455551
30
0
41
1
10
18.9503298889759
20
-8.38037776149693
30
0
41
1
10
18.9342159190492
20
-8.3924684207299
30
0
41
1
10
18.9047478102083
20
-8.41123736853571
30
0
41
1
10
18.8915300165632
20
-8.41856628843207
30
0
41
1
10
18.8675724744467
20
-8.42935276841246
30
0
41
1
10
18.8568664572412
20
-8.43333134596955
30
0
41
1
10
18.829869605221
20
-8.44068935203154
30
0
41
1
10
18.8131502101392
20
-8.44275888002562
30
0
41
1
10
18.7973863788683
20
-8.44118709462055
30
0
0
SPLINE
5
370
100
AcDbEntity
8
1
62
256
6
ByLayer
370
-1
48
1
60
0
100
AcDbSpline
70
4
71
3
72
8
73
4
40
0
40
0
40
0
40
0
40
1
40
1
40
1
40
1
41
1
10
20.6384777274168
20
-7.38824779075928
30
0
41
1
10
20.6406876196865
20
-7.38255628205829
30
0
41
1
10
20.6428975011763
20
-7.37686482072641
30
0
41
1
10
20.645107372313
20
-7.3711734048874
30
0
0
SPLINE
5
371
100
AcDbEntity
8
SK1
62
256
6
ByLayer
370
-1
48
1
60
0
100
AcDbSpline
70
4
71
3
72
8
73
4
40
0
40
0
40
0
40
0
40
1
40
1
40
1
40
1
41
1
10
0
20
11.9470227637501
30
0
41
1
10
-0.0360986241453816
20
11.9133424940854
30
0
41
1
10
-0.0721831347553064
20
11.8796420447164
30
0
41
1
10
-0.108253175461044
20
11.8459209681778
30
0
0
SPLINE
5
372
100
AcDbEntity
8
SK1
62
256
6
ByLayer
370
-1
48
1
60
0
100
AcDbSpline
70
4
71
3
72
10
73
6
40
0
40
0
40
0
40
0
40
0.223917129221054
40
0.223917129221054
40
1
40
1
40
1
40
1
41
1
10
-0.108253175459396
20
11.8459209681804
30
0
41
1
10
-0.100173555045416
20
11.8540651057648
30
0
41
1
10
-0.0920938683632357
20
11.8622091776066
30
0
41
1
10
-0.0560101961583541
20
11.8985798039797
30
0
41
1
10
-0.0280054853428169
20
11.9268056389623
30
0
41
1
10
0
20
11.9550307054211
30
0
0
SPLINE
5
373
100
AcDbEntity
8
SK1
62
256
6
ByLayer
370
-1
48
1
60
0
100
AcDbSpline
70
4
71
3
72
8
73
4
40
0
40
0
40
0
40
0
40
1
40
1
40
1
40
1
41
1
10
-0.238765877365267
20
-11.1388165661098
30
0
41
1
10
-0.159200675789634
20
-11.2069906389168
30
0
41
1
10
-0.0796116290942734
20
-11.2751276199598
30
0
41
1
10
0
20
-11.3432293866236
30
0
0
SPLINE
5
374
100
AcDbEntity
8
SK1
62
256
6
ByLayer
370
-1
48
1
60
0
100
AcDbSpline
70
4
71
3
72
8
73
4
40
0
40
0
40
0
40
0
40
1
40
1
40
1
40
1
41
1
10
-0.238765877365267
20
-11.5788099647078
30
0
41
1
10
-0.159393454826983
20
-11.6689702792148
30
0
41
1
10
-0.0798004508245356
20
-11.7588723315613
30
0
41
1
10
0
20
-11.8485274577714
30
0
0
SPLINE
5
375
100
AcDbEntity
8
SK1
62
256
6
ByLayer
370
-1
48
1
60
0
100
AcDbSpline
70
4
71
3
72
8
73
4
40
0
40
0
40
0
40
0
40
1
40
1
40
1
40
1
41
1
10
0
20
-11.7159123809271
30
0
41
1
10
-0.0796319116662971
20
-11.64505489041
30
0
41
1
10
-0.159221330323163
20
-11.5741336759854
30
0
41
1
10
-0.238765877365267
20
-11.5031454669806
30
0
0
SPLINE
5
376
100
AcDbEntity
8
SK1
62
256
6
ByLayer
370
-1
48
1
60
0
100
AcDbSpline
70
4
71
3
72
10
73
6
40
0
40
0
40
0
40
0
40
0.776082864134894
40
0.776082864134894
40
1
40
1
40
1
40
1
41
1
10
0
20
-11.9550307054211
30
0
41
1
10
-0.0280054853428169
20
-11.9268056389623
30
0
41
1
10
-0.0560101961583541
20
-11.8985798039797
30
0
41
1
10
-0.0920938683678116
20
-11.862209177602
30
0
41
1
10
-0.100173555054596
20
-11.8540651057556
30
0
41
1
10
-0.108253175473124
20
-11.8459209681665
30
0
0
SPLINE
5
377
100
AcDbEntity
8
SK1
62
256
6
ByLayer
370
-1
48
1
60
0
100
AcDbSpline
70
4
71
3
72
8
73
4
40
0
40
0
40
0
40
0
40
1
40
1
40
1
40
1
41
1
10
-0.108253175473124
20
-11.8459209681665
30
0
41
1
10
-0.0721831347633781
20
-11.8796420447089
30
0
41
1
10
-0.0360986241494174
20
-11.9133424940816
30
0
41
1
10
0
20
-11.94702276375
30
0
0
SPLINE
5
378
100
AcDbEntity
8
1
62
256
6
ByLayer
370
-1
48
1
60
0
100
AcDbSpline
70
4
71
3
72
12
73
8
40
0
40
0
40
0
40
0
40
0.342001576379213
40
0.342001576379213
40
0.751585308242152
40
0.751585308242152
40
1
40
1
40
1
40
1
41
1
10
12.6735014801951
20
-9.22781757137572
30
0
41
1
10
12.7094825843996
20
-9.31302656751072
30
0
41
1
10
12.7579971695891
20
-9.39386995093942
30
0
41
1
10
12.8862469514508
20
-9.55145243269233
30
0
41
1
10
12.9721841798833
20
-9.62659178826885
30
0
41
1
10
13.1245875695425
20
-9.72006603397578
30
0
41
1
10
13.1863710913679
20
-9.74970891553998
30
0
41
1
10
13.2504362665717
20
-9.77291551213555
30
0
0
SPLINE
5
379
100
AcDbEntity
8
1
62
256
6
ByLayer
370
-1
48
1
60
0
100
AcDbSpline
70
4
71
3
72
12
73
8
40
0
40
0
40
0
40
0
40
0.404644073901352
40
0.404644073901352
40
0.809285947755716
40
0.809285947755716
40
1
40
1
40
1
40
1
41
1
10
15.6976081257363
20
-12.3173148929363
30
0
41
1
10
15.6976081257363
20
-12.3724186503983
30
0
41
1
10
15.7072682772495
20
-12.4282588934718
30
0
41
1
10
15.7443076706025
20
-12.5321635735848
30
0
41
1
10
15.7721974635625
20
-12.5816608200581
30
0
41
1
10
15.8238027273011
20
-12.6450717378577
30
0
41
1
10
15.8421877707245
20
-12.6642782751917
30
0
41
1
10
15.8619506933208
20
-12.6818584476715
30
0
0
SPLINE
5
37A
100
AcDbEntity
8
1
62
256
6
ByLayer
370
-1
48
1
60
0
100
AcDbSpline
70
4
71
3
72
10
73
6
40
0
40
0
40
0
40
0
40
0.638091248905416
40
0.638091248905416
40
1
40
1
40
1
40
1
41
1
10
15.9653337039457
20
-12.7382775809851
30
0
41
1
10
15.9373029195691
20
-12.7263846324089
30
0
41
1
10
15.9125428385954
20
-12.7132702084746
30
0
41
1
10
15.8808186678728
20
-12.6942869772879
30
0
41
1
10
15.8705908144666
20
-12.6876336764037
30
0
41
1
10
15.8619506933189
20
-12.6818584476694
30
0
0
SPLINE
5
37B
100
AcDbEntity
8
1
62
256
6
ByLayer
370
-1
48
1
60
0
100
AcDbSpline
70
4
71
1
72
5
73
3
40
0
40
0
40
0.871545443608208
40
1
40
1
41
1.08358774580744
10
12.4526165043449
20
-6.53600006013191
30
0
41
1.08358774580744
10
12.5787232141431
20
-6.96254027293195
30
0
41
1.08358774580744
10
12.5973097165268
20
-7.02540679839005
30
0
0
SPLINE
5
37C
100
AcDbEntity
8
1
62
256
6
ByLayer
370
-1
48
1
60
0
100
AcDbSpline
70
4
71
2
72
6
73
3
40
0
40
0
40
0
40
1
40
1
40
1
41
0.972514239109755
10
15.5575794278573
20
-11.9761083483388
30
0
41
1.01182408442503
10
15.5291003946148
20
-11.896690155249
30
0
41
1.08358774580744
10
15.5291003946149
20
-11.8123767316892
30
0
0
SPLINE
5
37D
100
AcDbEntity
8
1
62
256
6
ByLayer
370
-1
48
1
60
0
100
AcDbSpline
70
4
71
3
72
10
73
6
40
0
40
0
40
0
40
0
40
0.722254617258794
40
0.722254617258794
40
1
40
1
40
1
40
1
41
1
10
15.9653337039457
20
-12.7382775809851
30
0
41
1
10
16.0152381539758
20
-12.7631280838506
30
0
41
1
10
16.0702085059961
20
-12.7798240622104
30
0
41
1
10
16.1472895937449
20
-12.7897707913764
30
0
41
1
10
16.1691221327276
20
-12.7911672515034
30
0
41
1
10
16.1909110258418
20
-12.7911553752348
30
0
0
SPLINE
5
37E
100
AcDbEntity
8
1
62
256
6
ByLayer
370
-1
48
1
60
0
100
AcDbSpline
70
4
71
3
72
8
73
4
40
0
40
0
40
0
40
0
40
1
40
1
40
1
40
1
41
1
10
16.1918941367646
20
-12.7912400754598
30
0
41
1
10
16.1915667861555
20
-12.7912120164051
30
0
41
1
10
16.1912390807145
20
-12.7911837835818
30
0
41
1
10
16.1909110258429
20
-12.7911553752348
30
0
0
SPLINE
5
37F
100
AcDbEntity
8
1
62
256
6
ByLayer
370
-1
48
1
60
0
100
AcDbSpline
70
4
71
3
72
22
73
18
40
0
40
0
40
0
40
0
40
0.208266363442918
40
0.208266363442918
40
0.317899168105647
40
0.317899168105647
40
0.42758473986202
40
0.42758473986202
40
0.537377253733174
40
0.537377253733174
40
0.647402228731166
40
0.647402228731166
40
0.811583680502391
40
0.811583680502391
40
0.90663602213159
40
0.90663602213159
40
1
40
1
40
1
40
1
41
1
10
25.1944302202859
20
-1.56108293555552
30
0
41
1
10
25.1946854036216
20
-1.58989084276766
30
0
41
1
10
25.1942386404043
20
-1.61912207901162
30
0
41
1
10
25.1923351451823
20
-1.66373469025236
30
0
41
1
10
25.1914511986906
20
-1.67917009508558
30
0
41
1
10
25.1891500981006
20
-1.70992598836931
30
0
41
1
10
25.1877308960573
20
-1.72528114443361
30
0
41
1
10
25.1842226441177
20
-1.75568996365759
30
0
41
1
10
25.1821285907599
20
-1.77079402790676
30
0
41
1
10
25.1770508104902
20
-1.80036870498762
30
0
41
1
10
25.1740530575094
20
-1.81492199743803
30
0
41
1
10
25.1651177662106
20
-1.84930967985247
30
0
41
1
10
25.1582889161025
20
-1.86892479316192
30
0
41
1
10
25.1444130608423
20
-1.89339010528067
30
0
41
1
10
25.1385107688339
20
-1.90111732961066
30
0
41
1
10
25.1257688805794
20
-1.91191358278481
30
0
41
1
10
25.1187807588171
20
-1.91515930689263
30
0
41
1
10
25.1117301786336
20
-1.91602124446719
30
0
0
SPLINE
5
380
100
AcDbEntity
8
1
62
256
6
ByLayer
370
-1
48
1
60
0
100
AcDbSpline
70
4
71
3
72
8
73
4
40
0
40
0
40
0
40
0
40
1
40
1
40
1
40
1
41
1
10
25.0872061245278
20
-2.52651191048645
30
0
41
1
10
25.0913944247936
20
-2.53075455572578
30
0
41
1
10
25.0955828169398
20
-2.5349971671435
30
0
41
1
10
25.0997712966331
20
-2.53923974633159
30
0
0
SPLINE
5
381
100
AcDbEntity
8
1
62
256
6
ByLayer
370
-1
48
1
60
0
100
AcDbSpline
70
4
71
3
72
8
73
4
40
0
40
0
40
0
40
0
40
1
40
1
40
1
40
1
41
1
10
25.1117301786313
20
-1.91602124446732
30
0
41
1
10
25.1074635004526
20
-1.91585385750096
30
0
41
1
10
25.1031969092264
20
-1.9156864692979
30
0
41
1
10
25.0989304092564
20
-1.91551907979705
30
0
0
SPLINE
5
382
100
AcDbEntity
8
1
62
256
6
ByLayer
370
-1
48
1
60
0
100
AcDbSpline
70
4
71
3
72
22
73
18
40
0
40
0
40
0
40
0
40
0.208266363442888
40
0.208266363442888
40
0.317899168105613
40
0.317899168105613
40
0.427584739861984
40
0.427584739861984
40
0.537377253733136
40
0.537377253733136
40
0.647402228731128
40
0.647402228731128
40
0.811583680502361
40
0.811583680502361
40
0.90663602213156
40
0.90663602213156
40
1
40
1
40
1
40
1
41
1
10
25.1477101605109
20
-0.481325594245476
30
0
41
1
10
25.1491342027491
20
-0.491326630125641
30
0
41
1
10
25.1499246703509
20
-0.503199882761692
30
0
41
1
10
25.1499926889678
20
-0.524126429867181
30
0
41
1
10
25.1498061237128
20
-0.531881065615963
30
0
41
1
10
25.1489285218665
20
-0.548475914827463
30
0
41
1
10
25.1482370328583
20
-0.557334530072367
30
0
41
1
10
25.1462099671966
20
-0.576227340522266
30
0
41
1
10
25.1448718364042
20
-0.586292659021254
30
0
41
1
10
25.1413251059283
20
-0.607716534253242
30
0
41
1
10
25.1391068118425
20
-0.619136717737575
30
0
41
1
10
25.1321011718268
20
-0.649082449973264
30
0
41
1
10
25.1264558232009
20
-0.668953995803264
30
0
41
1
10
25.1142854255846
20
-0.701465480447212
30
0
41
1
10
25.1089865239955
20
-0.713915061278854
30
0
41
1
10
25.0972735783606
20
-0.737572849515161
30
0
41
1
10
25.0907251974095
20
-0.749078912119771
30
0
41
1
10
25.084004557632
20
-0.759316488106748
30
0
0
SPLINE
5
383
100
AcDbEntity
8
1
62
256
6
ByLayer
370
-1
48
1
60
0
100
AcDbSpline
70
4
71
3
72
10
73
6
40
0
40
0
40
0
40
0
40
0.438104536409315
40
0.438104536409315
40
1
40
1
40
1
40
1
41
1
10
25.0989304092564
20
-1.91551907979705
30
0
41
1
10
25.0911220145302
20
-1.91521272955566
30
0
41
1
10
25.0833181244746
20
-1.91736819809327
30
0
41
1
10
25.066570348948
20
-1.92613255228133
30
0
41
1
10
25.05768498045
20
-1.93384082415797
30
0
41
1
10
25.0495472176456
20
-1.94320640592971
30
0
0
SPLINE
5
384
100
AcDbEntity
8
1
62
256
6
ByLayer
370
-1
48
1
60
0
100
AcDbSpline
70
4
71
3
72
10
73
6
40
0
40
0
40
0
40
0
40
0.701952221330483
40
0.701952221330483
40
1
40
1
40
1
40
1
41
1
10
25.0582713944947
20
-2.48773627198148
30
0
41
1
10
25.0645917135621
20
-2.4982485379492
30
0
41
1
10
25.0712713176339
20
-2.50800106615382
30
0
41
1
10
25.0811321082632
20
-2.52003164738436
30
0
41
1
10
25.084160452126
20
-2.52342671919253
30
0
41
1
10
25.0872061245278
20
-2.52651191048641
30
0
0
SPLINE
5
385
100
AcDbEntity
8
1
62
256
6
ByLayer
370
-1
48
1
60
0
100
AcDbSpline
70
4
71
3
72
24
73
20
40
0
40
0
40
0
40
0
40
0.104000448201683
40
0.104000448201683
40
0.192499055460828
40
0.192499055460828
40
0.328500518746463
40
0.328500518746463
40
0.438682575665105
40
0.438682575665105
40
0.548533158171554
40
0.548533158171554
40
0.658237202769618
40
0.658237202769618
40
0.767870673660756
40
0.767870673660756
40
0.988088331634144
40
0.988088331634144
40
1
40
1
40
1
40
1
41
1
10
25.0997712966331
20
-2.53923974633159
30
0
41
1
10
25.107391608892
20
-2.54803286038559
30
0
41
1
10
25.1148412075564
20
-2.55917202852075
30
0
41
1
10
25.1268972257404
20
-2.58186645720787
30
0
41
1
10
25.1319181046699
20
-2.59335169824627
30
0
41
1
10
25.1428703515078
20
-2.62275619722261
30
0
41
1
10
25.1480929921393
20
-2.64130872551198
30
0
41
1
10
25.1555675296855
20
-2.67378887921124
30
0
41
1
10
25.1582569146787
20
-2.68819295106079
30
0
41
1
10
25.1626504518652
20
-2.71612375830952
30
0
41
1
10
25.1643695323833
20
-2.72974224538937
30
0
41
1
10
25.1670966320357
20
-2.75613009471748
30
0
41
1
10
25.1681089665797
20
-2.76894805257145
30
0
41
1
10
25.1695852071148
20
-2.79376340862578
30
0
41
1
10
25.1700503427961
20
-2.80579072629283
30
0
41
1
10
25.1707695210763
20
-2.84071400354286
30
0
41
1
10
25.1703573413211
20
-2.86251838350701
30
0
41
1
10
25.1691414135624
20
-2.88367752427384
30
0
41
1
10
25.1690766198553
20
-2.88476106696672
30
0
41
1
10
25.1690095872487
20
-2.88583961768313
30
0
0
SPLINE
5
386
100
AcDbEntity
8
1
62
256
6
ByLayer
370
-1
48
1
60
0
100
AcDbSpline
70
4
71
3
72
16
73
12
40
0
40
0
40
0
40
0
40
0.0292671347694835
40
0.0292671347694835
40
0.265150064972617
40
0.265150064972617
40
0.500881249332233
40
0.500881249332233
40
0.974387824550623
40
0.974387824550623
40
1
40
1
40
1
40
1
41
1
10
25.1273308485337
20
-0.445123845858348
30
0
41
1
10
25.1276595171991
20
-0.445121885425238
30
0
41
1
10
25.1279830975477
20
-0.445132829719313
30
0
41
1
10
25.1308714071961
20
-0.445345376550719
30
0
41
1
10
25.1331300396545
20
-0.446349472283828
30
0
41
1
10
25.137146263435
20
-0.44971229399836
30
0
41
1
10
25.1389081709841
20
-0.45207534332684
30
0
41
1
10
25.1435736168059
20
-0.460955033510302
30
0
41
1
10
25.1458739382576
20
-0.469273387850222
30
0
41
1
10
25.1475446845611
20
-0.48018460791387
30
0
41
1
10
25.1476284934569
20
-0.480752047257084
30
0
41
1
10
25.1477101605109
20
-0.481325594245476
30
0
0
SPLINE
5
387
100
AcDbEntity
8
1
62
256
6
ByLayer
370
-1
48
1
60
0
100
AcDbSpline
70
4
71
3
72
8
73
4
40
0
40
0
40
0
40
0
40
1
40
1
40
1
40
1
41
1
10
25.0932541851148
20
-1.27472434308484
30
0
41
1
10
25.0974972138816
20
-1.27224204449773
30
0
41
1
10
25.1017403340919
20
-1.26975976575947
30
0
41
1
10
25.1059835414332
20
-1.2672775059358
30
0
0
SPLINE
5
388
100
AcDbEntity
8
1
62
256
6
ByLayer
370
-1
48
1
60
0
100
AcDbSpline
70
4
71
3
72
18
73
14
40
0
40
0
40
0
40
0
40
0.291135785405906
40
0.291135785405906
40
0.444391607249085
40
0.444391607249085
40
0.597721192272263
40
0.597721192272263
40
0.751200271798843
40
0.751200271798843
40
0.905004308997987
40
0.905004308997987
40
1
40
1
40
1
40
1
41
1
10
25.1690095872487
20
-2.88583961768313
30
0
41
1
10
25.1678407283462
20
-2.90464648901509
30
0
41
1
10
25.1660012227022
20
-2.92200428942968
30
0
41
1
10
25.1620570587428
20
-2.94568975354594
30
0
41
1
10
25.1604826352888
20
-2.95337025586133
30
0
41
1
10
25.1568403304309
20
-2.96753062504153
30
0
41
1
10
25.1547688801053
20
-2.97402675713772
30
0
41
1
10
25.1500097887844
20
-2.98554176887473
30
0
41
1
10
25.1473150653611
20
-2.99057992490182
30
0
41
1
10
25.1411130608189
20
-2.99872930599112
30
0
41
1
10
25.1375886632143
20
-3.00186158003196
30
0
41
1
10
25.131024162034
20
-3.00474985899201
30
0
41
1
10
25.1282966165245
20
-3.00534765189069
30
0
41
1
10
25.1253119377114
20
-3.00531171465776
30
0
0
SPLINE
5
389
100
AcDbEntity
8
1
62
256
6
ByLayer
370
-1
48
1
60
0
100
AcDbSpline
70
4
71
3
72
24
73
20
40
0
40
0
40
0
40
0
40
0.10400044820168
40
0.10400044820168
40
0.192499055460822
40
0.192499055460822
40
0.328500518746468
40
0.328500518746468
40
0.43868257566511
40
0.43868257566511
40
0.548533158171561
40
0.548533158171561
40
0.658237202769621
40
0.658237202769621
40
0.767870673660755
40
0.767870673660755
40
0.988088331634144
40
0.988088331634144
40
1
40
1
40
1
40
1
41
1
10
25.1059835414332
20
-1.2672775059358
30
0
41
1
10
25.113769310658
20
-1.26388593642389
30
0
41
1
10
25.1215365816925
20
-1.26323092703088
30
0
41
1
10
25.1343972063181
20
-1.26719995326138
30
0
41
1
10
25.1398799784726
20
-1.27105163040235
30
0
41
1
10
25.1521166494756
20
-1.2843458505799
30
0
41
1
10
25.1582405732419
20
-1.29579625489895
30
0
41
1
10
25.1673955578958
20
-1.31929862450261
30
0
41
1
10
25.1708684317597
20
-1.33101042467453
30
0
41
1
10
25.1768381199026
20
-1.35563795383345
30
0
41
1
10
25.179354919102
20
-1.36863050493999
30
0
41
1
10
25.1836749024091
20
-1.39539562714918
30
0
41
1
10
25.1854853278977
20
-1.40921723648483
30
0
41
1
10
25.1885487663628
20
-1.43739467541935
30
0
41
1
10
25.1898049306787
20
-1.45178474710362
30
0
41
1
10
25.1928808790137
20
-1.49558701230954
30
0
41
1
10
25.1940224778269
20
-1.52570951953842
30
0
41
1
10
25.1943985945161
20
-1.55777985643023
30
0
41
1
10
25.1944155858385
20
-1.55943083785073
30
0
41
1
10
25.1944302202859
20
-1.56108293555552
30
0
0
SPLINE
5
38A
100
AcDbEntity
8
1
62
256
6
ByLayer
370
-1
48
1
60
0
100
AcDbSpline
70
4
71
3
72
10
73
6
40
0
40
0
40
0
40
0
40
0.656177422365467
40
0.656177422365467
40
1
40
1
40
1
40
1
41
1
10
25.0671797374123
20
-1.28218586052752
30
0
41
1
10
25.0726566534311
20
-1.28215980017596
30
0
41
1
10
25.0783051868767
20
-1.28120480934281
30
0
41
1
10
25.0870807293815
20
-1.27798188164155
30
0
41
1
10
25.0901687149253
20
-1.27652943532269
30
0
41
1
10
25.0932541851148
20
-1.27472434308487
30
0
0
LINE
5
49
100
AcDbEntity
8
80
62
256
6
ByLayer
370
-1
48
1
60
0
100
AcDbLine
10
0
20
0
30
0
11
-5
21
0
31
0
39
0
210
0
220
0
230
1
0
LINE
5
4A
100
AcDbEntity
8
4
62
256
6
ByLayer
370
-1
48
0.05
60
0
100
AcDbLine
10
0
20
0
30
0
11
25
21
0
31
0
39
0
210
0
220
0
230
1
0
LINE
5
4C
100
AcDbEntity
8
81
62
256
6
ByLayer
370
-1
48
1
60
0
100
AcDbLine
10
25
20
-16.875
30
0
11
30
21
-16.875
31
0
39
0
210
0
220
0
230
1
0
LINE
5
4D
100
AcDbEntity
8
SK4
62
256
6
ByLayer
370
-1
48
0.05
60
0
100
AcDbLine
10
-5
20
0
30
0
11
30
21
0
31
0
39
0
210
0
220
0
230
1
0
LINE
5
4F
100
AcDbEntity
8
1
62
256
6
ByLayer
370
-1
48
1
60
0
100
AcDbLine
10
24.364799
20
-2.237723
30
0
11
24.296619
21
-1.54899
31
0
39
0
210
0
220
0
230
1
0
LINE
5
51
100
AcDbEntity
8
1
62
256
6
ByLayer
370
-1
48
1
60
0
100
AcDbLine
10
25.005352
20
-5.914589
30
0
11
24.930587
21
-5.159331
31
0
39
0
210
0
220
0
230
1
0
LINE
5
52
100
AcDbEntity
8
1
62
256
6
ByLayer
370
-1
48
1
60
0
100
AcDbLine
10
24.553487
20
-3.975571
30
0
11
24.487516
21
-3.309144
31
0
39
0
210
0
220
0
230
1
0
LINE
5
53
100
AcDbEntity
8
1
62
256
6
ByLayer
370
-1
48
1
60
0
100
AcDbLine
10
12.281376
20
-8.040908
30
0
11
12.349497
21
-8.729047
31
0
39
0
210
0
220
0
230
1
0
LINE
5
54
100
AcDbEntity
8
1
62
256
6
ByLayer
370
-1
48
1
60
0
100
AcDbLine
10
13.447064
20
-7.480012
30
0
11
13.512982
21
-8.145905
31
0
39
0
210
0
220
0
230
1
0
LINE
5
55
100
AcDbEntity
8
1
62
256
6
ByLayer
370
-1
48
1
60
0
100
AcDbLine
10
22.959698
20
-8.53606
30
0
11
22.936642
21
-8.321014
31
0
39
0
210
0
220
0
230
1
0
LINE
5
56
100
AcDbEntity
8
1
62
256
6
ByLayer
370
-1
48
1
60
0
100
AcDbLine
10
17.517698
20
-8.901994
30
0
11
17.540753
21
-9.11704
31
0
39
0
210
0
220
0
230
1
0
LINE
5
57
100
AcDbEntity
8
1
62
256
6
ByLayer
370
-1
48
1
60
0
100
AcDbLine
10
19.220964
20
-7.858207
30
0
11
19.194459
21
-7.610985
31
0
39
0
210
0
220
0
230
1
0
LINE
5
58
100
AcDbEntity
8
1
62
256
6
ByLayer
370
-1
48
1
60
0
100
AcDbLine
10
21.250242
20
-7.674458
30
0
11
21.276227
21
-7.916831
31
0
39
0
210
0
220
0
230
1
0
LINE
5
59
100
AcDbEntity
8
1
62
256
6
ByLayer
370
-1
48
1
60
0
100
AcDbLine
10
19.219886
20
-9.695805
30
0
11
19.19386
21
-9.45306
31
0
39
0
210
0
220
0
230
1
0
LINE
5
5A
100
AcDbEntity
8
1
62
256
6
ByLayer
370
-1
48
1
60
0
100
AcDbLine
10
21.249643
20
-9.516533
30
0
11
21.276145
21
-9.763723
31
0
39
0
210
0
220
0
230
1
0
LINE
5
5B
100
AcDbEntity
8
1
62
256
6
ByLayer
370
-1
48
1
60
0
100
AcDbLine
10
6.862422
20
-12.5
30
0
11
7.849074
21
-12.5
31
0
39
0
210
0
220
0
230
1
0
LINE
5
5C
100
AcDbEntity
8
1
62
256
6
ByLayer
370
-1
48
1
60
0
100
AcDbLine
10
8.46191
20
-12.78577
30
0
11
8.865899
21
-13.267226
31
0
39
0
210
0
220
0
230
1
0
LINE
5
5D
100
AcDbEntity
8
1
62
256
6
ByLayer
370
-1
48
1
60
0
100
AcDbLine
10
25.054496
20
-1.28219
30
0
11
25.067731
21
-1.282194
31
0
39
0
210
0
220
0
230
1
0
LINE
5
5E
100
AcDbEntity
8
1
62
256
6
ByLayer
370
-1
48
1
60
0
100
AcDbLine
10
6.177633
20
-12.409674
30
0
11
6.668717
21
-12.409674
31
0
39
0
210
0
220
0
230
1
0
LINE
5
5F
100
AcDbEntity
8
1
62
256
6
ByLayer
370
-1
48
1
60
0
100
AcDbLine
10
0
20
11.947023
30
0
11
0
21
11.955031
31
0
39
0
210
0
220
0
230
1
0
LINE
5
60
100
AcDbEntity
8
1
62
256
6
ByLayer
370
-1
48
1
60
0
100
AcDbLine
10
0
20
-11.955031
30
0
11
0
21
-11.947023
31
0
39
0
210
0
220
0
230
1
0
LINE
5
61
100
AcDbEntity
8
1
62
256
6
ByLayer
370
-1
48
1
60
0
100
AcDbLine
10
0.346266
20
-12.0234
30
0
11
0.346266
21
-11.964691
31
0
39
0
210
0
220
0
230
1
0
LINE
5
62
100
AcDbEntity
8
1
62
256
6
ByLayer
370
-1
48
1
60
0
100
AcDbLine
10
15.438376
20
-13.362468
30
0
11
8.976378
21
-13.381757
31
0
39
0
210
0
220
0
230
1
0
LINE
5
63
100
AcDbEntity
8
1
62
256
6
ByLayer
370
-1
48
1
60
0
100
AcDbLine
10
13.519027
20
5.560779
30
0
11
19.519027
21
5.560779
31
0
39
0
210
0
220
0
230
1
0
LINE
5
64
100
AcDbEntity
8
1
62
256
6
ByLayer
370
-1
48
1
60
0
100
AcDbLine
10
0
20
9.670166
30
0
11
0
21
10.104769
31
0
39
0
210
0
220
0
230
1
0
LINE
5
65
100
AcDbEntity
8
1
62
256
6
ByLayer
370
-1
48
1
60
0
100
AcDbLine
10
0.346266
20
-8.236774
30
0
11
0.346266
21
-7.976286
31
0
39
0
210
0
220
0
230
1
0
LINE
5
66
100
AcDbEntity
8
1
62
256
6
ByLayer
370
-1
48
1
60
0
100
AcDbLine
10
0.346266
20
7.976286
30
0
11
0.346266
21
8.236774
31
0
39
0
210
0
220
0
230
1
0
LINE
5
67
100
AcDbEntity
8
1
62
256
6
ByLayer
370
-1
48
1
60
0
100
AcDbLine
10
15.406518
20
-11.832702
30
0
11
15.406518
21
-11.510458
31
0
39
0
210
0
220
0
230
1
0
LINE
5
68
100
AcDbEntity
8
1
62
256
6
ByLayer
370
-1
48
1
60
0
100
AcDbLine
10
0
20
-8.601241
30
0
11
0
21
-7.940016
31
0
39
0
210
0
220
0
230
1
0
LINE
5
69
100
AcDbEntity
8
1
62
256
6
ByLayer
370
-1
48
1
60
0
100
AcDbLine
10
0
20
11.848393
30
0
11
0
21
11.947023
31
0
39
0
210
0
220
0
230
1
0
LINE
5
6A
100
AcDbEntity
8
1
62
256
6
ByLayer
370
-1
48
1
60
0
100
AcDbLine
10
6.025907
20
2.039905
30
0
11
6.025129
21
-2.347461
31
0
39
0
210
0
220
0
230
1
0
LINE
5
6B
100
AcDbEntity
8
1
62
256
6
ByLayer
370
-1
48
1
60
0
100
AcDbLine
10
0.346266
20
-12.269095
30
0
11
0.346266
21
-12.234541
31
0
39
0
210
0
220
0
230
1
0
LINE
5
6C
100
AcDbEntity
8
1
62
256
6
ByLayer
370
-1
48
1
60
0
100
AcDbLine
10
0.346266
20
11.964691
30
0
11
0.346266
21
12.0234
31
0
39
0
210
0
220
0
230
1
0
LINE
5
6D
100
AcDbEntity
8
1
62
256
6
ByLayer
370
-1
48
1
60
0
100
AcDbLine
10
0
20
-9.670191
30
0
11
0
21
-9.172655
31
0
39
0
210
0
220
0
230
1
0
LINE
5
6E
100
AcDbEntity
8
1
62
256
6
ByLayer
370
-1
48
1
60
0
100
AcDbLine
10
24.433168
20
-0.573047
30
0
11
17.604968
21
-4.479548
31
0
39
0
210
0
220
0
230
1
0
LINE
5
6F
100
AcDbEntity
8
1
62
256
6
ByLayer
370
-1
48
1
60
0
100
AcDbLine
10
0
20
-10.104769
30
0
11
0
21
-9.670166
31
0
39
0
210
0
220
0
230
1
0
LINE
5
70
100
AcDbEntity
8
1
62
256
6
ByLayer
370
-1
48
1
60
0
100
AcDbLine
10
7.203592
20
-6.28449
30
0
11
7.202496
21
-12.469747
31
0
39
0
210
0
220
0
230
1
0
LINE
5
71
100
AcDbEntity
8
1
62
256
6
ByLayer
370
-1
48
1
60
0
100
AcDbLine
10
0.346266
20
-10.387807
30
0
11
0.346266
21
-10.237659
31
0
39
0
210
0
220
0
230
1
0
LINE
5
72
100
AcDbEntity
8
1
62
256
6
ByLayer
370
-1
48
1
60
0
100
AcDbLine
10
6.024099
20
-8.163484
30
0
11
6.023363
21
-12.316238
31
0
39
0
210
0
220
0
230
1
0
LINE
5
73
100
AcDbEntity
8
1
62
256
6
ByLayer
370
-1
48
1
60
0
100
AcDbLine
10
13.841141
20
-6.743863
30
0
11
13.650149
21
-6.74215
31
0
39
0
210
0
220
0
230
1
0
LINE
5
74
100
AcDbEntity
8
1
62
256
6
ByLayer
370
-1
48
1
60
0
100
AcDbLine
10
0
20
-11.548002
30
0
11
0
21
-11.343229
31
0
39
0
210
0
220
0
230
1
0
LINE
5
75
100
AcDbEntity
8
1
62
256
6
ByLayer
370
-1
48
1
60
0
100
AcDbLine
10
0
20
-11.848527
30
0
11
0
21
-11.715912
31
0
39
0
210
0
220
0
230
1
0
LINE
5
76
100
AcDbEntity
8
1
62
256
6
ByLayer
370
-1
48
1
60
0
100
AcDbLine
10
0
20
-7.164154
30
0
11
0
21
-6.230979
31
0
39
0
210
0
220
0
230
1
0
LINE
5
77
100
AcDbEntity
8
1
62
256
6
ByLayer
370
-1
48
1
60
0
100
AcDbLine
10
15.438376
20
-13.362468
30
0
11
15.438376
21
-11.902576
31
0
39
0
210
0
220
0
230
1
0
LINE
5
78
100
AcDbEntity
8
1
62
256
6
ByLayer
370
-1
48
1
60
0
100
AcDbLine
10
0
20
11.343229
30
0
11
0
21
11.548002
31
0
39
0
210
0
220
0
230
1
0
LINE
5
79
100
AcDbEntity
8
1
62
256
6
ByLayer
370
-1
48
1
60
0
100
AcDbLine
10
0
20
7.940016
30
0
11
0
21
8.601241
31
0
39
0
210
0
220
0
230
1
0
LINE
5
7A
100
AcDbEntity
8
1
62
256
6
ByLayer
370
-1
48
1
60
0
100
AcDbLine
10
0
20
-11.099554
30
0
11
0
21
-10.814347
31
0
39
0
210
0
220
0
230
1
0
LINE
5
7B
100
AcDbEntity
8
1
62
256
6
ByLayer
370
-1
48
1
60
0
100
AcDbLine
10
0
20
-11.547978
30
0
11
0
21
-11.715912
31
0
39
0
210
0
220
0
230
1
0
LINE
5
7C
100
AcDbEntity
8
1
62
256
6
ByLayer
370
-1
48
1
60
0
100
AcDbLine
10
0.346266
20
10.237659
30
0
11
0.346266
21
10.387807
31
0
39
0
210
0
220
0
230
1
0
LINE
5
7D
100
AcDbEntity
8
1
62
256
6
ByLayer
370
-1
48
1
60
0
100
AcDbLine
10
0
20
-7.940016
30
0
11
0
21
-7.164127
31
0
39
0
210
0
220
0
230
1
0
LINE
5
7E
100
AcDbEntity
8
1
62
256
6
ByLayer
370
-1
48
1
60
0
100
AcDbLine
10
0
20
7.164127
30
0
11
0
21
7.940016
31
0
39
0
210
0
220
0
230
1
0
LINE
5
7F
100
AcDbEntity
8
1
62
256
6
ByLayer
370
-1
48
1
60
0
100
AcDbLine
10
24.433168
20
-0.573047
30
0
11
24.419457
21
-0.694014
31
0
39
0
210
0
220
0
230
1
0
LINE
5
80
100
AcDbEntity
8
1
62
256
6
ByLayer
370
-1
48
1
60
0
100
AcDbLine
10
6.784153
20
-12.463502
30
0
11
6.862422
21
-12.5
31
0
39
0
210
0
220
0
230
1
0
LINE
5
81
100
AcDbEntity
8
1
62
256
6
ByLayer
370
-1
48
1
60
0
100
AcDbLine
10
6.177635
20
-12.409674
30
0
11
0.451234
21
-12.409674
31
0
39
0
210
0
220
0
230
1
0
LINE
5
82
100
AcDbEntity
8
1
62
256
6
ByLayer
370
-1
48
1
60
0
100
AcDbLine
10
0
20
-8.601222
30
0
11
0
21
-9.172655
31
0
39
0
210
0
220
0
230
1
0
LINE
5
83
100
AcDbEntity
8
1
62
256
6
ByLayer
370
-1
48
1
60
0
100
AcDbLine
10
0.346266
20
12.234541
30
0
11
0.346266
21
12.269095
31
0
39
0
210
0
220
0
230
1
0
LINE
5
84
100
AcDbEntity
8
1
62
256
6
ByLayer
370
-1
48
1
60
0
100
AcDbLine
10
8.46191
20
-12.78577
30
0
11
8.46191
21
-12.76098
31
0
39
0
210
0
220
0
230
1
0
LINE
5
85
100
AcDbEntity
8
1
62
256
6
ByLayer
370
-1
48
1
60
0
100
AcDbLine
10
0
20
10.814347
30
0
11
0
21
10.484191
31
0
39
0
210
0
220
0
230
1
0
LINE
5
86
100
AcDbEntity
8
1
62
256
6
ByLayer
370
-1
48
1
60
0
100
AcDbLine
10
0
20
-5.054093
30
0
11
0
21
-3.388415
31
0
39
0
210
0
220
0
230
1
0
LINE
5
87
100
AcDbEntity
8
1
62
256
6
ByLayer
370
-1
48
1
60
0
100
AcDbLine
10
15.438376
20
-11.902576
30
0
11
12.030331
21
-9.974987
31
0
39
0
210
0
220
0
230
1
0
LINE
5
88
100
AcDbEntity
8
1
62
256
6
ByLayer
370
-1
48
1
60
0
100
AcDbLine
10
0.346266
20
-9.457166
30
0
11
0.346266
21
-9.261521
31
0
39
0
210
0
220
0
230
1
0
LINE
5
89
100
AcDbEntity
8
1
62
256
6
ByLayer
370
-1
48
1
60
0
100
AcDbLine
10
0.346266
20
9.261521
30
0
11
0.346266
21
9.457166
31
0
39
0
210
0
220
0
230
1
0
LINE
5
8A
100
AcDbEntity
8
1
62
256
6
ByLayer
370
-1
48
1
60
0
100
AcDbLine
10
0
20
-11.343229
30
0
11
0
21
-11.099518
31
0
39
0
210
0
220
0
230
1
0
LINE
5
8B
100
AcDbEntity
8
1
62
256
6
ByLayer
370
-1
48
1
60
0
100
AcDbLine
10
0
20
-3.388415
30
0
11
0
21
3.388415
31
0
39
0
210
0
220
0
230
1
0
LINE
5
8C
100
AcDbEntity
8
1
62
256
6
ByLayer
370
-1
48
1
60
0
100
AcDbLine
10
0
20
-10.484191
30
0
11
0
21
-10.814347
31
0
39
0
210
0
220
0
230
1
0
LINE
5
8D
100
AcDbEntity
8
1
62
256
6
ByLayer
370
-1
48
1
60
0
100
AcDbLine
10
0.451234
20
12.409674
30
0
11
0.451234
21
-12.409674
31
0
39
0
210
0
220
0
230
1
0
LINE
5
8E
100
AcDbEntity
8
1
62
256
6
ByLayer
370
-1
48
1
60
0
100
AcDbLine
10
13.841141
20
-6.743863
30
0
11
15.823192
21
-5.610307
31
0
39
0
210
0
220
0
230
1
0
LINE
5
8F
100
AcDbEntity
8
1
62
256
6
ByLayer
370
-1
48
1
60
0
100
AcDbLine
10
13.13459
20
-10.085891
30
0
11
11.270412
21
-9.031802
31
0
39
0
210
0
220
0
230
1
0
LINE
5
90
100
AcDbEntity
8
1
62
256
6
ByLayer
370
-1
48
1
60
0
100
AcDbLine
10
16.531649
20
-5.259574
30
0
11
21.271633
21
-2.548728
31
0
39
0
210
0
220
0
230
1
0
LINE
5
91
100
AcDbEntity
8
1
62
256
6
ByLayer
370
-1
48
1
60
0
100
AcDbLine
10
0.346266
20
11.55409
30
0
11
0.346266
21
11.639099
31
0
39
0
210
0
220
0
230
1
0
LINE
5
92
100
AcDbEntity
8
1
62
256
6
ByLayer
370
-1
48
1
60
0
100
AcDbLine
10
6.784153
20
-12.463502
30
0
11
6.199981
21
-12.191099
31
0
39
0
210
0
220
0
230
1
0
LINE
5
93
100
AcDbEntity
8
1
62
256
6
ByLayer
370
-1
48
1
60
0
100
AcDbLine
10
0
20
-10.484219
30
0
11
0
21
-10.104769
31
0
39
0
210
0
220
0
230
1
0
LINE
5
94
100
AcDbEntity
8
1
62
256
6
ByLayer
370
-1
48
1
60
0
100
AcDbLine
10
7.849074
20
-12.5
30
0
11
7.849074
21
-12.470538
31
0
39
0
210
0
220
0
230
1
0
LINE
5
95
100
AcDbEntity
8
1
62
256
6
ByLayer
370
-1
48
1
60
0
100
AcDbLine
10
0
20
-11.947023
30
0
11
0
21
-11.848393
31
0
39
0
210
0
220
0
230
1
0
LINE
5
96
100
AcDbEntity
8
1
62
256
6
ByLayer
370
-1
48
1
60
0
100
AcDbLine
10
0
20
10.104769
30
0
11
0
21
10.484219
31
0
39
0
210
0
220
0
230
1
0
LINE
5
97
100
AcDbEntity
8
1
62
256
6
ByLayer
370
-1
48
1
60
0
100
AcDbLine
10
0.346266
20
10.987118
30
0
11
0.346266
21
11.101805
31
0
39
0
210
0
220
0
230
1
0
LINE
5
98
100
AcDbEntity
8
1
62
256
6
ByLayer
370
-1
48
1
60
0
100
AcDbLine
10
7.205162
20
2.574045
30
0
11
7.204032
21
-3.802606
31
0
39
0
210
0
220
0
230
1
0
LINE
5
99
100
AcDbEntity
8
1
62
256
6
ByLayer
370
-1
48
1
60
0
100
AcDbLine
10
13.650149
20
-6.74215
30
0
11
13.620922
21
-6.71539
31
0
39
0
210
0
220
0
230
1
0
LINE
5
9A
100
AcDbEntity
8
1
62
256
6
ByLayer
370
-1
48
1
60
0
100
AcDbLine
10
0
20
9.172655
30
0
11
0
21
8.601222
31
0
39
0
210
0
220
0
230
1
0
LINE
5
9B
100
AcDbEntity
8
1
62
256
6
ByLayer
370
-1
48
1
60
0
100
AcDbLine
10
0.451234
20
12.409674
30
0
11
5.602275
21
12.409674
31
0
39
0
210
0
220
0
230
1
0
LINE
5
9C
100
AcDbEntity
8
1
62
256
6
ByLayer
370
-1
48
1
60
0
100
AcDbLine
10
0
20
11.715912
30
0
11
0
21
11.547978
31
0
39
0
210
0
220
0
230
1
0
LINE
5
9D
100
AcDbEntity
8
1
62
256
6
ByLayer
370
-1
48
1
60
0
100
AcDbLine
10
0.346266
20
-6.567032
30
0
11
0.346266
21
-6.19189
31
0
39
0
210
0
220
0
230
1
0
LINE
5
9E
100
AcDbEntity
8
1
62
256
6
ByLayer
370
-1
48
1
60
0
100
AcDbLine
10
0.346266
20
6.19189
30
0
11
0.346266
21
6.567032
31
0
39
0
210
0
220
0
230
1
0
LINE
5
9F
100
AcDbEntity
8
1
62
256
6
ByLayer
370
-1
48
1
60
0
100
AcDbLine
10
15.438492
20
-12.117406
30
0
11
15.604623
21
-12.116869
31
0
39
0
210
0
220
0
230
1
0
LINE
5
A0
100
AcDbEntity
8
1
62
256
6
ByLayer
370
-1
48
1
60
0
100
AcDbLine
10
0
20
10.814347
30
0
11
0
21
11.099554
31
0
39
0
210
0
220
0
230
1
0
LINE
5
A1
100
AcDbEntity
8
1
62
256
6
ByLayer
370
-1
48
1
60
0
100
AcDbLine
10
0
20
3.388415
30
0
11
0
21
5.054093
31
0
39
0
210
0
220
0
230
1
0
LINE
5
A2
100
AcDbEntity
8
1
62
256
6
ByLayer
370
-1
48
1
60
0
100
AcDbLine
10
0
20
11.099518
30
0
11
0
21
11.343229
31
0
39
0
210
0
220
0
230
1
0
LINE
5
A3
100
AcDbEntity
8
1
62
256
6
ByLayer
370
-1
48
1
60
0
100
AcDbLine
10
15.352137
20
-5.768421
30
0
11
13.650149
21
-6.74215
31
0
39
0
210
0
220
0
230
1
0
LINE
5
A4
100
AcDbEntity
8
1
62
256
6
ByLayer
370
-1
48
1
60
0
100
AcDbLine
10
0
20
6.230979
30
0
11
0
21
7.164154
31
0
39
0
210
0
220
0
230
1
0
LINE
5
A5
100
AcDbEntity
8
1
62
256
6
ByLayer
370
-1
48
1
60
0
100
AcDbLine
10
21.88432
20
-2.143885
30
0
11
24.419457
21
-0.694014
31
0
39
0
210
0
220
0
230
1
0
LINE
5
A6
100
AcDbEntity
8
1
62
256
6
ByLayer
370
-1
48
1
60
0
100
AcDbLine
10
6.027451
20
10.754305
30
0
11
6.02721
21
9.39429
31
0
39
0
210
0
220
0
230
1
0
LINE
5
A7
100
AcDbEntity
8
1
62
256
6
ByLayer
370
-1
48
1
60
0
100
AcDbLine
10
0.346266
20
-3.909267
30
0
11
0.346266
21
-3.151846
31
0
39
0
210
0
220
0
230
1
0
LINE
5
A8
100
AcDbEntity
8
1
62
256
6
ByLayer
370
-1
48
1
60
0
100
AcDbLine
10
0.346266
20
3.151846
30
0
11
0.346266
21
3.909267
31
0
39
0
210
0
220
0
230
1
0
LINE
5
A9
100
AcDbEntity
8
1
62
256
6
ByLayer
370
-1
48
1
60
0
100
AcDbLine
10
0.346266
20
-11.639099
30
0
11
0.346266
21
-11.55409
31
0
39
0
210
0
220
0
230
1
0
LINE
5
AA
100
AcDbEntity
8
1
62
256
6
ByLayer
370
-1
48
1
60
0
100
AcDbLine
10
0
20
9.172655
30
0
11
0
21
9.670191
31
0
39
0
210
0
220
0
230
1
0
LINE
5
AB
100
AcDbEntity
8
1
62
256
6
ByLayer
370
-1
48
1
60
0
100
AcDbLine
10
0
20
11.715912
30
0
11
0
21
11.848527
31
0
39
0
210
0
220
0
230
1
0
LINE
5
AC
100
AcDbEntity
8
1
62
256
6
ByLayer
370
-1
48
1
60
0
100
AcDbLine
10
0.346266
20
-11.101805
30
0
11
0.346266
21
-10.987118
31
0
39
0
210
0
220
0
230
1
0
LINE
5
AD
100
AcDbEntity
8
1
62
256
6
ByLayer
370
-1
48
1
60
0
100
AcDbLine
10
24.433168
20
-0.573047
30
0
11
24.433168
21
1.483391
31
0
39
0
210
0
220
0
230
1
0
LINE
5
AE
100
AcDbEntity
8
1
62
256
6
ByLayer
370
-1
48
1
60
0
100
AcDbLine
10
0
20
6.230979
30
0
11
0
21
5.053908
31
0
39
0
210
0
220
0
230
1
0
LINE
5
AF
100
AcDbEntity
8
1
62
256
6
ByLayer
370
-1
48
1
60
0
100
AcDbLine
10
0
20
-5.053908
30
0
11
0
21
-6.230979
31
0
39
0
210
0
220
0
230
1
0
LINE
5
B0
100
AcDbEntity
8
1
62
256
6
ByLayer
370
-1
48
1
60
0
100
AcDbLine
10
15.208522
20
-11.398463
30
0
11
15.438376
21
-11.902576
31
0
39
0
210
0
220
0
230
1
0
LINE
5
B1
100
AcDbEntity
8
SK1
62
256
6
ByLayer
370
-1
48
1
60
0
100
AcDbLine
10
-0.298766
20
7.96707
30
0
11
-0.298766
21
8.985912
31
0
39
0
210
0
220
0
230
1
0
LINE
5
B3
100
AcDbEntity
8
SK1
62
256
6
ByLayer
370
-1
48
1
60
0
100
AcDbLine
10
0
20
9.172655
30
0
11
0
21
8.601222
31
0
39
0
210
0
220
0
230
1
0
LINE
5
B4
100
AcDbEntity
8
SK1
62
256
6
ByLayer
370
-1
48
1
60
0
100
AcDbLine
10
-0.238766
20
8.120312
30
0
11
-0.238766
21
8.976406
31
0
39
0
210
0
220
0
230
1
0
LINE
5
B5
100
AcDbEntity
8
SK1
62
256
6
ByLayer
370
-1
48
1
60
0
100
AcDbLine
10
-0.298766
20
9.103207
30
0
11
-0.298766
21
8.985912
31
0
39
0
210
0
220
0
230
1
0
LINE
5
B6
100
AcDbEntity
8
SK1
62
256
6
ByLayer
370
-1
48
1
60
0
100
AcDbLine
10
0
20
9.172655
30
0
11
0
21
9.670191
31
0
39
0
210
0
220
0
230
1
0
LINE
5
B7
100
AcDbEntity
8
SK1
62
256
6
ByLayer
370
-1
48
1
60
0
100
AcDbLine
10
-0.298766
20
-8.985912
30
0
11
-0.298766
21
-7.96707
31
0
39
0
210
0
220
0
230
1
0
LINE
5
B8
100
AcDbEntity
8
SK1
62
256
6
ByLayer
370
-1
48
1
60
0
100
AcDbLine
10
-0.298766
20
-8.985912
30
0
11
-0.298766
21
-9.103207
31
0
39
0
210
0
220
0
230
1
0
LINE
5
B9
100
AcDbEntity
8
SK1
62
256
6
ByLayer
370
-1
48
1
60
0
100
AcDbLine
10
0
20
-9.670191
30
0
11
0
21
-9.172655
31
0
39
0
210
0
220
0
230
1
0
LINE
5
BA
100
AcDbEntity
8
SK1
62
256
6
ByLayer
370
-1
48
1
60
0
100
AcDbLine
10
-0.238766
20
-8.976406
30
0
11
-0.238766
21
-8.120312
31
0
39
0
210
0
220
0
230
1
0
LINE
5
BB
100
AcDbEntity
8
SK1
62
256
6
ByLayer
370
-1
48
1
60
0
100
AcDbLine
10
0
20
-8.601222
30
0
11
0
21
-9.172655
31
0
39
0
210
0
220
0
230
1
0
LINE
5
BC
100
AcDbEntity
8
SK1
62
256
6
ByLayer
370
-1
48
1
60
0
100
AcDbLine
10
-0.298766
20
-7.762558
30
0
11
-0.298766
21
-6.282578
31
0
39
0
210
0
220
0
230
1
0
LINE
5
BD
100
AcDbEntity
8
SK1
62
256
6
ByLayer
370
-1
48
1
60
0
100
AcDbLine
10
-0.298766
20
6.282578
30
0
11
-0.298766
21
7.762558
31
0
39
0
210
0
220
0
230
1
0
LINE
5
BE
100
AcDbEntity
8
SK1
62
256
6
ByLayer
370
-1
48
1
60
0
100
AcDbLine
10
-0.238766
20
-7.734775
30
0
11
-0.238766
21
-6.552563
31
0
39
0
210
0
220
0
230
1
0
LINE
5
BF
100
AcDbEntity
8
SK1
62
256
6
ByLayer
370
-1
48
1
60
0
100
AcDbLine
10
-0.238766
20
6.552563
30
0
11
-0.238766
21
7.734775
31
0
39
0
210
0
220
0
230
1
0
LINE
5
C0
100
AcDbEntity
8
SK1
62
256
6
ByLayer
370
-1
48
1
60
0
100
AcDbLine
10
0
20
7.940016
30
0
11
0
21
8.601241
31
0
39
0
210
0
220
0
230
1
0
LINE
5
C1
100
AcDbEntity
8
SK1
62
256
6
ByLayer
370
-1
48
1
60
0
100
AcDbLine
10
-0.298766
20
7.920397
30
0
11
-0.298766
21
7.762558
31
0
39
0
210
0
220
0
230
1
0
LINE
5
C2
100
AcDbEntity
8
SK1
62
256
6
ByLayer
370
-1
48
1
60
0
100
AcDbLine
10
-0.298766
20
-7.762558
30
0
11
-0.298766
21
-7.920397
31
0
39
0
210
0
220
0
230
1
0
LINE
5
C3
100
AcDbEntity
8
SK1
62
256
6
ByLayer
370
-1
48
1
60
0
100
AcDbLine
10
0
20
-7.940016
30
0
11
0
21
-7.164127
31
0
39
0
210
0
220
0
230
1
0
LINE
5
C4
100
AcDbEntity
8
SK1
62
256
6
ByLayer
370
-1
48
1
60
0
100
AcDbLine
10
0
20
7.164127
30
0
11
0
21
7.940016
31
0
39
0
210
0
220
0
230
1
0
LINE
5
C5
100
AcDbEntity
8
SK1
62
256
6
ByLayer
370
-1
48
1
60
0
100
AcDbLine
10
0
20
-8.601241
30
0
11
0
21
-7.940016
31
0
39
0
210
0
220
0
230
1
0
LINE
5
C6
100
AcDbEntity
8
SK1
62
256
6
ByLayer
370
-1
48
1
60
0
100
AcDbLine
10
0
20
-11.947023
30
0
11
0
21
-11.848393
31
0
39
0
210
0
220
0
230
1
0
LINE
5
C7
100
AcDbEntity
8
SK1
62
256
6
ByLayer
370
-1
48
1
60
0
100
AcDbLine
10
-0.298766
20
3.617502
30
0
11
-0.298766
21
3.147011
31
0
39
0
210
0
220
0
230
1
0
LINE
5
C8
100
AcDbEntity
8
SK1
62
256
6
ByLayer
370
-1
48
1
60
0
100
AcDbLine
10
-0.238766
20
-2.992241
30
0
11
-0.238766
21
2.992241
31
0
39
0
210
0
220
0
230
1
0
LINE
5
C9
100
AcDbEntity
8
SK1
62
256
6
ByLayer
370
-1
48
1
60
0
100
AcDbLine
10
0
20
3.388415
30
0
11
0
21
5.054093
31
0
39
0
210
0
220
0
230
1
0
LINE
5
CA
100
AcDbEntity
8
SK1
62
256
6
ByLayer
370
-1
48
1
60
0
100
AcDbLine
10
-0.298766
20
-3.147011
30
0
11
-0.298766
21
3.147011
31
0
39
0
210
0
220
0
230
1
0
LINE
5
CB
100
AcDbEntity
8
SK1
62
256
6
ByLayer
370
-1
48
1
60
0
100
AcDbLine
10
-0.298766
20
-3.147011
30
0
11
-0.298766
21
-3.617502
31
0
39
0
210
0
220
0
230
1
0
LINE
5
CC
100
AcDbEntity
8
SK1
62
256
6
ByLayer
370
-1
48
1
60
0
100
AcDbLine
10
0
20
-5.054093
30
0
11
0
21
-3.388415
31
0
39
0
210
0
220
0
230
1
0
LINE
5
CD
100
AcDbEntity
8
SK1
62
256
6
ByLayer
370
-1
48
1
60
0
100
AcDbLine
10
0
20
-3.388415
30
0
11
0
21
3.388415
31
0
39
0
210
0
220
0
230
1
0
LINE
5
CE
100
AcDbEntity
8
SK1
62
256
6
ByLayer
370
-1
48
1
60
0
100
AcDbLine
10
-0.298766
20
-6.053345
30
0
11
-0.298766
21
-6.282675
31
0
39
0
210
0
220
0
230
1
0
LINE
5
CF
100
AcDbEntity
8
SK1
62
256
6
ByLayer
370
-1
48
1
60
0
100
AcDbLine
10
-0.298766
20
-6.053345
30
0
11
-0.298766
21
-3.617441
31
0
39
0
210
0
220
0
230
1
0
LINE
5
D0
100
AcDbEntity
8
SK1
62
256
6
ByLayer
370
-1
48
1
60
0
100
AcDbLine
10
-0.298766
20
3.617441
30
0
11
-0.298766
21
6.053345
31
0
39
0
210
0
220
0
230
1
0
LINE
5
D1
100
AcDbEntity
8
SK1
62
256
6
ByLayer
370
-1
48
1
60
0
100
AcDbLine
10
0
20
6.230979
30
0
11
0
21
7.164154
31
0
39
0
210
0
220
0
230
1
0
LINE
5
D2
100
AcDbEntity
8
SK1
62
256
6
ByLayer
370
-1
48
1
60
0
100
AcDbLine
10
0
20
6.230979
30
0
11
0
21
5.053908
31
0
39
0
210
0
220
0
230
1
0
LINE
5
D3
100
AcDbEntity
8
SK1
62
256
6
ByLayer
370
-1
48
1
60
0
100
AcDbLine
10
0
20
-5.053908
30
0
11
0
21
-6.230979
31
0
39
0
210
0
220
0
230
1
0
LINE
5
D4
100
AcDbEntity
8
SK1
62
256
6
ByLayer
370
-1
48
1
60
0
100
AcDbLine
10
-0.238766
20
-5.996051
30
0
11
-0.238766
21
-4.100175
31
0
39
0
210
0
220
0
230
1
0
LINE
5
D5
100
AcDbEntity
8
SK1
62
256
6
ByLayer
370
-1
48
1
60
0
100
AcDbLine
10
-0.238766
20
4.100175
30
0
11
-0.238766
21
5.996051
31
0
39
0
210
0
220
0
230
1
0
LINE
5
D6
100
AcDbEntity
8
SK1
62
256
6
ByLayer
370
-1
48
1
60
0
100
AcDbLine
10
0
20
-7.164154
30
0
11
0
21
-6.230979
31
0
39
0
210
0
220
0
230
1
0
LINE
5
D7
100
AcDbEntity
8
SK1
62
256
6
ByLayer
370
-1
48
1
60
0
100
AcDbLine
10
-0.298766
20
6.282675
30
0
11
-0.298766
21
6.053345
31
0
39
0
210
0
220
0
230
1
0
LINE
5
D8
100
AcDbEntity
8
SK1
62
256
6
ByLayer
370
-1
48
1
60
0
100
AcDbLine
10
0
20
-10.484219
30
0
11
0
21
-10.104769
31
0
39
0
210
0
220
0
230
1
0
LINE
5
D9
100
AcDbEntity
8
SK1
62
256
6
ByLayer
370
-1
48
1
60
0
100
AcDbLine
10
0
20
-10.104769
30
0
11
0
21
-9.670166
31
0
39
0
210
0
220
0
230
1
0
LINE
5
DA
100
AcDbEntity
8
SK1
62
256
6
ByLayer
370
-1
48
1
60
0
100
AcDbLine
10
-0.298766
20
-9.905096
30
0
11
-0.298766
21
-9.993951
31
0
39
0
210
0
220
0
230
1
0
LINE
5
DB
100
AcDbEntity
8
SK1
62
256
6
ByLayer
370
-1
48
1
60
0
100
AcDbLine
10
-0.238766
20
-9.909591
30
0
11
-0.238766
21
-9.263641
31
0
39
0
210
0
220
0
230
1
0
LINE
5
DC
100
AcDbEntity
8
SK1
62
256
6
ByLayer
370
-1
48
1
60
0
100
AcDbLine
10
-0.298766
20
-9.905096
30
0
11
-0.298766
21
-9.103218
31
0
39
0
210
0
220
0
230
1
0
LINE
5
DD
100
AcDbEntity
8
SK1
62
256
6
ByLayer
370
-1
48
1
60
0
100
AcDbLine
10
-0.298766
20
9.103218
30
0
11
-0.298766
21
9.905096
31
0
39
0
210
0
220
0
230
1
0
LINE
5
DE
100
AcDbEntity
8
SK1
62
256
6
ByLayer
370
-1
48
1
60
0
100
AcDbLine
10
0
20
10.104769
30
0
11
0
21
10.484219
31
0
39
0
210
0
220
0
230
1
0
LINE
5
DF
100
AcDbEntity
8
SK1
62
256
6
ByLayer
370
-1
48
1
60
0
100
AcDbLine
10
-0.238766
20
9.263641
30
0
11
-0.238766
21
9.909591
31
0
39
0
210
0
220
0
230
1
0
LINE
5
E0
100
AcDbEntity
8
SK1
62
256
6
ByLayer
370
-1
48
1
60
0
100
AcDbLine
10
-0.298766
20
9.993951
30
0
11
-0.298766
21
9.905096
31
0
39
0
210
0
220
0
230
1
0
LINE
5
E1
100
AcDbEntity
8
SK1
62
256
6
ByLayer
370
-1
48
1
60
0
100
AcDbLine
10
0
20
9.670166
30
0
11
0
21
10.104769
31
0
39
0
210
0
220
0
230
1
0
LINE
5
E2
100
AcDbEntity
8
SK1
62
256
6
ByLayer
370
-1
48
1
60
0
100
AcDbLine
10
-0.298766
20
10.666056
30
0
11
-0.298766
21
10.59954
31
0
39
0
210
0
220
0
230
1
0
LINE
5
E3
100
AcDbEntity
8
SK1
62
256
6
ByLayer
370
-1
48
1
60
0
100
AcDbLine
10
-0.298766
20
9.993951
30
0
11
-0.298766
21
10.59954
31
0
39
0
210
0
220
0
230
1
0
LINE
5
E4
100
AcDbEntity
8
SK1
62
256
6
ByLayer
370
-1
48
1
60
0
100
AcDbLine
10
-0.238766
20
10.127467
30
0
11
-0.238766
21
10.615984
31
0
39
0
210
0
220
0
230
1
0
LINE
5
E5
100
AcDbEntity
8
SK1
62
256
6
ByLayer
370
-1
48
1
60
0
100
AcDbLine
10
0
20
10.814347
30
0
11
0
21
11.099554
31
0
39
0
210
0
220
0
230
1
0
LINE
5
E6
100
AcDbEntity
8
SK1
62
256
6
ByLayer
370
-1
48
1
60
0
100
AcDbLine
10
0
20
10.814347
30
0
11
0
21
10.484191
31
0
39
0
210
0
220
0
230
1
0
LINE
5
E7
100
AcDbEntity
8
SK1
62
256
6
ByLayer
370
-1
48
1
60
0
100
AcDbLine
10
0
20
-10.484191
30
0
11
0
21
-10.814347
31
0
39
0
210
0
220
0
230
1
0
LINE
5
E8
100
AcDbEntity
8
SK1
62
256
6
ByLayer
370
-1
48
1
60
0
100
AcDbLine
10
-0.298766
20
10.666044
30
0
11
-0.298766
21
11.111461
31
0
39
0
210
0
220
0
230
1
0
LINE
5
E9
100
AcDbEntity
8
SK1
62
256
6
ByLayer
370
-1
48
1
60
0
100
AcDbLine
10
-0.238766
20
10.779197
30
0
11
-0.238766
21
11.138817
31
0
39
0
210
0
220
0
230
1
0
LINE
5
EA
100
AcDbEntity
8
SK1
62
256
6
ByLayer
370
-1
48
1
60
0
100
AcDbLine
10
-0.298766
20
11.159097
30
0
11
-0.298766
21
11.111461
31
0
39
0
210
0
220
0
230
1
0
LINE
5
EB
100
AcDbEntity
8
SK1
62
256
6
ByLayer
370
-1
48
1
60
0
100
AcDbLine
10
0
20
11.099518
30
0
11
0
21
11.343229
31
0
39
0
210
0
220
0
230
1
0
LINE
5
EC
100
AcDbEntity
8
SK1
62
256
6
ByLayer
370
-1
48
1
60
0
100
AcDbLine
10
0
20
11.343229
30
0
11
0
21
11.548002
31
0
39
0
210
0
220
0
230
1
0
LINE
5
ED
100
AcDbEntity
8
SK1
62
256
6
ByLayer
370
-1
48
1
60
0
100
AcDbLine
10
-0.298766
20
-11.111461
30
0
11
-0.298766
21
-10.666044
31
0
39
0
210
0
220
0
230
1
0
LINE
5
EE
100
AcDbEntity
8
SK1
62
256
6
ByLayer
370
-1
48
1
60
0
100
AcDbLine
10
0
20
11.715912
30
0
11
0
21
11.848527
31
0
39
0
210
0
220
0
230
1
0
LINE
5
EF
100
AcDbEntity
8
SK1
62
256
6
ByLayer
370
-1
48
1
60
0
100
AcDbLine
10
0
20
11.715912
30
0
11
0
21
11.547978
31
0
39
0
210
0
220
0
230
1
0
LINE
5
F0
100
AcDbEntity
8
SK1
62
256
6
ByLayer
370
-1
48
1
60
0
100
AcDbLine
10
-0.298766
20
11.496135
30
0
11
-0.298766
21
11.465333
31
0
39
0
210
0
220
0
230
1
0
LINE
5
F1
100
AcDbEntity
8
SK1
62
256
6
ByLayer
370
-1
48
1
60
0
100
AcDbLine
10
-0.238766
20
11.255741
30
0
11
-0.238766
21
11.503145
31
0
39
0
210
0
220
0
230
1
0
LINE
5
F2
100
AcDbEntity
8
SK1
62
256
6
ByLayer
370
-1
48
1
60
0
100
AcDbLine
10
-0.298766
20
11.159033
30
0
11
-0.298766
21
11.465333
31
0
39
0
210
0
220
0
230
1
0
LINE
5
F3
100
AcDbEntity
8
SK1
62
256
6
ByLayer
370
-1
48
1
60
0
100
AcDbLine
10
-0.298766
20
-11.465333
30
0
11
-0.298766
21
-11.159033
31
0
39
0
210
0
220
0
230
1
0
LINE
5
F4
100
AcDbEntity
8
SK1
62
256
6
ByLayer
370
-1
48
1
60
0
100
AcDbLine
10
-0.298766
20
-10.59954
30
0
11
-0.298766
21
-9.993951
31
0
39
0
210
0
220
0
230
1
0
LINE
5
F5
100
AcDbEntity
8
SK1
62
256
6
ByLayer
370
-1
48
1
60
0
100
AcDbLine
10
-0.298766
20
-10.59954
30
0
11
-0.298766
21
-10.666056
31
0
39
0
210
0
220
0
230
1
0
LINE
5
F6
100
AcDbEntity
8
SK1
62
256
6
ByLayer
370
-1
48
1
60
0
100
AcDbLine
10
-0.298766
20
-11.111461
30
0
11
-0.298766
21
-11.159097
31
0
39
0
210
0
220
0
230
1
0
LINE
5
F7
100
AcDbEntity
8
SK1
62
256
6
ByLayer
370
-1
48
1
60
0
100
AcDbLine
10
-0.298766
20
-11.465333
30
0
11
-0.298766
21
-11.496135
31
0
39
0
210
0
220
0
230
1
0
LINE
5
F8
100
AcDbEntity
8
SK1
62
256
6
ByLayer
370
-1
48
1
60
0
100
AcDbLine
10
0
20
-11.099554
30
0
11
0
21
-10.814347
31
0
39
0
210
0
220
0
230
1
0
LINE
5
F9
100
AcDbEntity
8
SK1
62
256
6
ByLayer
370
-1
48
1
60
0
100
AcDbLine
10
-0.238766
20
-10.615984
30
0
11
-0.238766
21
-10.127467
31
0
39
0
210
0
220
0
230
1
0
LINE
5
FA
100
AcDbEntity
8
1
62
256
6
ByLayer
370
-1
48
1
60
0
100
AcDbLine
10
23.862901
20
-7.98386
30
0
11
23.689126
21
-8.581285
31
0
39
0
210
0
220
0
230
1
0
LINE
5
FB
100
AcDbEntity
8
1
62
256
6
ByLayer
370
-1
48
1
60
0
100
AcDbLine
10
23.853989
20
-14.775948
30
0
11
23.56171
21
-14.273106
31
0
39
0
210
0
220
0
230
1
0
LINE
5
FC
100
AcDbEntity
8
1
62
256
6
ByLayer
370
-1
48
1
60
0
100
AcDbLine
10
14.609756
20
-7.329883
30
0
11
14.54035
21
-6.628758
31
0
39
0
210
0
220
0
230
1
0
LINE
5
FD
100
AcDbEntity
8
1
62
256
6
ByLayer
370
-1
48
1
60
0
100
AcDbLine
10
24.138297
20
-14.7751
30
0
11
24.141633
21
-15.325132
31
0
39
0
210
0
220
0
230
1
0
LINE
5
FE
100
AcDbEntity
8
1
62
256
6
ByLayer
370
-1
48
1
60
0
100
AcDbLine
10
24.081737
20
-3.288005
30
0
11
24.056779
21
-3.285132
31
0
39
0
210
0
220
0
230
1
0
LINE
5
FF
100
AcDbEntity
8
1
62
256
6
ByLayer
370
-1
48
1
60
0
100
AcDbLine
10
24.339005
20
-2.158976
30
0
11
24.324843
21
-2.134857
31
0
39
0
210
0
220
0
230
1
0
LINE
5
100
100
AcDbEntity
8
1
62
256
6
ByLayer
370
-1
48
1
60
0
100
AcDbLine
10
12.375458
20
-8.612523
30
0
11
12.307224
21
-7.923242
31
0
39
0
210
0
220
0
230
1
0
LINE
5
101
100
AcDbEntity
8
1
62
256
6
ByLayer
370
-1
48
1
60
0
100
AcDbLine
10
23.658936
20
-14.216381
30
0
11
23.951215
21
-14.719224
31
0
39
0
210
0
220
0
230
1
0
LINE
5
102
100
AcDbEntity
8
1
62
256
6
ByLayer
370
-1
48
1
60
0
100
AcDbLine
10
24.485097
20
-7.935975
30
0
11
25.004278
21
-8.045893
31
0
39
0
210
0
220
0
230
1
0
LINE
5
103
100
AcDbEntity
8
1
62
256
6
ByLayer
370
-1
48
1
60
0
100
AcDbLine
10
18.318101
20
-6.044006
30
0
11
17.706381
21
-6.196056
31
0
39
0
210
0
220
0
230
1
0
LINE
5
104
100
AcDbEntity
8
1
62
256
6
ByLayer
370
-1
48
1
60
0
100
AcDbLine
10
12.643987
20
-8.580265
30
0
11
13.09464
21
-8.803379
31
0
39
0
210
0
220
0
230
1
0
LINE
5
105
100
AcDbEntity
8
1
62
256
6
ByLayer
370
-1
48
1
60
0
100
AcDbLine
10
12.307224
20
-7.923242
30
0
11
12.321386
21
-7.899038
31
0
39
0
210
0
220
0
230
1
0
LINE
5
106
100
AcDbEntity
8
1
62
256
6
ByLayer
370
-1
48
1
60
0
100
AcDbLine
10
13.470327
20
-7.374112
30
0
11
13.77975
21
-6.845316
31
0
39
0
210
0
220
0
230
1
0
LINE
5
107
100
AcDbEntity
8
1
62
256
6
ByLayer
370
-1
48
1
60
0
100
AcDbLine
10
23.693501
20
-3.236781
30
0
11
24.211292
21
-2.370415
31
0
39
0
210
0
220
0
230
1
0
LINE
5
108
100
AcDbEntity
8
1
62
256
6
ByLayer
370
-1
48
1
60
0
100
AcDbLine
10
23.373813
20
-3.011668
30
0
11
23.659466
21
-2.533715
31
0
39
0
210
0
220
0
230
1
0
LINE
5
109
100
AcDbEntity
8
1
62
256
6
ByLayer
370
-1
48
1
60
0
100
AcDbLine
10
18.311762
20
-6.018739
30
0
11
17.933417
21
-4.692848
31
0
39
0
210
0
220
0
230
1
0
LINE
5
10A
100
AcDbEntity
8
1
62
256
6
ByLayer
370
-1
48
1
60
0
100
AcDbLine
10
13.235132
20
-9.522574
30
0
11
12.952486
21
-9.046316
31
0
39
0
210
0
220
0
230
1
0
LINE
5
10B
100
AcDbEntity
8
1
62
256
6
ByLayer
370
-1
48
1
60
0
100
AcDbLine
10
17.352816
20
-5.654696
30
0
11
17.203241
21
-5.130518
31
0
39
0
210
0
220
0
230
1
0
LINE
5
10C
100
AcDbEntity
8
1
62
256
6
ByLayer
370
-1
48
1
60
0
100
AcDbLine
10
22.608708
20
-1.987694
30
0
11
22.584527
21
-1.743423
31
0
39
0
210
0
220
0
230
1
0
LINE
5
10D
100
AcDbEntity
8
1
62
256
6
ByLayer
370
-1
48
1
60
0
100
AcDbLine
10
19.171144
20
-12.339017
30
0
11
18.733199
21
-11.893642
31
0
39
0
210
0
220
0
230
1
0
LINE
5
10E
100
AcDbEntity
8
1
62
256
6
ByLayer
370
-1
48
1
60
0
100
AcDbLine
10
24.479392
20
-4.964182
30
0
11
24.341772
21
-4.695407
31
0
39
0
210
0
220
0
230
1
0
LINE
5
10F
100
AcDbEntity
8
1
62
256
6
ByLayer
370
-1
48
1
60
0
100
AcDbLine
10
24.152694
20
-2.033868
30
0
11
22.608708
21
-1.987694
31
0
39
0
210
0
220
0
230
1
0
LINE
5
110
100
AcDbEntity
8
1
62
256
6
ByLayer
370
-1
48
1
60
0
100
AcDbLine
10
12.493235
20
-7.800049
30
0
11
13.324571
21
-7.792119
31
0
39
0
210
0
220
0
230
1
0
LINE
5
111
100
AcDbEntity
8
1
62
256
6
ByLayer
370
-1
48
1
60
0
100
AcDbLine
10
24.995885
20
-12.465425
30
0
11
25.005269
21
-12.183763
31
0
39
0
210
0
220
0
230
1
0
LINE
5
112
100
AcDbEntity
8
1
62
256
6
ByLayer
370
-1
48
1
60
0
100
AcDbLine
10
13.09464
20
-8.803379
30
0
11
13.668062
21
-8.782708
31
0
39
0
210
0
220
0
230
1
0
LINE
5
113
100
AcDbEntity
8
1
62
256
6
ByLayer
370
-1
48
1
60
0
100
AcDbLine
10
18.616439
20
-13.320261
30
0
11
18.89441
21
-12.885175
31
0
39
0
210
0
220
0
230
1
0
LINE
5
114
100
AcDbEntity
8
1
62
256
6
ByLayer
370
-1
48
1
60
0
100
AcDbLine
10
24.31181
20
-4.606204
30
0
11
21.69053
21
-3.02503
31
0
39
0
210
0
220
0
230
1
0
LINE
5
115
100
AcDbEntity
8
1
62
256
6
ByLayer
370
-1
48
1
60
0
100
AcDbLine
10
17.700041
20
-6.170789
30
0
11
18.311762
21
-6.018739
31
0
39
0
210
0
220
0
230
1
0
LINE
5
116
100
AcDbEntity
8
1
62
256
6
ByLayer
370
-1
48
1
60
0
100
AcDbLine
10
23.02427
20
-2.097078
30
0
11
23.035385
21
-2.336911
31
0
39
0
210
0
220
0
230
1
0
LINE
5
117
100
AcDbEntity
8
1
62
256
6
ByLayer
370
-1
48
1
60
0
100
AcDbLine
10
13.859201
20
-10.506693
30
0
11
14.178545
21
-10.291109
31
0
39
0
210
0
220
0
230
1
0
LINE
5
118
100
AcDbEntity
8
1
62
256
6
ByLayer
370
-1
48
1
60
0
100
AcDbLine
10
24.992953
20
-12.78297
30
0
11
24.676315
21
-12.992773
31
0
39
0
210
0
220
0
230
1
0
LINE
5
119
100
AcDbEntity
8
1
62
256
6
ByLayer
370
-1
48
1
60
0
100
AcDbLine
10
17.615516
20
-12.7304
30
0
11
18.189666
21
-12.170814
31
0
39
0
210
0
220
0
230
1
0
LINE
5
11A
100
AcDbEntity
8
1
62
256
6
ByLayer
370
-1
48
1
60
0
100
AcDbLine
10
13.532426
20
-8.347387
30
0
11
13.466876
21
-7.68521
31
0
39
0
210
0
220
0
230
1
0
LINE
5
11B
100
AcDbEntity
8
1
62
256
6
ByLayer
370
-1
48
1
60
0
100
AcDbLine
10
14.747376
20
-7.143083
30
0
11
14.609756
21
-7.329883
31
0
39
0
210
0
220
0
230
1
0
LINE
5
11C
100
AcDbEntity
8
1
62
256
6
ByLayer
370
-1
48
1
60
0
100
AcDbLine
10
23.693501
20
-3.236781
30
0
11
23.468314
21
-3.074192
31
0
39
0
210
0
220
0
230
1
0
LINE
5
11D
100
AcDbEntity
8
1
62
256
6
ByLayer
370
-1
48
1
60
0
100
AcDbLine
10
14.242913
20
-10.722753
30
0
11
13.919195
21
-10.539633
31
0
39
0
210
0
220
0
230
1
0
LINE
5
11E
100
AcDbEntity
8
1
62
256
6
ByLayer
370
-1
48
1
60
0
100
AcDbLine
10
24.648492
20
-13.048212
30
0
11
22.059034
21
-14.521118
31
0
39
0
210
0
220
0
230
1
0
LINE
5
11F
100
AcDbEntity
8
1
62
256
6
ByLayer
370
-1
48
1
60
0
100
AcDbLine
10
17.361023
20
-12.61608
30
0
11
15.024431
21
-11.294322
31
0
39
0
210
0
220
0
230
1
0
LINE
5
120
100
AcDbEntity
8
1
62
256
6
ByLayer
370
-1
48
1
60
0
100
AcDbLine
10
24.425206
20
-4.254569
30
0
11
24.898278
21
-5.060212
31
0
39
0
210
0
220
0
230
1
0
LINE
5
121
100
AcDbEntity
8
1
62
256
6
ByLayer
370
-1
48
1
60
0
100
AcDbLine
10
24.056779
20
-3.285132
30
0
11
24.017668
21
-2.890043
31
0
39
0
210
0
220
0
230
1
0
LINE
5
122
100
AcDbEntity
8
1
62
256
6
ByLayer
370
-1
48
1
60
0
100
AcDbLine
10
23.327523
20
-14.414499
30
0
11
23.56171
21
-14.273106
31
0
39
0
210
0
220
0
230
1
0
LINE
5
123
100
AcDbEntity
8
1
62
256
6
ByLayer
370
-1
48
1
60
0
100
AcDbLine
10
22.770328
20
-2.460827
30
0
11
22.767147
21
-2.837519
31
0
39
0
210
0
220
0
230
1
0
LINE
5
124
100
AcDbEntity
8
1
62
256
6
ByLayer
370
-1
48
1
60
0
100
AcDbLine
10
24.256609
20
-1.445576
30
0
11
24.270771
21
-1.469695
31
0
39
0
210
0
220
0
230
1
0
LINE
5
125
100
AcDbEntity
8
1
62
256
6
ByLayer
370
-1
48
1
60
0
100
AcDbLine
10
23.035385
20
-2.336911
30
0
11
23.611813
21
-2.354149
31
0
39
0
210
0
220
0
230
1
0
LINE
5
126
100
AcDbEntity
8
1
62
256
6
ByLayer
370
-1
48
1
60
0
100
AcDbLine
10
22.48168
20
-2.01718
30
0
11
21.841525
21
-2.359293
31
0
39
0
210
0
220
0
230
1
0
LINE
5
127
100
AcDbEntity
8
1
62
256
6
ByLayer
370
-1
48
1
60
0
100
AcDbLine
10
18.335264
20
-5.409019
30
0
11
18.272372
21
-4.53683
31
0
39
0
210
0
220
0
230
1
0
LINE
5
128
100
AcDbEntity
8
1
62
256
6
ByLayer
370
-1
48
1
60
0
100
AcDbLine
10
13.014174
20
-9.686495
30
0
11
13.235132
21
-9.522574
31
0
39
0
210
0
220
0
230
1
0
LINE
5
129
100
AcDbEntity
8
1
62
256
6
ByLayer
370
-1
48
1
60
0
100
AcDbLine
10
14.212655
20
-10.341523
30
0
11
13.919195
21
-10.539633
31
0
39
0
210
0
220
0
230
1
0
LINE
5
12A
100
AcDbEntity
8
1
62
256
6
ByLayer
370
-1
48
1
60
0
100
AcDbLine
10
15.206258
20
-5.963131
30
0
11
15.241027
21
-6.31435
31
0
39
0
210
0
220
0
230
1
0
LINE
5
12B
100
AcDbEntity
8
1
62
256
6
ByLayer
370
-1
48
1
60
0
100
AcDbLine
10
13.532426
20
-8.347387
30
0
11
13.510416
21
-8.385003
31
0
39
0
210
0
220
0
230
1
0
LINE
5
12C
100
AcDbEntity
8
1
62
256
6
ByLayer
370
-1
48
1
60
0
100
AcDbLine
10
23.985985
20
-15.549628
30
0
11
24.01431
21
-15.549543
31
0
39
0
210
0
220
0
230
1
0
LINE
5
12D
100
AcDbEntity
8
1
62
256
6
ByLayer
370
-1
48
1
60
0
100
AcDbLine
10
13.84577
20
-7.512237
30
0
11
13.77975
21
-6.845316
31
0
39
0
210
0
220
0
230
1
0
LINE
5
12E
100
AcDbEntity
8
1
62
256
6
ByLayer
370
-1
48
1
60
0
100
AcDbLine
10
13.045977
20
-8.983232
30
0
11
13.328623
21
-9.459489
31
0
39
0
210
0
220
0
230
1
0
LINE
5
12F
100
AcDbEntity
8
1
62
256
6
ByLayer
370
-1
48
1
60
0
100
AcDbLine
10
23.327523
20
-14.414499
30
0
11
23.857325
21
-15.32598
31
0
39
0
210
0
220
0
230
1
0
LINE
5
130
100
AcDbEntity
8
1
62
256
6
ByLayer
370
-1
48
1
60
0
100
AcDbLine
10
14.504213
20
-10.3344
30
0
11
14.551093
21
-10.925046
31
0
39
0
210
0
220
0
230
1
0
LINE
5
131
100
AcDbEntity
8
1
62
256
6
ByLayer
370
-1
48
1
60
0
100
AcDbLine
10
25.003423
20
-9.06489
30
0
11
24.207428
21
-8.896365
31
0
39
0
210
0
220
0
230
1
0
LINE
5
132
100
AcDbEntity
8
1
62
256
6
ByLayer
370
-1
48
1
60
0
100
AcDbLine
10
23.658936
20
-14.216381
30
0
11
23.993539
21
-14.015808
31
0
39
0
210
0
220
0
230
1
0
LINE
5
133
100
AcDbEntity
8
1
62
256
6
ByLayer
370
-1
48
1
60
0
100
AcDbLine
10
15.332519
20
-6.223961
30
0
11
17.025631
21
-5.256097
31
0
39
0
210
0
220
0
230
1
0
LINE
5
134
100
AcDbEntity
8
1
62
256
6
ByLayer
370
-1
48
1
60
0
100
AcDbLine
10
14.870315
20
-6.947886
30
0
11
15.024431
21
-11.294322
31
0
39
0
210
0
220
0
230
1
0
LINE
5
135
100
AcDbEntity
8
1
62
256
6
ByLayer
370
-1
48
1
60
0
100
AcDbLine
10
13.84577
20
-7.512237
30
0
11
13.536347
21
-8.041033
31
0
39
0
210
0
220
0
230
1
0
LINE
5
136
100
AcDbEntity
8
1
62
256
6
ByLayer
370
-1
48
1
60
0
100
AcDbLine
10
24.22085
20
-3.37775
30
0
11
24.15483
21
-2.710829
31
0
39
0
210
0
220
0
230
1
0
LINE
5
137
100
AcDbEntity
8
1
62
256
6
ByLayer
370
-1
48
1
60
0
100
AcDbLine
10
14.557524
20
-7.375751
30
0
11
14.504213
21
-10.3344
31
0
39
0
210
0
220
0
230
1
0
LINE
5
138
100
AcDbEntity
8
1
62
256
6
ByLayer
370
-1
48
1
60
0
100
AcDbLine
10
14.242913
20
-10.722753
30
0
11
14.212655
21
-10.341523
31
0
39
0
210
0
220
0
230
1
0
LINE
5
139
100
AcDbEntity
8
1
62
256
6
ByLayer
370
-1
48
1
60
0
100
AcDbLine
10
22.331927
20
-14.812906
30
0
11
22.950773
21
-14.811059
31
0
39
0
210
0
220
0
230
1
0
LINE
5
13A
100
AcDbEntity
8
1
62
256
6
ByLayer
370
-1
48
1
60
0
100
AcDbLine
10
25.005916
20
-9.276524
30
0
11
25.003423
21
-9.06489
31
0
39
0
210
0
220
0
230
1
0
LINE
5
13B
100
AcDbEntity
8
1
62
256
6
ByLayer
370
-1
48
1
60
0
100
AcDbLine
10
20.833672
20
-3.065769
30
0
11
24.479392
21
-4.964182
31
0
39
0
210
0
220
0
230
1
0
LINE
5
13C
100
AcDbEntity
8
1
62
256
6
ByLayer
370
-1
48
1
60
0
100
AcDbLine
10
24.602331
20
-5.184147
30
0
11
24.973042
21
-5.81547
31
0
39
0
210
0
220
0
230
1
0
LINE
5
13D
100
AcDbEntity
8
1
62
256
6
ByLayer
370
-1
48
1
60
0
100
AcDbLine
10
18.36665
20
-4.489506
30
0
11
20.703242
21
-3.153798
31
0
39
0
210
0
220
0
230
1
0
LINE
5
13E
100
AcDbEntity
8
1
62
256
6
ByLayer
370
-1
48
1
60
0
100
AcDbLine
10
24.460905
20
-13.995255
30
0
11
24.125111
21
-13.796683
31
0
39
0
210
0
220
0
230
1
0
LINE
5
13F
100
AcDbEntity
8
1
62
256
6
ByLayer
370
-1
48
1
60
0
100
AcDbLine
10
14.551093
20
-10.925046
30
0
11
14.891477
21
-11.207079
31
0
39
0
210
0
220
0
230
1
0
LINE
5
140
100
AcDbEntity
8
1
62
256
6
ByLayer
370
-1
48
1
60
0
100
AcDbLine
10
24.898278
20
-5.060212
30
0
11
24.973042
21
-5.81547
31
0
39
0
210
0
220
0
230
1
0
LINE
5
141
100
AcDbEntity
8
1
62
256
6
ByLayer
370
-1
48
1
60
0
100
AcDbLine
10
13.223512
20
-10.168389
30
0
11
13.859201
21
-10.506693
31
0
39
0
210
0
220
0
230
1
0
LINE
5
142
100
AcDbEntity
8
1
62
256
6
ByLayer
370
-1
48
1
60
0
100
AcDbLine
10
23.615043
20
-2.458062
30
0
11
23.038614
21
-2.440823
31
0
39
0
210
0
220
0
230
1
0
LINE
5
143
100
AcDbEntity
8
1
62
256
6
ByLayer
370
-1
48
1
60
0
100
AcDbLine
10
18.977977
20
-12.942768
30
0
11
18.702042
21
-13.374666
31
0
39
0
210
0
220
0
230
1
0
LINE
5
144
100
AcDbEntity
8
1
62
256
6
ByLayer
370
-1
48
1
60
0
100
AcDbLine
10
24.993058
20
-13.220551
30
0
11
24.648492
21
-13.048212
31
0
39
0
210
0
220
0
230
1
0
LINE
5
145
100
AcDbEntity
8
1
62
256
6
ByLayer
370
-1
48
1
60
0
100
AcDbLine
10
21.155288
20
-2.78176
30
0
11
20.833672
21
-3.065769
31
0
39
0
210
0
220
0
230
1
0
LINE
5
146
100
AcDbEntity
8
1
62
256
6
ByLayer
370
-1
48
1
60
0
100
AcDbLine
10
24.992953
20
-12.78297
30
0
11
24.992953
21
-13.151143
31
0
39
0
210
0
220
0
230
1
0
LINE
5
147
100
AcDbEntity
8
1
62
256
6
ByLayer
370
-1
48
1
60
0
100
AcDbLine
10
24.415896
20
-4.270136
30
0
11
24.530599
21
-4.078215
31
0
39
0
210
0
220
0
230
1
0
LINE
5
148
100
AcDbEntity
8
1
62
256
6
ByLayer
370
-1
48
1
60
0
100
AcDbLine
10
23.373813
20
-3.011668
30
0
11
23.035433
21
-2.817515
31
0
39
0
210
0
220
0
230
1
0
LINE
5
149
100
AcDbEntity
8
1
62
256
6
ByLayer
370
-1
48
1
60
0
100
AcDbLine
10
14.000164
20
-7.420423
30
0
11
13.934414
21
-6.756226
31
0
39
0
210
0
220
0
230
1
0
LINE
5
14A
100
AcDbEntity
8
1
62
256
6
ByLayer
370
-1
48
1
60
0
100
AcDbLine
10
24.665985
20
-14.410504
30
0
11
24.42757
21
-14.270521
31
0
39
0
210
0
220
0
230
1
0
LINE
5
14B
100
AcDbEntity
8
1
62
256
6
ByLayer
370
-1
48
1
60
0
100
AcDbLine
10
25.005269
20
-12.183763
30
0
11
21.503651
21
-14.349347
31
0
39
0
210
0
220
0
230
1
0
LINE
5
14C
100
AcDbEntity
8
1
62
256
6
ByLayer
370
-1
48
1
60
0
100
AcDbLine
10
12.38962
20
-8.58832
30
0
11
12.321386
21
-7.899038
31
0
39
0
210
0
220
0
230
1
0
LINE
5
14D
100
AcDbEntity
8
1
62
256
6
ByLayer
370
-1
48
1
60
0
100
AcDbLine
10
24.99529
20
-13.96863
30
0
11
24.993058
21
-13.220551
31
0
39
0
210
0
220
0
230
1
0
LINE
5
14E
100
AcDbEntity
8
1
62
256
6
ByLayer
370
-1
48
1
60
0
100
AcDbLine
10
21.69053
20
-3.02503
30
0
11
21.155288
21
-2.78176
31
0
39
0
210
0
220
0
230
1
0
LINE
5
14F
100
AcDbEntity
8
1
62
256
6
ByLayer
370
-1
48
1
60
0
100
AcDbLine
10
24.48954
20
-7.8458
30
0
11
25.006531
21
-7.864091
31
0
39
0
210
0
220
0
230
1
0
LINE
5
150
100
AcDbEntity
8
1
62
256
6
ByLayer
370
-1
48
1
60
0
100
AcDbLine
10
12.501833
20
-8.823203
30
0
11
13.014174
21
-9.686495
31
0
39
0
210
0
220
0
230
1
0
LINE
5
151
100
AcDbEntity
8
1
62
256
6
ByLayer
370
-1
48
1
60
0
100
AcDbLine
10
25.002379
20
-8.859321
30
0
11
25.002922
21
-8.22522
31
0
39
0
210
0
220
0
230
1
0
LINE
5
152
100
AcDbEntity
8
1
62
256
6
ByLayer
370
-1
48
1
60
0
100
AcDbLine
10
17.361023
20
-12.61608
30
0
11
18.135809
21
-12.097836
31
0
39
0
210
0
220
0
230
1
0
LINE
5
153
100
AcDbEntity
8
1
62
256
6
ByLayer
370
-1
48
1
60
0
100
AcDbLine
10
13.936855
20
-9.281713
30
0
11
13.934865
21
-8.905037
31
0
39
0
210
0
220
0
230
1
0
LINE
5
154
100
AcDbEntity
8
1
62
256
6
ByLayer
370
-1
48
1
60
0
100
AcDbLine
10
24.339005
20
-2.158976
30
0
11
24.270771
21
-1.469695
31
0
39
0
210
0
220
0
230
1
0
LINE
5
155
100
AcDbEntity
8
1
62
256
6
ByLayer
370
-1
48
1
60
0
100
AcDbLine
10
18.751972
20
-11.876163
30
0
11
19.189917
21
-12.321538
31
0
39
0
210
0
220
0
230
1
0
LINE
5
156
100
AcDbEntity
8
1
62
256
6
ByLayer
370
-1
48
1
60
0
100
AcDbLine
10
23.753967
20
-2.596238
30
0
11
23.468314
21
-3.074192
31
0
39
0
210
0
220
0
230
1
0
LINE
5
157
100
AcDbEntity
8
1
62
256
6
ByLayer
370
-1
48
1
60
0
100
AcDbLine
10
24.211292
20
-2.370415
30
0
11
23.753967
21
-2.596238
31
0
39
0
210
0
220
0
230
1
0
LINE
5
158
100
AcDbEntity
8
1
62
256
6
ByLayer
370
-1
48
1
60
0
100
AcDbLine
10
14.23042
20
-7.412123
30
0
11
14.000164
21
-7.420423
31
0
39
0
210
0
220
0
230
1
0
LINE
5
159
100
AcDbEntity
8
1
62
256
6
ByLayer
370
-1
48
1
60
0
100
AcDbLine
10
23.94858
20
-3.21533
30
0
11
23.930771
21
-3.035425
31
0
39
0
210
0
220
0
230
1
0
LINE
5
15A
100
AcDbEntity
8
1
62
256
6
ByLayer
370
-1
48
1
60
0
100
AcDbLine
10
18.519925
20
-13.25016
30
0
11
18.616439
21
-13.320261
31
0
39
0
210
0
220
0
230
1
0
LINE
5
15B
100
AcDbEntity
8
1
62
256
6
ByLayer
370
-1
48
1
60
0
100
AcDbLine
10
24.329333
20
-14.21438
30
0
11
23.993539
21
-14.015808
31
0
39
0
210
0
220
0
230
1
0
LINE
5
15C
100
AcDbEntity
8
1
62
256
6
ByLayer
370
-1
48
1
60
0
100
AcDbLine
10
12.374496
20
-8.805323
30
0
11
13.131575
21
-10.080997
31
0
39
0
210
0
220
0
230
1
0
LINE
5
15D
100
AcDbEntity
8
1
62
256
6
ByLayer
370
-1
48
1
60
0
100
AcDbLine
10
22.897341
20
-3.059239
30
0
11
23.235721
21
-3.253392
31
0
39
0
210
0
220
0
230
1
0
LINE
5
15E
100
AcDbEntity
8
1
62
256
6
ByLayer
370
-1
48
1
60
0
100
AcDbLine
10
21.803074
20
-2.734662
30
0
11
21.781322
21
-2.392592
31
0
39
0
210
0
220
0
230
1
0
LINE
5
15F
100
AcDbEntity
8
1
62
256
6
ByLayer
370
-1
48
1
60
0
100
AcDbLine
10
25.004278
20
-8.045893
30
0
11
25.005904
21
-7.9544
31
0
39
0
210
0
220
0
230
1
0
LINE
5
160
100
AcDbEntity
8
1
62
256
6
ByLayer
370
-1
48
1
60
0
100
AcDbLine
10
14.891477
20
-11.207079
30
0
11
14.747376
21
-7.143083
31
0
39
0
210
0
220
0
230
1
0
LINE
5
161
100
AcDbEntity
8
1
62
256
6
ByLayer
370
-1
48
1
60
0
100
AcDbLine
10
13.469472
20
-9.70038
30
0
11
13.806661
21
-9.50421
31
0
39
0
210
0
220
0
230
1
0
LINE
5
162
100
AcDbEntity
8
1
62
256
6
ByLayer
370
-1
48
1
60
0
100
AcDbLine
10
13.683405
20
-8.542796
30
0
11
12.643987
21
-8.580265
31
0
39
0
210
0
220
0
230
1
0
LINE
5
163
100
AcDbEntity
8
1
62
256
6
ByLayer
370
-1
48
1
60
0
100
AcDbLine
10
18.10594
20
-4.605363
30
0
11
18.335264
21
-5.409019
31
0
39
0
210
0
220
0
230
1
0
LINE
5
164
100
AcDbEntity
8
1
62
256
6
ByLayer
370
-1
48
1
60
0
100
AcDbLine
10
14.178545
20
-10.291109
30
0
11
14.23042
21
-7.412123
31
0
39
0
210
0
220
0
230
1
0
LINE
5
165
100
AcDbEntity
8
1
62
256
6
ByLayer
370
-1
48
1
60
0
100
AcDbLine
10
18.189666
20
-12.170814
30
0
11
17.45407
21
-12.662845
31
0
39
0
210
0
220
0
230
1
0
LINE
5
166
100
AcDbEntity
8
1
62
256
6
ByLayer
370
-1
48
1
60
0
100
AcDbLine
10
23.857325
20
-15.32598
30
0
11
23.853989
21
-14.775948
31
0
39
0
210
0
220
0
230
1
0
LINE
5
167
100
AcDbEntity
8
1
62
256
6
ByLayer
370
-1
48
1
60
0
100
AcDbLine
10
24.530273
20
-3.904699
30
0
11
24.22085
21
-3.37775
31
0
39
0
210
0
220
0
230
1
0
LINE
5
168
100
AcDbEntity
8
1
62
256
6
ByLayer
370
-1
48
1
60
0
100
AcDbLine
10
24.676315
20
-12.992773
30
0
11
24.992953
21
-13.151143
31
0
39
0
210
0
220
0
230
1
0
LINE
5
169
100
AcDbEntity
8
1
62
256
6
ByLayer
370
-1
48
1
60
0
100
AcDbLine
10
25.006531
20
-5.938471
30
0
11
25.006531
21
-7.864091
31
0
39
0
210
0
220
0
230
1
0
LINE
5
16A
100
AcDbEntity
8
1
62
256
6
ByLayer
370
-1
48
1
60
0
100
AcDbLine
10
23.390543
20
-14.722663
30
0
11
23.813175
21
-15.449768
31
0
39
0
210
0
220
0
230
1
0
LINE
5
16B
100
AcDbEntity
8
1
62
256
6
ByLayer
370
-1
48
1
60
0
100
AcDbLine
10
17.266688
20
-5.706285
30
0
11
17.025631
21
-5.256097
31
0
39
0
210
0
220
0
230
1
0
LINE
5
16C
100
AcDbEntity
8
1
62
256
6
ByLayer
370
-1
48
1
60
0
100
AcDbLine
10
17.109979
20
-5.201185
30
0
11
17.352816
21
-5.654696
31
0
39
0
210
0
220
0
230
1
0
LINE
5
16D
100
AcDbEntity
8
1
62
256
6
ByLayer
370
-1
48
1
60
0
100
AcDbLine
10
24.186521
20
-15.448654
30
0
11
24.961348
21
-14.09712
31
0
39
0
210
0
220
0
230
1
0
LINE
5
16E
100
AcDbEntity
8
1
62
256
6
ByLayer
370
-1
48
1
60
0
100
AcDbLine
10
13.444865
20
-7.722826
30
0
11
13.466876
21
-7.68521
31
0
39
0
210
0
220
0
230
1
0
LINE
5
16F
100
AcDbEntity
8
1
62
256
6
ByLayer
370
-1
48
1
60
0
100
AcDbLine
10
13.663822
20
-8.886643
30
0
11
13.665812
21
-9.263319
31
0
39
0
210
0
220
0
230
1
0
LINE
5
170
100
AcDbEntity
8
1
62
256
6
ByLayer
370
-1
48
1
60
0
100
AcDbLine
10
21.457604
20
-2.577645
30
0
11
21.803074
21
-2.734662
31
0
39
0
210
0
220
0
230
1
0
LINE
5
171
100
AcDbEntity
8
1
62
256
6
ByLayer
370
-1
48
1
60
0
100
AcDbLine
10
23.926316
20
-3.042888
30
0
11
24.339367
21
-2.351772
31
0
39
0
210
0
220
0
230
1
0
LINE
5
172
100
AcDbEntity
8
1
62
256
6
ByLayer
370
-1
48
1
60
0
100
AcDbLine
10
13.528324
20
-8.201127
30
0
11
13.538667
21
-8.22287
31
0
39
0
210
0
220
0
230
1
0
LINE
5
173
100
AcDbEntity
8
1
62
256
6
ByLayer
370
-1
48
1
60
0
100
AcDbLine
10
21.261557
20
-14.36282
30
0
11
20.520135
21
-14.365033
31
0
39
0
210
0
220
0
230
1
0
LINE
5
174
100
AcDbEntity
8
1
62
256
6
ByLayer
370
-1
48
1
60
0
100
AcDbLine
10
23.864724
20
-13.79746
30
0
11
23.530121
21
-13.998034
31
0
39
0
210
0
220
0
230
1
0
LINE
5
175
100
AcDbEntity
8
1
62
256
6
ByLayer
370
-1
48
1
60
0
100
AcDbLine
10
17.933417
20
-4.692848
30
0
11
17.371605
21
-5.019797
31
0
39
0
210
0
220
0
230
1
0
LINE
5
176
100
AcDbEntity
8
1
62
256
6
ByLayer
370
-1
48
1
60
0
100
AcDbLine
10
13.510416
20
-8.385003
30
0
11
13.444865
21
-7.722826
31
0
39
0
210
0
220
0
230
1
0
LINE
5
177
100
AcDbEntity
8
1
62
256
6
ByLayer
370
-1
48
1
60
0
100
AcDbLine
10
12.38962
20
-8.58832
30
0
11
12.375458
21
-8.612523
31
0
39
0
210
0
220
0
230
1
0
LINE
5
178
100
AcDbEntity
8
1
62
256
6
ByLayer
370
-1
48
1
60
0
100
AcDbLine
10
25.006531
20
-9.389267
30
0
11
24.165502
21
-8.988855
31
0
39
0
210
0
220
0
230
1
0
LINE
5
179
100
AcDbEntity
8
1
62
256
6
ByLayer
370
-1
48
1
60
0
100
AcDbLine
10
13.328623
20
-9.459489
30
0
11
13.665812
21
-9.263319
31
0
39
0
210
0
220
0
230
1
0
LINE
5
17A
100
AcDbEntity
8
1
62
256
6
ByLayer
370
-1
48
1
60
0
100
AcDbLine
10
23.94858
20
-3.21533
30
0
11
23.92657
21
-3.177846
31
0
39
0
210
0
220
0
230
1
0
LINE
5
17B
100
AcDbEntity
8
1
62
256
6
ByLayer
370
-1
48
1
60
0
100
AcDbLine
10
14.54035
20
-6.628758
30
0
11
14.790803
21
-6.200741
31
0
39
0
210
0
220
0
230
1
0
LINE
5
17C
100
AcDbEntity
8
1
62
256
6
ByLayer
370
-1
48
1
60
0
100
AcDbLine
10
24.081737
20
-3.288005
30
0
11
24.038836
21
-2.854621
31
0
39
0
210
0
220
0
230
1
0
LINE
5
17D
100
AcDbEntity
8
1
62
256
6
ByLayer
370
-1
48
1
60
0
100
AcDbLine
10
13.683405
20
-8.542796
30
0
11
13.668062
21
-8.782708
31
0
39
0
210
0
220
0
230
1
0
LINE
5
17E
100
AcDbEntity
8
1
62
256
6
ByLayer
370
-1
48
1
60
0
100
AcDbLine
10
21.503651
20
-14.349347
30
0
11
21.766599
21
-14.307163
31
0
39
0
210
0
220
0
230
1
0
LINE
5
17F
100
AcDbEntity
8
1
62
256
6
ByLayer
370
-1
48
1
60
0
100
AcDbLine
10
13.663822
20
-8.886643
30
0
11
13.0904
21
-8.907313
31
0
39
0
210
0
220
0
230
1
0
LINE
5
180
100
AcDbEntity
8
1
62
256
6
ByLayer
370
-1
48
1
60
0
100
AcDbLine
10
15.332519
20
-6.223961
30
0
11
15.301318
21
-5.90877
31
0
39
0
210
0
220
0
230
1
0
LINE
5
181
100
AcDbEntity
8
1
62
256
6
ByLayer
370
-1
48
1
60
0
100
AcDbLine
10
20.395153
20
-14.332422
30
0
11
18.702042
21
-13.374666
31
0
39
0
210
0
220
0
230
1
0
LINE
5
182
100
AcDbEntity
8
1
62
256
6
ByLayer
370
-1
48
1
60
0
100
AcDbLine
10
24.040061
20
-14.718959
30
0
11
24.329333
21
-14.21438
31
0
39
0
210
0
220
0
230
1
0
LINE
5
183
100
AcDbEntity
8
1
62
256
6
ByLayer
370
-1
48
1
60
0
100
AcDbLine
10
13.536347
20
-8.041033
30
0
11
13.470327
21
-7.374112
31
0
39
0
210
0
220
0
230
1
0
LINE
5
184
100
AcDbEntity
8
1
62
256
6
ByLayer
370
-1
48
1
60
0
100
AcDbLine
10
23.689126
20
-8.581285
30
0
11
25.002379
21
-8.859321
31
0
39
0
210
0
220
0
230
1
0
LINE
5
185
100
AcDbEntity
8
1
62
256
6
ByLayer
370
-1
48
1
60
0
100
AcDbLine
10
12.561169
20
-8.486304
30
0
11
12.493235
21
-7.800049
31
0
39
0
210
0
220
0
230
1
0
LINE
5
186
100
AcDbEntity
8
1
62
256
6
ByLayer
370
-1
48
1
60
0
100
AcDbLine
10
23.611813
20
-2.354149
30
0
11
24.069138
21
-2.128326
31
0
39
0
210
0
220
0
230
1
0
LINE
5
187
100
AcDbEntity
8
1
62
256
6
ByLayer
370
-1
48
1
60
0
100
AcDbLine
10
17.203241
20
-5.130518
30
0
11
17.109979
21
-5.201185
31
0
39
0
210
0
220
0
230
1
0
LINE
5
188
100
AcDbEntity
8
1
62
256
6
ByLayer
370
-1
48
1
60
0
100
AcDbLine
10
18.89441
20
-12.885175
30
0
11
18.519925
21
-13.25016
31
0
39
0
210
0
220
0
230
1
0
LINE
5
189
100
AcDbEntity
8
1
62
256
6
ByLayer
370
-1
48
1
60
0
100
AcDbLine
10
21.261557
20
-14.36282
30
0
11
25.006531
21
-12.046733
31
0
39
0
210
0
220
0
230
1
0
LINE
5
18A
100
AcDbEntity
8
1
62
256
6
ByLayer
370
-1
48
1
60
0
100
AcDbLine
10
24.602331
20
-5.184147
30
0
11
20.703242
21
-3.153798
31
0
39
0
210
0
220
0
230
1
0
LINE
5
18B
100
AcDbEntity
8
1
62
256
6
ByLayer
370
-1
48
1
60
0
100
AcDbLine
10
18.272372
20
-4.53683
30
0
11
18.10594
21
-4.605363
31
0
39
0
210
0
220
0
230
1
0
LINE
5
18C
100
AcDbEntity
8
1
62
256
6
ByLayer
370
-1
48
1
60
0
100
AcDbLine
10
24.152694
20
-2.033868
30
0
11
24.08476
21
-1.347613
31
0
39
0
210
0
220
0
230
1
0
LINE
5
18D
100
AcDbEntity
8
1
62
256
6
ByLayer
370
-1
48
1
60
0
100
AcDbLine
10
22.461543
20
-1.813759
30
0
11
22.48168
21
-2.01718
31
0
39
0
210
0
220
0
230
1
0
LINE
5
18E
100
AcDbEntity
8
1
62
256
6
ByLayer
370
-1
48
1
60
0
100
AcDbLine
10
17.785952
20
-12.816861
30
0
11
18.348849
21
-13.140453
31
0
39
0
210
0
220
0
230
1
0
LINE
5
18F
100
AcDbEntity
8
1
62
256
6
ByLayer
370
-1
48
1
60
0
100
AcDbLine
10
25.002922
20
-8.22522
30
0
11
23.862901
21
-7.98386
31
0
39
0
210
0
220
0
230
1
0
LINE
5
190
100
AcDbEntity
8
1
62
256
6
ByLayer
370
-1
48
1
60
0
100
AcDbLine
10
21.457604
20
-2.577645
30
0
11
21.781322
21
-2.392592
31
0
39
0
210
0
220
0
230
1
0
LINE
5
191
100
AcDbEntity
8
1
62
256
6
ByLayer
370
-1
48
1
60
0
100
AcDbLine
10
24.069138
20
-2.128326
30
0
11
23.02427
21
-2.097078
31
0
39
0
210
0
220
0
230
1
0
LINE
5
192
100
AcDbEntity
8
1
62
256
6
ByLayer
370
-1
48
1
60
0
100
AcDbLine
10
17.45407
20
-12.662845
30
0
11
17.615516
21
-12.7304
31
0
39
0
210
0
220
0
230
1
0
LINE
5
193
100
AcDbEntity
8
1
62
256
6
ByLayer
370
-1
48
1
60
0
100
AcDbLine
10
24.207428
20
-8.896365
30
0
11
25.005916
21
-9.276524
31
0
39
0
210
0
220
0
230
1
0
LINE
5
194
100
AcDbEntity
8
1
62
256
6
ByLayer
370
-1
48
1
60
0
100
AcDbLine
10
14.870315
20
-6.947886
30
0
11
15.241027
21
-6.31435
31
0
39
0
210
0
220
0
230
1
0
LINE
5
195
100
AcDbEntity
8
1
62
256
6
ByLayer
370
-1
48
1
60
0
100
AcDbLine
10
23.664131
20
-8.574685
30
0
11
23.837906
21
-7.97726
31
0
39
0
210
0
220
0
230
1
0
LINE
5
196
100
AcDbEntity
8
1
62
256
6
ByLayer
370
-1
48
1
60
0
100
AcDbLine
10
24.530273
20
-3.904699
30
0
11
24.464253
21
-3.237778
31
0
39
0
210
0
220
0
230
1
0
LINE
5
197
100
AcDbEntity
8
1
62
256
6
ByLayer
370
-1
48
1
60
0
100
AcDbLine
10
24.42757
20
-14.270521
30
0
11
24.138297
21
-14.7751
31
0
39
0
210
0
220
0
230
1
0
LINE
5
198
100
AcDbEntity
8
1
62
256
6
ByLayer
370
-1
48
1
60
0
100
AcDbLine
10
24.15483
20
-2.710829
30
0
11
24.464253
21
-3.237778
31
0
39
0
210
0
220
0
230
1
0
LINE
5
199
100
AcDbEntity
8
1
62
256
6
ByLayer
370
-1
48
1
60
0
100
AcDbLine
10
24.505313
20
-12.790476
30
0
11
24.995885
21
-12.465425
31
0
39
0
210
0
220
0
230
1
0
LINE
5
19A
100
AcDbEntity
8
1
62
256
6
ByLayer
370
-1
48
1
60
0
100
AcDbLine
10
13.390331
20
-8.456414
30
0
11
12.561169
21
-8.486304
31
0
39
0
210
0
220
0
230
1
0
LINE
5
19B
100
AcDbEntity
8
1
62
256
6
ByLayer
370
-1
48
1
60
0
100
AcDbLine
10
13.934414
20
-6.756226
30
0
11
14.325539
21
-6.752495
31
0
39
0
210
0
220
0
230
1
0
LINE
5
19C
100
AcDbEntity
8
1
62
256
6
ByLayer
370
-1
48
1
60
0
100
AcDbLine
10
21.841525
20
-2.359293
30
0
11
21.865195
21
-2.731535
31
0
39
0
210
0
220
0
230
1
0
LINE
5
19D
100
AcDbEntity
8
1
62
256
6
ByLayer
370
-1
48
1
60
0
100
AcDbLine
10
21.844205
20
-14.304138
30
0
11
24.505313
21
-12.790476
31
0
39
0
210
0
220
0
230
1
0
LINE
5
19E
100
AcDbEntity
8
1
62
256
6
ByLayer
370
-1
48
1
60
0
100
AcDbLine
10
17.371605
20
-5.019797
30
0
11
17.700041
21
-6.170789
31
0
39
0
210
0
220
0
230
1
0
LINE
5
19F
100
AcDbEntity
8
1
62
256
6
ByLayer
370
-1
48
1
60
0
100
AcDbLine
10
23.225554
20
-14.652893
30
0
11
23.269576
21
-14.652762
31
0
39
0
210
0
220
0
230
1
0
LINE
5
1A0
100
AcDbEntity
8
1
62
256
6
ByLayer
370
-1
48
1
60
0
100
AcDbLine
10
18.348849
20
-13.140453
30
0
11
19.171144
21
-12.339017
31
0
39
0
210
0
220
0
230
1
0
LINE
5
1A1
100
AcDbEntity
8
1
62
256
6
ByLayer
370
-1
48
1
60
0
100
AcDbLine
10
23.097221
20
-14.733758
30
0
11
23.11165
21
-14.713016
31
0
39
0
210
0
220
0
230
1
0
LINE
5
1A2
100
AcDbEntity
8
1
62
256
6
ByLayer
370
-1
48
1
60
0
100
AcDbLine
10
21.865195
20
-2.731535
30
0
11
24.415896
21
-4.270136
31
0
39
0
210
0
220
0
230
1
0
LINE
5
1A3
100
AcDbEntity
8
1
62
256
6
ByLayer
370
-1
48
1
60
0
100
AcDbLine
10
23.281647
20
-1.344746
30
0
11
24.08476
21
-1.347613
31
0
39
0
210
0
220
0
230
1
0
LINE
5
1A4
100
AcDbEntity
8
1
62
256
6
ByLayer
370
-1
48
1
60
0
100
AcDbLine
10
25.005904
20
-7.9544
30
0
11
24.485097
21
-7.935975
31
0
39
0
210
0
220
0
230
1
0
LINE
5
1A5
100
AcDbEntity
8
1
62
256
6
ByLayer
370
-1
48
1
60
0
100
AcDbLine
10
23.92657
20
-3.177846
30
0
11
23.91548
21
-3.065824
31
0
39
0
210
0
220
0
230
1
0
LINE
5
1A6
100
AcDbEntity
8
1
62
256
6
ByLayer
370
-1
48
1
60
0
100
AcDbLine
10
18.36665
20
-4.489506
30
0
11
18.432893
21
-5.408162
31
0
39
0
210
0
220
0
230
1
0
LINE
5
1A7
100
AcDbEntity
8
1
62
256
6
ByLayer
370
-1
48
1
60
0
100
AcDbLine
10
22.059034
20
-14.521118
30
0
11
22.176398
21
-14.723033
31
0
39
0
210
0
220
0
230
1
0
LINE
5
1A8
100
AcDbEntity
8
1
62
256
6
ByLayer
370
-1
48
1
60
0
100
AcDbLine
10
24.341772
20
-4.695407
30
0
11
24.318787
21
-4.463214
31
0
39
0
210
0
220
0
230
1
0
LINE
5
1A9
100
AcDbEntity
8
1
62
256
6
ByLayer
370
-1
48
1
60
0
100
AcDbLine
10
14.390975
20
-7.413509
30
0
11
14.325539
21
-6.752495
31
0
39
0
210
0
220
0
230
1
0
LINE
5
1AA
100
AcDbEntity
8
1
62
256
6
ByLayer
370
-1
48
1
60
0
100
AcDbLine
10
24.141633
20
-15.325132
30
0
11
24.665985
21
-14.410504
31
0
39
0
210
0
220
0
230
1
0
LINE
5
1AB
100
AcDbEntity
8
1
62
256
6
ByLayer
370
-1
48
1
60
0
100
AcDbLine
10
24.324843
20
-2.134857
30
0
11
24.256609
21
-1.445576
31
0
39
0
210
0
220
0
230
1
0
LINE
5
1AC
100
AcDbEntity
8
1
62
256
6
ByLayer
370
-1
48
1
60
0
100
AcDbLine
10
23.038614
20
-2.440823
30
0
11
23.035433
21
-2.817515
31
0
39
0
210
0
220
0
230
1
0
LINE
5
1AD
100
AcDbEntity
8
1
62
256
6
ByLayer
370
-1
48
1
60
0
100
AcDbLine
10
25.006531
20
-9.389267
30
0
11
25.006531
21
-12.046733
31
0
39
0
210
0
220
0
230
1
0
LINE
5
1AE
100
AcDbEntity
8
1
62
256
6
ByLayer
370
-1
48
1
60
0
100
AcDbLine
10
12.952486
20
-9.046316
30
0
11
12.501833
21
-8.823203
31
0
39
0
210
0
220
0
230
1
0
LINE
5
1AF
100
AcDbEntity
8
1
62
256
6
ByLayer
370
-1
48
1
60
0
100
AcDbLine
10
18.733199
20
-11.893642
30
0
11
17.785952
21
-12.816861
31
0
39
0
210
0
220
0
230
1
0
LINE
5
1B0
100
AcDbEntity
8
1
62
256
6
ByLayer
370
-1
48
1
60
0
100
AcDbLine
10
13.390331
20
-8.456414
30
0
11
13.324571
21
-7.792119
31
0
39
0
210
0
220
0
230
1
0
LINE
5
1B1
100
AcDbEntity
8
1
62
256
6
ByLayer
370
-1
48
1
60
0
100
AcDbLine
10
21.674176
20
-8.942463
30
0
11
21.701637
21
-9.198595
31
0
39
0
210
0
220
0
230
1
0
LINE
5
1B2
100
AcDbEntity
8
1
62
256
6
ByLayer
370
-1
48
1
60
0
100
AcDbLine
10
19.826675
20
-10.014521
30
0
11
19.854354
21
-10.272697
31
0
39
0
210
0
220
0
230
1
0
LINE
5
1B3
100
AcDbEntity
8
1
62
256
6
ByLayer
370
-1
48
1
60
0
100
AcDbLine
10
19.171786
20
-7.640479
30
0
11
19.186352
21
-7.776341
31
0
39
0
210
0
220
0
230
1
0
LINE
5
1B4
100
AcDbEntity
8
1
62
256
6
ByLayer
370
-1
48
1
60
0
100
AcDbLine
10
20.611017
20
-9.992887
30
0
11
20.617428
21
-10.011964
31
0
39
0
210
0
220
0
230
1
0
LINE
5
1B5
100
AcDbEntity
8
1
62
256
6
ByLayer
370
-1
48
1
60
0
100
AcDbLine
10
20.617428
20
-10.011964
30
0
11
20.645107
21
-10.270141
31
0
39
0
210
0
220
0
230
1
0
LINE
5
1B6
100
AcDbEntity
8
1
62
256
6
ByLayer
370
-1
48
1
60
0
100
AcDbLine
10
18.749929
20
-8.955997
30
0
11
18.769926
21
-8.951852
31
0
39
0
210
0
220
0
230
1
0
LINE
5
1B7
100
AcDbEntity
8
1
62
256
6
ByLayer
370
-1
48
1
60
0
100
AcDbLine
10
20.611017
20
-9.992887
30
0
11
20.638478
21
-10.24902
31
0
39
0
210
0
220
0
230
1
0
LINE
5
1B8
100
AcDbEntity
8
1
62
256
6
ByLayer
370
-1
48
1
60
0
100
AcDbLine
10
19.162891
20
-7.669262
30
0
11
19.172985
21
-7.763412
31
0
39
0
210
0
220
0
230
1
0
LINE
5
1B9
100
AcDbEntity
8
1
62
256
6
ByLayer
370
-1
48
1
60
0
100
AcDbLine
10
21.694173
20
-8.946479
30
0
11
21.721853
21
-9.204655
31
0
39
0
210
0
220
0
230
1
0
LINE
5
1BA
100
AcDbEntity
8
1
62
256
6
ByLayer
370
-1
48
1
60
0
100
AcDbLine
10
19.833085
20
-9.995402
30
0
11
19.860546
21
-10.251535
31
0
39
0
210
0
220
0
230
1
0
LINE
5
1BB
100
AcDbEntity
8
1
62
256
6
ByLayer
370
-1
48
1
60
0
100
AcDbLine
10
21.30947
20
-7.597829
30
0
11
21.326476
21
-7.75645
31
0
39
0
210
0
220
0
230
1
0
LINE
5
1BC
100
AcDbEntity
8
1
62
256
6
ByLayer
370
-1
48
1
60
0
100
AcDbLine
10
21.674176
20
-8.942463
30
0
11
21.694173
21
-8.946479
31
0
39
0
210
0
220
0
230
1
0
LINE
5
1BD
100
AcDbEntity
8
1
62
256
6
ByLayer
370
-1
48
1
60
0
100
AcDbLine
10
18.749929
20
-8.955997
30
0
11
18.777609
21
-9.214174
31
0
39
0
210
0
220
0
230
1
0
LINE
5
1BE
100
AcDbEntity
8
1
62
256
6
ByLayer
370
-1
48
1
60
0
100
AcDbLine
10
21.291544
20
-7.572409
30
0
11
21.312671
21
-7.769467
31
0
39
0
210
0
220
0
230
1
0
LINE
5
1BF
100
AcDbEntity
8
1
62
256
6
ByLayer
370
-1
48
1
60
0
100
AcDbLine
10
19.826675
20
-10.014521
30
0
11
19.833085
21
-9.995402
31
0
39
0
210
0
220
0
230
1
0
LINE
5
1C0
100
AcDbEntity
8
1
62
256
6
ByLayer
370
-1
48
1
60
0
100
AcDbLine
10
18.769926
20
-8.951852
30
0
11
18.797386
21
-9.207984
31
0
39
0
210
0
220
0
230
1
0
LINE
5
1C1
100
AcDbEntity
8
SK1
62
256
6
ByLayer
370
-1
48
1
60
0
100
AcDbLine
10
0
20
11.848393
30
0
11
0
21
11.947023
31
0
39
0
210
0
220
0
230
1
0
LINE
5
1C2
100
AcDbEntity
8
SK1
62
256
6
ByLayer
370
-1
48
1
60
0
100
AcDbLine
10
-0.108253
20
11.726203
30
0
11
-0.108253
21
11.845921
31
0
39
0
210
0
220
0
230
1
0
LINE
5
1C3
100
AcDbEntity
8
SK1
62
256
6
ByLayer
370
-1
48
1
60
0
100
AcDbLine
10
0
20
11.947023
30
0
11
0
21
11.955031
31
0
39
0
210
0
220
0
230
1
0
LINE
5
1C4
100
AcDbEntity
8
SK1
62
256
6
ByLayer
370
-1
48
1
60
0
100
AcDbLine
10
0
20
-11.955031
30
0
11
0
21
-11.947023
31
0
39
0
210
0
220
0
230
1
0
LINE
5
1C5
100
AcDbEntity
8
SK1
62
256
6
ByLayer
370
-1
48
1
60
0
100
AcDbLine
10
-0.238766
20
-11.138817
30
0
11
-0.238766
21
-10.779197
31
0
39
0
210
0
220
0
230
1
0
LINE
5
1C6
100
AcDbEntity
8
SK1
62
256
6
ByLayer
370
-1
48
1
60
0
100
AcDbLine
10
0
20
-11.343229
30
0
11
0
21
-11.099518
31
0
39
0
210
0
220
0
230
1
0
LINE
5
1C7
100
AcDbEntity
8
SK1
62
256
6
ByLayer
370
-1
48
1
60
0
100
AcDbLine
10
0
20
-11.548002
30
0
11
0
21
-11.343229
31
0
39
0
210
0
220
0
230
1
0
LINE
5
1C8
100
AcDbEntity
8
SK1
62
256
6
ByLayer
370
-1
48
1
60
0
100
AcDbLine
10
0
20
-11.848527
30
0
11
0
21
-11.715912
31
0
39
0
210
0
220
0
230
1
0
LINE
5
1C9
100
AcDbEntity
8
SK1
62
256
6
ByLayer
370
-1
48
1
60
0
100
AcDbLine
10
0
20
-11.547978
30
0
11
0
21
-11.715912
31
0
39
0
210
0
220
0
230
1
0
LINE
5
1CA
100
AcDbEntity
8
SK1
62
256
6
ByLayer
370
-1
48
1
60
0
100
AcDbLine
10
-0.238766
20
-11.503145
30
0
11
-0.238766
21
-11.255741
31
0
39
0
210
0
220
0
230
1
0
LINE
5
1CB
100
AcDbEntity
8
SK1
62
256
6
ByLayer
370
-1
48
1
60
0
100
AcDbLine
10
-0.108253
20
-11.845921
30
0
11
-0.108253
21
-11.726203
31
0
39
0
210
0
220
0
230
1
0
LINE
5
1CC
100
AcDbEntity
8
1
62
256
6
ByLayer
370
-1
48
1
60
0
100
AcDbLine
10
16.190911
20
-12.791156
30
0
11
16.190911
21
-11.95411
31
0
39
0
210
0
220
0
230
1
0
LINE
5
1CD
100
AcDbEntity
8
1
62
256
6
ByLayer
370
-1
48
1
60
0
100
AcDbLine
10
17.545554
20
-12.787872
30
0
11
17.733019
21
-12.787418
31
0
39
0
210
0
220
0
230
1
0
LINE
5
1CE
100
AcDbEntity
8
1
62
256
6
ByLayer
370
-1
48
1
60
0
100
AcDbLine
10
17.024087
20
-12.877845
30
0
11
17.024087
21
-12.425433
31
0
39
0
210
0
220
0
230
1
0
LINE
5
1CF
100
AcDbEntity
8
1
62
256
6
ByLayer
370
-1
48
1
60
0
100
AcDbLine
10
15.697608
20
-11.675121
30
0
11
15.697608
21
-12.317315
31
0
39
0
210
0
220
0
230
1
0
LINE
5
1D0
100
AcDbEntity
8
1
62
256
6
ByLayer
370
-1
48
1
60
0
100
AcDbLine
10
16.541207
20
-12.864931
30
0
11
16.541207
21
-12.152312
31
0
39
0
210
0
220
0
230
1
0
LINE
5
1D1
100
AcDbEntity
8
1
62
256
6
ByLayer
370
-1
48
1
60
0
100
AcDbLine
10
17.442171
20
-12.805489
30
0
11
17.442171
21
-12.657662
31
0
39
0
210
0
220
0
230
1
0
LINE
5
1D2
100
AcDbEntity
8
1
62
256
6
ByLayer
370
-1
48
1
60
0
100
AcDbLine
10
12.429637
20
-7.810879
30
0
11
12.429637
21
-6.501923
31
0
39
0
210
0
220
0
230
1
0
LINE
5
1D3
100
AcDbEntity
8
1
62
256
6
ByLayer
370
-1
48
1
60
0
100
AcDbLine
10
15.965334
20
-12.738278
30
0
11
15.965334
21
-11.826451
31
0
39
0
210
0
220
0
230
1
0
LINE
5
1D4
100
AcDbEntity
8
1
62
256
6
ByLayer
370
-1
48
1
60
0
100
AcDbLine
10
15.5291
20
-11.812377
30
0
11
15.697608
21
-12.317315
31
0
39
0
210
0
220
0
230
1
0
LINE
5
1D5
100
AcDbEntity
8
1
62
256
6
ByLayer
370
-1
48
1
60
0
100
AcDbLine
10
17.024087
20
-12.877845
30
0
11
16.72664
21
-12.878566
31
0
39
0
210
0
220
0
230
1
0
LINE
5
1D6
100
AcDbEntity
8
1
62
256
6
ByLayer
370
-1
48
1
60
0
100
AcDbLine
10
12.59731
20
-7.025407
30
0
11
12.59731
21
-7.799061
31
0
39
0
210
0
220
0
230
1
0
LINE
5
1D7
100
AcDbEntity
8
1
62
256
6
ByLayer
370
-1
48
1
60
0
100
AcDbLine
10
17.207256
20
-12.863316
30
0
11
17.207256
21
-12.529055
31
0
39
0
210
0
220
0
230
1
0
LINE
5
1D8
100
AcDbEntity
8
1
62
256
6
ByLayer
370
-1
48
1
60
0
100
AcDbLine
10
15.861951
20
-12.681858
30
0
11
15.861951
21
-11.768054
31
0
39
0
210
0
220
0
230
1
0
LINE
5
1D9
100
AcDbEntity
8
1
62
256
6
ByLayer
370
-1
48
1
60
0
100
AcDbLine
10
17.545554
20
-12.787872
30
0
11
17.545554
21
-12.70109
31
0
39
0
210
0
220
0
230
1
0
LINE
5
1DA
100
AcDbEntity
8
1
62
256
6
ByLayer
370
-1
48
1
60
0
100
AcDbLine
10
15.5291
20
-11.812377
30
0
11
15.5291
21
-11.579789
31
0
39
0
210
0
220
0
230
1
0
LINE
5
1DB
100
AcDbEntity
8
1
62
256
6
ByLayer
370
-1
48
1
60
0
100
AcDbLine
10
13.364296
20
-6.587577
30
0
11
12.59731
21
-7.025407
31
0
39
0
210
0
220
0
230
1
0
LINE
5
1DC
100
AcDbEntity
8
1
62
256
6
ByLayer
370
-1
48
1
60
0
100
AcDbLine
10
16.297086
20
-12.808265
30
0
11
16.297086
21
-12.014215
31
0
39
0
210
0
220
0
230
1
0
LINE
5
1DD
100
AcDbEntity
8
1
62
256
6
ByLayer
370
-1
48
1
60
0
100
AcDbLine
10
16.72664
20
-12.878566
30
0
11
16.72664
21
-12.25716
31
0
39
0
210
0
220
0
230
1
0
LINE
5
1DE
100
AcDbEntity
8
1
62
256
6
ByLayer
370
-1
48
1
60
0
100
AcDbLine
10
25.049284
20
-1.915504
30
0
11
25.09893
21
-1.915519
31
0
39
0
210
0
220
0
230
1
0
LINE
5
1DF
100
AcDbEntity
8
1
62
256
6
ByLayer
370
-1
48
1
60
0
100
AcDbLine
10
25.059154
20
-2.526503
30
0
11
25.087206
21
-2.526512
31
0
39
0
210
0
220
0
230
1
0
LINE
5
1E0
100
AcDbEntity
8
1
62
256
6
ByLayer
370
-1
48
1
60
0
100
AcDbLine
10
25.059557
20
-2.539228
30
0
11
25.099771
21
-2.53924
31
0
39
0
210
0
220
0
230
1
0
LINE
5
1E1
100
AcDbEntity
8
1
62
256
6
ByLayer
370
-1
48
1
60
0
100
AcDbLine
10
25.073573
20
-0.759313
30
0
11
25.084005
21
-0.759316
31
0
39
0
210
0
220
0
230
1
0
LINE
5
1E2
100
AcDbEntity
8
2
62
256
6
ByLayer
370
-1
48
1
60
1
100
AcDbLine
10
0
20
0
30
0
11
0
21
-0.001
31
0
39
0
210
0
220
0
230
1
0
MTEXT
5
38B
100
AcDbEntity
8
SK6
62
256
6
ByLayer
370
-1
48
1
60
0
100
AcDbMText
10
13.375
20
23.8125
30
0
210
0
220
0
230
1
1
\W00.723;\fsimplex.shx,bigfont.shx;SL-266LFG-252517-16 
40
3.5
41
0
44
1.084337
50
0
71
7
72
5
7
DEFAULT
0
DIMENSION
5
3BE
100
AcDbEntity
8
2
62
256
6
ByLayer
370
-3
48
1
60
0
100
AcDbDimension
2
DimnDraft3D1
10
0
20
-41.125
30
0
11
9.871053
21
-41.125
31
0
70
32
71
5
72
1
41
1
210
0
220
0
230
1
3
Standard
100
AcDbAlignedDimension
13
25
23
-18.375
33
0
14
0
24
-1.501
34
0
50
0
100
AcDbRotatedDimension
1001
ACAD
1000
DSTYLE
1002
{
1070
   279
1070
     0
1070
   172
1070
     1
1070
   173
1070
     1
1070
   340
1005
38C
1070
   271
1070
     3
1070
   272
1070
     3
1070
    77
1070
     1
1070
    73
1070
     0
1070
   171
1070
     4
1070
   274
1070
     4
1070
   177
1070
     2
1070
   176
1070
     2
1070
   178
1070
     7
1070
    78
1070
     8
1070
    41
1041
3.0
1070
   147
1041
2.25
1070
    42
1041
1.5
1070
    44
1041
3.0
1070
   140
1041
4.5
1070
   343
1005
3BF
1070
   344
1005
3BF
1002
}
0
DIMENSION
5
3D4
100
AcDbEntity
8
SK2
62
256
6
ByLayer
370
-3
48
1
60
0
100
AcDbDimension
2
DimnDraft3D2
10
-9.75
20
-12.5
30
0
11
-9.75
21
-4.784211
31
0
70
32
71
5
72
1
41
1
210
0
220
0
230
1
3
Standard
100
AcDbAlignedDimension
13
-1.5
23
12.5
33
0
14
-1.5
24
-12.5
34
0
50
90
100
AcDbRotatedDimension
1001
ACAD
1000
DSTYLE
1002
{
1070
    74
1070
     0
1070
   279
1070
     0
1070
   172
1070
     1
1070
   173
1070
     1
1070
   340
1005
38C
1070
   271
1070
     3
1070
   272
1070
     3
1070
    77
1070
     1
1070
    73
1070
     0
1070
   171
1070
     4
1070
   274
1070
     4
1070
   177
1070
     2
1070
   176
1070
     2
1070
   178
1070
     7
1070
    78
1070
     8
1070
    41
1041
3.0
1070
   147
1041
2.25
1070
    42
1041
1.5
1070
    44
1041
3.0
1070
   140
1041
4.5
1070
   343
1005
3BF
1070
   344
1005
3BF
1002
}
0
DIMENSION
5
3E2
100
AcDbEntity
8
2
62
256
6
ByLayer
370
-3
48
1
60
0
100
AcDbDimension
2
DimnDraft3D3
10
39.25
20
-16.875
30
0
11
39.25
21
-10.503947
31
0
70
32
71
5
72
1
41
1
210
0
220
0
230
1
3
Standard
100
AcDbAlignedDimension
13
31.5
23
0
33
0
14
26.5
24
-16.875
34
0
50
90
100
AcDbRotatedDimension
1001
ACAD
1000
DSTYLE
1002
{
1070
    74
1070
     0
1070
   279
1070
     0
1070
   172
1070
     1
1070
   173
1070
     1
1070
   340
1005
38C
1070
   271
1070
     3
1070
   272
1070
     3
1070
    77
1070
     1
1070
    73
1070
     0
1070
   171
1070
     4
1070
   274
1070
     4
1070
   177
1070
     2
1070
   176
1070
     2
1070
   178
1070
     7
1070
    78
1070
     8
1070
    41
1041
3.0
1070
   147
1041
2.25
1070
    42
1041
1.5
1070
    44
1041
3.0
1070
   140
1041
4.5
1070
   343
1005
3BF
1070
   344
1005
3BF
1002
}
0
ENDSEC
0
SECTION
2
OBJECTS
0
DICTIONARY
5
413
330
0
100
AcDbDictionary
280
0
281
1
3
ACAD_GROUP
350
414
3
ACAD_MLINESTYLE
350
415
0
DICTIONARY
5
414
330
0
100
AcDbDictionary
280
0
281
1
0
DICTIONARY
5
415
330
0
100
AcDbDictionary
280
0
281
1
3
Standard
350
18
0
MLINESTYLE
5
18
330
415
100
AcDbMlineStyle
2
Standard
70
0
3

62
256
51
90
52
90
71
2
49
-0.5
62
256
6
ByLayer
49
0.5
62
256
6
ByLayer
0
RASTERVARIABLES
5
401
330

100
AcDbRasterVariables
90
0
70
1
71
1
72
1
0
ENDSEC
0
EOF
