0
SECTION
2
HEADER
9
$ACADVER
1
AC1015
9
$DWGCODEPAGE
3
ANSI_1252
9
$HANDSEED
5
22c
9
$ANGBASE
50
0
9
$ANGDIR
70
0
9
$ATTMODE
70
1
9
$AUNITS
70
0
9
$AUPREC
70
0
9
$CECOLOR
62
256
9
$CELTSCALE
40
1
9
$CELTYPE
6
ByLayer
9
$CELWEIGHT
370
18
9
$CLAYER
8
0
9
$CMLJUST
70
0
9
$CMLSCALE
40
1
9
$CMLSTYLE
2
Standard
9
$DIMSTYLE
2
Standard
9
$TEXTSIZE
40
0.2
9
$TEXTSTYLE
7
Standard
9
$LUNITS
70
2
9
$LUPREC
70
4
9
$EXTNAMES
290
1
9
$INSUNITS
70
4
9
$LTSCALE
40
1
9
$LWDISPLAY
290
1
9
$PDMODE
70
0
9
$PDSIZE
40
0
9
$PLINEGEN
70
0
0
ENDSEC
0
SECTION
2
CLASSES
0
CLASS
1
RASTERVARIABLES
2
AcDbRasterVariables
3
ISM
90
0
280
0
281
0
0
ENDSEC
0
SECTION
2
TABLES
0
TABLE
2
VPORT
5
222
100
AcDbSymbolTable
0
VPORT
5
1
100
AcDbSymbolTableRecord
100
AcDbViewportTableRecord
2
*Active
70
0
10
0
20
0
11
1
21
1
12
-1
22
1
13
0
23
0
14
0.5
24
0.5
15
10
25
10
16
0
26
0
36
1
17
0
27
0
37
0
0
ENDTAB
0
TABLE
2
LTYPE
5
223
100
AcDbSymbolTable
0
LTYPE
5
14
100
AcDbSymbolTableRecord
100
AcDbLinetypeTableRecord
70
0
2
ByBlock
3

72
65
73
0
40
0
0
LTYPE
5
15
100
AcDbSymbolTableRecord
100
AcDbLinetypeTableRecord
70
0
2
ByLayer
3

72
65
73
0
40
0
0
LTYPE
5
16
100
AcDbSymbolTableRecord
100
AcDbLinetypeTableRecord
70
0
2
CONTINUOUS
3
Solid line
72
65
73
0
40
0
0
LTYPE
5
6A
100
AcDbSymbolTableRecord
100
AcDbLinetypeTableRecord
70
0
2
CENTER
3
____ _ ____ _ ____ _ ____
72
65
73
4
40
47.5
49
22
74
0
49
-8.5
74
0
49
8.5
74
0
49
-8.5
74
0
0
LTYPE
5
6B
100
AcDbSymbolTableRecord
100
AcDbLinetypeTableRecord
70
0
2
DASHED
3
__ __ __ __ __ __ __ __ __
72
65
73
2
40
25.72
49
12.86
74
0
49
-12.86
74
0
0
ENDTAB
0
TABLE
2
LAYER
5
224
100
AcDbSymbolTable
0
LAYER
5
10
100
AcDbSymbolTableRecord
100
AcDbLayerTableRecord
2
0
70
0
62
7
6
CONTINUOUS
290
1
370
-3
390
0
0
LAYER
5
6D
100
AcDbSymbolTableRecord
100
AcDbLayerTableRecord
2
81
70
0
62
-3
6
CONTINUOUS
290
1
370
-3
390
0
0
LAYER
5
6F
100
AcDbSymbolTableRecord
100
AcDbLayerTableRecord
2
80
70
0
62
-6
6
CONTINUOUS
290
1
370
-3
390
0
0
LAYER
5
74
100
AcDbSymbolTableRecord
100
AcDbLayerTableRecord
2
4
70
0
62
-2
6
CENTER
290
1
370
-3
390
0
0
LAYER
5
76
100
AcDbSymbolTableRecord
100
AcDbLayerTableRecord
2
1
70
0
62
4
6
CONTINUOUS
290
1
370
-3
390
0
0
LAYER
5
196
100
AcDbSymbolTableRecord
100
AcDbLayerTableRecord
2
2
70
0
62
7
6
CONTINUOUS
290
1
370
-3
390
0
0
LAYER
5
20c
100
AcDbSymbolTableRecord
100
AcDbLayerTableRecord
2
SK4
70
0
62
2
6
CENTER
290
1
370
-3
390
0
0
LAYER
5
20d
100
AcDbSymbolTableRecord
100
AcDbLayerTableRecord
2
SK1
70
0
62
4
6
CONTINUOUS
290
1
370
-3
390
0
0
LAYER
5
20e
100
AcDbSymbolTableRecord
100
AcDbLayerTableRecord
2
SK6
70
0
62
5
6
CONTINUOUS
290
1
370
-3
390
0
0
LAYER
5
20f
100
AcDbSymbolTableRecord
100
AcDbLayerTableRecord
2
SK2
70
0
62
7
6
CONTINUOUS
290
1
370
-3
390
0
0
ENDTAB
0
TABLE
2
STYLE
5
225
100
AcDbSymbolTable
0
STYLE
5
11
100
AcDbSymbolTableRecord
100
AcDbTextStyleTableRecord
2
Standard
3
txt
70
0
71
0
40
0
41
1
42
0
50
0
0
STYLE
5
16C
100
AcDbSymbolTableRecord
100
AcDbTextStyleTableRecord
2
iso_b_vert
3
simplex.shx
70
0
71
0
40
0
41
1
42
0
50
0
0
STYLE
5
16D
100
AcDbSymbolTableRecord
100
AcDbTextStyleTableRecord
2
DWGDirectTextStyle
3
simplex
70
0
71
0
40
0
41
1
42
0
50
0
0
ENDTAB
0
TABLE
2
DIMSTYLE
5
226
100
AcDbSymbolTable
100
AcDbDimStyleTable
0
DIMSTYLE
105
27
100
AcDbSymbolTableRecord
100
AcDbDimStyleTableRecord
2
Standard
70
0
3
<>
41
0.18
42
0.0625
44
0.18
140
0.18
147
0.09
73
0
74
0
77
1
271
2
275
0
278
52
280
0
340
11
0
ENDTAB
0
TABLE
2
VIEW
5
227
100
AcDbSymbolTable
0
ENDTAB
0
TABLE
2
UCS
5
228
100
AcDbSymbolTable
0
ENDTAB
0
TABLE
2
APPID
5
229
100
AcDbSymbolTable
0
APPID
5
12
100
AcDbSymbolTableRecord
100
AcDbRegAppTableRecord
2
ACAD
70
0
0
ENDTAB
0
TABLE
2
BLOCK_RECORD
5
22a
100
AcDbSymbolTable
0
BLOCK_RECORD
5
1F
100
AcDbSymbolTableRecord
100
AcDbBlockTableRecord
2
*Model_Space
340
0
70
0
0
BLOCK_RECORD
5
1B
100
AcDbSymbolTableRecord
100
AcDbBlockTableRecord
2
*Paper_Space
340
0
70
0
0
BLOCK_RECORD
5
23
100
AcDbSymbolTableRecord
100
AcDbBlockTableRecord
2
*Paper_Space0
340
0
70
0
0
BLOCK_RECORD
5
16F
100
AcDbSymbolTableRecord
100
AcDbBlockTableRecord
2
DimnDraft3D1
340
0
70
0
0
BLOCK_RECORD
5
17F
100
AcDbSymbolTableRecord
100
AcDbBlockTableRecord
2
_CLOSED
340
0
70
0
0
BLOCK_RECORD
5
186
100
AcDbSymbolTableRecord
100
AcDbBlockTableRecord
2
DimnDraft3D2
340
0
70
0
0
BLOCK_RECORD
5
194
100
AcDbSymbolTableRecord
100
AcDbBlockTableRecord
2
DimnDraft3D3
340
0
70
0
0
BLOCK_RECORD
5
1A4
100
AcDbSymbolTableRecord
100
AcDbBlockTableRecord
2
DimnDraft3D4
340
0
70
0
0
ENDTAB
0
ENDSEC
0
SECTION
2
BLOCKS
0
BLOCK
5
20
100
AcDbEntity
8
0
100
AcDbBlockBegin
2
*Model_Space
70
0
10
0
20
0
30
0
3
*Model_Space
0
ENDBLK
5
21
100
AcDbEntity
8
0
100
AcDbBlockEnd
0
BLOCK
5
1C
100
AcDbEntity
8
0
100
AcDbBlockBegin
2
*Paper_Space
70
0
10
0
20
0
30
0
3
*Paper_Space
0
ENDBLK
5
1D
100
AcDbEntity
8
0
100
AcDbBlockEnd
0
BLOCK
5
24
100
AcDbEntity
8
0
100
AcDbBlockBegin
2
*Paper_Space0
70
0
10
0
20
0
30
0
3
*Paper_Space0
0
ENDBLK
5
25
100
AcDbEntity
8
0
100
AcDbBlockEnd
0
BLOCK
5
17C
100
AcDbEntity
8
0
100
AcDbBlockBegin
2
DimnDraft3D1
70
0
10
0
20
0
30
0
3
DimnDraft3D1
0
MTEXT
5
170
100
AcDbEntity
8
SK2
62
256
6
ByLayer
370
18
48
1
60
0
100
AcDbMText
10
-149.521875
20
2.932895
30
0
210
0
220
0
230
1
1
\W0.8247;25
40
4.5
41
0
44
1.084337
50
90
71
7
72
5
7
iso_b_vert
0
MTEXT
5
172
100
AcDbEntity
8
SK2
62
256
6
ByLayer
370
18
48
1
60
0
100
AcDbMText
10
-149.853125
20
-5.648551
30
0
210
0
220
0
230
1
1
%%c
40
3.175
41
0
44
1.084337
50
90
71
7
72
5
7
iso_b_vert
0
LINE
5
173
100
AcDbEntity
8
SK2
62
256
6
ByLayer
370
13
48
1
60
0
100
AcDbLine
10
-139.0875
20
12.5
30
0
11
-150.778125
21
12.5
31
0
39
0
210
0
220
0
230
1
0
LINE
5
174
100
AcDbEntity
8
SK2
62
256
6
ByLayer
370
13
48
1
60
0
100
AcDbLine
10
-139.0875
20
-12.5
30
0
11
-150.778125
21
-12.5
31
0
39
0
210
0
220
0
230
1
0
LINE
5
175
100
AcDbEntity
8
SK2
62
256
6
ByLayer
370
13
48
1
60
0
100
AcDbLine
10
-147.603125
20
23.75
30
0
11
-147.603125
21
-23.75
31
0
39
0
210
0
220
0
230
1
0
LINE
5
176
100
AcDbEntity
8
SK2
62
256
6
ByLayer
370
13
48
1
60
0
100
AcDbLine
10
-147.603125
20
12.5
30
0
11
-148.021122
21
15.674998
31
0
39
0
210
0
220
0
230
1
0
LINE
5
177
100
AcDbEntity
8
SK2
62
256
6
ByLayer
370
13
48
1
60
0
100
AcDbLine
10
-147.603125
20
12.5
30
0
11
-147.185128
21
15.675002
31
0
39
0
210
0
220
0
230
1
0
LINE
5
178
100
AcDbEntity
8
SK2
62
256
6
ByLayer
370
13
48
1
60
0
100
AcDbLine
10
-148.021122
20
15.674998
30
0
11
-147.185128
21
15.675002
31
0
39
0
210
0
220
0
230
1
0
LINE
5
179
100
AcDbEntity
8
SK2
62
256
6
ByLayer
370
13
48
1
60
0
100
AcDbLine
10
-147.603125
20
-12.5
30
0
11
-147.185128
21
-15.674998
31
0
39
0
210
0
220
0
230
1
0
LINE
5
17A
100
AcDbEntity
8
SK2
62
256
6
ByLayer
370
13
48
1
60
0
100
AcDbLine
10
-147.603125
20
-12.5
30
0
11
-148.021122
21
-15.675002
31
0
39
0
210
0
220
0
230
1
0
LINE
5
17B
100
AcDbEntity
8
SK2
62
256
6
ByLayer
370
13
48
1
60
0
100
AcDbLine
10
-147.185128
20
-15.674998
30
0
11
-148.021122
21
-15.675002
31
0
39
0
210
0
220
0
230
1
0
ENDBLK
5
17D
100
AcDbEntity
8
0
100
AcDbBlockEnd
0
BLOCK
5
180
100
AcDbEntity
8
0
100
AcDbBlockBegin
2
_CLOSED
70
0
10
0
20
0
30
0
3
_CLOSED
0
LINE
5
182
100
AcDbEntity
8
0
62
256
6
ByLayer
370
-2
48
1
60
0
100
AcDbLine
10
-1
20
0.166667
30
0
11
0
21
0
31
0
39
0
210
0
220
0
230
1
0
LINE
5
183
100
AcDbEntity
8
0
62
256
6
ByLayer
370
-2
48
1
60
0
100
AcDbLine
10
0
20
0
30
0
11
-1
21
-0.166667
31
0
39
0
210
0
220
0
230
1
0
LINE
5
184
100
AcDbEntity
8
0
62
256
6
ByLayer
370
-2
48
1
60
0
100
AcDbLine
10
-1
20
0.166667
30
0
11
-1
21
-0.166667
31
0
39
0
210
0
220
0
230
1
0
LINE
5
185
100
AcDbEntity
8
0
62
256
6
ByLayer
370
-2
48
1
60
0
100
AcDbLine
10
0
20
0
30
0
11
-1
21
0
31
0
39
0
210
0
220
0
230
1
0
ENDBLK
5
181
100
AcDbEntity
8
0
100
AcDbBlockEnd
0
BLOCK
5
191
100
AcDbEntity
8
0
100
AcDbBlockBegin
2
DimnDraft3D2
70
0
10
0
20
0
30
0
3
DimnDraft3D2
0
MTEXT
5
187
100
AcDbEntity
8
SK2
62
256
6
ByLayer
370
18
48
1
60
0
100
AcDbMText
10
-41.313158
20
-35.875
30
0
210
0
220
0
230
1
1
\W0.8635;200
40
4.5
41
0
44
1.084337
50
0
71
7
72
5
7
iso_b_vert
0
LINE
5
188
100
AcDbEntity
8
SK2
62
256
6
ByLayer
370
13
48
1
60
0
100
AcDbLine
10
-137.5
20
-14.0875
30
0
11
-137.5
21
-40.175
31
0
39
0
210
0
220
0
230
1
0
LINE
5
189
100
AcDbEntity
8
SK2
62
256
6
ByLayer
370
13
48
1
60
0
100
AcDbLine
10
62.5
20
-7.4875
30
0
11
62.5
21
-40.175
31
0
39
0
210
0
220
0
230
1
0
LINE
5
18A
100
AcDbEntity
8
SK2
62
256
6
ByLayer
370
13
48
1
60
0
100
AcDbLine
10
-137.5
20
-37
30
0
11
62.5
21
-37
31
0
39
0
210
0
220
0
230
1
0
LINE
5
18B
100
AcDbEntity
8
SK2
62
256
6
ByLayer
370
13
48
1
60
0
100
AcDbLine
10
-137.5
20
-37
30
0
11
-134.325002
21
-36.582003
31
0
39
0
210
0
220
0
230
1
0
LINE
5
18C
100
AcDbEntity
8
SK2
62
256
6
ByLayer
370
13
48
1
60
0
100
AcDbLine
10
-137.5
20
-37
30
0
11
-134.324998
21
-37.417997
31
0
39
0
210
0
220
0
230
1
0
LINE
5
18D
100
AcDbEntity
8
SK2
62
256
6
ByLayer
370
13
48
1
60
0
100
AcDbLine
10
-134.325002
20
-36.582003
30
0
11
-134.324998
21
-37.417997
31
0
39
0
210
0
220
0
230
1
0
LINE
5
18E
100
AcDbEntity
8
SK2
62
256
6
ByLayer
370
13
48
1
60
0
100
AcDbLine
10
62.5
20
-37
30
0
11
59.325002
21
-37.417997
31
0
39
0
210
0
220
0
230
1
0
LINE
5
18F
100
AcDbEntity
8
SK2
62
256
6
ByLayer
370
13
48
1
60
0
100
AcDbLine
10
62.5
20
-37
30
0
11
59.324998
21
-36.582003
31
0
39
0
210
0
220
0
230
1
0
LINE
5
190
100
AcDbEntity
8
SK2
62
256
6
ByLayer
370
13
48
1
60
0
100
AcDbLine
10
59.325002
20
-37.417997
30
0
11
59.324998
21
-36.582003
31
0
39
0
210
0
220
0
230
1
0
ENDBLK
5
192
100
AcDbEntity
8
0
100
AcDbBlockEnd
0
BLOCK
5
1A1
100
AcDbEntity
8
0
100
AcDbBlockBegin
2
DimnDraft3D3
70
0
10
0
20
0
30
0
3
DimnDraft3D3
0
MTEXT
5
195
100
AcDbEntity
8
2
62
256
6
ByLayer
370
18
48
1
60
0
100
AcDbMText
10
91.699342
20
-23.878125
30
0
210
0
220
0
230
1
1
\W0.6740;32
40
4.5
41
0
44
1.084337
50
0
71
7
72
5
7
iso_b_vert
0
MTEXT
5
197
100
AcDbEntity
8
2
62
256
6
ByLayer
370
18
48
1
60
0
100
AcDbMText
10
83.455397
20
-23.546875
30
0
210
0
220
0
230
1
1
%%c
40
3.175
41
0
44
1.084337
50
0
71
7
72
5
7
iso_b_vert
0
LINE
5
198
100
AcDbEntity
8
2
62
256
6
ByLayer
370
13
48
1
60
0
100
AcDbLine
10
46.5
20
-7.4875
30
0
11
46.5
21
-28.971875
31
0
39
0
210
0
220
0
230
1
0
LINE
5
199
100
AcDbEntity
8
2
62
256
6
ByLayer
370
13
48
1
60
0
100
AcDbLine
10
78.5
20
-7.4875
30
0
11
78.5
21
-28.971875
31
0
39
0
210
0
220
0
230
1
0
LINE
5
19A
100
AcDbEntity
8
2
62
256
6
ByLayer
370
13
48
1
60
0
100
AcDbLine
10
46.5
20
-25.796875
30
0
11
95.950658
21
-25.796875
31
0
39
0
210
0
220
0
230
1
0
LINE
5
19B
100
AcDbEntity
8
2
62
256
6
ByLayer
370
13
48
1
60
0
100
AcDbLine
10
46.5
20
-25.796875
30
0
11
49.674998
21
-25.378878
31
0
39
0
210
0
220
0
230
1
0
LINE
5
19C
100
AcDbEntity
8
2
62
256
6
ByLayer
370
13
48
1
60
0
100
AcDbLine
10
46.5
20
-25.796875
30
0
11
49.675002
21
-26.214872
31
0
39
0
210
0
220
0
230
1
0
LINE
5
19D
100
AcDbEntity
8
2
62
256
6
ByLayer
370
13
48
1
60
0
100
AcDbLine
10
49.674998
20
-25.378878
30
0
11
49.675002
21
-26.214872
31
0
39
0
210
0
220
0
230
1
0
LINE
5
19E
100
AcDbEntity
8
2
62
256
6
ByLayer
370
13
48
1
60
0
100
AcDbLine
10
78.5
20
-25.796875
30
0
11
75.325002
21
-26.214872
31
0
39
0
210
0
220
0
230
1
0
LINE
5
19F
100
AcDbEntity
8
2
62
256
6
ByLayer
370
13
48
1
60
0
100
AcDbLine
10
78.5
20
-25.796875
30
0
11
75.324998
21
-25.378878
31
0
39
0
210
0
220
0
230
1
0
LINE
5
1A0
100
AcDbEntity
8
2
62
256
6
ByLayer
370
13
48
1
60
0
100
AcDbLine
10
75.325002
20
-26.214872
30
0
11
75.324998
21
-25.378878
31
0
39
0
210
0
220
0
230
1
0
ENDBLK
5
1A2
100
AcDbEntity
8
0
100
AcDbBlockEnd
0
BLOCK
5
1AF
100
AcDbEntity
8
0
100
AcDbBlockBegin
2
DimnDraft3D4
70
0
10
0
20
0
30
0
3
DimnDraft3D4
0
MTEXT
5
1A5
100
AcDbEntity
8
2
62
256
6
ByLayer
370
18
48
1
60
0
100
AcDbMText
10
27.093421
20
24.125
30
0
210
0
220
0
230
1
1
\W0.7346;62.5
40
4.5
41
0
44
1.084337
50
0
71
7
72
5
7
iso_b_vert
0
LINE
5
1A6
100
AcDbEntity
8
2
62
256
6
ByLayer
370
13
48
1
60
0
100
AcDbLine
10
62.5
20
-4.3125
30
0
11
62.5
21
26.175
31
0
39
0
210
0
220
0
230
1
0
LINE
5
1A7
100
AcDbEntity
8
2
62
256
6
ByLayer
370
13
48
1
60
0
100
AcDbLine
10
0
20
1.5875
30
0
11
0
21
26.175
31
0
39
0
210
0
220
0
230
1
0
LINE
5
1A8
100
AcDbEntity
8
2
62
256
6
ByLayer
370
13
48
1
60
0
100
AcDbLine
10
62.5
20
23
30
0
11
0
21
23
31
0
39
0
210
0
220
0
230
1
0
LINE
5
1A9
100
AcDbEntity
8
2
62
256
6
ByLayer
370
13
48
1
60
0
100
AcDbLine
10
62.5
20
23
30
0
11
59.325002
21
22.582003
31
0
39
0
210
0
220
0
230
1
0
LINE
5
1AA
100
AcDbEntity
8
2
62
256
6
ByLayer
370
13
48
1
60
0
100
AcDbLine
10
62.5
20
23
30
0
11
59.324998
21
23.417997
31
0
39
0
210
0
220
0
230
1
0
LINE
5
1AB
100
AcDbEntity
8
2
62
256
6
ByLayer
370
13
48
1
60
0
100
AcDbLine
10
59.325002
20
22.582003
30
0
11
59.324998
21
23.417997
31
0
39
0
210
0
220
0
230
1
0
LINE
5
1AC
100
AcDbEntity
8
2
62
256
6
ByLayer
370
13
48
1
60
0
100
AcDbLine
10
0
20
23
30
0
11
3.174998
21
23.417997
31
0
39
0
210
0
220
0
230
1
0
LINE
5
1AD
100
AcDbEntity
8
2
62
256
6
ByLayer
370
13
48
1
60
0
100
AcDbLine
10
0
20
23
30
0
11
3.175002
21
22.582003
31
0
39
0
210
0
220
0
230
1
0
LINE
5
1AE
100
AcDbEntity
8
2
62
256
6
ByLayer
370
13
48
1
60
0
100
AcDbLine
10
3.174998
20
23.417997
30
0
11
3.175002
21
22.582003
31
0
39
0
210
0
220
0
230
1
0
ENDBLK
5
1B0
100
AcDbEntity
8
0
100
AcDbBlockEnd
0
ENDSEC
0
SECTION
2
ENTITIES
0
ARC
5
E1
100
AcDbEntity
8
1
62
256
6
ByLayer
370
13
48
1
60
0
100
AcDbCircle
39
0
10
-30
20
0
30
0
40
12.1749999999835
210
0
220
0
230
-1
100
AcDbArc
50
160.83176
51
199.16824
0
POINT
5
6C
100
AcDbEntity
8
81
62
256
6
ByLayer
370
18
48
1
60
0
100
AcDbPoint
10
62.5
20
-5.9
30
0
39
0
210
0
220
0
230
1
50
360
0
POINT
5
6E
100
AcDbEntity
8
80
62
256
6
ByLayer
370
18
48
1
60
0
100
AcDbPoint
10
0
20
0
30
0
39
0
210
0
220
0
230
1
50
360
0
SPLINE
5
E2
100
AcDbEntity
8
1
62
256
6
ByLayer
370
13
48
1
60
0
100
AcDbSpline
70
4
71
3
72
16
73
12
40
0
40
0
40
0
40
0
40
0.25
40
0.25
40
0.375
40
0.375
40
0.499999999999999
40
0.499999999999999
40
0.75
40
0.75
40
1
40
1
40
1
40
1
41
1
10
77.0888030966023
20
-5.50548094716174
30
0
41
1
10
77.109975549393
20
-5.48044996381162
30
0
41
1
10
77.1272507164389
20
-5.45586172686447
30
0
41
1
10
77.1345305473921
20
-5.43129341320014
30
0
41
1
10
77.133634554634
20
-5.42560880155722
30
0
41
1
10
77.1257496017242
20
-5.41991872477314
30
0
41
1
10
77.1188487153067
20
-5.41988571978925
30
0
41
1
10
77.0932614303466
20
-5.42587592286276
30
0
41
1
10
77.0698602488658
20
-5.43754791228912
30
0
41
1
10
77.0200347174647
20
-5.46743476809044
30
0
41
1
10
76.9940207027795
20
-5.48534084815415
30
0
41
1
10
76.9671971073872
20
-5.50548094716174
30
0
0
SPLINE
5
E3
100
AcDbEntity
8
1
62
256
6
ByLayer
370
13
48
1
60
0
100
AcDbSpline
70
4
71
3
72
12
73
8
40
0
40
0
40
0
40
0
40
0.25
40
0.25
40
0.5
40
0.5
40
1
40
1
40
1
40
1
41
1
10
54.4375117213692
20
-6.22451905283839
30
0
41
1
10
54.4112599815679
20
-6.22451905283776
30
0
41
1
10
54.383787977836
20
-6.2218808164626
30
0
41
1
10
54.327870463374
20
-6.2136985034623
30
0
41
1
10
54.2997999464775
20
-6.20815035167001
30
0
41
1
10
54.2153573506625
20
-6.18831705009214
30
0
41
1
10
54.1587648782559
20
-6.17094676017157
30
0
41
1
10
54.1018594669776
20
-6.1495190528388
30
0
0
SPLINE
5
E4
100
AcDbEntity
8
1
62
256
6
ByLayer
370
13
48
1
60
0
100
AcDbSpline
70
4
71
3
72
8
73
4
40
0
40
0
40
0
40
0
40
1
40
1
40
1
40
1
41
1
10
46.8392798082705
20
-5.50548094716171
30
0
41
1
10
47.0445068706287
20
-5.72063698320898
30
0
41
1
10
47.2503725244426
20
-5.93533368501954
30
0
41
1
10
47.4569490626019
20
-6.14951905283837
30
0
0
SPLINE
5
E5
100
AcDbEntity
8
1
62
256
6
ByLayer
370
13
48
1
60
0
100
AcDbSpline
70
4
71
3
72
12
73
8
40
0
40
0
40
0
40
0
40
0.500000000000003
40
0.500000000000003
40
0.750000000000001
40
0.750000000000001
40
1
40
1
40
1
40
1
41
1
10
52.2123402034589
20
-6.14951905283837
30
0
41
1
10
52.2558980679545
20
-6.17042269964244
30
0
41
1
10
52.2998755450641
20
-6.18806690144612
30
0
41
1
10
52.3638836890698
20
-6.20803154252602
30
0
41
1
10
52.3849420985319
20
-6.2136169996368
30
0
41
1
10
52.4262884777799
20
-6.22185457419161
30
0
41
1
10
52.4465157406936
20
-6.22451905283702
30
0
41
1
10
52.4650307249166
20
-6.22451905283839
30
0
0
SPLINE
5
E6
100
AcDbEntity
8
1
62
256
6
ByLayer
370
13
48
1
60
0
100
AcDbSpline
70
4
71
3
72
14
73
10
40
0
40
0
40
0
40
0
40
0.25
40
0.25
40
0.5
40
0.5
40
0.75
40
0.75
40
1
40
1
40
1
40
1
41
1
10
52.200119696052
20
-6.22451905283882
30
0
41
1
10
52.1899726759427
20
-6.22451905283882
30
0
41
1
10
52.1806340203993
20
-6.22342643039264
30
0
41
1
10
52.1656064996196
20
-6.2177557496974
30
0
41
1
10
52.1598632723614
20
-6.21298613959721
30
0
41
1
10
52.1554618124096
20
-6.19906506653356
30
0
41
1
10
52.1569436016635
20
-6.1899327137412
30
0
41
1
10
52.1657646412423
20
-6.17036144954093
30
0
41
1
10
52.1729905555506
20
-6.15979885464444
30
0
41
1
10
52.1814831624457
20
-6.14951905283829
30
0
0
SPLINE
5
E7
100
AcDbEntity
8
1
62
256
6
ByLayer
370
13
48
1
60
0
100
AcDbSpline
70
4
71
3
72
8
73
4
40
0
40
0
40
0
40
0
40
1
40
1
40
1
40
1
41
1
10
50.8105550274471
20
-6.14951905283837
30
0
41
1
10
50.4418411395327
20
-5.93999613479954
30
0
41
1
10
50.0773427119434
20
-5.7251027486025
30
0
41
1
10
49.7165557758431
20
-5.50548094716171
30
0
0
SPLINE
5
E8
100
AcDbEntity
8
1
62
256
6
ByLayer
370
13
48
1
60
0
100
AcDbSpline
70
4
71
3
72
8
73
4
40
0
40
0
40
0
40
0
40
1
40
1
40
1
40
1
41
1
10
54.2059334117045
20
-5.50548094716171
30
0
41
1
10
54.414248721388
20
-5.72118908054466
30
0
41
1
10
54.6238679129818
20
-5.93594189579045
30
0
41
1
10
54.8350917212971
20
-6.14951905283829
30
0
0
SPLINE
5
E9
100
AcDbEntity
8
1
62
256
6
ByLayer
370
13
48
1
60
0
100
AcDbSpline
70
4
71
3
72
10
73
6
40
0
40
0
40
0
40
0
40
0.5
40
0.5
40
1
40
1
40
1
40
1
41
1
10
49.0541351457921
20
-6.22451905283839
30
0
41
1
10
49.03795173961
20
-6.22451905283839
30
0
41
1
10
49.0138178879221
20
-6.21459202488992
30
0
41
1
10
48.9621780319029
20
-6.18697429059185
30
0
41
1
10
48.9351610389363
20
-6.16951490928165
30
0
41
1
10
48.9074475126896
20
-6.1495190528384
30
0
0
SPLINE
5
EA
100
AcDbEntity
8
1
62
256
6
ByLayer
370
13
48
1
60
0
100
AcDbSpline
70
4
71
3
72
8
73
4
40
0
40
0
40
0
40
0
40
1
40
1
40
1
40
1
41
1
10
47.5140450383591
20
-6.22451905283839
30
0
41
1
10
47.516962883072
20
-6.22451905283839
30
0
41
1
10
47.5203351565363
20
-6.22451905283839
30
0
41
1
10
47.5241615519864
20
-6.22451905283839
30
0
0
SPLINE
5
EB
100
AcDbEntity
8
1
62
256
6
ByLayer
370
13
48
1
60
0
100
AcDbSpline
70
4
71
3
72
8
73
4
40
0
40
0
40
0
40
0
40
1
40
1
40
1
40
1
41
1
10
76.7149450507999
20
-6.1495190528384
30
0
41
1
10
76.9840549702629
20
-5.93667563543465
30
0
41
1
10
77.2511242345873
20
-5.72192770458574
30
0
41
1
10
77.5163732339045
20
-5.50548094716174
30
0
0
SPLINE
5
EC
100
AcDbEntity
8
1
62
256
6
ByLayer
370
13
48
1
60
0
100
AcDbSpline
70
4
71
3
72
12
73
8
40
0
40
0
40
0
40
0
40
0.500000000000052
40
0.500000000000052
40
0.750000000000026
40
0.750000000000026
40
1
40
1
40
1
40
1
41
1
10
76.5433229876718
20
-6.14951905283831
30
0
41
1
10
76.5267917284044
20
-6.16901045099641
30
0
41
1
10
76.5127947179656
20
-6.18830507937963
30
0
41
1
10
76.5034593853883
20
-6.20960022394613
30
0
41
1
10
76.5023838074447
20
-6.2153357445174
30
0
41
1
10
76.5047077520232
20
-6.22274587713767
30
0
41
1
10
76.508106898543
20
-6.2245190528395
30
0
41
1
10
76.5130799807594
20
-6.22451905283845
30
0
0
SPLINE
5
ED
100
AcDbEntity
8
1
62
256
6
ByLayer
370
13
48
1
60
0
100
AcDbSpline
70
4
71
3
72
16
73
12
40
0
40
0
40
0
40
0
40
0.249999999999881
40
0.249999999999881
40
0.499999999999763
40
0.499999999999763
40
0.624999999999822
40
0.624999999999822
40
0.749999999999881
40
0.749999999999881
40
1
40
1
40
1
40
1
41
1
10
70.236334150645
20
-6.22451905283839
30
0
41
1
10
70.2218795332605
20
-6.22451905283847
30
0
41
1
10
70.2078193323344
20
-6.22380612211336
30
0
41
1
10
70.181112701026
20
-6.21986906898809
30
0
41
1
10
70.1685492215648
20
-6.21675958693655
30
0
41
1
10
70.1535428550654
20
-6.20812481365255
30
0
41
1
10
70.1493686331098
20
-6.2046450222806
30
0
41
1
10
70.1437671872435
20
-6.19578731752318
30
0
41
1
10
70.1425773981452
20
-6.19050571852745
30
0
41
1
10
70.1448233178343
20
-6.17330892926205
30
0
41
1
10
70.1538476039911
20
-6.16070295998364
30
0
41
1
10
70.1649082787122
20
-6.14951905282695
30
0
0
SPLINE
5
EE
100
AcDbEntity
8
1
62
256
6
ByLayer
370
13
48
1
60
0
100
AcDbSpline
70
4
71
3
72
12
73
8
40
0
40
0
40
0
40
0
40
0.499999999999911
40
0.499999999999911
40
0.749999999999955
40
0.749999999999955
40
1
40
1
40
1
40
1
41
1
10
77.3694506012202
20
-6.14951905283837
30
0
41
1
10
77.351621116054
20
-6.16895186578478
30
0
41
1
10
77.3356209393523
20
-6.18743714185149
30
0
41
1
10
77.3196901616818
20
-6.20861624262153
30
0
41
1
10
77.3158094640255
20
-6.21450917060196
30
0
41
1
10
77.3121509738144
20
-6.22244141076115
30
0
41
1
10
77.312375435758
20
-6.22451905283879
30
0
41
1
10
77.3146086120997
20
-6.22451905283842
30
0
0
SPLINE
5
EF
100
AcDbEntity
8
1
62
256
6
ByLayer
370
13
48
1
60
0
100
AcDbSpline
70
4
71
3
72
10
73
6
40
0
40
0
40
0
40
0
40
0.5
40
0.5
40
1
40
1
40
1
40
1
41
1
10
74.1894449725529
20
-6.1495190528384
30
0
41
1
10
74.1532735744835
20
-6.17007357253908
30
0
41
1
10
74.1168397484808
20
-6.18777520807268
30
0
41
1
10
74.0470587930664
20
-6.21461482333373
30
0
41
1
10
74.0124541383369
20
-6.22451905283563
30
0
41
1
10
73.9846636633606
20
-6.22451905283842
30
0
0
SPLINE
5
F0
100
AcDbEntity
8
1
62
256
6
ByLayer
370
13
48
1
60
0
100
AcDbSpline
70
4
71
3
72
18
73
14
40
0
40
0
40
0
40
0
40
0.249999999999954
40
0.249999999999954
40
0.499999999999907
40
0.499999999999907
40
0.62499999999993
40
0.62499999999993
40
0.749999999999954
40
0.749999999999954
40
0.874999999999977
40
0.874999999999977
40
1
40
1
40
1
40
1
41
1
10
48.0328028926128
20
-5.50548094716171
30
0
41
1
10
48.0058669342965
20
-5.4852564821181
30
0
41
1
10
47.9793460816724
20
-5.46704007841782
30
0
41
1
10
47.9300337306223
20
-5.43750793688284
30
0
41
1
10
47.9066054765725
20
-5.42579767293893
30
0
41
1
10
47.8809374023297
20
-5.4198595811786
30
0
41
1
10
47.8741167475769
20
-5.41994666882951
30
0
41
1
10
47.8663309595724
20
-5.42570367813929
30
0
41
1
10
47.8655121808429
20
-5.43151208642092
30
0
41
1
10
47.8703463651613
20
-5.44767673706605
30
0
41
1
10
47.8759467534868
20
-5.45809627919914
30
0
41
1
10
47.8911565861967
20
-5.48079798339401
30
0
41
1
10
47.9006665194647
20
-5.493031474845
30
0
41
1
10
47.9111969033976
20
-5.50548094716171
30
0
0
SPLINE
5
F1
100
AcDbEntity
8
1
62
256
6
ByLayer
370
13
48
1
60
0
100
AcDbSpline
70
4
71
3
72
8
73
4
40
0
40
0
40
0
40
0
40
1
40
1
40
1
40
1
41
1
10
72.8247211882525
20
-5.50548094716174
30
0
41
1
10
72.6399854014348
20
-5.72037290033134
30
0
41
1
10
72.4549380055847
20
-5.93506430280186
30
0
41
1
10
72.269526050119
20
-6.14951905283843
30
0
0
SPLINE
5
F2
100
AcDbEntity
8
1
62
256
6
ByLayer
370
13
48
1
60
0
100
AcDbSpline
70
4
71
3
72
12
73
8
40
0
40
0
40
0
40
0
40
0.250000000000002
40
0.250000000000002
40
0.500000000000004
40
0.500000000000004
40
1
40
1
40
1
40
1
41
1
10
48.4869200192449
20
-6.22451905283839
30
0
41
1
10
48.4919264408368
20
-6.22451905283847
30
0
41
1
10
48.4953043273848
20
-6.22276359234388
30
0
41
1
10
48.497626319235
20
-6.21524668585207
30
0
41
1
10
48.4965484062895
20
-6.20960563650468
30
0
41
1
10
48.4871342583611
20
-6.18816789712784
30
0
41
1
10
48.4732047285768
20
-6.16900627355346
30
0
41
1
10
48.4566770123282
20
-6.14951905283826
30
0
0
SPLINE
5
F3
100
AcDbEntity
8
1
62
256
6
ByLayer
370
13
48
1
60
0
100
AcDbSpline
70
4
71
3
72
8
73
4
40
0
40
0
40
0
40
0
40
1
40
1
40
1
40
1
41
1
10
66.864373631929
20
-6.22451905283842
30
0
41
1
10
67.071221746634
20
-6.22451905283842
30
0
41
1
10
67.2767096033419
20
-6.22451905283842
30
0
41
1
10
67.4806451524118
20
-6.22451905283842
30
0
0
SPLINE
5
F4
100
AcDbEntity
8
1
62
256
6
ByLayer
370
13
48
1
60
0
100
AcDbSpline
70
4
71
3
72
10
73
6
40
0
40
0
40
0
40
0
40
0.5
40
0.5
40
1
40
1
40
1
40
1
41
1
10
42.5
20
-4.90000000000001
30
0
41
1
10
43.2924599672344
20
-4.90000000000001
30
0
41
1
10
44.093027962423
20
-4.90000000000003
30
0
41
1
10
45.7031338864303
20
-4.90000000000003
30
0
41
1
10
46.5127894465139
20
-4.90000000000003
30
0
41
1
10
47.325
20
-4.90000000000003
30
0
0
SPLINE
5
F5
100
AcDbEntity
8
1
62
256
6
ByLayer
370
13
48
1
60
0
100
AcDbSpline
70
4
71
3
72
8
73
4
40
0
40
0
40
0
40
0
40
1
40
1
40
1
40
1
41
1
10
73.8118116972063
20
-6.22451905283842
30
0
41
1
10
73.8700245654699
20
-6.22451905283842
30
0
41
1
10
73.9276449055284
20
-6.22451905283842
30
0
41
1
10
73.9846636633501
20
-6.22451905283842
30
0
0
SPLINE
5
F6
100
AcDbEntity
8
1
62
256
6
ByLayer
370
13
48
1
60
0
100
AcDbSpline
70
4
71
3
72
8
73
4
40
0
40
0
40
0
40
0
40
1
40
1
40
1
40
1
41
1
10
75.283444224157
20
-5.50548094716174
30
0
41
1
10
74.9226572880566
20
-5.72510274860252
30
0
41
1
10
74.5581588604673
20
-5.9399961347996
30
0
41
1
10
74.1894449725529
20
-6.1495190528384
30
0
0
SPLINE
5
F7
100
AcDbEntity
8
1
62
256
6
ByLayer
370
13
48
1
60
0
100
AcDbSpline
70
4
71
3
72
12
73
8
40
0
40
0
40
0
40
0
40
0.249999999999931
40
0.249999999999931
40
0.499999999999861
40
0.499999999999861
40
1
40
1
40
1
40
1
41
1
10
75.093426482454
20
-6.22451905284473
30
0
41
1
10
75.1040467507334
20
-6.22451905284328
30
0
41
1
10
75.1168561427085
20
-6.22186745086822
30
0
41
1
10
75.1440435905805
20
-6.21347068956652
30
0
41
1
10
75.1585480066372
20
-6.20769059229244
30
0
41
1
10
75.2033234462062
20
-6.18714858465651
30
0
41
1
10
75.2339499722261
20
-6.16976279513025
30
0
41
1
10
75.2651989190657
20
-6.1495190528384
30
0
0
SPLINE
5
F8
100
AcDbEntity
8
1
62
256
6
ByLayer
370
13
48
1
60
0
100
AcDbSpline
70
4
71
3
72
18
73
14
40
0
40
0
40
0
40
0
40
0.25
40
0.25
40
0.375
40
0.375
40
0.5
40
0.5
40
0.625
40
0.625
40
0.75
40
0.75
40
1
40
1
40
1
40
1
41
1
10
46.8392798082705
20
-5.50548094716169
30
0
41
1
10
46.817697965053
20
-5.48285496507188
30
0
41
1
10
46.7979794480556
20
-5.46155952322124
30
0
41
1
10
46.7772281656841
20
-5.43734711941391
30
0
41
1
10
46.7719203632403
20
-5.43069898563937
30
0
41
1
10
46.7661858387347
20
-5.42203413475303
30
0
41
1
10
46.7657948430144
20
-5.42002713384272
30
0
41
1
10
46.770069604663
20
-5.42111792345722
30
0
41
1
10
46.7747585448409
20
-5.42419268396441
30
0
41
1
10
46.7875189317296
20
-5.43398181342488
30
0
41
1
10
46.7956849269849
20
-5.4407529530169
30
0
41
1
10
46.8228186298163
20
-5.46416169878688
30
0
41
1
10
46.844644529221
20
-5.48404068170919
30
0
41
1
10
46.8675078438598
20
-5.50548094716169
30
0
0
SPLINE
5
F9
100
AcDbEntity
8
1
62
256
6
ByLayer
370
13
48
1
60
0
100
AcDbSpline
70
4
71
3
72
8
73
4
40
0
40
0
40
0
40
0
40
1
40
1
40
1
40
1
41
1
10
77.5430509373981
20
-6.1495190528384
30
0
41
1
10
77.7496274755573
20
-5.93533368501957
30
0
41
1
10
77.9554931293713
20
-5.72063698320903
30
0
41
1
10
78.1607201917296
20
-5.50548094716174
30
0
0
SPLINE
5
FA
100
AcDbEntity
8
1
62
256
6
ByLayer
370
13
48
1
60
0
100
AcDbSpline
70
4
71
3
72
14
73
10
40
0
40
0
40
0
40
0
40
0.25
40
0.25
40
0.5
40
0.5
40
0.75
40
0.75
40
1
40
1
40
1
40
1
41
1
10
54.8350917212981
20
-6.14951905283789
30
0
41
1
10
54.8461338319568
20
-6.16068418910288
30
0
41
1
10
54.8551807789905
20
-6.17334058378822
30
0
41
1
10
54.8581671214026
20
-6.19620614697271
30
0
41
1
10
54.8513915665439
20
-6.20526344814516
30
0
41
1
10
54.8316673965128
20
-6.21665684071812
30
0
41
1
10
54.818889360419
20
-6.21986848169644
30
0
41
1
10
54.7921865698302
20
-6.22380553535865
30
0
41
1
10
54.7781246878688
20
-6.22451905283845
30
0
41
1
10
54.763665849355
20
-6.22451905283839
30
0
0
SPLINE
5
FB
100
AcDbEntity
8
1
62
256
6
ByLayer
370
13
48
1
60
0
100
AcDbSpline
70
4
71
3
72
8
73
4
40
0
40
0
40
0
40
0
40
1
40
1
40
1
40
1
41
1
10
75.2651989190657
20
-6.1495190528384
30
0
41
1
10
75.5911041532247
20
-5.93839060727055
30
0
41
1
10
75.9137346904442
20
-5.72356969372282
30
0
41
1
10
76.233467121891
20
-5.50548094716174
30
0
0
SPLINE
5
FC
100
AcDbEntity
8
1
62
256
6
ByLayer
370
13
48
1
60
0
100
AcDbSpline
70
4
71
3
72
8
73
4
40
0
40
0
40
0
40
0
40
1
40
1
40
1
40
1
41
1
10
47.6305493987799
20
-6.14951905283837
30
0
41
1
10
47.4338851257203
20
-5.93516962008709
30
0
41
1
10
47.2377174789163
20
-5.72047788269347
30
0
41
1
10
47.0419978690785
20
-5.50548094716171
30
0
0
SPLINE
5
FD
100
AcDbEntity
8
1
62
256
6
ByLayer
370
13
48
1
60
0
100
AcDbSpline
70
4
71
3
72
8
73
4
40
0
40
0
40
0
40
0
40
1
40
1
40
1
40
1
41
1
10
52.4650307249302
20
-6.22451905283839
30
0
41
1
10
52.5407274072615
20
-6.22451905283839
30
0
41
1
10
52.6171180055465
20
-6.22451905283839
30
0
41
1
10
52.6941866741342
20
-6.22451905283839
30
0
0
SPLINE
5
FE
100
AcDbEntity
8
1
62
256
6
ByLayer
370
13
48
1
60
0
100
AcDbSpline
70
4
71
3
72
8
73
4
40
0
40
0
40
0
40
0
40
1
40
1
40
1
40
1
41
1
10
48.9074475126896
20
-6.14951905283837
30
0
41
1
10
48.6134157358671
20
-5.93736931964412
30
0
41
1
10
48.3219631027196
20
-5.72259260484338
30
0
41
1
10
48.0328028926128
20
-5.50548094716171
30
0
0
SPLINE
5
FF
100
AcDbEntity
8
1
62
256
6
ByLayer
370
13
48
1
60
0
100
AcDbSpline
70
4
71
3
72
10
73
6
40
0
40
0
40
0
40
0
40
0.5
40
0.5
40
1
40
1
40
1
40
1
41
1
10
47.5608225744786
20
-6.14951905283837
30
0
41
1
10
47.5820624182974
20
-6.16905673914857
30
0
41
1
10
47.6024509003184
20
-6.18707610812666
30
0
41
1
10
47.6364386217843
20
-6.21477230763975
30
0
41
1
10
47.6503075147207
20
-6.22451905283839
30
0
41
1
10
47.6547329089823
20
-6.22451905283839
30
0
0
SPLINE
5
100
100
AcDbEntity
8
1
62
256
6
ByLayer
370
13
48
1
60
0
100
AcDbSpline
70
4
71
3
72
8
73
4
40
0
40
0
40
0
40
0
40
1
40
1
40
1
40
1
41
1
10
54.4375117213779
20
-6.22451905283836
30
0
41
1
10
54.545362356144
20
-6.22451905283836
30
0
41
1
10
54.6540922546659
20
-6.22451905283836
30
0
41
1
10
54.7636658493572
20
-6.22451905283836
30
0
0
SPLINE
5
101
100
AcDbEntity
8
1
62
256
6
ByLayer
370
13
48
1
60
0
100
AcDbSpline
70
4
71
3
72
10
73
6
40
0
40
0
40
0
40
0
40
0.5
40
0.5
40
1
40
1
40
1
40
1
41
1
10
47.6853913879011
20
-6.22451905283839
30
0
41
1
10
47.689922769039
20
-6.2245190528383
30
0
41
1
10
47.6855854948349
20
-6.21562079975558
30
0
41
1
10
47.6643105123929
20
-6.18735519586215
30
0
41
1
10
47.6483149468343
20
-6.16888217908763
30
0
41
1
10
47.6305493987799
20
-6.14951905283834
30
0
0
SPLINE
5
102
100
AcDbEntity
8
1
62
256
6
ByLayer
370
13
48
1
60
0
100
AcDbSpline
70
4
71
3
72
8
73
4
40
0
40
0
40
0
40
0
40
1
40
1
40
1
40
1
41
1
10
54.1018594669775
20
-6.1495190528384
30
0
41
1
10
53.5682230213875
20
-5.94857848635564
30
0
41
1
10
53.0424025083135
20
-5.73327068009016
30
0
41
1
10
52.5233722972004
20
-5.50548094716171
30
0
0
SPLINE
5
103
100
AcDbEntity
8
1
62
256
6
ByLayer
370
13
48
1
60
0
100
AcDbSpline
70
4
71
3
72
8
73
4
40
0
40
0
40
0
40
0
40
1
40
1
40
1
40
1
41
1
10
77.9007512172574
20
-5.50548094716174
30
0
41
1
10
77.6548332542246
20
-5.72145392649932
30
0
41
1
10
77.407475275071
20
-5.93618220879125
30
0
41
1
10
77.1585075118252
20
-6.14951905283843
30
0
0
SPLINE
5
104
100
AcDbEntity
8
1
62
256
6
ByLayer
370
13
48
1
60
0
100
AcDbSpline
70
4
71
3
72
8
73
4
40
0
40
0
40
0
40
0
40
1
40
1
40
1
40
1
41
1
10
47.4836267660956
20
-5.50548094716171
30
0
41
1
10
47.7488757654127
20
-5.72192770458571
30
0
41
1
10
48.0159450297371
20
-5.93667563543463
30
0
41
1
10
48.2850549492001
20
-6.14951905283837
30
0
0
SPLINE
5
105
100
AcDbEntity
8
1
62
256
6
ByLayer
370
13
48
1
60
0
100
AcDbSpline
70
4
71
3
72
20
73
16
40
0
40
0
40
0
40
0
40
0.124999999999943
40
0.124999999999943
40
0.187499999999915
40
0.187499999999915
40
0.249999999999886
40
0.249999999999886
40
0.374999999999905
40
0.374999999999905
40
0.499999999999924
40
0.499999999999924
40
0.749999999999962
40
0.749999999999962
40
1
40
1
40
1
40
1
41
1
10
72.8247211882541
20
-5.50548094716197
30
0
41
1
10
72.8388354949723
20
-5.48906262892208
30
0
41
1
10
72.8495878528032
20
-5.47114843348879
30
0
41
1
10
72.8507965596049
20
-5.44936244929357
30
0
41
1
10
72.8487446192875
20
-5.44303909182645
30
0
41
1
10
72.8407535768519
20
-5.43312506233426
30
0
41
1
10
72.8349900394885
20
-5.42951897906795
30
0
41
1
10
72.8147603073401
20
-5.42163268544661
30
0
41
1
10
72.7973925947674
20
-5.42015790891656
30
0
41
1
10
72.7611710189464
20
-5.42091083460357
30
0
41
1
10
72.7420714802749
20
-5.42315101752425
30
0
41
1
10
72.6829425617921
20
-5.43326455176663
30
0
41
1
10
72.6417869693868
20
-5.4444091025693
30
0
41
1
10
72.5597443566773
20
-5.47125275622165
30
0
41
1
10
72.5183564957279
20
-5.48716719510449
30
0
41
1
10
72.4766277027997
20
-5.50548094716171
30
0
0
SPLINE
5
106
100
AcDbEntity
8
1
62
256
6
ByLayer
370
13
48
1
60
0
100
AcDbSpline
70
4
71
3
72
8
73
4
40
0
40
0
40
0
40
0
40
1
40
1
40
1
40
1
41
1
10
76.5130799807547
20
-6.22451905283842
30
0
41
1
10
76.5387315859797
20
-6.22451905283842
30
0
41
1
10
76.5639001483496
20
-6.22451905283842
30
0
41
1
10
76.5885830652448
20
-6.22451905283842
30
0
0
SPLINE
5
107
100
AcDbEntity
8
1
62
256
6
ByLayer
370
13
48
1
60
0
100
AcDbSpline
70
4
71
3
72
8
73
4
40
0
40
0
40
0
40
0
40
1
40
1
40
1
40
1
41
1
10
75.8612162699748
20
-6.1495190528384
30
0
41
1
10
76.0386449638403
20
-5.93487358091821
30
0
41
1
10
76.2160168992506
20
-5.72019291433716
30
0
41
1
10
76.3933382866524
20
-5.50548094716174
30
0
0
SPLINE
5
108
100
AcDbEntity
8
1
62
256
6
ByLayer
370
13
48
1
60
0
100
AcDbSpline
70
4
71
3
72
8
73
4
40
0
40
0
40
0
40
0
40
1
40
1
40
1
40
1
41
1
10
78.2183486399722
20
-5.50548094716171
30
0
41
1
10
78.0018150047389
20
-5.72084053742083
30
0
41
1
10
77.7844186380961
20
-5.93554479122258
30
0
41
1
10
77.566061257946
20
-6.14951905283843
30
0
0
SPLINE
5
109
100
AcDbEntity
8
1
62
256
6
ByLayer
370
13
48
1
60
0
100
AcDbSpline
70
4
71
3
72
10
73
6
40
0
40
0
40
0
40
0
40
0.5
40
0.5
40
1
40
1
40
1
40
1
41
1
10
47.5140450383591
20
-6.22451905283839
30
0
41
1
10
47.5127492461612
20
-6.22451905283842
30
0
41
1
10
47.5020404356753
20
-6.21496667108292
30
0
41
1
10
47.4724341559162
20
-6.18703880793404
30
0
41
1
10
47.4537624727439
20
-6.168944858982
30
0
41
1
10
47.433938742054
20
-6.14951905283837
30
0
0
SPLINE
5
10A
100
AcDbEntity
8
1
62
256
6
ByLayer
370
13
48
1
60
0
100
AcDbSpline
70
4
71
3
72
10
73
6
40
0
40
0
40
0
40
0
40
0.5
40
0.5
40
1
40
1
40
1
40
1
41
1
10
77.5262625344433
20
10.9649032247276
30
0
41
1
10
77.2598493035944
20
11.3217475969755
30
0
41
1
10
76.9704032795035
20
11.6845379476355
30
0
41
1
10
76.3434136227843
20
12.4128279120557
30
0
41
1
10
76.0058752574572
20
12.7783959900047
30
0
41
1
10
75.642135623731
20
13.1421356237309
30
0
0
SPLINE
5
10B
100
AcDbEntity
8
1
62
256
6
ByLayer
370
13
48
1
60
0
100
AcDbSpline
70
4
71
3
72
20
73
16
40
0
40
0
40
0
40
0
40
0.249999999999998
40
0.249999999999998
40
0.374999999999999
40
0.374999999999999
40
0.499999999999999
40
0.499999999999999
40
0.624999999999999
40
0.624999999999999
40
0.75
40
0.75
40
0.875
40
0.875
40
1
40
1
40
1
40
1
41
1
10
78.1324921561402
20
-5.50548094716174
30
0
41
1
10
78.1555294455299
20
-5.48387753542437
30
0
41
1
10
78.1772758232109
20
-5.46407351655728
30
0
41
1
10
78.2045206938491
20
-5.4405789548413
30
0
41
1
10
78.2125714285027
20
-5.43390538515601
30
0
41
1
10
78.2254225320569
20
-5.42406103067089
30
0
41
1
10
78.230052187872
20
-5.42104311282
30
0
41
1
10
78.2342380808737
20
-5.42006408837773
30
0
41
1
10
78.2337453238618
20
-5.42217380648827
30
0
41
1
10
78.2279106996945
20
-5.43091708963604
30
0
41
1
10
78.2225344995946
20
-5.437633720414
30
0
41
1
10
78.208708366833
20
-5.4537462283931
30
0
41
1
10
78.2001192373284
20
-5.46331494512049
30
0
41
1
10
78.18152558752
20
-5.48351409988965
30
0
41
1
10
78.1714400295105
20
-5.49424247901089
30
0
41
1
10
78.1607201917296
20
-5.50548094716174
30
0
0
SPLINE
5
10C
100
AcDbEntity
8
1
62
256
6
ByLayer
370
13
48
1
60
0
100
AcDbSpline
70
4
71
3
72
8
73
4
40
0
40
0
40
0
40
0
40
1
40
1
40
1
40
1
41
1
10
49.9065735175471
20
-6.22451905283839
30
0
41
1
10
49.9503898492423
20
-6.22451905283839
30
0
41
1
10
49.9947523307792
20
-6.22451905283839
30
0
41
1
10
50.0396551907911
20
-6.22451905283839
30
0
0
SPLINE
5
10D
100
AcDbEntity
8
1
62
256
6
ByLayer
370
13
48
1
60
0
100
AcDbSpline
70
4
71
3
72
8
73
4
40
0
40
0
40
0
40
0
40
1
40
1
40
1
40
1
41
1
10
47.8414924881749
20
-6.14951905283837
30
0
41
1
10
47.5925247249291
20
-5.93618220879122
30
0
41
1
10
47.3451667457754
20
-5.72145392649929
30
0
41
1
10
47.0992487827426
20
-5.50548094716171
30
0
0
SPLINE
5
10E
100
AcDbEntity
8
1
62
256
6
ByLayer
370
13
48
1
60
0
100
AcDbSpline
70
4
71
3
72
24
73
20
40
0
40
0
40
0
40
0
40
0.249999999999996
40
0.249999999999996
40
0.499999999999993
40
0.499999999999993
40
0.74999999999999
40
0.74999999999999
40
0.812500000000023
40
0.812500000000023
40
0.875000000000057
40
0.875000000000057
40
0.906250000000043
40
0.906250000000043
40
0.937500000000028
40
0.937500000000028
40
0.968750000000014
40
0.968750000000014
40
1
40
1
40
1
40
1
41
1
10
58.2988389213924
20
-5.50548094716171
30
0
41
1
10
58.2088146304886
20
-5.49002141353387
30
0
41
1
10
58.118903924269
20
-5.47605466717513
30
0
41
1
10
57.9393175766692
20
-5.45147094358728
30
0
41
1
10
57.8494222011283
20
-5.44078366171436
30
0
41
1
10
57.6710134259054
20
-5.42486832649973
30
0
41
1
10
57.5825108918522
20
-5.4190458006675
30
0
41
1
10
57.474315187096
20
-5.42116278307569
30
0
41
1
10
57.4527132985155
20
-5.4221153054832
30
0
41
1
10
57.4104446076853
20
-5.42590863412076
30
0
41
1
10
57.3898268021679
20
-5.42862107145532
30
0
41
1
10
57.3609335566996
20
-5.43600342053972
30
0
41
1
10
57.3515546672795
20
-5.43906258914393
30
0
41
1
10
57.335332544299
20
-5.44735682769695
30
0
41
1
10
57.3281453306185
20
-5.45281699058978
30
0
41
1
10
57.3224222866707
20
-5.46736117255645
30
0
41
1
10
57.3249327291716
20
-5.4762398056672
30
0
41
1
10
57.3365990721819
20
-5.49202976411166
30
0
41
1
10
57.344939574951
20
-5.49908687970367
30
0
41
1
10
57.3538156341802
20
-5.50548094716171
30
0
0
SPLINE
5
10F
100
AcDbEntity
8
1
62
256
6
ByLayer
370
13
48
1
60
0
100
AcDbSpline
70
4
71
3
72
12
73
8
40
0
40
0
40
0
40
0
40
0.499999999999992
40
0.499999999999992
40
0.749999999999996
40
0.749999999999996
40
1
40
1
40
1
40
1
41
1
10
49.7348010809343
20
-6.14951905283837
30
0
41
1
10
49.7660652522689
20
-6.16977265788665
30
0
41
1
10
49.7972085826781
20
-6.18742220891036
30
0
41
1
10
49.8417493592117
20
-6.20781196505442
30
0
41
1
10
49.8560660933537
20
-6.2135111822673
30
0
41
1
10
49.8832388491767
20
-6.22189012166382
30
0
41
1
10
49.8959725748426
20
-6.22451905285027
30
0
41
1
10
49.9065735175518
20
-6.22451905285226
30
0
0
SPLINE
5
110
100
AcDbEntity
8
1
62
256
6
ByLayer
370
13
48
1
60
0
100
AcDbSpline
70
4
71
3
72
12
73
8
40
0
40
0
40
0
40
0
40
0.5
40
0.5
40
0.75
40
0.75
40
1
40
1
40
1
40
1
41
1
10
70.8981405330225
20
-6.14951905283863
30
0
41
1
10
70.8412639940506
20
-6.17093588831722
30
0
41
1
10
70.7846170345752
20
-6.18833138418046
30
0
41
1
10
70.6999689923125
20
-6.20820044482167
30
0
41
1
10
70.6716542843629
20
-6.21378082843412
30
0
41
1
10
70.6159581908937
20
-6.22190500866068
30
0
41
1
10
70.588686348018
20
-6.22451905283779
30
0
41
1
10
70.5624882786307
20
-6.22451905283842
30
0
0
SPLINE
5
111
100
AcDbEntity
8
1
62
256
6
ByLayer
370
13
48
1
60
0
100
AcDbSpline
70
4
71
3
72
14
73
10
40
0
40
0
40
0
40
0
40
0.25
40
0.25
40
0.5
40
0.5
40
0.75
40
0.75
40
1
40
1
40
1
40
1
41
1
10
72.8185168375535
20
-6.14951905283712
30
0
41
1
10
72.8270057813617
20
-6.15979442069155
30
0
41
1
10
72.834230707932
20
-6.17032957360183
30
0
41
1
10
72.8431134132777
20
-6.1900808973715
30
0
41
1
10
72.8445342871803
20
-6.19923551448258
30
0
41
1
10
72.8400576877414
20
-6.21307503196431
30
0
41
1
10
72.8343600750683
20
-6.21777829315798
30
0
41
1
10
72.819308372658
20
-6.22343817793654
30
0
41
1
10
72.8099579537027
20
-6.22451905284498
30
0
41
1
10
72.7998803039525
20
-6.22451905284467
30
0
0
SPLINE
5
112
100
AcDbEntity
8
1
62
256
6
ByLayer
370
13
48
1
60
0
100
AcDbSpline
70
4
71
3
72
12
73
8
40
0
40
0
40
0
40
0
40
0.499999999999932
40
0.499999999999932
40
0.749999999999966
40
0.749999999999966
40
1
40
1
40
1
40
1
41
1
10
56.9572944570885
20
-6.14951905283885
30
0
41
1
10
57.0512019656983
20
-6.17198457725777
30
0
41
1
10
57.1452317341687
20
-6.18950577938986
30
0
41
1
10
57.2864911447951
20
-6.20903291065153
30
0
41
1
10
57.3335316092429
20
-6.21436310585605
30
0
41
1
10
57.4269396780467
20
-6.222063252846
30
0
41
1
10
57.4733925550144
20
-6.22451905283859
30
0
41
1
10
57.5193548475934
20
-6.22451905283839
30
0
0
SPLINE
5
113
100
AcDbEntity
8
1
62
256
6
ByLayer
370
13
48
1
60
0
100
AcDbSpline
70
4
71
3
72
12
73
8
40
0
40
0
40
0
40
0
40
0.249999999999998
40
0.249999999999998
40
0.499999999999996
40
0.499999999999996
40
1
40
1
40
1
40
1
41
1
10
75.8440361831011
20
-6.22451905283859
30
0
41
1
10
75.8376708461668
20
-6.22451905283987
30
0
41
1
10
75.8326105199551
20
-6.22293365359198
30
0
41
1
10
75.8269434714215
20
-6.21585919527584
30
0
41
1
10
75.8263763884973
20
-6.21028326197103
30
0
41
1
10
75.8318822195529
20
-6.1890398054243
30
0
41
1
10
75.8449676424603
20
-6.16917593158175
30
0
41
1
10
75.861216269975
20
-6.14951905283817
30
0
0
SPLINE
5
114
100
AcDbEntity
8
1
62
256
6
ByLayer
370
13
48
1
60
0
100
AcDbSpline
70
4
71
3
72
14
73
10
40
0
40
0
40
0
40
0
40
0.25
40
0.25
40
0.5
40
0.5
40
0.75
40
0.75
40
1
40
1
40
1
40
1
41
1
10
72.2695260501215
20
-6.1495190528353
30
0
41
1
10
72.260371299955
20
-6.16010779644458
30
0
41
1
10
72.2528445582092
20
-6.17115850237502
30
0
41
1
10
72.2456382372264
20
-6.19203921473618
30
0
41
1
10
72.2465471588347
20
-6.20124671928232
30
0
41
1
10
72.2562170937299
20
-6.21445434950482
30
0
41
1
10
72.2646291093353
20
-6.21864329471535
30
0
41
1
10
72.2837255299815
20
-6.22360785107571
30
0
41
1
10
72.2944360275858
20
-6.22451905283893
30
0
41
1
10
72.3058133258748
20
-6.22451905283842
30
0
0
SPLINE
5
115
100
AcDbEntity
8
1
62
256
6
ByLayer
370
13
48
1
60
0
100
AcDbSpline
70
4
71
3
72
8
73
4
40
0
40
0
40
0
40
0
40
1
40
1
40
1
40
1
41
1
10
67.6461843658271
20
-5.50548094715651
30
0
41
1
10
67.3356409554615
20
-5.72918782689402
30
0
41
1
10
67.0179851862224
20
-5.94497691478324
30
0
41
1
10
66.6902265568699
20
-6.1495190528384
30
0
0
SPLINE
5
116
100
AcDbEntity
8
1
62
256
6
ByLayer
370
13
48
1
60
0
100
AcDbSpline
70
4
71
3
72
14
73
10
40
0
40
0
40
0
40
0
40
0.25
40
0.25
40
0.5
40
0.5
40
0.75
40
0.75
40
1
40
1
40
1
40
1
41
1
10
50.0396551907911
20
-6.22451905283839
30
0
41
1
10
50.0475379113569
20
-6.22451905283839
30
0
41
1
10
50.0542307065651
20
-6.22316628016978
30
0
41
1
10
50.0637244236256
20
-6.21655292586863
30
0
41
1
10
50.0662575347304
20
-6.21121788627477
30
0
41
1
10
50.0656560608343
20
-6.1971506689238
30
0
41
1
10
50.0625093356127
20
-6.18831096290074
30
0
41
1
10
50.0521724395086
20
-6.16952536114718
30
0
41
1
10
50.0450206518413
20
-6.15948294770433
30
0
41
1
10
50.0368832192738
20
-6.14951905283792
30
0
0
SPLINE
5
117
100
AcDbEntity
8
1
62
256
6
ByLayer
370
13
48
1
60
0
100
AcDbSpline
70
4
71
3
72
8
73
4
40
0
40
0
40
0
40
0
40
1
40
1
40
1
40
1
41
1
10
22.5
20
3.99757739137093
30
0
41
1
10
22.3999762382222
20
4.30220921720453
30
0
41
1
10
22.2912113180602
20
4.60246028600002
30
0
41
1
10
22.1750000000001
20
4.89897948556637
30
0
0
SPLINE
5
118
100
AcDbEntity
8
1
62
256
6
ByLayer
370
13
48
1
60
0
100
AcDbSpline
70
4
71
3
72
8
73
4
40
0
40
0
40
0
40
0
40
1
40
1
40
1
40
1
41
1
10
75.8440361830933
20
-6.22451905283842
30
0
41
1
10
75.8784864888612
20
-6.22451905283842
30
0
41
1
10
75.9124306666382
20
-6.22451905283842
30
0
41
1
10
75.9458648542079
20
-6.22451905283842
30
0
0
SPLINE
5
119
100
AcDbEntity
8
1
62
256
6
ByLayer
370
13
48
1
60
0
100
AcDbSpline
70
4
71
3
72
12
73
8
40
0
40
0
40
0
40
0
40
0.249999999999998
40
0.249999999999998
40
0.499999999999995
40
0.499999999999995
40
1
40
1
40
1
40
1
41
1
10
51.0153363366427
20
-6.22451905284331
30
0
41
1
10
51.0013997891611
20
-6.22451905284152
30
0
41
1
10
50.985436340198
20
-6.22183587214974
30
0
41
1
10
50.952468042958
20
-6.2135185435481
30
0
41
1
10
50.9352079892215
20
-6.2078104952727
30
0
41
1
10
50.8823790604806
20
-6.18744142281369
30
0
41
1
10
50.8466754966046
20
-6.17004463201204
30
0
41
1
10
50.8105550274471
20
-6.14951905283837
30
0
0
SPLINE
5
11A
100
AcDbEntity
8
1
62
256
6
ByLayer
370
13
48
1
60
0
100
AcDbSpline
70
4
71
3
72
8
73
4
40
0
40
0
40
0
40
0
40
1
40
1
40
1
40
1
41
1
10
72.7876597965411
20
-6.1495190528384
30
0
41
1
10
73.2184351140642
20
-5.94278772673488
30
0
41
1
10
73.643630443115
20
-5.72776303607134
30
0
41
1
10
74.063942808411
20
-5.50548094716174
30
0
0
SPLINE
5
11B
100
AcDbEntity
8
1
62
256
6
ByLayer
370
13
48
1
60
0
100
AcDbSpline
70
4
71
3
72
8
73
4
40
0
40
0
40
0
40
0
40
1
40
1
40
1
40
1
41
1
10
48.4114169347553
20
-6.22451905283836
30
0
41
1
10
48.4360998516504
20
-6.22451905283836
30
0
41
1
10
48.4612684140203
20
-6.22451905283836
30
0
41
1
10
48.4869200192453
20
-6.22451905283836
30
0
0
SPLINE
5
11C
100
AcDbEntity
8
1
62
256
6
ByLayer
370
13
48
1
60
0
100
AcDbSpline
70
4
71
3
72
12
73
8
40
0
40
0
40
0
40
0
40
0.249999999999932
40
0.249999999999932
40
0.499999999999865
40
0.499999999999865
40
1
40
1
40
1
40
1
41
1
10
73.0983242975721
20
-6.22451905284973
30
0
41
1
10
73.0857762410922
20
-6.22451905284888
30
0
41
1
10
73.0707931080437
20
-6.22167810821392
30
0
41
1
10
73.0393194020907
20
-6.21302277123783
30
0
41
1
10
73.0226226313018
20
-6.20714075097905
30
0
41
1
10
72.9713836324219
20
-6.18655965372164
30
0
41
1
10
72.9364053166936
20
-6.16937075195301
30
0
41
1
10
72.900854346202
20
-6.14951905283843
30
0
0
SPLINE
5
11D
100
AcDbEntity
8
1
62
256
6
ByLayer
370
13
48
1
60
0
100
AcDbSpline
70
4
71
3
72
8
73
4
40
0
40
0
40
0
40
0
40
1
40
1
40
1
40
1
41
1
10
77.0888030966023
20
-5.50548094716174
30
0
41
1
10
76.9071326754
20
-5.72025952446069
30
0
41
1
10
76.7253118135409
20
-5.93494273968739
30
0
41
1
10
76.5433229876717
20
-6.14951905283843
30
0
0
SPLINE
5
11E
100
AcDbEntity
8
1
62
256
6
ByLayer
370
13
48
1
60
0
100
AcDbSpline
70
4
71
3
72
14
73
10
40
0
40
0
40
0
40
0
40
0.124999999999999
40
0.124999999999999
40
0.249999999999998
40
0.249999999999998
40
0.499999999999995
40
0.499999999999995
40
1
40
1
40
1
40
1
41
1
10
66.7011610786076
20
-5.50548094716174
30
0
41
1
10
66.3525814008173
20
-5.56534122705597
30
0
41
1
10
66.0026060537656
20
-5.61813671378914
30
0
41
1
10
65.2997578248335
20
-5.70906054167725
30
0
41
1
10
64.9478649579352
20
-5.74704590401132
30
0
41
1
10
63.8938835340752
20
-5.83804411077449
30
0
41
1
10
63.1922048981284
20
-5.86824072532062
30
0
41
1
10
61.0900933952809
20
-5.8675031620736
30
0
41
1
10
59.6925982404804
20
-5.74482600443736
30
0
41
1
10
58.2988389213924
20
-5.50548094716171
30
0
0
SPLINE
5
11F
100
AcDbEntity
8
1
62
256
6
ByLayer
370
13
48
1
60
0
100
AcDbSpline
70
4
71
3
72
14
73
10
40
0
40
0
40
0
40
0
40
0.25
40
0.25
40
0.5
40
0.5
40
0.75
40
0.75
40
1
40
1
40
1
40
1
41
1
10
74.9631167807259
20
-6.14951905283843
30
0
41
1
10
74.9549265507488
20
-6.15954759559412
30
0
41
1
10
74.9479018233898
20
-6.16939780313743
30
0
41
1
10
74.9374550303408
20
-6.18836834668767
30
0
41
1
10
74.9343291030742
20
-6.19719446496293
30
0
41
1
10
74.9337529416673
20
-6.21127830482726
30
0
41
1
10
74.93631982143
20
-6.2165807790343
30
0
41
1
10
74.945712426012
20
-6.22312963023708
30
0
41
1
10
74.9525148066017
20
-6.22451905284032
30
0
41
1
10
74.960344809219
20
-6.22451905283904
30
0
0
SPLINE
5
120
100
AcDbEntity
8
1
62
256
6
ByLayer
370
13
48
1
60
0
100
AcDbSpline
70
4
71
3
72
8
73
4
40
0
40
0
40
0
40
0
40
1
40
1
40
1
40
1
41
1
10
68.0427055429115
20
-6.14951905283846
30
0
41
1
10
68.8072549997929
20
-5.96661563278917
30
0
41
1
10
69.5591309061472
20
-5.75039556184854
30
0
41
1
10
70.3000914971774
20
-5.50548094716174
30
0
0
SPLINE
5
121
100
AcDbEntity
8
1
62
256
6
ByLayer
370
13
48
1
60
0
100
AcDbSpline
70
4
71
3
72
8
73
4
40
0
40
0
40
0
40
0
40
1
40
1
40
1
40
1
41
1
10
70.2363341506428
20
-6.22451905283842
30
0
41
1
10
70.3459077453341
20
-6.22451905283842
30
0
41
1
10
70.454637643856
20
-6.22451905283842
30
0
41
1
10
70.5624882786222
20
-6.22451905283842
30
0
0
SPLINE
5
122
100
AcDbEntity
8
1
62
256
6
ByLayer
370
13
48
1
60
0
100
AcDbSpline
70
4
71
3
72
18
73
14
40
0
40
0
40
0
40
0
40
0.250000000000003
40
0.250000000000003
40
0.500000000000006
40
0.500000000000006
40
0.625000000000004
40
0.625000000000004
40
0.750000000000003
40
0.750000000000003
40
0.875000000000001
40
0.875000000000001
40
1
40
1
40
1
40
1
41
1
10
76.233467121891
20
-5.50548094716174
30
0
41
1
10
76.2624931303872
20
-5.48568237439275
30
0
41
1
10
76.2914250466357
20
-5.46789433168283
30
0
41
1
10
76.3460480249588
20
-5.43900016038739
30
0
41
1
10
76.3725526758731
20
-5.4273989913878
30
0
41
1
10
76.4047820756619
20
-5.42025114189718
30
0
41
1
10
76.4142202649947
20
-5.41965242190818
30
0
41
1
10
76.4277487817864
20
-5.42397696530472
30
0
41
1
10
76.4316326608038
20
-5.4291152660177
30
0
41
1
10
76.4313817717537
20
-5.44498024318204
30
0
41
1
10
76.4272882100455
20
-5.45574506140858
30
0
41
1
10
76.4136060991696
20
-5.47945085837881
30
0
41
1
10
76.4041037857312
20
-5.49244539900451
30
0
41
1
10
76.3933382866526
20
-5.50548094716174
30
0
0
SPLINE
5
123
100
AcDbEntity
8
1
62
256
6
ByLayer
370
13
48
1
60
0
100
AcDbSpline
70
4
71
3
72
10
73
6
40
0
40
0
40
0
40
0
40
0.5
40
0.5
40
1
40
1
40
1
40
1
41
1
10
47.9505991912041
20
-6.22451905283839
30
0
41
1
10
47.9426937300102
20
-6.22451905283802
30
0
41
1
10
47.9256497111875
20
-6.21464616075278
30
0
41
1
10
47.8865455569644
20
-6.18692643675485
30
0
41
1
10
47.8644012993246
20
-6.16914927888783
30
0
41
1
10
47.8414924881749
20
-6.14951905283837
30
0
0
SPLINE
5
124
100
AcDbEntity
8
1
62
256
6
ByLayer
370
13
48
1
60
0
100
AcDbSpline
70
4
71
3
72
8
73
4
40
0
40
0
40
0
40
0
40
1
40
1
40
1
40
1
41
1
10
77.4758384480137
20
-6.22451905283842
30
0
41
1
10
77.4796648434637
20
-6.22451905283842
30
0
41
1
10
77.483037116928
20
-6.22451905283842
30
0
41
1
10
77.4859549616408
20
-6.22451905283842
30
0
0
SPLINE
5
125
100
AcDbEntity
8
1
62
256
6
ByLayer
370
13
48
1
60
0
100
AcDbSpline
70
4
71
3
72
8
73
4
40
0
40
0
40
0
40
0
40
1
40
1
40
1
40
1
41
1
10
76.9972245425928
20
-6.22451905283842
30
0
41
1
10
77.0150849384627
20
-6.22451905283842
30
0
41
1
10
77.0324775883371
20
-6.22451905283842
30
0
41
1
10
77.0494008087954
20
-6.22451905283842
30
0
0
SPLINE
5
126
100
AcDbEntity
8
1
62
256
6
ByLayer
370
13
48
1
60
0
100
AcDbSpline
70
4
71
3
72
14
73
10
40
0
40
0
40
0
40
0
40
0.249789100769793
40
0.249789100769793
40
0.499859400513195
40
0.499859400513195
40
0.749929700256598
40
0.749929700256598
40
1
40
1
40
1
40
1
41
1
10
78.3040376094116
20
-5.42048143814384
30
0
41
1
10
78.3039967242842
20
-5.4205218871441
30
0
41
1
10
78.301345263493
20
-5.42314467919084
30
0
41
1
10
78.291897231605
20
-5.43249636791595
30
0
41
1
10
78.2850536233584
20
-5.43927228229302
30
0
41
1
10
78.2690441922461
20
-5.45513737097011
30
0
41
1
10
78.259681937618
20
-5.46442137249932
30
0
41
1
10
78.2398820694048
20
-5.4840755840923
30
0
41
1
10
78.2293684419497
20
-5.49452089453038
30
0
41
1
10
78.2183486399722
20
-5.50548094716171
30
0
0
SPLINE
5
127
100
AcDbEntity
8
1
62
256
6
ByLayer
370
13
48
1
60
0
100
AcDbSpline
70
4
71
3
72
8
73
4
40
0
40
0
40
0
40
0
40
1
40
1
40
1
40
1
41
1
10
47.9505991912046
20
-6.22451905283839
30
0
41
1
10
47.9675224116629
20
-6.22451905283839
30
0
41
1
10
47.9849150615372
20
-6.22451905283839
30
0
41
1
10
48.0027754574072
20
-6.22451905283839
30
0
0
SPLINE
5
128
100
AcDbEntity
8
1
62
256
6
ByLayer
370
13
48
1
60
0
100
AcDbSpline
70
4
71
3
72
8
73
4
40
0
40
0
40
0
40
0
40
1
40
1
40
1
40
1
41
1
10
47.433938742054
20
-6.1495190528384
30
0
41
1
10
47.2155813619038
20
-5.93554479122255
30
0
41
1
10
46.9981849952611
20
-5.7208405374208
30
0
41
1
10
46.7816513600278
20
-5.50548094716169
30
0
0
SPLINE
5
129
100
AcDbEntity
8
1
62
256
6
ByLayer
370
13
48
1
60
0
100
AcDbSpline
70
4
71
3
72
8
73
4
40
0
40
0
40
0
40
0
40
1
40
1
40
1
40
1
41
1
10
77.4391774255214
20
-6.1495190528384
30
0
41
1
10
77.6714953471182
20
-5.9358190503747
30
0
41
1
10
77.9025568944126
20
-5.72110467129079
30
0
41
1
10
78.1324921561402
20
-5.50548094716174
30
0
0
SPLINE
5
12A
100
AcDbEntity
8
1
62
256
6
ByLayer
370
13
48
1
60
0
100
AcDbSpline
70
4
71
3
72
8
73
4
40
0
40
0
40
0
40
0
40
1
40
1
40
1
40
1
41
1
10
54.6999085028226
20
-5.50548094716174
30
0
41
1
10
55.4408690938528
20
-5.75039556184851
30
0
41
1
10
56.1927450002071
20
-5.96661563278917
30
0
41
1
10
56.9572944570885
20
-6.14951905283846
30
0
0
SPLINE
5
12B
100
AcDbEntity
8
1
62
256
6
ByLayer
370
13
48
1
60
0
100
AcDbSpline
70
4
71
3
72
14
73
10
40
0
40
0
40
0
40
0
40
0.25
40
0.25
40
0.5
40
0.5
40
0.75
40
0.75
40
1
40
1
40
1
40
1
41
1
10
73.8118116972064
20
-6.22451905283845
30
0
41
1
10
73.80229289442
20
-6.22451905283845
30
0
41
1
10
73.7936636900347
20
-6.22335085807512
30
0
41
1
10
73.7799019833183
20
-6.21744245288778
30
0
41
1
10
73.7748170159047
20
-6.2125143724638
30
0
41
1
10
73.7713700595703
20
-6.1985712715254
30
0
41
1
10
73.7731019925672
20
-6.18948902712722
30
0
41
1
10
73.782078595409
20
-6.17013434293111
30
0
41
1
10
73.7892440043757
20
-6.15969353241033
30
0
41
1
10
73.7976307059046
20
-6.14951905283729
30
0
0
SPLINE
5
12C
100
AcDbEntity
8
1
62
256
6
ByLayer
370
13
48
1
60
0
100
AcDbSpline
70
4
71
3
72
16
73
12
40
0
40
0
40
0
40
0
40
0.250000000000027
40
0.250000000000027
40
0.37500000000004
40
0.37500000000004
40
0.500000000000054
40
0.500000000000054
40
0.750000000000027
40
0.750000000000027
40
1
40
1
40
1
40
1
41
1
10
77.9580021309215
20
-5.50548094716174
30
0
41
1
10
77.979155234917
20
-5.48224437654022
30
0
41
1
10
77.9980248732639
20
-5.46003806206389
30
0
41
1
10
78.0150518002626
20
-5.43558140422343
30
0
41
1
10
78.0186666604676
20
-5.42908489504148
30
0
41
1
10
78.020403469389
20
-5.42119759311495
30
0
41
1
10
78.0185047311803
20
-5.41977669290367
30
0
41
1
10
78.0057225973844
20
-5.42292162317
30
0
41
1
10
77.9881501704381
20
-5.43449631574615
30
0
41
1
10
77.9478320224407
20
-5.46516570906473
30
0
41
1
10
77.9246590909849
20
-5.4844842917939
30
0
41
1
10
77.9007512172574
20
-5.50548094716177
30
0
0
SPLINE
5
12D
100
AcDbEntity
8
1
62
256
6
ByLayer
370
13
48
1
60
0
100
AcDbSpline
70
4
71
3
72
18
73
14
40
0
40
0
40
0
40
0
40
0.25
40
0.25
40
0.5
40
0.5
40
0.625
40
0.625
40
0.75
40
0.75
40
0.875
40
0.875
40
1
40
1
40
1
40
1
41
1
10
74.063942808411
20
-5.50548094716174
30
0
41
1
10
74.0996833002388
20
-5.48657959702766
30
0
41
1
10
74.135596436372
20
-5.46982895305385
30
0
41
1
10
74.205635541473
20
-5.44211048386219
30
0
41
1
10
74.2399924297668
20
-5.43091917494382
30
0
41
1
10
74.2879064170781
20
-5.4217599974013
30
0
41
1
10
74.3029905203825
20
-5.42004274379423
30
0
41
1
10
74.3302063427571
20
-5.42110276546467
30
0
41
1
10
74.3420976711172
20
-5.42394687298901
30
0
41
1
10
74.3568467180773
20
-5.43741813383886
30
0
41
1
10
74.3589254882609
20
-5.44849170886573
30
0
41
1
10
74.3503679572679
20
-5.47543740336965
30
0
41
1
10
74.3404927722239
20
-5.49065188699024
30
0
41
1
10
74.3282794462775
20
-5.50548094716177
30
0
0
SPLINE
5
12E
100
AcDbEntity
8
1
62
256
6
ByLayer
370
13
48
1
60
0
100
AcDbSpline
70
4
71
3
72
20
73
16
40
0
40
0
40
0
40
0
40
0.12500000000006
40
0.12500000000006
40
0.187500000000029
40
0.187500000000029
40
0.249999999999998
40
0.249999999999998
40
0.375000000000085
40
0.375000000000085
40
0.500000000000171
40
0.500000000000171
40
0.750000000000086
40
0.750000000000086
40
1
40
1
40
1
40
1
41
1
10
66.6902265568686
20
-6.14951905283687
30
0
41
1
10
66.6801297946613
20
-6.15582007177053
30
0
41
1
10
66.6703752456872
20
-6.16293582973441
30
0
41
1
10
66.6618092181053
20
-6.17556237437279
30
0
41
1
10
66.6602186583867
20
-6.18014883636272
30
0
41
1
10
66.6612672917362
20
-6.18865114641088
30
0
41
1
10
66.6637583879371
20
-6.19234913876053
30
0
41
1
10
66.674029557601
20
-6.20158034535288
30
0
41
1
10
66.6838557667671
20
-6.20544689262806
30
0
41
1
10
66.7042117760639
20
-6.21168146932337
30
0
41
1
10
66.7151057273859
20
-6.21395916598379
30
0
41
1
10
66.7483295227204
20
-6.21949271203871
30
0
41
1
10
66.7712936297271
20
-6.22148147418062
30
0
41
1
10
66.8174952726006
20
-6.22402860410321
30
0
41
1
10
66.8408565965816
20
-6.22451905283836
30
0
41
1
10
66.8643736319258
20
-6.22451905283842
30
0
0
SPLINE
5
12F
100
AcDbEntity
8
1
62
256
6
ByLayer
370
13
48
1
60
0
100
AcDbSpline
70
4
71
3
72
14
73
10
40
0
40
0
40
0
40
0
40
0.25
40
0.25
40
0.5
40
0.5
40
0.75
40
0.75
40
1
40
1
40
1
40
1
41
1
10
52.6941866741354
20
-6.22451905283995
30
0
41
1
10
52.7056511011375
20
-6.22451905284004
30
0
41
1
10
52.7164344500937
20
-6.2235943779684
30
0
41
1
10
52.7356214626663
20
-6.2185494282694
30
0
41
1
10
52.743865372345
20
-6.21440141088473
30
0
41
1
10
52.7534903317971
20
-6.20113506953976
30
0
41
1
10
52.7543122271575
20
-6.1917728739424
30
0
41
1
10
52.7470788713404
20
-6.17106161861852
30
0
41
1
10
52.7395811985181
20
-6.16005285431223
30
0
41
1
10
52.7304739498789
20
-6.14951905283519
30
0
0
SPLINE
5
130
100
AcDbEntity
8
1
62
256
6
ByLayer
370
13
48
1
60
0
100
AcDbSpline
70
4
71
3
72
18
73
14
40
0
40
0
40
0
40
0
40
0.499999999999717
40
0.499999999999717
40
0.624999999999713
40
0.624999999999713
40
0.749999999999709
40
0.749999999999709
40
0.812499999999785
40
0.812499999999785
40
0.87499999999986
40
0.87499999999986
40
1
40
1
40
1
40
1
41
1
10
58.1356263680711
20
-6.22451905283847
30
0
41
1
10
58.1827262626326
20
-6.22451905283847
30
0
41
1
10
58.2294759468649
20
-6.22316134410465
30
0
41
1
10
58.2846147383251
20
-6.21401261874252
30
0
41
1
10
58.295557886022
20
-6.21173689024349
30
0
41
1
10
58.3159645303042
20
-6.20551675641121
30
0
41
1
10
58.3259049330701
20
-6.20160785525192
30
0
41
1
10
58.3361889489067
20
-6.19241195803318
30
0
41
1
10
58.3387375057157
20
-6.18862956366473
30
0
41
1
10
58.339778236913
20
-6.18015666616688
30
0
41
1
10
58.3382095799425
20
-6.17559288357464
30
0
41
1
10
58.3296047274501
20
-6.16290071740488
30
0
41
1
10
58.3197999580972
20
-6.15577623304682
30
0
41
1
10
58.3097734431342
20
-6.14951905284096
30
0
0
SPLINE
5
131
100
AcDbEntity
8
1
62
256
6
ByLayer
370
13
48
1
60
0
100
AcDbSpline
70
4
71
3
72
14
73
10
40
0
40
0
40
0
40
0
40
0.499471561137677
40
0.499471561137677
40
0.749207341706613
40
0.749207341706613
40
0.998943122275549
40
0.998943122275549
40
1
40
1
40
1
40
1
41
1
10
46.7816513600278
20
-5.50548094716169
30
0
41
1
10
46.7594821579453
20
-5.48343194645224
30
0
41
1
10
46.7388998939795
20
-5.46300962865973
30
0
41
1
10
46.7146619809119
20
-5.43899055467813
30
0
41
1
10
46.7079188821867
20
-5.43231430970027
30
0
41
1
10
46.6984944914543
20
-5.42298611703481
30
0
41
1
10
46.6959272162729
20
-5.42044663816361
30
0
41
1
10
46.6959619183946
20
-5.42048097097674
30
0
41
1
10
46.6959626293499
20
-5.42048167435616
30
0
41
1
10
46.6959633403239
20
-5.42048237771665
30
0
0
SPLINE
5
132
100
AcDbEntity
8
1
62
256
6
ByLayer
370
13
48
1
60
0
100
AcDbSpline
70
4
71
3
72
10
73
6
40
0
40
0
40
0
40
0
40
0.5
40
0.5
40
1
40
1
40
1
40
1
41
1
10
77.3452670910177
20
-6.22451905283842
30
0
41
1
10
77.3497058412105
20
-6.22451905283842
30
0
41
1
10
77.3635621472398
20
-6.21477320878785
30
0
41
1
10
77.3976024676565
20
-6.18703108893425
30
0
41
1
10
77.4179568887613
20
-6.16903897935436
30
0
41
1
10
77.4391774255214
20
-6.1495190528384
30
0
0
SPLINE
5
133
100
AcDbEntity
8
1
62
256
6
ByLayer
370
13
48
1
60
0
100
AcDbSpline
70
4
71
3
72
8
73
4
40
0
40
0
40
0
40
0
40
1
40
1
40
1
40
1
41
1
10
72.4766277027997
20
-5.50548094716174
30
0
41
1
10
71.9575974916865
20
-5.73327068009019
30
0
41
1
10
71.4317769786125
20
-5.94857848635567
30
0
41
1
10
70.8981405330225
20
-6.1495190528384
30
0
0
SPLINE
5
134
100
AcDbEntity
8
1
62
256
6
ByLayer
370
13
48
1
60
0
100
AcDbSpline
70
4
71
3
72
12
73
8
40
0
40
0
40
0
40
0
40
0.500000000000134
40
0.500000000000134
40
0.750000000000067
40
0.750000000000067
40
1
40
1
40
1
40
1
41
1
10
52.0991456537979
20
-6.1495190528384
30
0
41
1
10
52.0635717280378
20
-6.16938357019896
30
0
41
1
10
52.0280521763235
20
-6.18681283274523
30
0
41
1
10
51.9770491478937
20
-6.20725906674087
30
0
41
1
10
51.9605721695431
20
-6.21305836136119
30
0
41
1
10
51.9291079934382
20
-6.22169949528808
30
0
41
1
10
51.9142048206535
20
-6.22451905283839
30
0
41
1
10
51.9016757024364
20
-6.22451905283839
30
0
0
SPLINE
5
135
100
AcDbEntity
8
1
62
256
6
ByLayer
370
13
48
1
60
0
100
AcDbSpline
70
4
71
3
72
10
73
6
40
0
40
0
40
0
40
0
40
0.5
40
0.5
40
1
40
1
40
1
40
1
41
1
10
77.1585075118252
20
-6.1495190528384
30
0
41
1
10
77.135546144911
20
-6.16919431315571
30
0
41
1
10
77.1132269745991
20
-6.187096417189
30
0
41
1
10
77.0743393267865
20
-6.21464514259745
30
0
41
1
10
77.057224361257
20
-6.2245190528385
30
0
41
1
10
77.0494008087953
20
-6.22451905283856
30
0
0
SPLINE
5
136
100
AcDbEntity
8
1
62
256
6
ByLayer
370
13
48
1
60
0
100
AcDbSpline
70
4
71
3
72
30
73
26
40
0
40
0
40
0
40
0
40
0.249995736943611
40
0.249995736943611
40
0.374993605415417
40
0.374993605415417
40
0.437492539651322
40
0.437492539651322
40
0.499991473887226
40
0.499991473887226
40
0.624989342359035
40
0.624989342359035
40
0.68748827659494
40
0.68748827659494
40
0.749987210830844
40
0.749987210830844
40
0.874985079302653
40
0.874985079302653
40
0.937484013538557
40
0.937484013538557
40
0.96873348065651
40
0.96873348065651
40
0.999982947774462
40
0.999982947774462
40
1
40
1
40
1
40
1
41
1
10
75.642135623731
20
13.1421356237309
30
0
41
1
10
75.063696767274
20
13.7205744801879
30
0
41
1
10
74.4771057405444
20
14.2361778187266
30
0
41
1
10
73.6070332281539
20
14.9234526216414
30
0
41
1
10
73.3187353863921
20
15.1380910858238
30
0
41
1
10
72.8933882506893
20
15.4383948935421
30
0
41
1
10
72.7528062796428
20
15.5348797586667
30
0
41
1
10
72.4750799496638
20
15.7205118910643
30
0
41
1
10
72.3379900807252
20
15.8096102066363
30
0
41
1
10
71.9371125302934
20
16.0636097935287
30
0
41
1
10
71.6824158553543
20
16.2160341529155
30
0
41
1
10
71.3298000965032
20
16.4181912440476
30
0
41
1
10
71.2172115195554
20
16.4811475895377
30
0
41
1
10
71.0044068470686
20
16.5977547217927
30
0
41
1
10
70.9038890641596
20
16.6515615133829
30
0
41
1
10
70.6285718059509
20
16.79640947918
30
0
41
1
10
70.4794435543368
20
16.871284803243
30
0
41
1
10
70.324851412588
20
16.9478495734664
30
0
41
1
10
70.2848658735218
20
16.9673879110815
30
0
41
1
10
70.2444825639714
20
16.9870578160844
30
0
41
1
10
70.2343213603581
20
16.9919894839286
30
0
41
1
10
70.2209495820332
20
16.9984747576966
30
0
41
1
10
70.2176866716353
20
17.0000538641212
30
0
41
1
10
70.2178000061239
20
16.9999989737007
30
0
41
1
10
70.2178009062158
20
16.9999985377712
30
0
41
1
10
70.2178018063595
20
16.9999981019485
30
0
0
SPLINE
5
137
100
AcDbEntity
8
1
62
256
6
ByLayer
370
13
48
1
60
0
100
AcDbSpline
70
4
71
3
72
8
73
4
40
0
40
0
40
0
40
0
40
1
40
1
40
1
40
1
41
1
10
74.9603448092089
20
-6.22451905283839
30
0
41
1
10
75.0052476692208
20
-6.22451905283839
30
0
41
1
10
75.0496101507577
20
-6.22451905283839
30
0
41
1
10
75.093426482453
20
-6.22451905283839
30
0
0
SPLINE
5
138
100
AcDbEntity
8
1
62
256
6
ByLayer
370
13
48
1
60
0
100
AcDbSpline
70
4
71
3
72
10
73
6
40
0
40
0
40
0
40
0
40
0.5
40
0.5
40
1
40
1
40
1
40
1
41
1
10
76.9972245425928
20
-6.22451905283842
30
0
41
1
10
76.9899110886653
20
-6.22451905283842
30
0
41
1
10
76.990817296328
20
-6.21618490842457
30
0
41
1
10
77.0079402037715
20
-6.18764607194734
30
0
41
1
10
77.0228136888906
20
-6.16892617678727
30
0
41
1
10
77.0398672916605
20
-6.14951905283834
30
0
0
SPLINE
5
139
100
AcDbEntity
8
1
62
256
6
ByLayer
370
13
48
1
60
0
100
AcDbSpline
70
4
71
3
72
8
73
4
40
0
40
0
40
0
40
0
40
1
40
1
40
1
40
1
41
1
10
57.5193548475882
20
-6.22451905283839
30
0
41
1
10
57.7232903966581
20
-6.22451905283839
30
0
41
1
10
57.928778253366
20
-6.22451905283839
30
0
41
1
10
58.1356263680711
20
-6.22451905283839
30
0
0
SPLINE
5
13A
100
AcDbEntity
8
1
62
256
6
ByLayer
370
13
48
1
60
0
100
AcDbSpline
70
4
71
3
72
8
73
4
40
0
40
0
40
0
40
0
40
1
40
1
40
1
40
1
41
1
10
77.3146086120991
20
-6.22451905283842
30
0
41
1
10
77.325286846403
20
-6.22451905283842
30
0
41
1
10
77.3355066556053
20
-6.22451905283842
30
0
41
1
10
77.3452670910177
20
-6.22451905283842
30
0
0
SPLINE
5
13B
100
AcDbEntity
8
1
62
256
6
ByLayer
370
13
48
1
60
0
100
AcDbSpline
70
4
71
3
72
12
73
8
40
0
40
0
40
0
40
0
40
0.500000000000001
40
0.500000000000001
40
0.750000000000001
40
0.750000000000001
40
1
40
1
40
1
40
1
41
1
10
76.0925524873104
20
-6.14951905283843
30
0
41
1
10
76.0648123927151
20
-6.16953407886996
30
0
41
1
10
76.0377604123786
20
-6.18701336902117
30
0
41
1
10
75.9990112413405
20
-6.20772773079887
30
0
41
1
10
75.9867849565889
20
-6.21348473231646
30
0
41
1
10
75.9641896212607
20
-6.22190773692799
30
0
41
1
10
75.9538760370641
20
-6.22451905284163
30
0
41
1
10
75.9458648542069
20
-6.22451905284237
30
0
0
SPLINE
5
13C
100
AcDbEntity
8
1
62
256
6
ByLayer
370
13
48
1
60
0
100
AcDbSpline
70
4
71
3
72
18
73
14
40
0
40
0
40
0
40
0
40
0.125
40
0.125
40
0.25
40
0.25
40
0.375000000000001
40
0.375000000000001
40
0.500000000000001
40
0.500000000000001
40
0.75
40
0.75
40
1
40
1
40
1
40
1
41
1
10
75.4890924126088
20
-5.50548094716174
30
0
41
1
10
75.5004256510169
20
-5.49160367836254
30
0
41
1
10
75.5099519088612
20
-5.47779595993163
30
0
41
1
10
75.5217680106388
20
-5.452394807053
30
0
41
1
10
75.523459008287
20
-5.44139230300945
30
0
41
1
10
75.5173697520848
20
-5.42646917260291
30
0
41
1
10
75.5098100264027
20
-5.42237134399869
30
0
41
1
10
75.4897400524052
20
-5.41967135142801
30
0
41
1
10
75.4777204558333
20
-5.4208818679275
30
0
41
1
10
75.4380357842198
20
-5.42919225548857
30
0
41
1
10
75.4077108869166
20
-5.44079443177588
30
0
41
1
10
75.346438866973
20
-5.46919610732709
30
0
41
1
10
75.3151949586074
20
-5.48615332523497
30
0
41
1
10
75.283444224157
20
-5.50548094716174
30
0
0
SPLINE
5
13D
100
AcDbEntity
8
1
62
256
6
ByLayer
370
13
48
1
60
0
100
AcDbSpline
70
4
71
3
72
8
73
4
40
0
40
0
40
0
40
0
40
1
40
1
40
1
40
1
41
1
10
50.9360571915891
20
-5.50548094716171
30
0
41
1
10
51.356369556885
20
-5.72776303607131
30
0
41
1
10
51.7815648859358
20
-5.94278772673485
30
0
41
1
10
52.2123402034589
20
-6.14951905283837
30
0
0
SPLINE
5
13E
100
AcDbEntity
8
1
62
256
6
ByLayer
370
13
48
1
60
0
100
AcDbSpline
70
4
71
3
72
8
73
4
40
0
40
0
40
0
40
0
40
1
40
1
40
1
40
1
41
1
10
75.4890924126088
20
-5.50548094716174
30
0
41
1
10
75.3137682880102
20
-5.72016098092448
30
0
41
1
10
75.138443123205
20
-5.93484037755667
30
0
41
1
10
74.9631167807259
20
-6.14951905283843
30
0
0
SPLINE
5
13F
100
AcDbEntity
8
1
62
256
6
ByLayer
370
13
48
1
60
0
100
AcDbSpline
70
4
71
3
72
8
73
4
40
0
40
0
40
0
40
0
40
1
40
1
40
1
40
1
41
1
10
46.8675078438598
20
-5.50548094716169
30
0
41
1
10
47.0974431055875
20
-5.72110467129073
30
0
41
1
10
47.3285046528819
20
-5.93581905037467
30
0
41
1
10
47.5608225744786
20
-6.14951905283837
30
0
0
SPLINE
5
140
100
AcDbEntity
8
1
62
256
6
ByLayer
370
13
48
1
60
0
100
AcDbSpline
70
4
71
3
72
26
73
22
40
0
40
0
40
0
40
0
40
0.0312499999999959
40
0.0312499999999959
40
0.0624999999999919
40
0.0624999999999919
40
0.0937499999999878
40
0.0937499999999878
40
0.124999999999984
40
0.124999999999984
40
0.187499999999975
40
0.187499999999975
40
0.249999999999966
40
0.249999999999966
40
0.374999999999947
40
0.374999999999947
40
0.499999999999928
40
0.499999999999928
40
0.749999999999964
40
0.749999999999964
40
1
40
1
40
1
40
1
41
1
10
67.6461843658325
20
-5.50548094716095
30
0
41
1
10
67.6551230627876
20
-5.49904175721855
30
0
41
1
10
67.6633833226649
20
-5.49202989512293
30
0
41
1
10
67.6749924372238
20
-5.4763645987947
30
0
41
1
10
67.67754817373
20
-5.46751063026082
30
0
41
1
10
67.6720302187183
20
-5.45304437238607
30
0
41
1
10
67.6649459289711
20
-5.44755056198375
30
0
41
1
10
67.6488372569608
20
-5.43921370835361
30
0
41
1
10
67.6395239033555
20
-5.43614697111855
30
0
41
1
10
67.6108435313916
20
-5.42874115519226
30
0
41
1
10
67.5903213610339
20
-5.4260050885255
30
0
41
1
10
67.5482013126965
20
-5.42217075392068
30
0
41
1
10
67.5267320533141
20
-5.42120208497519
30
0
41
1
10
67.4618731848294
20
-5.41987796404149
30
0
41
1
10
67.4178250498186
20
-5.42108587898824
30
0
41
1
10
67.3292026144639
20
-5.4255297048378
30
0
41
1
10
67.284726335183
20
-5.42882030393503
30
0
41
1
10
67.1509387758271
20
-5.44074420566992
30
0
41
1
10
67.0612427135294
20
-5.45139895672449
30
0
41
1
10
66.8812745786942
20
-5.47602553933257
30
0
41
1
10
66.7912428140375
20
-5.49001154880099
30
0
41
1
10
66.7011610786076
20
-5.50548094716171
30
0
0
SPLINE
5
141
100
AcDbEntity
8
1
62
256
6
ByLayer
370
13
48
1
60
0
100
AcDbSpline
70
4
71
3
72
8
73
4
40
0
40
0
40
0
40
0
40
1
40
1
40
1
40
1
41
1
10
77.9580021309215
20
-5.50548094716174
30
0
41
1
10
77.7622825210838
20
-5.72047788269353
30
0
41
1
10
77.5661148742797
20
-5.93516962008715
30
0
41
1
10
77.3694506012201
20
-6.1495190528384
30
0
0
SPLINE
5
142
100
AcDbEntity
8
1
62
256
6
ByLayer
370
13
48
1
60
0
100
AcDbSpline
70
4
71
3
72
8
73
4
40
0
40
0
40
0
40
0
40
1
40
1
40
1
40
1
41
1
10
22.175
20
-4.8989794855664
30
0
41
1
10
22.2918974679969
20
-4.60070953888345
30
0
41
1
10
22.4005916985642
20
-4.30033477452832
30
0
41
1
10
22.5
20
-3.99757739137095
30
0
0
SPLINE
5
143
100
AcDbEntity
8
1
62
256
6
ByLayer
370
13
48
1
60
0
100
AcDbSpline
70
4
71
3
72
10
73
6
40
0
40
0
40
0
40
0
40
0.5
40
0.5
40
1
40
1
40
1
40
1
41
1
10
77.566061257946
20
-6.1495190528384
30
0
41
1
10
77.5462299388359
20
-6.16895229507887
30
0
41
1
10
77.527526619634
20
-6.18707610895947
30
0
41
1
10
77.4979718418829
20
-6.21495478902273
30
0
41
1
10
77.4872491937345
20
-6.22451905283845
30
0
41
1
10
77.4859549616409
20
-6.22451905283842
30
0
0
SPLINE
5
144
100
AcDbEntity
8
1
62
256
6
ByLayer
370
13
48
1
60
0
100
AcDbSpline
70
4
71
3
72
8
73
4
40
0
40
0
40
0
40
0
40
1
40
1
40
1
40
1
41
1
10
70.1649082787028
20
-6.1495190528384
30
0
41
1
10
70.3761320870182
20
-5.93594189579053
30
0
41
1
10
70.5857512786121
20
-5.72118908054472
30
0
41
1
10
70.7940665882955
20
-5.50548094716174
30
0
0
SPLINE
5
145
100
AcDbEntity
8
1
62
256
6
ByLayer
370
13
48
1
60
0
100
AcDbSpline
70
4
71
3
72
14
73
10
40
0
40
0
40
0
40
0
40
0.25
40
0.25
40
0.5
40
0.5
40
0.75
40
0.75
40
1
40
1
40
1
40
1
41
1
10
51.2023692940953
20
-6.14951905283726
30
0
41
1
10
51.2107634509231
20
-6.15970257694161
30
0
41
1
10
51.2179202557784
20
-6.17010720454718
30
0
41
1
10
51.2269659245328
20
-6.18966030874643
30
0
41
1
10
51.2286378503619
20
-6.19873519230541
30
0
41
1
10
51.225105713532
20
-6.21262708488607
30
0
41
1
10
51.2200531088784
20
-6.21747003301576
30
0
41
1
10
51.2063146674044
20
-6.22335181012895
30
0
41
1
10
51.1976271351948
20
-6.22451905284248
30
0
41
1
10
51.1881883027845
20
-6.22451905284137
30
0
0
SPLINE
5
146
100
AcDbEntity
8
1
62
256
6
ByLayer
370
13
48
1
60
0
100
AcDbSpline
70
4
71
3
72
18
73
14
40
0
40
0
40
0
40
0
40
0.124999999999999
40
0.124999999999999
40
0.249999999999997
40
0.249999999999997
40
0.374999999999996
40
0.374999999999996
40
0.499999999999994
40
0.499999999999994
40
0.749999999999997
40
0.749999999999997
40
1
40
1
40
1
40
1
41
1
10
50.6717205537225
20
-5.50548094716171
30
0
41
1
10
50.6594564548743
20
-5.49059024003023
30
0
41
1
10
50.6494682107682
20
-5.47517521515303
30
0
41
1
10
50.6410335759152
20
-5.44810296736887
30
0
41
1
10
50.6432158314667
20
-5.4372338787623
30
0
41
1
10
50.6581895616592
20
-5.4238146712072
30
0
41
1
10
50.6703062117872
20
-5.42104025653595
30
0
41
1
10
50.6972374891485
20
-5.42007759748063
30
0
41
1
10
50.7122404142676
20
-5.42178071858609
30
0
41
1
10
50.7601433470748
20
-5.430959922971
30
0
41
1
10
50.7948933737576
20
-5.44229235539461
30
0
41
1
10
50.8649946795146
20
-5.47009078400666
30
0
41
1
10
50.9003821392227
20
-5.48661420467045
30
0
41
1
10
50.9360571915891
20
-5.50548094716174
30
0
0
SPLINE
5
147
100
AcDbEntity
8
1
62
256
6
ByLayer
370
13
48
1
60
0
100
AcDbSpline
70
4
71
3
72
10
73
6
40
0
40
0
40
0
40
0
40
0.5
40
0.5
40
1
40
1
40
1
40
1
41
1
10
76.5885830652448
20
-6.22451905283842
30
0
41
1
10
76.6003534731298
20
-6.22451905283842
30
0
41
1
10
76.6207528155832
20
-6.2145911700548
30
0
41
1
10
76.6655771216362
20
-6.1869333561589
30
0
41
1
10
76.6899211163719
20
-6.16931089005928
30
0
41
1
10
76.7149450507999
20
-6.1495190528384
30
0
0
SPLINE
5
148
100
AcDbEntity
8
1
62
256
6
ByLayer
370
13
48
1
60
0
100
AcDbSpline
70
4
71
3
72
20
73
16
40
0
40
0
40
0
40
0
40
0.249999999999948
40
0.249999999999948
40
0.499999999999896
40
0.499999999999896
40
0.624999999999929
40
0.624999999999929
40
0.749999999999963
40
0.749999999999963
40
0.812499999999976
40
0.812499999999976
40
0.874999999999989
40
0.874999999999989
40
1
40
1
40
1
40
1
41
1
10
52.5233722972004
20
-5.50548094716171
30
0
41
1
10
52.4816289898704
20
-5.48716082508668
30
0
41
1
10
52.4401172346049
20
-5.47119254905436
30
0
41
1
10
52.3576066892739
20
-5.44422576904176
30
0
41
1
10
52.3162104888113
20
-5.43307839445066
30
0
41
1
10
52.257496116477
20
-5.42309815939706
30
0
41
1
10
52.2383079709922
20
-5.42086266782945
30
0
41
1
10
52.2020650467794
20
-5.42018508169002
30
0
41
1
10
52.1850343539183
20
-5.42166562608966
30
0
41
1
10
52.1648517756554
20
-5.42960465805177
30
0
41
1
10
52.1590941672464
20
-5.43325122602266
30
0
41
1
10
52.1511952722848
20
-5.44317809787455
30
0
41
1
10
52.1491777698064
20
-5.44952057748156
30
0
41
1
10
52.1504923522123
20
-5.47133086422073
30
0
41
1
10
52.1611846077308
20
-5.489086013178
30
0
41
1
10
52.1752788117466
20
-5.50548094716186
30
0
0
SPLINE
5
149
100
AcDbEntity
8
1
62
256
6
ByLayer
370
13
48
1
60
0
100
AcDbSpline
70
4
71
3
72
8
73
4
40
0
40
0
40
0
40
0
40
1
40
1
40
1
40
1
41
1
10
52.730473949881
20
-6.1495190528384
30
0
41
1
10
52.5450619944153
20
-5.93506430280186
30
0
41
1
10
52.3600145985653
20
-5.72037290033131
30
0
41
1
10
52.1752788117475
20
-5.50548094716171
30
0
0
SPLINE
5
14A
100
AcDbEntity
8
1
62
256
6
ByLayer
370
13
48
1
60
0
100
AcDbSpline
70
4
71
3
72
8
73
4
40
0
40
0
40
0
40
0
40
1
40
1
40
1
40
1
41
1
10
72.3058133258658
20
-6.22451905283839
30
0
41
1
10
72.3828819944535
20
-6.22451905283839
30
0
41
1
10
72.4592725927385
20
-6.22451905283839
30
0
41
1
10
72.5349692750698
20
-6.22451905283839
30
0
0
SPLINE
5
14B
100
AcDbEntity
8
1
62
256
6
ByLayer
370
13
48
1
60
0
100
AcDbSpline
70
4
71
3
72
16
73
12
40
0
40
0
40
0
40
0
40
0.250000000000013
40
0.250000000000013
40
0.500000000000026
40
0.500000000000026
40
0.625000000000033
40
0.625000000000033
40
0.750000000000039
40
0.750000000000039
40
1
40
1
40
1
40
1
41
1
10
77.5163732339045
20
-5.50548094716174
30
0
41
1
10
77.5416254693459
20
-5.48487478279134
30
0
41
1
10
77.5663999640102
20
-5.46606481524609
30
0
41
1
10
77.6109462659441
20
-5.43601254035667
30
0
41
1
10
77.6314565375407
20
-5.42430439139255
30
0
41
1
10
77.6506579954543
20
-5.41971270372551
30
0
41
1
10
77.654973227407
20
-5.42048775482326
30
0
41
1
10
77.6576926443878
20
-5.42742942486311
30
0
41
1
10
77.6560846343125
20
-5.43364660407744
30
0
41
1
10
77.6433667460907
20
-5.45826786620944
30
0
41
1
10
77.6252869506593
20
-5.48153856752583
30
0
41
1
10
77.604353770867
20
-5.50548094716171
30
0
0
SPLINE
5
14C
100
AcDbEntity
8
1
62
256
6
ByLayer
370
13
48
1
60
0
100
AcDbSpline
70
4
71
3
72
8
73
4
40
0
40
0
40
0
40
0
40
1
40
1
40
1
40
1
41
1
10
47.6547329089823
20
-6.22451905283839
30
0
41
1
10
47.6644933443947
20
-6.22451905283839
30
0
41
1
10
47.674713153597
20
-6.22451905283839
30
0
41
1
10
47.685391387901
20
-6.22451905283839
30
0
0
SPLINE
5
14D
100
AcDbEntity
8
1
62
256
6
ByLayer
370
13
48
1
60
0
100
AcDbSpline
70
4
71
3
72
8
73
4
40
0
40
0
40
0
40
0
40
1
40
1
40
1
40
1
41
1
10
51.01533633665
20
-6.22451905283836
30
0
41
1
10
51.0723550944716
20
-6.22451905283836
30
0
41
1
10
51.1299754345301
20
-6.22451905283836
30
0
41
1
10
51.1881883027937
20
-6.22451905283836
30
0
0
SPLINE
5
14E
100
AcDbEntity
8
1
62
256
6
ByLayer
370
13
48
1
60
0
100
AcDbSpline
70
4
71
3
72
18
73
14
40
0
40
0
40
0
40
0
40
0.125000000000027
40
0.125000000000027
40
0.250000000000054
40
0.250000000000054
40
0.375000000000082
40
0.375000000000082
40
0.500000000000109
40
0.500000000000109
40
0.750000000000054
40
0.750000000000054
40
1
40
1
40
1
40
1
41
1
10
48.6066617133476
20
-5.50548094716171
30
0
41
1
10
48.5958345626024
20
-5.49237074726162
30
0
41
1
10
48.5863778447902
20
-5.47943419098846
30
0
41
1
10
48.5726619116746
20
-5.45564743647267
30
0
41
1
10
48.5685613731666
20
-5.44479886272026
30
0
41
1
10
48.5684199118575
20
-5.42895069405535
30
0
41
1
10
48.5723421208047
20
-5.42392014913582
30
0
41
1
10
48.5858457445994
20
-5.41965940434869
30
0
41
1
10
48.5953440582774
20
-5.4202669713321
30
0
41
1
10
48.6275897601394
20
-5.42745509465431
30
0
41
1
10
48.6543280985897
20
-5.43916556702686
30
0
41
1
10
48.709291253155
20
-5.46830746341672
30
0
41
1
10
48.7375910619216
20
-5.48573980177039
30
0
41
1
10
48.766532878109
20
-5.50548094716171
30
0
0
SPLINE
5
14F
100
AcDbEntity
8
1
62
256
6
ByLayer
370
13
48
1
60
0
100
AcDbSpline
70
4
71
3
72
12
73
8
40
0
40
0
40
0
40
0
40
0.500000000000103
40
0.500000000000103
40
0.750000000000052
40
0.750000000000052
40
1
40
1
40
1
40
1
41
1
10
77.4758384480138
20
-6.22451905283842
30
0
41
1
10
77.4741843982542
20
-6.22451905283867
30
0
41
1
10
77.4817425465186
20
-6.21522477661426
30
0
41
1
10
77.5008098764151
20
-6.19413392515787
30
0
41
1
10
77.5084735167425
20
-6.18586898018887
30
0
41
1
10
77.5248856075843
20
-6.16844695167492
30
0
41
1
10
77.5337126409241
20
-6.15920130660695
30
0
41
1
10
77.5430509373981
20
-6.14951905283837
30
0
0
SPLINE
5
150
100
AcDbEntity
8
1
62
256
6
ByLayer
370
13
48
1
60
0
100
AcDbSpline
70
4
71
3
72
8
73
4
40
0
40
0
40
0
40
0
40
1
40
1
40
1
40
1
41
1
10
76.9671971073872
20
-5.50548094716174
30
0
41
1
10
76.6780368972805
20
-5.72259260484341
30
0
41
1
10
76.3865842641328
20
-5.93736931964415
30
0
41
1
10
76.0925524873104
20
-6.1495190528384
30
0
0
SPLINE
5
151
100
AcDbEntity
8
1
62
256
6
ByLayer
370
13
48
1
60
0
100
AcDbSpline
70
4
71
3
72
12
73
8
40
0
40
0
40
0
40
0
40
0.24999999999994
40
0.24999999999994
40
0.499999999999879
40
0.499999999999879
40
1
40
1
40
1
40
1
41
1
10
72.5349692750831
20
-6.22451905283839
30
0
41
1
10
72.5535654999306
20
-6.22451905283708
30
0
41
1
10
72.5735160867437
20
-6.22188568384897
30
0
41
1
10
72.6149163986038
20
-6.21365295587819
30
0
41
1
10
72.63644913326
20
-6.20794120758293
30
0
41
1
10
72.7007421781613
20
-6.18784687118909
30
0
41
1
10
72.744009383388
20
-6.17046711422694
30
0
41
1
10
72.7876597965411
20
-6.14951905283846
30
0
0
SPLINE
5
152
100
AcDbEntity
8
1
62
256
6
ByLayer
370
13
48
1
60
0
100
AcDbSpline
70
4
71
3
72
8
73
4
40
0
40
0
40
0
40
0
40
1
40
1
40
1
40
1
41
1
10
22.5
20
-10
30
0
41
1
10
22.3937545677903
20
-10
30
0
41
1
10
22.2853412125956
20
-10
30
0
41
1
10
22.175
20
-10
30
0
0
SPLINE
5
153
100
AcDbEntity
8
1
62
256
6
ByLayer
370
13
48
1
60
0
100
AcDbSpline
70
4
71
3
72
16
73
12
40
0
40
0
40
0
40
0
40
0.25000000000004
40
0.25000000000004
40
0.500000000000079
40
0.500000000000079
40
0.625000000000076
40
0.625000000000076
40
0.750000000000072
40
0.750000000000072
40
1
40
1
40
1
40
1
41
1
10
47.0992487827426
20
-5.50548094716171
30
0
41
1
10
47.0752787660974
20
-5.48442971590646
30
0
41
1
10
47.052133971425
20
-5.46513740598664
30
0
41
1
10
47.0117988049467
20
-5.4344599423813
30
0
41
1
10
46.994238476613
20
-5.42289318655537
30
0
41
1
10
46.9814644333156
20
-5.41977859143142
30
0
41
1
10
46.97957790934
20
-5.42118378385527
30
0
41
1
10
46.9813713606118
20
-5.42918602576859
30
0
41
1
10
46.9850004058828
20
-5.43566835406517
30
0
41
1
10
47.0021165929131
20
-5.4602170702158
30
0
41
1
10
47.0209078919994
20
-5.48231372111727
30
0
41
1
10
47.0419978690785
20
-5.50548094716171
30
0
0
SPLINE
5
154
100
AcDbEntity
8
1
62
256
6
ByLayer
370
13
48
1
60
0
100
AcDbSpline
70
4
71
3
72
18
73
14
40
0
40
0
40
0
40
0
40
0.249999999999996
40
0.249999999999996
40
0.499999999999992
40
0.499999999999992
40
0.624999999999994
40
0.624999999999994
40
0.749999999999996
40
0.749999999999996
40
0.874999999999998
40
0.874999999999998
40
1
40
1
40
1
40
1
41
1
10
49.7165557758431
20
-5.50548094716171
30
0
41
1
10
49.6847508161592
20
-5.48612031671305
30
0
41
1
10
49.6528587300566
20
-5.46883021603367
30
0
41
1
10
49.5915467199858
20
-5.440491571069
30
0
41
1
10
49.5614750802418
20
-5.42905991367036
30
0
41
1
10
49.522198001118
20
-5.42087993467553
30
0
41
1
10
49.5099553578177
20
-5.41968245848631
30
0
41
1
10
49.4901856109804
20
-5.42240226964515
30
0
41
1
10
49.4825922805834
20
-5.42644226935093
30
0
41
1
10
49.4765017958908
20
-5.44160983208158
30
0
41
1
10
49.4783356369644
20
-5.45265420291787
30
0
41
1
10
49.4900416797627
20
-5.47774528768127
30
0
41
1
10
49.4996399117155
20
-5.49168395829903
30
0
41
1
10
49.510907587391
20
-5.50548094716169
30
0
0
SPLINE
5
155
100
AcDbEntity
8
1
62
256
6
ByLayer
370
13
48
1
60
0
100
AcDbSpline
70
4
71
3
72
8
73
4
40
0
40
0
40
0
40
0
40
1
40
1
40
1
40
1
41
1
10
50.0368832192741
20
-6.1495190528384
30
0
41
1
10
49.861556876795
20
-5.93484037755664
30
0
41
1
10
49.6862317119898
20
-5.72016098092445
30
0
41
1
10
49.5109075873912
20
-5.50548094716171
30
0
0
SPLINE
5
156
100
AcDbEntity
8
1
62
256
6
ByLayer
370
13
48
1
60
0
100
AcDbSpline
70
4
71
3
72
40
73
36
40
0
40
0
40
0
40
0
40
6.50396584666E-05
40
6.50396584666E-05
40
0.0625609746798125
40
0.0625609746798125
40
0.125056909701158
40
0.125056909701158
40
0.187552844722504
40
0.187552844722504
40
0.25004877974385
40
0.25004877974385
40
0.312544714765196
40
0.312544714765196
40
0.375040649786542
40
0.375040649786542
40
0.437536584807887
40
0.437536584807887
40
0.500032519829233
40
0.500032519829233
40
0.562528454850579
40
0.562528454850579
40
0.625024389871925
40
0.625024389871925
40
0.687520324893271
40
0.687520324893271
40
0.750016259914617
40
0.750016259914617
40
0.812512194935963
40
0.812512194935963
40
0.875008129957308
40
0.875008129957308
40
0.937504064978654
40
0.937504064978654
40
1
40
1
40
1
40
1
41
1
10
46.4999980259805
20
-5.22451905283839
30
0
41
1
10
46.4999970258804
20
-5.22451905283839
30
0
41
1
10
46.4999958663911
20
-5.22451905283839
30
0
41
1
10
46.500004750475
20
-5.22451905283839
30
0
41
1
10
46.6031374060708
20
-5.22451905283839
30
0
41
1
10
47.0117336210257
20
-5.22451905283839
30
0
41
1
10
47.3171823265631
20
-5.22451905283839
30
0
41
1
10
48.1186726330756
20
-5.22451905283839
30
0
41
1
10
48.6146944156235
20
-5.22451905283839
30
0
41
1
10
49.7782779906951
20
-5.22451905283839
30
0
41
1
10
50.4458110113221
20
-5.22451905283839
30
0
41
1
10
51.9267719907083
20
-5.22451905283839
30
0
41
1
10
52.7401633297888
20
-5.22451905283839
30
0
41
1
10
54.481589213584
20
-5.22451905283839
30
0
41
1
10
55.409580698112
20
-5.22451905283839
30
0
41
1
10
57.344549466205
20
-5.22451905283839
30
0
41
1
10
58.351478903854
20
-5.22451905283839
30
0
41
1
10
60.4056307916299
20
-5.22451905283839
30
0
41
1
10
61.4528024488035
20
-5.22451905283839
30
0
41
1
10
63.5471975511965
20
-5.22451905283839
30
0
41
1
10
64.5943692083701
20
-5.22451905283839
30
0
41
1
10
66.6485210961459
20
-5.22451905283839
30
0
41
1
10
67.6554505337949
20
-5.22451905283842
30
0
41
1
10
69.5904193018879
20
-5.22451905283842
30
0
41
1
10
70.5184107864161
20
-5.22451905283842
30
0
41
1
10
72.2598366702113
20
-5.22451905283842
30
0
41
1
10
73.0732280092917
20
-5.22451905283842
30
0
41
1
10
74.5541889886779
20
-5.22451905283842
30
0
41
1
10
75.2217220093049
20
-5.22451905283842
30
0
41
1
10
76.3853055843766
20
-5.22451905283842
30
0
41
1
10
76.8813273669244
20
-5.22451905283842
30
0
41
1
10
77.6828176734369
20
-5.22451905283842
30
0
41
1
10
77.9882663789743
20
-5.22451905283842
30
0
41
1
10
78.3968625939291
20
-5.22451905283842
30
0
41
1
10
78.5000080008
20
-5.22451905283842
30
0
41
1
10
78.5000015626563
20
-5.22451905283842
30
0
0
SPLINE
5
157
100
AcDbEntity
8
1
62
256
6
ByLayer
370
13
48
1
60
0
100
AcDbSpline
70
4
71
3
72
12
73
8
40
0
40
0
40
0
40
0
40
0.25
40
0.25
40
0.5
40
0.5
40
1
40
1
40
1
40
1
41
1
10
67.4806451524066
20
-6.22451905283839
30
0
41
1
10
67.5266282575018
20
-6.22451905283859
30
0
41
1
10
67.5730580838506
20
-6.22206237034126
30
0
41
1
10
67.6663697071926
20
-6.21437230674218
30
0
41
1
10
67.7132674377567
20
-6.20906215492539
30
0
41
1
10
67.8545215864378
20
-6.18954810405782
30
0
41
1
10
67.9487798595627
20
-6.17198892520636
30
0
41
1
10
68.0427055429115
20
-6.14951905283863
30
0
0
SPLINE
5
158
100
AcDbEntity
8
1
62
256
6
ByLayer
370
13
48
1
60
0
100
AcDbSpline
70
4
71
3
72
12
73
8
40
0
40
0
40
0
40
0
40
0.499999999999868
40
0.499999999999868
40
0.749999999999934
40
0.749999999999934
40
1
40
1
40
1
40
1
41
1
10
48.2850549492001
20
-6.14951905283837
30
0
41
1
10
48.3101957067878
20
-6.16940328739867
30
0
41
1
10
48.3345830755416
20
-6.18704448480707
30
0
41
1
10
48.3681880212262
20
-6.20776116235791
30
0
41
1
10
48.3787304368283
20
-6.21358346193509
30
0
41
1
10
48.3974093616814
20
-6.22196518553926
30
0
41
1
10
48.4056025341189
20
-6.22451905283907
30
0
41
1
10
48.4114169347555
20
-6.22451905283927
30
0
0
SPLINE
5
159
100
AcDbEntity
8
1
62
256
6
ByLayer
370
13
48
1
60
0
100
AcDbSpline
70
4
71
3
72
22
73
18
40
0
40
0
40
0
40
0
40
0.249999999999951
40
0.249999999999951
40
0.499999999999903
40
0.499999999999903
40
0.62499999999988
40
0.62499999999988
40
0.749999999999857
40
0.749999999999857
40
0.812499999999893
40
0.812499999999893
40
0.874999999999929
40
0.874999999999929
40
0.937499999999964
40
0.937499999999964
40
1
40
1
40
1
40
1
41
1
10
70.3000914971773
20
-5.5054809471616
30
0
41
1
10
70.3530757716507
20
-5.4879677037797
30
0
41
1
10
70.4057682381332
20
-5.47271915550797
30
0
41
1
10
70.5105488618171
20
-5.44677229465481
30
0
41
1
10
70.5626455984986
20
-5.43599276914475
30
0
41
1
10
70.6401366938381
20
-5.42509603984527
30
0
41
1
10
70.6659569446464
20
-5.42236290561323
30
0
41
1
10
70.7157305022664
20
-5.41993412781503
30
0
41
1
10
70.7399010296305
20
-5.42006417618293
30
0
41
1
10
70.7736990296014
20
-5.42502090859304
30
0
41
1
10
70.7842914595197
20
-5.42745673764776
30
0
41
1
10
70.8028936970666
20
-5.43515192646222
30
0
41
1
10
70.8109204452863
20
-5.44048656285085
30
0
41
1
10
70.8196429713159
20
-5.45555454249561
30
0
41
1
10
70.819701473744
20
-5.46533188740057
30
0
41
1
10
70.8111860947739
20
-5.48572129285591
30
0
41
1
10
70.8033149468832
20
-5.49590437705612
30
0
41
1
10
70.7940665882973
20
-5.50548094716234
30
0
0
SPLINE
5
15A
100
AcDbEntity
8
1
62
256
6
ByLayer
370
13
48
1
60
0
100
AcDbSpline
70
4
71
3
72
8
73
4
40
0
40
0
40
0
40
0
40
1
40
1
40
1
40
1
41
1
10
48.766532878109
20
-5.50548094716171
30
0
41
1
10
49.0862653095558
20
-5.72356969372279
30
0
41
1
10
49.4088958467753
20
-5.93839060727052
30
0
41
1
10
49.7348010809343
20
-6.14951905283837
30
0
0
SPLINE
5
15B
100
AcDbEntity
8
1
62
256
6
ByLayer
370
13
48
1
60
0
100
AcDbSpline
70
4
71
3
72
22
73
18
40
0
40
0
40
0
40
0
40
0.0624999999999647
40
0.0624999999999647
40
0.124999999999929
40
0.124999999999929
40
0.187499999999894
40
0.187499999999894
40
0.249999999999859
40
0.249999999999859
40
0.374999999999883
40
0.374999999999883
40
0.499999999999908
40
0.499999999999908
40
0.749999999999954
40
0.749999999999954
40
1
40
1
40
1
40
1
41
1
10
54.2059334117016
20
-5.50548094716271
30
0
41
1
10
54.1967579903023
20
-5.49597990268344
30
0
41
1
10
54.1889113961858
20
-5.48584492879328
30
0
41
1
10
54.1803605405622
20
-5.46558813292054
30
0
41
1
10
54.1803237486229
20
-5.45586026871126
30
0
41
1
10
54.1887460627397
20
-5.44082486478283
30
0
41
1
10
54.1965626754268
20
-5.43547314023849
30
0
41
1
10
54.214987096403
20
-5.42766520263027
30
0
41
1
10
54.2256200499652
20
-5.42516967669982
30
0
41
1
10
54.2589000716879
20
-5.4201476085104
30
0
41
1
10
54.2831034013378
20
-5.41992261721461
30
0
41
1
10
54.333020450869
20
-5.42226955920671
30
0
41
1
10
54.3585428976583
20
-5.42494122925228
30
0
41
1
10
54.4362027655475
20
-5.43577130340682
30
0
41
1
10
54.4888447573835
20
-5.4466335529626
30
0
41
1
10
54.5940562021462
20
-5.47266434953431
30
0
41
1
10
54.6468794169272
20
-5.48795289196346
30
0
41
1
10
54.6999085028226
20
-5.50548094716169
30
0
0
SPLINE
5
15C
100
AcDbEntity
8
1
62
256
6
ByLayer
370
13
48
1
60
0
100
AcDbSpline
70
4
71
3
72
8
73
4
40
0
40
0
40
0
40
0
40
1
40
1
40
1
40
1
41
1
10
58.3097734431301
20
-6.14951905283837
30
0
41
1
10
57.9820148137801
20
-5.9449769147848
30
0
41
1
10
57.6643590445435
20
-5.72918782689737
30
0
41
1
10
57.3538156341802
20
-5.50548094716171
30
0
0
SPLINE
5
15D
100
AcDbEntity
8
1
62
256
6
ByLayer
370
13
48
1
60
0
100
AcDbSpline
70
4
71
3
72
8
73
4
40
0
40
0
40
0
40
0
40
1
40
1
40
1
40
1
41
1
10
47.395646229133
20
-5.50548094716169
30
0
41
1
10
47.5835131057773
20
-5.7203541831569
30
0
41
1
10
47.7716646475227
20
-5.93504102927639
30
0
41
1
10
47.9601327083396
20
-6.14951905283837
30
0
0
SPLINE
5
15E
100
AcDbEntity
8
1
62
256
6
ByLayer
370
13
48
1
60
0
100
AcDbSpline
70
4
71
3
72
10
73
6
40
0
40
0
40
0
40
0
40
0.5
40
0.5
40
1
40
1
40
1
40
1
41
1
10
47.4569490626019
20
-6.1495190528384
30
0
41
1
10
47.4757530328507
20
-6.16901562936189
30
0
41
1
10
47.4929534759449
20
-6.18723259280495
30
0
41
1
10
47.5182680926956
20
-6.21523937949576
30
0
41
1
10
47.5258138839839
20
-6.22451905283864
30
0
41
1
10
47.5241615519863
20
-6.22451905283836
30
0
0
SPLINE
5
15F
100
AcDbEntity
8
1
62
256
6
ByLayer
370
13
48
1
60
0
100
AcDbSpline
70
4
71
3
72
8
73
4
40
0
40
0
40
0
40
0
40
1
40
1
40
1
40
1
41
1
10
73.797630705904
20
-6.1495190528384
30
0
41
1
10
73.9745631173365
20
-5.93487027825933
30
0
41
1
10
74.151443829944
20
-5.72018953731796
30
0
41
1
10
74.3282794462771
20
-5.50548094716174
30
0
0
SPLINE
5
160
100
AcDbEntity
8
1
62
256
6
ByLayer
370
13
48
1
60
0
100
AcDbSpline
70
4
71
3
72
14
73
10
40
0
40
0
40
0
40
0
40
0.25
40
0.25
40
0.5
40
0.5
40
0.75
40
0.75
40
1
40
1
40
1
40
1
41
1
10
49.138783730025
20
-6.14951905283817
30
0
41
1
10
49.1469032415127
20
-6.15934168263411
30
0
41
1
10
49.1541390584826
20
-6.16901439313065
30
0
41
1
10
49.165761211347
20
-6.18751108488627
30
0
41
1
10
49.1699620004494
20
-6.19613845009891
30
0
41
1
10
49.1736273581747
20
-6.21031478960313
30
0
41
1
10
49.173035061367
20
-6.21589754782116
30
0
41
1
10
49.167389490198
20
-6.22292204291836
30
0
41
1
10
49.1623322903437
20
-6.22451905283978
30
0
41
1
10
49.1559638168989
20
-6.22451905283853
30
0
0
SPLINE
5
161
100
AcDbEntity
8
1
62
256
6
ByLayer
370
13
48
1
60
0
100
AcDbSpline
70
4
71
3
72
16
73
12
40
0
40
0
40
0
40
0
40
0.250000000000001
40
0.250000000000001
40
0.374999999999999
40
0.374999999999999
40
0.499999999999997
40
0.499999999999997
40
0.749999999999998
40
0.749999999999998
40
1
40
1
40
1
40
1
41
1
10
47.395646229133
20
-5.50548094716169
30
0
41
1
10
47.3745984909422
20
-5.48140754105512
30
0
41
1
10
47.3564945901692
20
-5.45805652187784
30
0
41
1
10
47.3438925185942
20
-5.43357350845588
30
0
41
1
10
47.3422843699071
20
-5.42737953281488
30
0
41
1
10
47.3450950075024
20
-5.42042392460729
30
0
41
1
10
47.3494440215792
20
-5.4197122702285
30
0
41
1
10
47.3687572176232
20
-5.42440598192982
30
0
41
1
10
47.3890644152255
20
-5.4360021150348
30
0
41
1
10
47.4341383601673
20
-5.4664458323208
30
0
41
1
10
47.4584510791936
20
-5.48493724743099
30
0
41
1
10
47.4836267660955
20
-5.50548094716171
30
0
0
SPLINE
5
162
100
AcDbEntity
8
1
62
256
6
ByLayer
370
13
48
1
60
0
100
AcDbSpline
70
4
71
3
72
8
73
4
40
0
40
0
40
0
40
0
40
1
40
1
40
1
40
1
41
1
10
77.0398672916604
20
-6.1495190528384
30
0
41
1
10
77.2283353524773
20
-5.93504102927642
30
0
41
1
10
77.4164868942228
20
-5.72035418315693
30
0
41
1
10
77.604353770867
20
-5.50548094716174
30
0
0
SPLINE
5
163
100
AcDbEntity
8
1
62
256
6
ByLayer
370
13
48
1
60
0
100
AcDbSpline
70
4
71
3
72
8
73
4
40
0
40
0
40
0
40
0
40
1
40
1
40
1
40
1
41
1
10
48.4566770123284
20
-6.14951905283837
30
0
41
1
10
48.2746881864591
20
-5.93494273968733
30
0
41
1
10
48.0928673246
20
-5.72025952446066
30
0
41
1
10
47.9111969033977
20
-5.50548094716171
30
0
0
SPLINE
5
164
100
AcDbEntity
8
1
62
256
6
ByLayer
370
13
48
1
60
0
100
AcDbSpline
70
4
71
3
72
8
73
4
40
0
40
0
40
0
40
0
40
1
40
1
40
1
40
1
41
1
10
50.6717205537229
20
-5.50548094716171
30
0
41
1
10
50.848556170056
20
-5.72018953731793
30
0
41
1
10
51.0254368826635
20
-5.9348702782593
30
0
41
1
10
51.202369294096
20
-6.14951905283837
30
0
0
SPLINE
5
165
100
AcDbEntity
8
1
62
256
6
ByLayer
370
13
48
1
60
0
100
AcDbSpline
70
4
71
3
72
44
73
40
40
0
40
0
40
0
40
0
40
0.0625000000000177
40
0.0625000000000177
40
0.125000000000035
40
0.125000000000035
40
0.156250000000041
40
0.156250000000041
40
0.187500000000047
40
0.187500000000047
40
0.250000000000052
40
0.250000000000052
40
0.281250000000051
40
0.281250000000051
40
0.31250000000005
40
0.31250000000005
40
0.375000000000043
40
0.375000000000043
40
0.437500000000035
40
0.437500000000035
40
0.500000000000027
40
0.500000000000027
40
0.56250000000002
40
0.56250000000002
40
0.593750000000018
40
0.593750000000018
40
0.625000000000017
40
0.625000000000017
40
0.687500000000013
40
0.687500000000013
40
0.718750000000011
40
0.718750000000011
40
0.75000000000001
40
0.75000000000001
40
0.875000000000005
40
0.875000000000005
40
0.937500000000002
40
0.937500000000002
40
1
40
1
40
1
40
1
41
1
10
39.8979157616563
20
-4.90000000000001
30
0
41
1
10
39.6517617577866
20
-4.79268062442287
30
0
41
1
10
39.4001106055737
20
-4.70254974171669
30
0
41
1
10
38.8862716254037
20
-4.55623317203478
30
0
41
1
10
38.6240844469362
20
-4.5000418268618
30
0
41
1
10
38.2227590766906
20
-4.44215748871986
30
0
41
1
10
38.0870744876951
20
-4.4272486339562
30
0
41
1
10
37.8164386574852
20
-4.40681370965913
30
0
41
1
10
37.6814281553604
20
-4.40123081071164
30
0
41
1
10
37.2772972916913
20
-4.39808402663243
30
0
41
1
10
37.0090727826516
20
-4.41406235132914
30
0
41
1
10
36.6085341461977
20
-4.46506921707328
30
0
41
1
10
36.4753221555173
20
-4.48659307337996
30
0
41
1
10
36.2095155884556
20
-4.5388570953838
30
0
41
1
10
36.077072036198
20
-4.56961586730256
30
0
41
1
10
35.6871818822395
20
-4.67408496641451
30
0
41
1
10
35.4349459854692
20
-4.76033368002447
30
0
41
1
10
34.9455840100187
20
-4.96444637284077
30
0
41
1
10
34.7081851994633
20
-5.08248037350728
30
0
41
1
10
34.2501932465632
20
-5.34935638517752
30
0
41
1
10
34.0347765908441
20
-5.49512746379588
30
0
41
1
10
33.6295461715922
20
-5.80814470677328
30
0
41
1
10
33.4397456936577
20
-5.97540762362581
30
0
41
1
10
33.1738721420814
20
-6.24063845773776
30
0
41
1
10
33.0881141179031
20
-6.33178183634027
30
0
41
1
10
32.9250567170479
20
-6.51605483798397
30
0
41
1
10
32.8475579243316
20
-6.60934153044386
30
0
41
1
10
32.6264744756152
20
-6.89201132210459
30
0
41
1
10
32.4942791601918
20
-7.08419266125861
30
0
41
1
10
32.3166413047148
20
-7.37580630672477
30
0
41
1
10
32.2608779102497
20
-7.47357120056012
30
0
41
1
10
32.1559568653716
20
-7.66987385552741
30
0
41
1
10
32.1069619678586
20
-7.76814276730218
30
0
41
1
10
31.8801521799511
20
-8.25481519902544
30
0
41
1
10
31.7539546542056
20
-8.63336075286992
30
0
41
1
10
31.6234074672319
20
-9.17518448729138
30
0
41
1
10
31.5901553498627
20
-9.35002098922632
30
0
41
1
10
31.5403115713671
20
-9.68527379687015
30
0
41
1
10
31.5236304465606
20
-9.8461091428718
30
0
41
1
10
31.5133481811618
20
-10
30
0
0
SPLINE
5
166
100
AcDbEntity
8
1
62
256
6
ByLayer
370
13
48
1
60
0
100
AcDbSpline
70
4
71
3
72
8
73
4
40
0
40
0
40
0
40
0
40
1
40
1
40
1
40
1
41
1
10
49.0541351457921
20
-6.22451905283839
30
0
41
1
10
49.0875693333618
20
-6.22451905283839
30
0
41
1
10
49.1215135111388
20
-6.22451905283839
30
0
41
1
10
49.1559638169067
20
-6.22451905283839
30
0
0
SPLINE
5
167
100
AcDbEntity
8
1
62
256
6
ByLayer
370
13
48
1
60
0
100
AcDbSpline
70
4
71
3
72
8
73
4
40
0
40
0
40
0
40
0
40
1
40
1
40
1
40
1
41
1
10
48.6066617133476
20
-5.50548094716171
30
0
41
1
10
48.7839831007495
20
-5.72019291433713
30
0
41
1
10
48.9613550361597
20
-5.93487358091818
30
0
41
1
10
49.1387837300252
20
-6.14951905283837
30
0
0
SPLINE
5
168
100
AcDbEntity
8
1
62
256
6
ByLayer
370
13
48
1
60
0
100
AcDbSpline
70
4
71
3
72
12
73
8
40
0
40
0
40
0
40
0
40
0.499999999999996
40
0.499999999999996
40
0.749999999999998
40
0.749999999999998
40
1
40
1
40
1
40
1
41
1
10
47.9601327083396
20
-6.14951905283831
30
0
41
1
10
47.9772223965798
20
-6.16896724231489
30
0
41
1
10
47.9921457827071
20
-6.18777851548006
30
0
41
1
10
48.0048930609915
20
-6.20904079635429
30
0
41
1
10
48.0074334010333
20
-6.21487554007703
30
0
41
1
10
48.0081806205008
20
-6.22258453882068
30
0
41
1
10
48.0063823840389
20
-6.2245190528391
30
0
41
1
10
48.0027754574051
20
-6.22451905283839
30
0
0
SPLINE
5
169
100
AcDbEntity
8
SK1
62
256
6
ByLayer
370
13
48
1
60
0
100
AcDbSpline
70
4
71
3
72
22
73
18
40
0
40
0
40
0
40
0
40
0.25
40
0.25
40
0.375
40
0.375
40
0.4375
40
0.4375
40
0.5
40
0.5
40
0.625
40
0.625
40
0.6875
40
0.6875
40
0.75
40
0.75
40
1
40
1
40
1
40
1
41
1
10
-135
20
4.89897948556651
30
0
41
1
10
-135.308127344318
20
4.11277660079719
30
0
41
1
10
-135.559321920221
20
3.31235436137862
30
0
41
1
10
-135.819801183258
20
2.08267112171296
30
0
41
1
10
-135.887188124047
20
1.66792156318206
30
0
41
1
10
-135.955181461269
20
1.03753349867728
30
0
41
1
10
-135.972270377261
20
0.826252817273996
30
0
41
1
10
-135.994773309195
20
0.40544379375703
30
0
41
1
10
-136.000253419686
20
0.19536572870183
30
0
41
1
10
-135.999466160542
20
-0.433894017707729
30
0
41
1
10
-135.975924469168
20
-0.852098607041569
30
0
41
1
10
-135.907324109467
20
-1.47752262314285
30
0
41
1
10
-135.87892145162
20
-1.68568416822802
30
0
41
1
10
-135.81138085049
20
-2.10140003561435
30
0
41
1
10
-135.772122830408
20
-2.30950050954283
30
0
41
1
10
-135.55146310814
20
-3.34194090802134
30
0
41
1
10
-135.300478627944
20
-4.13229269694696
30
0
41
1
10
-135
20
-4.8989794855662
30
0
0
SPLINE
5
16A
100
AcDbEntity
8
SK1
62
256
6
ByLayer
370
13
48
1
60
0
100
AcDbSpline
70
4
71
3
72
22
73
18
40
0
40
0
40
0
40
0
40
0.25
40
0.25
40
0.374999999999999
40
0.374999999999999
40
0.437499999999999
40
0.437499999999999
40
0.499999999999999
40
0.499999999999999
40
0.75
40
0.75
40
0.875
40
0.875
40
0.9375
40
0.9375
40
1
40
1
40
1
40
1
41
1
10
-135
20
-9.99999999999983
30
0
41
1
10
-135.340234596854
20
-9.99999999999983
30
0
41
1
10
-135.662749110054
20
-9.99999999999983
30
0
41
1
10
-136.107536123856
20
-9.99999999999983
30
0
41
1
10
-136.249245320866
20
-9.99999999999983
30
0
41
1
10
-136.449775690432
20
-9.99999999999983
30
0
41
1
10
-136.514608204711
20
-9.99999999999983
30
0
41
1
10
-136.639811236807
20
-9.99999999999983
30
0
41
1
10
-136.700245428153
20
-9.99999999999983
30
0
41
1
10
-136.988097312094
20
-9.99999999999983
30
0
41
1
10
-137.174131489142
20
-9.99999999999983
30
0
41
1
10
-137.366403138576
20
-9.99999999999983
30
0
41
1
10
-137.41600903879
20
-9.99999999999983
30
0
41
1
10
-137.466208978875
20
-9.99999999999983
30
0
41
1
10
-137.478925881798
20
-9.99999999999983
30
0
41
1
10
-137.495806786589
20
-9.99999999999983
30
0
41
1
10
-137.5000110011
20
-9.99999999999983
30
0
41
1
10
-137.499995249525
20
-9.99999999999983
30
0
0
LINE
5
70
100
AcDbEntity
8
SK4
62
256
6
ByLayer
370
18
48
0.05
60
0
100
AcDbLine
10
-137.5
20
0
30
0
11
62.5
21
0
31
0
39
0
210
0
220
0
230
1
0
LINE
5
72
100
AcDbEntity
8
80
62
256
6
ByLayer
370
18
48
1
60
0
100
AcDbLine
10
0
20
0
30
0
11
-5
21
0
31
0
39
0
210
0
220
0
230
1
0
LINE
5
73
100
AcDbEntity
8
4
62
256
6
ByLayer
370
18
48
0.05
60
0
100
AcDbLine
10
0
20
0
30
0
11
62.5
21
0
31
0
39
0
210
0
220
0
230
1
0
LINE
5
75
100
AcDbEntity
8
1
62
256
6
ByLayer
370
13
48
1
60
0
100
AcDbLine
10
70.248812
20
17
30
0
11
47.325
21
17
31
0
39
0
210
0
220
0
230
1
0
LINE
5
77
100
AcDbEntity
8
1
62
256
6
ByLayer
370
13
48
1
60
0
100
AcDbLine
10
47.325
20
17
30
0
11
42.5
21
12.175
31
0
39
0
210
0
220
0
230
1
0
LINE
5
78
100
AcDbEntity
8
1
62
256
6
ByLayer
370
13
48
1
60
0
100
AcDbLine
10
79.5
20
-4.9
30
0
11
79.5
21
-0.228718
31
0
39
0
210
0
220
0
230
1
0
LINE
5
79
100
AcDbEntity
8
1
62
256
6
ByLayer
370
13
48
1
60
0
100
AcDbLine
10
78.5
20
-5.224519
30
0
11
78.5
21
-4.9
31
0
39
0
210
0
220
0
230
1
0
LINE
5
7A
100
AcDbEntity
8
1
62
256
6
ByLayer
370
13
48
1
60
0
100
AcDbLine
10
46.5
20
-4.9
30
0
11
46.5
21
-5.224519
31
0
39
0
210
0
220
0
230
1
0
LINE
5
7B
100
AcDbEntity
8
SK1
62
256
6
ByLayer
370
13
48
1
60
0
100
AcDbLine
10
-135
20
12.5
30
0
11
-137.5
21
10
31
0
39
0
210
0
220
0
230
1
0
LINE
5
7D
100
AcDbEntity
8
SK1
62
256
6
ByLayer
370
13
48
1
60
0
100
AcDbLine
10
0
20
12.5
30
0
11
-135
21
12.5
31
0
39
0
210
0
220
0
230
1
0
LINE
5
7E
100
AcDbEntity
8
1
62
256
6
ByLayer
370
13
48
1
60
0
100
AcDbLine
10
46.5
20
-5.224519
30
0
11
46.697356
21
-5.421875
31
0
39
0
210
0
220
0
230
1
0
LINE
5
7F
100
AcDbEntity
8
1
62
256
6
ByLayer
370
13
48
1
60
0
100
AcDbLine
10
78.302644
20
-5.421875
30
0
11
78.5
21
-5.224519
31
0
39
0
210
0
220
0
230
1
0
LINE
5
80
100
AcDbEntity
8
1
62
256
6
ByLayer
370
13
48
1
60
0
100
AcDbLine
10
42.5
20
12.175
30
0
11
22.5
21
12.175
31
0
39
0
210
0
220
0
230
1
0
LINE
5
81
100
AcDbEntity
8
1
62
256
6
ByLayer
370
13
48
1
60
0
100
AcDbLine
10
22.175
20
12.5
30
0
11
0
21
12.5
31
0
39
0
210
0
220
0
230
1
0
LINE
5
82
100
AcDbEntity
8
1
62
256
6
ByLayer
370
13
48
1
60
0
100
AcDbLine
10
22.5
20
12.175
30
0
11
22.175
21
12.5
31
0
39
0
210
0
220
0
230
1
0
LINE
5
83
100
AcDbEntity
8
81
62
256
6
ByLayer
370
18
48
1
60
0
100
AcDbLine
10
62.5
20
-5.9
30
0
11
62.5
21
-10.9
31
0
39
0
210
0
220
0
230
1
0
LINE
5
84
100
AcDbEntity
8
1
62
256
6
ByLayer
370
13
48
1
60
0
100
AcDbLine
10
73.811812
20
-6.224519
30
0
11
73.098324
21
-6.224519
31
0
39
0
210
0
220
0
230
1
0
LINE
5
85
100
AcDbEntity
8
1
62
256
6
ByLayer
370
13
48
1
60
0
100
AcDbLine
10
22.175
20
12.5
30
0
11
22.175
21
4.898979
31
0
39
0
210
0
220
0
230
1
0
LINE
5
86
100
AcDbEntity
8
1
62
256
6
ByLayer
370
13
48
1
60
0
100
AcDbLine
10
48.032873
20
-5.505481
30
0
11
47.911197
21
-5.505481
31
0
39
0
210
0
220
0
230
1
0
LINE
5
87
100
AcDbEntity
8
1
62
256
6
ByLayer
370
13
48
1
60
0
100
AcDbLine
10
70.236334
20
-6.224519
30
0
11
67.519189
21
-6.224519
31
0
39
0
210
0
220
0
230
1
0
LINE
5
88
100
AcDbEntity
8
1
62
256
6
ByLayer
370
13
48
1
60
0
100
AcDbLine
10
57.480811
20
-6.224519
30
0
11
54.763666
21
-6.224519
31
0
39
0
210
0
220
0
230
1
0
LINE
5
89
100
AcDbEntity
8
1
62
256
6
ByLayer
370
13
48
1
60
0
100
AcDbLine
10
48.766538
20
-5.505481
30
0
11
48.606662
21
-5.505481
31
0
39
0
210
0
220
0
230
1
0
LINE
5
8A
100
AcDbEntity
8
1
62
256
6
ByLayer
370
13
48
1
60
0
100
AcDbLine
10
48.285125
20
-6.149519
30
0
11
47.960133
21
-6.149519
31
0
39
0
210
0
220
0
230
1
0
LINE
5
8B
100
AcDbEntity
8
1
62
256
6
ByLayer
370
13
48
1
60
0
100
AcDbLine
10
73.797631
20
-6.149519
30
0
11
72.900854
21
-6.149519
31
0
39
0
210
0
220
0
230
1
0
LINE
5
8C
100
AcDbEntity
8
1
62
256
6
ByLayer
370
13
48
1
60
0
100
AcDbLine
10
77.088803
20
-5.505481
30
0
11
76.967127
21
-5.505481
31
0
39
0
210
0
220
0
230
1
0
LINE
5
8D
100
AcDbEntity
8
1
62
256
6
ByLayer
370
13
48
1
60
0
100
AcDbLine
10
77.369451
20
-6.149519
30
0
11
77.158429
21
-6.149519
31
0
39
0
210
0
220
0
230
1
0
LINE
5
8E
100
AcDbEntity
8
1
62
256
6
ByLayer
370
13
48
1
60
0
100
AcDbLine
10
75.489092
20
-5.505481
30
0
11
75.28341
21
-5.505481
31
0
39
0
210
0
220
0
230
1
0
LINE
5
8F
100
AcDbEntity
8
1
62
256
6
ByLayer
370
13
48
1
60
0
100
AcDbLine
10
77.475838
20
-6.224519
30
0
11
77.38377
21
-6.224519
31
0
39
0
210
0
220
0
230
1
0
LINE
5
90
100
AcDbEntity
8
1
62
256
6
ByLayer
370
13
48
1
60
0
100
AcDbLine
10
0
20
-10
30
0
11
0
21
-4.898979
31
0
39
0
210
0
220
0
230
1
0
LINE
5
91
100
AcDbEntity
8
1
62
256
6
ByLayer
370
13
48
1
60
0
100
AcDbLine
10
75.861216
20
-6.149519
30
0
11
75.265179
21
-6.149519
31
0
39
0
210
0
220
0
230
1
0
LINE
5
92
100
AcDbEntity
8
1
62
256
6
ByLayer
370
13
48
1
60
0
100
AcDbLine
10
22.175
20
-4.898979
30
0
11
0
21
-4.898979
31
0
39
0
210
0
220
0
230
1
0
LINE
5
93
100
AcDbEntity
8
1
62
256
6
ByLayer
370
13
48
1
60
0
100
AcDbLine
10
70.794067
20
-5.505481
30
0
11
70.300051
21
-5.505481
31
0
39
0
210
0
220
0
230
1
0
LINE
5
94
100
AcDbEntity
8
1
62
256
6
ByLayer
370
13
48
1
60
0
100
AcDbLine
10
54.699949
20
-5.505481
30
0
11
54.205933
21
-5.505481
31
0
39
0
210
0
220
0
230
1
0
LINE
5
95
100
AcDbEntity
8
1
62
256
6
ByLayer
370
13
48
1
60
0
100
AcDbLine
10
52.20012
20
-6.224519
30
0
11
51.901671
21
-6.224519
31
0
39
0
210
0
220
0
230
1
0
LINE
5
96
100
AcDbEntity
8
1
62
256
6
ByLayer
370
13
48
1
60
0
100
AcDbLine
10
49.015587
20
-6.224519
30
0
11
48.48692
21
-6.224519
31
0
39
0
210
0
220
0
230
1
0
LINE
5
97
100
AcDbEntity
8
1
62
256
6
ByLayer
370
13
48
1
60
0
100
AcDbLine
10
72.79988
20
-6.224519
30
0
11
72.588424
21
-6.224519
31
0
39
0
210
0
220
0
230
1
0
LINE
5
98
100
AcDbEntity
8
1
62
256
6
ByLayer
370
13
48
1
60
0
100
AcDbLine
10
76.997225
20
-6.224519
30
0
11
76.627092
21
-6.224519
31
0
39
0
210
0
220
0
230
1
0
LINE
5
99
100
AcDbEntity
8
1
62
256
6
ByLayer
370
13
48
1
60
0
100
AcDbLine
10
0
20
4.898979
30
0
11
22.175
21
4.898979
31
0
39
0
210
0
220
0
230
1
0
LINE
5
9A
100
AcDbEntity
8
1
62
256
6
ByLayer
370
13
48
1
60
0
100
AcDbLine
10
78.16072
20
-5.505481
30
0
11
78.132436
21
-5.505481
31
0
39
0
210
0
220
0
230
1
0
LINE
5
9B
100
AcDbEntity
8
1
62
256
6
ByLayer
370
13
48
1
60
0
100
AcDbLine
10
67.4
20
-4.9
30
0
11
47.325
21
-4.9
31
0
39
0
210
0
220
0
230
1
0
LINE
5
9C
100
AcDbEntity
8
1
62
256
6
ByLayer
370
13
48
1
60
0
100
AcDbLine
10
41.5
20
3.997577
30
0
11
41.5
21
-3.997577
31
0
39
0
210
0
220
0
230
1
0
LINE
5
9D
100
AcDbEntity
8
1
62
256
6
ByLayer
370
13
48
1
60
0
100
AcDbLine
10
66.690227
20
-6.149519
30
0
11
58.309773
21
-6.149519
31
0
39
0
210
0
220
0
230
1
0
LINE
5
9E
100
AcDbEntity
8
1
62
256
6
ByLayer
370
13
48
1
60
0
100
AcDbLine
10
50.936086
20
-5.505481
30
0
11
50.671721
21
-5.505481
31
0
39
0
210
0
220
0
230
1
0
LINE
5
9F
100
AcDbEntity
8
1
62
256
6
ByLayer
370
13
48
1
60
0
100
AcDbLine
10
50.976723
20
-6.224519
30
0
11
50.039655
21
-6.224519
31
0
39
0
210
0
220
0
230
1
0
LINE
5
A0
100
AcDbEntity
8
1
62
256
6
ByLayer
370
13
48
1
60
0
100
AcDbLine
10
76.393338
20
-5.505481
30
0
11
76.233462
21
-5.505481
31
0
39
0
210
0
220
0
230
1
0
LINE
5
A1
100
AcDbEntity
8
1
62
256
6
ByLayer
370
13
48
1
60
0
100
AcDbLine
10
77.604354
20
-5.505481
30
0
11
77.516274
21
-5.505481
31
0
39
0
210
0
220
0
230
1
0
LINE
5
A2
100
AcDbEntity
8
1
62
256
6
ByLayer
370
13
48
1
60
0
100
AcDbLine
10
47.841571
20
-6.149519
30
0
11
47.630549
21
-6.149519
31
0
39
0
210
0
220
0
230
1
0
LINE
5
A3
100
AcDbEntity
8
1
62
256
6
ByLayer
370
13
48
1
60
0
100
AcDbLine
10
46.867564
20
-5.505481
30
0
11
46.83928
21
-5.505481
31
0
39
0
210
0
220
0
230
1
0
LINE
5
A4
100
AcDbEntity
8
1
62
256
6
ByLayer
370
13
48
1
60
0
100
AcDbLine
10
72.305813
20
-6.224519
30
0
11
70.600828
21
-6.224519
31
0
39
0
210
0
220
0
230
1
0
LINE
5
A5
100
AcDbEntity
8
1
62
256
6
ByLayer
370
13
48
1
60
0
100
AcDbLine
10
54.399172
20
-6.224519
30
0
11
52.694187
21
-6.224519
31
0
39
0
210
0
220
0
230
1
0
LINE
5
A6
100
AcDbEntity
8
1
62
256
6
ByLayer
370
13
48
1
60
0
100
AcDbLine
10
0
20
-10
30
0
11
22.175
21
-10
31
0
39
0
210
0
220
0
230
1
0
LINE
5
A7
100
AcDbEntity
8
1
62
256
6
ByLayer
370
13
48
1
60
0
100
AcDbLine
10
0
20
12.5
30
0
11
0
21
4.898979
31
0
39
0
210
0
220
0
230
1
0
LINE
5
A8
100
AcDbEntity
8
1
62
256
6
ByLayer
370
13
48
1
60
0
100
AcDbLine
10
42.5
20
-4.9
30
0
11
42.5
21
12.175
31
0
39
0
210
0
220
0
230
1
0
LINE
5
A9
100
AcDbEntity
8
1
62
256
6
ByLayer
370
13
48
1
60
0
100
AcDbLine
10
66.864374
20
-6.224519
30
0
11
58.135626
21
-6.224519
31
0
39
0
210
0
220
0
230
1
0
LINE
5
AA
100
AcDbEntity
8
1
62
256
6
ByLayer
370
13
48
1
60
0
100
AcDbLine
10
49.71659
20
-5.505481
30
0
11
49.510908
21
-5.505481
31
0
39
0
210
0
220
0
230
1
0
LINE
5
AB
100
AcDbEntity
8
1
62
256
6
ByLayer
370
13
48
1
60
0
100
AcDbLine
10
49.734821
20
-6.149519
30
0
11
49.138784
21
-6.149519
31
0
39
0
210
0
220
0
230
1
0
LINE
5
AC
100
AcDbEntity
8
1
62
256
6
ByLayer
370
13
48
1
60
0
100
AcDbLine
10
67.4
20
-4.9
30
0
11
79.5
21
-4.9
31
0
39
0
210
0
220
0
230
1
0
LINE
5
AD
100
AcDbEntity
8
1
62
256
6
ByLayer
370
13
48
1
60
0
100
AcDbLine
10
67.646184
20
-5.505481
30
0
11
66.701055
21
-5.505481
31
0
39
0
210
0
220
0
230
1
0
LINE
5
AE
100
AcDbEntity
8
1
62
256
6
ByLayer
370
13
48
1
60
0
100
AcDbLine
10
58.298945
20
-5.505481
30
0
11
57.353816
21
-5.505481
31
0
39
0
210
0
220
0
230
1
0
LINE
5
AF
100
AcDbEntity
8
1
62
256
6
ByLayer
370
13
48
1
60
0
100
AcDbLine
10
48.907495
20
-6.149519
30
0
11
48.456677
21
-6.149519
31
0
39
0
210
0
220
0
230
1
0
LINE
5
B0
100
AcDbEntity
8
1
62
256
6
ByLayer
370
13
48
1
60
0
100
AcDbLine
10
77.958002
20
-5.505481
30
0
11
77.900678
21
-5.505481
31
0
39
0
210
0
220
0
230
1
0
LINE
5
B1
100
AcDbEntity
8
1
62
256
6
ByLayer
370
13
48
1
60
0
100
AcDbLine
10
72.269526
20
-6.149519
30
0
11
70.898129
21
-6.149519
31
0
39
0
210
0
220
0
230
1
0
LINE
5
B2
100
AcDbEntity
8
1
62
256
6
ByLayer
370
13
48
1
60
0
100
AcDbLine
10
54.101871
20
-6.149519
30
0
11
52.730474
21
-6.149519
31
0
39
0
210
0
220
0
230
1
0
LINE
5
B3
100
AcDbEntity
8
1
62
256
6
ByLayer
370
13
48
1
60
0
100
AcDbLine
10
48.372908
20
-6.224519
30
0
11
48.002775
21
-6.224519
31
0
39
0
210
0
220
0
230
1
0
LINE
5
B4
100
AcDbEntity
8
1
62
256
6
ByLayer
370
13
48
1
60
0
100
AcDbLine
10
77.543051
20
-6.149519
30
0
11
77.439167
21
-6.149519
31
0
39
0
210
0
220
0
230
1
0
LINE
5
B5
100
AcDbEntity
8
1
62
256
6
ByLayer
370
13
48
1
60
0
100
AcDbLine
10
47.560833
20
-6.149519
30
0
11
47.456949
21
-6.149519
31
0
39
0
210
0
220
0
230
1
0
LINE
5
B6
100
AcDbEntity
8
1
62
256
6
ByLayer
370
13
48
1
60
0
100
AcDbLine
10
47.912118
20
-6.224519
30
0
11
47.685391
21
-6.224519
31
0
39
0
210
0
220
0
230
1
0
LINE
5
B7
100
AcDbEntity
8
1
62
256
6
ByLayer
370
13
48
1
60
0
100
AcDbLine
10
51.901676
20
-6.224519
30
0
11
51.188188
21
-6.224519
31
0
39
0
210
0
220
0
230
1
0
LINE
5
B8
100
AcDbEntity
8
1
62
256
6
ByLayer
370
13
48
1
60
0
100
AcDbLine
10
74.328279
20
-5.505481
30
0
11
74.063914
21
-5.505481
31
0
39
0
210
0
220
0
230
1
0
LINE
5
B9
100
AcDbEntity
8
1
62
256
6
ByLayer
370
13
48
1
60
0
100
AcDbLine
10
0
20
-4.898979
30
0
11
0
21
4.898979
31
0
39
0
210
0
220
0
230
1
0
LINE
5
BA
100
AcDbEntity
8
1
62
256
6
ByLayer
370
13
48
1
60
0
100
AcDbLine
10
74.960345
20
-6.224519
30
0
11
74.023277
21
-6.224519
31
0
39
0
210
0
220
0
230
1
0
LINE
5
BB
100
AcDbEntity
8
1
62
256
6
ByLayer
370
13
48
1
60
0
100
AcDbLine
10
76.51308
20
-6.224519
30
0
11
75.984413
21
-6.224519
31
0
39
0
210
0
220
0
230
1
0
LINE
5
BC
100
AcDbEntity
8
1
62
256
6
ByLayer
370
13
48
1
60
0
100
AcDbLine
10
73.098329
20
-6.224519
30
0
11
72.79988
21
-6.224519
31
0
39
0
210
0
220
0
230
1
0
LINE
5
BD
100
AcDbEntity
8
1
62
256
6
ByLayer
370
13
48
1
60
0
100
AcDbLine
10
47.325
20
17
30
0
11
47.325
21
-4.9
31
0
39
0
210
0
220
0
230
1
0
LINE
5
BE
100
AcDbEntity
8
1
62
256
6
ByLayer
370
13
48
1
60
0
100
AcDbLine
10
75.844036
20
-6.224519
30
0
11
75.131996
21
-6.224519
31
0
39
0
210
0
220
0
230
1
0
LINE
5
BF
100
AcDbEntity
8
1
62
256
6
ByLayer
370
13
48
1
60
0
100
AcDbLine
10
41.5
20
-3.997577
30
0
11
22.5
21
-3.997577
31
0
39
0
210
0
220
0
230
1
0
LINE
5
C0
100
AcDbEntity
8
1
62
256
6
ByLayer
370
13
48
1
60
0
100
AcDbLine
10
22.5
20
3.997577
30
0
11
41.5
21
3.997577
31
0
39
0
210
0
220
0
230
1
0
LINE
5
C1
100
AcDbEntity
8
1
62
256
6
ByLayer
370
13
48
1
60
0
100
AcDbLine
10
52.411576
20
-6.224519
30
0
11
52.20012
21
-6.224519
31
0
39
0
210
0
220
0
230
1
0
LINE
5
C2
100
AcDbEntity
8
1
62
256
6
ByLayer
370
13
48
1
60
0
100
AcDbLine
10
47.099322
20
-5.505481
30
0
11
47.041998
21
-5.505481
31
0
39
0
210
0
220
0
230
1
0
LINE
5
C3
100
AcDbEntity
8
1
62
256
6
ByLayer
370
13
48
1
60
0
100
AcDbLine
10
62.5
20
0
30
0
11
75.642136
21
13.142136
31
0
39
0
210
0
220
0
230
1
0
LINE
5
C4
100
AcDbEntity
8
1
62
256
6
ByLayer
370
13
48
1
60
0
100
AcDbLine
10
47.483726
20
-5.505481
30
0
11
47.395646
21
-5.505481
31
0
39
0
210
0
220
0
230
1
0
LINE
5
C5
100
AcDbEntity
8
1
62
256
6
ByLayer
370
13
48
1
60
0
100
AcDbLine
10
49.868004
20
-6.224519
30
0
11
49.155964
21
-6.224519
31
0
39
0
210
0
220
0
230
1
0
LINE
5
C6
100
AcDbEntity
8
1
62
256
6
ByLayer
370
13
48
1
60
0
100
AcDbLine
10
76.543323
20
-6.149519
30
0
11
76.092505
21
-6.149519
31
0
39
0
210
0
220
0
230
1
0
LINE
5
C7
100
AcDbEntity
8
1
62
256
6
ByLayer
370
13
48
1
60
0
100
AcDbLine
10
72.824721
20
-5.505481
30
0
11
72.476584
21
-5.505481
31
0
39
0
210
0
220
0
230
1
0
LINE
5
C8
100
AcDbEntity
8
1
62
256
6
ByLayer
370
13
48
1
60
0
100
AcDbLine
10
52.523416
20
-5.505481
30
0
11
52.175279
21
-5.505481
31
0
39
0
210
0
220
0
230
1
0
LINE
5
C9
100
AcDbEntity
8
1
62
256
6
ByLayer
370
13
48
1
60
0
100
AcDbLine
10
77.039867
20
-6.149519
30
0
11
76.714875
21
-6.149519
31
0
39
0
210
0
220
0
230
1
0
LINE
5
CA
100
AcDbEntity
8
1
62
256
6
ByLayer
370
13
48
1
60
0
100
AcDbLine
10
77.314609
20
-6.224519
30
0
11
77.087882
21
-6.224519
31
0
39
0
210
0
220
0
230
1
0
LINE
5
CB
100
AcDbEntity
8
1
62
256
6
ByLayer
370
13
48
1
60
0
100
AcDbLine
10
22.5
20
-3.997577
30
0
11
22.5
21
-10
31
0
39
0
210
0
220
0
230
1
0
LINE
5
CC
100
AcDbEntity
8
1
62
256
6
ByLayer
370
13
48
1
60
0
100
AcDbLine
10
22.175
20
-10
30
0
11
22.175
21
-4.898979
31
0
39
0
210
0
220
0
230
1
0
LINE
5
CD
100
AcDbEntity
8
1
62
256
6
ByLayer
370
13
48
1
60
0
100
AcDbLine
10
47.61623
20
-6.224519
30
0
11
47.524162
21
-6.224519
31
0
39
0
210
0
220
0
230
1
0
LINE
5
CE
100
AcDbEntity
8
1
62
256
6
ByLayer
370
13
48
1
60
0
100
AcDbLine
10
52.099146
20
-6.149519
30
0
11
51.202369
21
-6.149519
31
0
39
0
210
0
220
0
230
1
0
LINE
5
CF
100
AcDbEntity
8
1
62
256
6
ByLayer
370
13
48
1
60
0
100
AcDbLine
10
67.4
20
-4.9
30
0
11
62.5
21
0
31
0
39
0
210
0
220
0
230
1
0
LINE
5
D0
100
AcDbEntity
8
1
62
256
6
ByLayer
370
13
48
1
60
0
100
AcDbLine
10
50.810542
20
-6.149519
30
0
11
50.036883
21
-6.149519
31
0
39
0
210
0
220
0
230
1
0
LINE
5
D1
100
AcDbEntity
8
1
62
256
6
ByLayer
370
13
48
1
60
0
100
AcDbLine
10
77.526263
20
10.964903
30
0
11
79.5
21
-0.228718
31
0
39
0
210
0
220
0
230
1
0
LINE
5
D2
100
AcDbEntity
8
1
62
256
6
ByLayer
370
13
48
1
60
0
100
AcDbLine
10
22.5
20
-10
30
0
11
31.513348
21
-10
31
0
39
0
210
0
220
0
230
1
0
LINE
5
D3
100
AcDbEntity
8
1
62
256
6
ByLayer
370
13
48
1
60
0
100
AcDbLine
10
42.5
20
-4.9
30
0
11
39.897916
21
-4.9
31
0
39
0
210
0
220
0
230
1
0
LINE
5
D4
100
AcDbEntity
8
1
62
256
6
ByLayer
370
13
48
1
60
0
100
AcDbLine
10
70.164908
20
-6.149519
30
0
11
68.042687
21
-6.149519
31
0
39
0
210
0
220
0
230
1
0
LINE
5
D5
100
AcDbEntity
8
1
62
256
6
ByLayer
370
13
48
1
60
0
100
AcDbLine
10
56.957313
20
-6.149519
30
0
11
54.835092
21
-6.149519
31
0
39
0
210
0
220
0
230
1
0
LINE
5
D6
100
AcDbEntity
8
1
62
256
6
ByLayer
370
13
48
1
60
0
100
AcDbLine
10
22.5
20
12.175
30
0
11
22.5
21
3.997577
31
0
39
0
210
0
220
0
230
1
0
LINE
5
D7
100
AcDbEntity
8
1
62
256
6
ByLayer
370
13
48
1
60
0
100
AcDbLine
10
74.963117
20
-6.149519
30
0
11
74.189458
21
-6.149519
31
0
39
0
210
0
220
0
230
1
0
LINE
5
D8
100
AcDbEntity
8
SK1
62
256
6
ByLayer
370
13
48
1
60
0
100
AcDbLine
10
-135
20
12.5
30
0
11
-135
21
4.898979
31
0
39
0
210
0
220
0
230
1
0
LINE
5
D9
100
AcDbEntity
8
SK1
62
256
6
ByLayer
370
13
48
1
60
0
100
AcDbLine
10
0
20
-4.898979
30
0
11
0
21
4.898979
31
0
39
0
210
0
220
0
230
1
0
LINE
5
DA
100
AcDbEntity
8
SK1
62
256
6
ByLayer
370
13
48
1
60
0
100
AcDbLine
10
0
20
-4.898979
30
0
11
-135
21
-4.898979
31
0
39
0
210
0
220
0
230
1
0
LINE
5
DB
100
AcDbEntity
8
SK1
62
256
6
ByLayer
370
13
48
1
60
0
100
AcDbLine
10
-135
20
-10
30
0
11
0
21
-10
31
0
39
0
210
0
220
0
230
1
0
LINE
5
DC
100
AcDbEntity
8
SK1
62
256
6
ByLayer
370
13
48
1
60
0
100
AcDbLine
10
-137.5
20
10
30
0
11
-137.5
21
-10
31
0
39
0
210
0
220
0
230
1
0
LINE
5
DD
100
AcDbEntity
8
SK1
62
256
6
ByLayer
370
13
48
1
60
0
100
AcDbLine
10
-135
20
-4.898979
30
0
11
-135
21
-10
31
0
39
0
210
0
220
0
230
1
0
LINE
5
DE
100
AcDbEntity
8
SK1
62
256
6
ByLayer
370
13
48
1
60
0
100
AcDbLine
10
0
20
-10
30
0
11
0
21
-4.898979
31
0
39
0
210
0
220
0
230
1
0
LINE
5
DF
100
AcDbEntity
8
SK1
62
256
6
ByLayer
370
13
48
1
60
0
100
AcDbLine
10
0
20
12.5
30
0
11
0
21
4.898979
31
0
39
0
210
0
220
0
230
1
0
LINE
5
E0
100
AcDbEntity
8
SK1
62
256
6
ByLayer
370
13
48
1
60
0
100
AcDbLine
10
-135
20
4.898979
30
0
11
0
21
4.898979
31
0
39
0
210
0
220
0
230
1
0
MTEXT
5
16B
100
AcDbEntity
8
SK6
62
256
6
ByLayer
370
18
48
1
60
0
100
AcDbMText
10
-43
20
-92.95
30
0
210
0
220
0
230
1
1
\W0.7446;SL-25-32NF
40
4
41
0
44
1.084337
50
0
71
7
72
5
7
iso_b_vert
0
DIMENSION
5
17E
100
AcDbEntity
8
SK2
62
256
6
ByLayer
370
13
48
1
60
0
100
AcDbDimension
2
DimnDraft3D1
10
-147.603125
20
-12.5
30
0
11
-147.603125
21
0
31
0
70
32
71
5
72
1
41
1
210
0
220
0
230
1
3
Standard
100
AcDbAlignedDimension
13
-139.0875
23
12.5
33
0
14
-139.0875
24
-12.5
34
0
50
90
100
AcDbRotatedDimension
1001
ACAD
1000
DSTYLE
1002
{
1070
    74
1070
     0
1070
   279
1070
     0
1070
   172
1070
     1
1070
   173
1070
     1
1070
   340
1005
16C
1070
   271
1070
     2
1070
   272
1070
     2
1070
    77
1070
     1
1070
    73
1070
     0
1070
   171
1070
     3
1070
   274
1070
     4
1070
   177
1070
   150
1070
   176
1070
     9
1070
   178
1070
    43
1070
    78
1070
     8
1070
    48
1040
-0.005
1070
    41
1041
3.175
1070
   147
1041
2.25
1070
    42
1041
1.5875
1070
    44
1041
3.175
1070
   140
1041
4.5
1070
   343
1005
17F
1070
   344
1005
17F
1002
}
0
DIMENSION
5
193
100
AcDbEntity
8
SK2
62
256
6
ByLayer
370
13
48
1
60
0
100
AcDbDimension
2
DimnDraft3D2
10
62.5
20
-37
30
0
11
-37.5
21
-37
31
0
70
32
71
5
72
1
41
1
210
0
220
0
230
1
3
Standard
100
AcDbAlignedDimension
13
-137.5
23
-14.0875
33
0
14
62.5
24
-7.4875
34
0
50
0
100
AcDbRotatedDimension
1001
ACAD
1000
DSTYLE
1002
{
1070
   279
1070
     0
1070
   172
1070
     1
1070
   173
1070
     1
1070
   340
1005
16C
1070
   271
1070
     2
1070
   272
1070
     2
1070
    77
1070
     1
1070
    73
1070
     0
1070
   171
1070
     3
1070
   274
1070
     4
1070
   177
1070
   150
1070
   176
1070
     9
1070
   178
1070
    43
1070
    78
1070
     8
1070
    48
1040
-0.005
1070
    41
1041
3.175
1070
   147
1041
2.25
1070
    42
1041
1.5875
1070
    44
1041
3.175
1070
   140
1041
4.5
1070
   343
1005
17F
1070
   344
1005
17F
1002
}
0
DIMENSION
5
1A3
100
AcDbEntity
8
2
62
256
6
ByLayer
370
13
48
1
60
0
100
AcDbDimension
2
DimnDraft3D3
10
78.5
20
-25.796875
30
0
11
88.5
21
-25.796875
31
0
70
32
71
5
72
1
41
1
210
0
220
0
230
1
3
Standard
100
AcDbAlignedDimension
13
46.5
23
-7.4875
33
0
14
78.5
24
-7.4875
34
0
50
0
100
AcDbRotatedDimension
1001
ACAD
1000
DSTYLE
1002
{
1070
   279
1070
     0
1070
   172
1070
     1
1070
   173
1070
     1
1070
   340
1005
16C
1070
   271
1070
     1
1070
   272
1070
     2
1070
    77
1070
     1
1070
    73
1070
     0
1070
   171
1070
     3
1070
   274
1070
     4
1070
   177
1070
   150
1070
   176
1070
     9
1070
   178
1070
    43
1070
    78
1070
     8
1070
    48
1040
-0.005
1070
    41
1041
3.175
1070
   147
1041
2.25
1070
    42
1041
1.5875
1070
    44
1041
3.175
1070
   140
1041
4.5
1070
   343
1005
17F
1070
   344
1005
17F
1002
}
0
DIMENSION
5
1B1
100
AcDbEntity
8
2
62
256
6
ByLayer
370
13
48
1
60
0
100
AcDbDimension
2
DimnDraft3D4
10
0
20
23
30
0
11
31.25
21
23
31
0
70
32
71
5
72
1
41
1
210
0
220
0
230
1
3
Standard
100
AcDbAlignedDimension
13
62.5
23
-4.3125
33
0
14
0
24
1.5875
34
0
50
0
100
AcDbRotatedDimension
1001
ACAD
1000
DSTYLE
1002
{
1070
   279
1070
     0
1070
   172
1070
     1
1070
   173
1070
     1
1070
   340
1005
16C
1070
   271
1070
     1
1070
   272
1070
     2
1070
    77
1070
     1
1070
    73
1070
     0
1070
   171
1070
     3
1070
   274
1070
     4
1070
   177
1070
   150
1070
   176
1070
     9
1070
   178
1070
    43
1070
    78
1070
     8
1070
    48
1040
-0.005
1070
    41
1041
3.175
1070
   147
1041
2.25
1070
    42
1041
1.5875
1070
    44
1041
3.175
1070
   140
1041
4.5
1070
   343
1005
17F
1070
   344
1005
17F
1002
}
0
ENDSEC
0
SECTION
2
OBJECTS
0
DICTIONARY
5
21e
330
0
100
AcDbDictionary
280
0
281
1
3
ACAD_GROUP
350
21f
3
ACAD_GROUP
350
220
3
ACAD_MLINESTYLE
350
221
0
DICTIONARY
5
21f
330
0
100
AcDbDictionary
280
0
281
1
0
DICTIONARY
5
220
330
0
100
AcDbDictionary
280
0
281
1
3
14896573467964304_1_ASS2D_2D
350
1BA
0
DICTIONARY
5
221
330
0
100
AcDbDictionary
280
0
281
1
3
Standard
350
18
0
GROUP
5
1BA
330
220
100
AcDbGroup
300

70
0
71
1
340
6C
340
6E
340
70
340
72
340
73
340
75
340
77
340
78
340
79
340
7A
340
7B
340
7D
340
7E
340
7F
340
80
340
81
340
82
340
83
340
84
340
85
340
86
340
87
340
88
340
89
340
8A
340
8B
340
8C
340
8D
340
8E
340
8F
340
90
340
91
340
92
340
93
340
94
340
95
340
96
340
97
340
98
340
99
340
9A
340
9B
340
9C
340
9D
340
9E
340
9F
340
A0
340
A1
340
A2
340
A3
340
A4
340
A5
340
A6
340
A7
340
A8
340
A9
340
AA
340
AB
340
AC
340
AD
340
AE
340
AF
340
B0
340
B1
340
B2
340
B3
340
B4
340
B5
340
B6
340
B7
340
B8
340
B9
340
BA
340
BB
340
BC
340
BD
340
BE
340
BF
340
C0
340
C1
340
C2
340
C3
340
C4
340
C5
340
C6
340
C7
340
C8
340
C9
340
CA
340
CB
340
CC
340
CD
340
CE
340
CF
340
D0
340
D1
340
D2
340
D3
340
D4
340
D5
340
D6
340
D7
340
D8
340
D9
340
DA
340
DB
340
DC
340
DD
340
DE
340
DF
340
E0
340
E1
340
E2
340
E3
340
E4
340
E5
340
E6
340
E7
340
E8
340
E9
340
EA
340
EB
340
EC
340
ED
340
EE
340
EF
340
F0
340
F1
340
F2
340
F3
340
F4
340
F5
340
F6
340
F7
340
F8
340
F9
340
FA
340
FB
340
FC
340
FD
340
FE
340
FF
340
100
340
101
340
102
340
103
340
104
340
105
340
106
340
107
340
108
340
109
340
10A
340
10B
340
10C
340
10D
340
10E
340
10F
340
110
340
111
340
112
340
113
340
114
340
115
340
116
340
117
340
118
340
119
340
11A
340
11B
340
11C
340
11D
340
11E
340
11F
340
120
340
121
340
122
340
123
340
124
340
125
340
126
340
127
340
128
340
129
340
12A
340
12B
340
12C
340
12D
340
12E
340
12F
340
130
340
131
340
132
340
133
340
134
340
135
340
136
340
137
340
138
340
139
340
13A
340
13B
340
13C
340
13D
340
13E
340
13F
340
140
340
141
340
142
340
143
340
144
340
145
340
146
340
147
340
148
340
149
340
14A
340
14B
340
14C
340
14D
340
14E
340
14F
340
150
340
151
340
152
340
153
340
154
340
155
340
156
340
157
340
158
340
159
340
15A
340
15B
340
15C
340
15D
340
15E
340
15F
340
160
340
161
340
162
340
163
340
164
340
165
340
166
340
167
340
168
340
169
340
16A
340
16B
340
17E
340
193
340
1A3
340
1B1
0
MLINESTYLE
5
18
330
221
100
AcDbMlineStyle
2
Standard
70
0
3

62
256
51
90
52
90
71
2
49
-0.5
62
256
6
ByLayer
49
0.5
62
256
6
ByLayer
0
RASTERVARIABLES
5
20b
330

100
AcDbRasterVariables
90
0
70
1
71
1
72
1
0
ENDSEC
0
EOF
