0
SECTION
2
HEADER
9
$ACADVER
1
AC1015
9
$DWGCODEPAGE
3
ANSI_1252
9
$HANDSEED
5
138
9
$ANGBASE
50
0
9
$ANGDIR
70
0
9
$ATTMODE
70
1
9
$AUNITS
70
0
9
$AUPREC
70
0
9
$CECOLOR
62
256
9
$CELTSCALE
40
1
9
$CELTYPE
6
ByLayer
9
$CELWEIGHT
370
-1
9
$CLAYER
8
0
9
$CMLJUST
70
0
9
$CMLSCALE
40
1
9
$CMLSTYLE
2
Standard
9
$DIMSTYLE
2
Standard
9
$TEXTSIZE
40
0.2
9
$TEXTSTYLE
7
Standard
9
$LUNITS
70
2
9
$LUPREC
70
4
9
$EXTNAMES
290
1
9
$INSUNITS
70
4
9
$LTSCALE
40
1
9
$LWDISPLAY
290
0
9
$PDMODE
70
0
9
$PDSIZE
40
0
9
$PLINEGEN
70
0
0
ENDSEC
0
SECTION
2
CLASSES
0
CLASS
1
RASTERVARIABLES
2
AcDbRasterVariables
3
ISM
90
0
280
0
281
0
0
ENDSEC
0
SECTION
2
TABLES
0
TABLE
2
VPORT
5
12e
100
AcDbSymbolTable
0
VPORT
5
1
100
AcDbSymbolTableRecord
100
AcDbViewportTableRecord
2
*Active
70
0
10
0
20
0
11
1
21
1
12
-1
22
1
13
0
23
0
14
0.5
24
0.5
15
10
25
10
16
0
26
0
36
1
17
0
27
0
37
0
0
ENDTAB
0
TABLE
2
LTYPE
5
12f
100
AcDbSymbolTable
0
LTYPE
5
14
100
AcDbSymbolTableRecord
100
AcDbLinetypeTableRecord
70
0
2
ByBlock
3

72
65
73
0
40
0
0
LTYPE
5
15
100
AcDbSymbolTableRecord
100
AcDbLinetypeTableRecord
70
0
2
ByLayer
3

72
65
73
0
40
0
0
LTYPE
5
16
100
AcDbSymbolTableRecord
100
AcDbLinetypeTableRecord
70
0
2
CONTINUOUS
3
Solid line
72
65
73
0
40
0
0
LTYPE
5
3B
100
AcDbSymbolTableRecord
100
AcDbLinetypeTableRecord
70
0
2
DASHED
3
__ __ __ __ __ __ __ __ __
72
65
73
2
40
25.72
49
12.86
74
0
49
-12.86
74
0
0
LTYPE
5
3C
100
AcDbSymbolTableRecord
100
AcDbLinetypeTableRecord
70
0
2
HIDDEN
3
_ _ _ _ _ _ _ _ _ _ _ _ _ _ _
72
65
73
2
40
0.5
49
0.25
74
0
49
-0.25
74
0
0
LTYPE
5
3D
100
AcDbSymbolTableRecord
100
AcDbLinetypeTableRecord
70
0
2
PHANTOM
3
____ _ _ ____ _ _ _____ _ _ ____
72
65
73
6
40
50.5
49
18
74
0
49
-6.5
74
0
49
6.5
74
0
49
-6.5
74
0
49
6.5
74
0
49
-6.5
74
0
0
LTYPE
5
3E
100
AcDbSymbolTableRecord
100
AcDbLinetypeTableRecord
70
0
2
CENTER
3
____ _ ____ _ ____ _ ____
72
65
73
4
40
47.5
49
22
74
0
49
-8.5
74
0
49
8.5
74
0
49
-8.5
74
0
0
LTYPE
5
3F
100
AcDbSymbolTableRecord
100
AcDbLinetypeTableRecord
70
0
2
DOT
3
.........................
72
65
73
2
40
10
49
0
74
0
49
-10
74
0
0
LTYPE
5
40
100
AcDbSymbolTableRecord
100
AcDbLinetypeTableRecord
70
0
2
DASHDOT
3
_._._._._._._._._._._._._._._._.
72
65
73
4
40
70
49
31
74
0
49
-13
74
0
49
13
74
0
49
-13
74
0
0
ENDTAB
0
TABLE
2
LAYER
5
130
100
AcDbSymbolTable
0
LAYER
5
10
100
AcDbSymbolTableRecord
100
AcDbLayerTableRecord
2
0
70
0
62
7
6
CONTINUOUS
290
1
370
-3
390
0
0
LAYER
5
44
100
AcDbSymbolTableRecord
100
AcDbLayerTableRecord
2
81
70
0
62
-3
6
CONTINUOUS
290
1
370
-3
390
0
0
LAYER
5
48
100
AcDbSymbolTableRecord
100
AcDbLayerTableRecord
2
2
70
0
62
7
6
CONTINUOUS
290
1
370
-3
390
0
0
LAYER
5
4B
100
AcDbSymbolTableRecord
100
AcDbLayerTableRecord
2
80
70
0
62
-6
6
CONTINUOUS
290
1
370
-3
390
0
0
LAYER
5
4F
100
AcDbSymbolTableRecord
100
AcDbLayerTableRecord
2
1
70
0
62
4
6
CONTINUOUS
290
1
370
-3
390
0
0
LAYER
5
11b
100
AcDbSymbolTableRecord
100
AcDbLayerTableRecord
2
SK2
70
0
62
7
6
CONTINUOUS
290
1
370
-3
390
0
0
LAYER
5
11c
100
AcDbSymbolTableRecord
100
AcDbLayerTableRecord
2
SK1
70
0
62
4
6
CONTINUOUS
290
1
370
-3
390
0
0
LAYER
5
11d
100
AcDbSymbolTableRecord
100
AcDbLayerTableRecord
2
SK6
70
0
62
5
6
CONTINUOUS
290
1
370
-3
390
0
0
ENDTAB
0
TABLE
2
STYLE
5
131
100
AcDbSymbolTable
0
STYLE
5
11
100
AcDbSymbolTableRecord
100
AcDbTextStyleTableRecord
2
Standard
3
txt
70
0
71
0
40
0
41
1
42
0
50
0
0
STYLE
5
97
100
AcDbSymbolTableRecord
100
AcDbTextStyleTableRecord
2
DEFAULT
3
simplex.shx
70
0
71
0
40
0
41
1
42
0
50
0
0
STYLE
5
BA
100
AcDbSymbolTableRecord
100
AcDbTextStyleTableRecord
2
DWGDirectTextStyle
3
SIMPLEX
70
0
71
0
40
0
41
1
42
0
50
0
0
ENDTAB
0
TABLE
2
DIMSTYLE
5
132
100
AcDbSymbolTable
100
AcDbDimStyleTable
0
DIMSTYLE
105
27
100
AcDbSymbolTableRecord
100
AcDbDimStyleTableRecord
2
Standard
70
0
3
<>
41
0.18
42
0.0625
44
0.18
140
0.18
147
0.09
73
0
74
0
77
1
271
2
275
0
278
52
280
0
340
11
0
ENDTAB
0
TABLE
2
VIEW
5
133
100
AcDbSymbolTable
0
ENDTAB
0
TABLE
2
UCS
5
134
100
AcDbSymbolTable
0
ENDTAB
0
TABLE
2
APPID
5
135
100
AcDbSymbolTable
0
APPID
5
12
100
AcDbSymbolTableRecord
100
AcDbRegAppTableRecord
2
ACAD
70
0
0
ENDTAB
0
TABLE
2
BLOCK_RECORD
5
136
100
AcDbSymbolTable
0
BLOCK_RECORD
5
1F
100
AcDbSymbolTableRecord
100
AcDbBlockTableRecord
2
*Model_Space
340
0
70
0
0
BLOCK_RECORD
5
1B
100
AcDbSymbolTableRecord
100
AcDbBlockTableRecord
2
*Paper_Space
340
0
70
0
0
BLOCK_RECORD
5
23
100
AcDbSymbolTableRecord
100
AcDbBlockTableRecord
2
*Paper_Space0
340
0
70
0
0
BLOCK_RECORD
5
BC
100
AcDbSymbolTableRecord
100
AcDbBlockTableRecord
2
DimnDraft3D1
340
0
70
0
0
BLOCK_RECORD
5
CB
100
AcDbSymbolTableRecord
100
AcDbBlockTableRecord
2
_CLOSED
340
0
70
0
0
BLOCK_RECORD
5
D2
100
AcDbSymbolTableRecord
100
AcDbBlockTableRecord
2
DimnDraft3D2
340
0
70
0
0
BLOCK_RECORD
5
E0
100
AcDbSymbolTableRecord
100
AcDbBlockTableRecord
2
DimnDraft3D3
340
0
70
0
0
BLOCK_RECORD
5
EE
100
AcDbSymbolTableRecord
100
AcDbBlockTableRecord
2
DimnDraft3D4
340
0
70
0
0
ENDTAB
0
ENDSEC
0
SECTION
2
BLOCKS
0
BLOCK
5
20
100
AcDbEntity
8
0
100
AcDbBlockBegin
2
*Model_Space
70
0
10
0
20
0
30
0
3
*Model_Space
0
ENDBLK
5
21
100
AcDbEntity
8
0
100
AcDbBlockEnd
0
BLOCK
5
1C
100
AcDbEntity
8
0
100
AcDbBlockBegin
2
*Paper_Space
70
0
10
0
20
0
30
0
3
*Paper_Space
0
ENDBLK
5
1D
100
AcDbEntity
8
0
100
AcDbBlockEnd
0
BLOCK
5
24
100
AcDbEntity
8
0
100
AcDbBlockBegin
2
*Paper_Space0
70
0
10
0
20
0
30
0
3
*Paper_Space0
0
ENDBLK
5
25
100
AcDbEntity
8
0
100
AcDbBlockEnd
0
BLOCK
5
C8
100
AcDbEntity
8
0
100
AcDbBlockBegin
2
DimnDraft3D1
70
0
10
0
20
0
30
0
3
DimnDraft3D1
0
MTEXT
5
BD
100
AcDbEntity
8
2
62
256
6
ByLayer
370
-1
48
1
60
0
100
AcDbMText
10
0.585897
20
-0.76683
30
0
210
0
220
0
230
1
1
\W01.000;\fsimplex.shx,bigfont.shx;62%%d30' 
40
4.5
41
0
44
1.084337
50
292.005257277173
71
7
72
5
7
DEFAULT
0
LINE
5
BE
100
AcDbEntity
8
2
62
256
6
ByLayer
370
-1
48
1
60
0
100
AcDbLine
10
22.239826
20
2.856291
30
0
11
22.239826
21
24.236861
31
0
39
0
210
0
220
0
230
1
0
LINE
5
BF
100
AcDbEntity
8
2
62
256
6
ByLayer
370
-1
48
1
60
0
100
AcDbLine
10
19.151556
20
2.151851
30
0
11
1.224179
21
11.484253
31
0
39
0
210
0
220
0
230
1
0
ARC
5
C0
100
AcDbEntity
8
2
62
256
6
ByLayer
370
-1
48
1
60
0
100
AcDbCircle
39
0
10
22.239826
20
0.5442
30
0
40
21.6926605515172
210
0
220
0
230
1
100
AcDbArc
50
152.5
51
222.302161
0
ARC
5
C1
100
AcDbEntity
8
2
62
256
6
ByLayer
370
-1
48
1
60
0
100
AcDbCircle
39
0
10
22.239826
20
0.5442
30
0
40
21.6926605515172
210
0
220
0
230
1
100
AcDbArc
50
90
51
152.5
0
LINE
5
C2
100
AcDbEntity
8
2
62
256
6
ByLayer
370
-1
48
1
60
0
100
AcDbLine
10
22.239826
20
22.236861
30
0
11
19.082209
21
21.7032
31
0
39
0
210
0
220
0
230
1
0
LINE
5
C3
100
AcDbEntity
8
2
62
256
6
ByLayer
370
-1
48
1
60
0
100
AcDbLine
10
22.239826
20
22.236861
30
0
11
19.051678
21
22.538635
31
0
39
0
210
0
220
0
230
1
0
LINE
5
C4
100
AcDbEntity
8
2
62
256
6
ByLayer
370
-1
48
1
60
0
100
AcDbLine
10
19.082209
20
21.7032
30
0
11
19.051678
21
22.538635
31
0
39
0
210
0
220
0
230
1
0
LINE
5
C5
100
AcDbEntity
8
2
62
256
6
ByLayer
370
-1
48
1
60
0
100
AcDbLine
10
2.998201
20
10.560756
30
0
11
4.202645
21
13.528019
31
0
39
0
210
0
220
0
230
1
0
LINE
5
C6
100
AcDbEntity
8
2
62
256
6
ByLayer
370
-1
48
1
60
0
100
AcDbLine
10
2.998201
20
10.560756
30
0
11
4.929591
21
13.115182
31
0
39
0
210
0
220
0
230
1
0
LINE
5
C7
100
AcDbEntity
8
2
62
256
6
ByLayer
370
-1
48
1
60
0
100
AcDbLine
10
4.202645
20
13.528019
30
0
11
4.929591
21
13.115182
31
0
39
0
210
0
220
0
230
1
0
ENDBLK
5
C9
100
AcDbEntity
8
0
100
AcDbBlockEnd
0
BLOCK
5
CC
100
AcDbEntity
8
0
100
AcDbBlockBegin
2
_CLOSED
70
0
10
0
20
0
30
0
3
_CLOSED
0
LINE
5
CE
100
AcDbEntity
8
0
62
256
6
ByLayer
370
-2
48
1
60
0
100
AcDbLine
10
-1
20
0.166667
30
0
11
0
21
0
31
0
39
0
210
0
220
0
230
1
0
LINE
5
CF
100
AcDbEntity
8
0
62
256
6
ByLayer
370
-2
48
1
60
0
100
AcDbLine
10
0
20
0
30
0
11
-1
21
-0.166667
31
0
39
0
210
0
220
0
230
1
0
LINE
5
D0
100
AcDbEntity
8
0
62
256
6
ByLayer
370
-2
48
1
60
0
100
AcDbLine
10
-1
20
0.166667
30
0
11
-1
21
-0.166667
31
0
39
0
210
0
220
0
230
1
0
LINE
5
D1
100
AcDbEntity
8
0
62
256
6
ByLayer
370
-2
48
1
60
0
100
AcDbLine
10
0
20
0
30
0
11
-1
21
0
31
0
39
0
210
0
220
0
230
1
0
ENDBLK
5
CD
100
AcDbEntity
8
0
100
AcDbBlockEnd
0
BLOCK
5
DD
100
AcDbEntity
8
0
100
AcDbBlockBegin
2
DimnDraft3D2
70
0
10
0
20
0
30
0
3
DimnDraft3D2
0
MTEXT
5
D3
100
AcDbEntity
8
SK2
62
256
6
ByLayer
370
-1
48
1
60
0
100
AcDbMText
10
-139.985174
20
-1.503947
30
0
210
0
220
0
230
1
1
\W01.000;\fsimplex.shx,bigfont.shx;25 
40
4.5
41
0
44
1.084337
50
90
71
7
72
5
7
DEFAULT
0
LINE
5
D4
100
AcDbEntity
8
SK2
62
256
6
ByLayer
370
-1
48
1
60
0
100
AcDbLine
10
-131.110174
20
-12.4375
30
0
11
-140.860174
21
-12.4375
31
0
39
0
210
0
220
0
230
1
0
LINE
5
D5
100
AcDbEntity
8
SK2
62
256
6
ByLayer
370
-1
48
1
60
0
100
AcDbLine
10
-131.110174
20
12.4375
30
0
11
-140.860174
21
12.4375
31
0
39
0
210
0
220
0
230
1
0
LINE
5
D6
100
AcDbEntity
8
SK2
62
256
6
ByLayer
370
-1
48
1
60
0
100
AcDbLine
10
-138.860174
20
-12.4375
30
0
11
-138.860174
21
12.4375
31
0
39
0
210
0
220
0
230
1
0
LINE
5
D7
100
AcDbEntity
8
SK2
62
256
6
ByLayer
370
-1
48
1
60
0
100
AcDbLine
10
-138.860174
20
-12.4375
30
0
11
-139.278171
21
-9.262502
31
0
39
0
210
0
220
0
230
1
0
LINE
5
D8
100
AcDbEntity
8
SK2
62
256
6
ByLayer
370
-1
48
1
60
0
100
AcDbLine
10
-138.860174
20
-12.4375
30
0
11
-138.442177
21
-9.262498
31
0
39
0
210
0
220
0
230
1
0
LINE
5
D9
100
AcDbEntity
8
SK2
62
256
6
ByLayer
370
-1
48
1
60
0
100
AcDbLine
10
-139.278171
20
-9.262502
30
0
11
-138.442177
21
-9.262498
31
0
39
0
210
0
220
0
230
1
0
LINE
5
DA
100
AcDbEntity
8
SK2
62
256
6
ByLayer
370
-1
48
1
60
0
100
AcDbLine
10
-138.860174
20
12.4375
30
0
11
-138.442177
21
9.262502
31
0
39
0
210
0
220
0
230
1
0
LINE
5
DB
100
AcDbEntity
8
SK2
62
256
6
ByLayer
370
-1
48
1
60
0
100
AcDbLine
10
-138.860174
20
12.4375
30
0
11
-139.278171
21
9.262498
31
0
39
0
210
0
220
0
230
1
0
LINE
5
DC
100
AcDbEntity
8
SK2
62
256
6
ByLayer
370
-1
48
1
60
0
100
AcDbLine
10
-138.442177
20
9.262502
30
0
11
-139.278171
21
9.262498
31
0
39
0
210
0
220
0
230
1
0
ENDBLK
5
DE
100
AcDbEntity
8
0
100
AcDbBlockEnd
0
BLOCK
5
EB
100
AcDbEntity
8
0
100
AcDbBlockBegin
2
DimnDraft3D3
70
0
10
0
20
0
30
0
3
DimnDraft3D3
0
MTEXT
5
E1
100
AcDbEntity
8
2
62
256
6
ByLayer
370
-1
48
1
60
0
100
AcDbMText
10
48.364826
20
11.9242
30
0
210
0
220
0
230
1
1
\W01.000;\fsimplex.shx,bigfont.shx;12.92 
40
4.5
41
0
44
1.084337
50
90
71
7
72
5
7
DEFAULT
0
LINE
5
E2
100
AcDbEntity
8
2
62
256
6
ByLayer
370
-1
48
1
60
0
100
AcDbLine
10
2
20
-12.4375
30
0
11
51.489826
21
-12.4375
31
0
39
0
210
0
220
0
230
1
0
LINE
5
E3
100
AcDbEntity
8
2
62
256
6
ByLayer
370
-1
48
1
60
0
100
AcDbLine
10
24.239826
20
0.5442
30
0
11
51.489826
21
0.5442
31
0
39
0
210
0
220
0
230
1
0
LINE
5
E4
100
AcDbEntity
8
2
62
256
6
ByLayer
370
-1
48
1
60
0
100
AcDbLine
10
49.489826
20
-12.4375
30
0
11
49.489826
21
23.304463
31
0
39
0
210
0
220
0
230
1
0
LINE
5
E5
100
AcDbEntity
8
2
62
256
6
ByLayer
370
-1
48
1
60
0
100
AcDbLine
10
49.489826
20
-12.4375
30
0
11
49.071829
21
-9.262502
31
0
39
0
210
0
220
0
230
1
0
LINE
5
E6
100
AcDbEntity
8
2
62
256
6
ByLayer
370
-1
48
1
60
0
100
AcDbLine
10
49.489826
20
-12.4375
30
0
11
49.907823
21
-9.262498
31
0
39
0
210
0
220
0
230
1
0
LINE
5
E7
100
AcDbEntity
8
2
62
256
6
ByLayer
370
-1
48
1
60
0
100
AcDbLine
10
49.071829
20
-9.262502
30
0
11
49.907823
21
-9.262498
31
0
39
0
210
0
220
0
230
1
0
LINE
5
E8
100
AcDbEntity
8
2
62
256
6
ByLayer
370
-1
48
1
60
0
100
AcDbLine
10
49.489826
20
0.5442
30
0
11
49.907823
21
-2.630798
31
0
39
0
210
0
220
0
230
1
0
LINE
5
E9
100
AcDbEntity
8
2
62
256
6
ByLayer
370
-1
48
1
60
0
100
AcDbLine
10
49.489826
20
0.5442
30
0
11
49.071829
21
-2.630802
31
0
39
0
210
0
220
0
230
1
0
LINE
5
EA
100
AcDbEntity
8
2
62
256
6
ByLayer
370
-1
48
1
60
0
100
AcDbLine
10
49.907823
20
-2.630798
30
0
11
49.071829
21
-2.630802
31
0
39
0
210
0
220
0
230
1
0
ENDBLK
5
EC
100
AcDbEntity
8
0
100
AcDbBlockEnd
0
BLOCK
5
F9
100
AcDbEntity
8
0
100
AcDbBlockBegin
2
DimnDraft3D4
70
0
10
0
20
0
30
0
3
DimnDraft3D4
0
MTEXT
5
EF
100
AcDbEntity
8
SK2
62
256
6
ByLayer
370
-1
48
1
60
0
100
AcDbMText
10
-56.028595
20
21.731291
30
0
210
0
220
0
230
1
1
\W01.000;\fsimplex.shx,bigfont.shx;150 
40
4.5
41
0
44
1.084337
50
0
71
7
72
5
7
DEFAULT
0
LINE
5
F0
100
AcDbEntity
8
SK2
62
256
6
ByLayer
370
-1
48
1
60
0
100
AcDbLine
10
22.239826
20
2.856291
30
0
11
22.239826
21
22.606291
31
0
39
0
210
0
220
0
230
1
0
LINE
5
F1
100
AcDbEntity
8
SK2
62
256
6
ByLayer
370
-1
48
1
60
0
100
AcDbLine
10
-129.110174
20
14.4375
30
0
11
-129.110174
21
22.606291
31
0
39
0
210
0
220
0
230
1
0
LINE
5
F2
100
AcDbEntity
8
SK2
62
256
6
ByLayer
370
-1
48
1
60
0
100
AcDbLine
10
22.239826
20
20.606291
30
0
11
-129.110174
21
20.606291
31
0
39
0
210
0
220
0
230
1
0
LINE
5
F3
100
AcDbEntity
8
SK2
62
256
6
ByLayer
370
-1
48
1
60
0
100
AcDbLine
10
22.239826
20
20.606291
30
0
11
19.064828
21
20.188294
31
0
39
0
210
0
220
0
230
1
0
LINE
5
F4
100
AcDbEntity
8
SK2
62
256
6
ByLayer
370
-1
48
1
60
0
100
AcDbLine
10
22.239826
20
20.606291
30
0
11
19.064824
21
21.024287
31
0
39
0
210
0
220
0
230
1
0
LINE
5
F5
100
AcDbEntity
8
SK2
62
256
6
ByLayer
370
-1
48
1
60
0
100
AcDbLine
10
19.064828
20
20.188294
30
0
11
19.064824
21
21.024287
31
0
39
0
210
0
220
0
230
1
0
LINE
5
F6
100
AcDbEntity
8
SK2
62
256
6
ByLayer
370
-1
48
1
60
0
100
AcDbLine
10
-129.110174
20
20.606291
30
0
11
-125.935176
21
21.024287
31
0
39
0
210
0
220
0
230
1
0
LINE
5
F7
100
AcDbEntity
8
SK2
62
256
6
ByLayer
370
-1
48
1
60
0
100
AcDbLine
10
-129.110174
20
20.606291
30
0
11
-125.935172
21
20.188294
31
0
39
0
210
0
220
0
230
1
0
LINE
5
F8
100
AcDbEntity
8
SK2
62
256
6
ByLayer
370
-1
48
1
60
0
100
AcDbLine
10
-125.935176
20
21.024287
30
0
11
-125.935172
21
20.188294
31
0
39
0
210
0
220
0
230
1
0
ENDBLK
5
FA
100
AcDbEntity
8
0
100
AcDbBlockEnd
0
ENDSEC
0
SECTION
2
ENTITIES
0
ARC
5
64
100
AcDbEntity
8
1
62
256
6
ByLayer
370
-1
48
1
60
0
100
AcDbCircle
39
0
10
5.338589
20
-0.692055
30
0
40
1.625
210
0
220
0
230
1
100
AcDbArc
50
208.864477
51
297.5
0
ARC
5
65
100
AcDbEntity
8
1
62
256
6
ByLayer
370
-1
48
1
60
0
100
AcDbCircle
39
0
10
5.338589
20
-0.692055
30
0
40
1.85988901006696
210
0
220
0
230
1
100
AcDbArc
50
205.745723
51
297.5
0
ARC
5
66
100
AcDbEntity
8
1
62
256
6
ByLayer
370
-1
48
1
60
0
100
AcDbCircle
39
0
10
-19.080695
20
-10.206709
30
0
40
8.10000000000001
210
0
220
0
230
-1
100
AcDbArc
50
24.352179
51
37.744042
0
ARC
5
67
100
AcDbEntity
8
1
62
256
6
ByLayer
370
-1
48
1
60
0
100
AcDbCircle
39
0
10
-3.651031
20
0
30
0
40
1.5
210
0
220
0
230
-1
100
AcDbArc
50
227.554899
51
259.846036
0
ARC
5
68
100
AcDbEntity
8
1
62
256
6
ByLayer
370
-1
48
1
60
0
100
AcDbCircle
39
0
10
3.651031
20
0
30
0
40
1.5
210
0
220
0
230
1
100
AcDbArc
50
47.556829
51
270.469764
0
ARC
5
69
100
AcDbEntity
8
1
62
256
6
ByLayer
370
-1
48
1
60
0
100
AcDbCircle
39
0
10
-19.080695
20
10.206709
30
0
40
8.10000000000002
210
0
220
0
230
-1
100
AcDbArc
50
322.101231
51
335.647821
0
ARC
5
6A
100
AcDbEntity
8
1
62
256
6
ByLayer
370
-1
48
1
60
0
100
AcDbCircle
39
0
10
12.851031
20
0
30
0
40
1.2065
210
0
220
0
230
1
100
AcDbArc
50
330.079943
51
29.920057
0
ARC
5
6C
100
AcDbEntity
8
1
62
256
6
ByLayer
370
-1
48
1
60
0
100
AcDbCircle
39
0
10
-12.851031
20
0
30
0
40
1.6765
210
0
220
0
230
-1
100
AcDbArc
50
0
51
59.840113
0
ARC
5
6D
100
AcDbEntity
8
1
62
256
6
ByLayer
370
-1
48
1
60
0
100
AcDbCircle
39
0
10
12.851031
20
0
30
0
40
1.2065
210
0
220
0
230
1
100
AcDbArc
50
273.955279
51
330.079943
0
ARC
5
6F
100
AcDbEntity
8
1
62
256
6
ByLayer
370
-1
48
1
60
0
100
AcDbCircle
39
0
10
12.851031
20
0
30
0
40
1.2065
210
0
220
0
230
1
100
AcDbArc
50
29.920057
51
86.044721
0
ARC
5
70
100
AcDbEntity
8
1
62
256
6
ByLayer
370
-1
48
1
60
0
100
AcDbCircle
39
0
10
-4.256528
20
0
30
0
40
0.794000000000028
210
0
220
0
230
-1
100
AcDbArc
50
297.5
51
62.5
0
ARC
5
71
100
AcDbEntity
8
1
62
256
6
ByLayer
370
-1
48
1
60
0
100
AcDbCircle
39
0
10
-12.851031
20
-4.474015
30
0
40
0.793999999999987
210
0
220
0
230
-1
100
AcDbArc
50
242.5
51
297.5
0
ARC
5
72
100
AcDbEntity
8
1
62
256
6
ByLayer
370
-1
48
1
60
0
100
AcDbCircle
39
0
10
-12.851031
20
0
30
0
40
1.6765
210
0
220
0
230
-1
100
AcDbArc
50
239.840113
51
300.159887
0
ARC
5
74
100
AcDbEntity
8
1
62
256
6
ByLayer
370
-1
48
1
60
0
100
AcDbCircle
39
0
10
-12.851031
20
0
30
0
40
1.6765
210
0
220
0
230
-1
100
AcDbArc
50
180
51
239.840113
0
ARC
5
75
100
AcDbEntity
8
1
62
256
6
ByLayer
370
-1
48
1
60
0
100
AcDbCircle
39
0
10
-12.851031
20
0
30
0
40
1.2065
210
0
220
0
230
-1
100
AcDbArc
50
86.044721
51
93.955279
0
ARC
5
76
100
AcDbEntity
8
1
62
256
6
ByLayer
370
-1
48
1
60
0
100
AcDbCircle
39
0
10
12.851031
20
0
30
0
40
1.2065
210
0
220
0
230
1
100
AcDbArc
50
150.079943
51
209.920057
0
ARC
5
77
100
AcDbEntity
8
1
62
256
6
ByLayer
370
-1
48
1
60
0
100
AcDbCircle
39
0
10
-12.851031
20
0
30
0
40
1.2065
210
0
220
0
230
-1
100
AcDbArc
50
266.044721
51
273.955279
0
ARC
5
78
100
AcDbEntity
8
1
62
256
6
ByLayer
370
-1
48
1
60
0
100
AcDbCircle
39
0
10
-12.851031
20
0
30
0
40
1.2065
210
0
220
0
230
-1
100
AcDbArc
50
29.920057
51
86.044721
0
ARC
5
79
100
AcDbEntity
8
1
62
256
6
ByLayer
370
-1
48
1
60
0
100
AcDbCircle
39
0
10
-21.445535
20
0
30
0
40
0.794000000000028
210
0
220
0
230
-1
100
AcDbArc
50
117.5
51
242.5
0
ARC
5
7A
100
AcDbEntity
8
1
62
256
6
ByLayer
370
-1
48
1
60
0
100
AcDbCircle
39
0
10
-12.851031
20
0
30
0
40
1.6765
210
0
220
0
230
-1
100
AcDbArc
50
120.159887
51
180
0
ARC
5
7C
100
AcDbEntity
8
1
62
256
6
ByLayer
370
-1
48
1
60
0
100
AcDbCircle
39
0
10
-12.851031
20
0
30
0
40
1.6765
210
0
220
0
230
-1
100
AcDbArc
50
300.159887
51
0
0
ARC
5
7D
100
AcDbEntity
8
1
62
256
6
ByLayer
370
-1
48
1
60
0
100
AcDbCircle
39
0
10
-12.851031
20
4.474015
30
0
40
0.793999999999987
210
0
220
0
230
-1
100
AcDbArc
50
62.5
51
117.5
0
ARC
5
7F
100
AcDbEntity
8
1
62
256
6
ByLayer
370
-1
48
1
60
0
100
AcDbCircle
39
0
10
-12.851031
20
0
30
0
40
1.6765
210
0
220
0
230
-1
100
AcDbArc
50
59.840113
51
120.159887
0
ARC
5
80
100
AcDbEntity
8
1
62
256
6
ByLayer
370
-1
48
1
60
0
100
AcDbCircle
39
0
10
12.851031
20
0
30
0
40
1.2065
210
0
220
0
230
1
100
AcDbArc
50
209.920057
51
266.044721
0
CIRCLE
5
6B
100
AcDbEntity
8
1
62
256
6
ByLayer
370
-1
48
1
60
0
100
AcDbCircle
10
-12.851031
20
0
30
0
40
3.07132534818237
39
0
210
0
220
0
230
-1
0
CIRCLE
5
6E
100
AcDbEntity
8
1
62
256
6
ByLayer
370
-1
48
1
60
0
100
AcDbCircle
10
-12.851031
20
0
30
0
40
2.62499999999999
39
0
210
0
220
0
230
-1
0
CIRCLE
5
73
100
AcDbEntity
8
1
62
256
6
ByLayer
370
-1
48
1
60
0
100
AcDbCircle
10
-12.851031
20
0
30
0
40
2.94486584643911
39
0
210
0
220
0
230
-1
0
CIRCLE
5
7B
100
AcDbEntity
8
1
62
256
6
ByLayer
370
-1
48
1
60
0
100
AcDbCircle
10
-12.851031
20
0
30
0
40
1.8
39
0
210
0
220
0
230
-1
0
CIRCLE
5
7E
100
AcDbEntity
8
1
62
256
6
ByLayer
370
-1
48
1
60
0
100
AcDbCircle
10
-12.851031
20
0
30
0
40
3.00000000000001
39
0
210
0
220
0
230
-1
0
POINT
5
41
100
AcDbEntity
8
SK2
62
256
6
ByLayer
370
-1
48
1
60
0
100
AcDbPoint
10
22.239826
20
0.481659
30
0
39
0
210
0
220
0
230
1
50
360
0
POINT
5
43
100
AcDbEntity
8
81
62
256
6
ByLayer
370
-1
48
1
60
0
100
AcDbPoint
10
22.239826
20
0.481659
30
0
39
0
210
0
220
0
230
1
50
360
0
POINT
5
45
100
AcDbEntity
8
SK2
62
256
6
ByLayer
370
-1
48
1
60
0
100
AcDbPoint
10
22.239826
20
0.481659
30
0
39
0
210
0
220
0
230
1
50
360
0
POINT
5
46
100
AcDbEntity
8
SK2
62
256
6
ByLayer
370
-1
48
1
60
0
100
AcDbPoint
10
22.239826
20
0.481659
30
0
39
0
210
0
220
0
230
1
50
360
0
POINT
5
47
100
AcDbEntity
8
2
62
256
6
ByLayer
370
-1
48
1
60
0
100
AcDbPoint
10
22.239826
20
0.481659
30
0
39
0
210
0
220
0
230
1
50
360
0
POINT
5
49
100
AcDbEntity
8
SK2
62
256
6
ByLayer
370
-1
48
1
60
0
100
AcDbPoint
10
22.239826
20
0.481659
30
0
39
0
210
0
220
0
230
1
50
360
0
POINT
5
4A
100
AcDbEntity
8
80
62
256
6
ByLayer
370
-1
48
1
60
0
100
AcDbPoint
10
0
20
0
30
0
39
0
210
0
220
0
230
1
50
360
0
SPLINE
5
81
100
AcDbEntity
8
1
62
256
6
ByLayer
370
-1
48
1
60
0
100
AcDbSpline
70
4
71
3
72
8
73
4
40
0
40
0
40
0
40
0
40
1
40
1
40
1
40
1
41
1
10
3.91547207429653
20
-1.47650636365785
30
0
41
1
10
3.83407823373511
20
-1.49108392060671
30
0
41
1
10
3.74988061093353
20
-1.4992399406506
30
0
41
1
10
3.66332949657959
20
-1.49994958339579
30
0
0
SPLINE
5
82
100
AcDbEntity
8
1
62
256
6
ByLayer
370
-1
48
1
60
0
100
AcDbSpline
70
4
71
3
72
12
73
8
40
0
40
0
40
0
40
0
40
0.495785575728952
40
0.495785575728952
40
0.900238279924024
40
0.900238279924024
40
1
40
1
40
1
40
1
41
1
10
12.3631202565305
20
1.40233678765199
30
0
41
1
10
12.4132576289258
20
1.35160801295851
30
0
41
1
10
12.4731022221666
20
1.307123351455
30
0
41
1
10
12.5950149451368
20
1.24516073117704
30
0
41
1
10
12.65608499971
20
1.22366365063726
30
0
41
1
10
12.735513977274
20
1.20816202596683
30
0
41
1
10
12.7516069534428
20
1.20560657989554
30
0
41
1
10
12.767809497377
20
1.20362635089785
30
0
0
SPLINE
5
83
100
AcDbEntity
8
1
62
256
6
ByLayer
370
-1
48
1
60
0
100
AcDbSpline
70
4
71
3
72
14
73
10
40
0
40
0
40
0
40
0
40
0.282169922576054
40
0.282169922576054
40
0.56690224531794
40
0.56690224531794
40
0.824523972080198
40
0.824523972080198
40
1
40
1
40
1
40
1
41
1
10
12.3631202565305
20
1.40233678765202
30
0
41
1
10
12.3395067767622
20
1.42622880348108
30
0
41
1
10
12.3109286054917
20
1.44669095398683
30
0
41
1
10
12.2474346411972
20
1.47642759952313
30
0
41
1
10
12.2114520171047
20
1.48600316007469
30
0
41
1
10
12.141515466191
20
1.49063981766224
30
0
41
1
10
12.1066325290665
20
1.4870048681754
30
0
41
1
10
12.0511893917439
20
1.47083834363079
30
0
41
1
10
12.0291391250094
20
1.46140433355271
30
0
41
1
10
12.0087329302341
20
1.44954676283882
30
0
0
SPLINE
5
84
100
AcDbEntity
8
1
62
256
6
ByLayer
370
-1
48
1
60
0
100
AcDbSpline
70
4
71
3
72
12
73
8
40
0
40
0
40
0
40
0
40
0.495785575728931
40
0.495785575728931
40
0.900238279923881
40
0.900238279923881
40
1
40
1
40
1
40
1
41
1
10
13.3389422112584
20
-1.40233678764818
30
0
41
1
10
13.2888048388631
20
-1.3516080129547
30
0
41
1
10
13.2289602456222
20
-1.30712335145117
30
0
41
1
10
13.107047522652
20
-1.24516073117323
30
0
41
1
10
13.0459774680789
20
-1.22366365063346
30
0
41
1
10
12.9665484905148
20
-1.20816202596302
30
0
41
1
10
12.9504555143459
20
-1.20560657989174
30
0
41
1
10
12.9342529704117
20
-1.20362635089401
30
0
0
SPLINE
5
85
100
AcDbEntity
8
1
62
256
6
ByLayer
370
-1
48
1
60
0
100
AcDbSpline
70
4
71
3
72
16
73
12
40
0
40
0
40
0
40
0
40
0.0624450082613688
40
0.0624450082613688
40
0.283207995985748
40
0.283207995985748
40
0.506745688833454
40
0.506745688833454
40
0.744607284736928
40
0.744607284736928
40
1
40
1
40
1
40
1
41
1
10
13.6933295375548
20
1.44954676283882
30
0
41
1
10
13.6860375507099
20
1.45378396877604
30
0
41
1
10
13.6785531393631
20
1.45770925194756
30
0
41
1
10
13.6441506061744
20
1.47389408653788
30
0
41
1
10
13.6151363698776
20
1.48241558863055
30
0
41
1
10
13.5570248954137
20
1.49038000158336
30
0
41
1
10
13.5271947773208
20
1.48983232118104
30
0
41
1
10
13.468883941539
20
1.48018142672004
30
0
41
1
10
13.4398767328179
20
1.47044293260572
30
0
41
1
10
13.3857065918934
20
1.44276136963637
30
0
41
1
10
13.3603158483001
20
1.42396254038033
30
0
41
1
10
13.3389422112584
20
1.40233678765199
30
0
0
SPLINE
5
86
100
AcDbEntity
8
1
62
256
6
ByLayer
370
-1
48
1
60
0
100
AcDbSpline
70
4
71
3
72
16
73
12
40
0
40
0
40
0
40
0
40
0.0569446172826138
40
0.0569446172826138
40
0.279906644834178
40
0.279906644834178
40
0.505321967306758
40
0.505321967306758
40
0.744915047128888
40
0.744915047128888
40
1
40
1
40
1
40
1
41
1
10
13.6933295375548
20
-1.44954676283498
30
0
41
1
10
13.6999207953868
20
-1.44571673441973
30
0
41
1
10
13.7063679086131
20
-1.44162442621919
30
0
41
1
10
13.7369948507335
20
-1.42045865074715
30
0
41
1
10
13.7589589009006
20
-1.39963106375961
30
0
41
1
10
13.7950388702878
20
-1.3533610238016
30
0
41
1
10
13.8095437879777
20
-1.32729536171362
30
0
41
1
10
13.8304681161156
20
-1.27206196334083
30
0
41
1
10
13.8366134342808
20
-1.24212170469121
30
0
41
1
10
13.8398841348838
20
-1.18170391695185
30
0
41
1
10
13.8364717551187
20
-1.15060073485273
30
0
41
1
10
13.8286757016032
20
-1.12150404177396
30
0
0
SPLINE
5
87
100
AcDbEntity
8
1
62
256
6
ByLayer
370
-1
48
1
60
0
100
AcDbSpline
70
4
71
3
72
18
73
14
40
0
40
0
40
0
40
0
40
0.212491592102431
40
0.212491592102431
40
0.38661819148847
40
0.38661819148847
40
0.562426295050798
40
0.562426295050798
40
0.715388354469433
40
0.715388354469433
40
0.918249128147121
40
0.918249128147121
40
1
40
1
40
1
40
1
41
1
10
14.3118966260798
20
-0.28183741212851
30
0
41
1
10
14.2433935104099
20
-0.300398706934999
30
0
41
1
10
14.1755030646138
20
-0.330381808908669
30
0
41
1
10
14.0617269679011
20
-0.405596523649734
30
0
41
1
10
14.0128865271152
20
-0.448080643416176
30
0
41
1
10
13.9283728125644
20
-0.546545944410553
30
0
41
1
10
13.8917227696767
20
-0.604236286891449
30
0
41
1
10
13.8414914511002
20
-0.716703910710663
30
0
41
1
10
13.8248523787469
20
-0.772190714035531
30
0
41
1
10
13.8028852238265
20
-0.898862337756981
30
0
41
1
10
13.802393688318
20
-0.97141916155843
30
0
41
1
10
13.8159351199633
20
-1.06750657274262
30
0
41
1
10
13.8215326342742
20
-1.09484444569753
30
0
41
1
10
13.8286757016032
20
-1.12150404177396
30
0
0
SPLINE
5
88
100
AcDbEntity
8
1
62
256
6
ByLayer
370
-1
48
1
60
0
100
AcDbSpline
70
4
71
3
72
14
73
10
40
0
40
0
40
0
40
0
40
0.283961749036755
40
0.283961749036755
40
0.570285189259083
40
0.570285189259083
40
0.829451094335702
40
0.829451094335702
40
1
40
1
40
1
40
1
41
1
10
11.8733867661856
20
-1.12150404177393
30
0
41
1
10
11.8647099054904
20
-1.15388811302662
30
0
41
1
10
11.8614773740908
20
-1.18882554195702
30
0
41
1
10
11.8678248684102
20
-1.25850421461212
30
0
41
1
10
11.8776722161375
20
-1.29431482284005
30
0
41
1
10
11.9088166425247
20
-1.35690846986839
30
0
41
1
10
11.929463485294
20
-1.38514373353138
30
0
41
1
10
11.9706290745578
20
-1.42427613242984
30
0
41
1
10
11.9890802831303
20
-1.43812706135148
30
0
41
1
10
12.0087329302341
20
-1.44954676283498
30
0
0
SPLINE
5
89
100
AcDbEntity
8
1
62
256
6
ByLayer
370
-1
48
1
60
0
100
AcDbSpline
70
4
71
3
72
18
73
14
40
0
40
0
40
0
40
0
40
0.212491695755309
40
0.212491695755309
40
0.386618276853797
40
0.386618276853797
40
0.562426360907915
40
0.562426360907915
40
0.715388416645921
40
0.715388416645921
40
0.918249208689849
40
0.918249208689849
40
1
40
1
40
1
40
1
41
1
10
13.8286757016032
20
1.12150404177777
30
0
41
1
10
13.8103073100845
20
1.05294891330075
30
0
41
1
10
13.8021223430476
20
0.979185025513488
30
0
41
1
10
13.8099922347483
20
0.843022153374733
30
0
41
1
10
13.8221869933381
20
0.779448760083
30
0
41
1
10
13.8648618055173
20
0.656905539533085
30
0
41
1
10
13.8963289022337
20
0.596232464324004
30
0
41
1
10
13.9683344702335
20
0.496295746405622
30
0
41
1
10
14.0079501327839
20
0.454031777747133
30
0
41
1
10
14.1064371963749
20
0.371396705693513
30
0
41
1
10
14.1689248214235
20
0.334518098060471
30
0
41
1
10
14.2588079658124
20
0.297950670802806
30
0
41
1
10
14.2852572699741
20
0.289055491737884
30
0
41
1
10
14.3118966260797
20
0.281837412132347
30
0
0
SPLINE
5
8A
100
AcDbEntity
8
1
62
256
6
ByLayer
370
-1
48
1
60
0
100
AcDbSpline
70
4
71
3
72
12
73
8
40
0
40
0
40
0
40
0
40
0.422118641229962
40
0.422118641229962
40
0.843213633747576
40
0.843213633747576
40
1
40
1
40
1
40
1
41
1
10
12.9342529704118
20
1.20362635089785
30
0
41
1
10
13.0017004354457
20
1.21186958891184
30
0
41
1
10
13.0676895930382
20
1.23046260794325
30
0
41
1
10
13.1863040157879
20
1.28256908028317
30
0
41
1
10
13.2406736451827
20
1.31660935904466
30
0
41
1
10
13.3059582333359
20
1.37058295421585
30
0
41
1
10
13.3229128797963
20
1.38611837999758
30
0
41
1
10
13.3389422112584
20
1.40233678765199
30
0
0
SPLINE
5
8B
100
AcDbEntity
8
1
62
256
6
ByLayer
370
-1
48
1
60
0
100
AcDbSpline
70
4
71
3
72
12
73
8
40
0
40
0
40
0
40
0
40
0.42211864122981
40
0.42211864122981
40
0.843213633747292
40
0.843213633747292
40
1
40
1
40
1
40
1
41
1
10
12.7678094973772
20
-1.20362635089401
30
0
41
1
10
12.7003620323433
20
-1.211869588908
30
0
41
1
10
12.6343728747508
20
-1.23046260793939
30
0
41
1
10
12.5157584520011
20
-1.28256908027927
30
0
41
1
10
12.4613888226063
20
-1.31660935904077
30
0
41
1
10
12.3961042344531
20
-1.37058295421195
30
0
41
1
10
12.3791495879926
20
-1.38611837999369
30
0
41
1
10
12.3631202565305
20
-1.40233678764815
30
0
0
SPLINE
5
8C
100
AcDbEntity
8
1
62
256
6
ByLayer
370
-1
48
1
60
0
100
AcDbSpline
70
4
71
3
72
16
73
12
40
0
40
0
40
0
40
0
40
0.0630415689509228
40
0.0630415689509228
40
0.285914332024964
40
0.285914332024964
40
0.511588305408885
40
0.511588305408885
40
0.751723061839387
40
0.751723061839387
40
1
40
1
40
1
40
1
41
1
10
14.5275312338944
20
1.9043E-12
30
0
41
1
10
14.5275312338944
20
0.0084336538348282
30
0
41
1
10
14.527164862643
20
0.0168769683523635
30
0
41
1
10
14.5238743773096
20
0.0547537924334165
30
0
41
1
10
14.5166651243054
20
0.084121608772449
30
0
41
1
10
14.4943553225874
20
0.138367789845233
30
0
41
1
10
14.4788946998144
20
0.163884549645729
30
0
41
1
10
14.4412540687143
20
0.209452916503693
30
0
41
1
10
14.4182602636746
20
0.229640568255093
30
0
41
1
10
14.3680708520978
20
0.261951448649569
30
0
41
1
10
14.3402099474113
20
0.274165762470204
30
0
41
1
10
14.3118966260797
20
0.281837412132347
30
0
0
SPLINE
5
8D
100
AcDbEntity
8
1
62
256
6
ByLayer
370
-1
48
1
60
0
100
AcDbSpline
70
4
71
3
72
14
73
10
40
0
40
0
40
0
40
0
40
0.282169922576127
40
0.282169922576127
40
0.566902245318037
40
0.566902245318037
40
0.824523972080393
40
0.824523972080393
40
1
40
1
40
1
40
1
41
1
10
13.3389422112584
20
-1.40233678764821
30
0
41
1
10
13.3625556910267
20
-1.42622880347727
30
0
41
1
10
13.3911338622972
20
-1.44669095398302
30
0
41
1
10
13.4546278265918
20
-1.4764275995193
30
0
41
1
10
13.4906104506842
20
-1.48600316007085
30
0
41
1
10
13.5605470015979
20
-1.49063981765841
30
0
41
1
10
13.5954299387225
20
-1.48700486817157
30
0
41
1
10
13.6508730760451
20
-1.47083834362692
30
0
41
1
10
13.6729233427795
20
-1.46140433354884
30
0
41
1
10
13.6933295375548
20
-1.44954676283498
30
0
0
SPLINE
5
8E
100
AcDbEntity
8
1
62
256
6
ByLayer
370
-1
48
1
60
0
100
AcDbSpline
70
4
71
3
72
18
73
14
40
0
40
0
40
0
40
0
40
0.212491695755306
40
0.212491695755306
40
0.386618276853806
40
0.386618276853806
40
0.562426360907939
40
0.562426360907939
40
0.71538841664595
40
0.71538841664595
40
0.9182492086899
40
0.9182492086899
40
1
40
1
40
1
40
1
41
1
10
11.8733867661857
20
-1.12150404177393
30
0
41
1
10
11.8917551577044
20
-1.05294891329692
30
0
41
1
10
11.8999401247412
20
-0.979185025509651
30
0
41
1
10
11.8920702330405
20
-0.843022153370896
30
0
41
1
10
11.8798754744508
20
-0.779448760079163
30
0
41
1
10
11.8372006622715
20
-0.656905539529248
30
0
41
1
10
11.8057335655552
20
-0.596232464320167
30
0
41
1
10
11.7337279975554
20
-0.496295746401813
30
0
41
1
10
11.6941123350049
20
-0.454031777743296
30
0
41
1
10
11.595625271414
20
-0.371396705689676
30
0
41
1
10
11.5331376463654
20
-0.334518098056634
30
0
41
1
10
11.4432545019764
20
-0.297950670798968
30
0
41
1
10
11.4168051978148
20
-0.289055491734047
30
0
41
1
10
11.3901658417092
20
-0.281837412128539
30
0
0
SPLINE
5
8F
100
AcDbEntity
8
1
62
256
6
ByLayer
370
-1
48
1
60
0
100
AcDbSpline
70
4
71
3
72
14
73
10
40
0
40
0
40
0
40
0
40
0.283961457856592
40
0.283961457856592
40
0.570284934646636
40
0.570284934646636
40
0.829450869060448
40
0.829450869060448
40
1
40
1
40
1
40
1
41
1
10
14.3118966260798
20
-0.281837412128539
30
0
41
1
10
14.3442561102594
20
-0.273069432456793
30
0
41
1
10
14.3760879851068
20
-0.258311308207254
30
0
41
1
10
14.4331449424682
20
-0.21781554395173
30
0
41
1
10
14.4591603118065
20
-0.19130949330787
30
0
41
1
10
14.4976330584165
20
-0.132933226214192
30
0
41
1
10
14.5116727566758
20
-0.10089560260846
30
0
41
1
10
14.5248255019154
20
-0.0456420108764064
30
0
41
1
10
14.5275312338944
20
-0.022729660793658
30
0
41
1
10
14.5275312338944
20
1.9043E-12
30
0
0
SPLINE
5
90
100
AcDbEntity
8
1
62
256
6
ByLayer
370
-1
48
1
60
0
100
AcDbSpline
70
4
71
3
72
16
73
12
40
0
40
0
40
0
40
0
40
0.0630415689508979
40
0.0630415689508979
40
0.285914332024908
40
0.285914332024908
40
0.511588305408809
40
0.511588305408809
40
0.75172306183919
40
0.75172306183919
40
1
40
1
40
1
40
1
41
1
10
11.1745312338944
20
1.9043E-12
30
0
41
1
10
11.1745312338944
20
-0.0084336538309913
30
0
41
1
10
11.1748976051458
20
-0.0168769683485266
30
0
41
1
10
11.1781880904792
20
-0.054753792429608
30
0
41
1
10
11.1853973434834
20
-0.0841216087686121
30
0
41
1
10
11.2077071452015
20
-0.138367789841396
30
0
41
1
10
11.2231677679744
20
-0.163884549641921
30
0
41
1
10
11.2608083990745
20
-0.209452916499885
30
0
41
1
10
11.2838022041142
20
-0.229640568251256
30
0
41
1
10
11.333991615691
20
-0.26195144864576
30
0
41
1
10
11.3618525203776
20
-0.274165762466396
30
0
41
1
10
11.3901658417091
20
-0.281837412128539
30
0
0
SPLINE
5
91
100
AcDbEntity
8
1
62
256
6
ByLayer
370
-1
48
1
60
0
100
AcDbSpline
70
4
71
3
72
16
73
12
40
0
40
0
40
0
40
0
40
0.0569446172824473
40
0.0569446172824473
40
0.279906644834047
40
0.279906644834047
40
0.505321967306578
40
0.505321967306578
40
0.744915047128668
40
0.744915047128668
40
1
40
1
40
1
40
1
41
1
10
12.0087329302341
20
1.44954676283882
30
0
41
1
10
12.0021416724021
20
1.4457167344236
30
0
41
1
10
11.9956945591757
20
1.44162442622306
30
0
41
1
10
11.9650676170554
20
1.42045865075104
30
0
41
1
10
11.9431035668883
20
1.39963106376351
30
0
41
1
10
11.9070235975011
20
1.35336102380549
30
0
41
1
10
11.8925186798112
20
1.32729536171752
30
0
41
1
10
11.8715943516732
20
1.27206196334475
30
0
41
1
10
11.8654490335081
20
1.24212170469511
30
0
41
1
10
11.862178332905
20
1.18170391695571
30
0
41
1
10
11.8655907126701
20
1.15060073485657
30
0
41
1
10
11.8733867661857
20
1.12150404177777
30
0
0
SPLINE
5
92
100
AcDbEntity
8
1
62
256
6
ByLayer
370
-1
48
1
60
0
100
AcDbSpline
70
4
71
3
72
14
73
10
40
0
40
0
40
0
40
0
40
0.283961749036726
40
0.283961749036726
40
0.570285189259057
40
0.570285189259057
40
0.829451094335674
40
0.829451094335674
40
1
40
1
40
1
40
1
41
1
10
13.8286757016032
20
1.12150404177777
30
0
41
1
10
13.8373525622985
20
1.15388811303046
30
0
41
1
10
13.8405850936981
20
1.18882554196085
30
0
41
1
10
13.8342375993786
20
1.25850421461595
30
0
41
1
10
13.8243902516513
20
1.29431482284386
30
0
41
1
10
13.7932458252641
20
1.35690846987222
30
0
41
1
10
13.7725989824949
20
1.38514373353522
30
0
41
1
10
13.7314333932311
20
1.42427613243368
30
0
41
1
10
13.7129821846586
20
1.43812706135532
30
0
41
1
10
13.6933295375548
20
1.44954676283882
30
0
0
SPLINE
5
93
100
AcDbEntity
8
1
62
256
6
ByLayer
370
-1
48
1
60
0
100
AcDbSpline
70
4
71
3
72
14
73
10
40
0
40
0
40
0
40
0
40
0.283961457856621
40
0.283961457856621
40
0.57028493464664
40
0.57028493464664
40
0.829450869060455
40
0.829450869060455
40
1
40
1
40
1
40
1
41
1
10
11.3901658417091
20
0.281837412132347
30
0
41
1
10
11.3578063575294
20
0.27306943246063
30
0
41
1
10
11.3259744826821
20
0.258311308211063
30
0
41
1
10
11.2689175253207
20
0.217815543955567
30
0
41
1
10
11.2429021559823
20
0.191309493311678
30
0
41
1
10
11.2044294093724
20
0.132933226218
30
0
41
1
10
11.1903897111131
20
0.100895602612269
30
0
41
1
10
11.1772369658734
20
0.0456420108802149
30
0
41
1
10
11.1745312338944
20
0.0227296607974949
30
0
41
1
10
11.1745312338944
20
1.9043E-12
30
0
0
SPLINE
5
94
100
AcDbEntity
8
1
62
256
6
ByLayer
370
-1
48
1
60
0
100
AcDbSpline
70
4
71
3
72
16
73
12
40
0
40
0
40
0
40
0
40
0.0624450082614443
40
0.0624450082614443
40
0.283207995985819
40
0.283207995985819
40
0.506745688833526
40
0.506745688833526
40
0.744607284736924
40
0.744607284736924
40
1
40
1
40
1
40
1
41
1
10
12.0087329302341
20
-1.44954676283498
30
0
41
1
10
12.016024917079
20
-1.4537839687722
30
0
41
1
10
12.0235093284258
20
-1.45770925194373
30
0
41
1
10
12.0579118616145
20
-1.47389408653407
30
0
41
1
10
12.0869260979113
20
-1.48241558862671
30
0
41
1
10
12.1450375723752
20
-1.49038000157952
30
0
41
1
10
12.1748676904681
20
-1.4898323211772
30
0
41
1
10
12.2331785262499
20
-1.4801814267162
30
0
41
1
10
12.262185734971
20
-1.47044293260186
30
0
41
1
10
12.3163558758955
20
-1.44276136963253
30
0
41
1
10
12.3417466194888
20
-1.42396254037649
30
0
41
1
10
12.3631202565305
20
-1.40233678764815
30
0
0
SPLINE
5
95
100
AcDbEntity
8
1
62
256
6
ByLayer
370
-1
48
1
60
0
100
AcDbSpline
70
4
71
3
72
18
73
14
40
0
40
0
40
0
40
0
40
0.212491592102443
40
0.212491592102443
40
0.386618191488462
40
0.386618191488462
40
0.562426295050783
40
0.562426295050783
40
0.715388354469423
40
0.715388354469423
40
0.918249128147112
40
0.918249128147112
40
1
40
1
40
1
40
1
41
1
10
11.3901658417091
20
0.281837412132347
30
0
41
1
10
11.458668957379
20
0.300398706938836
30
0
41
1
10
11.526559403175
20
0.330381808912534
30
0
41
1
10
11.6403354998878
20
0.405596523653571
30
0
41
1
10
11.6891759406737
20
0.448080643420042
30
0
41
1
10
11.7736896552245
20
0.54654594441439
30
0
41
1
10
11.8103396981121
20
0.604236286895286
30
0
41
1
10
11.8605710166887
20
0.716703910714472
30
0
41
1
10
11.877210089042
20
0.77219071403934
30
0
41
1
10
11.8991772439623
20
0.898862337760789
30
0
41
1
10
11.8996687794709
20
0.971419161562238
30
0
41
1
10
11.8861273478256
20
1.06750657274642
30
0
41
1
10
11.8805298335147
20
1.09484444570134
30
0
41
1
10
11.8733867661857
20
1.12150404177774
30
0
0
LINE
5
4C
100
AcDbEntity
8
81
62
256
6
ByLayer
370
-1
48
1
60
0
100
AcDbLine
10
22.239826
20
0.481659
30
0
11
32.239826
21
0.481659
31
0
39
0
210
0
220
0
230
1
0
LINE
5
4D
100
AcDbEntity
8
80
62
256
6
ByLayer
370
-1
48
1
60
0
100
AcDbLine
10
0
20
0
30
0
11
-5
21
0
31
0
39
0
210
0
220
0
230
1
0
LINE
5
4E
100
AcDbEntity
8
1
62
256
6
ByLayer
370
-1
48
1
60
0
100
AcDbLine
10
0
20
-12.436296
30
0
11
1.002313
21
-12.436296
31
0
39
0
210
0
220
0
230
1
0
LINE
5
50
100
AcDbEntity
8
1
62
256
6
ByLayer
370
-1
48
1
60
0
100
AcDbLine
10
0
20
12.4375
30
0
11
0
21
-12.436296
31
0
39
0
210
0
220
0
230
1
0
LINE
5
51
100
AcDbEntity
8
1
62
256
6
ByLayer
370
-1
48
1
60
0
100
AcDbLine
10
6.08893
20
-2.133447
30
0
11
6.362113
21
-1.991237
31
0
39
0
210
0
220
0
230
1
0
LINE
5
52
100
AcDbEntity
8
1
62
256
6
ByLayer
370
-1
48
1
60
0
100
AcDbLine
10
6.19739
20
-2.341796
30
0
11
6.08893
21
-2.133447
31
0
39
0
210
0
220
0
230
1
0
LINE
5
53
100
AcDbEntity
8
1
62
256
6
ByLayer
370
-1
48
1
60
0
100
AcDbLine
10
6.19739
20
-2.341796
30
0
11
6.616452
21
-2.123646
31
0
39
0
210
0
220
0
230
1
0
LINE
5
54
100
AcDbEntity
8
1
62
256
6
ByLayer
370
-1
48
1
60
0
100
AcDbLine
10
1.002313
20
-12.436296
30
0
11
11.701367
21
-6.866721
31
0
39
0
210
0
220
0
230
1
0
LINE
5
55
100
AcDbEntity
8
1
62
256
6
ByLayer
370
-1
48
1
60
0
100
AcDbLine
10
11.701367
20
6.866721
30
0
11
1
21
12.4375
31
0
39
0
210
0
220
0
230
1
0
LINE
5
56
100
AcDbEntity
8
1
62
256
6
ByLayer
370
-1
48
1
60
0
100
AcDbLine
10
1
20
12.4375
30
0
11
0
21
12.4375
31
0
39
0
210
0
220
0
230
1
0
LINE
5
57
100
AcDbEntity
8
SK1
62
256
6
ByLayer
370
-1
48
1
60
0
100
AcDbLine
10
-129.110174
20
12.4375
30
0
11
-129.110174
21
-12.4375
31
0
39
0
210
0
220
0
230
1
0
LINE
5
59
100
AcDbEntity
8
SK1
62
256
6
ByLayer
370
-1
48
1
60
0
100
AcDbLine
10
0
20
12.4375
30
0
11
-0.15
21
12.4375
31
0
39
0
210
0
220
0
230
1
0
LINE
5
5A
100
AcDbEntity
8
1
62
256
6
ByLayer
370
-1
48
1
60
0
100
AcDbLine
10
21.812163
20
0.704287
30
0
11
13.21766
21
5.178302
31
0
39
0
210
0
220
0
230
1
0
LINE
5
5B
100
AcDbEntity
8
1
62
256
6
ByLayer
370
-1
48
1
60
0
100
AcDbLine
10
13.21766
20
-5.178302
30
0
11
21.812163
21
-0.704287
31
0
39
0
210
0
220
0
230
1
0
LINE
5
5C
100
AcDbEntity
8
1
62
256
6
ByLayer
370
-1
48
1
60
0
100
AcDbLine
10
12.484403
20
5.178302
30
0
11
3.889899
21
0.704287
31
0
39
0
210
0
220
0
230
1
0
LINE
5
5D
100
AcDbEntity
8
1
62
256
6
ByLayer
370
-1
48
1
60
0
100
AcDbLine
10
3.889899
20
-0.704287
30
0
11
12.484403
21
-5.178302
31
0
39
0
210
0
220
0
230
1
0
LINE
5
5E
100
AcDbEntity
8
SK1
62
256
6
ByLayer
370
-1
48
1
60
0
100
AcDbLine
10
0
20
12.4375
30
0
11
0
21
-12.436296
31
0
39
0
210
0
220
0
230
1
0
LINE
5
5F
100
AcDbEntity
8
SK1
62
256
6
ByLayer
370
-1
48
1
60
0
100
AcDbLine
10
-129.110174
20
-12.4375
30
0
11
-0.15
21
-12.4375
31
0
39
0
210
0
220
0
230
1
0
LINE
5
60
100
AcDbEntity
8
SK1
62
256
6
ByLayer
370
-1
48
1
60
0
100
AcDbLine
10
-0.15
20
12.4375
30
0
11
-0.15
21
-12.4375
31
0
39
0
210
0
220
0
230
1
0
LINE
5
61
100
AcDbEntity
8
SK1
62
256
6
ByLayer
370
-1
48
1
60
0
100
AcDbLine
10
-0.15
20
-12.43695
30
0
11
0
21
-12.436296
31
0
39
0
210
0
220
0
230
1
0
LINE
5
62
100
AcDbEntity
8
SK1
62
256
6
ByLayer
370
-1
48
1
60
0
100
AcDbLine
10
-0.15
20
12.4375
30
0
11
-129.110174
21
12.4375
31
0
39
0
210
0
220
0
230
1
0
LINE
5
63
100
AcDbEntity
8
2
62
256
6
ByLayer
370
-1
48
1
60
1
100
AcDbLine
10
22.239826
20
0.5442
30
0
11
22.240713
21
0.543738
31
0
39
0
210
0
220
0
230
1
0
MTEXT
5
96
100
AcDbEntity
8
SK6
62
256
6
ByLayer
370
-1
48
1
60
0
100
AcDbMText
10
-77.275901
20
-20.912993
30
0
210
0
220
0
230
1
1
\W00.729;\fsimplex.shx,bigfont.shx;SDNCN 2525M 11 
40
3.5
41
0
44
1.084337
50
0
71
7
72
5
7
DEFAULT
0
DIMENSION
5
CA
100
AcDbEntity
8
2
62
256
6
ByLayer
370
-3
48
1
60
0
100
AcDbDimension
2
DimnDraft3D1
10
1.224179
20
11.484253
30
0
11
1.207412
21
0.697742
31
0
70
34
71
5
72
1
41
1
210
0
220
0
230
1
3
Standard
100
AcDb2LineAngularDimension
13
22.239826
23
2.856291
33
0
14
22.239826
24
24.236861
34
0
15
19.151556
25
2.151851
35
0
16
6.29966
26
-5.897747
36
0
40
0
0
DIMENSION
5
DF
100
AcDbEntity
8
SK2
62
256
6
ByLayer
370
-3
48
1
60
0
100
AcDbDimension
2
DimnDraft3D2
10
-138.860174
20
12.4375
30
0
11
-138.860174
21
-2.628947
31
0
70
32
71
5
72
1
41
1
210
0
220
0
230
1
3
Standard
100
AcDbAlignedDimension
13
-131.110174
23
-12.4375
33
0
14
-131.110174
24
12.4375
34
0
50
90
100
AcDbRotatedDimension
1001
ACAD
1000
DSTYLE
1002
{
1070
    74
1070
     0
1070
   279
1070
     0
1070
   172
1070
     1
1070
   173
1070
     1
1070
   340
1005
97
1070
    77
1070
     1
1070
    73
1070
     0
1070
   171
1070
     3
1070
   274
1070
     4
1070
   177
1070
     2
1070
   176
1070
     2
1070
   178
1070
     7
1070
    78
1070
     8
1070
    41
1041
3.175
1070
   147
1041
2.25
1070
    42
1041
2.0
1070
    44
1041
2.0
1070
   140
1041
4.5
1070
   343
1005
CB
1070
   344
1005
CB
1002
}
0
DIMENSION
5
ED
100
AcDbEntity
8
2
62
256
6
ByLayer
370
-3
48
1
60
0
100
AcDbDimension
2
DimnDraft3D3
10
49.489826
20
0.5442
30
0
11
49.489826
21
10.7992
31
0
70
32
71
5
72
1
41
1
210
0
220
0
230
1
3
Standard
100
AcDbAlignedDimension
13
2
23
-12.4375
33
0
14
24.239826
24
0.5442
34
0
50
90
100
AcDbRotatedDimension
1001
ACAD
1000
DSTYLE
1002
{
1070
    74
1070
     0
1070
   279
1070
     0
1070
   172
1070
     1
1070
   173
1070
     1
1070
   340
1005
97
1070
    77
1070
     1
1070
    73
1070
     0
1070
   171
1070
     3
1070
   274
1070
     4
1070
   177
1070
     2
1070
   176
1070
     2
1070
   178
1070
     7
1070
    78
1070
     8
1070
    41
1041
3.175
1070
   147
1041
2.25
1070
    42
1041
2.0
1070
    44
1041
2.0
1070
   140
1041
4.5
1070
   343
1005
CB
1070
   344
1005
CB
1002
}
0
DIMENSION
5
FB
100
AcDbEntity
8
SK2
62
256
6
ByLayer
370
-3
48
1
60
0
100
AcDbDimension
2
DimnDraft3D4
10
-129.110174
20
20.606291
30
0
11
-57.153595
21
20.606291
31
0
70
32
71
5
72
1
41
1
210
0
220
0
230
1
3
Standard
100
AcDbAlignedDimension
13
22.239826
23
2.856291
33
0
14
-129.110174
24
14.4375
34
0
50
0
100
AcDbRotatedDimension
1001
ACAD
1000
DSTYLE
1002
{
1070
   279
1070
     0
1070
   172
1070
     1
1070
   173
1070
     1
1070
   340
1005
97
1070
    77
1070
     1
1070
    73
1070
     0
1070
   171
1070
     3
1070
   274
1070
     4
1070
   177
1070
     2
1070
   176
1070
     2
1070
   178
1070
     7
1070
    78
1070
     8
1070
    41
1041
3.175
1070
   147
1041
2.25
1070
    42
1041
2.0
1070
    44
1041
2.0
1070
   140
1041
4.5
1070
   343
1005
CB
1070
   344
1005
CB
1002
}
0
ENDSEC
0
SECTION
2
OBJECTS
0
DICTIONARY
5
12b
330
0
100
AcDbDictionary
280
0
281
1
3
ACAD_GROUP
350
12c
3
ACAD_MLINESTYLE
350
12d
0
DICTIONARY
5
12c
330
0
100
AcDbDictionary
280
0
281
1
0
DICTIONARY
5
12d
330
0
100
AcDbDictionary
280
0
281
1
3
Standard
350
18
0
MLINESTYLE
5
18
330
12d
100
AcDbMlineStyle
2
Standard
70
0
3

62
256
51
90
52
90
71
2
49
-0.5
62
256
6
ByLayer
49
0.5
62
256
6
ByLayer
0
RASTERVARIABLES
5
11a
330

100
AcDbRasterVariables
90
0
70
1
71
1
72
1
0
ENDSEC
0
EOF
