0
SECTION
2
HEADER
9
$ACADVER
1
AC1015
9
$DWGCODEPAGE
3
ANSI_1252
9
$HANDSEED
5
137
9
$ANGBASE
50
0
9
$ANGDIR
70
0
9
$ATTMODE
70
1
9
$AUNITS
70
0
9
$AUPREC
70
0
9
$CECOLOR
62
256
9
$CELTSCALE
40
1
9
$CELTYPE
6
ByLayer
9
$CELWEIGHT
370
-1
9
$CLAYER
8
0
9
$CMLJUST
70
0
9
$CMLSCALE
40
1
9
$CMLSTYLE
2
Standard
9
$DIMSTYLE
2
Standard
9
$TEXTSIZE
40
0.2
9
$TEXTSTYLE
7
Standard
9
$LUNITS
70
2
9
$LUPREC
70
4
9
$EXTNAMES
290
1
9
$INSUNITS
70
4
9
$LTSCALE
40
1
9
$LWDISPLAY
290
0
9
$PDMODE
70
0
9
$PDSIZE
40
0
9
$PLINEGEN
70
0
0
ENDSEC
0
SECTION
2
CLASSES
0
CLASS
1
RASTERVARIABLES
2
AcDbRasterVariables
3
ISM
90
0
280
0
281
0
0
ENDSEC
0
SECTION
2
TABLES
0
TABLE
2
VPORT
5
12d
100
AcDbSymbolTable
0
VPORT
5
1
100
AcDbSymbolTableRecord
100
AcDbViewportTableRecord
2
*Active
70
0
10
0
20
0
11
1
21
1
12
-1
22
1
13
0
23
0
14
0.5
24
0.5
15
10
25
10
16
0
26
0
36
1
17
0
27
0
37
0
0
ENDTAB
0
TABLE
2
LTYPE
5
12e
100
AcDbSymbolTable
0
LTYPE
5
14
100
AcDbSymbolTableRecord
100
AcDbLinetypeTableRecord
70
0
2
ByBlock
3

72
65
73
0
40
0
0
LTYPE
5
15
100
AcDbSymbolTableRecord
100
AcDbLinetypeTableRecord
70
0
2
ByLayer
3

72
65
73
0
40
0
0
LTYPE
5
16
100
AcDbSymbolTableRecord
100
AcDbLinetypeTableRecord
70
0
2
CONTINUOUS
3
Solid line
72
65
73
0
40
0
0
LTYPE
5
3B
100
AcDbSymbolTableRecord
100
AcDbLinetypeTableRecord
70
0
2
DASHED
3
__ __ __ __ __ __ __ __ __
72
65
73
2
40
25.72
49
12.86
74
0
49
-12.86
74
0
0
LTYPE
5
3C
100
AcDbSymbolTableRecord
100
AcDbLinetypeTableRecord
70
0
2
HIDDEN
3
_ _ _ _ _ _ _ _ _ _ _ _ _ _ _
72
65
73
2
40
0.5
49
0.25
74
0
49
-0.25
74
0
0
LTYPE
5
3D
100
AcDbSymbolTableRecord
100
AcDbLinetypeTableRecord
70
0
2
PHANTOM
3
____ _ _ ____ _ _ _____ _ _ ____
72
65
73
6
40
50.5
49
18
74
0
49
-6.5
74
0
49
6.5
74
0
49
-6.5
74
0
49
6.5
74
0
49
-6.5
74
0
0
LTYPE
5
3E
100
AcDbSymbolTableRecord
100
AcDbLinetypeTableRecord
70
0
2
CENTER
3
____ _ ____ _ ____ _ ____
72
65
73
4
40
47.5
49
22
74
0
49
-8.5
74
0
49
8.5
74
0
49
-8.5
74
0
0
LTYPE
5
3F
100
AcDbSymbolTableRecord
100
AcDbLinetypeTableRecord
70
0
2
DOT
3
.........................
72
65
73
2
40
10
49
0
74
0
49
-10
74
0
0
LTYPE
5
40
100
AcDbSymbolTableRecord
100
AcDbLinetypeTableRecord
70
0
2
DASHDOT
3
_._._._._._._._._._._._._._._._.
72
65
73
4
40
70
49
31
74
0
49
-13
74
0
49
13
74
0
49
-13
74
0
0
ENDTAB
0
TABLE
2
LAYER
5
12f
100
AcDbSymbolTable
0
LAYER
5
10
100
AcDbSymbolTableRecord
100
AcDbLayerTableRecord
2
0
70
0
62
7
6
CONTINUOUS
290
1
370
-3
390
0
0
LAYER
5
44
100
AcDbSymbolTableRecord
100
AcDbLayerTableRecord
2
80
70
0
62
-6
6
CONTINUOUS
290
1
370
-3
390
0
0
LAYER
5
47
100
AcDbSymbolTableRecord
100
AcDbLayerTableRecord
2
81
70
0
62
-3
6
CONTINUOUS
290
1
370
-3
390
0
0
LAYER
5
49
100
AcDbSymbolTableRecord
100
AcDbLayerTableRecord
2
2
70
0
62
7
6
CONTINUOUS
290
1
370
-3
390
0
0
LAYER
5
4F
100
AcDbSymbolTableRecord
100
AcDbLayerTableRecord
2
1
70
0
62
4
6
CONTINUOUS
290
1
370
-3
390
0
0
LAYER
5
11a
100
AcDbSymbolTableRecord
100
AcDbLayerTableRecord
2
SK2
70
0
62
7
6
CONTINUOUS
290
1
370
-3
390
0
0
LAYER
5
11b
100
AcDbSymbolTableRecord
100
AcDbLayerTableRecord
2
SK1
70
0
62
4
6
CONTINUOUS
290
1
370
-3
390
0
0
LAYER
5
11c
100
AcDbSymbolTableRecord
100
AcDbLayerTableRecord
2
SK6
70
0
62
5
6
CONTINUOUS
290
1
370
-3
390
0
0
ENDTAB
0
TABLE
2
STYLE
5
130
100
AcDbSymbolTable
0
STYLE
5
11
100
AcDbSymbolTableRecord
100
AcDbTextStyleTableRecord
2
Standard
3
txt
70
0
71
0
40
0
41
1
42
0
50
0
0
STYLE
5
97
100
AcDbSymbolTableRecord
100
AcDbTextStyleTableRecord
2
DEFAULT
3
simplex.shx
70
0
71
0
40
0
41
1
42
0
50
0
0
STYLE
5
BA
100
AcDbSymbolTableRecord
100
AcDbTextStyleTableRecord
2
DWGDirectTextStyle
3
SIMPLEX
70
0
71
0
40
0
41
1
42
0
50
0
0
ENDTAB
0
TABLE
2
DIMSTYLE
5
131
100
AcDbSymbolTable
100
AcDbDimStyleTable
0
DIMSTYLE
105
27
100
AcDbSymbolTableRecord
100
AcDbDimStyleTableRecord
2
Standard
70
0
3
<>
41
0.18
42
0.0625
44
0.18
140
0.18
147
0.09
73
0
74
0
77
1
271
2
275
0
278
52
280
0
340
11
0
ENDTAB
0
TABLE
2
VIEW
5
132
100
AcDbSymbolTable
0
ENDTAB
0
TABLE
2
UCS
5
133
100
AcDbSymbolTable
0
ENDTAB
0
TABLE
2
APPID
5
134
100
AcDbSymbolTable
0
APPID
5
12
100
AcDbSymbolTableRecord
100
AcDbRegAppTableRecord
2
ACAD
70
0
0
ENDTAB
0
TABLE
2
BLOCK_RECORD
5
135
100
AcDbSymbolTable
0
BLOCK_RECORD
5
1F
100
AcDbSymbolTableRecord
100
AcDbBlockTableRecord
2
*Model_Space
340
0
70
0
0
BLOCK_RECORD
5
1B
100
AcDbSymbolTableRecord
100
AcDbBlockTableRecord
2
*Paper_Space
340
0
70
0
0
BLOCK_RECORD
5
23
100
AcDbSymbolTableRecord
100
AcDbBlockTableRecord
2
*Paper_Space0
340
0
70
0
0
BLOCK_RECORD
5
BC
100
AcDbSymbolTableRecord
100
AcDbBlockTableRecord
2
DimnDraft3D1
340
0
70
0
0
BLOCK_RECORD
5
CA
100
AcDbSymbolTableRecord
100
AcDbBlockTableRecord
2
_CLOSED
340
0
70
0
0
BLOCK_RECORD
5
D1
100
AcDbSymbolTableRecord
100
AcDbBlockTableRecord
2
DimnDraft3D2
340
0
70
0
0
BLOCK_RECORD
5
DF
100
AcDbSymbolTableRecord
100
AcDbBlockTableRecord
2
DimnDraft3D3
340
0
70
0
0
BLOCK_RECORD
5
ED
100
AcDbSymbolTableRecord
100
AcDbBlockTableRecord
2
DimnDraft3D4
340
0
70
0
0
ENDTAB
0
ENDSEC
0
SECTION
2
BLOCKS
0
BLOCK
5
20
100
AcDbEntity
8
0
100
AcDbBlockBegin
2
*Model_Space
70
0
10
0
20
0
30
0
3
*Model_Space
0
ENDBLK
5
21
100
AcDbEntity
8
0
100
AcDbBlockEnd
0
BLOCK
5
1C
100
AcDbEntity
8
0
100
AcDbBlockBegin
2
*Paper_Space
70
0
10
0
20
0
30
0
3
*Paper_Space
0
ENDBLK
5
1D
100
AcDbEntity
8
0
100
AcDbBlockEnd
0
BLOCK
5
24
100
AcDbEntity
8
0
100
AcDbBlockBegin
2
*Paper_Space0
70
0
10
0
20
0
30
0
3
*Paper_Space0
0
ENDBLK
5
25
100
AcDbEntity
8
0
100
AcDbBlockEnd
0
BLOCK
5
C7
100
AcDbEntity
8
0
100
AcDbBlockBegin
2
DimnDraft3D1
70
0
10
0
20
0
30
0
3
DimnDraft3D1
0
MTEXT
5
BD
100
AcDbEntity
8
2
62
256
6
ByLayer
370
-1
48
1
60
0
100
AcDbMText
10
2.587213
20
12.964175
30
0
210
0
220
0
230
1
1
\W01.000;\fsimplex.shx,bigfont.shx;93%%d0' 
40
4.5
41
0
44
1.084337
50
46.5000000000004
71
7
72
5
7
DEFAULT
0
LINE
5
BE
100
AcDbEntity
8
2
62
256
6
ByLayer
370
-1
48
1
60
0
100
AcDbLine
10
16.049287
20
9.4
30
0
11
16.049287
21
21.876821
31
0
39
0
210
0
220
0
230
1
0
LINE
5
BF
100
AcDbEntity
8
2
62
256
6
ByLayer
370
-1
48
1
60
0
100
AcDbLine
10
12.635753
20
7.242448
30
0
11
1.613621
21
6.664803
31
0
39
0
210
0
220
0
230
1
0
ARC
5
C0
100
AcDbEntity
8
2
62
256
6
ByLayer
370
-1
48
1
60
0
100
AcDbCircle
39
0
10
16.049287
20
7.421344
30
0
40
12.455476986756
210
0
220
0
230
1
100
AcDbArc
50
90
51
183
0
LINE
5
C1
100
AcDbEntity
8
2
62
256
6
ByLayer
370
-1
48
1
60
0
100
AcDbLine
10
16.049287
20
19.876821
30
0
11
12.907141
21
19.25855
31
0
39
0
210
0
220
0
230
1
0
LINE
5
C2
100
AcDbEntity
8
2
62
256
6
ByLayer
370
-1
48
1
60
0
100
AcDbLine
10
16.049287
20
19.876821
30
0
11
12.854184
21
20.092865
31
0
39
0
210
0
220
0
230
1
0
LINE
5
C3
100
AcDbEntity
8
2
62
256
6
ByLayer
370
-1
48
1
60
0
100
AcDbLine
10
12.907141
20
19.25855
30
0
11
12.854184
21
20.092865
31
0
39
0
210
0
220
0
230
1
0
LINE
5
C4
100
AcDbEntity
8
2
62
256
6
ByLayer
370
-1
48
1
60
0
100
AcDbLine
10
3.61088
20
6.769475
30
0
11
3.227913
21
9.948889
31
0
39
0
210
0
220
0
230
1
0
LINE
5
C5
100
AcDbEntity
8
2
62
256
6
ByLayer
370
-1
48
1
60
0
100
AcDbLine
10
3.61088
20
6.769475
30
0
11
4.063856
21
9.939675
31
0
39
0
210
0
220
0
230
1
0
LINE
5
C6
100
AcDbEntity
8
2
62
256
6
ByLayer
370
-1
48
1
60
0
100
AcDbLine
10
3.227913
20
9.948889
30
0
11
4.063856
21
9.939675
31
0
39
0
210
0
220
0
230
1
0
ENDBLK
5
C8
100
AcDbEntity
8
0
100
AcDbBlockEnd
0
BLOCK
5
CB
100
AcDbEntity
8
0
100
AcDbBlockBegin
2
_CLOSED
70
0
10
0
20
0
30
0
3
_CLOSED
0
LINE
5
CD
100
AcDbEntity
8
0
62
256
6
ByLayer
370
-2
48
1
60
0
100
AcDbLine
10
-1
20
0.166667
30
0
11
0
21
0
31
0
39
0
210
0
220
0
230
1
0
LINE
5
CE
100
AcDbEntity
8
0
62
256
6
ByLayer
370
-2
48
1
60
0
100
AcDbLine
10
0
20
0
30
0
11
-1
21
-0.166667
31
0
39
0
210
0
220
0
230
1
0
LINE
5
CF
100
AcDbEntity
8
0
62
256
6
ByLayer
370
-2
48
1
60
0
100
AcDbLine
10
-1
20
0.166667
30
0
11
-1
21
-0.166667
31
0
39
0
210
0
220
0
230
1
0
LINE
5
D0
100
AcDbEntity
8
0
62
256
6
ByLayer
370
-2
48
1
60
0
100
AcDbLine
10
0
20
0
30
0
11
-1
21
0
31
0
39
0
210
0
220
0
230
1
0
ENDBLK
5
CC
100
AcDbEntity
8
0
100
AcDbBlockEnd
0
BLOCK
5
DC
100
AcDbEntity
8
0
100
AcDbBlockBegin
2
DimnDraft3D2
70
0
10
0
20
0
30
0
3
DimnDraft3D2
0
MTEXT
5
D2
100
AcDbEntity
8
SK2
62
256
6
ByLayer
370
-1
48
1
60
0
100
AcDbMText
10
-66.175713
20
-0.941447
30
0
210
0
220
0
230
1
1
\W01.000;\fsimplex.shx,bigfont.shx;10 
40
4.5
41
0
44
1.084337
50
90
71
7
72
5
7
DEFAULT
0
LINE
5
D3
100
AcDbEntity
8
SK2
62
256
6
ByLayer
370
-1
48
1
60
0
100
AcDbLine
10
-57.300713
20
-4.95
30
0
11
-67.050713
21
-4.95
31
0
39
0
210
0
220
0
230
1
0
LINE
5
D4
100
AcDbEntity
8
SK2
62
256
6
ByLayer
370
-1
48
1
60
0
100
AcDbLine
10
-57.300713
20
4.95
30
0
11
-67.050713
21
4.95
31
0
39
0
210
0
220
0
230
1
0
LINE
5
D5
100
AcDbEntity
8
SK2
62
256
6
ByLayer
370
-1
48
1
60
0
100
AcDbLine
10
-65.050713
20
-16.2
30
0
11
-65.050713
21
16.2
31
0
39
0
210
0
220
0
230
1
0
LINE
5
D6
100
AcDbEntity
8
SK2
62
256
6
ByLayer
370
-1
48
1
60
0
100
AcDbLine
10
-65.050713
20
-4.95
30
0
11
-64.632716
21
-8.124998
31
0
39
0
210
0
220
0
230
1
0
LINE
5
D7
100
AcDbEntity
8
SK2
62
256
6
ByLayer
370
-1
48
1
60
0
100
AcDbLine
10
-65.050713
20
-4.95
30
0
11
-65.46871
21
-8.125002
31
0
39
0
210
0
220
0
230
1
0
LINE
5
D8
100
AcDbEntity
8
SK2
62
256
6
ByLayer
370
-1
48
1
60
0
100
AcDbLine
10
-64.632716
20
-8.124998
30
0
11
-65.46871
21
-8.125002
31
0
39
0
210
0
220
0
230
1
0
LINE
5
D9
100
AcDbEntity
8
SK2
62
256
6
ByLayer
370
-1
48
1
60
0
100
AcDbLine
10
-65.050713
20
4.95
30
0
11
-65.46871
21
8.124998
31
0
39
0
210
0
220
0
230
1
0
LINE
5
DA
100
AcDbEntity
8
SK2
62
256
6
ByLayer
370
-1
48
1
60
0
100
AcDbLine
10
-65.050713
20
4.95
30
0
11
-64.632716
21
8.125002
31
0
39
0
210
0
220
0
230
1
0
LINE
5
DB
100
AcDbEntity
8
SK2
62
256
6
ByLayer
370
-1
48
1
60
0
100
AcDbLine
10
-65.46871
20
8.124998
30
0
11
-64.632716
21
8.125002
31
0
39
0
210
0
220
0
230
1
0
ENDBLK
5
DD
100
AcDbEntity
8
0
100
AcDbBlockEnd
0
BLOCK
5
EA
100
AcDbEntity
8
0
100
AcDbBlockBegin
2
DimnDraft3D3
70
0
10
0
20
0
30
0
3
DimnDraft3D3
0
MTEXT
5
E0
100
AcDbEntity
8
2
62
256
6
ByLayer
370
-1
48
1
60
0
100
AcDbMText
10
42.174287
20
0.283553
30
0
210
0
220
0
230
1
1
\W01.000;\fsimplex.shx,bigfont.shx;12 
40
4.5
41
0
44
1.084337
50
90
71
7
72
5
7
DEFAULT
0
LINE
5
E1
100
AcDbEntity
8
2
62
256
6
ByLayer
370
-1
48
1
60
0
100
AcDbLine
10
2
20
-4.95
30
0
11
45.299287
21
-4.95
31
0
39
0
210
0
220
0
230
1
0
LINE
5
E2
100
AcDbEntity
8
2
62
256
6
ByLayer
370
-1
48
1
60
0
100
AcDbLine
10
18.049287
20
7.4
30
0
11
45.299287
21
7.4
31
0
39
0
210
0
220
0
230
1
0
LINE
5
E3
100
AcDbEntity
8
2
62
256
6
ByLayer
370
-1
48
1
60
0
100
AcDbLine
10
43.299287
20
-16.2
30
0
11
43.299287
21
18.65
31
0
39
0
210
0
220
0
230
1
0
LINE
5
E4
100
AcDbEntity
8
2
62
256
6
ByLayer
370
-1
48
1
60
0
100
AcDbLine
10
43.299287
20
-4.95
30
0
11
43.717284
21
-8.124998
31
0
39
0
210
0
220
0
230
1
0
LINE
5
E5
100
AcDbEntity
8
2
62
256
6
ByLayer
370
-1
48
1
60
0
100
AcDbLine
10
43.299287
20
-4.95
30
0
11
42.88129
21
-8.125002
31
0
39
0
210
0
220
0
230
1
0
LINE
5
E6
100
AcDbEntity
8
2
62
256
6
ByLayer
370
-1
48
1
60
0
100
AcDbLine
10
43.717284
20
-8.124998
30
0
11
42.88129
21
-8.125002
31
0
39
0
210
0
220
0
230
1
0
LINE
5
E7
100
AcDbEntity
8
2
62
256
6
ByLayer
370
-1
48
1
60
0
100
AcDbLine
10
43.299287
20
7.4
30
0
11
42.88129
21
10.574998
31
0
39
0
210
0
220
0
230
1
0
LINE
5
E8
100
AcDbEntity
8
2
62
256
6
ByLayer
370
-1
48
1
60
0
100
AcDbLine
10
43.299287
20
7.4
30
0
11
43.717284
21
10.575002
31
0
39
0
210
0
220
0
230
1
0
LINE
5
E9
100
AcDbEntity
8
2
62
256
6
ByLayer
370
-1
48
1
60
0
100
AcDbLine
10
42.88129
20
10.574998
30
0
11
43.717284
21
10.575002
31
0
39
0
210
0
220
0
230
1
0
ENDBLK
5
EB
100
AcDbEntity
8
0
100
AcDbBlockEnd
0
BLOCK
5
F8
100
AcDbEntity
8
0
100
AcDbBlockBegin
2
DimnDraft3D4
70
0
10
0
20
0
30
0
3
DimnDraft3D4
0
MTEXT
5
EE
100
AcDbEntity
8
SK2
62
256
6
ByLayer
370
-1
48
1
60
0
100
AcDbMText
10
-21.12966
20
28.275
30
0
210
0
220
0
230
1
1
\W01.000;\fsimplex.shx,bigfont.shx;70 
40
4.5
41
0
44
1.084337
50
0
71
7
72
5
7
DEFAULT
0
LINE
5
EF
100
AcDbEntity
8
SK2
62
256
6
ByLayer
370
-1
48
1
60
0
100
AcDbLine
10
16.049287
20
9.4
30
0
11
16.049287
21
29.15
31
0
39
0
210
0
220
0
230
1
0
LINE
5
F0
100
AcDbEntity
8
SK2
62
256
6
ByLayer
370
-1
48
1
60
0
100
AcDbLine
10
-55.300713
20
6.95
30
0
11
-55.300713
21
29.15
31
0
39
0
210
0
220
0
230
1
0
LINE
5
F1
100
AcDbEntity
8
SK2
62
256
6
ByLayer
370
-1
48
1
60
0
100
AcDbLine
10
16.049287
20
27.15
30
0
11
-55.300713
21
27.15
31
0
39
0
210
0
220
0
230
1
0
LINE
5
F2
100
AcDbEntity
8
SK2
62
256
6
ByLayer
370
-1
48
1
60
0
100
AcDbLine
10
16.049287
20
27.15
30
0
11
12.874288
21
26.732003
31
0
39
0
210
0
220
0
230
1
0
LINE
5
F3
100
AcDbEntity
8
SK2
62
256
6
ByLayer
370
-1
48
1
60
0
100
AcDbLine
10
16.049287
20
27.15
30
0
11
12.874285
21
27.567997
31
0
39
0
210
0
220
0
230
1
0
LINE
5
F4
100
AcDbEntity
8
SK2
62
256
6
ByLayer
370
-1
48
1
60
0
100
AcDbLine
10
12.874288
20
26.732003
30
0
11
12.874285
21
27.567997
31
0
39
0
210
0
220
0
230
1
0
LINE
5
F5
100
AcDbEntity
8
SK2
62
256
6
ByLayer
370
-1
48
1
60
0
100
AcDbLine
10
-55.300713
20
27.15
30
0
11
-52.125715
21
27.567997
31
0
39
0
210
0
220
0
230
1
0
LINE
5
F6
100
AcDbEntity
8
SK2
62
256
6
ByLayer
370
-1
48
1
60
0
100
AcDbLine
10
-55.300713
20
27.15
30
0
11
-52.125712
21
26.732003
31
0
39
0
210
0
220
0
230
1
0
LINE
5
F7
100
AcDbEntity
8
SK2
62
256
6
ByLayer
370
-1
48
1
60
0
100
AcDbLine
10
-52.125715
20
27.567997
30
0
11
-52.125712
21
26.732003
31
0
39
0
210
0
220
0
230
1
0
ENDBLK
5
F9
100
AcDbEntity
8
0
100
AcDbBlockEnd
0
ENDSEC
0
SECTION
2
ENTITIES
0
ARC
5
64
100
AcDbEntity
8
1
62
256
6
ByLayer
370
-1
48
1
60
0
100
AcDbCircle
39
0
10
-19.928332
20
-1.056007
30
0
40
8.1
210
0
220
0
230
-1
100
AcDbArc
50
0.413662
51
13.634316
0
ARC
5
65
100
AcDbEntity
8
1
62
256
6
ByLayer
370
-1
48
1
60
0
100
AcDbCircle
39
0
10
6.291903
20
0.66703
30
0
40
1.34423045315122
210
0
220
0
230
1
100
AcDbArc
50
218.276713
51
328
0
ARC
5
66
100
AcDbEntity
8
1
62
256
6
ByLayer
370
-1
48
1
60
0
100
AcDbCircle
39
0
10
5.264153
20
0.883973
30
0
40
1.05
210
0
220
0
230
1
100
AcDbArc
50
79.572407
51
268.498746
0
ARC
5
67
100
AcDbEntity
8
1
62
256
6
ByLayer
370
-1
48
1
60
0
100
AcDbCircle
39
0
10
-5.264153
20
0.883973
30
0
40
1.05
210
0
220
0
230
-1
100
AcDbArc
50
198.568933
51
264.962464
0
ARC
5
68
100
AcDbEntity
8
1
62
256
6
ByLayer
370
-1
48
1
60
0
100
AcDbCircle
39
0
10
6.291903
20
0.66703
30
0
40
1.25
210
0
220
0
230
1
100
AcDbArc
50
221.544486
51
328
0
ARC
5
69
100
AcDbEntity
8
1
62
256
6
ByLayer
370
-1
48
1
60
0
100
AcDbCircle
39
0
10
-10.377154
20
14.634373
30
0
40
8.10000000000001
210
0
220
0
230
-1
100
AcDbArc
50
283.330773
51
285.081262
0
ARC
5
6A
100
AcDbEntity
8
1
62
256
6
ByLayer
370
-1
48
1
60
0
100
AcDbCircle
39
0
10
10.468393
20
3.949505
30
0
40
0.748000000000007
210
0
220
0
230
1
100
AcDbArc
50
0.524579
51
60.475421
0
ARC
5
6E
100
AcDbEntity
8
1
62
256
6
ByLayer
370
-1
48
1
60
0
100
AcDbCircle
39
0
10
-12.058007
20
1.250875
30
0
40
0.396875000000004
210
0
220
0
230
-1
100
AcDbArc
50
212
51
267
0
ARC
5
6F
100
AcDbEntity
8
1
62
256
6
ByLayer
370
-1
48
1
60
0
100
AcDbCircle
39
0
10
10.468393
20
3.949505
30
0
40
0.748000000000007
210
0
220
0
230
1
100
AcDbArc
50
60.475421
51
118.338153
0
ARC
5
70
100
AcDbEntity
8
1
62
256
6
ByLayer
370
-1
48
1
60
0
100
AcDbCircle
39
0
10
-5.284374
20
0.895884
30
0
40
0.396875000000072
210
0
220
0
230
-1
100
AcDbArc
50
267
51
32
0
ARC
5
71
100
AcDbEntity
8
1
62
256
6
ByLayer
370
-1
48
1
60
0
100
AcDbCircle
39
0
10
-10.468393
20
3.949505
30
0
40
1.035
210
0
220
0
230
-1
100
AcDbArc
50
149.5
51
209.450841
0
ARC
5
72
100
AcDbEntity
8
1
62
256
6
ByLayer
370
-1
48
1
60
0
100
AcDbCircle
39
0
10
-10.468393
20
3.949505
30
0
40
0.748000000000007
210
0
220
0
230
-1
100
AcDbArc
50
57.338153
51
61.661847
0
ARC
5
73
100
AcDbEntity
8
1
62
256
6
ByLayer
370
-1
48
1
60
0
100
AcDbCircle
39
0
10
10.468393
20
3.949505
30
0
40
0.748000000000007
210
0
220
0
230
1
100
AcDbArc
50
180.524579
51
240.475421
0
ARC
5
74
100
AcDbEntity
8
1
62
256
6
ByLayer
370
-1
48
1
60
0
100
AcDbCircle
39
0
10
-10.468393
20
3.949505
30
0
40
1.035
210
0
220
0
230
-1
100
AcDbArc
50
89.549159
51
149.5
0
ARC
5
76
100
AcDbEntity
8
1
62
256
6
ByLayer
370
-1
48
1
60
0
100
AcDbCircle
39
0
10
-10.468393
20
3.949505
30
0
40
1.035
210
0
220
0
230
-1
100
AcDbArc
50
209.450841
51
269.549159
0
ARC
5
77
100
AcDbEntity
8
1
62
256
6
ByLayer
370
-1
48
1
60
0
100
AcDbCircle
39
0
10
-10.468393
20
3.949505
30
0
40
1.035
210
0
220
0
230
-1
100
AcDbArc
50
29.450841
51
89.549159
0
ARC
5
78
100
AcDbEntity
8
1
62
256
6
ByLayer
370
-1
48
1
60
0
100
AcDbCircle
39
0
10
10.468393
20
3.949505
30
0
40
0.748000000000007
210
0
220
0
230
1
100
AcDbArc
50
302.661847
51
0.524579
0
ARC
5
79
100
AcDbEntity
8
1
62
256
6
ByLayer
370
-1
48
1
60
0
100
AcDbCircle
39
0
10
-10.468393
20
3.949505
30
0
40
1.035
210
0
220
0
230
-1
100
AcDbArc
50
329.5
51
29.450841
0
ARC
5
7A
100
AcDbEntity
8
1
62
256
6
ByLayer
370
-1
48
1
60
0
100
AcDbCircle
39
0
10
-8.878779
20
6.648134
30
0
40
0.396875000000004
210
0
220
0
230
-1
100
AcDbArc
50
32
51
87
0
ARC
5
7B
100
AcDbEntity
8
1
62
256
6
ByLayer
370
-1
48
1
60
0
100
AcDbCircle
39
0
10
-10.468393
20
3.949505
30
0
40
0.748000000000007
210
0
220
0
230
-1
100
AcDbArc
50
237.338153
51
241.661847
0
ARC
5
7C
100
AcDbEntity
8
1
62
256
6
ByLayer
370
-1
48
1
60
0
100
AcDbCircle
39
0
10
10.468393
20
3.949505
30
0
40
0.748000000000007
210
0
220
0
230
1
100
AcDbArc
50
122.661847
51
180.524579
0
ARC
5
7D
100
AcDbEntity
8
1
62
256
6
ByLayer
370
-1
48
1
60
0
100
AcDbCircle
39
0
10
10.468393
20
3.949505
30
0
40
0.748000000000007
210
0
220
0
230
1
100
AcDbArc
50
240.475421
51
298.338153
0
ARC
5
7E
100
AcDbEntity
8
1
62
256
6
ByLayer
370
-1
48
1
60
0
100
AcDbCircle
39
0
10
-15.652412
20
7.003125
30
0
40
0.396875000000072
210
0
220
0
230
-1
100
AcDbArc
50
87
51
212
0
ARC
5
80
100
AcDbEntity
8
1
62
256
6
ByLayer
370
-1
48
1
60
0
100
AcDbCircle
39
0
10
-10.468393
20
3.949505
30
0
40
1.035
210
0
220
0
230
-1
100
AcDbArc
50
269.549159
51
329.5
0
CIRCLE
5
6B
100
AcDbEntity
8
1
62
256
6
ByLayer
370
-1
48
1
60
0
100
AcDbCircle
10
-10.468393
20
3.949505
30
0
40
1.82475962939469
39
0
210
0
220
0
230
-1
0
CIRCLE
5
6C
100
AcDbEntity
8
1
62
256
6
ByLayer
370
-1
48
1
60
0
100
AcDbCircle
10
-10.468393
20
3.949505
30
0
40
1.30000000000001
39
0
210
0
220
0
230
-1
0
CIRCLE
5
6D
100
AcDbEntity
8
1
62
256
6
ByLayer
370
-1
48
1
60
0
100
AcDbCircle
10
-10.468393
20
3.949505
30
0
40
1.725
39
0
210
0
220
0
230
-1
0
CIRCLE
5
75
100
AcDbEntity
8
1
62
256
6
ByLayer
370
-1
48
1
60
0
100
AcDbCircle
10
-10.468393
20
3.949505
30
0
40
1.9190538915244
39
0
210
0
220
0
230
-1
0
CIRCLE
5
7F
100
AcDbEntity
8
1
62
256
6
ByLayer
370
-1
48
1
60
0
100
AcDbCircle
10
-10.468393
20
3.949505
30
0
40
1.875
39
0
210
0
220
0
230
-1
0
POINT
5
41
100
AcDbEntity
8
SK2
62
256
6
ByLayer
370
-1
48
1
60
0
100
AcDbPoint
10
16.049287
20
7.4
30
0
39
0
210
0
220
0
230
1
50
360
0
POINT
5
43
100
AcDbEntity
8
80
62
256
6
ByLayer
370
-1
48
1
60
0
100
AcDbPoint
10
0
20
0
30
0
39
0
210
0
220
0
230
1
50
360
0
POINT
5
45
100
AcDbEntity
8
SK2
62
256
6
ByLayer
370
-1
48
1
60
0
100
AcDbPoint
10
16.049287
20
7.4
30
0
39
0
210
0
220
0
230
1
50
360
0
POINT
5
46
100
AcDbEntity
8
81
62
256
6
ByLayer
370
-1
48
1
60
0
100
AcDbPoint
10
16.049287
20
7.4
30
0
39
0
210
0
220
0
230
1
50
360
0
POINT
5
48
100
AcDbEntity
8
2
62
256
6
ByLayer
370
-1
48
1
60
0
100
AcDbPoint
10
16.049287
20
7.4
30
0
39
0
210
0
220
0
230
1
50
360
0
POINT
5
4A
100
AcDbEntity
8
SK2
62
256
6
ByLayer
370
-1
48
1
60
0
100
AcDbPoint
10
16.049287
20
7.4
30
0
39
0
210
0
220
0
230
1
50
360
0
POINT
5
4B
100
AcDbEntity
8
SK2
62
256
6
ByLayer
370
-1
48
1
60
0
100
AcDbPoint
10
16.049287
20
7.4
30
0
39
0
210
0
220
0
230
1
50
360
0
SPLINE
5
81
100
AcDbEntity
8
1
62
256
6
ByLayer
370
-1
48
1
60
0
100
AcDbSpline
70
4
71
3
72
8
73
4
40
0
40
0
40
0
40
0
40
1
40
1
40
1
40
1
41
1
10
5.35635172972627
20
-0.161971431891459
30
0
41
1
10
5.31740896421056
20
-0.165404191590369
30
0
41
1
10
5.27748145016417
20
-0.166737021355431
30
0
41
1
10
5.2366441892936
20
-0.165666765785261
30
0
0
SPLINE
5
82
100
AcDbEntity
8
1
62
256
6
ByLayer
370
-1
48
1
60
0
100
AcDbSpline
70
4
71
3
72
14
73
10
40
0
40
0
40
0
40
0
40
0.284243762693648
40
0.284243762693648
40
0.57149205205807
40
0.57149205205807
40
0.831782611546802
40
0.831782611546802
40
1
40
1
40
1
40
1
41
1
10
11.3341382364934
20
4.25269353194119
30
0
41
1
10
11.3487908523428
20
4.26793373913679
30
0
41
1
10
11.3612290775364
20
4.28623183144705
30
0
41
1
10
11.3790286161155
20
4.32665952984942
30
0
41
1
10
11.384552712527
20
4.34946842175097
30
0
41
1
10
11.3865343493047
20
4.39361471356958
30
0
41
1
10
11.3837867155548
20
4.41555587189256
30
0
41
1
10
11.3731366636625
20
4.44957157035483
30
0
41
1
10
11.3673383383478
20
4.46265304607914
30
0
41
1
10
11.3601792645349
20
4.47480674165982
30
0
0
SPLINE
5
83
100
AcDbEntity
8
1
62
256
6
ByLayer
370
-1
48
1
60
0
100
AcDbSpline
70
4
71
3
72
14
73
10
40
0
40
0
40
0
40
0
40
0.284031179780412
40
0.284031179780412
40
0.5707456155234
40
0.5707456155234
40
0.830521331303666
40
0.830521331303666
40
1
40
1
40
1
40
1
41
1
10
9.77306188262224
20
4.54691580731537
30
0
41
1
10
9.75251397314517
20
4.5520480280428
30
0
41
1
10
9.73041198638023
20
4.55372488601219
30
0
41
1
10
9.68643847967809
20
4.54900781631679
30
0
41
1
10
9.66389557761147
20
4.54242542950715
30
0
41
1
10
9.62461141326818
20
4.52212340342177
30
0
41
1
10
9.60694929723977
20
4.50879326653768
30
0
41
1
10
9.58266817656821
20
4.48248143015243
30
0
41
1
10
9.57414491600778
20
4.47079937410723
30
0
41
1
10
9.56713799326545
20
4.45838984956427
30
0
0
SPLINE
5
84
100
AcDbEntity
8
1
62
256
6
ByLayer
370
-1
48
1
60
0
100
AcDbSpline
70
4
71
3
72
18
73
14
40
0
40
0
40
0
40
0
40
0.213308050978103
40
0.213308050978103
40
0.388932752290875
40
0.388932752290875
40
0.566196729917818
40
0.566196729917818
40
0.721122426929977
40
0.721122426929977
40
0.927347770098251
40
0.927347770098251
40
1
40
1
40
1
40
1
41
1
10
9.6026479304625
20
3.64631554004976
30
0
41
1
10
9.63268689127978
20
3.67755910717125
30
0
41
1
10
9.65886201720284
20
3.71456862981918
30
0
41
1
10
9.69506198011004
20
3.78979856390697
30
0
41
1
10
9.70744231133125
20
3.82754233585726
30
0
41
1
10
9.72104865490371
20
3.90593765057073
30
0
41
1
10
9.72225913569446
20
3.94778358800423
30
0
41
1
10
9.71349383984281
20
4.02285464582991
30
0
41
1
10
9.70485884692803
20
4.05740253766641
30
0
41
1
10
9.67662774865633
20
4.13140408372135
30
0
41
1
10
9.65399967060904
20
4.17003502251001
30
0
41
1
10
9.61784476077773
20
4.21500939974453
30
0
41
1
10
9.60778109028888
20
4.22622286465818
30
0
41
1
10
9.59724160376814
20
4.23679069408831
30
0
0
SPLINE
5
85
100
AcDbEntity
8
1
62
256
6
ByLayer
370
-1
48
1
60
0
100
AcDbSpline
70
4
71
3
72
16
73
12
40
0
40
0
40
0
40
0
40
0.0653886635330986
40
0.0653886635330986
40
0.289400369430086
40
0.289400369430086
40
0.516309567087849
40
0.516309567087849
40
0.757684426216326
40
0.757684426216326
40
1
40
1
40
1
40
1
41
1
10
10.4602490975879
20
4.98447249467529
30
0
41
1
10
10.454731764384
20
4.98442907972375
30
0
41
1
10
10.4492096558361
20
4.98413807119383
30
0
41
1
10
10.4250483639599
20
4.98177847594309
30
0
41
1
10
10.4064790073674
20
4.97700653333328
30
0
41
1
10
10.3722353051838
20
4.96248382381009
30
0
41
1
10
10.3561596264723
20
4.95249826499665
30
0
41
1
10
10.3275298014186
20
4.92830138750458
30
0
41
1
10
10.3148937811353
20
4.91357346671899
30
0
41
1
10
10.2950628308772
20
4.88197201837275
30
0
41
1
10
10.2876634266276
20
4.8647610602938
30
0
41
1
10
10.2829886677467
20
4.84728563883226
30
0
0
SPLINE
5
86
100
AcDbEntity
8
1
62
256
6
ByLayer
370
-1
48
1
60
0
100
AcDbSpline
70
4
71
3
72
12
73
8
40
0
40
0
40
0
40
0
40
0.377026877432491
40
0.377026877432491
40
0.761057556296383
40
0.761057556296383
40
1
40
1
40
1
40
1
41
1
10
10.8234495394599
20
3.29114375871185
30
0
41
1
10
10.790818571511
20
3.26885616041861
30
0
41
1
10
10.761294873078
20
3.24171583103433
30
0
41
1
10
10.712127175283
20
3.18258799097325
30
0
41
1
10
10.6919382026919
20
3.14978364673411
30
0
41
1
10
10.6672753382021
20
3.09509639531768
30
0
41
1
10
10.6596223702131
20
3.07349826226627
30
0
41
1
10
10.6537974992093
20
3.05172343315871
30
0
0
SPLINE
5
87
100
AcDbEntity
8
1
62
256
6
ByLayer
370
-1
48
1
60
0
100
AcDbSpline
70
4
71
3
72
16
73
12
40
0
40
0
40
0
40
0
40
0.0653886635332059
40
0.0653886635332059
40
0.2894003694302
40
0.2894003694302
40
0.516309567087977
40
0.516309567087977
40
0.757684426216425
40
0.757684426216425
40
1
40
1
40
1
40
1
41
1
10
10.476537069368
20
2.91453657731569
30
0
41
1
10
10.482054402572
20
2.91457999226722
30
0
41
1
10
10.4875765111198
20
2.91487100079712
30
0
41
1
10
10.5117378029961
20
2.91723059604789
30
0
41
1
10
10.5303071595885
20
2.92200253865767
30
0
41
1
10
10.5645508617721
20
2.93652524818088
30
0
41
1
10
10.5806265404837
20
2.94651080699433
30
0
41
1
10
10.6092563655373
20
2.97070768448643
30
0
41
1
10
10.6218923858206
20
2.98543560527199
30
0
41
1
10
10.6417233360787
20
3.01703705361825
30
0
41
1
10
10.6491227403283
20
3.03424801169717
30
0
41
1
10
10.6537974992093
20
3.05172343315871
30
0
0
SPLINE
5
88
100
AcDbEntity
8
1
62
256
6
ByLayer
370
-1
48
1
60
0
100
AcDbSpline
70
4
71
3
72
14
73
10
40
0
40
0
40
0
40
0
40
0.28403117978041
40
0.28403117978041
40
0.570745615523388
40
0.570745615523388
40
0.830521331303709
40
0.830521331303709
40
1
40
1
40
1
40
1
41
1
10
11.1637242843337
20
3.35209326467557
30
0
41
1
10
11.1842721938107
20
3.34696104394817
30
0
41
1
10
11.2063741805757
20
3.34528418597876
30
0
41
1
10
11.2503476872778
20
3.35000125567416
30
0
41
1
10
11.2728905893444
20
3.3565836424838
30
0
41
1
10
11.3121747536877
20
3.37688566856917
30
0
41
1
10
11.3298368697161
20
3.39021580545327
30
0
41
1
10
11.3541179903877
20
3.41652764183854
30
0
41
1
10
11.3626412509481
20
3.42820969788372
30
0
41
1
10
11.3696481736905
20
3.44061922242668
30
0
0
SPLINE
5
89
100
AcDbEntity
8
1
62
256
6
ByLayer
370
-1
48
1
60
0
100
AcDbSpline
70
4
71
3
72
14
73
10
40
0
40
0
40
0
40
0
40
0.282474137715432
40
0.282474137715432
40
0.56994391113171
40
0.56994391113171
40
0.830410576243026
40
0.830410576243026
40
1
40
1
40
1
40
1
41
1
10
10.2973166008792
20
3.04829919073066
30
0
41
1
10
10.3031349326135
20
3.02811061058139
30
0
41
1
10
10.3126606396029
20
3.00830475458255
30
0
41
1
10
10.3385843107269
20
2.97270133380888
30
0
41
1
10
10.3555354525418
20
2.95645295942768
30
0
41
1
10
10.3927265903085
20
2.93254303411143
30
0
41
1
10
10.4130886731812
20
2.92388948824129
30
0
41
1
10
10.4479732734057
20
2.91598251209405
30
0
41
1
10
10.4623174292132
20
2.91442468539881
30
0
41
1
10
10.476537069368
20
2.91453657731569
30
0
0
SPLINE
5
8A
100
AcDbEntity
8
1
62
256
6
ByLayer
370
-1
48
1
60
0
100
AcDbSpline
70
4
71
3
72
16
73
12
40
0
40
0
40
0
40
0
40
0.0668563731148121
40
0.0668563731148121
40
0.291501607187324
40
0.291501607187324
40
0.519124459613531
40
0.519124459613531
40
0.761313389573083
40
0.761313389573083
40
1
40
1
40
1
40
1
41
1
10
9.57660690242099
20
3.42420233033116
30
0
41
1
10
9.57946142712765
20
3.41935630901344
30
0
41
1
10
9.58254121841483
20
3.41463471686035
30
0
41
1
10
9.59677726824023
20
3.39484226327846
30
0
41
1
10
9.61022723900598
20
3.38118395079883
30
0
41
1
10
9.63998093698393
20
3.35886620122116
30
0
41
1
10
9.65668997515075
20
3.34997929983356
30
0
41
1
10
9.69199734519648
20
3.33737183697622
30
0
41
1
10
9.71108373481709
20
3.33384133196947
30
0
41
1
10
9.74804364954335
20
3.33257701567481
30
0
41
1
10
9.76631291770676
20
3.33473190499041
30
0
41
1
10
9.78349643377251
20
3.33929570579508
30
0
0
SPLINE
5
8B
100
AcDbEntity
8
1
62
256
6
ByLayer
370
-1
48
1
60
0
100
AcDbSpline
70
4
71
3
72
14
73
10
40
0
40
0
40
0
40
0
40
0.284243762693631
40
0.284243762693631
40
0.571492052058065
40
0.571492052058065
40
0.831782611546822
40
0.831782611546822
40
1
40
1
40
1
40
1
41
1
10
9.6026479304625
20
3.64631554004976
30
0
41
1
10
9.5879953146131
20
3.63107533285415
30
0
41
1
10
9.57555708941945
20
3.61277724054392
30
0
41
1
10
9.55775755084048
20
3.57234954214155
30
0
41
1
10
9.55223345442892
20
3.54954065024
30
0
41
1
10
9.55025181765123
20
3.5053943584214
30
0
41
1
10
9.55299945140115
20
3.48345320009841
30
0
41
1
10
9.56364950329342
20
3.44943750163614
30
0
41
1
10
9.56944782860811
20
3.43635602591183
30
0
41
1
10
9.57660690242099
20
3.42420233033116
30
0
0
SPLINE
5
8C
100
AcDbEntity
8
1
62
256
6
ByLayer
370
-1
48
1
60
0
100
AcDbSpline
70
4
71
3
72
16
73
12
40
0
40
0
40
0
40
0
40
0.0668563731148061
40
0.0668563731148061
40
0.291501607187318
40
0.291501607187318
40
0.519124459613529
40
0.519124459613529
40
0.761313389573079
40
0.761313389573079
40
1
40
1
40
1
40
1
41
1
10
11.3601792645349
20
4.47480674165982
30
0
41
1
10
11.3573247398282
20
4.47965276297754
30
0
41
1
10
11.3542449485411
20
4.48437435513063
30
0
41
1
10
11.3400088987157
20
4.50416680871251
30
0
41
1
10
11.3265589279499
20
4.51782512119215
30
0
41
1
10
11.296805229972
20
4.54014287076981
30
0
41
1
10
11.2800961918051
20
4.54902977215741
30
0
41
1
10
11.2447888217594
20
4.56163723501476
30
0
41
1
10
11.2257024321388
20
4.56516774002151
30
0
41
1
10
11.1887425174125
20
4.56643205631616
30
0
41
1
10
11.1704732492491
20
4.5642771670006
30
0
41
1
10
11.1532897331834
20
4.55971336619589
30
0
0
SPLINE
5
8D
100
AcDbEntity
8
1
62
256
6
ByLayer
370
-1
48
1
60
0
100
AcDbSpline
70
4
71
3
72
16
73
12
40
0
40
0
40
0
40
0
40
0.0652326840049966
40
0.0652326840049966
40
0.289898584794707
40
0.289898584794707
40
0.517450972778468
40
0.517450972778468
40
0.759495158011921
40
0.759495158011921
40
1
40
1
40
1
40
1
41
1
10
9.56713799326545
20
4.45838984956427
30
0
41
1
10
9.56443936193315
20
4.45361047165736
30
0
41
1
10
9.56195077931048
20
4.44870489066943
30
0
41
1
10
9.55195280864703
20
4.42661397307387
30
0
41
1
10
9.54682359205313
20
4.40813907244845
30
0
41
1
10
9.54232529544126
20
4.37121545268994
30
0
41
1
10
9.54295897949854
20
4.35230172031493
30
0
41
1
10
9.54964531865264
20
4.31541892987707
30
0
41
1
10
9.55610448095351
20
4.29712103549591
30
0
41
1
10
9.57350826678871
20
4.26433588675366
30
0
41
1
10
9.58459297890002
20
4.24947333378512
30
0
41
1
10
9.59724160376814
20
4.23679069408828
30
0
0
SPLINE
5
8E
100
AcDbEntity
8
1
62
256
6
ByLayer
370
-1
48
1
60
0
100
AcDbSpline
70
4
71
3
72
16
73
12
40
0
40
0
40
0
40
0
40
0.0652326840049683
40
0.0652326840049683
40
0.289898584794669
40
0.289898584794669
40
0.517450972778387
40
0.517450972778387
40
0.759495158011823
40
0.759495158011823
40
1
40
1
40
1
40
1
41
1
10
11.3696481736905
20
3.44061922242668
30
0
41
1
10
11.3723468050227
20
3.44539860033359
30
0
41
1
10
11.3748353876454
20
3.45030418132151
30
0
41
1
10
11.3848333583089
20
3.47239509891708
30
0
41
1
10
11.3899625749028
20
3.4908699995425
30
0
41
1
10
11.3944608715146
20
3.52779361930101
30
0
41
1
10
11.3938271874574
20
3.54670735167602
30
0
41
1
10
11.3871408483033
20
3.58359014211388
30
0
41
1
10
11.3806816860024
20
3.60188803649504
30
0
41
1
10
11.3632779001672
20
3.63467318523729
30
0
41
1
10
11.3521931880558
20
3.64953573820586
30
0
41
1
10
11.3395445631877
20
3.66221837790269
30
0
0
SPLINE
5
8F
100
AcDbEntity
8
1
62
256
6
ByLayer
370
-1
48
1
60
0
100
AcDbSpline
70
4
71
3
72
18
73
14
40
0
40
0
40
0
40
0
40
0.213308050978107
40
0.213308050978107
40
0.388932752290885
40
0.388932752290885
40
0.566196729917835
40
0.566196729917835
40
0.721122426930008
40
0.721122426930008
40
0.92734777009828
40
0.92734777009828
40
1
40
1
40
1
40
1
41
1
10
11.3341382364934
20
4.25269353194119
30
0
41
1
10
11.3040992756761
20
4.22144996481973
30
0
41
1
10
11.2779241497531
20
4.18444044217179
30
0
41
1
10
11.2417241868459
20
4.109210508084
30
0
41
1
10
11.2293438556247
20
4.07146673613371
30
0
41
1
10
11.2157375120522
20
3.99307142142024
30
0
41
1
10
11.2145270312614
20
3.95122548398675
30
0
41
1
10
11.2232923271131
20
3.87615442616107
30
0
41
1
10
11.2319273200279
20
3.84160653432457
30
0
41
1
10
11.2601584182996
20
3.76760498826963
30
0
41
1
10
11.2827864963469
20
3.72897404948097
30
0
41
1
10
11.3189414061782
20
3.68399967224644
30
0
41
1
10
11.329005076667
20
3.67278620733279
30
0
41
1
10
11.3395445631877
20
3.66221837790269
30
0
0
SPLINE
5
90
100
AcDbEntity
8
1
62
256
6
ByLayer
370
-1
48
1
60
0
100
AcDbSpline
70
4
71
3
72
18
73
14
40
0
40
0
40
0
40
0
40
0.213392515133111
40
0.213392515133111
40
0.389002709918897
40
0.389002709918897
40
0.566251191328422
40
0.566251191328422
40
0.721174299304828
40
0.721174299304828
40
0.92741489359206
40
0.92741489359206
40
1
40
1
40
1
40
1
41
1
10
10.2973166008792
20
3.04829919073066
30
0
41
1
10
10.2853093297729
20
3.0899622938623
30
0
41
1
10
10.2663705852363
20
3.13116809041472
30
0
41
1
10
10.2193600251434
20
3.20018155451669
30
0
41
1
10
10.1928863876952
20
3.22979283350463
30
0
41
1
10
10.1318394330958
20
3.28081581987075
30
0
41
1
10
10.0962247115078
20
3.3028119897343
30
0
41
1
10
10.0268558996152
20
3.33280801506598
30
0
41
1
10
9.99262780943363
20
3.3426298932159
30
0
41
1
10
9.91443343900929
20
3.3552427097824
30
0
41
1
10
9.86966141947826
20
3.35499600754116
30
0
41
1
10
9.8126399928822
20
3.34621719520663
30
0
41
1
10
9.79790821879735
20
3.34312335758889
30
0
41
1
10
9.78349643377251
20
3.33929570579508
30
0
0
SPLINE
5
91
100
AcDbEntity
8
1
62
256
6
ByLayer
370
-1
48
1
60
0
100
AcDbSpline
70
4
71
3
72
12
73
8
40
0
40
0
40
0
40
0
40
0.46458825822022
40
0.46458825822022
40
0.846564626855571
40
0.846564626855571
40
1
40
1
40
1
40
1
41
1
10
9.77306188262224
20
4.5469158073154
30
0
41
1
10
9.81519448284118
20
4.53639241054915
30
0
41
1
10
9.86041099173704
20
4.53211589547246
30
0
41
1
10
9.94378227845681
20
4.53822181257192
30
0
41
1
10
9.98269679220201
20
4.5463006627765
30
0
41
1
10
10.035142207291
20
4.5654394091963
30
0
41
1
10
10.0501381394445
20
4.57190416431209
30
0
41
1
10
10.0647125588485
20
4.57922354796429
30
0
0
SPLINE
5
92
100
AcDbEntity
8
1
62
256
6
ByLayer
370
-1
48
1
60
0
100
AcDbSpline
70
4
71
3
72
14
73
10
40
0
40
0
40
0
40
0
40
0.282474137712517
40
0.282474137712517
40
0.569943911129879
40
0.569943911129879
40
0.830410576242212
40
0.830410576242212
40
1
40
1
40
1
40
1
41
1
10
10.6394695660765
20
4.85070988126114
30
0
41
1
10
10.6336512343421
20
4.87089846141009
30
0
41
1
10
10.6241255273529
20
4.89070431740862
30
0
41
1
10
10.598201856229
20
4.92630773818206
30
0
41
1
10
10.5812507144141
20
4.94255611256324
30
0
41
1
10
10.5440595766475
20
4.96646603787951
30
0
41
1
10
10.5236974937747
20
4.97511958374966
30
0
41
1
10
10.4888128935502
20
4.98302655989693
30
0
41
1
10
10.4744687377427
20
4.98458438659213
30
0
41
1
10
10.4602490975879
20
4.98447249467529
30
0
0
SPLINE
5
93
100
AcDbEntity
8
1
62
256
6
ByLayer
370
-1
48
1
60
0
100
AcDbSpline
70
4
71
3
72
12
73
8
40
0
40
0
40
0
40
0
40
0.377026877665593
40
0.377026877665593
40
0.761057556567311
40
0.761057556567311
40
1
40
1
40
1
40
1
41
1
10
10.1133366274961
20
4.60786531327921
30
0
41
1
10
10.1459675954651
20
4.63015291158618
30
0
41
1
10
10.1754912939143
20
4.65729324099041
30
0
41
1
10
10.2246589917151
20
4.71642108107875
30
0
41
1
10
10.2448479643015
20
4.74922542532343
30
0
41
1
10
10.2695108287711
20
4.80391267672215
30
0
41
1
10
10.2771637967494
20
4.82551080974926
30
0
41
1
10
10.2829886677466
20
4.84728563883226
30
0
0
SPLINE
5
94
100
AcDbEntity
8
1
62
256
6
ByLayer
370
-1
48
1
60
0
100
AcDbSpline
70
4
71
3
72
12
73
8
40
0
40
0
40
0
40
0
40
0.464588258220416
40
0.464588258220416
40
0.846564626855844
40
0.846564626855844
40
1
40
1
40
1
40
1
41
1
10
11.1637242843337
20
3.35209326467557
30
0
41
1
10
11.1215916841147
20
3.36261666144182
30
0
41
1
10
11.0763751752189
20
3.36689317651852
30
0
41
1
10
10.9930038884991
20
3.36078725941903
30
0
41
1
10
10.9540893747539
20
3.35270840921447
30
0
41
1
10
10.9016439596648
20
3.33356966279465
30
0
41
1
10
10.8866480275113
20
3.32710490767886
30
0
41
1
10
10.8720736081072
20
3.3197855240266
30
0
0
SPLINE
5
95
100
AcDbEntity
8
1
62
256
6
ByLayer
370
-1
48
1
60
0
100
AcDbSpline
70
4
71
3
72
18
73
14
40
0
40
0
40
0
40
0
40
0.213392515134185
40
0.213392515134185
40
0.389002709919734
40
0.389002709919734
40
0.56625119132903
40
0.56625119132903
40
0.721174299305216
40
0.721174299305216
40
0.927414893592182
40
0.927414893592182
40
1
40
1
40
1
40
1
41
1
10
10.6394695660765
20
4.85070988126114
30
0
41
1
10
10.6514768371827
20
4.80904677812921
30
0
41
1
10
10.6704155817194
20
4.76784098157648
30
0
41
1
10
10.7174261418125
20
4.69882751747429
30
0
41
1
10
10.7438997792607
20
4.66921623848634
30
0
41
1
10
10.8049467338601
20
4.61819325212022
30
0
41
1
10
10.8405614554481
20
4.59619708225668
30
0
41
1
10
10.9099302673407
20
4.566201056925
30
0
41
1
10
10.9441583575223
20
4.55637917877507
30
0
41
1
10
11.0223527279466
20
4.54376636220857
30
0
41
1
10
11.0671247474777
20
4.54401306444981
30
0
41
1
10
11.1241461740737
20
4.55279187678434
30
0
41
1
10
11.1388779481585
20
4.55588571440208
30
0
41
1
10
11.1532897331834
20
4.55971336619589
30
0
0
LINE
5
4C
100
AcDbEntity
8
80
62
256
6
ByLayer
370
-1
48
1
60
0
100
AcDbLine
10
0
20
0
30
0
11
-5
21
0
31
0
39
0
210
0
220
0
230
1
0
LINE
5
4D
100
AcDbEntity
8
81
62
256
6
ByLayer
370
-1
48
1
60
0
100
AcDbLine
10
16.049287
20
7.4
30
0
11
26.049287
21
7.4
31
0
39
0
210
0
220
0
230
1
0
LINE
5
4E
100
AcDbEntity
8
1
62
256
6
ByLayer
370
-1
48
1
60
0
100
AcDbLine
10
9.359121
20
-4.949428
30
0
11
11.828543
21
-0.997528
31
0
39
0
210
0
220
0
230
1
0
LINE
5
50
100
AcDbEntity
8
1
62
256
6
ByLayer
370
-1
48
1
60
0
100
AcDbLine
10
1
20
4.95
30
0
11
0
21
4.95
31
0
39
0
210
0
220
0
230
1
0
LINE
5
51
100
AcDbEntity
8
1
62
256
6
ByLayer
370
-1
48
1
60
0
100
AcDbLine
10
0
20
4.95
30
0
11
0
21
-4.949428
31
0
39
0
210
0
220
0
230
1
0
LINE
5
52
100
AcDbEntity
8
1
62
256
6
ByLayer
370
-1
48
1
60
0
100
AcDbLine
10
7.431875
20
-0.045303
30
0
11
7.855867
21
0.633226
31
0
39
0
210
0
220
0
230
1
0
LINE
5
53
100
AcDbEntity
8
1
62
256
6
ByLayer
370
-1
48
1
60
0
100
AcDbLine
10
7.431875
20
-0.045303
30
0
11
7.351963
21
0.004631
31
0
39
0
210
0
220
0
230
1
0
LINE
5
54
100
AcDbEntity
8
1
62
256
6
ByLayer
370
-1
48
1
60
0
100
AcDbLine
10
8.269625
20
6.813355
30
0
11
2.564354
21
6.514354
31
0
39
0
210
0
220
0
230
1
0
LINE
5
55
100
AcDbEntity
8
1
62
256
6
ByLayer
370
-1
48
1
60
0
100
AcDbLine
10
7.351963
20
0.004631
30
0
11
7.740988
21
0.627201
31
0
39
0
210
0
220
0
230
1
0
LINE
5
56
100
AcDbEntity
8
1
62
256
6
ByLayer
370
-1
48
1
60
0
100
AcDbLine
10
0
20
-4.949428
30
0
11
9.359121
21
-4.949428
31
0
39
0
210
0
220
0
230
1
0
LINE
5
57
100
AcDbEntity
8
1
62
256
6
ByLayer
370
-1
48
1
60
0
100
AcDbLine
10
2.564354
20
6.514354
30
0
11
1
21
4.95
31
0
39
0
210
0
220
0
230
1
0
LINE
5
58
100
AcDbEntity
8
SK1
62
256
6
ByLayer
370
-1
48
1
60
0
100
AcDbLine
10
0
20
4.95
30
0
11
-0.131
21
4.95
31
0
39
0
210
0
220
0
230
1
0
LINE
5
5A
100
AcDbEntity
8
SK1
62
256
6
ByLayer
370
-1
48
1
60
0
100
AcDbLine
10
-55.300713
20
4.95
30
0
11
-55.300713
21
-4.95
31
0
39
0
210
0
220
0
230
1
0
LINE
5
5B
100
AcDbEntity
8
SK1
62
256
6
ByLayer
370
-1
48
1
60
0
100
AcDbLine
10
-0.131
20
4.95
30
0
11
-0.131
21
-4.95
31
0
39
0
210
0
220
0
230
1
0
LINE
5
5C
100
AcDbEntity
8
SK1
62
256
6
ByLayer
370
-1
48
1
60
0
100
AcDbLine
10
-55.300713
20
-4.95
30
0
11
-0.131
21
-4.95
31
0
39
0
210
0
220
0
230
1
0
LINE
5
5D
100
AcDbEntity
8
SK1
62
256
6
ByLayer
370
-1
48
1
60
0
100
AcDbLine
10
0
20
4.95
30
0
11
0
21
-4.949428
31
0
39
0
210
0
220
0
230
1
0
LINE
5
5E
100
AcDbEntity
8
SK1
62
256
6
ByLayer
370
-1
48
1
60
0
100
AcDbLine
10
-0.131
20
-4.95
30
0
11
0
21
-4.949428
31
0
39
0
210
0
220
0
230
1
0
LINE
5
5F
100
AcDbEntity
8
1
62
256
6
ByLayer
370
-1
48
1
60
0
100
AcDbLine
10
8.54221
20
6.858446
30
0
11
4.947805
21
1.106196
31
0
39
0
210
0
220
0
230
1
0
LINE
5
60
100
AcDbEntity
8
1
62
256
6
ByLayer
370
-1
48
1
60
0
100
AcDbLine
10
12.394576
20
1.040563
30
0
11
15.988981
21
6.792813
31
0
39
0
210
0
220
0
230
1
0
LINE
5
61
100
AcDbEntity
8
1
62
256
6
ByLayer
370
-1
48
1
60
0
100
AcDbLine
10
5.305145
20
0.499553
30
0
11
12.078778
21
0.854544
31
0
39
0
210
0
220
0
230
1
0
LINE
5
62
100
AcDbEntity
8
SK1
62
256
6
ByLayer
370
-1
48
1
60
0
100
AcDbLine
10
-0.131
20
4.95
30
0
11
-55.300713
21
4.95
31
0
39
0
210
0
220
0
230
1
0
LINE
5
63
100
AcDbEntity
8
1
62
256
6
ByLayer
370
-1
48
1
60
0
100
AcDbLine
10
15.631641
20
7.399456
30
0
11
8.858008
21
7.044465
31
0
39
0
210
0
220
0
230
1
0
MTEXT
5
96
100
AcDbEntity
8
SK6
62
256
6
ByLayer
370
-1
48
1
60
0
100
AcDbMText
10
-30.133107
20
-13.425493
30
0
210
0
220
0
230
1
1
\W00.711;\fsimplex.shx,bigfont.shx;SDJCR 1010E 07 
40
3.5
41
0
44
1.084337
50
0
71
7
72
5
7
DEFAULT
0
DIMENSION
5
C9
100
AcDbEntity
8
2
62
256
6
ByLayer
370
-3
48
1
60
0
100
AcDbDimension
2
DimnDraft3D1
10
1.613621
20
6.664803
30
0
11
0.996768
21
12.922528
31
0
70
34
71
5
72
1
41
1
210
0
220
0
230
1
3
Standard
100
AcDb2LineAngularDimension
13
16.049287
23
9.4
33
0
14
16.049287
24
21.876821
34
0
15
12.635753
25
7.242448
35
0
16
3.750218
26
19.092724
36
0
40
0
0
DIMENSION
5
DE
100
AcDbEntity
8
SK2
62
256
6
ByLayer
370
-3
48
1
60
0
100
AcDbDimension
2
DimnDraft3D2
10
-65.050713
20
4.95
30
0
11
-65.050713
21
-2.066447
31
0
70
32
71
5
72
1
41
1
210
0
220
0
230
1
3
Standard
100
AcDbAlignedDimension
13
-57.300713
23
-4.95
33
0
14
-57.300713
24
4.95
34
0
50
90
100
AcDbRotatedDimension
1001
ACAD
1000
DSTYLE
1002
{
1070
    74
1070
     0
1070
   279
1070
     0
1070
   172
1070
     1
1070
   173
1070
     1
1070
   340
1005
97
1070
    77
1070
     1
1070
    73
1070
     0
1070
   171
1070
     3
1070
   274
1070
     4
1070
   177
1070
     2
1070
   176
1070
     2
1070
   178
1070
     7
1070
    78
1070
     8
1070
    41
1041
3.175
1070
   147
1041
2.25
1070
    42
1041
2.0
1070
    44
1041
2.0
1070
   140
1041
4.5
1070
   343
1005
CA
1070
   344
1005
CA
1002
}
0
DIMENSION
5
EC
100
AcDbEntity
8
2
62
256
6
ByLayer
370
-3
48
1
60
0
100
AcDbDimension
2
DimnDraft3D3
10
43.299287
20
7.4
30
0
11
43.299287
21
-0.841447
31
0
70
32
71
5
72
1
41
1
210
0
220
0
230
1
3
Standard
100
AcDbAlignedDimension
13
2
23
-4.95
33
0
14
18.049287
24
7.4
34
0
50
90
100
AcDbRotatedDimension
1001
ACAD
1000
DSTYLE
1002
{
1070
    74
1070
     0
1070
   279
1070
     0
1070
   172
1070
     1
1070
   173
1070
     1
1070
   340
1005
97
1070
    77
1070
     1
1070
    73
1070
     0
1070
   171
1070
     3
1070
   274
1070
     4
1070
   177
1070
     2
1070
   176
1070
     2
1070
   178
1070
     7
1070
    78
1070
     8
1070
    41
1041
3.175
1070
   147
1041
2.25
1070
    42
1041
2.0
1070
    44
1041
2.0
1070
   140
1041
4.5
1070
   343
1005
CA
1070
   344
1005
CA
1002
}
0
DIMENSION
5
FA
100
AcDbEntity
8
SK2
62
256
6
ByLayer
370
-3
48
1
60
0
100
AcDbDimension
2
DimnDraft3D4
10
-55.300713
20
27.15
30
0
11
-22.25466
21
27.15
31
0
70
32
71
5
72
1
41
1
210
0
220
0
230
1
3
Standard
100
AcDbAlignedDimension
13
16.049287
23
9.4
33
0
14
-55.300713
24
6.95
34
0
50
0
100
AcDbRotatedDimension
1001
ACAD
1000
DSTYLE
1002
{
1070
   279
1070
     0
1070
   172
1070
     1
1070
   173
1070
     1
1070
   340
1005
97
1070
    77
1070
     1
1070
    73
1070
     0
1070
   171
1070
     3
1070
   274
1070
     4
1070
   177
1070
     2
1070
   176
1070
     2
1070
   178
1070
     7
1070
    78
1070
     8
1070
    41
1041
3.175
1070
   147
1041
2.25
1070
    42
1041
2.0
1070
    44
1041
2.0
1070
   140
1041
4.5
1070
   343
1005
CA
1070
   344
1005
CA
1002
}
0
ENDSEC
0
SECTION
2
OBJECTS
0
DICTIONARY
5
12a
330
0
100
AcDbDictionary
280
0
281
1
3
ACAD_GROUP
350
12b
3
ACAD_MLINESTYLE
350
12c
0
DICTIONARY
5
12b
330
0
100
AcDbDictionary
280
0
281
1
0
DICTIONARY
5
12c
330
0
100
AcDbDictionary
280
0
281
1
3
Standard
350
18
0
MLINESTYLE
5
18
330
12c
100
AcDbMlineStyle
2
Standard
70
0
3

62
256
51
90
52
90
71
2
49
-0.5
62
256
6
ByLayer
49
0.5
62
256
6
ByLayer
0
RASTERVARIABLES
5
119
330

100
AcDbRasterVariables
90
0
70
1
71
1
72
1
0
ENDSEC
0
EOF
