0
SECTION
2
HEADER
9
$ACADVER
1
AC1015
9
$DWGCODEPAGE
3
ANSI_1252
9
$HANDSEED
5
137
9
$ANGBASE
50
0
9
$ANGDIR
70
0
9
$ATTMODE
70
1
9
$AUNITS
70
0
9
$AUPREC
70
0
9
$CECOLOR
62
256
9
$CELTSCALE
40
1
9
$CELTYPE
6
ByLayer
9
$CELWEIGHT
370
-1
9
$CLAYER
8
0
9
$CMLJUST
70
0
9
$CMLSCALE
40
1
9
$CMLSTYLE
2
Standard
9
$DIMSTYLE
2
Standard
9
$TEXTSIZE
40
0.2
9
$TEXTSTYLE
7
Standard
9
$LUNITS
70
2
9
$LUPREC
70
4
9
$EXTNAMES
290
1
9
$INSUNITS
70
4
9
$LTSCALE
40
1
9
$LWDISPLAY
290
0
9
$PDMODE
70
0
9
$PDSIZE
40
0
9
$PLINEGEN
70
0
0
ENDSEC
0
SECTION
2
CLASSES
0
CLASS
1
RASTERVARIABLES
2
AcDbRasterVariables
3
ISM
90
0
280
0
281
0
0
ENDSEC
0
SECTION
2
TABLES
0
TABLE
2
VPORT
5
12d
100
AcDbSymbolTable
0
VPORT
5
1
100
AcDbSymbolTableRecord
100
AcDbViewportTableRecord
2
*Active
70
0
10
0
20
0
11
1
21
1
12
-1
22
1
13
0
23
0
14
0.5
24
0.5
15
10
25
10
16
0
26
0
36
1
17
0
27
0
37
0
0
ENDTAB
0
TABLE
2
LTYPE
5
12e
100
AcDbSymbolTable
0
LTYPE
5
14
100
AcDbSymbolTableRecord
100
AcDbLinetypeTableRecord
70
0
2
ByBlock
3

72
65
73
0
40
0
0
LTYPE
5
15
100
AcDbSymbolTableRecord
100
AcDbLinetypeTableRecord
70
0
2
ByLayer
3

72
65
73
0
40
0
0
LTYPE
5
16
100
AcDbSymbolTableRecord
100
AcDbLinetypeTableRecord
70
0
2
CONTINUOUS
3
Solid line
72
65
73
0
40
0
0
LTYPE
5
3B
100
AcDbSymbolTableRecord
100
AcDbLinetypeTableRecord
70
0
2
DASHED
3
__ __ __ __ __ __ __ __ __
72
65
73
2
40
25.72
49
12.86
74
0
49
-12.86
74
0
0
LTYPE
5
3C
100
AcDbSymbolTableRecord
100
AcDbLinetypeTableRecord
70
0
2
HIDDEN
3
_ _ _ _ _ _ _ _ _ _ _ _ _ _ _
72
65
73
2
40
0.5
49
0.25
74
0
49
-0.25
74
0
0
LTYPE
5
3D
100
AcDbSymbolTableRecord
100
AcDbLinetypeTableRecord
70
0
2
PHANTOM
3
____ _ _ ____ _ _ _____ _ _ ____
72
65
73
6
40
50.5
49
18
74
0
49
-6.5
74
0
49
6.5
74
0
49
-6.5
74
0
49
6.5
74
0
49
-6.5
74
0
0
LTYPE
5
3E
100
AcDbSymbolTableRecord
100
AcDbLinetypeTableRecord
70
0
2
CENTER
3
____ _ ____ _ ____ _ ____
72
65
73
4
40
47.5
49
22
74
0
49
-8.5
74
0
49
8.5
74
0
49
-8.5
74
0
0
LTYPE
5
3F
100
AcDbSymbolTableRecord
100
AcDbLinetypeTableRecord
70
0
2
DOT
3
.........................
72
65
73
2
40
10
49
0
74
0
49
-10
74
0
0
LTYPE
5
40
100
AcDbSymbolTableRecord
100
AcDbLinetypeTableRecord
70
0
2
DASHDOT
3
_._._._._._._._._._._._._._._._.
72
65
73
4
40
70
49
31
74
0
49
-13
74
0
49
13
74
0
49
-13
74
0
0
ENDTAB
0
TABLE
2
LAYER
5
12f
100
AcDbSymbolTable
0
LAYER
5
10
100
AcDbSymbolTableRecord
100
AcDbLayerTableRecord
2
0
70
0
62
7
6
CONTINUOUS
290
1
370
-3
390
0
0
LAYER
5
42
100
AcDbSymbolTableRecord
100
AcDbLayerTableRecord
2
80
70
0
62
-6
6
CONTINUOUS
290
1
370
-3
390
0
0
LAYER
5
46
100
AcDbSymbolTableRecord
100
AcDbLayerTableRecord
2
2
70
0
62
7
6
CONTINUOUS
290
1
370
-3
390
0
0
LAYER
5
48
100
AcDbSymbolTableRecord
100
AcDbLayerTableRecord
2
81
70
0
62
-3
6
CONTINUOUS
290
1
370
-3
390
0
0
LAYER
5
4F
100
AcDbSymbolTableRecord
100
AcDbLayerTableRecord
2
1
70
0
62
4
6
CONTINUOUS
290
1
370
-3
390
0
0
LAYER
5
11a
100
AcDbSymbolTableRecord
100
AcDbLayerTableRecord
2
SK2
70
0
62
7
6
CONTINUOUS
290
1
370
-3
390
0
0
LAYER
5
11b
100
AcDbSymbolTableRecord
100
AcDbLayerTableRecord
2
SK1
70
0
62
4
6
CONTINUOUS
290
1
370
-3
390
0
0
LAYER
5
11c
100
AcDbSymbolTableRecord
100
AcDbLayerTableRecord
2
SK6
70
0
62
5
6
CONTINUOUS
290
1
370
-3
390
0
0
ENDTAB
0
TABLE
2
STYLE
5
130
100
AcDbSymbolTable
0
STYLE
5
11
100
AcDbSymbolTableRecord
100
AcDbTextStyleTableRecord
2
Standard
3
txt
70
0
71
0
40
0
41
1
42
0
50
0
0
STYLE
5
97
100
AcDbSymbolTableRecord
100
AcDbTextStyleTableRecord
2
DEFAULT
3
simplex.shx
70
0
71
0
40
0
41
1
42
0
50
0
0
STYLE
5
BA
100
AcDbSymbolTableRecord
100
AcDbTextStyleTableRecord
2
DWGDirectTextStyle
3
SIMPLEX
70
0
71
0
40
0
41
1
42
0
50
0
0
ENDTAB
0
TABLE
2
DIMSTYLE
5
131
100
AcDbSymbolTable
100
AcDbDimStyleTable
0
DIMSTYLE
105
27
100
AcDbSymbolTableRecord
100
AcDbDimStyleTableRecord
2
Standard
70
0
3
<>
41
0.18
42
0.0625
44
0.18
140
0.18
147
0.09
73
0
74
0
77
1
271
2
275
0
278
52
280
0
340
11
0
ENDTAB
0
TABLE
2
VIEW
5
132
100
AcDbSymbolTable
0
ENDTAB
0
TABLE
2
UCS
5
133
100
AcDbSymbolTable
0
ENDTAB
0
TABLE
2
APPID
5
134
100
AcDbSymbolTable
0
APPID
5
12
100
AcDbSymbolTableRecord
100
AcDbRegAppTableRecord
2
ACAD
70
0
0
ENDTAB
0
TABLE
2
BLOCK_RECORD
5
135
100
AcDbSymbolTable
0
BLOCK_RECORD
5
1F
100
AcDbSymbolTableRecord
100
AcDbBlockTableRecord
2
*Model_Space
340
0
70
0
0
BLOCK_RECORD
5
1B
100
AcDbSymbolTableRecord
100
AcDbBlockTableRecord
2
*Paper_Space
340
0
70
0
0
BLOCK_RECORD
5
23
100
AcDbSymbolTableRecord
100
AcDbBlockTableRecord
2
*Paper_Space0
340
0
70
0
0
BLOCK_RECORD
5
BC
100
AcDbSymbolTableRecord
100
AcDbBlockTableRecord
2
DimnDraft3D11
340
0
70
0
0
BLOCK_RECORD
5
CA
100
AcDbSymbolTableRecord
100
AcDbBlockTableRecord
2
DimnDraft3D2
340
0
70
0
0
BLOCK_RECORD
5
D8
100
AcDbSymbolTableRecord
100
AcDbBlockTableRecord
2
_CLOSED
340
0
70
0
0
BLOCK_RECORD
5
DF
100
AcDbSymbolTableRecord
100
AcDbBlockTableRecord
2
DimnDraft3D3
340
0
70
0
0
BLOCK_RECORD
5
ED
100
AcDbSymbolTableRecord
100
AcDbBlockTableRecord
2
DimnDraft3D4
340
0
70
0
0
ENDTAB
0
ENDSEC
0
SECTION
2
BLOCKS
0
BLOCK
5
20
100
AcDbEntity
8
0
100
AcDbBlockBegin
2
*Model_Space
70
0
10
0
20
0
30
0
3
*Model_Space
0
ENDBLK
5
21
100
AcDbEntity
8
0
100
AcDbBlockEnd
0
BLOCK
5
1C
100
AcDbEntity
8
0
100
AcDbBlockBegin
2
*Paper_Space
70
0
10
0
20
0
30
0
3
*Paper_Space
0
ENDBLK
5
1D
100
AcDbEntity
8
0
100
AcDbBlockEnd
0
BLOCK
5
24
100
AcDbEntity
8
0
100
AcDbBlockBegin
2
*Paper_Space0
70
0
10
0
20
0
30
0
3
*Paper_Space0
0
ENDBLK
5
25
100
AcDbEntity
8
0
100
AcDbBlockEnd
0
BLOCK
5
BD
100
AcDbEntity
8
0
100
AcDbBlockBegin
2
DimnDraft3D11
70
0
10
0
20
0
30
0
3
DimnDraft3D11
0
LINE
5
BF
100
AcDbEntity
8
SK2
62
256
6
ByLayer
370
-1
48
1
60
0
100
AcDbLine
10
21.861674
20
-17.4125
30
0
11
21.861674
21
-41.6625
31
0
39
0
210
0
220
0
230
1
0
LINE
5
C0
100
AcDbEntity
8
SK2
62
256
6
ByLayer
370
-1
48
1
60
0
100
AcDbLine
10
-104.488326
20
-11.9375
30
0
11
-104.488326
21
-41.6625
31
0
39
0
210
0
220
0
230
1
0
LINE
5
C1
100
AcDbEntity
8
SK2
62
256
6
ByLayer
370
-1
48
1
60
0
100
AcDbLine
10
21.861674
20
-39.6625
30
0
11
-104.488326
21
-39.6625
31
0
39
0
210
0
220
0
230
1
0
LINE
5
C2
100
AcDbEntity
8
SK2
62
256
6
ByLayer
370
-1
48
1
60
0
100
AcDbLine
10
21.861674
20
-39.6625
30
0
11
18.686676
21
-40.080497
31
0
39
0
210
0
220
0
230
1
0
LINE
5
C3
100
AcDbEntity
8
SK2
62
256
6
ByLayer
370
-1
48
1
60
0
100
AcDbLine
10
21.861674
20
-39.6625
30
0
11
18.686673
21
-39.244503
31
0
39
0
210
0
220
0
230
1
0
LINE
5
C4
100
AcDbEntity
8
SK2
62
256
6
ByLayer
370
-1
48
1
60
0
100
AcDbLine
10
18.686676
20
-40.080497
30
0
11
18.686673
21
-39.244503
31
0
39
0
210
0
220
0
230
1
0
LINE
5
C5
100
AcDbEntity
8
SK2
62
256
6
ByLayer
370
-1
48
1
60
0
100
AcDbLine
10
-104.488326
20
-39.6625
30
0
11
-101.313327
21
-39.244503
31
0
39
0
210
0
220
0
230
1
0
LINE
5
C6
100
AcDbEntity
8
SK2
62
256
6
ByLayer
370
-1
48
1
60
0
100
AcDbLine
10
-104.488326
20
-39.6625
30
0
11
-101.313324
21
-40.080497
31
0
39
0
210
0
220
0
230
1
0
LINE
5
C7
100
AcDbEntity
8
SK2
62
256
6
ByLayer
370
-1
48
1
60
0
100
AcDbLine
10
-101.313327
20
-39.244503
30
0
11
-101.313324
21
-40.080497
31
0
39
0
210
0
220
0
230
1
0
MTEXT
5
C8
100
AcDbEntity
8
SK2
62
256
6
ByLayer
370
-1
48
1
60
0
100
AcDbMText
10
-43.906747
20
-38.5375
30
0
210
0
220
0
230
1
1
\W00.604;\fsimplex.shx,bigfont.shx;125 
40
4.5
41
0
44
1.084337
50
0
71
7
72
5
7
DEFAULT
0
ENDBLK
5
BE
100
AcDbEntity
8
0
100
AcDbBlockEnd
0
BLOCK
5
D5
100
AcDbEntity
8
0
100
AcDbBlockBegin
2
DimnDraft3D2
70
0
10
0
20
0
30
0
3
DimnDraft3D2
0
MTEXT
5
CB
100
AcDbEntity
8
2
62
256
6
ByLayer
370
-1
48
1
60
0
100
AcDbMText
10
3.514256
20
-25.634038
30
0
210
0
220
0
230
1
1
\W01.000;\fsimplex.shx,bigfont.shx;93%%d0' 
40
4.5
41
0
44
1.084337
50
313.5
71
7
72
5
7
DEFAULT
0
LINE
5
CC
100
AcDbEntity
8
2
62
256
6
ByLayer
370
-1
48
1
60
0
100
AcDbLine
10
21.861674
20
-17.4125
30
0
11
21.861674
21
-38.895593
31
0
39
0
210
0
220
0
230
1
0
LINE
5
CD
100
AcDbEntity
8
2
62
256
6
ByLayer
370
-1
48
1
60
0
100
AcDbLine
10
18.030494
20
-15.254404
30
0
11
-1.546606
21
-14.228412
31
0
39
0
210
0
220
0
230
1
0
ARC
5
CE
100
AcDbEntity
8
2
62
256
6
ByLayer
370
-1
48
1
60
0
100
AcDbCircle
39
0
10
21.861674
20
-15.455188
30
0
40
21.440404685267
210
0
220
0
230
1
100
AcDbArc
50
177
51
270
0
LINE
5
CF
100
AcDbEntity
8
2
62
256
6
ByLayer
370
-1
48
1
60
0
100
AcDbLine
10
21.861674
20
-36.895593
30
0
11
18.6734
21
-37.196002
31
0
39
0
210
0
220
0
230
1
0
LINE
5
D0
100
AcDbEntity
8
2
62
256
6
ByLayer
370
-1
48
1
60
0
100
AcDbLine
10
21.861674
20
-36.895593
30
0
11
18.704283
21
-36.36058
31
0
39
0
210
0
220
0
230
1
0
LINE
5
D1
100
AcDbEntity
8
2
62
256
6
ByLayer
370
-1
48
1
60
0
100
AcDbLine
10
18.6734
20
-37.196002
30
0
11
18.704283
21
-36.36058
31
0
39
0
210
0
220
0
230
1
0
LINE
5
D2
100
AcDbEntity
8
2
62
256
6
ByLayer
370
-1
48
1
60
0
100
AcDbLine
10
0.450653
20
-14.333084
30
0
11
0.819688
21
-17.514145
31
0
39
0
210
0
220
0
230
1
0
LINE
5
D3
100
AcDbEntity
8
2
62
256
6
ByLayer
370
-1
48
1
60
0
100
AcDbLine
10
0.450653
20
-14.333084
30
0
11
-0.016207
21
-17.501269
31
0
39
0
210
0
220
0
230
1
0
LINE
5
D4
100
AcDbEntity
8
2
62
256
6
ByLayer
370
-1
48
1
60
0
100
AcDbLine
10
0.819688
20
-17.514145
30
0
11
-0.016207
21
-17.501269
31
0
39
0
210
0
220
0
230
1
0
ENDBLK
5
D6
100
AcDbEntity
8
0
100
AcDbBlockEnd
0
BLOCK
5
D9
100
AcDbEntity
8
0
100
AcDbBlockBegin
2
_CLOSED
70
0
10
0
20
0
30
0
3
_CLOSED
0
LINE
5
DB
100
AcDbEntity
8
0
62
256
6
ByLayer
370
-2
48
1
60
0
100
AcDbLine
10
-1
20
0.166667
30
0
11
0
21
0
31
0
39
0
210
0
220
0
230
1
0
LINE
5
DC
100
AcDbEntity
8
0
62
256
6
ByLayer
370
-2
48
1
60
0
100
AcDbLine
10
0
20
0
30
0
11
-1
21
-0.166667
31
0
39
0
210
0
220
0
230
1
0
LINE
5
DD
100
AcDbEntity
8
0
62
256
6
ByLayer
370
-2
48
1
60
0
100
AcDbLine
10
-1
20
0.166667
30
0
11
-1
21
-0.166667
31
0
39
0
210
0
220
0
230
1
0
LINE
5
DE
100
AcDbEntity
8
0
62
256
6
ByLayer
370
-2
48
1
60
0
100
AcDbLine
10
0
20
0
30
0
11
-1
21
0
31
0
39
0
210
0
220
0
230
1
0
ENDBLK
5
DA
100
AcDbEntity
8
0
100
AcDbBlockEnd
0
BLOCK
5
EA
100
AcDbEntity
8
0
100
AcDbBlockBegin
2
DimnDraft3D3
70
0
10
0
20
0
30
0
3
DimnDraft3D3
0
MTEXT
5
E0
100
AcDbEntity
8
2
62
256
6
ByLayer
370
-1
48
1
60
0
100
AcDbMText
10
47.986674
20
-4.241447
30
0
210
0
220
0
230
1
1
\W01.000;\fsimplex.shx,bigfont.shx;25 
40
4.5
41
0
44
1.084337
50
90
71
7
72
5
7
DEFAULT
0
LINE
5
E1
100
AcDbEntity
8
2
62
256
6
ByLayer
370
-1
48
1
60
0
100
AcDbLine
10
2
20
9.9375
30
0
11
51.111674
21
9.9375
31
0
39
0
210
0
220
0
230
1
0
LINE
5
E2
100
AcDbEntity
8
2
62
256
6
ByLayer
370
-1
48
1
60
0
100
AcDbLine
10
23.861674
20
-15.4125
30
0
11
51.111674
21
-15.4125
31
0
39
0
210
0
220
0
230
1
0
LINE
5
E3
100
AcDbEntity
8
2
62
256
6
ByLayer
370
-1
48
1
60
0
100
AcDbLine
10
49.111674
20
9.9375
30
0
11
49.111674
21
-15.4125
31
0
39
0
210
0
220
0
230
1
0
LINE
5
E4
100
AcDbEntity
8
2
62
256
6
ByLayer
370
-1
48
1
60
0
100
AcDbLine
10
49.111674
20
9.9375
30
0
11
49.529671
21
6.762502
31
0
39
0
210
0
220
0
230
1
0
LINE
5
E5
100
AcDbEntity
8
2
62
256
6
ByLayer
370
-1
48
1
60
0
100
AcDbLine
10
49.111674
20
9.9375
30
0
11
48.693677
21
6.762498
31
0
39
0
210
0
220
0
230
1
0
LINE
5
E6
100
AcDbEntity
8
2
62
256
6
ByLayer
370
-1
48
1
60
0
100
AcDbLine
10
49.529671
20
6.762502
30
0
11
48.693677
21
6.762498
31
0
39
0
210
0
220
0
230
1
0
LINE
5
E7
100
AcDbEntity
8
2
62
256
6
ByLayer
370
-1
48
1
60
0
100
AcDbLine
10
49.111674
20
-15.4125
30
0
11
48.693677
21
-12.237502
31
0
39
0
210
0
220
0
230
1
0
LINE
5
E8
100
AcDbEntity
8
2
62
256
6
ByLayer
370
-1
48
1
60
0
100
AcDbLine
10
49.111674
20
-15.4125
30
0
11
49.529671
21
-12.237498
31
0
39
0
210
0
220
0
230
1
0
LINE
5
E9
100
AcDbEntity
8
2
62
256
6
ByLayer
370
-1
48
1
60
0
100
AcDbLine
10
48.693677
20
-12.237502
30
0
11
49.529671
21
-12.237498
31
0
39
0
210
0
220
0
230
1
0
ENDBLK
5
EB
100
AcDbEntity
8
0
100
AcDbBlockEnd
0
BLOCK
5
F8
100
AcDbEntity
8
0
100
AcDbBlockBegin
2
DimnDraft3D4
70
0
10
0
20
0
30
0
3
DimnDraft3D4
0
MTEXT
5
EE
100
AcDbEntity
8
SK2
62
256
6
ByLayer
370
-1
48
1
60
0
100
AcDbMText
10
-115.363326
20
-1.503947
30
0
210
0
220
0
230
1
1
\W01.000;\fsimplex.shx,bigfont.shx;20 
40
4.5
41
0
44
1.084337
50
90
71
7
72
5
7
DEFAULT
0
LINE
5
EF
100
AcDbEntity
8
SK2
62
256
6
ByLayer
370
-1
48
1
60
0
100
AcDbLine
10
-106.488326
20
9.9375
30
0
11
-116.238326
21
9.9375
31
0
39
0
210
0
220
0
230
1
0
LINE
5
F0
100
AcDbEntity
8
SK2
62
256
6
ByLayer
370
-1
48
1
60
0
100
AcDbLine
10
-106.488326
20
-9.9375
30
0
11
-116.238326
21
-9.9375
31
0
39
0
210
0
220
0
230
1
0
LINE
5
F1
100
AcDbEntity
8
SK2
62
256
6
ByLayer
370
-1
48
1
60
0
100
AcDbLine
10
-114.238326
20
9.9375
30
0
11
-114.238326
21
-9.9375
31
0
39
0
210
0
220
0
230
1
0
LINE
5
F2
100
AcDbEntity
8
SK2
62
256
6
ByLayer
370
-1
48
1
60
0
100
AcDbLine
10
-114.238326
20
9.9375
30
0
11
-113.820329
21
6.762502
31
0
39
0
210
0
220
0
230
1
0
LINE
5
F3
100
AcDbEntity
8
SK2
62
256
6
ByLayer
370
-1
48
1
60
0
100
AcDbLine
10
-114.238326
20
9.9375
30
0
11
-114.656323
21
6.762498
31
0
39
0
210
0
220
0
230
1
0
LINE
5
F4
100
AcDbEntity
8
SK2
62
256
6
ByLayer
370
-1
48
1
60
0
100
AcDbLine
10
-113.820329
20
6.762502
30
0
11
-114.656323
21
6.762498
31
0
39
0
210
0
220
0
230
1
0
LINE
5
F5
100
AcDbEntity
8
SK2
62
256
6
ByLayer
370
-1
48
1
60
0
100
AcDbLine
10
-114.238326
20
-9.9375
30
0
11
-114.656323
21
-6.762502
31
0
39
0
210
0
220
0
230
1
0
LINE
5
F6
100
AcDbEntity
8
SK2
62
256
6
ByLayer
370
-1
48
1
60
0
100
AcDbLine
10
-114.238326
20
-9.9375
30
0
11
-113.820329
21
-6.762498
31
0
39
0
210
0
220
0
230
1
0
LINE
5
F7
100
AcDbEntity
8
SK2
62
256
6
ByLayer
370
-1
48
1
60
0
100
AcDbLine
10
-114.656323
20
-6.762502
30
0
11
-113.820329
21
-6.762498
31
0
39
0
210
0
220
0
230
1
0
ENDBLK
5
F9
100
AcDbEntity
8
0
100
AcDbBlockEnd
0
ENDSEC
0
SECTION
2
ENTITIES
0
ARC
5
65
100
AcDbEntity
8
1
62
256
6
ByLayer
370
-1
48
1
60
0
100
AcDbCircle
39
0
10
5.735195
20
-5.587082
30
0
40
1.50000000000001
210
0
220
0
230
1
100
AcDbArc
50
17.054899
51
49.346036
0
ARC
5
66
100
AcDbEntity
8
1
62
256
6
ByLayer
370
-1
48
1
60
0
100
AcDbCircle
39
0
10
24.263131
20
-4.708635
30
0
40
8.10000000000003
210
0
220
0
230
1
100
AcDbArc
50
173.852179
51
186.882443
0
ARC
5
67
100
AcDbEntity
8
1
62
256
6
ByLayer
370
-1
48
1
60
0
100
AcDbCircle
39
0
10
-7.540488
20
-5.847288
30
0
40
1.625
210
0
220
0
230
-1
100
AcDbArc
50
59.364477
51
148
0
ARC
5
68
100
AcDbEntity
8
1
62
256
6
ByLayer
370
-1
48
1
60
0
100
AcDbCircle
39
0
10
-7.540488
20
-5.847288
30
0
40
1.85988901006696
210
0
220
0
230
-1
100
AcDbArc
50
56.245723
51
148
0
ARC
5
69
100
AcDbEntity
8
1
62
256
6
ByLayer
370
-1
48
1
60
0
100
AcDbCircle
39
0
10
-5.735195
20
-5.587082
30
0
40
1.50000000000001
210
0
220
0
230
-1
100
AcDbArc
50
258.056829
51
120.969764
0
ARC
5
6A
100
AcDbEntity
8
1
62
256
6
ByLayer
370
-1
48
1
60
0
100
AcDbCircle
39
0
10
13.662183
20
-10.256435
30
0
40
1.67649999999999
210
0
220
0
230
1
100
AcDbArc
50
209.340113
51
269.659887
0
ARC
5
6B
100
AcDbEntity
8
1
62
256
6
ByLayer
370
-1
48
1
60
0
100
AcDbCircle
39
0
10
15.932917
20
-6.401493
30
0
40
0.794000000000014
210
0
220
0
230
1
100
AcDbArc
50
32
51
87
0
ARC
5
6C
100
AcDbEntity
8
1
62
256
6
ByLayer
370
-1
48
1
60
0
100
AcDbCircle
39
0
10
13.662183
20
-10.256435
30
0
40
1.20649999999999
210
0
220
0
230
1
100
AcDbArc
50
55.544721
51
63.455279
0
ARC
5
6D
100
AcDbEntity
8
1
62
256
6
ByLayer
370
-1
48
1
60
0
100
AcDbCircle
39
0
10
-13.662183
20
-10.256435
30
0
40
1.20649999999999
210
0
220
0
230
-1
100
AcDbArc
50
304.455279
51
0.579943
0
ARC
5
6F
100
AcDbEntity
8
1
62
256
6
ByLayer
370
-1
48
1
60
0
100
AcDbCircle
39
0
10
13.662183
20
-10.256435
30
0
40
1.20649999999999
210
0
220
0
230
1
100
AcDbArc
50
235.544721
51
243.455279
0
ARC
5
71
100
AcDbEntity
8
1
62
256
6
ByLayer
370
-1
48
1
60
0
100
AcDbCircle
39
0
10
13.662183
20
-10.256435
30
0
40
1.67649999999999
210
0
220
0
230
1
100
AcDbArc
50
29.340113
51
89.659887
0
ARC
5
72
100
AcDbEntity
8
1
62
256
6
ByLayer
370
-1
48
1
60
0
100
AcDbCircle
39
0
10
-13.662183
20
-10.256435
30
0
40
1.2065
210
0
220
0
230
-1
100
AcDbArc
50
240.420057
51
296.544721
0
ARC
5
73
100
AcDbEntity
8
1
62
256
6
ByLayer
370
-1
48
1
60
0
100
AcDbCircle
39
0
10
-13.662183
20
-10.256435
30
0
40
1.20649999999999
210
0
220
0
230
-1
100
AcDbArc
50
124.455279
51
180.579943
0
ARC
5
74
100
AcDbEntity
8
1
62
256
6
ByLayer
370
-1
48
1
60
0
100
AcDbCircle
39
0
10
-13.662183
20
-10.256435
30
0
40
1.20649999999999
210
0
220
0
230
-1
100
AcDbArc
50
180.579943
51
240.420057
0
ARC
5
75
100
AcDbEntity
8
1
62
256
6
ByLayer
370
-1
48
1
60
0
100
AcDbCircle
39
0
10
11.391449
20
-14.111377
30
0
40
0.794000000000014
210
0
220
0
230
1
100
AcDbArc
50
212
51
267
0
ARC
5
76
100
AcDbEntity
8
1
62
256
6
ByLayer
370
-1
48
1
60
0
100
AcDbCircle
39
0
10
21.067458
20
-14.618475
30
0
40
0.794000000000005
210
0
220
0
230
1
100
AcDbArc
50
267
51
32
0
ARC
5
79
100
AcDbEntity
8
1
62
256
6
ByLayer
370
-1
48
1
60
0
100
AcDbCircle
39
0
10
13.662183
20
-10.256435
30
0
40
1.67649999999999
210
0
220
0
230
1
100
AcDbArc
50
149.5
51
209.340113
0
ARC
5
7A
100
AcDbEntity
8
1
62
256
6
ByLayer
370
-1
48
1
60
0
100
AcDbCircle
39
0
10
13.662183
20
-10.256435
30
0
40
1.67649999999999
210
0
220
0
230
1
100
AcDbArc
50
269.659887
51
329.5
0
ARC
5
7B
100
AcDbEntity
8
1
62
256
6
ByLayer
370
-1
48
1
60
0
100
AcDbCircle
39
0
10
6.256908
20
-5.894395
30
0
40
0.794000000000005
210
0
220
0
230
1
100
AcDbArc
50
87
51
212
0
ARC
5
7C
100
AcDbEntity
8
1
62
256
6
ByLayer
370
-1
48
1
60
0
100
AcDbCircle
39
0
10
-13.662183
20
-10.256435
30
0
40
1.20649999999999
210
0
220
0
230
-1
100
AcDbArc
50
60.420057
51
116.544721
0
ARC
5
7D
100
AcDbEntity
8
1
62
256
6
ByLayer
370
-1
48
1
60
0
100
AcDbCircle
39
0
10
-13.662183
20
-10.256435
30
0
40
1.20649999999999
210
0
220
0
230
-1
100
AcDbArc
50
0.579943
51
60.420057
0
ARC
5
7E
100
AcDbEntity
8
1
62
256
6
ByLayer
370
-1
48
1
60
0
100
AcDbCircle
39
0
10
13.662183
20
-10.256435
30
0
40
1.67649999999999
210
0
220
0
230
1
100
AcDbArc
50
329.5
51
29.340113
0
ARC
5
80
100
AcDbEntity
8
1
62
256
6
ByLayer
370
-1
48
1
60
0
100
AcDbCircle
39
0
10
13.662183
20
-10.256435
30
0
40
1.67649999999999
210
0
220
0
230
1
100
AcDbArc
50
89.659887
51
149.5
0
CIRCLE
5
6E
100
AcDbEntity
8
1
62
256
6
ByLayer
370
-1
48
1
60
0
100
AcDbCircle
10
13.662183
20
-10.256435
30
0
40
3.07132534818238
39
0
210
0
220
0
230
1
0
CIRCLE
5
70
100
AcDbEntity
8
1
62
256
6
ByLayer
370
-1
48
1
60
0
100
AcDbCircle
10
13.662183
20
-10.256435
30
0
40
1.80000000000002
39
0
210
0
220
0
230
1
0
CIRCLE
5
77
100
AcDbEntity
8
1
62
256
6
ByLayer
370
-1
48
1
60
0
100
AcDbCircle
10
13.662183
20
-10.256435
30
0
40
3
39
0
210
0
220
0
230
1
0
CIRCLE
5
78
100
AcDbEntity
8
1
62
256
6
ByLayer
370
-1
48
1
60
0
100
AcDbCircle
10
13.662183
20
-10.256435
30
0
40
2.625
39
0
210
0
220
0
230
1
0
CIRCLE
5
7F
100
AcDbEntity
8
1
62
256
6
ByLayer
370
-1
48
1
60
0
100
AcDbCircle
10
13.662183
20
-10.256435
30
0
40
2.94486584643912
39
0
210
0
220
0
230
1
0
POINT
5
41
100
AcDbEntity
8
80
62
256
6
ByLayer
370
-1
48
1
60
0
100
AcDbPoint
10
0
20
0
30
0
39
0
210
0
220
0
230
1
50
360
0
POINT
5
43
100
AcDbEntity
8
SK2
62
256
6
ByLayer
370
-1
48
1
60
0
100
AcDbPoint
10
21.861674
20
35.2875
30
0
39
0
210
0
220
0
230
1
50
360
0
POINT
5
45
100
AcDbEntity
8
2
62
256
6
ByLayer
370
-1
48
1
60
0
100
AcDbPoint
10
21.861674
20
35.2875
30
0
39
0
210
0
220
0
230
1
50
360
0
POINT
5
47
100
AcDbEntity
8
81
62
256
6
ByLayer
370
-1
48
1
60
0
100
AcDbPoint
10
21.861674
20
-15.4125
30
0
39
0
210
0
220
0
230
1
50
360
0
POINT
5
49
100
AcDbEntity
8
SK2
62
256
6
ByLayer
370
-1
48
1
60
0
100
AcDbPoint
10
21.861674
20
35.2875
30
0
39
0
210
0
220
0
230
1
50
360
0
POINT
5
4A
100
AcDbEntity
8
SK2
62
256
6
ByLayer
370
-1
48
1
60
0
100
AcDbPoint
10
21.861674
20
35.2875
30
0
39
0
210
0
220
0
230
1
50
360
0
POINT
5
4B
100
AcDbEntity
8
SK2
62
256
6
ByLayer
370
-1
48
1
60
0
100
AcDbPoint
10
21.861674
20
35.2875
30
0
39
0
210
0
220
0
230
1
50
360
0
SPLINE
5
81
100
AcDbEntity
8
1
62
256
6
ByLayer
370
-1
48
1
60
0
100
AcDbSpline
70
4
71
3
72
8
73
4
40
0
40
0
40
0
40
0
40
1
40
1
40
1
40
1
41
1
10
6.71242823557475
20
-4.44909504491454
30
0
41
1
10
6.6496955984565
20
-4.39522410016579
30
0
41
1
10
6.58128796447215
20
-4.34546311182095
30
0
41
1
10
6.50707317139324
20
-4.30092365204655
30
0
0
SPLINE
5
82
100
AcDbEntity
8
1
62
256
6
ByLayer
370
-1
48
1
60
0
100
AcDbSpline
70
4
71
3
72
18
73
14
40
0
40
0
40
0
40
0
40
0.212437915935464
40
0.212437915935464
40
0.386573882570246
40
0.386573882570246
40
0.562391983425674
40
0.562391983425674
40
0.715355871380642
40
0.715355871380642
40
0.918207054231847
40
0.918207054231847
40
1
40
1
40
1
40
1
41
1
10
12.2604154294613
20
-9.75782915456139
30
0
41
1
10
12.3100066064456
20
-9.8085772382816
30
0
41
1
10
12.3532759006515
20
-9.86885056478812
30
0
41
1
10
12.4131367793853
20
-9.99138238205526
30
0
41
1
10
12.433662477385
20
-10.0527770367829
30
0
41
1
10
12.4565173874006
20
-10.1805156809902
30
0
41
1
10
12.4588207881787
20
-10.2488283959467
30
0
41
1
10
12.4450263704716
20
-10.3712338159411
30
0
41
1
10
12.4312041798858
20
-10.4274899202364
30
0
41
1
10
12.3858477512194
20
-10.5477841470299
30
0
41
1
10
12.3494507745096
20
-10.6105506487305
30
0
41
1
10
12.289012218461
20
-10.6864829064383
30
0
41
1
10
12.2703051476076
20
-10.7072083713811
30
0
41
1
10
12.2506096422828
20
-10.7265635646707
30
0
0
SPLINE
5
83
100
AcDbEntity
8
1
62
256
6
ByLayer
370
-1
48
1
60
0
100
AcDbSpline
70
4
71
3
72
16
73
12
40
0
40
0
40
0
40
0
40
0.0629122300432808
40
0.0629122300432808
40
0.285786809133462
40
0.285786809133462
40
0.511455234977536
40
0.511455234977536
40
0.751578457748289
40
0.751578457748289
40
1
40
1
40
1
40
1
41
1
10
12.2176616621415
20
-9.40554698591851
30
0
41
1
10
12.2219333436856
20
-9.39829510970344
30
0
41
1
10
12.2265242862131
20
-9.3912201486101
30
0
41
1
10
12.2485682117259
20
-9.36026418179051
30
0
41
1
10
12.2696818384869
20
-9.33861485041777
30
0
41
1
10
12.3164308929553
20
-9.30318960418816
30
0
41
1
10
12.3427003983088
20
-9.28904599903487
30
0
41
1
10
12.3982560640705
20
-9.26887773556609
30
0
41
1
10
12.4283124791712
20
-9.26314852718698
30
0
41
1
10
12.4879730180588
20
-9.26077015027619
30
0
41
1
10
12.5181966214615
20
-9.26438607486787
30
0
41
1
10
12.5465020270088
20
-9.27215048897148
30
0
0
SPLINE
5
84
100
AcDbEntity
8
1
62
256
6
ByLayer
370
-1
48
1
60
0
100
AcDbSpline
70
4
71
3
72
16
73
12
40
0
40
0
40
0
40
0
40
0.0629122300432881
40
0.0629122300432881
40
0.285786809133468
40
0.285786809133468
40
0.511455234977538
40
0.511455234977538
40
0.751578457748291
40
0.751578457748291
40
1
40
1
40
1
40
1
41
1
10
15.106704237102
20
-11.1073231169257
30
0
41
1
10
15.1024325555578
20
-11.1145749931408
30
0
41
1
10
15.0978416130304
20
-11.1216499542341
30
0
41
1
10
15.0757976875175
20
-11.1526059210537
30
0
41
1
10
15.0546840607565
20
-11.1742552524265
30
0
41
1
10
15.0079350062882
20
-11.2096804986561
30
0
41
1
10
14.9816655009346
20
-11.2238241038094
30
0
41
1
10
14.9261098351729
20
-11.2439923672781
30
0
41
1
10
14.8960534200722
20
-11.2497215756573
30
0
41
1
10
14.8363928811846
20
-11.2520999525681
30
0
41
1
10
14.806169277782
20
-11.2484840279764
30
0
41
1
10
14.7778638722347
20
-11.2407196138728
30
0
0
SPLINE
5
85
100
AcDbEntity
8
1
62
256
6
ByLayer
370
-1
48
1
60
0
100
AcDbSpline
70
4
71
3
72
16
73
12
40
0
40
0
40
0
40
0
40
0.057082757711152
40
0.057082757711152
40
0.280041604295524
40
0.280041604295524
40
0.505461650692503
40
0.505461650692503
40
0.745065830758096
40
0.745065830758096
40
1
40
1
40
1
40
1
41
1
10
15.1236323208911
20
-9.43496199330255
30
0
41
1
10
15.1273766739991
20
-9.44162341992066
30
0
41
1
10
15.1308624723075
20
-9.44843843102876
30
0
41
1
10
15.1465102456828
20
-9.48223907574445
30
0
41
1
10
15.1548586667399
20
-9.51133324984002
30
0
41
1
10
15.1624516956916
20
-9.56951376252368
30
0
41
1
10
15.1617147193645
20
-9.59933447762037
30
0
41
1
10
15.151699771601
20
-9.65754411795652
30
0
41
1
10
15.141793218734
20
-9.68645935224669
30
0
41
1
10
15.1139451939257
20
-9.74015529556115
30
0
41
1
10
15.095228503114
20
-9.7652053037647
30
0
41
1
10
15.0737562569607
20
-9.78630653817351
30
0
0
SPLINE
5
86
100
AcDbEntity
8
1
62
256
6
ByLayer
370
-1
48
1
60
0
100
AcDbSpline
70
4
71
3
72
18
73
14
40
0
40
0
40
0
40
0
40
0.212491342405507
40
0.212491342405507
40
0.386617985385026
40
0.386617985385026
40
0.562426135472232
40
0.562426135472232
40
0.715388203407992
40
0.715388203407992
40
0.918248932482265
40
0.918248932482265
40
1
40
1
40
1
40
1
41
1
10
13.3890222931162
20
-8.79392239277649
30
0
41
1
10
13.370054708775
20
-8.86231404007918
30
0
41
1
10
13.3396691831853
20
-8.93002522778684
30
0
41
1
10
13.263780502054
20
-9.04335280102444
30
0
41
1
10
13.2210072212637
20
-9.09194021731744
30
0
41
1
10
13.1220419839158
20
-9.17586799779929
30
0
41
1
10
13.064135096885
20
-9.21217496911095
30
0
41
1
10
12.9513712703622
20
-9.26173782699223
30
0
41
1
10
12.8957866721406
20
-9.27804724905749
30
0
41
1
10
12.7689868931379
20
-9.29926211577035
30
0
41
1
10
12.696428441478
20
-9.29932296018669
30
0
41
1
10
12.6004230457776
20
-9.28521140597343
30
0
41
1
10
12.5731188149806
20
-9.2794517008752
30
0
41
1
10
12.5465020270088
20
-9.27215048897148
30
0
0
SPLINE
5
87
100
AcDbEntity
8
1
62
256
6
ByLayer
370
-1
48
1
60
0
100
AcDbSpline
70
4
71
3
72
12
73
8
40
0
40
0
40
0
40
0
40
0.495913112050076
40
0.495913112050076
40
0.900351883345332
40
0.900351883345332
40
1
40
1
40
1
40
1
41
1
10
12.5300449063019
20
-11.2170957816994
30
0
41
1
10
12.5990092877736
20
-11.1988283257129
30
0
41
1
10
12.6731716445992
20
-11.1908730927345
30
0
41
1
10
12.8096824231964
20
-11.1993726254209
30
0
41
1
10
12.8732106379694
20
-11.2118506499573
30
0
41
1
10
12.9494958174441
20
-11.2388068085883
30
0
41
1
10
12.9646415082879
20
-11.2447666066899
30
0
41
1
10
12.9795901269057
20
-11.2512763897151
30
0
0
SPLINE
5
88
100
AcDbEntity
8
1
62
256
6
ByLayer
370
-1
48
1
60
0
100
AcDbSpline
70
4
71
3
72
14
73
10
40
0
40
0
40
0
40
0
40
0.283781629690428
40
0.283781629690428
40
0.570127690168437
40
0.570127690168437
40
0.829311744930049
40
0.829311744930049
40
1
40
1
40
1
40
1
41
1
10
12.2604154294612
20
-9.75782915456142
30
0
41
1
10
12.2369984364555
20
-9.73386586927975
30
0
41
1
10
12.2170719877646
20
-9.70501568697543
30
0
41
1
10
12.1884572154419
20
-9.64119066421438
30
0
41
1
10
12.1794859997885
20
-9.60514849583305
30
0
41
1
10
12.1759501429816
20
-9.53532040461985
30
0
41
1
10
12.1801066638169
20
-9.50058737212154
30
0
41
1
10
12.1968128197975
20
-9.44628121717685
30
0
41
1
10
12.2061161120255
20
-9.4251474405427
30
0
41
1
10
12.2176616621415
20
-9.40554698591851
30
0
0
SPLINE
5
89
100
AcDbEntity
8
1
62
256
6
ByLayer
370
-1
48
1
60
0
100
AcDbSpline
70
4
71
3
72
18
73
14
40
0
40
0
40
0
40
0
40
0.212491342405688
40
0.212491342405688
40
0.386617985385167
40
0.386617985385167
40
0.562426135472335
40
0.562426135472335
40
0.715388203408058
40
0.715388203408058
40
0.918248932482299
40
0.918248932482299
40
1
40
1
40
1
40
1
41
1
10
13.9353436061272
20
-11.718947710068
30
0
41
1
10
13.9543111904684
20
-11.6505560627652
30
0
41
1
10
13.9846967160581
20
-11.5828448750575
30
0
41
1
10
14.0605853971894
20
-11.4695173018198
30
0
41
1
10
14.1033586779798
20
-11.4209298855268
30
0
41
1
10
14.2023239153277
20
-11.337002105045
30
0
41
1
10
14.2602308023584
20
-11.3006951337333
30
0
41
1
10
14.3729946288812
20
-11.251132275852
30
0
41
1
10
14.4285792271028
20
-11.2348228537867
30
0
41
1
10
14.5553790061055
20
-11.2136079870739
30
0
41
1
10
14.6279374577655
20
-11.2135471426575
30
0
41
1
10
14.7239428534658
20
-11.2276586968708
30
0
41
1
10
14.7512470842628
20
-11.233418401969
30
0
41
1
10
14.7778638722347
20
-11.2407196138728
30
0
0
SPLINE
5
8A
100
AcDbEntity
8
1
62
256
6
ByLayer
370
-1
48
1
60
0
100
AcDbSpline
70
4
71
3
72
14
73
10
40
0
40
0
40
0
40
0
40
0.283781629690401
40
0.283781629690401
40
0.570127690168424
40
0.570127690168424
40
0.829311744930048
40
0.829311744930048
40
1
40
1
40
1
40
1
41
1
10
15.0639504697822
20
-10.7550409482828
30
0
41
1
10
15.0873674627879
20
-10.7790042335645
30
0
41
1
10
15.1072939114789
20
-10.8078544158688
30
0
41
1
10
15.1359086838016
20
-10.8716794386298
30
0
41
1
10
15.144879899455
20
-10.9077216070112
30
0
41
1
10
15.1484157562618
20
-10.9775496982243
30
0
41
1
10
15.1442592354265
20
-11.0122827307227
30
0
41
1
10
15.1275530794459
20
-11.0665888856674
30
0
41
1
10
15.1182497872179
20
-11.0877226623015
30
0
41
1
10
15.106704237102
20
-11.1073231169257
30
0
0
SPLINE
5
8B
100
AcDbEntity
8
1
62
256
6
ByLayer
370
-1
48
1
60
0
100
AcDbSpline
70
4
71
3
72
16
73
12
40
0
40
0
40
0
40
0
40
0.061483604826455
40
0.061483604826455
40
0.282260881681967
40
0.282260881681967
40
0.505758108518386
40
0.505758108518386
40
0.743534760153639
40
0.743534760153639
40
1
40
1
40
1
40
1
41
1
10
13.6522311388007
20
-11.9329055138703
30
0
41
1
10
13.6439265880518
20
-11.9328562166594
30
0
41
1
10
13.6356149202854
20
-11.9324516474259
30
0
41
1
10
13.5978789623155
20
-11.9289980216441
30
0
41
1
10
13.5685403292323
20
-11.9216520332721
30
0
41
1
10
13.5143957630227
20
-11.8990889115223
30
0
41
1
10
13.4889517962699
20
-11.8835105483314
30
0
41
1
10
13.4435635854354
20
-11.8456629909574
30
0
41
1
10
13.4234857153189
20
-11.8225804752451
30
0
41
1
10
13.3907213631388
20
-11.7711703350243
30
0
41
1
10
13.3783125298518
20
-11.7419659128378
30
0
41
1
10
13.3708415578946
20
-11.7123628591432
30
0
0
SPLINE
5
8C
100
AcDbEntity
8
1
62
256
6
ByLayer
370
-1
48
1
60
0
100
AcDbSpline
70
4
71
3
72
12
73
8
40
0
40
0
40
0
40
0
40
0.422118800645874
40
0.422118800645874
40
0.843213952177438
40
0.843213952177438
40
1
40
1
40
1
40
1
41
1
10
14.201363222406
20
-9.17711726529967
30
0
41
1
10
14.1474322792597
20
-9.13578247505936
30
0
41
1
10
14.1000107672448
20
-9.08627015866099
30
0
41
1
10
14.0242551554254
20
-8.98117233269588
30
0
41
1
10
13.9946854446543
20
-8.9242475631869
30
0
41
1
10
13.9658280099125
20
-8.84460790669803
30
0
41
1
10
13.9591042166875
20
-8.82261699731859
30
0
41
1
10
13.9535243413489
20
-8.80050724370105
30
0
0
SPLINE
5
8D
100
AcDbEntity
8
1
62
256
6
ByLayer
370
-1
48
1
60
0
100
AcDbSpline
70
4
71
3
72
14
73
10
40
0
40
0
40
0
40
0
40
0.282611672285303
40
0.282611672285303
40
0.569104663837531
40
0.569104663837531
40
0.828406714776528
40
0.828406714776528
40
1
40
1
40
1
40
1
41
1
10
13.9353436061272
20
-11.718947710068
30
0
41
1
10
13.9264261598079
20
-11.7511014536619
30
0
41
1
10
13.9115806946061
20
-11.7826949687745
30
0
41
1
10
13.8709374683104
20
-11.839451510693
30
0
41
1
10
13.844309482301
20
-11.8653638446495
30
0
41
1
10
13.7857423264447
20
-11.9035968091893
30
0
41
1
10
13.753629418832
20
-11.9175006842669
30
0
41
1
10
13.6981691413191
20
-11.9304386922354
30
0
41
1
10
13.6750990304608
20
-11.933041261524
30
0
41
1
10
13.6522311388007
20
-11.9329055138703
30
0
0
SPLINE
5
8E
100
AcDbEntity
8
1
62
256
6
ByLayer
370
-1
48
1
60
0
100
AcDbSpline
70
4
71
3
72
16
73
12
40
0
40
0
40
0
40
0
40
0.0570827577111718
40
0.0570827577111718
40
0.280041604295549
40
0.280041604295549
40
0.505461650692524
40
0.505461650692524
40
0.745065830758121
40
0.745065830758121
40
1
40
1
40
1
40
1
41
1
10
12.2007335783523
20
-11.0779081095416
30
0
41
1
10
12.1969892252444
20
-11.0712466829235
30
0
41
1
10
12.193503426936
20
-11.0644316718155
30
0
41
1
10
12.1778556535606
20
-11.0306310270998
30
0
41
1
10
12.1695072325035
20
-11.0015368530042
30
0
41
1
10
12.1619142035518
20
-10.9433563403205
30
0
41
1
10
12.162651179879
20
-10.9135356252238
30
0
41
1
10
12.1726661276425
20
-10.8553259848877
30
0
41
1
10
12.1825726805095
20
-10.8264107505975
30
0
41
1
10
12.2104207053177
20
-10.7727148072831
30
0
41
1
10
12.2291373961295
20
-10.7476647990795
30
0
41
1
10
12.2506096422828
20
-10.7265635646707
30
0
0
SPLINE
5
8F
100
AcDbEntity
8
1
62
256
6
ByLayer
370
-1
48
1
60
0
100
AcDbSpline
70
4
71
3
72
12
73
8
40
0
40
0
40
0
40
0
40
0.495913112049949
40
0.495913112049949
40
0.900351883335607
40
0.900351883335607
40
1
40
1
40
1
40
1
41
1
10
14.7943209929415
20
-9.29577432114476
30
0
41
1
10
14.7253566114698
20
-9.31404177713137
30
0
41
1
10
14.6511942546443
20
-9.32199701010975
30
0
41
1
10
14.5146834760484
20
-9.31349747742334
30
0
41
1
10
14.451155261277
20
-9.30101945288757
30
0
41
1
10
14.3748700818022
20
-9.27406329425699
30
0
41
1
10
14.3597243909568
20
-9.26810349615494
30
0
41
1
10
14.3447757723376
20
-9.26159371312906
30
0
0
SPLINE
5
90
100
AcDbEntity
8
1
62
256
6
ByLayer
370
-1
48
1
60
0
100
AcDbSpline
70
4
71
3
72
14
73
10
40
0
40
0
40
0
40
0
40
0.282360997401721
40
0.282360997401721
40
0.567069390943434
40
0.567069390943434
40
0.824671716722352
40
0.824671716722352
40
1
40
1
40
1
40
1
41
1
10
14.7943209929415
20
-9.29577432114476
30
0
41
1
10
14.8268150996589
20
-9.28716720176493
30
0
41
1
10
14.8618500324294
20
-9.28404263155036
30
0
41
1
10
14.9316717571939
20
-9.29066560363199
30
0
41
1
10
14.9675309589889
20
-9.30068549573579
30
0
41
1
10
15.0301329695609
20
-9.33219816143912
30
0
41
1
10
15.0583380324876
20
-9.35303942933336
30
0
41
1
10
15.0978808973434
20
-9.39510077186372
30
0
41
1
10
15.1120776233169
20
-9.41440549989346
30
0
41
1
10
15.1236323208911
20
-9.43496199330255
30
0
0
SPLINE
5
91
100
AcDbEntity
8
1
62
256
6
ByLayer
370
-1
48
1
60
0
100
AcDbSpline
70
4
71
3
72
14
73
10
40
0
40
0
40
0
40
0
40
0.282611672285667
40
0.282611672285667
40
0.569104663837693
40
0.569104663837693
40
0.828406714776513
40
0.828406714776513
40
1
40
1
40
1
40
1
41
1
10
13.3890222931162
20
-8.79392239277652
30
0
41
1
10
13.3979397394355
20
-8.7617686491825
30
0
41
1
10
13.4127852046373
20
-8.73017513406987
30
0
41
1
10
13.453428430933
20
-8.67341859215125
30
0
41
1
10
13.4800564169424
20
-8.64750625819474
30
0
41
1
10
13.5386235727987
20
-8.60927329365492
30
0
41
1
10
13.5707364804114
20
-8.59536941857741
30
0
41
1
10
13.6261967579243
20
-8.58243141060885
30
0
41
1
10
13.6492668687827
20
-8.57982884132022
30
0
41
1
10
13.6721347604428
20
-8.57996458897387
30
0
0
SPLINE
5
92
100
AcDbEntity
8
1
62
256
6
ByLayer
370
-1
48
1
60
0
100
AcDbSpline
70
4
71
3
72
12
73
8
40
0
40
0
40
0
40
0
40
0.42211880076149
40
0.42211880076149
40
0.843213952314217
40
0.843213952314217
40
1
40
1
40
1
40
1
41
1
10
13.1230026768375
20
-11.3357528375446
30
0
41
1
10
13.1769336199986
20
-11.3770876277962
30
0
41
1
10
13.2243551320246
20
-11.4265999442105
30
0
41
1
10
13.3001107438468
20
-11.5316977701969
30
0
41
1
10
13.329680454614
20
-11.5886225397102
30
0
41
1
10
13.3585378893426
20
-11.6682621961845
30
0
41
1
10
13.3652616825608
20
-11.6902531055449
30
0
41
1
10
13.3708415578946
20
-11.7123628591432
30
0
0
SPLINE
5
93
100
AcDbEntity
8
1
62
256
6
ByLayer
370
-1
48
1
60
0
100
AcDbSpline
70
4
71
3
72
18
73
14
40
0
40
0
40
0
40
0
40
0.212437915935454
40
0.212437915935454
40
0.386573882570238
40
0.386573882570238
40
0.562391983425667
40
0.562391983425667
40
0.715355871380643
40
0.715355871380643
40
0.918207054231853
40
0.918207054231853
40
1
40
1
40
1
40
1
41
1
10
15.0639504697822
20
-10.7550409482828
30
0
41
1
10
15.0143592927979
20
-10.7042928645626
30
0
41
1
10
14.9710899985919
20
-10.6440195380561
30
0
41
1
10
14.9112291198582
20
-10.521487720789
30
0
41
1
10
14.8907034218585
20
-10.4600930660613
30
0
41
1
10
14.8678485118428
20
-10.332354421854
30
0
41
1
10
14.8655451110647
20
-10.2640417068976
30
0
41
1
10
14.8793395287718
20
-10.1416362869031
30
0
41
1
10
14.8931617193577
20
-10.0853801826078
30
0
41
1
10
14.9385181480241
20
-9.96508595581426
30
0
41
1
10
14.9749151247338
20
-9.90231945411372
30
0
41
1
10
15.0353536807825
20
-9.82638719640593
30
0
41
1
10
15.0540607516358
20
-9.80566173146312
30
0
41
1
10
15.0737562569607
20
-9.78630653817351
30
0
0
SPLINE
5
94
100
AcDbEntity
8
1
62
256
6
ByLayer
370
-1
48
1
60
0
100
AcDbSpline
70
4
71
3
72
14
73
10
40
0
40
0
40
0
40
0
40
0.282360997401736
40
0.282360997401736
40
0.567069390943465
40
0.567069390943465
40
0.824671716722406
40
0.824671716722406
40
1
40
1
40
1
40
1
41
1
10
12.5300449063019
20
-11.2170957816994
30
0
41
1
10
12.4975507995845
20
-11.2257029010793
30
0
41
1
10
12.462515866814
20
-11.2288274712939
30
0
41
1
10
12.3926941420495
20
-11.2222044992122
30
0
41
1
10
12.3568349402545
20
-11.2121846071084
30
0
41
1
10
12.2942329296826
20
-11.1806719414051
30
0
41
1
10
12.2660278667559
20
-11.1598306735109
30
0
41
1
10
12.2264850019001
20
-11.1177693309805
30
0
41
1
10
12.2122882759265
20
-11.0984646029508
30
0
41
1
10
12.2007335783523
20
-11.0779081095416
30
0
0
SPLINE
5
95
100
AcDbEntity
8
1
62
256
6
ByLayer
370
-1
48
1
60
0
100
AcDbSpline
70
4
71
3
72
16
73
12
40
0
40
0
40
0
40
0
40
0.0614836048263553
40
0.0614836048263553
40
0.282260881681875
40
0.282260881681875
40
0.505758108518291
40
0.505758108518291
40
0.743534760153513
40
0.743534760153513
40
1
40
1
40
1
40
1
41
1
10
13.6721347604428
20
-8.57996458897387
30
0
41
1
10
13.6804393111917
20
-8.58001388618482
30
0
41
1
10
13.6887509789581
20
-8.58041845541825
30
0
41
1
10
13.726486936928
20
-8.58387208120016
30
0
41
1
10
13.7558255700111
20
-8.59121806957208
30
0
41
1
10
13.8099701362207
20
-8.61378119132192
30
0
41
1
10
13.8354141029735
20
-8.6293595545128
30
0
41
1
10
13.880802313808
20
-8.66720711188685
30
0
41
1
10
13.9008801839245
20
-8.6902896275991
30
0
41
1
10
13.9336445361046
20
-8.74169976781985
30
0
41
1
10
13.9460533693917
20
-8.77090419000638
30
0
41
1
10
13.9535243413489
20
-8.80050724370105
30
0
0
INSERT
5
C9
100
AcDbEntity
8
SK2
62
256
6
ByLayer
370
-1
48
1
60
0
100
AcDbBlockReference
2
DimnDraft3D11
10
0
20
0
30
0
41
1
42
1
43
1
50
0
210
0
220
0
230
1
0
LINE
5
4C
100
AcDbEntity
8
80
62
256
6
ByLayer
370
-1
48
1
60
0
100
AcDbLine
10
0
20
0
30
0
11
-5
21
0
31
0
39
0
210
0
220
0
230
1
0
LINE
5
4D
100
AcDbEntity
8
81
62
256
6
ByLayer
370
-1
48
1
60
0
100
AcDbLine
10
21.861674
20
-15.4125
30
0
11
31.861674
21
-15.4125
31
0
39
0
210
0
220
0
230
1
0
LINE
5
4E
100
AcDbEntity
8
1
62
256
6
ByLayer
370
-1
48
1
60
0
100
AcDbLine
10
1
20
-9.9375
30
0
11
1.5
21
-10.4375
31
0
39
0
210
0
220
0
230
1
0
LINE
5
50
100
AcDbEntity
8
1
62
256
6
ByLayer
370
-1
48
1
60
0
100
AcDbLine
10
8.918566
20
-4.986169
30
0
11
9.081771
21
-5.247352
31
0
39
0
210
0
220
0
230
1
0
LINE
5
51
100
AcDbEntity
8
1
62
256
6
ByLayer
370
-1
48
1
60
0
100
AcDbLine
10
7.600596
20
9.936296
30
0
11
16.209715
21
-3.841174
31
0
39
0
210
0
220
0
230
1
0
LINE
5
52
100
AcDbEntity
8
1
62
256
6
ByLayer
370
-1
48
1
60
0
100
AcDbLine
10
2.518523
20
-14.238678
30
0
11
1.5
21
-10.4375
31
0
39
0
210
0
220
0
230
1
0
LINE
5
53
100
AcDbEntity
8
1
62
256
6
ByLayer
370
-1
48
1
60
0
100
AcDbLine
10
1
20
-9.9375
30
0
11
0
21
-9.9375
31
0
39
0
210
0
220
0
230
1
0
LINE
5
54
100
AcDbEntity
8
1
62
256
6
ByLayer
370
-1
48
1
60
0
100
AcDbLine
10
0
20
9.936296
30
0
11
0
21
-9.9375
31
0
39
0
210
0
220
0
230
1
0
LINE
5
55
100
AcDbEntity
8
1
62
256
6
ByLayer
370
-1
48
1
60
0
100
AcDbLine
10
10.831442
20
-14.67434
30
0
11
2.518523
21
-14.238678
31
0
39
0
210
0
220
0
230
1
0
LINE
5
56
100
AcDbEntity
8
1
62
256
6
ByLayer
370
-1
48
1
60
0
100
AcDbLine
10
9.117763
20
-4.861697
30
0
11
9.36812
21
-5.262352
31
0
39
0
210
0
220
0
230
1
0
LINE
5
57
100
AcDbEntity
8
1
62
256
6
ByLayer
370
-1
48
1
60
0
100
AcDbLine
10
9.117763
20
-4.861697
30
0
11
8.918566
21
-4.986169
31
0
39
0
210
0
220
0
230
1
0
LINE
5
58
100
AcDbEntity
8
1
62
256
6
ByLayer
370
-1
48
1
60
0
100
AcDbLine
10
0
20
9.936296
30
0
11
7.600596
21
9.936296
31
0
39
0
210
0
220
0
230
1
0
LINE
5
59
100
AcDbEntity
8
SK1
62
256
6
ByLayer
370
-1
48
1
60
0
100
AcDbLine
10
-104.488326
20
-9.9375
30
0
11
-104.488326
21
9.9375
31
0
39
0
210
0
220
0
230
1
0
LINE
5
5B
100
AcDbEntity
8
SK1
62
256
6
ByLayer
370
-1
48
1
60
0
100
AcDbLine
10
-104.488326
20
9.9375
30
0
11
-0.15
21
9.9375
31
0
39
0
210
0
220
0
230
1
0
LINE
5
5C
100
AcDbEntity
8
1
62
256
6
ByLayer
370
-1
48
1
60
0
100
AcDbLine
10
10.718098
20
-14.532133
30
0
11
5.583558
21
-6.315151
31
0
39
0
210
0
220
0
230
1
0
LINE
5
5D
100
AcDbEntity
8
SK1
62
256
6
ByLayer
370
-1
48
1
60
0
100
AcDbLine
10
0
20
-9.9375
30
0
11
-0.15
21
-9.9375
31
0
39
0
210
0
220
0
230
1
0
LINE
5
5E
100
AcDbEntity
8
1
62
256
6
ByLayer
370
-1
48
1
60
0
100
AcDbLine
10
6.298463
20
-5.101483
30
0
11
15.974472
21
-5.608581
31
0
39
0
210
0
220
0
230
1
0
LINE
5
5F
100
AcDbEntity
8
SK1
62
256
6
ByLayer
370
-1
48
1
60
0
100
AcDbLine
10
0
20
-9.9375
30
0
11
0
21
9.936296
31
0
39
0
210
0
220
0
230
1
0
LINE
5
60
100
AcDbEntity
8
SK1
62
256
6
ByLayer
370
-1
48
1
60
0
100
AcDbLine
10
-0.15
20
9.93695
30
0
11
0
21
9.936296
31
0
39
0
210
0
220
0
230
1
0
LINE
5
61
100
AcDbEntity
8
SK1
62
256
6
ByLayer
370
-1
48
1
60
0
100
AcDbLine
10
-0.15
20
-9.9375
30
0
11
-104.488326
21
-9.9375
31
0
39
0
210
0
220
0
230
1
0
LINE
5
62
100
AcDbEntity
8
SK1
62
256
6
ByLayer
370
-1
48
1
60
0
100
AcDbLine
10
-0.15
20
-9.9375
30
0
11
-0.15
21
9.9375
31
0
39
0
210
0
220
0
230
1
0
LINE
5
63
100
AcDbEntity
8
1
62
256
6
ByLayer
370
-1
48
1
60
0
100
AcDbLine
10
21.025903
20
-15.411387
30
0
11
11.349894
21
-14.904289
31
0
39
0
210
0
220
0
230
1
0
LINE
5
64
100
AcDbEntity
8
1
62
256
6
ByLayer
370
-1
48
1
60
0
100
AcDbLine
10
16.606268
20
-5.980737
30
0
11
21.740808
21
-14.197719
31
0
39
0
210
0
220
0
230
1
0
MTEXT
5
96
100
AcDbEntity
8
SK6
62
256
6
ByLayer
370
-1
48
1
60
0
100
AcDbMText
10
-60.329572
20
20.395841
30
0
210
0
220
0
230
1
1
\W00.732;\fsimplex.shx,bigfont.shx;SDJCL 2020K 11 
40
3.5
41
0
44
1.084337
50
0
71
7
72
5
7
DEFAULT
0
DIMENSION
5
D7
100
AcDbEntity
8
2
62
256
6
ByLayer
370
-3
48
1
60
0
100
AcDbDimension
2
DimnDraft3D2
10
-1.546606
20
-14.228412
30
0
11
3.555903
21
-24.043593
31
0
70
34
71
5
72
1
41
1
210
0
220
0
230
1
3
Standard
100
AcDb2LineAngularDimension
13
21.861674
23
-17.4125
33
0
14
21.861674
24
-38.895593
34
0
15
18.030494
25
-15.254404
35
0
16
9.573539
26
-27.116193
36
0
40
0
0
DIMENSION
5
EC
100
AcDbEntity
8
2
62
256
6
ByLayer
370
-3
48
1
60
0
100
AcDbDimension
2
DimnDraft3D3
10
49.111674
20
-15.4125
30
0
11
49.111674
21
-5.366447
31
0
70
32
71
5
72
1
41
1
210
0
220
0
230
1
3
Standard
100
AcDbAlignedDimension
13
2
23
9.9375
33
0
14
23.861674
24
-15.4125
34
0
50
90
100
AcDbRotatedDimension
1001
ACAD
1000
DSTYLE
1002
{
1070
    74
1070
     0
1070
   279
1070
     0
1070
   172
1070
     1
1070
   173
1070
     1
1070
   340
1005
97
1070
    77
1070
     1
1070
    73
1070
     0
1070
   171
1070
     3
1070
   274
1070
     4
1070
   177
1070
     2
1070
   176
1070
     2
1070
   178
1070
     7
1070
    78
1070
     8
1070
    41
1041
3.175
1070
   147
1041
2.25
1070
    42
1041
2.0
1070
    44
1041
2.0
1070
   140
1041
4.5
1070
   343
1005
D8
1070
   344
1005
D8
1002
}
0
DIMENSION
5
FA
100
AcDbEntity
8
SK2
62
256
6
ByLayer
370
-3
48
1
60
0
100
AcDbDimension
2
DimnDraft3D4
10
-114.238326
20
-9.9375
30
0
11
-114.238326
21
-2.628947
31
0
70
32
71
5
72
1
41
1
210
0
220
0
230
1
3
Standard
100
AcDbAlignedDimension
13
-106.488326
23
9.9375
33
0
14
-106.488326
24
-9.9375
34
0
50
90
100
AcDbRotatedDimension
1001
ACAD
1000
DSTYLE
1002
{
1070
    74
1070
     0
1070
   279
1070
     0
1070
   172
1070
     1
1070
   173
1070
     1
1070
   340
1005
97
1070
    77
1070
     1
1070
    73
1070
     0
1070
   171
1070
     3
1070
   274
1070
     4
1070
   177
1070
     2
1070
   176
1070
     2
1070
   178
1070
     7
1070
    78
1070
     8
1070
    41
1041
3.175
1070
   147
1041
2.25
1070
    42
1041
2.0
1070
    44
1041
2.0
1070
   140
1041
4.5
1070
   343
1005
D8
1070
   344
1005
D8
1002
}
0
ENDSEC
0
SECTION
2
OBJECTS
0
DICTIONARY
5
12a
330
0
100
AcDbDictionary
280
0
281
1
3
ACAD_GROUP
350
12b
3
ACAD_MLINESTYLE
350
12c
0
DICTIONARY
5
12b
330
0
100
AcDbDictionary
280
0
281
1
0
DICTIONARY
5
12c
330
0
100
AcDbDictionary
280
0
281
1
3
Standard
350
18
0
MLINESTYLE
5
18
330
12c
100
AcDbMlineStyle
2
Standard
70
0
3

62
256
51
90
52
90
71
2
49
-0.5
62
256
6
ByLayer
49
0.5
62
256
6
ByLayer
0
RASTERVARIABLES
5
119
330

100
AcDbRasterVariables
90
0
70
1
71
1
72
1
0
ENDSEC
0
EOF
