0
SECTION
2
HEADER
9
$ACADVER
1
AC1015
9
$DWGCODEPAGE
3
ANSI_1252
9
$HANDSEED
5
139
9
$ANGBASE
50
0
9
$ANGDIR
70
0
9
$ATTMODE
70
1
9
$AUNITS
70
0
9
$AUPREC
70
0
9
$CECOLOR
62
256
9
$CELTSCALE
40
1
9
$CELTYPE
6
ByLayer
9
$CELWEIGHT
370
-1
9
$CLAYER
8
0
9
$CMLJUST
70
0
9
$CMLSCALE
40
1
9
$CMLSTYLE
2
Standard
9
$DIMSTYLE
2
Standard
9
$TEXTSIZE
40
0.2
9
$TEXTSTYLE
7
Standard
9
$LUNITS
70
2
9
$LUPREC
70
4
9
$EXTNAMES
290
1
9
$INSUNITS
70
4
9
$LTSCALE
40
1
9
$LWDISPLAY
290
0
9
$PDMODE
70
0
9
$PDSIZE
40
0
9
$PLINEGEN
70
0
0
ENDSEC
0
SECTION
2
CLASSES
0
CLASS
1
RASTERVARIABLES
2
AcDbRasterVariables
3
ISM
90
0
280
0
281
0
0
ENDSEC
0
SECTION
2
TABLES
0
TABLE
2
VPORT
5
12f
100
AcDbSymbolTable
0
VPORT
5
1
100
AcDbSymbolTableRecord
100
AcDbViewportTableRecord
2
*Active
70
0
10
0
20
0
11
1
21
1
12
-1
22
1
13
0
23
0
14
0.5
24
0.5
15
10
25
10
16
0
26
0
36
1
17
0
27
0
37
0
0
ENDTAB
0
TABLE
2
LTYPE
5
130
100
AcDbSymbolTable
0
LTYPE
5
14
100
AcDbSymbolTableRecord
100
AcDbLinetypeTableRecord
70
0
2
ByBlock
3

72
65
73
0
40
0
0
LTYPE
5
15
100
AcDbSymbolTableRecord
100
AcDbLinetypeTableRecord
70
0
2
ByLayer
3

72
65
73
0
40
0
0
LTYPE
5
16
100
AcDbSymbolTableRecord
100
AcDbLinetypeTableRecord
70
0
2
CONTINUOUS
3
Solid line
72
65
73
0
40
0
0
LTYPE
5
3B
100
AcDbSymbolTableRecord
100
AcDbLinetypeTableRecord
70
0
2
DASHED
3
__ __ __ __ __ __ __ __ __
72
65
73
2
40
25.72
49
12.86
74
0
49
-12.86
74
0
0
LTYPE
5
3C
100
AcDbSymbolTableRecord
100
AcDbLinetypeTableRecord
70
0
2
HIDDEN
3
_ _ _ _ _ _ _ _ _ _ _ _ _ _ _
72
65
73
2
40
0.5
49
0.25
74
0
49
-0.25
74
0
0
LTYPE
5
3D
100
AcDbSymbolTableRecord
100
AcDbLinetypeTableRecord
70
0
2
PHANTOM
3
____ _ _ ____ _ _ _____ _ _ ____
72
65
73
6
40
50.5
49
18
74
0
49
-6.5
74
0
49
6.5
74
0
49
-6.5
74
0
49
6.5
74
0
49
-6.5
74
0
0
LTYPE
5
3E
100
AcDbSymbolTableRecord
100
AcDbLinetypeTableRecord
70
0
2
CENTER
3
____ _ ____ _ ____ _ ____
72
65
73
4
40
47.5
49
22
74
0
49
-8.5
74
0
49
8.5
74
0
49
-8.5
74
0
0
LTYPE
5
3F
100
AcDbSymbolTableRecord
100
AcDbLinetypeTableRecord
70
0
2
DOT
3
.........................
72
65
73
2
40
10
49
0
74
0
49
-10
74
0
0
LTYPE
5
40
100
AcDbSymbolTableRecord
100
AcDbLinetypeTableRecord
70
0
2
DASHDOT
3
_._._._._._._._._._._._._._._._.
72
65
73
4
40
70
49
31
74
0
49
-13
74
0
49
13
74
0
49
-13
74
0
0
ENDTAB
0
TABLE
2
LAYER
5
131
100
AcDbSymbolTable
0
LAYER
5
10
100
AcDbSymbolTableRecord
100
AcDbLayerTableRecord
2
0
70
0
62
7
6
CONTINUOUS
290
1
370
-3
390
0
0
LAYER
5
45
100
AcDbSymbolTableRecord
100
AcDbLayerTableRecord
2
2
70
0
62
7
6
CONTINUOUS
290
1
370
-3
390
0
0
LAYER
5
49
100
AcDbSymbolTableRecord
100
AcDbLayerTableRecord
2
81
70
0
62
-3
6
CONTINUOUS
290
1
370
-3
390
0
0
LAYER
5
4B
100
AcDbSymbolTableRecord
100
AcDbLayerTableRecord
2
80
70
0
62
-6
6
CONTINUOUS
290
1
370
-3
390
0
0
LAYER
5
4F
100
AcDbSymbolTableRecord
100
AcDbLayerTableRecord
2
1
70
0
62
4
6
CONTINUOUS
290
1
370
-3
390
0
0
LAYER
5
11c
100
AcDbSymbolTableRecord
100
AcDbLayerTableRecord
2
SK2
70
0
62
7
6
CONTINUOUS
290
1
370
-3
390
0
0
LAYER
5
11d
100
AcDbSymbolTableRecord
100
AcDbLayerTableRecord
2
SK1
70
0
62
4
6
CONTINUOUS
290
1
370
-3
390
0
0
LAYER
5
11e
100
AcDbSymbolTableRecord
100
AcDbLayerTableRecord
2
SK6
70
0
62
5
6
CONTINUOUS
290
1
370
-3
390
0
0
ENDTAB
0
TABLE
2
STYLE
5
132
100
AcDbSymbolTable
0
STYLE
5
11
100
AcDbSymbolTableRecord
100
AcDbTextStyleTableRecord
2
Standard
3
txt
70
0
71
0
40
0
41
1
42
0
50
0
0
STYLE
5
99
100
AcDbSymbolTableRecord
100
AcDbTextStyleTableRecord
2
DEFAULT
3
simplex.shx
70
0
71
0
40
0
41
1
42
0
50
0
0
STYLE
5
BC
100
AcDbSymbolTableRecord
100
AcDbTextStyleTableRecord
2
DWGDirectTextStyle
3
SIMPLEX
70
0
71
0
40
0
41
1
42
0
50
0
0
ENDTAB
0
TABLE
2
DIMSTYLE
5
133
100
AcDbSymbolTable
100
AcDbDimStyleTable
0
DIMSTYLE
105
27
100
AcDbSymbolTableRecord
100
AcDbDimStyleTableRecord
2
Standard
70
0
3
<>
41
0.18
42
0.0625
44
0.18
140
0.18
147
0.09
73
0
74
0
77
1
271
2
275
0
278
52
280
0
340
11
0
ENDTAB
0
TABLE
2
VIEW
5
134
100
AcDbSymbolTable
0
ENDTAB
0
TABLE
2
UCS
5
135
100
AcDbSymbolTable
0
ENDTAB
0
TABLE
2
APPID
5
136
100
AcDbSymbolTable
0
APPID
5
12
100
AcDbSymbolTableRecord
100
AcDbRegAppTableRecord
2
ACAD
70
0
0
ENDTAB
0
TABLE
2
BLOCK_RECORD
5
137
100
AcDbSymbolTable
0
BLOCK_RECORD
5
1F
100
AcDbSymbolTableRecord
100
AcDbBlockTableRecord
2
*Model_Space
340
0
70
0
0
BLOCK_RECORD
5
1B
100
AcDbSymbolTableRecord
100
AcDbBlockTableRecord
2
*Paper_Space
340
0
70
0
0
BLOCK_RECORD
5
23
100
AcDbSymbolTableRecord
100
AcDbBlockTableRecord
2
*Paper_Space0
340
0
70
0
0
BLOCK_RECORD
5
BE
100
AcDbSymbolTableRecord
100
AcDbBlockTableRecord
2
DimnDraft3D11
340
0
70
0
0
BLOCK_RECORD
5
CC
100
AcDbSymbolTableRecord
100
AcDbBlockTableRecord
2
DimnDraft3D2
340
0
70
0
0
BLOCK_RECORD
5
DA
100
AcDbSymbolTableRecord
100
AcDbBlockTableRecord
2
_CLOSED
340
0
70
0
0
BLOCK_RECORD
5
E1
100
AcDbSymbolTableRecord
100
AcDbBlockTableRecord
2
DimnDraft3D3
340
0
70
0
0
BLOCK_RECORD
5
EF
100
AcDbSymbolTableRecord
100
AcDbBlockTableRecord
2
DimnDraft3D4
340
0
70
0
0
ENDTAB
0
ENDSEC
0
SECTION
2
BLOCKS
0
BLOCK
5
20
100
AcDbEntity
8
0
100
AcDbBlockBegin
2
*Model_Space
70
0
10
0
20
0
30
0
3
*Model_Space
0
ENDBLK
5
21
100
AcDbEntity
8
0
100
AcDbBlockEnd
0
BLOCK
5
1C
100
AcDbEntity
8
0
100
AcDbBlockBegin
2
*Paper_Space
70
0
10
0
20
0
30
0
3
*Paper_Space
0
ENDBLK
5
1D
100
AcDbEntity
8
0
100
AcDbBlockEnd
0
BLOCK
5
24
100
AcDbEntity
8
0
100
AcDbBlockBegin
2
*Paper_Space0
70
0
10
0
20
0
30
0
3
*Paper_Space0
0
ENDBLK
5
25
100
AcDbEntity
8
0
100
AcDbBlockEnd
0
BLOCK
5
BF
100
AcDbEntity
8
0
100
AcDbBlockBegin
2
DimnDraft3D11
70
0
10
0
20
0
30
0
3
DimnDraft3D11
0
LINE
5
C1
100
AcDbEntity
8
SK2
62
256
6
ByLayer
370
-1
48
1
60
0
100
AcDbLine
10
15.812723
20
-12.4125
30
0
11
15.812723
21
-36.6625
31
0
39
0
210
0
220
0
230
1
0
LINE
5
C2
100
AcDbEntity
8
SK2
62
256
6
ByLayer
370
-1
48
1
60
0
100
AcDbLine
10
-65.537277
20
-7.9375
30
0
11
-65.537277
21
-36.6625
31
0
39
0
210
0
220
0
230
1
0
LINE
5
C3
100
AcDbEntity
8
SK2
62
256
6
ByLayer
370
-1
48
1
60
0
100
AcDbLine
10
15.812723
20
-34.6625
30
0
11
-65.537277
21
-34.6625
31
0
39
0
210
0
220
0
230
1
0
LINE
5
C4
100
AcDbEntity
8
SK2
62
256
6
ByLayer
370
-1
48
1
60
0
100
AcDbLine
10
15.812723
20
-34.6625
30
0
11
12.637724
21
-35.080497
31
0
39
0
210
0
220
0
230
1
0
LINE
5
C5
100
AcDbEntity
8
SK2
62
256
6
ByLayer
370
-1
48
1
60
0
100
AcDbLine
10
15.812723
20
-34.6625
30
0
11
12.637721
21
-34.244503
31
0
39
0
210
0
220
0
230
1
0
LINE
5
C6
100
AcDbEntity
8
SK2
62
256
6
ByLayer
370
-1
48
1
60
0
100
AcDbLine
10
12.637724
20
-35.080497
30
0
11
12.637721
21
-34.244503
31
0
39
0
210
0
220
0
230
1
0
LINE
5
C7
100
AcDbEntity
8
SK2
62
256
6
ByLayer
370
-1
48
1
60
0
100
AcDbLine
10
-65.537277
20
-34.6625
30
0
11
-62.362279
21
-34.244503
31
0
39
0
210
0
220
0
230
1
0
LINE
5
C8
100
AcDbEntity
8
SK2
62
256
6
ByLayer
370
-1
48
1
60
0
100
AcDbLine
10
-65.537277
20
-34.6625
30
0
11
-62.362276
21
-35.080497
31
0
39
0
210
0
220
0
230
1
0
LINE
5
C9
100
AcDbEntity
8
SK2
62
256
6
ByLayer
370
-1
48
1
60
0
100
AcDbLine
10
-62.362279
20
-34.244503
30
0
11
-62.362276
21
-35.080497
31
0
39
0
210
0
220
0
230
1
0
MTEXT
5
CA
100
AcDbEntity
8
SK2
62
256
6
ByLayer
370
-1
48
1
60
0
100
AcDbMText
10
-26.366225
20
-33.5375
30
0
210
0
220
0
230
1
1
\W00.656;\fsimplex.shx,bigfont.shx;80 
40
4.5
41
0
44
1.084337
50
0
71
7
72
5
7
DEFAULT
0
ENDBLK
5
C0
100
AcDbEntity
8
0
100
AcDbBlockEnd
0
BLOCK
5
D7
100
AcDbEntity
8
0
100
AcDbBlockBegin
2
DimnDraft3D2
70
0
10
0
20
0
30
0
3
DimnDraft3D2
0
MTEXT
5
CD
100
AcDbEntity
8
2
62
256
6
ByLayer
370
-1
48
1
60
0
100
AcDbMText
10
-2.545629
20
-20.623069
30
0
210
0
220
0
230
1
1
\W01.000;\fsimplex.shx,bigfont.shx;93%%d0' 
40
4.5
41
0
44
1.084337
50
313.5
71
7
72
5
7
DEFAULT
0
LINE
5
CE
100
AcDbEntity
8
2
62
256
6
ByLayer
370
-1
48
1
60
0
100
AcDbLine
10
15.812723
20
-12.4125
30
0
11
15.812723
21
-33.889321
31
0
39
0
210
0
220
0
230
1
0
LINE
5
CF
100
AcDbEntity
8
2
62
256
6
ByLayer
370
-1
48
1
60
0
100
AcDbLine
10
12.399188
20
-10.254948
30
0
11
-7.610609
21
-9.206279
31
0
39
0
210
0
220
0
230
1
0
ARC
5
D0
100
AcDbEntity
8
2
62
256
6
ByLayer
370
-1
48
1
60
0
100
AcDbCircle
39
0
10
15.812723
20
-10.433844
30
0
40
21.455476988176
210
0
220
0
230
1
100
AcDbArc
50
177
51
270
0
LINE
5
D1
100
AcDbEntity
8
2
62
256
6
ByLayer
370
-1
48
1
60
0
100
AcDbLine
10
15.812723
20
-31.889321
30
0
11
12.624457
21
-32.189813
31
0
39
0
210
0
220
0
230
1
0
LINE
5
D2
100
AcDbEntity
8
2
62
256
6
ByLayer
370
-1
48
1
60
0
100
AcDbLine
10
15.812723
20
-31.889321
30
0
11
12.655318
21
-31.35439
31
0
39
0
210
0
220
0
230
1
0
LINE
5
D3
100
AcDbEntity
8
2
62
256
6
ByLayer
370
-1
48
1
60
0
100
AcDbLine
10
12.624457
20
-32.189813
30
0
11
12.655318
21
-31.35439
31
0
39
0
210
0
220
0
230
1
0
LINE
5
D4
100
AcDbEntity
8
2
62
256
6
ByLayer
370
-1
48
1
60
0
100
AcDbLine
10
-5.61335
20
-9.310951
30
0
11
-5.244398
21
-12.492022
31
0
39
0
210
0
220
0
230
1
0
LINE
5
D5
100
AcDbEntity
8
2
62
256
6
ByLayer
370
-1
48
1
60
0
100
AcDbLine
10
-5.61335
20
-9.310951
30
0
11
-6.080292
21
-12.479124
31
0
39
0
210
0
220
0
230
1
0
LINE
5
D6
100
AcDbEntity
8
2
62
256
6
ByLayer
370
-1
48
1
60
0
100
AcDbLine
10
-5.244398
20
-12.492022
30
0
11
-6.080292
21
-12.479124
31
0
39
0
210
0
220
0
230
1
0
ENDBLK
5
D8
100
AcDbEntity
8
0
100
AcDbBlockEnd
0
BLOCK
5
DB
100
AcDbEntity
8
0
100
AcDbBlockBegin
2
_CLOSED
70
0
10
0
20
0
30
0
3
_CLOSED
0
LINE
5
DD
100
AcDbEntity
8
0
62
256
6
ByLayer
370
-2
48
1
60
0
100
AcDbLine
10
-1
20
0.166667
30
0
11
0
21
0
31
0
39
0
210
0
220
0
230
1
0
LINE
5
DE
100
AcDbEntity
8
0
62
256
6
ByLayer
370
-2
48
1
60
0
100
AcDbLine
10
0
20
0
30
0
11
-1
21
-0.166667
31
0
39
0
210
0
220
0
230
1
0
LINE
5
DF
100
AcDbEntity
8
0
62
256
6
ByLayer
370
-2
48
1
60
0
100
AcDbLine
10
-1
20
0.166667
30
0
11
-1
21
-0.166667
31
0
39
0
210
0
220
0
230
1
0
LINE
5
E0
100
AcDbEntity
8
0
62
256
6
ByLayer
370
-2
48
1
60
0
100
AcDbLine
10
0
20
0
30
0
11
-1
21
0
31
0
39
0
210
0
220
0
230
1
0
ENDBLK
5
DC
100
AcDbEntity
8
0
100
AcDbBlockEnd
0
BLOCK
5
EC
100
AcDbEntity
8
0
100
AcDbBlockBegin
2
DimnDraft3D3
70
0
10
0
20
0
30
0
3
DimnDraft3D3
0
MTEXT
5
E2
100
AcDbEntity
8
2
62
256
6
ByLayer
370
-1
48
1
60
0
100
AcDbMText
10
41.937723
20
-3.178947
30
0
210
0
220
0
230
1
1
\W01.000;\fsimplex.shx,bigfont.shx;16 
40
4.5
41
0
44
1.084337
50
90
71
7
72
5
7
DEFAULT
0
LINE
5
E3
100
AcDbEntity
8
2
62
256
6
ByLayer
370
-1
48
1
60
0
100
AcDbLine
10
2
20
5.9375
30
0
11
45.062723
21
5.9375
31
0
39
0
210
0
220
0
230
1
0
LINE
5
E4
100
AcDbEntity
8
2
62
256
6
ByLayer
370
-1
48
1
60
0
100
AcDbLine
10
17.812723
20
-10.4125
30
0
11
45.062723
21
-10.4125
31
0
39
0
210
0
220
0
230
1
0
LINE
5
E5
100
AcDbEntity
8
2
62
256
6
ByLayer
370
-1
48
1
60
0
100
AcDbLine
10
43.062723
20
5.9375
30
0
11
43.062723
21
-10.4125
31
0
39
0
210
0
220
0
230
1
0
LINE
5
E6
100
AcDbEntity
8
2
62
256
6
ByLayer
370
-1
48
1
60
0
100
AcDbLine
10
43.062723
20
5.9375
30
0
11
43.480719
21
2.762502
31
0
39
0
210
0
220
0
230
1
0
LINE
5
E7
100
AcDbEntity
8
2
62
256
6
ByLayer
370
-1
48
1
60
0
100
AcDbLine
10
43.062723
20
5.9375
30
0
11
42.644726
21
2.762498
31
0
39
0
210
0
220
0
230
1
0
LINE
5
E8
100
AcDbEntity
8
2
62
256
6
ByLayer
370
-1
48
1
60
0
100
AcDbLine
10
43.480719
20
2.762502
30
0
11
42.644726
21
2.762498
31
0
39
0
210
0
220
0
230
1
0
LINE
5
E9
100
AcDbEntity
8
2
62
256
6
ByLayer
370
-1
48
1
60
0
100
AcDbLine
10
43.062723
20
-10.4125
30
0
11
42.644726
21
-7.237502
31
0
39
0
210
0
220
0
230
1
0
LINE
5
EA
100
AcDbEntity
8
2
62
256
6
ByLayer
370
-1
48
1
60
0
100
AcDbLine
10
43.062723
20
-10.4125
30
0
11
43.480719
21
-7.237498
31
0
39
0
210
0
220
0
230
1
0
LINE
5
EB
100
AcDbEntity
8
2
62
256
6
ByLayer
370
-1
48
1
60
0
100
AcDbLine
10
42.644726
20
-7.237502
30
0
11
43.480719
21
-7.237498
31
0
39
0
210
0
220
0
230
1
0
ENDBLK
5
ED
100
AcDbEntity
8
0
100
AcDbBlockEnd
0
BLOCK
5
FA
100
AcDbEntity
8
0
100
AcDbBlockBegin
2
DimnDraft3D4
70
0
10
0
20
0
30
0
3
DimnDraft3D4
0
MTEXT
5
F0
100
AcDbEntity
8
SK2
62
256
6
ByLayer
370
-1
48
1
60
0
100
AcDbMText
10
-76.412277
20
-0.941447
30
0
210
0
220
0
230
1
1
\W01.000;\fsimplex.shx,bigfont.shx;12 
40
4.5
41
0
44
1.084337
50
90
71
7
72
5
7
DEFAULT
0
LINE
5
F1
100
AcDbEntity
8
SK2
62
256
6
ByLayer
370
-1
48
1
60
0
100
AcDbLine
10
-67.537277
20
5.9375
30
0
11
-77.287277
21
5.9375
31
0
39
0
210
0
220
0
230
1
0
LINE
5
F2
100
AcDbEntity
8
SK2
62
256
6
ByLayer
370
-1
48
1
60
0
100
AcDbLine
10
-67.537277
20
-5.9375
30
0
11
-77.287277
21
-5.9375
31
0
39
0
210
0
220
0
230
1
0
LINE
5
F3
100
AcDbEntity
8
SK2
62
256
6
ByLayer
370
-1
48
1
60
0
100
AcDbLine
10
-75.287277
20
17.1875
30
0
11
-75.287277
21
-17.1875
31
0
39
0
210
0
220
0
230
1
0
LINE
5
F4
100
AcDbEntity
8
SK2
62
256
6
ByLayer
370
-1
48
1
60
0
100
AcDbLine
10
-75.287277
20
5.9375
30
0
11
-75.705274
21
9.112498
31
0
39
0
210
0
220
0
230
1
0
LINE
5
F5
100
AcDbEntity
8
SK2
62
256
6
ByLayer
370
-1
48
1
60
0
100
AcDbLine
10
-75.287277
20
5.9375
30
0
11
-74.869281
21
9.112502
31
0
39
0
210
0
220
0
230
1
0
LINE
5
F6
100
AcDbEntity
8
SK2
62
256
6
ByLayer
370
-1
48
1
60
0
100
AcDbLine
10
-75.705274
20
9.112498
30
0
11
-74.869281
21
9.112502
31
0
39
0
210
0
220
0
230
1
0
LINE
5
F7
100
AcDbEntity
8
SK2
62
256
6
ByLayer
370
-1
48
1
60
0
100
AcDbLine
10
-75.287277
20
-5.9375
30
0
11
-74.869281
21
-9.112498
31
0
39
0
210
0
220
0
230
1
0
LINE
5
F8
100
AcDbEntity
8
SK2
62
256
6
ByLayer
370
-1
48
1
60
0
100
AcDbLine
10
-75.287277
20
-5.9375
30
0
11
-75.705274
21
-9.112502
31
0
39
0
210
0
220
0
230
1
0
LINE
5
F9
100
AcDbEntity
8
SK2
62
256
6
ByLayer
370
-1
48
1
60
0
100
AcDbLine
10
-74.869281
20
-9.112498
30
0
11
-75.705274
21
-9.112502
31
0
39
0
210
0
220
0
230
1
0
ENDBLK
5
FB
100
AcDbEntity
8
0
100
AcDbBlockEnd
0
ENDSEC
0
SECTION
2
ENTITIES
0
ARC
5
66
100
AcDbEntity
8
1
62
256
6
ByLayer
370
-1
48
1
60
0
100
AcDbCircle
39
0
10
-6.055339
20
-3.67953
30
0
40
1.34423045315122
210
0
220
0
230
-1
100
AcDbArc
50
38.276713
51
148
0
ARC
5
67
100
AcDbEntity
8
1
62
256
6
ByLayer
370
-1
48
1
60
0
100
AcDbCircle
39
0
10
5.027589
20
-3.896473
30
0
40
1.04999999999999
210
0
220
0
230
1
100
AcDbArc
50
18.568933
51
84.962464
0
ARC
5
68
100
AcDbEntity
8
1
62
256
6
ByLayer
370
-1
48
1
60
0
100
AcDbCircle
39
0
10
-6.055339
20
-3.67953
30
0
40
1.25
210
0
220
0
230
-1
100
AcDbArc
50
41.544486
51
148
0
ARC
5
69
100
AcDbEntity
8
1
62
256
6
ByLayer
370
-1
48
1
60
0
100
AcDbCircle
39
0
10
19.691767
20
-1.956493
30
0
40
8.10000000000002
210
0
220
0
230
1
100
AcDbArc
50
180.413662
51
193.889943
0
ARC
5
6A
100
AcDbEntity
8
1
62
256
6
ByLayer
370
-1
48
1
60
0
100
AcDbCircle
39
0
10
10.14059
20
-17.646873
30
0
40
8.10000000000001
210
0
220
0
230
1
100
AcDbArc
50
103.330773
51
105.081262
0
ARC
5
6B
100
AcDbEntity
8
1
62
256
6
ByLayer
370
-1
48
1
60
0
100
AcDbCircle
39
0
10
-5.027589
20
-3.896473
30
0
40
1.04999999999999
210
0
220
0
230
-1
100
AcDbArc
50
259.572407
51
88.498746
0
ARC
5
6C
100
AcDbEntity
8
1
62
256
6
ByLayer
370
-1
48
1
60
0
100
AcDbCircle
39
0
10
10.231829
20
-6.962005
30
0
40
1.03499999999999
210
0
220
0
230
1
100
AcDbArc
50
89.549159
51
149.5
0
ARC
5
6D
100
AcDbEntity
8
1
62
256
6
ByLayer
370
-1
48
1
60
0
100
AcDbCircle
39
0
10
10.231829
20
-6.962005
30
0
40
0.748000000000007
210
0
220
0
230
1
100
AcDbArc
50
57.338153
51
61.661847
0
ARC
5
6E
100
AcDbEntity
8
1
62
256
6
ByLayer
370
-1
48
1
60
0
100
AcDbCircle
39
0
10
5.04781
20
-3.908384
30
0
40
0.396875000000059
210
0
220
0
230
1
100
AcDbArc
50
87
51
212
0
ARC
5
6F
100
AcDbEntity
8
1
62
256
6
ByLayer
370
-1
48
1
60
0
100
AcDbCircle
39
0
10
11.821443
20
-4.263375
30
0
40
0.396875000000018
210
0
220
0
230
1
100
AcDbArc
50
32
51
87
0
ARC
5
71
100
AcDbEntity
8
1
62
256
6
ByLayer
370
-1
48
1
60
0
100
AcDbCircle
39
0
10
10.231829
20
-6.962005
30
0
40
1.03499999999999
210
0
220
0
230
1
100
AcDbArc
50
29.450841
51
89.549159
0
ARC
5
72
100
AcDbEntity
8
1
62
256
6
ByLayer
370
-1
48
1
60
0
100
AcDbCircle
39
0
10
8.642215
20
-9.660634
30
0
40
0.396875000000018
210
0
220
0
230
1
100
AcDbArc
50
212
51
267
0
ARC
5
73
100
AcDbEntity
8
1
62
256
6
ByLayer
370
-1
48
1
60
0
100
AcDbCircle
39
0
10
-10.231829
20
-6.962005
30
0
40
0.748000000000007
210
0
220
0
230
-1
100
AcDbArc
50
180.524579
51
240.475421
0
ARC
5
74
100
AcDbEntity
8
1
62
256
6
ByLayer
370
-1
48
1
60
0
100
AcDbCircle
39
0
10
-10.231829
20
-6.962005
30
0
40
0.748000000000007
210
0
220
0
230
-1
100
AcDbArc
50
60.475421
51
118.338153
0
ARC
5
75
100
AcDbEntity
8
1
62
256
6
ByLayer
370
-1
48
1
60
0
100
AcDbCircle
39
0
10
10.231829
20
-6.962005
30
0
40
1.03499999999999
210
0
220
0
230
1
100
AcDbArc
50
149.5
51
209.450841
0
ARC
5
77
100
AcDbEntity
8
1
62
256
6
ByLayer
370
-1
48
1
60
0
100
AcDbCircle
39
0
10
-10.231829
20
-6.962005
30
0
40
0.748000000000007
210
0
220
0
230
-1
100
AcDbArc
50
122.661847
51
180.524579
0
ARC
5
78
100
AcDbEntity
8
1
62
256
6
ByLayer
370
-1
48
1
60
0
100
AcDbCircle
39
0
10
-10.231829
20
-6.962005
30
0
40
0.748000000000007
210
0
220
0
230
-1
100
AcDbArc
50
0.524579
51
60.475421
0
ARC
5
79
100
AcDbEntity
8
1
62
256
6
ByLayer
370
-1
48
1
60
0
100
AcDbCircle
39
0
10
10.231829
20
-6.962005
30
0
40
1.03499999999999
210
0
220
0
230
1
100
AcDbArc
50
269.549159
51
329.5
0
ARC
5
7A
100
AcDbEntity
8
1
62
256
6
ByLayer
370
-1
48
1
60
0
100
AcDbCircle
39
0
10
10.231829
20
-6.962005
30
0
40
1.03499999999999
210
0
220
0
230
1
100
AcDbArc
50
209.450841
51
269.549159
0
ARC
5
7C
100
AcDbEntity
8
1
62
256
6
ByLayer
370
-1
48
1
60
0
100
AcDbCircle
39
0
10
-10.231829
20
-6.962005
30
0
40
0.748000000000007
210
0
220
0
230
-1
100
AcDbArc
50
302.661847
51
0.524579
0
ARC
5
7E
100
AcDbEntity
8
1
62
256
6
ByLayer
370
-1
48
1
60
0
100
AcDbCircle
39
0
10
-10.231829
20
-6.962005
30
0
40
0.748000000000007
210
0
220
0
230
-1
100
AcDbArc
50
240.475421
51
298.338153
0
ARC
5
7F
100
AcDbEntity
8
1
62
256
6
ByLayer
370
-1
48
1
60
0
100
AcDbCircle
39
0
10
10.231829
20
-6.962005
30
0
40
0.748000000000007
210
0
220
0
230
1
100
AcDbArc
50
237.338153
51
241.661847
0
ARC
5
80
100
AcDbEntity
8
1
62
256
6
ByLayer
370
-1
48
1
60
0
100
AcDbCircle
39
0
10
15.415848
20
-10.015625
30
0
40
0.396875000000059
210
0
220
0
230
1
100
AcDbArc
50
267
51
32
0
ARC
5
82
100
AcDbEntity
8
1
62
256
6
ByLayer
370
-1
48
1
60
0
100
AcDbCircle
39
0
10
10.231829
20
-6.962005
30
0
40
1.03499999999999
210
0
220
0
230
1
100
AcDbArc
50
329.5
51
29.450841
0
CIRCLE
5
70
100
AcDbEntity
8
1
62
256
6
ByLayer
370
-1
48
1
60
0
100
AcDbCircle
10
10.231829
20
-6.962005
30
0
40
1.3
39
0
210
0
220
0
230
1
0
CIRCLE
5
76
100
AcDbEntity
8
1
62
256
6
ByLayer
370
-1
48
1
60
0
100
AcDbCircle
10
10.231829
20
-6.962005
30
0
40
1.91905389152441
39
0
210
0
220
0
230
1
0
CIRCLE
5
7B
100
AcDbEntity
8
1
62
256
6
ByLayer
370
-1
48
1
60
0
100
AcDbCircle
10
10.231829
20
-6.962005
30
0
40
1.875
39
0
210
0
220
0
230
1
0
CIRCLE
5
7D
100
AcDbEntity
8
1
62
256
6
ByLayer
370
-1
48
1
60
0
100
AcDbCircle
10
10.231829
20
-6.962005
30
0
40
1.725
39
0
210
0
220
0
230
1
0
CIRCLE
5
81
100
AcDbEntity
8
1
62
256
6
ByLayer
370
-1
48
1
60
0
100
AcDbCircle
10
10.231829
20
-6.962005
30
0
40
1.8247596293947
39
0
210
0
220
0
230
1
0
POINT
5
41
100
AcDbEntity
8
SK2
62
256
6
ByLayer
370
-1
48
1
60
0
100
AcDbPoint
10
15.812723
20
22.2875
30
0
39
0
210
0
220
0
230
1
50
360
0
POINT
5
43
100
AcDbEntity
8
SK2
62
256
6
ByLayer
370
-1
48
1
60
0
100
AcDbPoint
10
15.812723
20
22.2875
30
0
39
0
210
0
220
0
230
1
50
360
0
POINT
5
44
100
AcDbEntity
8
2
62
256
6
ByLayer
370
-1
48
1
60
0
100
AcDbPoint
10
15.812723
20
22.2875
30
0
39
0
210
0
220
0
230
1
50
360
0
POINT
5
46
100
AcDbEntity
8
SK2
62
256
6
ByLayer
370
-1
48
1
60
0
100
AcDbPoint
10
15.812723
20
22.2875
30
0
39
0
210
0
220
0
230
1
50
360
0
POINT
5
47
100
AcDbEntity
8
SK2
62
256
6
ByLayer
370
-1
48
1
60
0
100
AcDbPoint
10
15.812723
20
22.2875
30
0
39
0
210
0
220
0
230
1
50
360
0
POINT
5
48
100
AcDbEntity
8
81
62
256
6
ByLayer
370
-1
48
1
60
0
100
AcDbPoint
10
15.812723
20
-10.4125
30
0
39
0
210
0
220
0
230
1
50
360
0
POINT
5
4A
100
AcDbEntity
8
80
62
256
6
ByLayer
370
-1
48
1
60
0
100
AcDbPoint
10
0
20
0
30
0
39
0
210
0
220
0
230
1
50
360
0
SPLINE
5
83
100
AcDbEntity
8
1
62
256
6
ByLayer
370
-1
48
1
60
0
100
AcDbSpline
70
4
71
3
72
8
73
4
40
0
40
0
40
0
40
0
40
1
40
1
40
1
40
1
41
1
10
5.11978753903031
20
-2.85052856810853
30
0
41
1
10
5.08084477351463
20
-2.84709580840965
30
0
41
1
10
5.04091725946825
20
-2.84576297864459
30
0
41
1
10
5.00007999859767
20
-2.84683323421476
30
0
0
SPLINE
5
84
100
AcDbEntity
8
1
62
256
6
ByLayer
370
-1
48
1
60
0
100
AcDbSpline
70
4
71
3
72
14
73
10
40
0
40
0
40
0
40
0
40
0.284031179780449
40
0.284031179780449
40
0.570745615523404
40
0.570745615523404
40
0.8305213313037
40
0.8305213313037
40
1
40
1
40
1
40
1
41
1
10
9.53649769192634
20
-7.55941580731539
30
0
41
1
10
9.5159497824493
20
-7.56454802804279
30
0
41
1
10
9.4938477956843
20
-7.56622488601221
30
0
41
1
10
9.44987428898219
20
-7.56150781631681
30
0
41
1
10
9.42733138691557
20
-7.55492542950716
30
0
41
1
10
9.38804722257225
20
-7.53462340342179
30
0
41
1
10
9.37038510654384
20
-7.5212932665377
30
0
41
1
10
9.34610398587228
20
-7.49498143015242
30
0
41
1
10
9.33758072531185
20
-7.48329937410725
30
0
41
1
10
9.33057380256952
20
-7.47088984956429
30
0
0
SPLINE
5
85
100
AcDbEntity
8
1
62
256
6
ByLayer
370
-1
48
1
60
0
100
AcDbSpline
70
4
71
3
72
14
73
10
40
0
40
0
40
0
40
0
40
0.28247413771524
40
0.28247413771524
40
0.569943911131508
40
0.569943911131508
40
0.830410576242912
40
0.830410576242912
40
1
40
1
40
1
40
1
41
1
10
10.0607524101832
20
-6.06079919073065
30
0
41
1
10
10.0665707419175
20
-6.04061061058138
30
0
41
1
10
10.0760964489069
20
-6.02080475458257
30
0
41
1
10
10.1020201200309
20
-5.9852013338089
30
0
41
1
10
10.1189712618459
20
-5.9689529594277
30
0
41
1
10
10.1561623996125
20
-5.94504303411145
30
0
41
1
10
10.1765244824853
20
-5.9363894882413
30
0
41
1
10
10.2114090827098
20
-5.92848251209404
30
0
41
1
10
10.2257532385172
20
-5.9269246853988
30
0
41
1
10
10.2399728786721
20
-5.92703657731567
30
0
0
SPLINE
5
86
100
AcDbEntity
8
1
62
256
6
ByLayer
370
-1
48
1
60
0
100
AcDbSpline
70
4
71
3
72
16
73
12
40
0
40
0
40
0
40
0
40
0.066856373114832
40
0.066856373114832
40
0.291501607187307
40
0.291501607187307
40
0.519124459613478
40
0.519124459613478
40
0.761313389572991
40
0.761313389572991
40
1
40
1
40
1
40
1
41
1
10
11.123615073839
20
-7.48730674165981
30
0
41
1
10
11.1207605491323
20
-7.49215276297753
30
0
41
1
10
11.1176807578452
20
-7.49687435513061
30
0
41
1
10
11.1034447080198
20
-7.51666680871253
30
0
41
1
10
11.089994737254
20
-7.53032512119213
30
0
41
1
10
11.0602410392761
20
-7.5526428707698
30
0
41
1
10
11.0435320011092
20
-7.5615297721574
30
0
41
1
10
11.0082246310635
20
-7.57413723501475
30
0
41
1
10
10.9891382414429
20
-7.57766774002152
30
0
41
1
10
10.9521783267167
20
-7.57893205631615
30
0
41
1
10
10.9339090585532
20
-7.57677716700059
30
0
41
1
10
10.9167255424875
20
-7.57221336619588
30
0
0
SPLINE
5
87
100
AcDbEntity
8
1
62
256
6
ByLayer
370
-1
48
1
60
0
100
AcDbSpline
70
4
71
3
72
16
73
12
40
0
40
0
40
0
40
0
40
0.0653886635332065
40
0.0653886635332065
40
0.289400369430203
40
0.289400369430203
40
0.516309567087957
40
0.516309567087957
40
0.757684426216421
40
0.757684426216421
40
1
40
1
40
1
40
1
41
1
10
10.223684906892
20
-7.99697249467528
30
0
41
1
10
10.218167573688
20
-7.99692907972374
30
0
41
1
10
10.2126454651402
20
-7.99663807119381
30
0
41
1
10
10.1884841732639
20
-7.99427847594308
30
0
41
1
10
10.1699148166715
20
-7.98950653333327
30
0
41
1
10
10.1356711144879
20
-7.97498382381008
30
0
41
1
10
10.1195954357763
20
-7.96499826499664
30
0
41
1
10
10.0909656107226
20
-7.94080138750454
30
0
41
1
10
10.0783295904393
20
-7.92607346671898
30
0
41
1
10
10.0584986401813
20
-7.89447201837271
30
0
41
1
10
10.0510992359316
20
-7.87726106029379
30
0
41
1
10
10.0464244770507
20
-7.85978563883225
30
0
0
SPLINE
5
88
100
AcDbEntity
8
1
62
256
6
ByLayer
370
-1
48
1
60
0
100
AcDbSpline
70
4
71
3
72
14
73
10
40
0
40
0
40
0
40
0
40
0.284031179780416
40
0.284031179780416
40
0.57074561552341
40
0.57074561552341
40
0.830521331303676
40
0.830521331303676
40
1
40
1
40
1
40
1
41
1
10
10.9271600936377
20
-6.36459326467556
30
0
41
1
10
10.9477080031148
20
-6.35946104394816
30
0
41
1
10
10.9698099898797
20
-6.35778418597877
30
0
41
1
10
11.0137834965819
20
-6.36250125567418
30
0
41
1
10
11.0363263986485
20
-6.36908364248382
30
0
41
1
10
11.0756105629918
20
-6.38938566856916
30
0
41
1
10
11.0932726790202
20
-6.40271580545325
30
0
41
1
10
11.1175537996918
20
-6.42902764183853
30
0
41
1
10
11.1260770602522
20
-6.44070969788373
30
0
41
1
10
11.1330839829945
20
-6.45311922242669
30
0
0
SPLINE
5
89
100
AcDbEntity
8
1
62
256
6
ByLayer
370
-1
48
1
60
0
100
AcDbSpline
70
4
71
3
72
16
73
12
40
0
40
0
40
0
40
0
40
0.0652326840050111
40
0.0652326840050111
40
0.289898584794713
40
0.289898584794713
40
0.517450972778464
40
0.517450972778464
40
0.759495158011902
40
0.759495158011902
40
1
40
1
40
1
40
1
41
1
10
11.1330839829945
20
-6.45311922242669
30
0
41
1
10
11.1357826143268
20
-6.45789860033361
30
0
41
1
10
11.1382711969495
20
-6.46280418132153
30
0
41
1
10
11.1482691676129
20
-6.48489509891706
30
0
41
1
10
11.1533983842068
20
-6.50336999954251
30
0
41
1
10
11.1578966808187
20
-6.540293619301
30
0
41
1
10
11.1572629967614
20
-6.55920735167604
30
0
41
1
10
11.1505766576073
20
-6.59609014211389
30
0
41
1
10
11.1441174953065
20
-6.61438803649506
30
0
41
1
10
11.1267137094712
20
-6.64717318523731
30
0
41
1
10
11.1156289973599
20
-6.66203573820584
30
0
41
1
10
11.1029803724918
20
-6.67471837790268
30
0
0
SPLINE
5
8A
100
AcDbEntity
8
1
62
256
6
ByLayer
370
-1
48
1
60
0
100
AcDbSpline
70
4
71
3
72
12
73
8
40
0
40
0
40
0
40
0
40
0.377026877432514
40
0.377026877432514
40
0.761057556296444
40
0.761057556296444
40
1
40
1
40
1
40
1
41
1
10
10.586885348764
20
-6.30364375871184
30
0
41
1
10
10.5542543808151
20
-6.2813561604186
30
0
41
1
10
10.5247306823821
20
-6.25421583103429
30
0
41
1
10
10.475562984587
20
-6.19508799097321
30
0
41
1
10
10.455374011996
20
-6.16228364673407
30
0
41
1
10
10.4307111475062
20
-6.10759639531764
30
0
41
1
10
10.4230581795172
20
-6.08599826226626
30
0
41
1
10
10.4172333085133
20
-6.0642234331587
30
0
0
SPLINE
5
8B
100
AcDbEntity
8
1
62
256
6
ByLayer
370
-1
48
1
60
0
100
AcDbSpline
70
4
71
3
72
14
73
10
40
0
40
0
40
0
40
0
40
0.282474137712719
40
0.282474137712719
40
0.569943911130089
40
0.569943911130089
40
0.830410576242386
40
0.830410576242386
40
1
40
1
40
1
40
1
41
1
10
10.4029053753806
20
-7.86320988126113
30
0
41
1
10
10.3970870436463
20
-7.88339846141008
30
0
41
1
10
10.3875613366569
20
-7.90320431740864
30
0
41
1
10
10.3616376655331
20
-7.93880773818208
30
0
41
1
10
10.3446865237181
20
-7.95505611256328
30
0
41
1
10
10.3074953859515
20
-7.97896603787953
30
0
41
1
10
10.2871333030787
20
-7.98761958374965
30
0
41
1
10
10.2522487028542
20
-7.99552655989692
30
0
41
1
10
10.2379045470468
20
-7.99708438659212
30
0
41
1
10
10.223684906892
20
-7.99697249467528
30
0
0
SPLINE
5
8C
100
AcDbEntity
8
1
62
256
6
ByLayer
370
-1
48
1
60
0
100
AcDbSpline
70
4
71
3
72
16
73
12
40
0
40
0
40
0
40
0
40
0.0652326840049529
40
0.0652326840049529
40
0.289898584794653
40
0.289898584794653
40
0.517450972778381
40
0.517450972778381
40
0.759495158011794
40
0.759495158011794
40
1
40
1
40
1
40
1
41
1
10
9.33057380256952
20
-7.47088984956429
30
0
41
1
10
9.32787517123722
20
-7.46611047165737
30
0
41
1
10
9.32538658861455
20
-7.46120489066945
30
0
41
1
10
9.3153886179511
20
-7.43911397307392
30
0
41
1
10
9.3102594013572
20
-7.42063907244847
30
0
41
1
10
9.30576110474533
20
-7.38371545268998
30
0
41
1
10
9.30639478880261
20
-7.36480172031494
30
0
41
1
10
9.31308112795668
20
-7.32791892987709
30
0
41
1
10
9.31954029025752
20
-7.30962103549592
30
0
41
1
10
9.33694407609275
20
-7.27683588675367
30
0
41
1
10
9.34802878820409
20
-7.26197333378511
30
0
41
1
10
9.36067741307224
20
-7.24929069408827
30
0
0
SPLINE
5
8D
100
AcDbEntity
8
1
62
256
6
ByLayer
370
-1
48
1
60
0
100
AcDbSpline
70
4
71
3
72
18
73
14
40
0
40
0
40
0
40
0
40
0.213392515133108
40
0.213392515133108
40
0.389002709918903
40
0.389002709918903
40
0.566251191328446
40
0.566251191328446
40
0.721174299304849
40
0.721174299304849
40
0.927414893592127
40
0.927414893592127
40
1
40
1
40
1
40
1
41
1
10
10.0607524101832
20
-6.06079919073065
30
0
41
1
10
10.048745139077
20
-6.10246229386226
30
0
41
1
10
10.0298063945404
20
-6.14366809041471
30
0
41
1
10
9.98279583444747
20
-6.21268155451668
30
0
41
1
10
9.95632219699928
20
-6.24229283350462
30
0
41
1
10
9.8952752423998
20
-6.29331581987074
30
0
41
1
10
9.85966052081184
20
-6.31531198973428
30
0
41
1
10
9.7902917089192
20
-6.34530801506597
30
0
41
1
10
9.75606361873764
20
-6.35512989321589
30
0
41
1
10
9.6778692483133
20
-6.36774270978239
30
0
41
1
10
9.63309722878228
20
-6.36749600754115
30
0
41
1
10
9.57607580218621
20
-6.35871719520662
30
0
41
1
10
9.56134402810139
20
-6.35562335758888
30
0
41
1
10
9.54693224307658
20
-6.35179570579507
30
0
0
SPLINE
5
8E
100
AcDbEntity
8
1
62
256
6
ByLayer
370
-1
48
1
60
0
100
AcDbSpline
70
4
71
3
72
18
73
14
40
0
40
0
40
0
40
0
40
0.213308050978108
40
0.213308050978108
40
0.388932752290886
40
0.388932752290886
40
0.566196729917838
40
0.566196729917838
40
0.721122426930003
40
0.721122426930003
40
0.927347770098271
40
0.927347770098271
40
1
40
1
40
1
40
1
41
1
10
11.0975740457975
20
-7.26519353194121
30
0
41
1
10
11.0675350849802
20
-7.23394996481971
30
0
41
1
10
11.0413599590572
20
-7.19694044217178
30
0
41
1
10
11.00515999615
20
-7.12171050808399
30
0
41
1
10
10.9927796649288
20
-7.0839667361337
30
0
41
1
10
10.9791733213563
20
-7.00557142142023
30
0
41
1
10
10.9779628405655
20
-6.96372548398676
30
0
41
1
10
10.9867281364172
20
-6.88865442616105
30
0
41
1
10
10.995363129332
20
-6.85410653432456
30
0
41
1
10
11.0235942276037
20
-6.78010498826961
30
0
41
1
10
11.046222305651
20
-6.74147404948096
30
0
41
1
10
11.0823772154823
20
-6.69649967224643
30
0
41
1
10
11.0924408859711
20
-6.68528620733278
30
0
41
1
10
11.1029803724918
20
-6.67471837790268
30
0
0
SPLINE
5
8F
100
AcDbEntity
8
1
62
256
6
ByLayer
370
-1
48
1
60
0
100
AcDbSpline
70
4
71
3
72
18
73
14
40
0
40
0
40
0
40
0
40
0.213392515134187
40
0.213392515134187
40
0.389002709919756
40
0.389002709919756
40
0.566251191329057
40
0.566251191329057
40
0.72117429930525
40
0.72117429930525
40
0.927414893592224
40
0.927414893592224
40
1
40
1
40
1
40
1
41
1
10
10.4029053753806
20
-7.86320988126113
30
0
41
1
10
10.4149126464868
20
-7.8215467781292
30
0
41
1
10
10.4338513910235
20
-7.78034098157647
30
0
41
1
10
10.4808619511165
20
-7.71132751747427
30
0
41
1
10
10.5073355885647
20
-7.68171623848633
30
0
41
1
10
10.5683825431642
20
-7.63069325212021
30
0
41
1
10
10.6039972647522
20
-7.60869708225667
30
0
41
1
10
10.6733660766448
20
-7.57870105692498
30
0
41
1
10
10.7075941668264
20
-7.56887917877506
30
0
41
1
10
10.7857885372507
20
-7.55626636220856
30
0
41
1
10
10.8305605567817
20
-7.55651306444983
30
0
41
1
10
10.8875819833778
20
-7.56529187678433
30
0
41
1
10
10.9023137574626
20
-7.56838571440207
30
0
41
1
10
10.9167255424875
20
-7.57221336619588
30
0
0
SPLINE
5
90
100
AcDbEntity
8
1
62
256
6
ByLayer
370
-1
48
1
60
0
100
AcDbSpline
70
4
71
3
72
12
73
8
40
0
40
0
40
0
40
0
40
0.464588258220413
40
0.464588258220413
40
0.846564626855878
40
0.846564626855878
40
1
40
1
40
1
40
1
41
1
10
10.9271600936377
20
-6.36459326467556
30
0
41
1
10
10.8850274934188
20
-6.37511666144181
30
0
41
1
10
10.8398109845229
20
-6.37939317651851
30
0
41
1
10
10.7564396978032
20
-6.37328725941902
30
0
41
1
10
10.7175251840579
20
-6.36520840921446
30
0
41
1
10
10.6650797689689
20
-6.34606966279463
30
0
41
1
10
10.6500838368154
20
-6.33960490767885
30
0
41
1
10
10.6355094174113
20
-6.33228552402662
30
0
0
SPLINE
5
91
100
AcDbEntity
8
1
62
256
6
ByLayer
370
-1
48
1
60
0
100
AcDbSpline
70
4
71
3
72
14
73
10
40
0
40
0
40
0
40
0
40
0.284243762693655
40
0.284243762693655
40
0.571492052058092
40
0.571492052058092
40
0.831782611546845
40
0.831782611546845
40
1
40
1
40
1
40
1
41
1
10
11.0975740457975
20
-7.26519353194118
30
0
41
1
10
11.1122266616469
20
-7.28043373913681
30
0
41
1
10
11.1246648868406
20
-7.29873183144704
30
0
41
1
10
11.1424644254195
20
-7.33915952984941
30
0
41
1
10
11.1479885218311
20
-7.36196842175096
30
0
41
1
10
11.1499701586088
20
-7.40611471356956
30
0
41
1
10
11.1472225248589
20
-7.42805587189255
30
0
41
1
10
11.1365724729666
20
-7.46207157035482
30
0
41
1
10
11.1307741476519
20
-7.47515304607913
30
0
41
1
10
11.123615073839
20
-7.48730674165981
30
0
0
SPLINE
5
92
100
AcDbEntity
8
1
62
256
6
ByLayer
370
-1
48
1
60
0
100
AcDbSpline
70
4
71
3
72
14
73
10
40
0
40
0
40
0
40
0
40
0.284243762693635
40
0.284243762693635
40
0.571492052058067
40
0.571492052058067
40
0.831782611546805
40
0.831782611546805
40
1
40
1
40
1
40
1
41
1
10
9.36608373976657
20
-6.65881554004977
30
0
41
1
10
9.35143112391717
20
-6.64357533285417
30
0
41
1
10
9.33899289872352
20
-6.62527724054391
30
0
41
1
10
9.32119336014455
20
-6.58484954214154
30
0
41
1
10
9.31566926373296
20
-6.56204065023999
30
0
41
1
10
9.3136876269553
20
-6.51789435842139
30
0
41
1
10
9.31643526070522
20
-6.4959532000984
30
0
41
1
10
9.32708531259749
20
-6.46193750163613
30
0
41
1
10
9.33288363791215
20
-6.44885602591182
30
0
41
1
10
9.34004271172506
20
-6.43670233033114
30
0
0
SPLINE
5
93
100
AcDbEntity
8
1
62
256
6
ByLayer
370
-1
48
1
60
0
100
AcDbSpline
70
4
71
3
72
16
73
12
40
0
40
0
40
0
40
0
40
0.0668563731148164
40
0.0668563731148164
40
0.291501607187342
40
0.291501607187342
40
0.519124459613564
40
0.519124459613564
40
0.76131338957313
40
0.76131338957313
40
1
40
1
40
1
40
1
41
1
10
9.34004271172506
20
-6.43670233033114
30
0
41
1
10
9.34289723643172
20
-6.43185630901343
30
0
41
1
10
9.3459770277189
20
-6.42713471686034
30
0
41
1
10
9.36021307754427
20
-6.40734226327842
30
0
41
1
10
9.37366304831005
20
-6.39368395079882
30
0
41
1
10
9.403416746288
20
-6.37136620122115
30
0
41
1
10
9.42012578445483
20
-6.36247929983355
30
0
41
1
10
9.45543315450055
20
-6.34987183697621
30
0
41
1
10
9.47451954412116
20
-6.34634133196943
30
0
41
1
10
9.51147945884742
20
-6.3450770156748
30
0
41
1
10
9.52974872701083
20
-6.34723190499037
30
0
41
1
10
9.54693224307658
20
-6.35179570579507
30
0
0
SPLINE
5
94
100
AcDbEntity
8
1
62
256
6
ByLayer
370
-1
48
1
60
0
100
AcDbSpline
70
4
71
3
72
12
73
8
40
0
40
0
40
0
40
0
40
0.464588258220316
40
0.464588258220316
40
0.846564626855691
40
0.846564626855691
40
1
40
1
40
1
40
1
41
1
10
9.53649769192634
20
-7.55941580731539
30
0
41
1
10
9.57863029214528
20
-7.54889241054914
30
0
41
1
10
9.62384680104111
20
-7.54461589547245
30
0
41
1
10
9.70721808776091
20
-7.55072181257194
30
0
41
1
10
9.74613260150608
20
-7.55880066277649
30
0
41
1
10
9.79857801659509
20
-7.57793940919629
30
0
41
1
10
9.81357394874854
20
-7.58440416431205
30
0
41
1
10
9.8281483681526
20
-7.59172354796425
30
0
0
SPLINE
5
95
100
AcDbEntity
8
1
62
256
6
ByLayer
370
-1
48
1
60
0
100
AcDbSpline
70
4
71
3
72
12
73
8
40
0
40
0
40
0
40
0
40
0.377026877665736
40
0.377026877665736
40
0.761057556567545
40
0.761057556567545
40
1
40
1
40
1
40
1
41
1
10
9.87677243680025
20
-7.62036531327922
30
0
41
1
10
9.90940340476925
20
-7.6426529115862
30
0
41
1
10
9.93892710321848
20
-7.66979324099046
30
0
41
1
10
9.98809480101926
20
-7.72892108107879
30
0
41
1
10
10.0082837736056
20
-7.76172542532348
30
0
41
1
10
10.0329466380752
20
-7.81641267672217
30
0
41
1
10
10.0405996060534
20
-7.83801080974928
30
0
41
1
10
10.0464244770507
20
-7.85978563883225
30
0
0
SPLINE
5
96
100
AcDbEntity
8
1
62
256
6
ByLayer
370
-1
48
1
60
0
100
AcDbSpline
70
4
71
3
72
16
73
12
40
0
40
0
40
0
40
0
40
0.0653886635330951
40
0.0653886635330951
40
0.289400369430074
40
0.289400369430074
40
0.516309567087827
40
0.516309567087827
40
0.757684426216296
40
0.757684426216296
40
1
40
1
40
1
40
1
41
1
10
10.2399728786721
20
-5.92703657731567
30
0
41
1
10
10.245490211876
20
-5.92707999226721
30
0
41
1
10
10.2510123204239
20
-5.92737100079711
30
0
41
1
10
10.2751736123001
20
-5.92973059604788
30
0
41
1
10
10.2937429688926
20
-5.93450253865765
30
0
41
1
10
10.3279866710761
20
-5.94902524818085
30
0
41
1
10
10.3440623497877
20
-5.95901080699429
30
0
41
1
10
10.3726921748414
20
-5.98320768448639
30
0
41
1
10
10.3853281951247
20
-5.99793560527195
30
0
41
1
10
10.4051591453827
20
-6.02953705361821
30
0
41
1
10
10.4125585496324
20
-6.04674801169713
30
0
41
1
10
10.4172333085133
20
-6.0642234331587
30
0
0
SPLINE
5
97
100
AcDbEntity
8
1
62
256
6
ByLayer
370
-1
48
1
60
0
100
AcDbSpline
70
4
71
3
72
18
73
14
40
0
40
0
40
0
40
0
40
0.213308050978112
40
0.213308050978112
40
0.388932752290883
40
0.388932752290883
40
0.566196729917823
40
0.566196729917823
40
0.721122426929975
40
0.721122426929975
40
0.927347770098229
40
0.927347770098229
40
1
40
1
40
1
40
1
41
1
10
9.36608373976657
20
-6.65881554004974
30
0
41
1
10
9.39612270058387
20
-6.69005910717124
30
0
41
1
10
9.42229782650691
20
-6.72706862981917
30
0
41
1
10
9.45849778941414
20
-6.80229856390696
30
0
41
1
10
9.47087812063535
20
-6.84004233585725
30
0
41
1
10
9.48448446420781
20
-6.91843765057072
30
0
41
1
10
9.48569494499856
20
-6.96028358800422
30
0
41
1
10
9.47692964914691
20
-7.0353546458299
30
0
41
1
10
9.4682946562321
20
-7.06990253766639
30
0
41
1
10
9.4400635579604
20
-7.14390408372134
30
0
41
1
10
9.41743547991314
20
-7.18253502251
30
0
41
1
10
9.3812805700818
20
-7.22750939974452
30
0
41
1
10
9.37121689959298
20
-7.23872286465817
30
0
41
1
10
9.36067741307224
20
-7.2492906940883
30
0
0
INSERT
5
CB
100
AcDbEntity
8
SK2
62
256
6
ByLayer
370
-1
48
1
60
0
100
AcDbBlockReference
2
DimnDraft3D11
10
0
20
0
30
0
41
1
42
1
43
1
50
0
210
0
220
0
230
1
0
LINE
5
4C
100
AcDbEntity
8
80
62
256
6
ByLayer
370
-1
48
1
60
0
100
AcDbLine
10
0
20
0
30
0
11
-5
21
0
31
0
39
0
210
0
220
0
230
1
0
LINE
5
4D
100
AcDbEntity
8
81
62
256
6
ByLayer
370
-1
48
1
60
0
100
AcDbLine
10
15.812723
20
-10.4125
30
0
11
25.812723
21
-10.4125
31
0
39
0
210
0
220
0
230
1
0
LINE
5
4E
100
AcDbEntity
8
1
62
256
6
ByLayer
370
-1
48
1
60
0
100
AcDbLine
10
8.033061
20
-9.825855
30
0
11
2.32779
21
-9.526854
31
0
39
0
210
0
220
0
230
1
0
LINE
5
50
100
AcDbEntity
8
1
62
256
6
ByLayer
370
-1
48
1
60
0
100
AcDbLine
10
0
20
5.937037
30
0
11
5.000446
21
5.937037
31
0
39
0
210
0
220
0
230
1
0
LINE
5
51
100
AcDbEntity
8
1
62
256
6
ByLayer
370
-1
48
1
60
0
100
AcDbLine
10
2.32779
20
-9.526854
30
0
11
1.5
21
-6.4375
31
0
39
0
210
0
220
0
230
1
0
LINE
5
52
100
AcDbEntity
8
1
62
256
6
ByLayer
370
-1
48
1
60
0
100
AcDbLine
10
1
20
-5.9375
30
0
11
1.5
21
-6.4375
31
0
39
0
210
0
220
0
230
1
0
LINE
5
53
100
AcDbEntity
8
1
62
256
6
ByLayer
370
-1
48
1
60
0
100
AcDbLine
10
7.115399
20
-3.017131
30
0
11
7.504424
21
-3.639701
31
0
39
0
210
0
220
0
230
1
0
LINE
5
54
100
AcDbEntity
8
1
62
256
6
ByLayer
370
-1
48
1
60
0
100
AcDbLine
10
9.618424
20
1.143375
30
0
11
11.591978
21
-2.014972
31
0
39
0
210
0
220
0
230
1
0
LINE
5
55
100
AcDbEntity
8
1
62
256
6
ByLayer
370
-1
48
1
60
0
100
AcDbLine
10
7.195311
20
-2.967197
30
0
11
7.619303
21
-3.645726
31
0
39
0
210
0
220
0
230
1
0
LINE
5
56
100
AcDbEntity
8
1
62
256
6
ByLayer
370
-1
48
1
60
0
100
AcDbLine
10
7.195311
20
-2.967197
30
0
11
7.115399
21
-3.017131
31
0
39
0
210
0
220
0
230
1
0
LINE
5
57
100
AcDbEntity
8
1
62
256
6
ByLayer
370
-1
48
1
60
0
100
AcDbLine
10
1
20
-5.9375
30
0
11
0
21
-5.9375
31
0
39
0
210
0
220
0
230
1
0
LINE
5
58
100
AcDbEntity
8
1
62
256
6
ByLayer
370
-1
48
1
60
0
100
AcDbLine
10
5.000446
20
5.937037
30
0
11
9.618424
21
1.143375
31
0
39
0
210
0
220
0
230
1
0
LINE
5
59
100
AcDbEntity
8
1
62
256
6
ByLayer
370
-1
48
1
60
0
100
AcDbLine
10
0
20
5.937037
30
0
11
0
21
-5.9375
31
0
39
0
210
0
220
0
230
1
0
LINE
5
5A
100
AcDbEntity
8
SK1
62
256
6
ByLayer
370
-1
48
1
60
0
100
AcDbLine
10
0
20
-5.9375
30
0
11
-0.106
21
-5.9375
31
0
39
0
210
0
220
0
230
1
0
LINE
5
5C
100
AcDbEntity
8
SK1
62
256
6
ByLayer
370
-1
48
1
60
0
100
AcDbLine
10
-65.537277
20
5.9375
30
0
11
-0.106
21
5.9375
31
0
39
0
210
0
220
0
230
1
0
LINE
5
5D
100
AcDbEntity
8
SK1
62
256
6
ByLayer
370
-1
48
1
60
0
100
AcDbLine
10
-0.106
20
5.9375
30
0
11
0
21
5.937037
31
0
39
0
210
0
220
0
230
1
0
LINE
5
5E
100
AcDbEntity
8
SK1
62
256
6
ByLayer
370
-1
48
1
60
0
100
AcDbLine
10
-0.106
20
-5.9375
30
0
11
-0.106
21
5.9375
31
0
39
0
210
0
220
0
230
1
0
LINE
5
5F
100
AcDbEntity
8
1
62
256
6
ByLayer
370
-1
48
1
60
0
100
AcDbLine
10
5.068581
20
-3.512053
30
0
11
11.842214
21
-3.867044
31
0
39
0
210
0
220
0
230
1
0
LINE
5
60
100
AcDbEntity
8
SK1
62
256
6
ByLayer
370
-1
48
1
60
0
100
AcDbLine
10
0
20
-5.9375
30
0
11
0
21
5.937037
31
0
39
0
210
0
220
0
230
1
0
LINE
5
61
100
AcDbEntity
8
1
62
256
6
ByLayer
370
-1
48
1
60
0
100
AcDbLine
10
8.305646
20
-9.870946
30
0
11
4.711241
21
-4.118696
31
0
39
0
210
0
220
0
230
1
0
LINE
5
62
100
AcDbEntity
8
1
62
256
6
ByLayer
370
-1
48
1
60
0
100
AcDbLine
10
15.395077
20
-10.411956
30
0
11
8.621444
21
-10.056965
31
0
39
0
210
0
220
0
230
1
0
LINE
5
63
100
AcDbEntity
8
SK1
62
256
6
ByLayer
370
-1
48
1
60
0
100
AcDbLine
10
-0.106
20
-5.9375
30
0
11
-65.537277
21
-5.9375
31
0
39
0
210
0
220
0
230
1
0
LINE
5
64
100
AcDbEntity
8
SK1
62
256
6
ByLayer
370
-1
48
1
60
0
100
AcDbLine
10
-65.537277
20
-5.9375
30
0
11
-65.537277
21
5.9375
31
0
39
0
210
0
220
0
230
1
0
LINE
5
65
100
AcDbEntity
8
1
62
256
6
ByLayer
370
-1
48
1
60
0
100
AcDbLine
10
12.158012
20
-4.053063
30
0
11
15.752417
21
-9.805313
31
0
39
0
210
0
220
0
230
1
0
MTEXT
5
98
100
AcDbEntity
8
SK6
62
256
6
ByLayer
370
-1
48
1
60
0
100
AcDbMText
10
-36.378524
20
16.395841
30
0
210
0
220
0
230
1
1
\W00.717;\fsimplex.shx,bigfont.shx;SDJCL 1212F 07 
40
3.5
41
0
44
1.084337
50
0
71
7
72
5
7
DEFAULT
0
DIMENSION
5
D9
100
AcDbEntity
8
2
62
256
6
ByLayer
370
-3
48
1
60
0
100
AcDbDimension
2
DimnDraft3D2
10
-7.610609
20
-9.206279
30
0
11
-2.503981
21
-19.032624
31
0
70
34
71
5
72
1
41
1
210
0
220
0
230
1
3
Standard
100
AcDb2LineAngularDimension
13
15.812723
23
-12.4125
33
0
14
15.812723
24
-33.889321
34
0
15
12.399188
25
-10.254948
35
0
16
3.513654
26
-22.105224
36
0
40
0
0
DIMENSION
5
EE
100
AcDbEntity
8
2
62
256
6
ByLayer
370
-3
48
1
60
0
100
AcDbDimension
2
DimnDraft3D3
10
43.062723
20
-10.4125
30
0
11
43.062723
21
-4.303947
31
0
70
32
71
5
72
1
41
1
210
0
220
0
230
1
3
Standard
100
AcDbAlignedDimension
13
2
23
5.9375
33
0
14
17.812723
24
-10.4125
34
0
50
90
100
AcDbRotatedDimension
1001
ACAD
1000
DSTYLE
1002
{
1070
    74
1070
     0
1070
   279
1070
     0
1070
   172
1070
     1
1070
   173
1070
     1
1070
   340
1005
99
1070
    77
1070
     1
1070
    73
1070
     0
1070
   171
1070
     3
1070
   274
1070
     4
1070
   177
1070
     2
1070
   176
1070
     2
1070
   178
1070
     7
1070
    78
1070
     8
1070
    41
1041
3.175
1070
   147
1041
2.25
1070
    42
1041
2.0
1070
    44
1041
2.0
1070
   140
1041
4.5
1070
   343
1005
DA
1070
   344
1005
DA
1002
}
0
DIMENSION
5
FC
100
AcDbEntity
8
SK2
62
256
6
ByLayer
370
-3
48
1
60
0
100
AcDbDimension
2
DimnDraft3D4
10
-75.287277
20
-5.9375
30
0
11
-75.287277
21
-2.066447
31
0
70
32
71
5
72
1
41
1
210
0
220
0
230
1
3
Standard
100
AcDbAlignedDimension
13
-67.537277
23
5.9375
33
0
14
-67.537277
24
-5.9375
34
0
50
90
100
AcDbRotatedDimension
1001
ACAD
1000
DSTYLE
1002
{
1070
    74
1070
     0
1070
   279
1070
     0
1070
   172
1070
     1
1070
   173
1070
     1
1070
   340
1005
99
1070
    77
1070
     1
1070
    73
1070
     0
1070
   171
1070
     3
1070
   274
1070
     4
1070
   177
1070
     2
1070
   176
1070
     2
1070
   178
1070
     7
1070
    78
1070
     8
1070
    41
1041
3.175
1070
   147
1041
2.25
1070
    42
1041
2.0
1070
    44
1041
2.0
1070
   140
1041
4.5
1070
   343
1005
DA
1070
   344
1005
DA
1002
}
0
ENDSEC
0
SECTION
2
OBJECTS
0
DICTIONARY
5
12c
330
0
100
AcDbDictionary
280
0
281
1
3
ACAD_GROUP
350
12d
3
ACAD_MLINESTYLE
350
12e
0
DICTIONARY
5
12d
330
0
100
AcDbDictionary
280
0
281
1
0
DICTIONARY
5
12e
330
0
100
AcDbDictionary
280
0
281
1
3
Standard
350
18
0
MLINESTYLE
5
18
330
12e
100
AcDbMlineStyle
2
Standard
70
0
3

62
256
51
90
52
90
71
2
49
-0.5
62
256
6
ByLayer
49
0.5
62
256
6
ByLayer
0
RASTERVARIABLES
5
11b
330

100
AcDbRasterVariables
90
0
70
1
71
1
72
1
0
ENDSEC
0
EOF
