0
SECTION
2
HEADER
9
$ACADVER
1
AC1015
9
$DWGCODEPAGE
3
ANSI_1252
9
$HANDSEED
5
139
9
$ANGBASE
50
0
9
$ANGDIR
70
0
9
$ATTMODE
70
1
9
$AUNITS
70
0
9
$AUPREC
70
0
9
$CECOLOR
62
256
9
$CELTSCALE
40
1
9
$CELTYPE
6
ByLayer
9
$CELWEIGHT
370
-1
9
$CLAYER
8
0
9
$CMLJUST
70
0
9
$CMLSCALE
40
1
9
$CMLSTYLE
2
Standard
9
$DIMSTYLE
2
Standard
9
$TEXTSIZE
40
0.2
9
$TEXTSTYLE
7
Standard
9
$LUNITS
70
2
9
$LUPREC
70
4
9
$EXTNAMES
290
1
9
$INSUNITS
70
4
9
$LTSCALE
40
1
9
$LWDISPLAY
290
0
9
$PDMODE
70
0
9
$PDSIZE
40
0
9
$PLINEGEN
70
0
0
ENDSEC
0
SECTION
2
CLASSES
0
CLASS
1
RASTERVARIABLES
2
AcDbRasterVariables
3
ISM
90
0
280
0
281
0
0
ENDSEC
0
SECTION
2
TABLES
0
TABLE
2
VPORT
5
12f
100
AcDbSymbolTable
0
VPORT
5
1
100
AcDbSymbolTableRecord
100
AcDbViewportTableRecord
2
*Active
70
0
10
0
20
0
11
1
21
1
12
-1
22
1
13
0
23
0
14
0.5
24
0.5
15
10
25
10
16
0
26
0
36
1
17
0
27
0
37
0
0
ENDTAB
0
TABLE
2
LTYPE
5
130
100
AcDbSymbolTable
0
LTYPE
5
14
100
AcDbSymbolTableRecord
100
AcDbLinetypeTableRecord
70
0
2
ByBlock
3

72
65
73
0
40
0
0
LTYPE
5
15
100
AcDbSymbolTableRecord
100
AcDbLinetypeTableRecord
70
0
2
ByLayer
3

72
65
73
0
40
0
0
LTYPE
5
16
100
AcDbSymbolTableRecord
100
AcDbLinetypeTableRecord
70
0
2
CONTINUOUS
3
Solid line
72
65
73
0
40
0
0
LTYPE
5
3B
100
AcDbSymbolTableRecord
100
AcDbLinetypeTableRecord
70
0
2
DASHED
3
__ __ __ __ __ __ __ __ __
72
65
73
2
40
25.72
49
12.86
74
0
49
-12.86
74
0
0
LTYPE
5
3C
100
AcDbSymbolTableRecord
100
AcDbLinetypeTableRecord
70
0
2
HIDDEN
3
_ _ _ _ _ _ _ _ _ _ _ _ _ _ _
72
65
73
2
40
0.5
49
0.25
74
0
49
-0.25
74
0
0
LTYPE
5
3D
100
AcDbSymbolTableRecord
100
AcDbLinetypeTableRecord
70
0
2
PHANTOM
3
____ _ _ ____ _ _ _____ _ _ ____
72
65
73
6
40
50.5
49
18
74
0
49
-6.5
74
0
49
6.5
74
0
49
-6.5
74
0
49
6.5
74
0
49
-6.5
74
0
0
LTYPE
5
3E
100
AcDbSymbolTableRecord
100
AcDbLinetypeTableRecord
70
0
2
CENTER
3
____ _ ____ _ ____ _ ____
72
65
73
4
40
47.5
49
22
74
0
49
-8.5
74
0
49
8.5
74
0
49
-8.5
74
0
0
LTYPE
5
3F
100
AcDbSymbolTableRecord
100
AcDbLinetypeTableRecord
70
0
2
DOT
3
.........................
72
65
73
2
40
10
49
0
74
0
49
-10
74
0
0
LTYPE
5
40
100
AcDbSymbolTableRecord
100
AcDbLinetypeTableRecord
70
0
2
DASHDOT
3
_._._._._._._._._._._._._._._._.
72
65
73
4
40
70
49
31
74
0
49
-13
74
0
49
13
74
0
49
-13
74
0
0
ENDTAB
0
TABLE
2
LAYER
5
131
100
AcDbSymbolTable
0
LAYER
5
10
100
AcDbSymbolTableRecord
100
AcDbLayerTableRecord
2
0
70
0
62
7
6
CONTINUOUS
290
1
370
-3
390
0
0
LAYER
5
42
100
AcDbSymbolTableRecord
100
AcDbLayerTableRecord
2
80
70
0
62
-6
6
CONTINUOUS
290
1
370
-3
390
0
0
LAYER
5
46
100
AcDbSymbolTableRecord
100
AcDbLayerTableRecord
2
81
70
0
62
-3
6
CONTINUOUS
290
1
370
-3
390
0
0
LAYER
5
4A
100
AcDbSymbolTableRecord
100
AcDbLayerTableRecord
2
2
70
0
62
7
6
CONTINUOUS
290
1
370
-3
390
0
0
LAYER
5
4F
100
AcDbSymbolTableRecord
100
AcDbLayerTableRecord
2
1
70
0
62
4
6
CONTINUOUS
290
1
370
-3
390
0
0
LAYER
5
11c
100
AcDbSymbolTableRecord
100
AcDbLayerTableRecord
2
SK2
70
0
62
7
6
CONTINUOUS
290
1
370
-3
390
0
0
LAYER
5
11d
100
AcDbSymbolTableRecord
100
AcDbLayerTableRecord
2
SK1
70
0
62
4
6
CONTINUOUS
290
1
370
-3
390
0
0
LAYER
5
11e
100
AcDbSymbolTableRecord
100
AcDbLayerTableRecord
2
SK6
70
0
62
5
6
CONTINUOUS
290
1
370
-3
390
0
0
ENDTAB
0
TABLE
2
STYLE
5
132
100
AcDbSymbolTable
0
STYLE
5
11
100
AcDbSymbolTableRecord
100
AcDbTextStyleTableRecord
2
Standard
3
txt
70
0
71
0
40
0
41
1
42
0
50
0
0
STYLE
5
99
100
AcDbSymbolTableRecord
100
AcDbTextStyleTableRecord
2
DEFAULT
3
simplex.shx
70
0
71
0
40
0
41
1
42
0
50
0
0
STYLE
5
BC
100
AcDbSymbolTableRecord
100
AcDbTextStyleTableRecord
2
DWGDirectTextStyle
3
SIMPLEX
70
0
71
0
40
0
41
1
42
0
50
0
0
ENDTAB
0
TABLE
2
DIMSTYLE
5
133
100
AcDbSymbolTable
100
AcDbDimStyleTable
0
DIMSTYLE
105
27
100
AcDbSymbolTableRecord
100
AcDbDimStyleTableRecord
2
Standard
70
0
3
<>
41
0.18
42
0.0625
44
0.18
140
0.18
147
0.09
73
0
74
0
77
1
271
2
275
0
278
52
280
0
340
11
0
ENDTAB
0
TABLE
2
VIEW
5
134
100
AcDbSymbolTable
0
ENDTAB
0
TABLE
2
UCS
5
135
100
AcDbSymbolTable
0
ENDTAB
0
TABLE
2
APPID
5
136
100
AcDbSymbolTable
0
APPID
5
12
100
AcDbSymbolTableRecord
100
AcDbRegAppTableRecord
2
ACAD
70
0
0
ENDTAB
0
TABLE
2
BLOCK_RECORD
5
137
100
AcDbSymbolTable
0
BLOCK_RECORD
5
1F
100
AcDbSymbolTableRecord
100
AcDbBlockTableRecord
2
*Model_Space
340
0
70
0
0
BLOCK_RECORD
5
1B
100
AcDbSymbolTableRecord
100
AcDbBlockTableRecord
2
*Paper_Space
340
0
70
0
0
BLOCK_RECORD
5
23
100
AcDbSymbolTableRecord
100
AcDbBlockTableRecord
2
*Paper_Space0
340
0
70
0
0
BLOCK_RECORD
5
BE
100
AcDbSymbolTableRecord
100
AcDbBlockTableRecord
2
DimnDraft3D11
340
0
70
0
0
BLOCK_RECORD
5
CC
100
AcDbSymbolTableRecord
100
AcDbBlockTableRecord
2
DimnDraft3D2
340
0
70
0
0
BLOCK_RECORD
5
DA
100
AcDbSymbolTableRecord
100
AcDbBlockTableRecord
2
_CLOSED
340
0
70
0
0
BLOCK_RECORD
5
E1
100
AcDbSymbolTableRecord
100
AcDbBlockTableRecord
2
DimnDraft3D3
340
0
70
0
0
BLOCK_RECORD
5
EF
100
AcDbSymbolTableRecord
100
AcDbBlockTableRecord
2
DimnDraft3D4
340
0
70
0
0
ENDTAB
0
ENDSEC
0
SECTION
2
BLOCKS
0
BLOCK
5
20
100
AcDbEntity
8
0
100
AcDbBlockBegin
2
*Model_Space
70
0
10
0
20
0
30
0
3
*Model_Space
0
ENDBLK
5
21
100
AcDbEntity
8
0
100
AcDbBlockEnd
0
BLOCK
5
1C
100
AcDbEntity
8
0
100
AcDbBlockBegin
2
*Paper_Space
70
0
10
0
20
0
30
0
3
*Paper_Space
0
ENDBLK
5
1D
100
AcDbEntity
8
0
100
AcDbBlockEnd
0
BLOCK
5
24
100
AcDbEntity
8
0
100
AcDbBlockBegin
2
*Paper_Space0
70
0
10
0
20
0
30
0
3
*Paper_Space0
0
ENDBLK
5
25
100
AcDbEntity
8
0
100
AcDbBlockEnd
0
BLOCK
5
BF
100
AcDbEntity
8
0
100
AcDbBlockBegin
2
DimnDraft3D11
70
0
10
0
20
0
30
0
3
DimnDraft3D11
0
LINE
5
C1
100
AcDbEntity
8
SK2
62
256
6
ByLayer
370
-1
48
1
60
0
100
AcDbLine
10
23.680115
20
-21.9125
30
0
11
23.680115
21
-46.1625
31
0
39
0
210
0
220
0
230
1
0
LINE
5
C2
100
AcDbEntity
8
SK2
62
256
6
ByLayer
370
-1
48
1
60
0
100
AcDbLine
10
-127.669885
20
-14.4375
30
0
11
-127.669885
21
-46.1625
31
0
39
0
210
0
220
0
230
1
0
LINE
5
C3
100
AcDbEntity
8
SK2
62
256
6
ByLayer
370
-1
48
1
60
0
100
AcDbLine
10
23.680115
20
-44.1625
30
0
11
-127.669885
21
-44.1625
31
0
39
0
210
0
220
0
230
1
0
LINE
5
C4
100
AcDbEntity
8
SK2
62
256
6
ByLayer
370
-1
48
1
60
0
100
AcDbLine
10
23.680115
20
-44.1625
30
0
11
20.505117
21
-44.580497
31
0
39
0
210
0
220
0
230
1
0
LINE
5
C5
100
AcDbEntity
8
SK2
62
256
6
ByLayer
370
-1
48
1
60
0
100
AcDbLine
10
23.680115
20
-44.1625
30
0
11
20.505114
21
-43.744503
31
0
39
0
210
0
220
0
230
1
0
LINE
5
C6
100
AcDbEntity
8
SK2
62
256
6
ByLayer
370
-1
48
1
60
0
100
AcDbLine
10
20.505117
20
-44.580497
30
0
11
20.505114
21
-43.744503
31
0
39
0
210
0
220
0
230
1
0
LINE
5
C7
100
AcDbEntity
8
SK2
62
256
6
ByLayer
370
-1
48
1
60
0
100
AcDbLine
10
-127.669885
20
-44.1625
30
0
11
-124.494886
21
-43.744503
31
0
39
0
210
0
220
0
230
1
0
LINE
5
C8
100
AcDbEntity
8
SK2
62
256
6
ByLayer
370
-1
48
1
60
0
100
AcDbLine
10
-127.669885
20
-44.1625
30
0
11
-124.494883
21
-44.580497
31
0
39
0
210
0
220
0
230
1
0
LINE
5
C9
100
AcDbEntity
8
SK2
62
256
6
ByLayer
370
-1
48
1
60
0
100
AcDbLine
10
-124.494886
20
-43.744503
30
0
11
-124.494883
21
-44.580497
31
0
39
0
210
0
220
0
230
1
0
MTEXT
5
CA
100
AcDbEntity
8
SK2
62
256
6
ByLayer
370
-1
48
1
60
0
100
AcDbMText
10
-54.588306
20
-43.0375
30
0
210
0
220
0
230
1
1
\W00.604;\fsimplex.shx,bigfont.shx;150 
40
4.5
41
0
44
1.084337
50
0
71
7
72
5
7
DEFAULT
0
ENDBLK
5
C0
100
AcDbEntity
8
0
100
AcDbBlockEnd
0
BLOCK
5
D7
100
AcDbEntity
8
0
100
AcDbBlockBegin
2
DimnDraft3D2
70
0
10
0
20
0
30
0
3
DimnDraft3D2
0
MTEXT
5
CD
100
AcDbEntity
8
2
62
256
6
ByLayer
370
-1
48
1
60
0
100
AcDbMText
10
5.173338
20
-29.827873
30
0
210
0
220
0
230
1
1
\W01.000;\fsimplex.shx,bigfont.shx;95%%d0' 
40
4.5
41
0
44
1.084337
50
312.5
71
7
72
5
7
DEFAULT
0
LINE
5
CE
100
AcDbEntity
8
2
62
256
6
ByLayer
370
-1
48
1
60
0
100
AcDbLine
10
23.680115
20
-21.9125
30
0
11
23.680115
21
-43.404368
31
0
39
0
210
0
220
0
230
1
0
LINE
5
CF
100
AcDbEntity
8
2
62
256
6
ByLayer
370
-1
48
1
60
0
100
AcDbLine
10
19.828601
20
-19.648012
30
0
11
0.349841
21
-17.943842
31
0
39
0
210
0
220
0
230
1
0
ARC
5
D0
100
AcDbEntity
8
2
62
256
6
ByLayer
370
-1
48
1
60
0
100
AcDbCircle
39
0
10
23.680115
20
-19.984976
30
0
40
21.4193920064233
210
0
220
0
230
1
100
AcDbArc
50
175
51
270
0
LINE
5
D1
100
AcDbEntity
8
2
62
256
6
ByLayer
370
-1
48
1
60
0
100
AcDbLine
10
23.680115
20
-41.404368
30
0
11
20.49183
21
-41.704663
31
0
39
0
210
0
220
0
230
1
0
LINE
5
D2
100
AcDbEntity
8
2
62
256
6
ByLayer
370
-1
48
1
60
0
100
AcDbLine
10
23.680115
20
-41.404368
30
0
11
20.522744
21
-40.869241
31
0
39
0
210
0
220
0
230
1
0
LINE
5
D3
100
AcDbEntity
8
2
62
256
6
ByLayer
370
-1
48
1
60
0
100
AcDbLine
10
20.49183
20
-41.704663
30
0
11
20.522744
21
-40.869241
31
0
39
0
210
0
220
0
230
1
0
LINE
5
D4
100
AcDbEntity
8
2
62
256
6
ByLayer
370
-1
48
1
60
0
100
AcDbLine
10
2.34223
20
-18.118153
30
0
11
2.600138
21
-21.310146
31
0
39
0
210
0
220
0
230
1
0
LINE
5
D5
100
AcDbEntity
8
2
62
256
6
ByLayer
370
-1
48
1
60
0
100
AcDbLine
10
2.34223
20
-18.118153
30
0
11
1.765201
21
-21.268136
31
0
39
0
210
0
220
0
230
1
0
LINE
5
D6
100
AcDbEntity
8
2
62
256
6
ByLayer
370
-1
48
1
60
0
100
AcDbLine
10
2.600138
20
-21.310146
30
0
11
1.765201
21
-21.268136
31
0
39
0
210
0
220
0
230
1
0
ENDBLK
5
D8
100
AcDbEntity
8
0
100
AcDbBlockEnd
0
BLOCK
5
DB
100
AcDbEntity
8
0
100
AcDbBlockBegin
2
_CLOSED
70
0
10
0
20
0
30
0
3
_CLOSED
0
LINE
5
DD
100
AcDbEntity
8
0
62
256
6
ByLayer
370
-2
48
1
60
0
100
AcDbLine
10
-1
20
0.166667
30
0
11
0
21
0
31
0
39
0
210
0
220
0
230
1
0
LINE
5
DE
100
AcDbEntity
8
0
62
256
6
ByLayer
370
-2
48
1
60
0
100
AcDbLine
10
0
20
0
30
0
11
-1
21
-0.166667
31
0
39
0
210
0
220
0
230
1
0
LINE
5
DF
100
AcDbEntity
8
0
62
256
6
ByLayer
370
-2
48
1
60
0
100
AcDbLine
10
-1
20
0.166667
30
0
11
-1
21
-0.166667
31
0
39
0
210
0
220
0
230
1
0
LINE
5
E0
100
AcDbEntity
8
0
62
256
6
ByLayer
370
-2
48
1
60
0
100
AcDbLine
10
0
20
0
30
0
11
-1
21
0
31
0
39
0
210
0
220
0
230
1
0
ENDBLK
5
DC
100
AcDbEntity
8
0
100
AcDbBlockEnd
0
BLOCK
5
EC
100
AcDbEntity
8
0
100
AcDbBlockBegin
2
DimnDraft3D3
70
0
10
0
20
0
30
0
3
DimnDraft3D3
0
MTEXT
5
E2
100
AcDbEntity
8
2
62
256
6
ByLayer
370
-1
48
1
60
0
100
AcDbMText
10
49.805115
20
-5.241447
30
0
210
0
220
0
230
1
1
\W01.000;\fsimplex.shx,bigfont.shx;32 
40
4.5
41
0
44
1.084337
50
90
71
7
72
5
7
DEFAULT
0
LINE
5
E3
100
AcDbEntity
8
2
62
256
6
ByLayer
370
-1
48
1
60
0
100
AcDbLine
10
2
20
12.4375
30
0
11
52.930115
21
12.4375
31
0
39
0
210
0
220
0
230
1
0
LINE
5
E4
100
AcDbEntity
8
2
62
256
6
ByLayer
370
-1
48
1
60
0
100
AcDbLine
10
25.680115
20
-19.9125
30
0
11
52.930115
21
-19.9125
31
0
39
0
210
0
220
0
230
1
0
LINE
5
E5
100
AcDbEntity
8
2
62
256
6
ByLayer
370
-1
48
1
60
0
100
AcDbLine
10
50.930115
20
12.4375
30
0
11
50.930115
21
-19.9125
31
0
39
0
210
0
220
0
230
1
0
LINE
5
E6
100
AcDbEntity
8
2
62
256
6
ByLayer
370
-1
48
1
60
0
100
AcDbLine
10
50.930115
20
12.4375
30
0
11
51.348112
21
9.262502
31
0
39
0
210
0
220
0
230
1
0
LINE
5
E7
100
AcDbEntity
8
2
62
256
6
ByLayer
370
-1
48
1
60
0
100
AcDbLine
10
50.930115
20
12.4375
30
0
11
50.512119
21
9.262498
31
0
39
0
210
0
220
0
230
1
0
LINE
5
E8
100
AcDbEntity
8
2
62
256
6
ByLayer
370
-1
48
1
60
0
100
AcDbLine
10
51.348112
20
9.262502
30
0
11
50.512119
21
9.262498
31
0
39
0
210
0
220
0
230
1
0
LINE
5
E9
100
AcDbEntity
8
2
62
256
6
ByLayer
370
-1
48
1
60
0
100
AcDbLine
10
50.930115
20
-19.9125
30
0
11
50.512119
21
-16.737502
31
0
39
0
210
0
220
0
230
1
0
LINE
5
EA
100
AcDbEntity
8
2
62
256
6
ByLayer
370
-1
48
1
60
0
100
AcDbLine
10
50.930115
20
-19.9125
30
0
11
51.348112
21
-16.737498
31
0
39
0
210
0
220
0
230
1
0
LINE
5
EB
100
AcDbEntity
8
2
62
256
6
ByLayer
370
-1
48
1
60
0
100
AcDbLine
10
50.512119
20
-16.737502
30
0
11
51.348112
21
-16.737498
31
0
39
0
210
0
220
0
230
1
0
ENDBLK
5
ED
100
AcDbEntity
8
0
100
AcDbBlockEnd
0
BLOCK
5
FA
100
AcDbEntity
8
0
100
AcDbBlockBegin
2
DimnDraft3D4
70
0
10
0
20
0
30
0
3
DimnDraft3D4
0
MTEXT
5
F0
100
AcDbEntity
8
SK2
62
256
6
ByLayer
370
-1
48
1
60
0
100
AcDbMText
10
-138.544885
20
-1.503947
30
0
210
0
220
0
230
1
1
\W01.000;\fsimplex.shx,bigfont.shx;25 
40
4.5
41
0
44
1.084337
50
90
71
7
72
5
7
DEFAULT
0
LINE
5
F1
100
AcDbEntity
8
SK2
62
256
6
ByLayer
370
-1
48
1
60
0
100
AcDbLine
10
-129.669885
20
12.4375
30
0
11
-139.419885
21
12.4375
31
0
39
0
210
0
220
0
230
1
0
LINE
5
F2
100
AcDbEntity
8
SK2
62
256
6
ByLayer
370
-1
48
1
60
0
100
AcDbLine
10
-129.669885
20
-12.4375
30
0
11
-139.419885
21
-12.4375
31
0
39
0
210
0
220
0
230
1
0
LINE
5
F3
100
AcDbEntity
8
SK2
62
256
6
ByLayer
370
-1
48
1
60
0
100
AcDbLine
10
-137.419885
20
12.4375
30
0
11
-137.419885
21
-12.4375
31
0
39
0
210
0
220
0
230
1
0
LINE
5
F4
100
AcDbEntity
8
SK2
62
256
6
ByLayer
370
-1
48
1
60
0
100
AcDbLine
10
-137.419885
20
12.4375
30
0
11
-137.001888
21
9.262502
31
0
39
0
210
0
220
0
230
1
0
LINE
5
F5
100
AcDbEntity
8
SK2
62
256
6
ByLayer
370
-1
48
1
60
0
100
AcDbLine
10
-137.419885
20
12.4375
30
0
11
-137.837881
21
9.262498
31
0
39
0
210
0
220
0
230
1
0
LINE
5
F6
100
AcDbEntity
8
SK2
62
256
6
ByLayer
370
-1
48
1
60
0
100
AcDbLine
10
-137.001888
20
9.262502
30
0
11
-137.837881
21
9.262498
31
0
39
0
210
0
220
0
230
1
0
LINE
5
F7
100
AcDbEntity
8
SK2
62
256
6
ByLayer
370
-1
48
1
60
0
100
AcDbLine
10
-137.419885
20
-12.4375
30
0
11
-137.837881
21
-9.262502
31
0
39
0
210
0
220
0
230
1
0
LINE
5
F8
100
AcDbEntity
8
SK2
62
256
6
ByLayer
370
-1
48
1
60
0
100
AcDbLine
10
-137.419885
20
-12.4375
30
0
11
-137.001888
21
-9.262498
31
0
39
0
210
0
220
0
230
1
0
LINE
5
F9
100
AcDbEntity
8
SK2
62
256
6
ByLayer
370
-1
48
1
60
0
100
AcDbLine
10
-137.837881
20
-9.262502
30
0
11
-137.001888
21
-9.262498
31
0
39
0
210
0
220
0
230
1
0
ENDBLK
5
FB
100
AcDbEntity
8
0
100
AcDbBlockEnd
0
ENDSEC
0
SECTION
2
ENTITIES
0
ARC
5
66
100
AcDbEntity
8
1
62
256
6
ByLayer
370
-1
48
1
60
0
100
AcDbCircle
39
0
10
-11.724356
20
-6.918924
30
0
40
1.5
210
0
220
0
230
-1
100
AcDbArc
50
87.547698
51
95.25
0
ARC
5
67
100
AcDbEntity
8
1
62
256
6
ByLayer
370
-1
48
1
60
0
100
AcDbCircle
39
0
10
-11.933032
20
-6.938099
30
0
40
1.78188901006696
210
0
220
0
230
-1
100
AcDbArc
50
95.25
51
160.935246
0
ARC
5
68
100
AcDbEntity
8
1
62
256
6
ByLayer
370
-1
48
1
60
0
100
AcDbCircle
39
0
10
-11.724356
20
-6.918924
30
0
40
1.78188901006696
210
0
220
0
230
-1
100
AcDbArc
50
77.135602
51
95.25
0
ARC
5
69
100
AcDbEntity
8
1
62
256
6
ByLayer
370
-1
48
1
60
0
100
AcDbCircle
39
0
10
10.480891
20
-6.713275
30
0
40
1.75000000000001
210
0
220
0
230
1
100
AcDbArc
50
16.070774
51
47.633054
0
ARC
5
6A
100
AcDbEntity
8
1
62
256
6
ByLayer
370
-1
48
1
60
0
100
AcDbCircle
39
0
10
-11.933032
20
-6.938099
30
0
40
1.5
210
0
220
0
230
-1
100
AcDbArc
50
95.25
51
156.026651
0
ARC
5
6B
100
AcDbEntity
8
1
62
256
6
ByLayer
370
-1
48
1
60
0
100
AcDbCircle
39
0
10
-10.480891
20
-6.713275
30
0
40
1.75000000000001
210
0
220
0
230
-1
100
AcDbArc
50
286.073565
51
118.93715
0
ARC
5
6C
100
AcDbEntity
8
1
62
256
6
ByLayer
370
-1
48
1
60
0
100
AcDbCircle
39
0
10
16.774141
20
-13.006526
30
0
40
1.67649999999999
210
0
220
0
230
1
100
AcDbArc
50
315
51
14.840113
0
ARC
5
6E
100
AcDbEntity
8
1
62
256
6
ByLayer
370
-1
48
1
60
0
100
AcDbCircle
39
0
10
16.774141
20
-13.006526
30
0
40
1.67649999999999
210
0
220
0
230
1
100
AcDbArc
50
14.840113
51
75.159887
0
ARC
5
6F
100
AcDbEntity
8
1
62
256
6
ByLayer
370
-1
48
1
60
0
100
AcDbCircle
39
0
10
16.774141
20
-13.006526
30
0
40
1.20649999999999
210
0
220
0
230
1
100
AcDbArc
50
41.044721
51
48.955279
0
ARC
5
70
100
AcDbEntity
8
1
62
256
6
ByLayer
370
-1
48
1
60
0
100
AcDbCircle
39
0
10
21.902675
20
-7.877991
30
0
40
0.793999999999945
210
0
220
0
230
1
100
AcDbArc
50
5
51
85
0
ARC
5
71
100
AcDbEntity
8
1
62
256
6
ByLayer
370
-1
48
1
60
0
100
AcDbCircle
39
0
10
-16.774141
20
-13.006526
30
0
40
1.20649999999999
210
0
220
0
230
-1
100
AcDbArc
50
138.955279
51
195.079943
0
ARC
5
72
100
AcDbEntity
8
1
62
256
6
ByLayer
370
-1
48
1
60
0
100
AcDbCircle
39
0
10
16.774141
20
-13.006526
30
0
40
1.67649999999999
210
0
220
0
230
1
100
AcDbArc
50
75.159887
51
135
0
ARC
5
74
100
AcDbEntity
8
1
62
256
6
ByLayer
370
-1
48
1
60
0
100
AcDbCircle
39
0
10
-16.774141
20
-13.006526
30
0
40
1.20649999999999
210
0
220
0
230
-1
100
AcDbArc
50
195.079943
51
254.920057
0
ARC
5
75
100
AcDbEntity
8
1
62
256
6
ByLayer
370
-1
48
1
60
0
100
AcDbCircle
39
0
10
-16.774141
20
-13.006526
30
0
40
1.20649999999999
210
0
220
0
230
-1
100
AcDbArc
50
15.079943
51
74.920057
0
ARC
5
76
100
AcDbEntity
8
1
62
256
6
ByLayer
370
-1
48
1
60
0
100
AcDbCircle
39
0
10
22.88609
20
-19.118475
30
0
40
0.794000000000014
210
0
220
0
230
1
100
AcDbArc
50
265
51
5
0
ARC
5
77
100
AcDbEntity
8
1
62
256
6
ByLayer
370
-1
48
1
60
0
100
AcDbCircle
39
0
10
16.774141
20
-13.006526
30
0
40
1.20649999999999
210
0
220
0
230
1
100
AcDbArc
50
221.044721
51
228.955279
0
ARC
5
78
100
AcDbEntity
8
1
62
256
6
ByLayer
370
-1
48
1
60
0
100
AcDbCircle
39
0
10
16.774141
20
-13.006526
30
0
40
1.67649999999999
210
0
220
0
230
1
100
AcDbArc
50
135
51
194.840113
0
ARC
5
7A
100
AcDbEntity
8
1
62
256
6
ByLayer
370
-1
48
1
60
0
100
AcDbCircle
39
0
10
-16.774141
20
-13.006526
30
0
40
1.20649999999999
210
0
220
0
230
-1
100
AcDbArc
50
318.955279
51
15.079943
0
ARC
5
7B
100
AcDbEntity
8
1
62
256
6
ByLayer
370
-1
48
1
60
0
100
AcDbCircle
39
0
10
11.645607
20
-18.13506
30
0
40
0.794000000000001
210
0
220
0
230
1
100
AcDbArc
50
185
51
265
0
ARC
5
7C
100
AcDbEntity
8
1
62
256
6
ByLayer
370
-1
48
1
60
0
100
AcDbCircle
39
0
10
16.774141
20
-13.006526
30
0
40
1.67649999999999
210
0
220
0
230
1
100
AcDbArc
50
255.159887
51
315
0
ARC
5
7D
100
AcDbEntity
8
1
62
256
6
ByLayer
370
-1
48
1
60
0
100
AcDbCircle
39
0
10
10.662192
20
-6.894576
30
0
40
0.793999999999998
210
0
220
0
230
1
100
AcDbArc
50
85
51
185
0
ARC
5
80
100
AcDbEntity
8
1
62
256
6
ByLayer
370
-1
48
1
60
0
100
AcDbCircle
39
0
10
-16.774141
20
-13.006526
30
0
40
1.20649999999999
210
0
220
0
230
-1
100
AcDbArc
50
74.920057
51
131.044721
0
ARC
5
81
100
AcDbEntity
8
1
62
256
6
ByLayer
370
-1
48
1
60
0
100
AcDbCircle
39
0
10
16.774141
20
-13.006526
30
0
40
1.67649999999999
210
0
220
0
230
1
100
AcDbArc
50
194.840113
51
255.159887
0
ARC
5
82
100
AcDbEntity
8
1
62
256
6
ByLayer
370
-1
48
1
60
0
100
AcDbCircle
39
0
10
-16.774141
20
-13.006526
30
0
40
1.20649999999999
210
0
220
0
230
-1
100
AcDbArc
50
254.920057
51
311.044721
0
CIRCLE
5
6D
100
AcDbEntity
8
1
62
256
6
ByLayer
370
-1
48
1
60
0
100
AcDbCircle
10
16.774141
20
-13.006526
30
0
40
4.07132534818236
39
0
210
0
220
0
230
1
0
CIRCLE
5
73
100
AcDbEntity
8
1
62
256
6
ByLayer
370
-1
48
1
60
0
100
AcDbCircle
10
16.774141
20
-13.006526
30
0
40
2.40000000000002
39
0
210
0
220
0
230
1
0
CIRCLE
5
79
100
AcDbEntity
8
1
62
256
6
ByLayer
370
-1
48
1
60
0
100
AcDbCircle
10
-16.774141
20
-13.006526
30
0
40
3.93651081363664
39
0
210
0
220
0
230
-1
0
CIRCLE
5
7E
100
AcDbEntity
8
1
62
256
6
ByLayer
370
-1
48
1
60
0
100
AcDbCircle
10
16.774141
20
-13.006526
30
0
40
4.00697067753278
39
0
210
0
220
0
230
1
0
CIRCLE
5
7F
100
AcDbEntity
8
1
62
256
6
ByLayer
370
-1
48
1
60
0
100
AcDbCircle
10
16.774141
20
-13.006526
30
0
40
3.425
39
0
210
0
220
0
230
1
0
POINT
5
41
100
AcDbEntity
8
80
62
256
6
ByLayer
370
-1
48
1
60
0
100
AcDbPoint
10
0
20
0
30
0
39
0
210
0
220
0
230
1
50
360
0
POINT
5
43
100
AcDbEntity
8
SK2
62
256
6
ByLayer
370
-1
48
1
60
0
100
AcDbPoint
10
23.680115
20
44.7875
30
0
39
0
210
0
220
0
230
1
50
360
0
POINT
5
45
100
AcDbEntity
8
81
62
256
6
ByLayer
370
-1
48
1
60
0
100
AcDbPoint
10
23.680115
20
-19.9125
30
0
39
0
210
0
220
0
230
1
50
360
0
POINT
5
47
100
AcDbEntity
8
SK2
62
256
6
ByLayer
370
-1
48
1
60
0
100
AcDbPoint
10
23.680115
20
44.7875
30
0
39
0
210
0
220
0
230
1
50
360
0
POINT
5
48
100
AcDbEntity
8
SK2
62
256
6
ByLayer
370
-1
48
1
60
0
100
AcDbPoint
10
23.680115
20
44.7875
30
0
39
0
210
0
220
0
230
1
50
360
0
POINT
5
49
100
AcDbEntity
8
2
62
256
6
ByLayer
370
-1
48
1
60
0
100
AcDbPoint
10
23.680115
20
44.7875
30
0
39
0
210
0
220
0
230
1
50
360
0
POINT
5
4B
100
AcDbEntity
8
SK2
62
256
6
ByLayer
370
-1
48
1
60
0
100
AcDbPoint
10
23.680115
20
44.7875
30
0
39
0
210
0
220
0
230
1
50
360
0
SPLINE
5
83
100
AcDbEntity
8
1
62
256
6
ByLayer
370
-1
48
1
60
0
100
AcDbSpline
70
4
71
3
72
8
73
4
40
0
40
0
40
0
40
0
40
1
40
1
40
1
40
1
41
1
10
11.6601740042757
20
-5.42029794412869
30
0
41
1
10
11.5616261415525
20
-5.33041558113953
30
0
41
1
10
11.4508909871267
20
-5.24991029559544
30
0
41
1
10
11.3276279333092
20
-5.18176111769179
30
0
0
SPLINE
5
84
100
AcDbEntity
8
1
62
256
6
ByLayer
370
-1
48
1
60
0
100
AcDbSpline
70
4
71
3
72
16
73
12
40
0
40
0
40
0
40
0
40
0.0570946626182329
40
0.0570946626182329
40
0.280051745717235
40
0.280051745717235
40
0.505470715177549
40
0.505470715177549
40
0.745074291066901
40
0.745074291066901
40
1
40
1
40
1
40
1
41
1
10
15.1535617187102
20
-13.4359151950992
30
0
41
1
10
15.1516041008699
20
-13.4285268572258
30
0
41
1
10
15.1499353803458
20
-13.4210545263214
30
0
41
1
10
15.143249360903
20
-13.3844109396912
30
0
41
1
10
15.1424519626963
20
-13.3541532525386
30
0
41
1
10
15.1496689688693
20
-13.295924942305
30
0
41
1
10
15.1578494556667
20
-13.2672387361214
30
0
41
1
10
15.1821208497897
20
-13.2133910785193
30
0
41
1
10
15.198952117885
20
-13.1878774915934
30
0
41
1
10
15.2393571783041
20
-13.1428663955323
30
0
41
1
10
15.263748505879
20
-13.1233018665333
30
0
41
1
10
15.2898187608851
20
-13.1082497721118
30
0
0
SPLINE
5
85
100
AcDbEntity
8
1
62
256
6
ByLayer
370
-1
48
1
60
0
100
AcDbSpline
70
4
71
3
72
14
73
10
40
0
40
0
40
0
40
0
40
0.282377988048049
40
0.282377988048049
40
0.567084253766473
40
0.567084253766473
40
0.82468485461874
40
0.82468485461874
40
1
40
1
40
1
40
1
41
1
10
15.4375338938952
20
-13.6531223830957
30
0
41
1
10
15.4039177333575
20
-13.6533194826694
30
0
41
1
10
15.369214230756
20
-13.6475717600626
30
0
41
1
10
15.3032733761207
20
-13.6236756514134
30
0
41
1
10
15.2710657136973
20
-13.6049959072325
30
0
41
1
10
15.2183490555914
20
-13.5588118840903
30
0
41
1
10
15.1962612706378
20
-13.5315721960314
30
0
41
1
10
15.1685111030353
20
-13.4809510508903
30
0
41
1
10
15.1596009860016
20
-13.4587082787833
30
0
41
1
10
15.1535617187102
20
-13.4359151950992
30
0
0
SPLINE
5
86
100
AcDbEntity
8
1
62
256
6
ByLayer
370
-1
48
1
60
0
100
AcDbSpline
70
4
71
3
72
14
73
10
40
0
40
0
40
0
40
0
40
0.283482543589327
40
0.283482543589327
40
0.56986616496062
40
0.56986616496062
40
0.829080366665635
40
0.829080366665635
40
1
40
1
40
1
40
1
41
1
10
16.6724168262978
20
-14.4908478375246
30
0
41
1
10
16.6556815048536
20
-14.5198334448056
30
0
41
1
10
16.6333109817847
20
-14.5467810747685
30
0
41
1
10
16.5796231250427
20
-14.5915596909716
30
0
41
1
10
16.5473441999974
20
-14.6099401634001
30
0
41
1
10
16.4810643311401
20
-14.6322182844416
30
0
41
1
10
16.4464971738101
20
-14.6376035395994
30
0
41
1
10
16.3896632742083
20
-14.6361932962193
30
0
41
1
10
16.3667704525983
20
-14.6329390584352
30
0
41
1
10
16.3447514033104
20
-14.6271048796995
30
0
0
SPLINE
5
87
100
AcDbEntity
8
1
62
256
6
ByLayer
370
-1
48
1
60
0
100
AcDbSpline
70
4
71
3
72
14
73
10
40
0
40
0
40
0
40
0
40
0.283903408666442
40
0.283903408666442
40
0.570234175542287
40
0.570234175542287
40
0.829405958796958
40
0.829405958796958
40
1
40
1
40
1
40
1
41
1
10
15.5418639361348
20
-12.1728270118448
30
0
41
1
10
15.5251856236578
20
-12.1437514311301
30
0
41
1
10
15.5131141850591
20
-12.1108149726231
30
0
41
1
10
15.501399686962
20
-12.0418423929411
30
0
41
1
10
15.5017440082794
20
-12.0047034622309
30
0
41
1
10
15.5158135365343
20
-11.9362187321026
30
0
41
1
10
15.5285380960758
20
-11.903635722628
30
0
41
1
10
15.5583083450963
20
-11.85525774462
30
0
41
1
10
15.5725998742896
20
-11.8371376868015
30
0
41
1
10
15.5886763880001
20
-11.8210611730911
30
0
0
SPLINE
5
88
100
AcDbEntity
8
1
62
256
6
ByLayer
370
-1
48
1
60
0
100
AcDbSpline
70
4
71
3
72
16
73
12
40
0
40
0
40
0
40
0
40
0.057094662618124
40
0.057094662618124
40
0.280051745717077
40
0.280051745717077
40
0.50547071517736
40
0.50547071517736
40
0.745074291066736
40
0.745074291066736
40
1
40
1
40
1
40
1
41
1
10
18.3947200946084
20
-12.5771361884015
30
0
41
1
10
18.3966777124488
20
-12.5845245262749
30
0
41
1
10
18.3983464329729
20
-12.5919968571792
30
0
41
1
10
18.4050324524156
20
-12.6286404438095
30
0
41
1
10
18.4058298506223
20
-12.6588981309619
30
0
41
1
10
18.3986128444494
20
-12.7171264411956
30
0
41
1
10
18.390432357652
20
-12.7458126473792
30
0
41
1
10
18.366160963529
20
-12.7996603049814
30
0
41
1
10
18.3493296954336
20
-12.8251738919072
30
0
41
1
10
18.3089246350146
20
-12.8701849879683
30
0
41
1
10
18.2845333074396
20
-12.8897495169674
30
0
41
1
10
18.2584630524335
20
-12.9048016113889
30
0
0
SPLINE
5
89
100
AcDbEntity
8
1
62
256
6
ByLayer
370
-1
48
1
60
0
100
AcDbSpline
70
4
71
3
72
16
73
12
40
0
40
0
40
0
40
0
40
0.0621039197212171
40
0.0621039197212171
40
0.282872737560546
40
0.282872737560546
40
0.506396836331476
40
0.506396836331476
40
0.744229103370147
40
0.744229103370147
40
1
40
1
40
1
40
1
41
1
10
16.3447514033104
20
-14.6271048796995
30
0
41
1
10
16.3366432942367
20
-14.624956550908
30
0
41
1
10
16.3286188150435
20
-14.6224554801016
30
0
41
1
10
16.2928841256071
20
-14.6096055729237
30
0
41
1
10
16.2663341603351
20
-14.5951266427435
30
0
41
1
10
16.2195944529622
20
-14.5596879651172
30
0
41
1
10
16.1988789851762
20
-14.5382173898629
30
0
41
1
10
16.1644504555581
20
-14.490178892631
30
0
41
1
10
16.1508133763538
20
-14.4627896951996
30
0
41
1
10
16.1320411187588
20
-14.404876895541
30
0
41
1
10
16.1273656812214
20
-14.3735824442236
30
0
41
1
10
16.127544215314
20
-14.3431327045145
30
0
0
SPLINE
5
8A
100
AcDbEntity
8
1
62
256
6
ByLayer
370
-1
48
1
60
0
100
AcDbSpline
70
4
71
3
72
18
73
14
40
0
40
0
40
0
40
0
40
0.212474032872502
40
0.212474032872502
40
0.386603697879234
40
0.386603697879234
40
0.562415073202795
40
0.562415073202795
40
0.715377731647819
40
0.715377731647819
40
0.918235368779663
40
0.918235368779663
40
1
40
1
40
1
40
1
41
1
10
16.8758649870207
20
-11.5222035459761
30
0
41
1
10
16.8403805564482
20
-11.583662644482
30
0
41
1
10
16.79401411348
20
-11.641604620585
30
0
41
1
10
16.6921744742486
20
-11.7323203519955
30
0
41
1
10
16.6385985818642
20
-11.7686523921512
30
0
41
1
10
16.5217714049655
20
-11.8251315297079
30
0
41
1
10
16.4566177013665
20
-11.8457851012898
30
0
41
1
10
16.3350349069841
20
-11.8655379573899
30
0
41
1
10
16.2771368496389
20
-11.8674116593671
30
0
41
1
10
16.1490644131579
20
-11.8562048407864
30
0
41
1
10
16.0788023238939
20
-11.838098071202
30
0
41
1
10
15.9893837901892
20
-11.8003984583641
30
0
41
1
10
15.9643870767309
20
-11.7879839478427
30
0
41
1
10
15.9404422267538
20
-11.7742487212259
30
0
0
SPLINE
5
8B
100
AcDbEntity
8
1
62
256
6
ByLayer
370
-1
48
1
60
0
100
AcDbSpline
70
4
71
3
72
16
73
12
40
0
40
0
40
0
40
0
40
0.062999731190103
40
0.062999731190103
40
0.285872777163823
40
0.285872777163823
40
0.511544652680638
40
0.511544652680638
40
0.751675359283914
40
0.751675359283914
40
1
40
1
40
1
40
1
41
1
10
17.9596054253185
20
-14.1919902104096
30
0
41
1
10
17.9536458538368
20
-14.1979497818913
30
0
41
1
10
17.9474207426389
20
-14.2036574490863
30
0
41
1
10
17.9183165968261
20
-14.2281118615419
30
0
41
1
10
17.8924534216297
20
-14.2437818971692
30
0
41
1
10
17.8383212950287
20
-14.266367365168
30
0
41
1
10
17.8093463455371
20
-14.273479734324
30
0
41
1
10
17.7505092894907
20
-14.2790887418458
30
0
41
1
10
17.7199755093421
20
-14.2771062493406
30
0
41
1
10
17.661632797915
20
-14.2644664275756
30
0
41
1
10
17.6332894975602
20
-14.2534012208474
30
0
41
1
10
17.6078395865648
20
-14.2388026622748
30
0
0
SPLINE
5
8C
100
AcDbEntity
8
1
62
256
6
ByLayer
370
-1
48
1
60
0
100
AcDbSpline
70
4
71
3
72
12
73
8
40
0
40
0
40
0
40
0
40
0.42211881426397
40
0.42211881426397
40
0.843213979141489
40
0.843213979141489
40
1
40
1
40
1
40
1
41
1
10
17.5663866071591
20
-12.0965866827834
30
0
41
1
10
17.5245228967275
20
-12.043065273346
30
0
41
1
10
17.4910087657305
20
-11.9832566426385
30
0
41
1
10
17.4439805430001
20
-11.8625387399731
30
0
41
1
10
17.4296055213229
20
-11.8000234943828
30
0
41
1
10
17.421607441508
20
-11.7156952242891
30
0
41
1
10
17.4206039009472
20
-11.6927212739399
30
0
41
1
10
17.4207375980046
20
-11.6699186789862
30
0
0
SPLINE
5
8D
100
AcDbEntity
8
1
62
256
6
ByLayer
370
-1
48
1
60
0
100
AcDbSpline
70
4
71
3
72
18
73
14
40
0
40
0
40
0
40
0
40
0.212474276129472
40
0.212474276129472
40
0.386603898215959
40
0.386603898215959
40
0.562415227754659
40
0.562415227754659
40
0.715377877558438
40
0.715377877558438
40
0.918235557790086
40
0.918235557790086
40
1
40
1
40
1
40
1
41
1
10
18.0064178771839
20
-13.8402243716558
30
0
41
1
10
17.9711065562487
20
-13.7786655560739
30
0
41
1
10
17.9443035359735
20
-13.7094648962139
30
0
41
1
10
17.9170340571224
20
-13.5758346087112
30
0
41
1
10
17.9125377448851
20
-13.5112577156666
30
0
41
1
10
17.9224001071389
20
-13.3818698911659
30
0
41
1
10
17.9372766737032
20
-13.3151596185984
30
0
41
1
10
17.9812828350333
20
-13.2001117875247
30
0
41
1
10
18.0087516291669
20
-13.1491102146644
30
0
41
1
10
18.0827868520605
20
-13.0440058421228
30
0
41
1
10
18.1337431800314
20
-12.9923524727279
30
0
41
1
10
18.2112644355175
20
-12.9339797121018
30
0
41
1
10
18.2345570179662
20
-12.9186041571624
30
0
41
1
10
18.2584630524335
20
-12.9048016113889
30
0
0
SPLINE
5
8E
100
AcDbEntity
8
1
62
256
6
ByLayer
370
-1
48
1
60
0
100
AcDbSpline
70
4
71
3
72
12
73
8
40
0
40
0
40
0
40
0
40
0.422118813951595
40
0.422118813951595
40
0.843213978772124
40
0.843213978772124
40
1
40
1
40
1
40
1
41
1
10
15.9818952061594
20
-13.9164647007171
30
0
41
1
10
16.0237589165601
20
-13.969986110115
30
0
41
1
10
16.0572730475387
20
-14.0297947407733
30
0
41
1
10
16.1043012702763
20
-14.1505126433813
30
0
41
1
10
16.1186762919662
20
-14.2130278889627
30
0
41
1
10
16.1266743718058
20
-14.2973561591034
30
0
41
1
10
16.1276779123717
20
-14.3203301095072
30
0
41
1
10
16.127544215314
20
-14.3431327045145
30
0
0
SPLINE
5
8F
100
AcDbEntity
8
1
62
256
6
ByLayer
370
-1
48
1
60
0
100
AcDbSpline
70
4
71
3
72
12
73
8
40
0
40
0
40
0
40
0
40
0.495924969245196
40
0.495924969245196
40
0.900362445266598
40
0.900362445266598
40
1
40
1
40
1
40
1
41
1
10
15.4375338938952
20
-13.6531223830957
30
0
41
1
10
15.5088771108879
20
-13.6527040807841
30
0
41
1
10
15.5826709141087
20
-13.6635715530611
30
0
41
1
10
15.7127067812675
20
-13.7059815285886
30
0
41
1
10
15.771086914329
20
-13.7339687066498
30
0
41
1
10
15.8381910846798
20
-13.7791660070592
30
0
41
1
10
15.8513607058343
20
-13.7887271885717
30
0
41
1
10
15.8642018976925
20
-13.7987713922502
30
0
0
SPLINE
5
90
100
AcDbEntity
8
1
62
256
6
ByLayer
370
-1
48
1
60
0
100
AcDbSpline
70
4
71
3
72
12
73
8
40
0
40
0
40
0
40
0
40
0.495924969245423
40
0.495924969245423
40
0.900362445241274
40
0.900362445241274
40
1
40
1
40
1
40
1
41
1
10
18.1107479194234
20
-12.359929000405
30
0
41
1
10
18.0394047024307
20
-12.3603473027166
30
0
41
1
10
17.9656108992099
20
-12.3494798304396
30
0
41
1
10
17.8355750320547
20
-12.3070698549133
30
0
41
1
10
17.7771948989969
20
-12.2790826768544
30
0
41
1
10
17.7100907286454
20
-12.2338853764464
30
0
41
1
10
17.6969211074876
20
-12.2243241949315
30
0
41
1
10
17.6840799156262
20
-12.2142799912506
30
0
0
SPLINE
5
91
100
AcDbEntity
8
1
62
256
6
ByLayer
370
-1
48
1
60
0
100
AcDbSpline
70
4
71
3
72
16
73
12
40
0
40
0
40
0
40
0
40
0.0621039197214292
40
0.0621039197214292
40
0.282872737560783
40
0.282872737560783
40
0.506396836331662
40
0.506396836331662
40
0.74422910337037
40
0.74422910337037
40
1
40
1
40
1
40
1
41
1
10
17.2035304100081
20
-11.3859465038012
30
0
41
1
10
17.2116385190819
20
-11.3880948325927
30
0
41
1
10
17.2196629982751
20
-11.3905959033991
30
0
41
1
10
17.2553976877115
20
-11.403445810577
30
0
41
1
10
17.2819476529835
20
-11.4179247407572
30
0
41
1
10
17.3286873603564
20
-11.4533634183835
30
0
41
1
10
17.3494028281424
20
-11.4748339936378
30
0
41
1
10
17.3838313577605
20
-11.5228724908697
30
0
41
1
10
17.3974684369648
20
-11.5502616883011
30
0
41
1
10
17.4162406945598
20
-11.6081744879598
30
0
41
1
10
17.4209161320972
20
-11.6394689392771
30
0
41
1
10
17.4207375980046
20
-11.6699186789862
30
0
0
SPLINE
5
92
100
AcDbEntity
8
1
62
256
6
ByLayer
370
-1
48
1
60
0
100
AcDbSpline
70
4
71
3
72
16
73
12
40
0
40
0
40
0
40
0
40
0.0629997311901161
40
0.0629997311901161
40
0.285872777163738
40
0.285872777163738
40
0.511544652680528
40
0.511544652680528
40
0.751675359283857
40
0.751675359283857
40
1
40
1
40
1
40
1
41
1
10
15.5886763880001
20
-11.8210611730911
30
0
41
1
10
15.5946359594818
20
-11.8151016016094
30
0
41
1
10
15.6008610706797
20
-11.8093939344144
30
0
41
1
10
15.6299652164924
20
-11.7849395219588
30
0
41
1
10
15.6558283916889
20
-11.7692694863315
30
0
41
1
10
15.7099605182899
20
-11.7466840183327
30
0
41
1
10
15.7389354677814
20
-11.7395716491767
30
0
41
1
10
15.7977725238279
20
-11.7339626416548
30
0
41
1
10
15.8283063039765
20
-11.7359451341601
30
0
41
1
10
15.8866490154036
20
-11.7485849559251
30
0
41
1
10
15.9149923157584
20
-11.7596501626533
30
0
41
1
10
15.9404422267538
20
-11.7742487212258
30
0
0
SPLINE
5
93
100
AcDbEntity
8
1
62
256
6
ByLayer
370
-1
48
1
60
0
100
AcDbSpline
70
4
71
3
72
18
73
14
40
0
40
0
40
0
40
0
40
0.212474032872497
40
0.212474032872497
40
0.386603697879218
40
0.386603697879218
40
0.562415073202767
40
0.562415073202767
40
0.715377731647779
40
0.715377731647779
40
0.918235368779578
40
0.918235368779578
40
1
40
1
40
1
40
1
41
1
10
16.6724168262978
20
-14.4908478375246
30
0
41
1
10
16.7079012568704
20
-14.4293887390186
30
0
41
1
10
16.7542676998385
20
-14.3714467629157
30
0
41
1
10
16.8561073390699
20
-14.2807310315052
30
0
41
1
10
16.9096832314543
20
-14.2443989913494
30
0
41
1
10
17.026510408353
20
-14.1879198537927
30
0
41
1
10
17.0916641119521
20
-14.1672662822108
30
0
41
1
10
17.2132469063345
20
-14.1475134261108
30
0
41
1
10
17.2711449636796
20
-14.1456397241335
30
0
41
1
10
17.3992174001607
20
-14.1568465427143
30
0
41
1
10
17.4694794894246
20
-14.1749533122987
30
0
41
1
10
17.5588980231294
20
-14.2126529251365
30
0
41
1
10
17.5838947365877
20
-14.2250674356579
30
0
41
1
10
17.6078395865648
20
-14.2388026622748
30
0
0
SPLINE
5
94
100
AcDbEntity
8
1
62
256
6
ByLayer
370
-1
48
1
60
0
100
AcDbSpline
70
4
71
3
72
14
73
10
40
0
40
0
40
0
40
0
40
0.283482543589568
40
0.283482543589568
40
0.569866164960833
40
0.569866164960833
40
0.829080366665908
40
0.829080366665908
40
1
40
1
40
1
40
1
41
1
10
16.8758649870207
20
-11.5222035459761
30
0
41
1
10
16.8926003084649
20
-11.493217938695
30
0
41
1
10
16.9149708315339
20
-11.4662703087322
30
0
41
1
10
16.9686586882759
20
-11.421491692529
30
0
41
1
10
17.0009376133212
20
-11.4031112201006
30
0
41
1
10
17.0672174821786
20
-11.3808330990591
30
0
41
1
10
17.1017846395085
20
-11.3754478439012
30
0
41
1
10
17.1586185391103
20
-11.3768580872814
30
0
41
1
10
17.1815113607202
20
-11.3801123250655
30
0
41
1
10
17.2035304100081
20
-11.3859465038012
30
0
0
SPLINE
5
95
100
AcDbEntity
8
1
62
256
6
ByLayer
370
-1
48
1
60
0
100
AcDbSpline
70
4
71
3
72
14
73
10
40
0
40
0
40
0
40
0
40
0.282377988047953
40
0.282377988047953
40
0.567084253766334
40
0.567084253766334
40
0.824684854618512
40
0.824684854618512
40
1
40
1
40
1
40
1
41
1
10
18.1107479194234
20
-12.359929000405
30
0
41
1
10
18.1443640799611
20
-12.3597319008312
30
0
41
1
10
18.1790675825626
20
-12.3654796234381
30
0
41
1
10
18.2450084371978
20
-12.3893757320873
30
0
41
1
10
18.2772160996213
20
-12.4080554762681
30
0
41
1
10
18.3299327577272
20
-12.4542394994103
30
0
41
1
10
18.3520205426808
20
-12.4814791874692
30
0
41
1
10
18.3797707102833
20
-12.5321003326103
30
0
41
1
10
18.388680827317
20
-12.5543431047173
30
0
41
1
10
18.3947200946084
20
-12.5771361884015
30
0
0
SPLINE
5
96
100
AcDbEntity
8
1
62
256
6
ByLayer
370
-1
48
1
60
0
100
AcDbSpline
70
4
71
3
72
14
73
10
40
0
40
0
40
0
40
0
40
0.283903408666358
40
0.283903408666358
40
0.570234175542232
40
0.570234175542232
40
0.829405958796921
40
0.829405958796921
40
1
40
1
40
1
40
1
41
1
10
18.0064178771838
20
-13.8402243716559
30
0
41
1
10
18.0230961896608
20
-13.8692999523706
30
0
41
1
10
18.0351676282595
20
-13.9022364108776
30
0
41
1
10
18.0468821263566
20
-13.9712089905596
30
0
41
1
10
18.0465378050392
20
-14.0083479212698
30
0
41
1
10
18.0324682767843
20
-14.0768326513981
30
0
41
1
10
18.0197437172428
20
-14.1094156608726
30
0
41
1
10
17.9899734682223
20
-14.1577936388807
30
0
41
1
10
17.9756819390289
20
-14.1759136966991
30
0
41
1
10
17.9596054253185
20
-14.1919902104096
30
0
0
SPLINE
5
97
100
AcDbEntity
8
1
62
256
6
ByLayer
370
-1
48
1
60
0
100
AcDbSpline
70
4
71
3
72
18
73
14
40
0
40
0
40
0
40
0
40
0.212474276129468
40
0.212474276129468
40
0.386603898215949
40
0.386603898215949
40
0.562415227754638
40
0.562415227754638
40
0.715377877558416
40
0.715377877558416
40
0.918235557790059
40
0.918235557790059
40
1
40
1
40
1
40
1
41
1
10
15.5418639361348
20
-12.1728270118449
30
0
41
1
10
15.5771752570699
20
-12.2343858274268
30
0
41
1
10
15.6039782773451
20
-12.3035864872869
30
0
41
1
10
15.6312477561962
20
-12.4372167747895
30
0
41
1
10
15.6357440684335
20
-12.5017936678342
30
0
41
1
10
15.6258817061797
20
-12.6311814923348
30
0
41
1
10
15.6110051396155
20
-12.6978917649022
30
0
41
1
10
15.5669989782853
20
-12.812939595976
30
0
41
1
10
15.5395301841517
20
-12.8639411688363
30
0
41
1
10
15.4654949612582
20
-12.9690455413779
30
0
41
1
10
15.4145386332872
20
-13.0206989107728
30
0
41
1
10
15.3370173778012
20
-13.079071671399
30
0
41
1
10
15.3137247953524
20
-13.0944472263383
30
0
41
1
10
15.2898187608851
20
-13.1082497721117
30
0
0
INSERT
5
CB
100
AcDbEntity
8
SK2
62
256
6
ByLayer
370
-1
48
1
60
0
100
AcDbBlockReference
2
DimnDraft3D11
10
0
20
0
30
0
41
1
42
1
43
1
50
0
210
0
220
0
230
1
0
LINE
5
4C
100
AcDbEntity
8
80
62
256
6
ByLayer
370
-1
48
1
60
0
100
AcDbLine
10
0
20
0
30
0
11
-5
21
0
31
0
39
0
210
0
220
0
230
1
0
LINE
5
4D
100
AcDbEntity
8
81
62
256
6
ByLayer
370
-1
48
1
60
0
100
AcDbLine
10
23.680115
20
-19.9125
30
0
11
33.680115
21
-19.9125
31
0
39
0
210
0
220
0
230
1
0
LINE
5
4E
100
AcDbEntity
8
1
62
256
6
ByLayer
370
-1
48
1
60
0
100
AcDbLine
10
12.070285
20
-5.444392
30
0
11
11.861608
21
-5.425217
31
0
39
0
210
0
220
0
230
1
0
LINE
5
50
100
AcDbEntity
8
1
62
256
6
ByLayer
370
-1
48
1
60
0
100
AcDbLine
10
0
20
12.435598
30
0
11
0
21
-12.4375
31
0
39
0
210
0
220
0
230
1
0
LINE
5
51
100
AcDbEntity
8
1
62
256
6
ByLayer
370
-1
48
1
60
0
100
AcDbLine
10
5.721529
20
-17.159029
30
0
11
1
21
-12.4375
31
0
39
0
210
0
220
0
230
1
0
LINE
5
52
100
AcDbEntity
8
1
62
256
6
ByLayer
370
-1
48
1
60
0
100
AcDbLine
10
10.802014
20
-17.603513
30
0
11
5.721529
21
-17.159029
31
0
39
0
210
0
220
0
230
1
0
LINE
5
53
100
AcDbEntity
8
1
62
256
6
ByLayer
370
-1
48
1
60
0
100
AcDbLine
10
12.096078
20
-5.163685
30
0
11
11.887401
21
-5.14451
31
0
39
0
210
0
220
0
230
1
0
LINE
5
54
100
AcDbEntity
8
1
62
256
6
ByLayer
370
-1
48
1
60
0
100
AcDbLine
10
1
20
-12.4375
30
0
11
0
21
-12.4375
31
0
39
0
210
0
220
0
230
1
0
LINE
5
55
100
AcDbEntity
8
1
62
256
6
ByLayer
370
-1
48
1
60
0
100
AcDbLine
10
11.887401
20
-5.14451
30
0
11
11.861608
21
-5.425217
31
0
39
0
210
0
220
0
230
1
0
LINE
5
56
100
AcDbEntity
8
1
62
256
6
ByLayer
370
-1
48
1
60
0
100
AcDbLine
10
20.926644
20
-1.953913
30
0
11
21.371129
21
-7.034399
31
0
39
0
210
0
220
0
230
1
0
LINE
5
57
100
AcDbEntity
8
1
62
256
6
ByLayer
370
-1
48
1
60
0
100
AcDbLine
10
5.002105
20
12.435598
30
0
11
20.926644
21
-1.953913
31
0
39
0
210
0
220
0
230
1
0
LINE
5
58
100
AcDbEntity
8
1
62
256
6
ByLayer
370
-1
48
1
60
0
100
AcDbLine
10
12.096078
20
-5.163685
30
0
11
12.070285
21
-5.444392
31
0
39
0
210
0
220
0
230
1
0
LINE
5
59
100
AcDbEntity
8
1
62
256
6
ByLayer
370
-1
48
1
60
0
100
AcDbLine
10
0
20
12.435598
30
0
11
5.002105
21
12.435598
31
0
39
0
210
0
220
0
230
1
0
LINE
5
5A
100
AcDbEntity
8
SK1
62
256
6
ByLayer
370
-1
48
1
60
0
100
AcDbLine
10
0
20
-12.4375
30
0
11
-0.15
21
-12.4375
31
0
39
0
210
0
220
0
230
1
0
LINE
5
5C
100
AcDbEntity
8
SK1
62
256
6
ByLayer
370
-1
48
1
60
0
100
AcDbLine
10
-0.15
20
12.436252
30
0
11
0
21
12.435598
31
0
39
0
210
0
220
0
230
1
0
LINE
5
5D
100
AcDbEntity
8
SK1
62
256
6
ByLayer
370
-1
48
1
60
0
100
AcDbLine
10
-127.669885
20
12.4375
30
0
11
-0.15
21
12.4375
31
0
39
0
210
0
220
0
230
1
0
LINE
5
5E
100
AcDbEntity
8
SK1
62
256
6
ByLayer
370
-1
48
1
60
0
100
AcDbLine
10
-0.15
20
-12.4375
30
0
11
-127.669885
21
-12.4375
31
0
39
0
210
0
220
0
230
1
0
LINE
5
5F
100
AcDbEntity
8
1
62
256
6
ByLayer
370
-1
48
1
60
0
100
AcDbLine
10
10.854628
20
-18.204262
30
0
11
9.871213
21
-6.963778
31
0
39
0
210
0
220
0
230
1
0
LINE
5
60
100
AcDbEntity
8
SK1
62
256
6
ByLayer
370
-1
48
1
60
0
100
AcDbLine
10
-0.15
20
-12.4375
30
0
11
-0.15
21
12.4375
31
0
39
0
210
0
220
0
230
1
0
LINE
5
61
100
AcDbEntity
8
SK1
62
256
6
ByLayer
370
-1
48
1
60
0
100
AcDbLine
10
0
20
-12.4375
30
0
11
0
21
12.435598
31
0
39
0
210
0
220
0
230
1
0
LINE
5
62
100
AcDbEntity
8
SK1
62
256
6
ByLayer
370
-1
48
1
60
0
100
AcDbLine
10
-127.669885
20
-12.4375
30
0
11
-127.669885
21
12.4375
31
0
39
0
210
0
220
0
230
1
0
LINE
5
63
100
AcDbEntity
8
1
62
256
6
ByLayer
370
-1
48
1
60
0
100
AcDbLine
10
22.693654
20
-7.80879
30
0
11
23.677069
21
-19.049273
31
0
39
0
210
0
220
0
230
1
0
LINE
5
64
100
AcDbEntity
8
1
62
256
6
ByLayer
370
-1
48
1
60
0
100
AcDbLine
10
10.731393
20
-6.103598
30
0
11
21.971877
21
-7.087013
31
0
39
0
210
0
220
0
230
1
0
LINE
5
65
100
AcDbEntity
8
1
62
256
6
ByLayer
370
-1
48
1
60
0
100
AcDbLine
10
22.816889
20
-19.909454
30
0
11
11.576405
21
-18.926039
31
0
39
0
210
0
220
0
230
1
0
MTEXT
5
98
100
AcDbEntity
8
SK6
62
256
6
ByLayer
370
-1
48
1
60
0
100
AcDbMText
10
-75.177798
20
22.895841
30
0
210
0
220
0
230
1
1
\W00.735;\fsimplex.shx,bigfont.shx;SCLCL 2525M 12 
40
3.5
41
0
44
1.084337
50
0
71
7
72
5
7
DEFAULT
0
DIMENSION
5
D9
100
AcDbEntity
8
2
62
256
6
ByLayer
370
-3
48
1
60
0
100
AcDbDimension
2
DimnDraft3D2
10
0.349841
20
-17.943842
30
0
11
5.242736
21
-28.238397
31
0
70
34
71
5
72
1
41
1
210
0
220
0
230
1
3
Standard
100
AcDb2LineAngularDimension
13
23.680115
23
-21.9125
33
0
14
23.680115
24
-43.404368
34
0
15
19.828601
25
-19.648012
35
0
16
11.205831
26
-31.415552
36
0
40
0
0
DIMENSION
5
EE
100
AcDbEntity
8
2
62
256
6
ByLayer
370
-3
48
1
60
0
100
AcDbDimension
2
DimnDraft3D3
10
50.930115
20
-19.9125
30
0
11
50.930115
21
-6.366447
31
0
70
32
71
5
72
1
41
1
210
0
220
0
230
1
3
Standard
100
AcDbAlignedDimension
13
2
23
12.4375
33
0
14
25.680115
24
-19.9125
34
0
50
90
100
AcDbRotatedDimension
1001
ACAD
1000
DSTYLE
1002
{
1070
    74
1070
     0
1070
   279
1070
     0
1070
   172
1070
     1
1070
   173
1070
     1
1070
   340
1005
99
1070
    77
1070
     1
1070
    73
1070
     0
1070
   171
1070
     3
1070
   274
1070
     4
1070
   177
1070
     2
1070
   176
1070
     2
1070
   178
1070
     7
1070
    78
1070
     8
1070
    41
1041
3.175
1070
   147
1041
2.25
1070
    42
1041
2.0
1070
    44
1041
2.0
1070
   140
1041
4.5
1070
   343
1005
DA
1070
   344
1005
DA
1002
}
0
DIMENSION
5
FC
100
AcDbEntity
8
SK2
62
256
6
ByLayer
370
-3
48
1
60
0
100
AcDbDimension
2
DimnDraft3D4
10
-137.419885
20
-12.4375
30
0
11
-137.419885
21
-2.628947
31
0
70
32
71
5
72
1
41
1
210
0
220
0
230
1
3
Standard
100
AcDbAlignedDimension
13
-129.669885
23
12.4375
33
0
14
-129.669885
24
-12.4375
34
0
50
90
100
AcDbRotatedDimension
1001
ACAD
1000
DSTYLE
1002
{
1070
    74
1070
     0
1070
   279
1070
     0
1070
   172
1070
     1
1070
   173
1070
     1
1070
   340
1005
99
1070
    77
1070
     1
1070
    73
1070
     0
1070
   171
1070
     3
1070
   274
1070
     4
1070
   177
1070
     2
1070
   176
1070
     2
1070
   178
1070
     7
1070
    78
1070
     8
1070
    41
1041
3.175
1070
   147
1041
2.25
1070
    42
1041
2.0
1070
    44
1041
2.0
1070
   140
1041
4.5
1070
   343
1005
DA
1070
   344
1005
DA
1002
}
0
ENDSEC
0
SECTION
2
OBJECTS
0
DICTIONARY
5
12c
330
0
100
AcDbDictionary
280
0
281
1
3
ACAD_GROUP
350
12d
3
ACAD_MLINESTYLE
350
12e
0
DICTIONARY
5
12d
330
0
100
AcDbDictionary
280
0
281
1
0
DICTIONARY
5
12e
330
0
100
AcDbDictionary
280
0
281
1
3
Standard
350
18
0
MLINESTYLE
5
18
330
12e
100
AcDbMlineStyle
2
Standard
70
0
3

62
256
51
90
52
90
71
2
49
-0.5
62
256
6
ByLayer
49
0.5
62
256
6
ByLayer
0
RASTERVARIABLES
5
11b
330

100
AcDbRasterVariables
90
0
70
1
71
1
72
1
0
ENDSEC
0
EOF
