0
SECTION
2
HEADER
9
$ACADVER
1
AC1015
9
$DWGCODEPAGE
3
ANSI_1252
9
$HANDSEED
5
15c
9
$ANGBASE
50
0
9
$ANGDIR
70
0
9
$ATTMODE
70
1
9
$AUNITS
70
0
9
$AUPREC
70
0
9
$CECOLOR
62
256
9
$CELTSCALE
40
1
9
$CELTYPE
6
ByLayer
9
$CELWEIGHT
370
-1
9
$CLAYER
8
0
9
$CMLJUST
70
0
9
$CMLSCALE
40
1
9
$CMLSTYLE
2
Standard
9
$DIMSTYLE
2
Standard
9
$TEXTSIZE
40
0.2
9
$TEXTSTYLE
7
Standard
9
$LUNITS
70
2
9
$LUPREC
70
4
9
$EXTNAMES
290
1
9
$INSUNITS
70
4
9
$LTSCALE
40
1
9
$LWDISPLAY
290
0
9
$PDMODE
70
0
9
$PDSIZE
40
0
9
$PLINEGEN
70
0
0
ENDSEC
0
SECTION
2
CLASSES
0
CLASS
1
RASTERVARIABLES
2
AcDbRasterVariables
3
ISM
90
0
280
0
281
0
0
ENDSEC
0
SECTION
2
TABLES
0
TABLE
2
VPORT
5
152
100
AcDbSymbolTable
0
VPORT
5
1
100
AcDbSymbolTableRecord
100
AcDbViewportTableRecord
2
*Active
70
0
10
0
20
0
11
1
21
1
12
-1
22
1
13
0
23
0
14
0.5
24
0.5
15
10
25
10
16
0
26
0
36
1
17
0
27
0
37
0
0
ENDTAB
0
TABLE
2
LTYPE
5
153
100
AcDbSymbolTable
0
LTYPE
5
14
100
AcDbSymbolTableRecord
100
AcDbLinetypeTableRecord
70
0
2
ByBlock
3

72
65
73
0
40
0
0
LTYPE
5
15
100
AcDbSymbolTableRecord
100
AcDbLinetypeTableRecord
70
0
2
ByLayer
3

72
65
73
0
40
0
0
LTYPE
5
16
100
AcDbSymbolTableRecord
100
AcDbLinetypeTableRecord
70
0
2
CONTINUOUS
3
Solid line
72
65
73
0
40
0
0
LTYPE
5
3B
100
AcDbSymbolTableRecord
100
AcDbLinetypeTableRecord
70
0
2
DASHED
3
__ __ __ __ __ __ __ __ __
72
65
73
2
40
25.72
49
12.86
74
0
49
-12.86
74
0
0
LTYPE
5
3C
100
AcDbSymbolTableRecord
100
AcDbLinetypeTableRecord
70
0
2
HIDDEN
3
_ _ _ _ _ _ _ _ _ _ _ _ _ _ _
72
65
73
2
40
0.5
49
0.25
74
0
49
-0.25
74
0
0
LTYPE
5
3D
100
AcDbSymbolTableRecord
100
AcDbLinetypeTableRecord
70
0
2
PHANTOM
3
____ _ _ ____ _ _ _____ _ _ ____
72
65
73
6
40
50.5
49
18
74
0
49
-6.5
74
0
49
6.5
74
0
49
-6.5
74
0
49
6.5
74
0
49
-6.5
74
0
0
LTYPE
5
3E
100
AcDbSymbolTableRecord
100
AcDbLinetypeTableRecord
70
0
2
CENTER
3
____ _ ____ _ ____ _ ____
72
65
73
4
40
47.5
49
22
74
0
49
-8.5
74
0
49
8.5
74
0
49
-8.5
74
0
0
LTYPE
5
3F
100
AcDbSymbolTableRecord
100
AcDbLinetypeTableRecord
70
0
2
DOT
3
.........................
72
65
73
2
40
10
49
0
74
0
49
-10
74
0
0
LTYPE
5
40
100
AcDbSymbolTableRecord
100
AcDbLinetypeTableRecord
70
0
2
DASHDOT
3
_._._._._._._._._._._._._._._._.
72
65
73
4
40
70
49
31
74
0
49
-13
74
0
49
13
74
0
49
-13
74
0
0
ENDTAB
0
TABLE
2
LAYER
5
154
100
AcDbSymbolTable
0
LAYER
5
10
100
AcDbSymbolTableRecord
100
AcDbLayerTableRecord
2
0
70
0
62
7
6
CONTINUOUS
290
1
370
-3
390
0
0
LAYER
5
45
100
AcDbSymbolTableRecord
100
AcDbLayerTableRecord
2
2
70
0
62
7
6
CONTINUOUS
290
1
370
-3
390
0
0
LAYER
5
47
100
AcDbSymbolTableRecord
100
AcDbLayerTableRecord
2
80
70
0
62
-6
6
CONTINUOUS
290
1
370
-3
390
0
0
LAYER
5
4A
100
AcDbSymbolTableRecord
100
AcDbLayerTableRecord
2
81
70
0
62
-3
6
CONTINUOUS
290
1
370
-3
390
0
0
LAYER
5
4F
100
AcDbSymbolTableRecord
100
AcDbLayerTableRecord
2
1
70
0
62
4
6
CONTINUOUS
290
1
370
-3
390
0
0
LAYER
5
13f
100
AcDbSymbolTableRecord
100
AcDbLayerTableRecord
2
SK2
70
0
62
7
6
CONTINUOUS
290
1
370
-3
390
0
0
LAYER
5
140
100
AcDbSymbolTableRecord
100
AcDbLayerTableRecord
2
SK1
70
0
62
4
6
CONTINUOUS
290
1
370
-3
390
0
0
LAYER
5
141
100
AcDbSymbolTableRecord
100
AcDbLayerTableRecord
2
SK6
70
0
62
5
6
CONTINUOUS
290
1
370
-3
390
0
0
ENDTAB
0
TABLE
2
STYLE
5
155
100
AcDbSymbolTable
0
STYLE
5
11
100
AcDbSymbolTableRecord
100
AcDbTextStyleTableRecord
2
Standard
3
txt
70
0
71
0
40
0
41
1
42
0
50
0
0
STYLE
5
BC
100
AcDbSymbolTableRecord
100
AcDbTextStyleTableRecord
2
DEFAULT
3
simplex.shx
70
0
71
0
40
0
41
1
42
0
50
0
0
STYLE
5
DF
100
AcDbSymbolTableRecord
100
AcDbTextStyleTableRecord
2
DWGDirectTextStyle
3
SIMPLEX
70
0
71
0
40
0
41
1
42
0
50
0
0
ENDTAB
0
TABLE
2
DIMSTYLE
5
156
100
AcDbSymbolTable
100
AcDbDimStyleTable
0
DIMSTYLE
105
27
100
AcDbSymbolTableRecord
100
AcDbDimStyleTableRecord
2
Standard
70
0
3
<>
41
0.18
42
0.0625
44
0.18
140
0.18
147
0.09
73
0
74
0
77
1
271
2
275
0
278
52
280
0
340
11
0
ENDTAB
0
TABLE
2
VIEW
5
157
100
AcDbSymbolTable
0
ENDTAB
0
TABLE
2
UCS
5
158
100
AcDbSymbolTable
0
ENDTAB
0
TABLE
2
APPID
5
159
100
AcDbSymbolTable
0
APPID
5
12
100
AcDbSymbolTableRecord
100
AcDbRegAppTableRecord
2
ACAD
70
0
0
ENDTAB
0
TABLE
2
BLOCK_RECORD
5
15a
100
AcDbSymbolTable
0
BLOCK_RECORD
5
1F
100
AcDbSymbolTableRecord
100
AcDbBlockTableRecord
2
*Model_Space
340
0
70
0
0
BLOCK_RECORD
5
1B
100
AcDbSymbolTableRecord
100
AcDbBlockTableRecord
2
*Paper_Space
340
0
70
0
0
BLOCK_RECORD
5
23
100
AcDbSymbolTableRecord
100
AcDbBlockTableRecord
2
*Paper_Space0
340
0
70
0
0
BLOCK_RECORD
5
E1
100
AcDbSymbolTableRecord
100
AcDbBlockTableRecord
2
DimnDraft3D11
340
0
70
0
0
BLOCK_RECORD
5
EF
100
AcDbSymbolTableRecord
100
AcDbBlockTableRecord
2
DimnDraft3D2
340
0
70
0
0
BLOCK_RECORD
5
FD
100
AcDbSymbolTableRecord
100
AcDbBlockTableRecord
2
_CLOSED
340
0
70
0
0
BLOCK_RECORD
5
104
100
AcDbSymbolTableRecord
100
AcDbBlockTableRecord
2
DimnDraft3D3
340
0
70
0
0
BLOCK_RECORD
5
112
100
AcDbSymbolTableRecord
100
AcDbBlockTableRecord
2
DimnDraft3D4
340
0
70
0
0
ENDTAB
0
ENDSEC
0
SECTION
2
BLOCKS
0
BLOCK
5
20
100
AcDbEntity
8
0
100
AcDbBlockBegin
2
*Model_Space
70
0
10
0
20
0
30
0
3
*Model_Space
0
ENDBLK
5
21
100
AcDbEntity
8
0
100
AcDbBlockEnd
0
BLOCK
5
1C
100
AcDbEntity
8
0
100
AcDbBlockBegin
2
*Paper_Space
70
0
10
0
20
0
30
0
3
*Paper_Space
0
ENDBLK
5
1D
100
AcDbEntity
8
0
100
AcDbBlockEnd
0
BLOCK
5
24
100
AcDbEntity
8
0
100
AcDbBlockBegin
2
*Paper_Space0
70
0
10
0
20
0
30
0
3
*Paper_Space0
0
ENDBLK
5
25
100
AcDbEntity
8
0
100
AcDbBlockEnd
0
BLOCK
5
E2
100
AcDbEntity
8
0
100
AcDbBlockBegin
2
DimnDraft3D11
70
0
10
0
20
0
30
0
3
DimnDraft3D11
0
LINE
5
E4
100
AcDbEntity
8
SK2
62
256
6
ByLayer
370
-1
48
1
60
0
100
AcDbLine
10
26.853288
20
-14.4125
30
0
11
26.853288
21
-38.6625
31
0
39
0
210
0
220
0
230
1
0
LINE
5
E5
100
AcDbEntity
8
SK2
62
256
6
ByLayer
370
-1
48
1
60
0
100
AcDbLine
10
-74.496712
20
-9.9375
30
0
11
-74.496712
21
-38.6625
31
0
39
0
210
0
220
0
230
1
0
LINE
5
E6
100
AcDbEntity
8
SK2
62
256
6
ByLayer
370
-1
48
1
60
0
100
AcDbLine
10
26.853288
20
-36.6625
30
0
11
-74.496712
21
-36.6625
31
0
39
0
210
0
220
0
230
1
0
LINE
5
E7
100
AcDbEntity
8
SK2
62
256
6
ByLayer
370
-1
48
1
60
0
100
AcDbLine
10
26.853288
20
-36.6625
30
0
11
23.67829
21
-37.080497
31
0
39
0
210
0
220
0
230
1
0
LINE
5
E8
100
AcDbEntity
8
SK2
62
256
6
ByLayer
370
-1
48
1
60
0
100
AcDbLine
10
26.853288
20
-36.6625
30
0
11
23.678287
21
-36.244503
31
0
39
0
210
0
220
0
230
1
0
LINE
5
E9
100
AcDbEntity
8
SK2
62
256
6
ByLayer
370
-1
48
1
60
0
100
AcDbLine
10
23.67829
20
-37.080497
30
0
11
23.678287
21
-36.244503
31
0
39
0
210
0
220
0
230
1
0
LINE
5
EA
100
AcDbEntity
8
SK2
62
256
6
ByLayer
370
-1
48
1
60
0
100
AcDbLine
10
-74.496712
20
-36.6625
30
0
11
-71.321713
21
-36.244503
31
0
39
0
210
0
220
0
230
1
0
LINE
5
EB
100
AcDbEntity
8
SK2
62
256
6
ByLayer
370
-1
48
1
60
0
100
AcDbLine
10
-74.496712
20
-36.6625
30
0
11
-71.32171
21
-37.080497
31
0
39
0
210
0
220
0
230
1
0
LINE
5
EC
100
AcDbEntity
8
SK2
62
256
6
ByLayer
370
-1
48
1
60
0
100
AcDbLine
10
-71.321713
20
-36.244503
30
0
11
-71.32171
21
-37.080497
31
0
39
0
210
0
220
0
230
1
0
MTEXT
5
ED
100
AcDbEntity
8
SK2
62
256
6
ByLayer
370
-1
48
1
60
0
100
AcDbMText
10
-26.415133
20
-35.5375
30
0
210
0
220
0
230
1
1
\W00.604;\fsimplex.shx,bigfont.shx;100 
40
4.5
41
0
44
1.084337
50
0
71
7
72
5
7
DEFAULT
0
ENDBLK
5
E3
100
AcDbEntity
8
0
100
AcDbBlockEnd
0
BLOCK
5
FA
100
AcDbEntity
8
0
100
AcDbBlockBegin
2
DimnDraft3D2
70
0
10
0
20
0
30
0
3
DimnDraft3D2
0
MTEXT
5
F0
100
AcDbEntity
8
2
62
256
6
ByLayer
370
-1
48
1
60
0
100
AcDbMText
10
8.346511
20
-22.327873
30
0
210
0
220
0
230
1
1
\W01.000;\fsimplex.shx,bigfont.shx;95%%d0' 
40
4.5
41
0
44
1.084337
50
312.5
71
7
72
5
7
DEFAULT
0
LINE
5
F1
100
AcDbEntity
8
2
62
256
6
ByLayer
370
-1
48
1
60
0
100
AcDbLine
10
26.853288
20
-14.4125
30
0
11
26.853288
21
-35.904368
31
0
39
0
210
0
220
0
230
1
0
LINE
5
F2
100
AcDbEntity
8
2
62
256
6
ByLayer
370
-1
48
1
60
0
100
AcDbLine
10
23.001775
20
-12.148012
30
0
11
3.523014
21
-10.443842
31
0
39
0
210
0
220
0
230
1
0
ARC
5
F3
100
AcDbEntity
8
2
62
256
6
ByLayer
370
-1
48
1
60
0
100
AcDbCircle
39
0
10
26.853288
20
-12.484976
30
0
40
21.4193920064233
210
0
220
0
230
1
100
AcDbArc
50
175
51
270
0
LINE
5
F4
100
AcDbEntity
8
2
62
256
6
ByLayer
370
-1
48
1
60
0
100
AcDbLine
10
26.853288
20
-33.904368
30
0
11
23.665004
21
-34.204663
31
0
39
0
210
0
220
0
230
1
0
LINE
5
F5
100
AcDbEntity
8
2
62
256
6
ByLayer
370
-1
48
1
60
0
100
AcDbLine
10
26.853288
20
-33.904368
30
0
11
23.695917
21
-33.369241
31
0
39
0
210
0
220
0
230
1
0
LINE
5
F6
100
AcDbEntity
8
2
62
256
6
ByLayer
370
-1
48
1
60
0
100
AcDbLine
10
23.665004
20
-34.204663
30
0
11
23.695917
21
-33.369241
31
0
39
0
210
0
220
0
230
1
0
LINE
5
F7
100
AcDbEntity
8
2
62
256
6
ByLayer
370
-1
48
1
60
0
100
AcDbLine
10
5.515404
20
-10.618153
30
0
11
5.773311
21
-13.810146
31
0
39
0
210
0
220
0
230
1
0
LINE
5
F8
100
AcDbEntity
8
2
62
256
6
ByLayer
370
-1
48
1
60
0
100
AcDbLine
10
5.515404
20
-10.618153
30
0
11
4.938374
21
-13.768136
31
0
39
0
210
0
220
0
230
1
0
LINE
5
F9
100
AcDbEntity
8
2
62
256
6
ByLayer
370
-1
48
1
60
0
100
AcDbLine
10
5.773311
20
-13.810146
30
0
11
4.938374
21
-13.768136
31
0
39
0
210
0
220
0
230
1
0
ENDBLK
5
FB
100
AcDbEntity
8
0
100
AcDbBlockEnd
0
BLOCK
5
FE
100
AcDbEntity
8
0
100
AcDbBlockBegin
2
_CLOSED
70
0
10
0
20
0
30
0
3
_CLOSED
0
LINE
5
100
100
AcDbEntity
8
0
62
256
6
ByLayer
370
-2
48
1
60
0
100
AcDbLine
10
-1
20
0.166667
30
0
11
0
21
0
31
0
39
0
210
0
220
0
230
1
0
LINE
5
101
100
AcDbEntity
8
0
62
256
6
ByLayer
370
-2
48
1
60
0
100
AcDbLine
10
0
20
0
30
0
11
-1
21
-0.166667
31
0
39
0
210
0
220
0
230
1
0
LINE
5
102
100
AcDbEntity
8
0
62
256
6
ByLayer
370
-2
48
1
60
0
100
AcDbLine
10
-1
20
0.166667
30
0
11
-1
21
-0.166667
31
0
39
0
210
0
220
0
230
1
0
LINE
5
103
100
AcDbEntity
8
0
62
256
6
ByLayer
370
-2
48
1
60
0
100
AcDbLine
10
0
20
0
30
0
11
-1
21
0
31
0
39
0
210
0
220
0
230
1
0
ENDBLK
5
FF
100
AcDbEntity
8
0
100
AcDbBlockEnd
0
BLOCK
5
10F
100
AcDbEntity
8
0
100
AcDbBlockBegin
2
DimnDraft3D3
70
0
10
0
20
0
30
0
3
DimnDraft3D3
0
MTEXT
5
105
100
AcDbEntity
8
2
62
256
6
ByLayer
370
-1
48
1
60
0
100
AcDbMText
10
52.978288
20
-3.741447
30
0
210
0
220
0
230
1
1
\W01.000;\fsimplex.shx,bigfont.shx;20 
40
4.5
41
0
44
1.084337
50
90
71
7
72
5
7
DEFAULT
0
LINE
5
106
100
AcDbEntity
8
2
62
256
6
ByLayer
370
-1
48
1
60
0
100
AcDbLine
10
2
20
7.9375
30
0
11
56.103288
21
7.9375
31
0
39
0
210
0
220
0
230
1
0
LINE
5
107
100
AcDbEntity
8
2
62
256
6
ByLayer
370
-1
48
1
60
0
100
AcDbLine
10
28.853288
20
-12.4125
30
0
11
56.103288
21
-12.4125
31
0
39
0
210
0
220
0
230
1
0
LINE
5
108
100
AcDbEntity
8
2
62
256
6
ByLayer
370
-1
48
1
60
0
100
AcDbLine
10
54.103288
20
7.9375
30
0
11
54.103288
21
-12.4125
31
0
39
0
210
0
220
0
230
1
0
LINE
5
109
100
AcDbEntity
8
2
62
256
6
ByLayer
370
-1
48
1
60
0
100
AcDbLine
10
54.103288
20
7.9375
30
0
11
54.521285
21
4.762502
31
0
39
0
210
0
220
0
230
1
0
LINE
5
10A
100
AcDbEntity
8
2
62
256
6
ByLayer
370
-1
48
1
60
0
100
AcDbLine
10
54.103288
20
7.9375
30
0
11
53.685292
21
4.762498
31
0
39
0
210
0
220
0
230
1
0
LINE
5
10B
100
AcDbEntity
8
2
62
256
6
ByLayer
370
-1
48
1
60
0
100
AcDbLine
10
54.521285
20
4.762502
30
0
11
53.685292
21
4.762498
31
0
39
0
210
0
220
0
230
1
0
LINE
5
10C
100
AcDbEntity
8
2
62
256
6
ByLayer
370
-1
48
1
60
0
100
AcDbLine
10
54.103288
20
-12.4125
30
0
11
53.685292
21
-9.237502
31
0
39
0
210
0
220
0
230
1
0
LINE
5
10D
100
AcDbEntity
8
2
62
256
6
ByLayer
370
-1
48
1
60
0
100
AcDbLine
10
54.103288
20
-12.4125
30
0
11
54.521285
21
-9.237498
31
0
39
0
210
0
220
0
230
1
0
LINE
5
10E
100
AcDbEntity
8
2
62
256
6
ByLayer
370
-1
48
1
60
0
100
AcDbLine
10
53.685292
20
-9.237502
30
0
11
54.521285
21
-9.237498
31
0
39
0
210
0
220
0
230
1
0
ENDBLK
5
110
100
AcDbEntity
8
0
100
AcDbBlockEnd
0
BLOCK
5
11D
100
AcDbEntity
8
0
100
AcDbBlockBegin
2
DimnDraft3D4
70
0
10
0
20
0
30
0
3
DimnDraft3D4
0
MTEXT
5
113
100
AcDbEntity
8
SK2
62
256
6
ByLayer
370
-1
48
1
60
0
100
AcDbMText
10
-85.371712
20
-0.941447
30
0
210
0
220
0
230
1
1
\W01.000;\fsimplex.shx,bigfont.shx;16 
40
4.5
41
0
44
1.084337
50
90
71
7
72
5
7
DEFAULT
0
LINE
5
114
100
AcDbEntity
8
SK2
62
256
6
ByLayer
370
-1
48
1
60
0
100
AcDbLine
10
-76.496712
20
7.9375
30
0
11
-86.246712
21
7.9375
31
0
39
0
210
0
220
0
230
1
0
LINE
5
115
100
AcDbEntity
8
SK2
62
256
6
ByLayer
370
-1
48
1
60
0
100
AcDbLine
10
-76.496712
20
-7.9375
30
0
11
-86.246712
21
-7.9375
31
0
39
0
210
0
220
0
230
1
0
LINE
5
116
100
AcDbEntity
8
SK2
62
256
6
ByLayer
370
-1
48
1
60
0
100
AcDbLine
10
-84.246712
20
7.9375
30
0
11
-84.246712
21
-7.9375
31
0
39
0
210
0
220
0
230
1
0
LINE
5
117
100
AcDbEntity
8
SK2
62
256
6
ByLayer
370
-1
48
1
60
0
100
AcDbLine
10
-84.246712
20
7.9375
30
0
11
-83.828715
21
4.762502
31
0
39
0
210
0
220
0
230
1
0
LINE
5
118
100
AcDbEntity
8
SK2
62
256
6
ByLayer
370
-1
48
1
60
0
100
AcDbLine
10
-84.246712
20
7.9375
30
0
11
-84.664708
21
4.762498
31
0
39
0
210
0
220
0
230
1
0
LINE
5
119
100
AcDbEntity
8
SK2
62
256
6
ByLayer
370
-1
48
1
60
0
100
AcDbLine
10
-83.828715
20
4.762502
30
0
11
-84.664708
21
4.762498
31
0
39
0
210
0
220
0
230
1
0
LINE
5
11A
100
AcDbEntity
8
SK2
62
256
6
ByLayer
370
-1
48
1
60
0
100
AcDbLine
10
-84.246712
20
-7.9375
30
0
11
-84.664708
21
-4.762502
31
0
39
0
210
0
220
0
230
1
0
LINE
5
11B
100
AcDbEntity
8
SK2
62
256
6
ByLayer
370
-1
48
1
60
0
100
AcDbLine
10
-84.246712
20
-7.9375
30
0
11
-83.828715
21
-4.762498
31
0
39
0
210
0
220
0
230
1
0
LINE
5
11C
100
AcDbEntity
8
SK2
62
256
6
ByLayer
370
-1
48
1
60
0
100
AcDbLine
10
-84.664708
20
-4.762502
30
0
11
-83.828715
21
-4.762498
31
0
39
0
210
0
220
0
230
1
0
ENDBLK
5
11E
100
AcDbEntity
8
0
100
AcDbBlockEnd
0
ENDSEC
0
SECTION
2
ENTITIES
0
ARC
5
7F
100
AcDbEntity
8
1
62
256
6
ByLayer
370
-1
48
1
60
0
100
AcDbCircle
39
0
10
17.09747
20
-2.656681
30
0
40
1.5
210
0
220
0
230
1
100
AcDbArc
50
197.181861
51
252.070721
0
ARC
5
80
100
AcDbEntity
8
1
62
256
6
ByLayer
370
-1
48
1
60
0
100
AcDbCircle
39
0
10
17.09747
20
-2.656681
30
0
40
1.5
210
0
220
0
230
1
100
AcDbArc
50
64.019802
51
72.818139
0
ARC
5
81
100
AcDbEntity
8
1
62
256
6
ByLayer
370
-1
48
1
60
0
100
AcDbCircle
39
0
10
17.498899
20
3.26018
30
0
40
1.59999999999964
210
0
220
0
230
1
100
AcDbArc
50
315
51
36.804703
0
ARC
5
82
100
AcDbEntity
8
1
62
256
6
ByLayer
370
-1
48
1
60
0
100
AcDbCircle
39
0
10
18.325532
20
-2.946621
30
0
40
1.735
210
0
220
0
230
1
100
AcDbArc
50
84.75
51
109.213573
0
ARC
5
83
100
AcDbEntity
8
1
62
256
6
ByLayer
370
-1
48
1
60
0
100
AcDbCircle
39
0
10
11.180608
20
-3.05811
30
0
40
1.59999999999971
210
0
220
0
230
1
100
AcDbArc
50
233.195297
51
315
0
ARC
5
84
100
AcDbEntity
8
1
62
256
6
ByLayer
370
-1
48
1
60
0
100
AcDbCircle
39
0
10
18.54754
20
-2.967021
30
0
40
1.735
210
0
220
0
230
1
100
AcDbArc
50
21.242631
51
84.75
0
ARC
5
85
100
AcDbEntity
8
1
62
256
6
ByLayer
370
-1
48
1
60
0
100
AcDbCircle
39
0
10
-11.180608
20
-3.05811
30
0
40
3.2
210
0
220
0
230
-1
100
AcDbArc
50
276.970068
51
306.804703
0
ARC
5
86
100
AcDbEntity
8
1
62
256
6
ByLayer
370
-1
48
1
60
0
100
AcDbCircle
39
0
10
-18.54754
20
-2.967021
30
0
40
1.5
210
0
220
0
230
-1
100
AcDbArc
50
95.25
51
154.239596
0
ARC
5
87
100
AcDbEntity
8
1
62
256
6
ByLayer
370
-1
48
1
60
0
100
AcDbCircle
39
0
10
-18.325532
20
-2.946621
30
0
40
1.5
210
0
220
0
230
-1
100
AcDbArc
50
78.410996
51
95.25
0
ARC
5
88
100
AcDbEntity
8
1
62
256
6
ByLayer
370
-1
48
1
60
0
100
AcDbCircle
39
0
10
-17.498899
20
3.26018
30
0
40
3.2
210
0
220
0
230
-1
100
AcDbArc
50
143.195297
51
173.029932
0
ARC
5
89
100
AcDbEntity
8
1
62
256
6
ByLayer
370
-1
48
1
60
0
100
AcDbCircle
39
0
10
17.09747
20
-2.656681
30
0
40
1.5
210
0
220
0
230
1
100
AcDbArc
50
17.928369
51
51.843001
0
ARC
5
8A
100
AcDbEntity
8
1
62
256
6
ByLayer
370
-1
48
1
60
0
100
AcDbCircle
39
0
10
-21.693664
20
-7.252875
30
0
40
1.2065
210
0
220
0
230
-1
100
AcDbArc
50
195.079943
51
254.920057
0
ARC
5
8B
100
AcDbEntity
8
1
62
256
6
ByLayer
370
-1
48
1
60
0
100
AcDbCircle
39
0
10
26.059263
20
-11.618475
30
0
40
0.794000000000014
210
0
220
0
230
1
100
AcDbArc
50
265
51
5
0
ARC
5
8C
100
AcDbEntity
8
1
62
256
6
ByLayer
370
-1
48
1
60
0
100
AcDbCircle
39
0
10
21.693664
20
-7.252875
30
0
40
1.67649999999999
210
0
220
0
230
1
100
AcDbArc
50
315
51
14.840113
0
ARC
5
8D
100
AcDbEntity
8
1
62
256
6
ByLayer
370
-1
48
1
60
0
100
AcDbCircle
39
0
10
-21.693664
20
-7.252875
30
0
40
1.2065
210
0
220
0
230
-1
100
AcDbArc
50
74.920057
51
131.044721
0
ARC
5
8E
100
AcDbEntity
8
1
62
256
6
ByLayer
370
-1
48
1
60
0
100
AcDbCircle
39
0
10
25.356837
20
-3.589703
30
0
40
0.794000000000014
210
0
220
0
230
1
100
AcDbArc
50
5
51
85
0
ARC
5
8F
100
AcDbEntity
8
1
62
256
6
ByLayer
370
-1
48
1
60
0
100
AcDbCircle
39
0
10
21.693664
20
-7.252875
30
0
40
1.67649999999999
210
0
220
0
230
1
100
AcDbArc
50
14.840113
51
75.159887
0
ARC
5
90
100
AcDbEntity
8
1
62
256
6
ByLayer
370
-1
48
1
60
0
100
AcDbCircle
39
0
10
18.030491
20
-10.916048
30
0
40
0.794000000000028
210
0
220
0
230
1
100
AcDbArc
50
185
51
265
0
ARC
5
91
100
AcDbEntity
8
1
62
256
6
ByLayer
370
-1
48
1
60
0
100
AcDbCircle
39
0
10
21.693664
20
-7.252875
30
0
40
1.67649999999999
210
0
220
0
230
1
100
AcDbArc
50
194.840113
51
255.159887
0
ARC
5
92
100
AcDbEntity
8
1
62
256
6
ByLayer
370
-1
48
1
60
0
100
AcDbCircle
39
0
10
-21.693664
20
-7.252875
30
0
40
1.2065
210
0
220
0
230
-1
100
AcDbArc
50
15.079943
51
74.920057
0
ARC
5
93
100
AcDbEntity
8
1
62
256
6
ByLayer
370
-1
48
1
60
0
100
AcDbCircle
39
0
10
21.693664
20
-7.252875
30
0
40
1.67649999999999
210
0
220
0
230
1
100
AcDbArc
50
75.159887
51
135
0
ARC
5
95
100
AcDbEntity
8
1
62
256
6
ByLayer
370
-1
48
1
60
0
100
AcDbCircle
39
0
10
21.693664
20
-7.252875
30
0
40
1.67649999999999
210
0
220
0
230
1
100
AcDbArc
50
135
51
194.840113
0
ARC
5
96
100
AcDbEntity
8
1
62
256
6
ByLayer
370
-1
48
1
60
0
100
AcDbCircle
39
0
10
21.693664
20
-7.252875
30
0
40
1.67649999999999
210
0
220
0
230
1
100
AcDbArc
50
255.159887
51
315
0
ARC
5
99
100
AcDbEntity
8
1
62
256
6
ByLayer
370
-1
48
1
60
0
100
AcDbCircle
39
0
10
-21.693664
20
-7.252875
30
0
40
1.2065
210
0
220
0
230
-1
100
AcDbArc
50
318.955279
51
15.079943
0
ARC
5
9C
100
AcDbEntity
8
1
62
256
6
ByLayer
370
-1
48
1
60
0
100
AcDbCircle
39
0
10
-21.693664
20
-7.252875
30
0
40
1.2065
210
0
220
0
230
-1
100
AcDbArc
50
254.920057
51
311.044721
0
ARC
5
9D
100
AcDbEntity
8
1
62
256
6
ByLayer
370
-1
48
1
60
0
100
AcDbCircle
39
0
10
17.328064
20
-2.887276
30
0
40
0.794000000000005
210
0
220
0
230
1
100
AcDbArc
50
85
51
185
0
ARC
5
9E
100
AcDbEntity
8
1
62
256
6
ByLayer
370
-1
48
1
60
0
100
AcDbCircle
39
0
10
21.693664
20
-7.252875
30
0
40
1.2065
210
0
220
0
230
1
100
AcDbArc
50
221.044721
51
228.955279
0
ARC
5
9F
100
AcDbEntity
8
1
62
256
6
ByLayer
370
-1
48
1
60
0
100
AcDbCircle
39
0
10
-21.693664
20
-7.252875
30
0
40
1.2065
210
0
220
0
230
-1
100
AcDbArc
50
138.955279
51
195.079943
0
ARC
5
A0
100
AcDbEntity
8
1
62
256
6
ByLayer
370
-1
48
1
60
0
100
AcDbCircle
39
0
10
21.693664
20
-7.252875
30
0
40
1.2065
210
0
220
0
230
1
100
AcDbArc
50
41.044721
51
48.955279
0
CIRCLE
5
94
100
AcDbEntity
8
1
62
256
6
ByLayer
370
-1
48
1
60
0
100
AcDbCircle
10
-21.693664
20
-7.252875
30
0
40
2.95049568210606
39
0
210
0
220
0
230
-1
0
CIRCLE
5
97
100
AcDbEntity
8
1
62
256
6
ByLayer
370
-1
48
1
60
0
100
AcDbCircle
10
21.693664
20
-7.252875
30
0
40
3.07132534818238
39
0
210
0
220
0
230
1
0
CIRCLE
5
98
100
AcDbEntity
8
1
62
256
6
ByLayer
370
-1
48
1
60
0
100
AcDbCircle
10
21.693664
20
-7.252875
30
0
40
1.8
39
0
210
0
220
0
230
1
0
CIRCLE
5
9A
100
AcDbEntity
8
1
62
256
6
ByLayer
370
-1
48
1
60
0
100
AcDbCircle
10
21.693664
20
-7.252875
30
0
40
2.625
39
0
210
0
220
0
230
1
0
CIRCLE
5
9B
100
AcDbEntity
8
1
62
256
6
ByLayer
370
-1
48
1
60
0
100
AcDbCircle
10
21.693664
20
-7.252875
30
0
40
3.00605207334197
39
0
210
0
220
0
230
1
0
ELLIPSE
5
A1
100
AcDbEntity
8
1
62
256
6
ByLayer
370
-1
48
1
60
0
100
AcDbEllipse
10
0.875129
20
0.656101
30
0
11
-0.0710530829032003
21
2.02382424082008
31
0
210
0
220
0
230
1
40
0.208906
41
-0.166501824183348
42
0.898933992325494
0
ELLIPSE
5
A2
100
AcDbEntity
8
1
62
256
6
ByLayer
370
-1
48
1
60
0
100
AcDbEllipse
10
1.9
20
-0.110732
30
0
11
-1.13137084994059
21
2.2595269903921
31
0
210
0
220
0
230
1
40
0.500711
41
0.280037653107022
42
0.78539816338475
0
POINT
5
41
100
AcDbEntity
8
SK2
62
256
6
ByLayer
370
-1
48
1
60
0
100
AcDbPoint
10
26.853288
20
28.2875
30
0
39
0
210
0
220
0
230
1
50
360
0
POINT
5
43
100
AcDbEntity
8
SK2
62
256
6
ByLayer
370
-1
48
1
60
0
100
AcDbPoint
10
26.853288
20
28.2875
30
0
39
0
210
0
220
0
230
1
50
360
0
POINT
5
44
100
AcDbEntity
8
2
62
256
6
ByLayer
370
-1
48
1
60
0
100
AcDbPoint
10
26.853288
20
28.2875
30
0
39
0
210
0
220
0
230
1
50
360
0
POINT
5
46
100
AcDbEntity
8
80
62
256
6
ByLayer
370
-1
48
1
60
0
100
AcDbPoint
10
0
20
0
30
0
39
0
210
0
220
0
230
1
50
360
0
POINT
5
48
100
AcDbEntity
8
SK2
62
256
6
ByLayer
370
-1
48
1
60
0
100
AcDbPoint
10
26.853288
20
28.2875
30
0
39
0
210
0
220
0
230
1
50
360
0
POINT
5
49
100
AcDbEntity
8
81
62
256
6
ByLayer
370
-1
48
1
60
0
100
AcDbPoint
10
26.853288
20
-12.4125
30
0
39
0
210
0
220
0
230
1
50
360
0
POINT
5
4B
100
AcDbEntity
8
SK2
62
256
6
ByLayer
370
-1
48
1
60
0
100
AcDbPoint
10
26.853288
20
28.2875
30
0
39
0
210
0
220
0
230
1
50
360
0
SPLINE
5
A3
100
AcDbEntity
8
1
62
256
6
ByLayer
370
-1
48
1
60
0
100
AcDbSpline
70
4
71
3
72
8
73
4
40
0
40
0
40
0
40
0
40
1
40
1
40
1
40
1
41
1
10
18.0241975034174
20
-1.47720021974555
30
0
41
1
10
17.943433105697
20
-1.41374299856591
30
0
41
1
10
17.8537192503129
20
-1.35658365781995
30
0
41
1
10
17.7545606016809
20
-1.30826316889571
30
0
0
SPLINE
5
A4
100
AcDbEntity
8
1
62
256
6
ByLayer
370
-1
48
1
60
0
100
AcDbSpline
70
4
71
3
72
22
73
18
40
0
40
0
40
0
40
0
40
0.0785528286703493
40
0.0785528286703493
40
0.158783406532585
40
0.158783406532585
40
0.214265401483349
40
0.214265401483349
40
0.269381774921288
40
0.269381774921288
40
0.372397959880915
40
0.372397959880915
40
0.667370168114014
40
0.667370168114014
40
0.845895324837021
40
0.845895324837021
40
1
40
1
40
1
40
1
41
1
10
12.7323814686119
20
-3.76907862421035
30
0
41
1
10
12.682259664781
20
-3.81920042804126
30
0
41
1
10
12.6322174717517
20
-3.8750487455695
30
0
41
1
10
12.5240098725644
20
-3.99874793525939
30
0
41
1
10
12.4636329291679
20
-4.0687114954637
30
0
41
1
10
12.3525078339042
20
-4.1864845851978
30
0
41
1
10
12.3034137779914
20
-4.23544722686717
30
0
41
1
10
12.2068683217975
20
-4.32615528984249
30
0
41
1
10
12.1584756200484
20
-4.36901116443943
30
0
41
1
10
12.0288315276275
20
-4.48243046704511
30
0
41
1
10
11.9532115151891
20
-4.54791902009742
30
0
41
1
10
11.7022112605247
20
-4.80022363225496
30
0
41
1
10
11.5877862391668
20
-5.01705092779847
30
0
41
1
10
11.3643197906573
20
-5.45022702431061
30
0
41
1
10
11.2674881299032
20
-5.63122665703023
30
0
41
1
10
11.045955857749
20
-5.95485943640367
30
0
41
1
10
10.9247987465266
20
-6.1019480107033
30
0
41
1
10
10.7922856375231
20
-6.23446111970671
30
0
0
SPLINE
5
A5
100
AcDbEntity
8
1
62
256
6
ByLayer
370
-1
48
1
60
0
100
AcDbSpline
70
4
71
3
72
22
73
18
40
0
40
0
40
0
40
0
40
0.172483654514762
40
0.172483654514762
40
0.34463758935883
40
0.34463758935883
40
0.598001979671774
40
0.598001979671774
40
0.738347490059514
40
0.738347490059514
40
0.798084581085603
40
0.798084581085603
40
0.858337151746783
40
0.858337151746783
40
0.929163571992729
40
0.929163571992729
40
1
40
1
40
1
40
1
41
1
10
20.6752495731973
20
3.64850281596753
30
0
41
1
10
20.5278484752127
20
3.50110171798292
30
0
41
1
10
20.3619086226115
20
3.36783488150036
30
0
41
1
10
20.0262702279324
20
3.14732114406351
30
0
41
1
10
19.8536435275504
20
3.05704622470512
30
0
41
1
10
19.468672309917
20
2.85884569832308
30
0
41
1
10
19.2765760539066
20
2.75670260975693
30
0
41
1
10
19.0235803834729
20
2.52770505000271
30
0
41
1
10
18.9378129884231
20
2.42829579920226
30
0
41
1
10
18.7926210569165
20
2.26285604130481
30
0
41
1
10
18.744808065342
20
2.20948676182897
30
0
41
1
10
18.6440524293085
20
2.10464058701487
30
0
41
1
10
18.5897592139095
20
2.05202760242744
30
0
41
1
10
18.4757295726169
20
1.94759288381974
30
0
41
1
10
18.4152278615568
20
1.89567343159519
30
0
41
1
10
18.3056522544725
20
1.79944951620828
30
0
41
1
10
18.2554324067955
20
1.75397231397321
30
0
41
1
10
18.209867077701
20
1.70840698487882
30
0
0
SPLINE
5
A6
100
AcDbEntity
8
1
62
256
6
ByLayer
370
-1
48
1
60
0
100
AcDbSpline
70
4
71
3
72
20
73
16
40
0
40
0
40
0
40
0
40
0.145467888574716
40
0.145467888574716
40
0.289764214188008
40
0.289764214188008
40
0.448841913112345
40
0.448841913112345
40
0.596366954551866
40
0.596366954551866
40
0.730853022826267
40
0.730853022826267
40
0.881833673832664
40
0.881833673832664
40
1
40
1
40
1
40
1
41
1
10
17.5405782750196
20
-1.22362351759958
30
0
41
1
10
17.389128558951
20
-1.17679453588042
30
0
41
1
10
17.2281853739012
20
-1.15423551711322
30
0
41
1
10
16.9164286824792
20
-1.15954935071332
30
0
41
1
10
16.7609801417199
20
-1.18673657283102
30
0
41
1
10
16.4535324231781
20
-1.29131464363542
30
0
41
1
10
16.2982960458832
20
-1.37559708339708
30
0
41
1
10
16.0377040588508
20
-1.58308978605459
30
0
41
1
10
15.9262267974239
20
-1.7060667193839
30
0
41
1
10
15.7596940582806
20
-1.96260663682955
30
0
41
1
10
15.6982255531473
20
-2.0972703179728
30
0
41
1
10
15.6123659964995
20
-2.39096397669846
30
0
41
1
10
15.592037069843
20
-2.55531909878712
30
0
41
1
10
15.6039947948227
20
-2.84624238059735
30
0
41
1
10
15.6261665592214
20
-2.97610024819622
30
0
41
1
10
15.6644119710902
20
-3.09978982152899
30
0
0
SPLINE
5
A7
100
AcDbEntity
8
1
62
256
6
ByLayer
370
-1
48
1
60
0
100
AcDbSpline
70
4
71
3
72
18
73
14
40
0
40
0
40
0
40
0
40
0.212474032872484
40
0.212474032872484
40
0.386603697879179
40
0.386603697879179
40
0.562415073202725
40
0.562415073202725
40
0.715377731647732
40
0.715377731647732
40
0.918235368779514
40
0.918235368779514
40
1
40
1
40
1
40
1
41
1
10
21.5919398672366
20
-8.7371976398816
30
0
41
1
10
21.6274242978091
20
-8.67573854137567
30
0
41
1
10
21.6737907407773
20
-8.6177965652727
30
0
41
1
10
21.7756303800087
20
-8.52708083386221
30
0
41
1
10
21.8292062723931
20
-8.4907487937065
30
0
41
1
10
21.9460334492918
20
-8.43426965614984
30
0
41
1
10
22.0111871528908
20
-8.41361608456791
30
0
41
1
10
22.1327699472732
20
-8.39386322846784
30
0
41
1
10
22.1906680046183
20
-8.39198952649056
30
0
41
1
10
22.3187404410994
20
-8.40319634507131
30
0
41
1
10
22.3890025303633
20
-8.4213031146557
30
0
41
1
10
22.478421064068
20
-8.45900272749356
30
0
41
1
10
22.5034177775264
20
-8.47141723801499
30
0
41
1
10
22.5273626275036
20
-8.48515246463188
30
0
0
SPLINE
5
A8
100
AcDbEntity
8
1
62
256
6
ByLayer
370
-1
48
1
60
0
100
AcDbSpline
70
4
71
3
72
12
73
8
40
0
40
0
40
0
40
0
40
0.495924969245278
40
0.495924969245278
40
0.90036244524097
40
0.90036244524097
40
1
40
1
40
1
40
1
41
1
10
23.0302709603622
20
-6.60627880276206
30
0
41
1
10
22.9589277433695
20
-6.60669710507364
30
0
41
1
10
22.8851339401486
20
-6.59582963279661
30
0
41
1
10
22.7550980729935
20
-6.55341965727035
30
0
41
1
10
22.6967179399357
20
-6.52543247921147
30
0
41
1
10
22.6296137695841
20
-6.48023517880338
30
0
41
1
10
22.6164441484263
20
-6.47067399728851
30
0
41
1
10
22.6036029565648
20
-6.46062979360752
30
0
0
SPLINE
5
A9
100
AcDbEntity
8
1
62
256
6
ByLayer
370
-1
48
1
60
0
100
AcDbSpline
70
4
71
3
72
16
73
12
40
0
40
0
40
0
40
0
40
0.0621039197212143
40
0.0621039197212143
40
0.282872737560697
40
0.282872737560697
40
0.506396836331529
40
0.506396836331529
40
0.744229103370218
40
0.744229103370218
40
1
40
1
40
1
40
1
41
1
10
22.1230534509469
20
-5.63229630615825
30
0
41
1
10
22.1311615600206
20
-5.63444463494969
30
0
41
1
10
22.1391860392138
20
-5.63694570575609
30
0
41
1
10
22.1749207286502
20
-5.64979561293401
30
0
41
1
10
22.2014706939222
20
-5.66427454311417
30
0
41
1
10
22.2482104012951
20
-5.69971322074053
30
0
41
1
10
22.2689258690811
20
-5.72118379599482
30
0
41
1
10
22.3033543986992
20
-5.76922229322673
30
0
41
1
10
22.3169914779035
20
-5.79661149065814
30
0
41
1
10
22.3357637354985
20
-5.85452429031676
30
0
41
1
10
22.3404391730359
20
-5.88581874163415
30
0
41
1
10
22.3402606389434
20
-5.91626848134325
30
0
0
SPLINE
5
AA
100
AcDbEntity
8
1
62
256
6
ByLayer
370
-1
48
1
60
0
100
AcDbSpline
70
4
71
3
72
18
73
14
40
0
40
0
40
0
40
0
40
0.212474276129479
40
0.212474276129479
40
0.386603898215963
40
0.386603898215963
40
0.562415227754655
40
0.562415227754655
40
0.715377877558436
40
0.715377877558436
40
0.918235557790093
40
0.918235557790093
40
1
40
1
40
1
40
1
41
1
10
20.4613869770735
20
-6.4191768142019
30
0
41
1
10
20.4966982980086
20
-6.48073562978388
30
0
41
1
10
20.5235013182838
20
-6.54993628964388
30
0
41
1
10
20.5507707971349
20
-6.68356657714656
30
0
41
1
10
20.5552671093723
20
-6.7481434701912
30
0
41
1
10
20.5454047471185
20
-6.87753129469178
30
0
41
1
10
20.5305281805542
20
-6.94424156725927
30
0
41
1
10
20.4865220192241
20
-7.05928939833302
30
0
41
1
10
20.4590532250904
20
-7.11029097119339
30
0
41
1
10
20.3850180021969
20
-7.21539534373491
30
0
41
1
10
20.3340616742259
20
-7.26704871312984
30
0
41
1
10
20.2565404187399
20
-7.32542147375599
30
0
41
1
10
20.2332478362912
20
-7.34079702869536
30
0
41
1
10
20.2093418018239
20
-7.35459957446881
30
0
0
SPLINE
5
AB
100
AcDbEntity
8
1
62
256
6
ByLayer
370
-1
48
1
60
0
100
AcDbSpline
70
4
71
3
72
12
73
8
40
0
40
0
40
0
40
0
40
0.495924969245355
40
0.495924969245355
40
0.900362445266876
40
0.900362445266876
40
1
40
1
40
1
40
1
41
1
10
20.3570569348339
20
-7.89947218545271
30
0
41
1
10
20.4284001518266
20
-7.89905388314111
30
0
41
1
10
20.5021939550474
20
-7.90992135541816
30
0
41
1
10
20.6322298222062
20
-7.95233133094558
30
0
41
1
10
20.6906099552677
20
-7.98031850900682
30
0
41
1
10
20.7577141256185
20
-8.02551580941616
30
0
41
1
10
20.770883746773
20
-8.0350769909287
30
0
41
1
10
20.7837249386311
20
-8.04512119460716
30
0
0
SPLINE
5
AC
100
AcDbEntity
8
1
62
256
6
ByLayer
370
-1
48
1
60
0
100
AcDbSpline
70
4
71
3
72
14
73
10
40
0
40
0
40
0
40
0
40
0.282377988047944
40
0.282377988047944
40
0.567084253766321
40
0.567084253766321
40
0.824684854618493
40
0.824684854618493
40
1
40
1
40
1
40
1
41
1
10
20.3570569348339
20
-7.89947218545271
30
0
41
1
10
20.3234407742962
20
-7.89966928502648
30
0
41
1
10
20.2887372716948
20
-7.89392156241959
30
0
41
1
10
20.2227964170595
20
-7.87002545377047
30
0
41
1
10
20.1905887546361
20
-7.85134570958957
30
0
41
1
10
20.1378720965301
20
-7.80516168644735
30
0
41
1
10
20.1157843115766
20
-7.77792199838853
30
0
41
1
10
20.088034143974
20
-7.72730085324741
30
0
41
1
10
20.0791240269403
20
-7.70505808114041
30
0
41
1
10
20.0730847596489
20
-7.68226499745623
30
0
0
SPLINE
5
AD
100
AcDbEntity
8
1
62
256
6
ByLayer
370
-1
48
1
60
0
100
AcDbSpline
70
4
71
3
72
14
73
10
40
0
40
0
40
0
40
0
40
0.283482543589486
40
0.283482543589486
40
0.569866164960758
40
0.569866164960758
40
0.829080366665748
40
0.829080366665748
40
1
40
1
40
1
40
1
41
1
10
21.7953880279594
20
-5.76855334833317
30
0
41
1
10
21.8121233494037
20
-5.73956774105207
30
0
41
1
10
21.8344938724726
20
-5.71262011108925
30
0
41
1
10
21.8881817292146
20
-5.66784149488606
30
0
41
1
10
21.9204606542599
20
-5.64946102245761
30
0
41
1
10
21.9867405231173
20
-5.62718290141612
30
0
41
1
10
22.0213076804472
20
-5.62179764625827
30
0
41
1
10
22.078141580049
20
-5.62320788963839
30
0
41
1
10
22.101034401659
20
-5.62646212742251
30
0
41
1
10
22.1230534509469
20
-5.63229630615825
30
0
0
SPLINE
5
AE
100
AcDbEntity
8
1
62
256
6
ByLayer
370
-1
48
1
60
0
100
AcDbSpline
70
4
71
3
72
16
73
12
40
0
40
0
40
0
40
0
40
0.0570946626180775
40
0.0570946626180775
40
0.280051745717058
40
0.280051745717058
40
0.505470715177363
40
0.505470715177363
40
0.745074291066702
40
0.745074291066702
40
1
40
1
40
1
40
1
41
1
10
23.3142431355472
20
-6.82348599075854
30
0
41
1
10
23.3162007533875
20
-6.83087432863195
30
0
41
1
10
23.3178694739116
20
-6.83834665953628
30
0
41
1
10
23.3245554933544
20
-6.8749902461665
30
0
41
1
10
23.325352891561
20
-6.905247933319
30
0
41
1
10
23.3181358853881
20
-6.96347624355266
30
0
41
1
10
23.3099553985907
20
-6.99216244973624
30
0
41
1
10
23.2856840044677
20
-7.04601010733842
30
0
41
1
10
23.2688527363724
20
-7.07152369426422
30
0
41
1
10
23.2284476759533
20
-7.11653479032537
30
0
41
1
10
23.2040563483783
20
-7.13609931932444
30
0
41
1
10
23.1779860933723
20
-7.15115141374596
30
0
0
SPLINE
5
AF
100
AcDbEntity
8
1
62
256
6
ByLayer
370
-1
48
1
60
0
100
AcDbSpline
70
4
71
3
72
12
73
8
40
0
40
0
40
0
40
0
40
0.422118813951777
40
0.422118813951777
40
0.8432139787725
40
0.8432139787725
40
1
40
1
40
1
40
1
41
1
10
20.9014182470983
20
-8.16281450307426
30
0
41
1
10
20.943281957499
20
-8.2163359124722
30
0
41
1
10
20.9767960884776
20
-8.27614454313047
30
0
41
1
10
21.0238243112151
20
-8.39686244573849
30
0
41
1
10
21.038199332905
20
-8.4593776913199
30
0
41
1
10
21.0461974127446
20
-8.54370596146057
30
0
41
1
10
21.0472009533105
20
-8.56667991186427
30
0
41
1
10
21.0470672562527
20
-8.58948250687152
30
0
0
SPLINE
5
B0
100
AcDbEntity
8
1
62
256
6
ByLayer
370
-1
48
1
60
0
100
AcDbSpline
70
4
71
3
72
16
73
12
40
0
40
0
40
0
40
0
40
0.0629997311900991
40
0.0629997311900991
40
0.285872777163775
40
0.285872777163775
40
0.511544652680473
40
0.511544652680473
40
0.751675359283817
40
0.751675359283817
40
1
40
1
40
1
40
1
41
1
10
20.5081994289388
20
-6.06741097544813
30
0
41
1
10
20.5141590004205
20
-6.06145140396643
30
0
41
1
10
20.5203841116184
20
-6.05574373677138
30
0
41
1
10
20.5494882574312
20
-6.03128932431585
30
0
41
1
10
20.5753514326276
20
-6.0156192886885
30
0
41
1
10
20.6294835592286
20
-5.9930338206897
30
0
41
1
10
20.6584585087201
20
-5.9859214515337
30
0
41
1
10
20.7172955647665
20
-5.98031244401187
30
0
41
1
10
20.7478293449152
20
-5.98229493651706
30
0
41
1
10
20.8061720563423
20
-5.99493475828214
30
0
41
1
10
20.8345153566971
20
-6.00599996501032
30
0
41
1
10
20.8599652676926
20
-6.02059852358289
30
0
0
SPLINE
5
B1
100
AcDbEntity
8
1
62
256
6
ByLayer
370
-1
48
1
60
0
100
AcDbSpline
70
4
71
3
72
14
73
10
40
0
40
0
40
0
40
0
40
0.283903408666391
40
0.283903408666391
40
0.570234175542258
40
0.570234175542258
40
0.829405958796938
40
0.829405958796938
40
1
40
1
40
1
40
1
41
1
10
22.9259409181225
20
-8.0865741740129
30
0
41
1
10
22.9426192305996
20
-8.1156497547276
30
0
41
1
10
22.9546906691982
20
-8.14858621323458
30
0
41
1
10
22.9664051672953
20
-8.21755879291661
30
0
41
1
10
22.9660608459779
20
-8.25469772362683
30
0
41
1
10
22.951991317723
20
-8.32318245375509
30
0
41
1
10
22.9392667581816
20
-8.35576546322966
30
0
41
1
10
22.9094965091611
20
-8.40414344123772
30
0
41
1
10
22.8952049799677
20
-8.42226349905619
30
0
41
1
10
22.8791284662573
20
-8.43834001276662
30
0
0
SPLINE
5
B2
100
AcDbEntity
8
1
62
256
6
ByLayer
370
-1
48
1
60
0
100
AcDbSpline
70
4
71
3
72
18
73
14
40
0
40
0
40
0
40
0
40
0.212474032872474
40
0.212474032872474
40
0.386603697879174
40
0.386603697879174
40
0.562415073202711
40
0.562415073202711
40
0.715377731647732
40
0.715377731647732
40
0.918235368779514
40
0.918235368779514
40
1
40
1
40
1
40
1
41
1
10
21.7953880279595
20
-5.76855334833317
30
0
41
1
10
21.7599035973869
20
-5.83001244683911
30
0
41
1
10
21.7135371544188
20
-5.88795442294204
30
0
41
1
10
21.6116975151874
20
-5.97867015435256
30
0
41
1
10
21.558121622803
20
-6.01500219450827
30
0
41
1
10
21.4412944459043
20
-6.07148133206496
30
0
41
1
10
21.3761407423053
20
-6.09213490364686
30
0
41
1
10
21.2545579479229
20
-6.11188775974696
30
0
41
1
10
21.1966598905778
20
-6.11376146172421
30
0
41
1
10
21.0685874540967
20
-6.10255464314346
30
0
41
1
10
20.9983253648328
20
-6.08444787355907
30
0
41
1
10
20.908906831128
20
-6.04674826072124
30
0
41
1
10
20.8839101176697
20
-6.03433375019981
30
0
41
1
10
20.8599652676926
20
-6.02059852358292
30
0
0
SPLINE
5
B3
100
AcDbEntity
8
1
62
256
6
ByLayer
370
-1
48
1
60
0
100
AcDbSpline
70
4
71
3
72
14
73
10
40
0
40
0
40
0
40
0
40
0.282377988047941
40
0.282377988047941
40
0.567084253766314
40
0.567084253766314
40
0.824684854618483
40
0.824684854618483
40
1
40
1
40
1
40
1
41
1
10
23.0302709603622
20
-6.60627880276206
30
0
41
1
10
23.0638871208998
20
-6.60608170318829
30
0
41
1
10
23.0985906235013
20
-6.61182942579518
30
0
41
1
10
23.1645314781366
20
-6.6357255344443
30
0
41
1
10
23.19673914056
20
-6.65440527862521
30
0
41
1
10
23.2494557986659
20
-6.70058930176739
30
0
41
1
10
23.2715435836195
20
-6.72782898982624
30
0
41
1
10
23.299293751222
20
-6.77845013496736
30
0
41
1
10
23.3082038682557
20
-6.80069290707436
30
0
41
1
10
23.3142431355472
20
-6.82348599075854
30
0
0
SPLINE
5
B4
100
AcDbEntity
8
1
62
256
6
ByLayer
370
-1
48
1
60
0
100
AcDbSpline
70
4
71
3
72
12
73
8
40
0
40
0
40
0
40
0
40
0.422118814263779
40
0.422118814263779
40
0.843213979141165
40
0.843213979141165
40
1
40
1
40
1
40
1
41
1
10
22.4859096480979
20
-6.3429364851406
30
0
41
1
10
22.4440459376663
20
-6.28941507570315
30
0
41
1
10
22.4105318066693
20
-6.22960644499568
30
0
41
1
10
22.3635035839389
20
-6.10888854233028
30
0
41
1
10
22.3491285622617
20
-6.04637329674
30
0
41
1
10
22.3411304824468
20
-5.96204502664628
30
0
41
1
10
22.3401269418859
20
-5.93907107629698
30
0
41
1
10
22.3402606389434
20
-5.91626848134325
30
0
0
SPLINE
5
B5
100
AcDbEntity
8
1
62
256
6
ByLayer
370
-1
48
1
60
0
100
AcDbSpline
70
4
71
3
72
16
73
12
40
0
40
0
40
0
40
0
40
0.0570946626180849
40
0.0570946626180849
40
0.280051745717034
40
0.280051745717034
40
0.505470715177327
40
0.505470715177327
40
0.745074291066649
40
0.745074291066649
40
1
40
1
40
1
40
1
41
1
10
20.0730847596489
20
-7.68226499745623
30
0
41
1
10
20.0711271418086
20
-7.67487665958282
30
0
41
1
10
20.0694584212844
20
-7.66740432867849
30
0
41
1
10
20.0627724018417
20
-7.63076074204827
30
0
41
1
10
20.061975003635
20
-7.60050305489577
30
0
41
1
10
20.069192009808
20
-7.54227474466211
30
0
41
1
10
20.0773724966054
20
-7.51358853847856
30
0
41
1
10
20.1016438907284
20
-7.45974088087635
30
0
41
1
10
20.1184751588237
20
-7.43422729395056
30
0
41
1
10
20.1588802192428
20
-7.3892161978894
30
0
41
1
10
20.1832715468177
20
-7.36965166889033
30
0
41
1
10
20.2093418018239
20
-7.35459957446881
30
0
0
SPLINE
5
B6
100
AcDbEntity
8
1
62
256
6
ByLayer
370
-1
48
1
60
0
100
AcDbSpline
70
4
71
3
72
16
73
12
40
0
40
0
40
0
40
0
40
0.0621039197211407
40
0.0621039197211407
40
0.28287273756065
40
0.28287273756065
40
0.506396836331451
40
0.506396836331451
40
0.744229103370102
40
0.744229103370102
40
1
40
1
40
1
40
1
41
1
10
21.2642744442492
20
-8.87345468205652
30
0
41
1
10
21.2561663351755
20
-8.87130635326508
30
0
41
1
10
21.2481418559823
20
-8.86880528245868
30
0
41
1
10
21.2124071665459
20
-8.85595537528076
30
0
41
1
10
21.1858572012738
20
-8.8414764451006
30
0
41
1
10
21.139117493901
20
-8.80603776747427
30
0
41
1
10
21.118402026115
20
-8.78456719221998
30
0
41
1
10
21.0839734964968
20
-8.73652869498807
30
0
41
1
10
21.0703364172925
20
-8.70913949755666
30
0
41
1
10
21.0515641596975
20
-8.65122669789801
30
0
41
1
10
21.0468887221601
20
-8.61993224658065
30
0
41
1
10
21.0470672562527
20
-8.58948250687152
30
0
0
SPLINE
5
B7
100
AcDbEntity
8
1
62
256
6
ByLayer
370
-1
48
1
60
0
100
AcDbSpline
70
4
71
3
72
18
73
14
40
0
40
0
40
0
40
0
40
0.212474276129483
40
0.212474276129483
40
0.386603898215961
40
0.386603898215961
40
0.56241522775464
40
0.56241522775464
40
0.715377877558413
40
0.715377877558413
40
0.918235557790067
40
0.918235557790067
40
1
40
1
40
1
40
1
41
1
10
22.9259409181225
20
-8.0865741740129
30
0
41
1
10
22.8906295971874
20
-8.02501535843092
30
0
41
1
10
22.8638265769122
20
-7.95581469857089
30
0
41
1
10
22.8365570980611
20
-7.82218441106821
30
0
41
1
10
22.8320607858238
20
-7.75760751802355
30
0
41
1
10
22.8419231480776
20
-7.62821969352296
30
0
41
1
10
22.8567997146418
20
-7.56150942095547
30
0
41
1
10
22.900805875972
20
-7.44646158988175
30
0
41
1
10
22.9282746701056
20
-7.39546001702138
30
0
41
1
10
23.0023098929991
20
-7.29035564447986
30
0
41
1
10
23.0532662209701
20
-7.2387022750849
30
0
41
1
10
23.1307874764562
20
-7.18032951445878
30
0
41
1
10
23.1540800589049
20
-7.16495395951938
30
0
41
1
10
23.1779860933723
20
-7.15115141374596
30
0
0
SPLINE
5
B8
100
AcDbEntity
8
1
62
256
6
ByLayer
370
-1
48
1
60
0
100
AcDbSpline
70
4
71
3
72
14
73
10
40
0
40
0
40
0
40
0
40
0.283903408666438
40
0.283903408666438
40
0.57023417554231
40
0.57023417554231
40
0.82940595879696
40
0.82940595879696
40
1
40
1
40
1
40
1
41
1
10
20.4613869770735
20
-6.41917681420188
30
0
41
1
10
20.4447086645965
20
-6.39010123348714
30
0
41
1
10
20.4326372259978
20
-6.35716477498016
30
0
41
1
10
20.4209227279007
20
-6.28819219529814
30
0
41
1
10
20.4212670492181
20
-6.25105326458791
30
0
41
1
10
20.435336577473
20
-6.18256853445965
30
0
41
1
10
20.4480611370145
20
-6.14998552498508
30
0
41
1
10
20.477831386035
20
-6.10160754697702
30
0
41
1
10
20.4921229152284
20
-6.08348748915856
30
0
41
1
10
20.5081994289388
20
-6.06741097544813
30
0
0
SPLINE
5
B9
100
AcDbEntity
8
1
62
256
6
ByLayer
370
-1
48
1
60
0
100
AcDbSpline
70
4
71
3
72
14
73
10
40
0
40
0
40
0
40
0
40
0.283482543589375
40
0.283482543589375
40
0.569866164960681
40
0.569866164960681
40
0.82908036666568
40
0.82908036666568
40
1
40
1
40
1
40
1
41
1
10
21.5919398672366
20
-8.7371976398816
30
0
41
1
10
21.5752045457924
20
-8.76618324716267
30
0
41
1
10
21.5528340227235
20
-8.79313087712549
30
0
41
1
10
21.4991461659815
20
-8.83790949332871
30
0
41
1
10
21.4668672409361
20
-8.85628996575716
30
0
41
1
10
21.4005873720788
20
-8.87856808679865
30
0
41
1
10
21.3660202147489
20
-8.8839533419565
30
0
41
1
10
21.3091863151471
20
-8.88254309857641
30
0
41
1
10
21.2862934935371
20
-8.87928886079226
30
0
41
1
10
21.2642744442492
20
-8.87345468205652
30
0
0
SPLINE
5
BA
100
AcDbEntity
8
1
62
256
6
ByLayer
370
-1
48
1
60
0
100
AcDbSpline
70
4
71
3
72
16
73
12
40
0
40
0
40
0
40
0
40
0.0629997311900894
40
0.0629997311900894
40
0.285872777163794
40
0.285872777163794
40
0.511544652680515
40
0.511544652680515
40
0.751675359283845
40
0.751675359283845
40
1
40
1
40
1
40
1
41
1
10
22.8791284662573
20
-8.43834001276662
30
0
41
1
10
22.8731688947756
20
-8.44429958424831
30
0
41
1
10
22.8669437835777
20
-8.45000725144337
30
0
41
1
10
22.8378396377649
20
-8.47446166389889
30
0
41
1
10
22.8119764625685
20
-8.49013169952624
30
0
41
1
10
22.7578443359675
20
-8.51271716752504
30
0
41
1
10
22.7288693864759
20
-8.51982953668104
30
0
41
1
10
22.6700323304295
20
-8.52543854420287
30
0
41
1
10
22.6394985502809
20
-8.52345605169768
30
0
41
1
10
22.5811558388538
20
-8.5108162299326
30
0
41
1
10
22.552812538499
20
-8.49975102320442
30
0
41
1
10
22.5273626275036
20
-8.48515246463188
30
0
0
INSERT
5
EE
100
AcDbEntity
8
SK2
62
256
6
ByLayer
370
-1
48
1
60
0
100
AcDbBlockReference
2
DimnDraft3D11
10
0
20
0
30
0
41
1
42
1
43
1
50
0
210
0
220
0
230
1
0
LINE
5
4C
100
AcDbEntity
8
80
62
256
6
ByLayer
370
-1
48
1
60
0
100
AcDbLine
10
0
20
0
30
0
11
-5
21
0
31
0
39
0
210
0
220
0
230
1
0
LINE
5
4D
100
AcDbEntity
8
81
62
256
6
ByLayer
370
-1
48
1
60
0
100
AcDbLine
10
26.853288
20
-12.4125
30
0
11
36.853288
21
-12.4125
31
0
39
0
210
0
220
0
230
1
0
LINE
5
4E
100
AcDbEntity
8
1
62
256
6
ByLayer
370
-1
48
1
60
0
100
AcDbLine
10
0.710079
20
-9.221527
30
0
11
0.5
21
-8.4375
31
0
39
0
210
0
220
0
230
1
0
LINE
5
50
100
AcDbEntity
8
1
62
256
6
ByLayer
370
-1
48
1
60
0
100
AcDbLine
10
19.231315
20
6.286248
30
0
11
14.429239
21
10.033497
31
0
39
0
210
0
220
0
230
1
0
LINE
5
51
100
AcDbEntity
8
1
62
256
6
ByLayer
370
-1
48
1
60
0
100
AcDbLine
10
18.77999
20
4.218723
30
0
11
20.061082
21
5.177266
31
0
39
0
210
0
220
0
230
1
0
LINE
5
52
100
AcDbEntity
8
1
62
256
6
ByLayer
370
-1
48
1
60
0
100
AcDbLine
10
0.3
20
-8.2375
30
0
11
0
21
-7.9375
31
0
39
0
210
0
220
0
230
1
0
LINE
5
53
100
AcDbEntity
8
1
62
256
6
ByLayer
370
-1
48
1
60
0
100
AcDbLine
10
12.600928
20
11.4602
30
0
11
2.569525
21
1.428797
31
0
39
0
210
0
220
0
230
1
0
LINE
5
54
100
AcDbEntity
8
1
62
256
6
ByLayer
370
-1
48
1
60
0
100
AcDbLine
10
25.105999
20
-2.770675
30
0
11
24.686019
21
2.029728
31
0
39
0
210
0
220
0
230
1
0
LINE
5
55
100
AcDbEntity
8
1
62
256
6
ByLayer
370
-1
48
1
60
0
100
AcDbLine
10
20.67525
20
3.648503
30
0
11
21.523956
21
4.49721
31
0
39
0
210
0
220
0
230
1
0
LINE
5
56
100
AcDbEntity
8
1
62
256
6
ByLayer
370
-1
48
1
60
0
100
AcDbLine
10
18.684792
20
-1.473313
30
0
11
18.462785
21
-1.452914
31
0
39
0
210
0
220
0
230
1
0
LINE
5
57
100
AcDbEntity
8
1
62
256
6
ByLayer
370
-1
48
1
60
0
100
AcDbLine
10
18.484288
20
-1.218899
30
0
11
18.706295
21
-1.239299
31
0
39
0
210
0
220
0
230
1
0
LINE
5
58
100
AcDbEntity
8
1
62
256
6
ByLayer
370
-1
48
1
60
0
100
AcDbLine
10
10.091603
20
13.418325
30
0
11
2.569525
21
13.418325
31
0
39
0
210
0
220
0
230
1
0
LINE
5
59
100
AcDbEntity
8
1
62
256
6
ByLayer
370
-1
48
1
60
0
100
AcDbLine
10
15.664412
20
-3.09979
30
0
11
8.832091
21
-9.932111
31
0
39
0
210
0
220
0
230
1
0
LINE
5
5A
100
AcDbEntity
8
1
62
256
6
ByLayer
370
-1
48
1
60
0
100
AcDbLine
10
2.569525
20
1.428797
30
0
11
2.567937
21
1.387798
31
0
39
0
210
0
220
0
230
1
0
LINE
5
5B
100
AcDbEntity
8
1
62
256
6
ByLayer
370
-1
48
1
60
0
100
AcDbLine
10
22.499869
20
3.735667
30
0
11
21.523956
21
4.49721
31
0
39
0
210
0
220
0
230
1
0
LINE
5
5C
100
AcDbEntity
8
1
62
256
6
ByLayer
370
-1
48
1
60
0
100
AcDbLine
10
19.231315
20
6.286248
30
0
11
21.523956
21
4.49721
31
0
39
0
210
0
220
0
230
1
0
LINE
5
5D
100
AcDbEntity
8
1
62
256
6
ByLayer
370
-1
48
1
60
0
100
AcDbLine
10
8.832091
20
-9.932111
30
0
11
17.211499
21
-10.665214
31
0
39
0
210
0
220
0
230
1
0
LINE
5
5E
100
AcDbEntity
8
1
62
256
6
ByLayer
370
-1
48
1
60
0
100
AcDbLine
10
0.5
20
1.904202
30
0
11
0.5
21
8.439686
31
0
39
0
210
0
220
0
230
1
0
LINE
5
5F
100
AcDbEntity
8
1
62
256
6
ByLayer
370
-1
48
1
60
0
100
AcDbLine
10
14.429239
20
10.033497
30
0
11
12.600928
21
11.4602
31
0
39
0
210
0
220
0
230
1
0
LINE
5
60
100
AcDbEntity
8
1
62
256
6
ByLayer
370
-1
48
1
60
0
100
AcDbLine
10
7.234414
20
-9.792332
30
0
11
8.832091
21
-9.932111
31
0
39
0
210
0
220
0
230
1
0
LINE
5
61
100
AcDbEntity
8
1
62
256
6
ByLayer
370
-1
48
1
60
0
100
AcDbLine
10
0.5
20
8.439686
30
0
11
1.828214
21
13.418325
31
0
39
0
210
0
220
0
230
1
0
LINE
5
62
100
AcDbEntity
8
1
62
256
6
ByLayer
370
-1
48
1
60
0
100
AcDbLine
10
18.484288
20
-1.218899
30
0
11
18.462785
21
-1.452914
31
0
39
0
210
0
220
0
230
1
0
LINE
5
63
100
AcDbEntity
8
1
62
256
6
ByLayer
370
-1
48
1
60
0
100
AcDbLine
10
24.686019
20
2.029728
30
0
11
22.499869
21
3.735667
31
0
39
0
210
0
220
0
230
1
0
LINE
5
64
100
AcDbEntity
8
1
62
256
6
ByLayer
370
-1
48
1
60
0
100
AcDbLine
10
0.3
20
-8.2375
30
0
11
0.5
21
-8.4375
31
0
39
0
210
0
220
0
230
1
0
LINE
5
65
100
AcDbEntity
8
1
62
256
6
ByLayer
370
-1
48
1
60
0
100
AcDbLine
10
22.499869
20
3.735667
30
0
11
17.540578
21
-1.223624
31
0
39
0
210
0
220
0
230
1
0
LINE
5
66
100
AcDbEntity
8
1
62
256
6
ByLayer
370
-1
48
1
60
0
100
AcDbLine
10
0.3
20
1.086426
30
0
11
0.3
21
-8.2375
31
0
39
0
210
0
220
0
230
1
0
LINE
5
67
100
AcDbEntity
8
1
62
256
6
ByLayer
370
-1
48
1
60
0
100
AcDbLine
10
0
20
7.9375
30
0
11
0.5
21
8.439686
31
0
39
0
210
0
220
0
230
1
0
LINE
5
68
100
AcDbEntity
8
1
62
256
6
ByLayer
370
-1
48
1
60
0
100
AcDbLine
10
7.234414
20
-9.792332
30
0
11
10.792286
21
-6.234461
31
0
39
0
210
0
220
0
230
1
0
LINE
5
69
100
AcDbEntity
8
1
62
256
6
ByLayer
370
-1
48
1
60
0
100
AcDbLine
10
18.706295
20
-1.239299
30
0
11
18.684792
21
-1.473313
31
0
39
0
210
0
220
0
230
1
0
LINE
5
6A
100
AcDbEntity
8
1
62
256
6
ByLayer
370
-1
48
1
60
0
100
AcDbLine
10
19.231315
20
6.286248
30
0
11
20.061082
21
5.177266
31
0
39
0
210
0
220
0
230
1
0
LINE
5
6B
100
AcDbEntity
8
1
62
256
6
ByLayer
370
-1
48
1
60
0
100
AcDbLine
10
2.567937
20
1.387798
30
0
11
10.222065
21
-4.339202
31
0
39
0
210
0
220
0
230
1
0
LINE
5
6C
100
AcDbEntity
8
1
62
256
6
ByLayer
370
-1
48
1
60
0
100
AcDbLine
10
9.263522
20
-5.620293
30
0
11
0.3
21
1.086426
31
0
39
0
210
0
220
0
230
1
0
LINE
5
6D
100
AcDbEntity
8
1
62
256
6
ByLayer
370
-1
48
1
60
0
100
AcDbLine
10
0.875129
20
2.654397
30
0
11
2.567937
21
1.387798
31
0
39
0
210
0
220
0
230
1
0
LINE
5
6E
100
AcDbEntity
8
1
62
256
6
ByLayer
370
-1
48
1
60
0
100
AcDbLine
10
10.222065
20
-4.339202
30
0
11
9.263522
21
-5.620293
31
0
39
0
210
0
220
0
230
1
0
LINE
5
6F
100
AcDbEntity
8
1
62
256
6
ByLayer
370
-1
48
1
60
0
100
AcDbLine
10
7.234414
20
-9.792332
30
0
11
0.710079
21
-9.221527
31
0
39
0
210
0
220
0
230
1
0
LINE
5
70
100
AcDbEntity
8
1
62
256
6
ByLayer
370
-1
48
1
60
0
100
AcDbLine
10
12.600928
20
11.4602
30
0
11
10.091603
21
13.418325
31
0
39
0
210
0
220
0
230
1
0
LINE
5
71
100
AcDbEntity
8
1
62
256
6
ByLayer
370
-1
48
1
60
0
100
AcDbLine
10
18.630269
20
2.128809
30
0
11
12.311979
21
-4.189481
31
0
39
0
210
0
220
0
230
1
0
LINE
5
72
100
AcDbEntity
8
1
62
256
6
ByLayer
370
-1
48
1
60
0
100
AcDbLine
10
14.429239
20
10.033497
30
0
11
18.77999
21
4.218723
31
0
39
0
210
0
220
0
230
1
0
LINE
5
73
100
AcDbEntity
8
1
62
256
6
ByLayer
370
-1
48
1
60
0
100
AcDbLine
10
2.569525
20
13.418325
30
0
11
1.828214
21
13.418325
31
0
39
0
210
0
220
0
230
1
0
LINE
5
74
100
AcDbEntity
8
1
62
256
6
ByLayer
370
-1
48
1
60
0
100
AcDbLine
10
0
20
-7.9375
30
0
11
0
21
7.9375
31
0
39
0
210
0
220
0
230
1
0
LINE
5
75
100
AcDbEntity
8
1
62
256
6
ByLayer
370
-1
48
1
60
0
100
AcDbLine
10
2.569525
20
1.428797
30
0
11
2.569525
21
13.418325
31
0
39
0
210
0
220
0
230
1
0
LINE
5
76
100
AcDbEntity
8
1
62
256
6
ByLayer
370
-1
48
1
60
0
100
AcDbLine
10
17.397266
20
-2.096297
30
0
11
25.426039
21
-2.798724
31
0
39
0
210
0
220
0
230
1
0
LINE
5
77
100
AcDbEntity
8
SK1
62
256
6
ByLayer
370
-1
48
1
60
0
100
AcDbLine
10
-74.496712
20
7.9375
30
0
11
0
21
7.9375
31
0
39
0
210
0
220
0
230
1
0
LINE
5
79
100
AcDbEntity
8
1
62
256
6
ByLayer
370
-1
48
1
60
0
100
AcDbLine
10
26.147815
20
-3.520501
30
0
11
26.850242
21
-11.549273
31
0
39
0
210
0
220
0
230
1
0
LINE
5
7A
100
AcDbEntity
8
1
62
256
6
ByLayer
370
-1
48
1
60
0
100
AcDbLine
10
25.990062
20
-12.409454
30
0
11
17.961289
21
-11.707027
31
0
39
0
210
0
220
0
230
1
0
LINE
5
7B
100
AcDbEntity
8
SK1
62
256
6
ByLayer
370
-1
48
1
60
0
100
AcDbLine
10
0
20
-7.9375
30
0
11
-74.496712
21
-7.9375
31
0
39
0
210
0
220
0
230
1
0
LINE
5
7C
100
AcDbEntity
8
SK1
62
256
6
ByLayer
370
-1
48
1
60
0
100
AcDbLine
10
0
20
-7.9375
30
0
11
0
21
7.9375
31
0
39
0
210
0
220
0
230
1
0
LINE
5
7D
100
AcDbEntity
8
1
62
256
6
ByLayer
370
-1
48
1
60
0
100
AcDbLine
10
17.239512
20
-10.98525
30
0
11
16.537086
21
-2.956478
31
0
39
0
210
0
220
0
230
1
0
LINE
5
7E
100
AcDbEntity
8
SK1
62
256
6
ByLayer
370
-1
48
1
60
0
100
AcDbLine
10
-74.496712
20
-7.9375
30
0
11
-74.496712
21
7.9375
31
0
39
0
210
0
220
0
230
1
0
MTEXT
5
BB
100
AcDbEntity
8
SK6
62
256
6
ByLayer
370
-1
48
1
60
0
100
AcDbMText
10
-38.671291
20
18.395841
30
0
210
0
220
0
230
1
1
\W00.727;\fsimplex.shx,bigfont.shx;SCLCL 1616H 09HP 
40
3.5
41
0
44
1.084337
50
0
71
7
72
5
7
DEFAULT
0
DIMENSION
5
FC
100
AcDbEntity
8
2
62
256
6
ByLayer
370
-3
48
1
60
0
100
AcDbDimension
2
DimnDraft3D2
10
3.523014
20
-10.443842
30
0
11
8.415909
21
-20.738397
31
0
70
34
71
5
72
1
41
1
210
0
220
0
230
1
3
Standard
100
AcDb2LineAngularDimension
13
26.853288
23
-14.4125
33
0
14
26.853288
24
-35.904368
34
0
15
23.001775
25
-12.148012
35
0
16
14.379004
26
-23.915552
36
0
40
0
0
DIMENSION
5
111
100
AcDbEntity
8
2
62
256
6
ByLayer
370
-3
48
1
60
0
100
AcDbDimension
2
DimnDraft3D3
10
54.103288
20
-12.4125
30
0
11
54.103288
21
-4.866447
31
0
70
32
71
5
72
1
41
1
210
0
220
0
230
1
3
Standard
100
AcDbAlignedDimension
13
2
23
7.9375
33
0
14
28.853288
24
-12.4125
34
0
50
90
100
AcDbRotatedDimension
1001
ACAD
1000
DSTYLE
1002
{
1070
    74
1070
     0
1070
   279
1070
     0
1070
   172
1070
     1
1070
   173
1070
     1
1070
   340
1005
BC
1070
    77
1070
     1
1070
    73
1070
     0
1070
   171
1070
     3
1070
   274
1070
     4
1070
   177
1070
     2
1070
   176
1070
     2
1070
   178
1070
     7
1070
    78
1070
     8
1070
    41
1041
3.175
1070
   147
1041
2.25
1070
    42
1041
2.0
1070
    44
1041
2.0
1070
   140
1041
4.5
1070
   343
1005
FD
1070
   344
1005
FD
1002
}
0
DIMENSION
5
11F
100
AcDbEntity
8
SK2
62
256
6
ByLayer
370
-3
48
1
60
0
100
AcDbDimension
2
DimnDraft3D4
10
-84.246712
20
-7.9375
30
0
11
-84.246712
21
-2.066447
31
0
70
32
71
5
72
1
41
1
210
0
220
0
230
1
3
Standard
100
AcDbAlignedDimension
13
-76.496712
23
7.9375
33
0
14
-76.496712
24
-7.9375
34
0
50
90
100
AcDbRotatedDimension
1001
ACAD
1000
DSTYLE
1002
{
1070
    74
1070
     0
1070
   279
1070
     0
1070
   172
1070
     1
1070
   173
1070
     1
1070
   340
1005
BC
1070
    77
1070
     1
1070
    73
1070
     0
1070
   171
1070
     3
1070
   274
1070
     4
1070
   177
1070
     2
1070
   176
1070
     2
1070
   178
1070
     7
1070
    78
1070
     8
1070
    41
1041
3.175
1070
   147
1041
2.25
1070
    42
1041
2.0
1070
    44
1041
2.0
1070
   140
1041
4.5
1070
   343
1005
FD
1070
   344
1005
FD
1002
}
0
ENDSEC
0
SECTION
2
OBJECTS
0
DICTIONARY
5
14f
330
0
100
AcDbDictionary
280
0
281
1
3
ACAD_GROUP
350
150
3
ACAD_MLINESTYLE
350
151
0
DICTIONARY
5
150
330
0
100
AcDbDictionary
280
0
281
1
0
DICTIONARY
5
151
330
0
100
AcDbDictionary
280
0
281
1
3
Standard
350
18
0
MLINESTYLE
5
18
330
151
100
AcDbMlineStyle
2
Standard
70
0
3

62
256
51
90
52
90
71
2
49
-0.5
62
256
6
ByLayer
49
0.5
62
256
6
ByLayer
0
RASTERVARIABLES
5
13e
330

100
AcDbRasterVariables
90
0
70
1
71
1
72
1
0
ENDSEC
0
EOF
