0
SECTION
2
HEADER
9
$ACADVER
1
AC1015
9
$DWGCODEPAGE
3
ANSI_1252
9
$HANDSEED
5
139
9
$ANGBASE
50
0
9
$ANGDIR
70
0
9
$ATTMODE
70
1
9
$AUNITS
70
0
9
$AUPREC
70
0
9
$CECOLOR
62
256
9
$CELTSCALE
40
1
9
$CELTYPE
6
ByLayer
9
$CELWEIGHT
370
-1
9
$CLAYER
8
0
9
$CMLJUST
70
0
9
$CMLSCALE
40
1
9
$CMLSTYLE
2
Standard
9
$DIMSTYLE
2
Standard
9
$TEXTSIZE
40
0.2
9
$TEXTSTYLE
7
Standard
9
$LUNITS
70
2
9
$LUPREC
70
4
9
$EXTNAMES
290
1
9
$INSUNITS
70
4
9
$LTSCALE
40
1
9
$LWDISPLAY
290
0
9
$PDMODE
70
0
9
$PDSIZE
40
0
9
$PLINEGEN
70
0
0
ENDSEC
0
SECTION
2
CLASSES
0
CLASS
1
RASTERVARIABLES
2
AcDbRasterVariables
3
ISM
90
0
280
0
281
0
0
ENDSEC
0
SECTION
2
TABLES
0
TABLE
2
VPORT
5
12f
100
AcDbSymbolTable
0
VPORT
5
1
100
AcDbSymbolTableRecord
100
AcDbViewportTableRecord
2
*Active
70
0
10
0
20
0
11
1
21
1
12
-1
22
1
13
0
23
0
14
0.5
24
0.5
15
10
25
10
16
0
26
0
36
1
17
0
27
0
37
0
0
ENDTAB
0
TABLE
2
LTYPE
5
130
100
AcDbSymbolTable
0
LTYPE
5
14
100
AcDbSymbolTableRecord
100
AcDbLinetypeTableRecord
70
0
2
ByBlock
3

72
65
73
0
40
0
0
LTYPE
5
15
100
AcDbSymbolTableRecord
100
AcDbLinetypeTableRecord
70
0
2
ByLayer
3

72
65
73
0
40
0
0
LTYPE
5
16
100
AcDbSymbolTableRecord
100
AcDbLinetypeTableRecord
70
0
2
CONTINUOUS
3
Solid line
72
65
73
0
40
0
0
LTYPE
5
3B
100
AcDbSymbolTableRecord
100
AcDbLinetypeTableRecord
70
0
2
DASHED
3
__ __ __ __ __ __ __ __ __
72
65
73
2
40
25.72
49
12.86
74
0
49
-12.86
74
0
0
LTYPE
5
3C
100
AcDbSymbolTableRecord
100
AcDbLinetypeTableRecord
70
0
2
HIDDEN
3
_ _ _ _ _ _ _ _ _ _ _ _ _ _ _
72
65
73
2
40
0.5
49
0.25
74
0
49
-0.25
74
0
0
LTYPE
5
3D
100
AcDbSymbolTableRecord
100
AcDbLinetypeTableRecord
70
0
2
PHANTOM
3
____ _ _ ____ _ _ _____ _ _ ____
72
65
73
6
40
50.5
49
18
74
0
49
-6.5
74
0
49
6.5
74
0
49
-6.5
74
0
49
6.5
74
0
49
-6.5
74
0
0
LTYPE
5
3E
100
AcDbSymbolTableRecord
100
AcDbLinetypeTableRecord
70
0
2
CENTER
3
____ _ ____ _ ____ _ ____
72
65
73
4
40
47.5
49
22
74
0
49
-8.5
74
0
49
8.5
74
0
49
-8.5
74
0
0
LTYPE
5
3F
100
AcDbSymbolTableRecord
100
AcDbLinetypeTableRecord
70
0
2
DOT
3
.........................
72
65
73
2
40
10
49
0
74
0
49
-10
74
0
0
LTYPE
5
40
100
AcDbSymbolTableRecord
100
AcDbLinetypeTableRecord
70
0
2
DASHDOT
3
_._._._._._._._._._._._._._._._.
72
65
73
4
40
70
49
31
74
0
49
-13
74
0
49
13
74
0
49
-13
74
0
0
ENDTAB
0
TABLE
2
LAYER
5
131
100
AcDbSymbolTable
0
LAYER
5
10
100
AcDbSymbolTableRecord
100
AcDbLayerTableRecord
2
0
70
0
62
7
6
CONTINUOUS
290
1
370
-3
390
0
0
LAYER
5
42
100
AcDbSymbolTableRecord
100
AcDbLayerTableRecord
2
80
70
0
62
-6
6
CONTINUOUS
290
1
370
-3
390
0
0
LAYER
5
46
100
AcDbSymbolTableRecord
100
AcDbLayerTableRecord
2
2
70
0
62
7
6
CONTINUOUS
290
1
370
-3
390
0
0
LAYER
5
49
100
AcDbSymbolTableRecord
100
AcDbLayerTableRecord
2
81
70
0
62
-3
6
CONTINUOUS
290
1
370
-3
390
0
0
LAYER
5
4F
100
AcDbSymbolTableRecord
100
AcDbLayerTableRecord
2
1
70
0
62
4
6
CONTINUOUS
290
1
370
-3
390
0
0
LAYER
5
11c
100
AcDbSymbolTableRecord
100
AcDbLayerTableRecord
2
SK2
70
0
62
7
6
CONTINUOUS
290
1
370
-3
390
0
0
LAYER
5
11d
100
AcDbSymbolTableRecord
100
AcDbLayerTableRecord
2
SK1
70
0
62
4
6
CONTINUOUS
290
1
370
-3
390
0
0
LAYER
5
11e
100
AcDbSymbolTableRecord
100
AcDbLayerTableRecord
2
SK6
70
0
62
5
6
CONTINUOUS
290
1
370
-3
390
0
0
ENDTAB
0
TABLE
2
STYLE
5
132
100
AcDbSymbolTable
0
STYLE
5
11
100
AcDbSymbolTableRecord
100
AcDbTextStyleTableRecord
2
Standard
3
txt
70
0
71
0
40
0
41
1
42
0
50
0
0
STYLE
5
99
100
AcDbSymbolTableRecord
100
AcDbTextStyleTableRecord
2
DEFAULT
3
simplex.shx
70
0
71
0
40
0
41
1
42
0
50
0
0
STYLE
5
BC
100
AcDbSymbolTableRecord
100
AcDbTextStyleTableRecord
2
DWGDirectTextStyle
3
SIMPLEX
70
0
71
0
40
0
41
1
42
0
50
0
0
ENDTAB
0
TABLE
2
DIMSTYLE
5
133
100
AcDbSymbolTable
100
AcDbDimStyleTable
0
DIMSTYLE
105
27
100
AcDbSymbolTableRecord
100
AcDbDimStyleTableRecord
2
Standard
70
0
3
<>
41
0.18
42
0.0625
44
0.18
140
0.18
147
0.09
73
0
74
0
77
1
271
2
275
0
278
52
280
0
340
11
0
ENDTAB
0
TABLE
2
VIEW
5
134
100
AcDbSymbolTable
0
ENDTAB
0
TABLE
2
UCS
5
135
100
AcDbSymbolTable
0
ENDTAB
0
TABLE
2
APPID
5
136
100
AcDbSymbolTable
0
APPID
5
12
100
AcDbSymbolTableRecord
100
AcDbRegAppTableRecord
2
ACAD
70
0
0
ENDTAB
0
TABLE
2
BLOCK_RECORD
5
137
100
AcDbSymbolTable
0
BLOCK_RECORD
5
1F
100
AcDbSymbolTableRecord
100
AcDbBlockTableRecord
2
*Model_Space
340
0
70
0
0
BLOCK_RECORD
5
1B
100
AcDbSymbolTableRecord
100
AcDbBlockTableRecord
2
*Paper_Space
340
0
70
0
0
BLOCK_RECORD
5
23
100
AcDbSymbolTableRecord
100
AcDbBlockTableRecord
2
*Paper_Space0
340
0
70
0
0
BLOCK_RECORD
5
BE
100
AcDbSymbolTableRecord
100
AcDbBlockTableRecord
2
DimnDraft3D11
340
0
70
0
0
BLOCK_RECORD
5
CC
100
AcDbSymbolTableRecord
100
AcDbBlockTableRecord
2
DimnDraft3D2
340
0
70
0
0
BLOCK_RECORD
5
DA
100
AcDbSymbolTableRecord
100
AcDbBlockTableRecord
2
_CLOSED
340
0
70
0
0
BLOCK_RECORD
5
E1
100
AcDbSymbolTableRecord
100
AcDbBlockTableRecord
2
DimnDraft3D3
340
0
70
0
0
BLOCK_RECORD
5
EF
100
AcDbSymbolTableRecord
100
AcDbBlockTableRecord
2
DimnDraft3D4
340
0
70
0
0
ENDTAB
0
ENDSEC
0
SECTION
2
BLOCKS
0
BLOCK
5
20
100
AcDbEntity
8
0
100
AcDbBlockBegin
2
*Model_Space
70
0
10
0
20
0
30
0
3
*Model_Space
0
ENDBLK
5
21
100
AcDbEntity
8
0
100
AcDbBlockEnd
0
BLOCK
5
1C
100
AcDbEntity
8
0
100
AcDbBlockBegin
2
*Paper_Space
70
0
10
0
20
0
30
0
3
*Paper_Space
0
ENDBLK
5
1D
100
AcDbEntity
8
0
100
AcDbBlockEnd
0
BLOCK
5
24
100
AcDbEntity
8
0
100
AcDbBlockBegin
2
*Paper_Space0
70
0
10
0
20
0
30
0
3
*Paper_Space0
0
ENDBLK
5
25
100
AcDbEntity
8
0
100
AcDbBlockEnd
0
BLOCK
5
BF
100
AcDbEntity
8
0
100
AcDbBlockBegin
2
DimnDraft3D11
70
0
10
0
20
0
30
0
3
DimnDraft3D11
0
LINE
5
C1
100
AcDbEntity
8
SK2
62
256
6
ByLayer
370
-1
48
1
60
0
100
AcDbLine
10
16.840919
20
-14.4125
30
0
11
16.840919
21
-38.6625
31
0
39
0
210
0
220
0
230
1
0
LINE
5
C2
100
AcDbEntity
8
SK2
62
256
6
ByLayer
370
-1
48
1
60
0
100
AcDbLine
10
-84.509081
20
-9.9375
30
0
11
-84.509081
21
-38.6625
31
0
39
0
210
0
220
0
230
1
0
LINE
5
C3
100
AcDbEntity
8
SK2
62
256
6
ByLayer
370
-1
48
1
60
0
100
AcDbLine
10
16.840919
20
-36.6625
30
0
11
-84.509081
21
-36.6625
31
0
39
0
210
0
220
0
230
1
0
LINE
5
C4
100
AcDbEntity
8
SK2
62
256
6
ByLayer
370
-1
48
1
60
0
100
AcDbLine
10
16.840919
20
-36.6625
30
0
11
13.665921
21
-37.080497
31
0
39
0
210
0
220
0
230
1
0
LINE
5
C5
100
AcDbEntity
8
SK2
62
256
6
ByLayer
370
-1
48
1
60
0
100
AcDbLine
10
16.840919
20
-36.6625
30
0
11
13.665918
21
-36.244503
31
0
39
0
210
0
220
0
230
1
0
LINE
5
C6
100
AcDbEntity
8
SK2
62
256
6
ByLayer
370
-1
48
1
60
0
100
AcDbLine
10
13.665921
20
-37.080497
30
0
11
13.665918
21
-36.244503
31
0
39
0
210
0
220
0
230
1
0
LINE
5
C7
100
AcDbEntity
8
SK2
62
256
6
ByLayer
370
-1
48
1
60
0
100
AcDbLine
10
-84.509081
20
-36.6625
30
0
11
-81.334082
21
-36.244503
31
0
39
0
210
0
220
0
230
1
0
LINE
5
C8
100
AcDbEntity
8
SK2
62
256
6
ByLayer
370
-1
48
1
60
0
100
AcDbLine
10
-84.509081
20
-36.6625
30
0
11
-81.334079
21
-37.080497
31
0
39
0
210
0
220
0
230
1
0
LINE
5
C9
100
AcDbEntity
8
SK2
62
256
6
ByLayer
370
-1
48
1
60
0
100
AcDbLine
10
-81.334082
20
-36.244503
30
0
11
-81.334079
21
-37.080497
31
0
39
0
210
0
220
0
230
1
0
MTEXT
5
CA
100
AcDbEntity
8
SK2
62
256
6
ByLayer
370
-1
48
1
60
0
100
AcDbMText
10
-36.427502
20
-35.5375
30
0
210
0
220
0
230
1
1
\W00.604;\fsimplex.shx,bigfont.shx;100 
40
4.5
41
0
44
1.084337
50
0
71
7
72
5
7
DEFAULT
0
ENDBLK
5
C0
100
AcDbEntity
8
0
100
AcDbBlockEnd
0
BLOCK
5
D7
100
AcDbEntity
8
0
100
AcDbBlockBegin
2
DimnDraft3D2
70
0
10
0
20
0
30
0
3
DimnDraft3D2
0
MTEXT
5
CD
100
AcDbEntity
8
2
62
256
6
ByLayer
370
-1
48
1
60
0
100
AcDbMText
10
-1.665858
20
-22.327873
30
0
210
0
220
0
230
1
1
\W01.000;\fsimplex.shx,bigfont.shx;95%%d0' 
40
4.5
41
0
44
1.084337
50
312.5
71
7
72
5
7
DEFAULT
0
LINE
5
CE
100
AcDbEntity
8
2
62
256
6
ByLayer
370
-1
48
1
60
0
100
AcDbLine
10
16.840919
20
-14.4125
30
0
11
16.840919
21
-35.904368
31
0
39
0
210
0
220
0
230
1
0
LINE
5
CF
100
AcDbEntity
8
2
62
256
6
ByLayer
370
-1
48
1
60
0
100
AcDbLine
10
12.989405
20
-12.148012
30
0
11
-6.489355
21
-10.443842
31
0
39
0
210
0
220
0
230
1
0
ARC
5
D0
100
AcDbEntity
8
2
62
256
6
ByLayer
370
-1
48
1
60
0
100
AcDbCircle
39
0
10
16.840919
20
-12.484976
30
0
40
21.4193920064233
210
0
220
0
230
1
100
AcDbArc
50
175
51
270
0
LINE
5
D1
100
AcDbEntity
8
2
62
256
6
ByLayer
370
-1
48
1
60
0
100
AcDbLine
10
16.840919
20
-33.904368
30
0
11
13.652634
21
-34.204663
31
0
39
0
210
0
220
0
230
1
0
LINE
5
D2
100
AcDbEntity
8
2
62
256
6
ByLayer
370
-1
48
1
60
0
100
AcDbLine
10
16.840919
20
-33.904368
30
0
11
13.683548
21
-33.369241
31
0
39
0
210
0
220
0
230
1
0
LINE
5
D3
100
AcDbEntity
8
2
62
256
6
ByLayer
370
-1
48
1
60
0
100
AcDbLine
10
13.652634
20
-34.204663
30
0
11
13.683548
21
-33.369241
31
0
39
0
210
0
220
0
230
1
0
LINE
5
D4
100
AcDbEntity
8
2
62
256
6
ByLayer
370
-1
48
1
60
0
100
AcDbLine
10
-4.496966
20
-10.618153
30
0
11
-4.239058
21
-13.810146
31
0
39
0
210
0
220
0
230
1
0
LINE
5
D5
100
AcDbEntity
8
2
62
256
6
ByLayer
370
-1
48
1
60
0
100
AcDbLine
10
-4.496966
20
-10.618153
30
0
11
-5.073995
21
-13.768136
31
0
39
0
210
0
220
0
230
1
0
LINE
5
D6
100
AcDbEntity
8
2
62
256
6
ByLayer
370
-1
48
1
60
0
100
AcDbLine
10
-4.239058
20
-13.810146
30
0
11
-5.073995
21
-13.768136
31
0
39
0
210
0
220
0
230
1
0
ENDBLK
5
D8
100
AcDbEntity
8
0
100
AcDbBlockEnd
0
BLOCK
5
DB
100
AcDbEntity
8
0
100
AcDbBlockBegin
2
_CLOSED
70
0
10
0
20
0
30
0
3
_CLOSED
0
LINE
5
DD
100
AcDbEntity
8
0
62
256
6
ByLayer
370
-2
48
1
60
0
100
AcDbLine
10
-1
20
0.166667
30
0
11
0
21
0
31
0
39
0
210
0
220
0
230
1
0
LINE
5
DE
100
AcDbEntity
8
0
62
256
6
ByLayer
370
-2
48
1
60
0
100
AcDbLine
10
0
20
0
30
0
11
-1
21
-0.166667
31
0
39
0
210
0
220
0
230
1
0
LINE
5
DF
100
AcDbEntity
8
0
62
256
6
ByLayer
370
-2
48
1
60
0
100
AcDbLine
10
-1
20
0.166667
30
0
11
-1
21
-0.166667
31
0
39
0
210
0
220
0
230
1
0
LINE
5
E0
100
AcDbEntity
8
0
62
256
6
ByLayer
370
-2
48
1
60
0
100
AcDbLine
10
0
20
0
30
0
11
-1
21
0
31
0
39
0
210
0
220
0
230
1
0
ENDBLK
5
DC
100
AcDbEntity
8
0
100
AcDbBlockEnd
0
BLOCK
5
EC
100
AcDbEntity
8
0
100
AcDbBlockBegin
2
DimnDraft3D3
70
0
10
0
20
0
30
0
3
DimnDraft3D3
0
MTEXT
5
E2
100
AcDbEntity
8
2
62
256
6
ByLayer
370
-1
48
1
60
0
100
AcDbMText
10
42.965919
20
-3.741447
30
0
210
0
220
0
230
1
1
\W01.000;\fsimplex.shx,bigfont.shx;20 
40
4.5
41
0
44
1.084337
50
90
71
7
72
5
7
DEFAULT
0
LINE
5
E3
100
AcDbEntity
8
2
62
256
6
ByLayer
370
-1
48
1
60
0
100
AcDbLine
10
2
20
7.9375
30
0
11
46.090919
21
7.9375
31
0
39
0
210
0
220
0
230
1
0
LINE
5
E4
100
AcDbEntity
8
2
62
256
6
ByLayer
370
-1
48
1
60
0
100
AcDbLine
10
18.840919
20
-12.4125
30
0
11
46.090919
21
-12.4125
31
0
39
0
210
0
220
0
230
1
0
LINE
5
E5
100
AcDbEntity
8
2
62
256
6
ByLayer
370
-1
48
1
60
0
100
AcDbLine
10
44.090919
20
7.9375
30
0
11
44.090919
21
-12.4125
31
0
39
0
210
0
220
0
230
1
0
LINE
5
E6
100
AcDbEntity
8
2
62
256
6
ByLayer
370
-1
48
1
60
0
100
AcDbLine
10
44.090919
20
7.9375
30
0
11
44.508916
21
4.762502
31
0
39
0
210
0
220
0
230
1
0
LINE
5
E7
100
AcDbEntity
8
2
62
256
6
ByLayer
370
-1
48
1
60
0
100
AcDbLine
10
44.090919
20
7.9375
30
0
11
43.672922
21
4.762498
31
0
39
0
210
0
220
0
230
1
0
LINE
5
E8
100
AcDbEntity
8
2
62
256
6
ByLayer
370
-1
48
1
60
0
100
AcDbLine
10
44.508916
20
4.762502
30
0
11
43.672922
21
4.762498
31
0
39
0
210
0
220
0
230
1
0
LINE
5
E9
100
AcDbEntity
8
2
62
256
6
ByLayer
370
-1
48
1
60
0
100
AcDbLine
10
44.090919
20
-12.4125
30
0
11
43.672922
21
-9.237502
31
0
39
0
210
0
220
0
230
1
0
LINE
5
EA
100
AcDbEntity
8
2
62
256
6
ByLayer
370
-1
48
1
60
0
100
AcDbLine
10
44.090919
20
-12.4125
30
0
11
44.508916
21
-9.237498
31
0
39
0
210
0
220
0
230
1
0
LINE
5
EB
100
AcDbEntity
8
2
62
256
6
ByLayer
370
-1
48
1
60
0
100
AcDbLine
10
43.672922
20
-9.237502
30
0
11
44.508916
21
-9.237498
31
0
39
0
210
0
220
0
230
1
0
ENDBLK
5
ED
100
AcDbEntity
8
0
100
AcDbBlockEnd
0
BLOCK
5
FA
100
AcDbEntity
8
0
100
AcDbBlockBegin
2
DimnDraft3D4
70
0
10
0
20
0
30
0
3
DimnDraft3D4
0
MTEXT
5
F0
100
AcDbEntity
8
SK2
62
256
6
ByLayer
370
-1
48
1
60
0
100
AcDbMText
10
-95.384081
20
-0.941447
30
0
210
0
220
0
230
1
1
\W01.000;\fsimplex.shx,bigfont.shx;16 
40
4.5
41
0
44
1.084337
50
90
71
7
72
5
7
DEFAULT
0
LINE
5
F1
100
AcDbEntity
8
SK2
62
256
6
ByLayer
370
-1
48
1
60
0
100
AcDbLine
10
-86.509081
20
7.9375
30
0
11
-96.259081
21
7.9375
31
0
39
0
210
0
220
0
230
1
0
LINE
5
F2
100
AcDbEntity
8
SK2
62
256
6
ByLayer
370
-1
48
1
60
0
100
AcDbLine
10
-86.509081
20
-7.9375
30
0
11
-96.259081
21
-7.9375
31
0
39
0
210
0
220
0
230
1
0
LINE
5
F3
100
AcDbEntity
8
SK2
62
256
6
ByLayer
370
-1
48
1
60
0
100
AcDbLine
10
-94.259081
20
7.9375
30
0
11
-94.259081
21
-7.9375
31
0
39
0
210
0
220
0
230
1
0
LINE
5
F4
100
AcDbEntity
8
SK2
62
256
6
ByLayer
370
-1
48
1
60
0
100
AcDbLine
10
-94.259081
20
7.9375
30
0
11
-93.841084
21
4.762502
31
0
39
0
210
0
220
0
230
1
0
LINE
5
F5
100
AcDbEntity
8
SK2
62
256
6
ByLayer
370
-1
48
1
60
0
100
AcDbLine
10
-94.259081
20
7.9375
30
0
11
-94.677078
21
4.762498
31
0
39
0
210
0
220
0
230
1
0
LINE
5
F6
100
AcDbEntity
8
SK2
62
256
6
ByLayer
370
-1
48
1
60
0
100
AcDbLine
10
-93.841084
20
4.762502
30
0
11
-94.677078
21
4.762498
31
0
39
0
210
0
220
0
230
1
0
LINE
5
F7
100
AcDbEntity
8
SK2
62
256
6
ByLayer
370
-1
48
1
60
0
100
AcDbLine
10
-94.259081
20
-7.9375
30
0
11
-94.677078
21
-4.762502
31
0
39
0
210
0
220
0
230
1
0
LINE
5
F8
100
AcDbEntity
8
SK2
62
256
6
ByLayer
370
-1
48
1
60
0
100
AcDbLine
10
-94.259081
20
-7.9375
30
0
11
-93.841084
21
-4.762498
31
0
39
0
210
0
220
0
230
1
0
LINE
5
F9
100
AcDbEntity
8
SK2
62
256
6
ByLayer
370
-1
48
1
60
0
100
AcDbLine
10
-94.677078
20
-4.762502
30
0
11
-93.841084
21
-4.762498
31
0
39
0
210
0
220
0
230
1
0
ENDBLK
5
FB
100
AcDbEntity
8
0
100
AcDbBlockEnd
0
ENDSEC
0
SECTION
2
ENTITIES
0
ARC
5
66
100
AcDbEntity
8
1
62
256
6
ByLayer
370
-1
48
1
60
0
100
AcDbCircle
39
0
10
-8.313163
20
-2.946621
30
0
40
1.5
210
0
220
0
230
-1
100
AcDbArc
50
78.410996
51
95.25
0
ARC
5
67
100
AcDbEntity
8
1
62
256
6
ByLayer
370
-1
48
1
60
0
100
AcDbCircle
39
0
10
7.085101
20
-2.656681
30
0
40
1.5
210
0
220
0
230
1
100
AcDbArc
50
17.928369
51
51.843001
0
ARC
5
68
100
AcDbEntity
8
1
62
256
6
ByLayer
370
-1
48
1
60
0
100
AcDbCircle
39
0
10
-8.53517
20
-2.967021
30
0
40
1.73488901006696
210
0
220
0
230
-1
100
AcDbArc
50
95.25
51
158.755586
0
ARC
5
69
100
AcDbEntity
8
1
62
256
6
ByLayer
370
-1
48
1
60
0
100
AcDbCircle
39
0
10
-7.085101
20
-2.656681
30
0
40
1.5
210
0
220
0
230
-1
100
AcDbArc
50
287.930539
51
115.986173
0
ARC
5
6A
100
AcDbEntity
8
1
62
256
6
ByLayer
370
-1
48
1
60
0
100
AcDbCircle
39
0
10
-8.53517
20
-2.967021
30
0
40
1.5
210
0
220
0
230
-1
100
AcDbArc
50
95.25
51
154.239596
0
ARC
5
6B
100
AcDbEntity
8
1
62
256
6
ByLayer
370
-1
48
1
60
0
100
AcDbCircle
39
0
10
-8.313163
20
-2.946621
30
0
40
1.73488901006696
210
0
220
0
230
-1
100
AcDbArc
50
70.790067
51
95.25
0
ARC
5
6C
100
AcDbEntity
8
1
62
256
6
ByLayer
370
-1
48
1
60
0
100
AcDbCircle
39
0
10
11.681295
20
-7.252875
30
0
40
1.67649999999999
210
0
220
0
230
1
100
AcDbArc
50
194.840113
51
255.159887
0
ARC
5
6D
100
AcDbEntity
8
1
62
256
6
ByLayer
370
-1
48
1
60
0
100
AcDbCircle
39
0
10
11.681295
20
-7.252875
30
0
40
1.67649999999999
210
0
220
0
230
1
100
AcDbArc
50
315
51
14.840113
0
ARC
5
6E
100
AcDbEntity
8
1
62
256
6
ByLayer
370
-1
48
1
60
0
100
AcDbCircle
39
0
10
-11.681295
20
-7.252875
30
0
40
1.2065
210
0
220
0
230
-1
100
AcDbArc
50
138.955279
51
195.079943
0
ARC
5
6F
100
AcDbEntity
8
1
62
256
6
ByLayer
370
-1
48
1
60
0
100
AcDbCircle
39
0
10
-11.681295
20
-7.252875
30
0
40
1.2065
210
0
220
0
230
-1
100
AcDbArc
50
74.920057
51
131.044721
0
ARC
5
70
100
AcDbEntity
8
1
62
256
6
ByLayer
370
-1
48
1
60
0
100
AcDbCircle
39
0
10
-11.681295
20
-7.252875
30
0
40
1.2065
210
0
220
0
230
-1
100
AcDbArc
50
195.079943
51
254.920057
0
ARC
5
72
100
AcDbEntity
8
1
62
256
6
ByLayer
370
-1
48
1
60
0
100
AcDbCircle
39
0
10
11.681295
20
-7.252875
30
0
40
1.67649999999999
210
0
220
0
230
1
100
AcDbArc
50
75.159887
51
135
0
ARC
5
73
100
AcDbEntity
8
1
62
256
6
ByLayer
370
-1
48
1
60
0
100
AcDbCircle
39
0
10
11.681295
20
-7.252875
30
0
40
1.67649999999999
210
0
220
0
230
1
100
AcDbArc
50
135
51
194.840113
0
ARC
5
74
100
AcDbEntity
8
1
62
256
6
ByLayer
370
-1
48
1
60
0
100
AcDbCircle
39
0
10
-11.681295
20
-7.252875
30
0
40
1.2065
210
0
220
0
230
-1
100
AcDbArc
50
15.079943
51
74.920057
0
ARC
5
76
100
AcDbEntity
8
1
62
256
6
ByLayer
370
-1
48
1
60
0
100
AcDbCircle
39
0
10
-11.681295
20
-7.252875
30
0
40
1.2065
210
0
220
0
230
-1
100
AcDbArc
50
318.955279
51
15.079943
0
ARC
5
78
100
AcDbEntity
8
1
62
256
6
ByLayer
370
-1
48
1
60
0
100
AcDbCircle
39
0
10
7.315695
20
-2.887276
30
0
40
0.794000000000005
210
0
220
0
230
1
100
AcDbArc
50
85
51
185
0
ARC
5
79
100
AcDbEntity
8
1
62
256
6
ByLayer
370
-1
48
1
60
0
100
AcDbCircle
39
0
10
8.018122
20
-10.916048
30
0
40
0.794000000000028
210
0
220
0
230
1
100
AcDbArc
50
185
51
265
0
ARC
5
7B
100
AcDbEntity
8
1
62
256
6
ByLayer
370
-1
48
1
60
0
100
AcDbCircle
39
0
10
11.681295
20
-7.252875
30
0
40
1.67649999999999
210
0
220
0
230
1
100
AcDbArc
50
255.159887
51
315
0
ARC
5
7C
100
AcDbEntity
8
1
62
256
6
ByLayer
370
-1
48
1
60
0
100
AcDbCircle
39
0
10
16.046894
20
-11.618475
30
0
40
0.794000000000014
210
0
220
0
230
1
100
AcDbArc
50
265
51
5
0
ARC
5
7D
100
AcDbEntity
8
1
62
256
6
ByLayer
370
-1
48
1
60
0
100
AcDbCircle
39
0
10
11.681295
20
-7.252875
30
0
40
1.67649999999999
210
0
220
0
230
1
100
AcDbArc
50
14.840113
51
75.159887
0
ARC
5
7E
100
AcDbEntity
8
1
62
256
6
ByLayer
370
-1
48
1
60
0
100
AcDbCircle
39
0
10
15.344468
20
-3.589703
30
0
40
0.794000000000014
210
0
220
0
230
1
100
AcDbArc
50
5
51
85
0
ARC
5
7F
100
AcDbEntity
8
1
62
256
6
ByLayer
370
-1
48
1
60
0
100
AcDbCircle
39
0
10
-11.681295
20
-7.252875
30
0
40
1.2065
210
0
220
0
230
-1
100
AcDbArc
50
254.920057
51
311.044721
0
ARC
5
80
100
AcDbEntity
8
1
62
256
6
ByLayer
370
-1
48
1
60
0
100
AcDbCircle
39
0
10
11.681295
20
-7.252875
30
0
40
1.2065
210
0
220
0
230
1
100
AcDbArc
50
41.044721
51
48.955279
0
ARC
5
81
100
AcDbEntity
8
1
62
256
6
ByLayer
370
-1
48
1
60
0
100
AcDbCircle
39
0
10
11.681295
20
-7.252875
30
0
40
1.2065
210
0
220
0
230
1
100
AcDbArc
50
221.044721
51
228.955279
0
CIRCLE
5
71
100
AcDbEntity
8
1
62
256
6
ByLayer
370
-1
48
1
60
0
100
AcDbCircle
10
11.681295
20
-7.252875
30
0
40
3.00605207334202
39
0
210
0
220
0
230
1
0
CIRCLE
5
75
100
AcDbEntity
8
1
62
256
6
ByLayer
370
-1
48
1
60
0
100
AcDbCircle
10
-11.681295
20
-7.252875
30
0
40
2.95049568210611
39
0
210
0
220
0
230
-1
0
CIRCLE
5
77
100
AcDbEntity
8
1
62
256
6
ByLayer
370
-1
48
1
60
0
100
AcDbCircle
10
11.681295
20
-7.252875
30
0
40
2.625
39
0
210
0
220
0
230
1
0
CIRCLE
5
7A
100
AcDbEntity
8
1
62
256
6
ByLayer
370
-1
48
1
60
0
100
AcDbCircle
10
11.681295
20
-7.252875
30
0
40
1.8
39
0
210
0
220
0
230
1
0
CIRCLE
5
82
100
AcDbEntity
8
1
62
256
6
ByLayer
370
-1
48
1
60
0
100
AcDbCircle
10
11.681295
20
-7.252875
30
0
40
3.07132534818238
39
0
210
0
220
0
230
1
0
POINT
5
41
100
AcDbEntity
8
80
62
256
6
ByLayer
370
-1
48
1
60
0
100
AcDbPoint
10
0
20
0
30
0
39
0
210
0
220
0
230
1
50
360
0
POINT
5
43
100
AcDbEntity
8
SK2
62
256
6
ByLayer
370
-1
48
1
60
0
100
AcDbPoint
10
16.840919
20
28.2875
30
0
39
0
210
0
220
0
230
1
50
360
0
POINT
5
45
100
AcDbEntity
8
2
62
256
6
ByLayer
370
-1
48
1
60
0
100
AcDbPoint
10
16.840919
20
28.2875
30
0
39
0
210
0
220
0
230
1
50
360
0
POINT
5
47
100
AcDbEntity
8
SK2
62
256
6
ByLayer
370
-1
48
1
60
0
100
AcDbPoint
10
16.840919
20
28.2875
30
0
39
0
210
0
220
0
230
1
50
360
0
POINT
5
48
100
AcDbEntity
8
81
62
256
6
ByLayer
370
-1
48
1
60
0
100
AcDbPoint
10
16.840919
20
-12.4125
30
0
39
0
210
0
220
0
230
1
50
360
0
POINT
5
4A
100
AcDbEntity
8
SK2
62
256
6
ByLayer
370
-1
48
1
60
0
100
AcDbPoint
10
16.840919
20
28.2875
30
0
39
0
210
0
220
0
230
1
50
360
0
POINT
5
4B
100
AcDbEntity
8
SK2
62
256
6
ByLayer
370
-1
48
1
60
0
100
AcDbPoint
10
16.840919
20
28.2875
30
0
39
0
210
0
220
0
230
1
50
360
0
SPLINE
5
83
100
AcDbEntity
8
1
62
256
6
ByLayer
370
-1
48
1
60
0
100
AcDbSpline
70
4
71
3
72
8
73
4
40
0
40
0
40
0
40
0
40
1
40
1
40
1
40
1
41
1
10
8.01182819567254
20
-1.47720021974555
30
0
41
1
10
7.93110197232829
20
-1.41377299247282
30
0
41
1
10
7.84143474169042
20
-1.35663778008066
30
0
41
1
10
7.74233191433274
20
-1.30833170296893
30
0
0
SPLINE
5
84
100
AcDbEntity
8
1
62
256
6
ByLayer
370
-1
48
1
60
0
100
AcDbSpline
70
4
71
3
72
12
73
8
40
0
40
0
40
0
40
0
40
0.422118813951777
40
0.422118813951777
40
0.8432139787725
40
0.8432139787725
40
1
40
1
40
1
40
1
41
1
10
10.8890489393534
20
-8.16281450307426
30
0
41
1
10
10.9309126497541
20
-8.2163359124722
30
0
41
1
10
10.9644267807327
20
-8.27614454313047
30
0
41
1
10
11.0114550034702
20
-8.39686244573849
30
0
41
1
10
11.0258300251602
20
-8.4593776913199
30
0
41
1
10
11.0338281049998
20
-8.54370596146057
30
0
41
1
10
11.0348316455656
20
-8.56667991186427
30
0
41
1
10
11.0346979485079
20
-8.58948250687152
30
0
0
SPLINE
5
85
100
AcDbEntity
8
1
62
256
6
ByLayer
370
-1
48
1
60
0
100
AcDbSpline
70
4
71
3
72
14
73
10
40
0
40
0
40
0
40
0
40
0.283903408666438
40
0.283903408666438
40
0.57023417554231
40
0.57023417554231
40
0.82940595879696
40
0.82940595879696
40
1
40
1
40
1
40
1
41
1
10
10.4490176693287
20
-6.41917681420188
30
0
41
1
10
10.4323393568517
20
-6.39010123348714
30
0
41
1
10
10.420267918253
20
-6.35716477498016
30
0
41
1
10
10.4085534201559
20
-6.28819219529814
30
0
41
1
10
10.4088977414733
20
-6.25105326458791
30
0
41
1
10
10.4229672697282
20
-6.18256853445965
30
0
41
1
10
10.4356918292697
20
-6.14998552498508
30
0
41
1
10
10.4654620782902
20
-6.10160754697702
30
0
41
1
10
10.4797536074835
20
-6.08348748915856
30
0
41
1
10
10.495830121194
20
-6.06741097544813
30
0
0
SPLINE
5
86
100
AcDbEntity
8
1
62
256
6
ByLayer
370
-1
48
1
60
0
100
AcDbSpline
70
4
71
3
72
16
73
12
40
0
40
0
40
0
40
0
40
0.0621039197212143
40
0.0621039197212143
40
0.282872737560697
40
0.282872737560697
40
0.506396836331529
40
0.506396836331529
40
0.744229103370218
40
0.744229103370218
40
1
40
1
40
1
40
1
41
1
10
12.110684143202
20
-5.63229630615825
30
0
41
1
10
12.1187922522757
20
-5.63444463494969
30
0
41
1
10
12.126816731469
20
-5.63694570575609
30
0
41
1
10
12.1625514209054
20
-5.64979561293401
30
0
41
1
10
12.1891013861774
20
-5.66427454311417
30
0
41
1
10
12.2358410935503
20
-5.69971322074053
30
0
41
1
10
12.2565565613363
20
-5.72118379599482
30
0
41
1
10
12.2909850909544
20
-5.76922229322673
30
0
41
1
10
12.3046221701587
20
-5.79661149065814
30
0
41
1
10
12.3233944277537
20
-5.85452429031676
30
0
41
1
10
12.3280698652911
20
-5.88581874163415
30
0
41
1
10
12.3278913311985
20
-5.91626848134325
30
0
0
SPLINE
5
87
100
AcDbEntity
8
1
62
256
6
ByLayer
370
-1
48
1
60
0
100
AcDbSpline
70
4
71
3
72
16
73
12
40
0
40
0
40
0
40
0
40
0.0621039197211407
40
0.0621039197211407
40
0.28287273756065
40
0.28287273756065
40
0.506396836331451
40
0.506396836331451
40
0.744229103370102
40
0.744229103370102
40
1
40
1
40
1
40
1
41
1
10
11.2519051365044
20
-8.87345468205652
30
0
41
1
10
11.2437970274307
20
-8.87130635326508
30
0
41
1
10
11.2357725482374
20
-8.86880528245868
30
0
41
1
10
11.2000378588011
20
-8.85595537528076
30
0
41
1
10
11.173487893529
20
-8.8414764451006
30
0
41
1
10
11.1267481861561
20
-8.80603776747427
30
0
41
1
10
11.1060327183702
20
-8.78456719221998
30
0
41
1
10
11.071604188752
20
-8.73652869498807
30
0
41
1
10
11.0579671095477
20
-8.70913949755666
30
0
41
1
10
11.0391948519527
20
-8.65122669789801
30
0
41
1
10
11.0345194144153
20
-8.61993224658065
30
0
41
1
10
11.0346979485079
20
-8.58948250687152
30
0
0
SPLINE
5
88
100
AcDbEntity
8
1
62
256
6
ByLayer
370
-1
48
1
60
0
100
AcDbSpline
70
4
71
3
72
18
73
14
40
0
40
0
40
0
40
0
40
0.212474276129483
40
0.212474276129483
40
0.386603898215961
40
0.386603898215961
40
0.56241522775464
40
0.56241522775464
40
0.715377877558413
40
0.715377877558413
40
0.918235557790067
40
0.918235557790067
40
1
40
1
40
1
40
1
41
1
10
12.9135716103777
20
-8.0865741740129
30
0
41
1
10
12.8782602894426
20
-8.02501535843092
30
0
41
1
10
12.8514572691674
20
-7.95581469857089
30
0
41
1
10
12.8241877903163
20
-7.82218441106821
30
0
41
1
10
12.819691478079
20
-7.75760751802355
30
0
41
1
10
12.8295538403328
20
-7.62821969352296
30
0
41
1
10
12.844430406897
20
-7.56150942095547
30
0
41
1
10
12.8884365682272
20
-7.44646158988175
30
0
41
1
10
12.9159053623608
20
-7.39546001702138
30
0
41
1
10
12.9899405852543
20
-7.29035564447986
30
0
41
1
10
13.0408969132253
20
-7.2387022750849
30
0
41
1
10
13.1184181687113
20
-7.18032951445878
30
0
41
1
10
13.1417107511601
20
-7.16495395951938
30
0
41
1
10
13.1656167856274
20
-7.15115141374596
30
0
0
SPLINE
5
89
100
AcDbEntity
8
1
62
256
6
ByLayer
370
-1
48
1
60
0
100
AcDbSpline
70
4
71
3
72
14
73
10
40
0
40
0
40
0
40
0
40
0.283482543589375
40
0.283482543589375
40
0.569866164960681
40
0.569866164960681
40
0.82908036666568
40
0.82908036666568
40
1
40
1
40
1
40
1
41
1
10
11.5795705594918
20
-8.7371976398816
30
0
41
1
10
11.5628352380476
20
-8.76618324716267
30
0
41
1
10
11.5404647149786
20
-8.79313087712549
30
0
41
1
10
11.4867768582367
20
-8.83790949332871
30
0
41
1
10
11.4544979331913
20
-8.85628996575716
30
0
41
1
10
11.388218064334
20
-8.87856808679865
30
0
41
1
10
11.3536509070041
20
-8.8839533419565
30
0
41
1
10
11.2968170074022
20
-8.88254309857641
30
0
41
1
10
11.2739241857923
20
-8.87928886079226
30
0
41
1
10
11.2519051365044
20
-8.87345468205652
30
0
0
SPLINE
5
8A
100
AcDbEntity
8
1
62
256
6
ByLayer
370
-1
48
1
60
0
100
AcDbSpline
70
4
71
3
72
16
73
12
40
0
40
0
40
0
40
0
40
0.0570946626180775
40
0.0570946626180775
40
0.280051745717058
40
0.280051745717058
40
0.505470715177363
40
0.505470715177363
40
0.745074291066702
40
0.745074291066702
40
1
40
1
40
1
40
1
41
1
10
13.3018738278023
20
-6.82348599075854
30
0
41
1
10
13.3038314456427
20
-6.83087432863195
30
0
41
1
10
13.3055001661668
20
-6.83834665953628
30
0
41
1
10
13.3121861856096
20
-6.8749902461665
30
0
41
1
10
13.3129835838162
20
-6.905247933319
30
0
41
1
10
13.3057665776433
20
-6.96347624355266
30
0
41
1
10
13.2975860908459
20
-6.99216244973624
30
0
41
1
10
13.2733146967229
20
-7.04601010733842
30
0
41
1
10
13.2564834286276
20
-7.07152369426422
30
0
41
1
10
13.2160783682085
20
-7.11653479032537
30
0
41
1
10
13.1916870406335
20
-7.13609931932444
30
0
41
1
10
13.1656167856274
20
-7.15115141374596
30
0
0
SPLINE
5
8B
100
AcDbEntity
8
1
62
256
6
ByLayer
370
-1
48
1
60
0
100
AcDbSpline
70
4
71
3
72
12
73
8
40
0
40
0
40
0
40
0
40
0.495924969245355
40
0.495924969245355
40
0.900362445266876
40
0.900362445266876
40
1
40
1
40
1
40
1
41
1
10
10.3446876270891
20
-7.89947218545271
30
0
41
1
10
10.4160308440818
20
-7.89905388314111
30
0
41
1
10
10.4898246473026
20
-7.90992135541816
30
0
41
1
10
10.6198605144614
20
-7.95233133094558
30
0
41
1
10
10.6782406475229
20
-7.98031850900682
30
0
41
1
10
10.7453448178737
20
-8.02551580941616
30
0
41
1
10
10.7585144390282
20
-8.0350769909287
30
0
41
1
10
10.7713556308863
20
-8.04512119460716
30
0
0
SPLINE
5
8C
100
AcDbEntity
8
1
62
256
6
ByLayer
370
-1
48
1
60
0
100
AcDbSpline
70
4
71
3
72
16
73
12
40
0
40
0
40
0
40
0
40
0.0570946626180849
40
0.0570946626180849
40
0.280051745717034
40
0.280051745717034
40
0.505470715177327
40
0.505470715177327
40
0.745074291066649
40
0.745074291066649
40
1
40
1
40
1
40
1
41
1
10
10.0607154519041
20
-7.68226499745623
30
0
41
1
10
10.0587578340637
20
-7.67487665958282
30
0
41
1
10
10.0570891135396
20
-7.66740432867849
30
0
41
1
10
10.0504030940969
20
-7.63076074204827
30
0
41
1
10
10.0496056958902
20
-7.60050305489577
30
0
41
1
10
10.0568227020632
20
-7.54227474466211
30
0
41
1
10
10.0650031888606
20
-7.51358853847856
30
0
41
1
10
10.0892745829835
20
-7.45974088087635
30
0
41
1
10
10.1061058510789
20
-7.43422729395056
30
0
41
1
10
10.1465109114979
20
-7.3892161978894
30
0
41
1
10
10.1709022390729
20
-7.36965166889033
30
0
41
1
10
10.196972494079
20
-7.35459957446881
30
0
0
SPLINE
5
8D
100
AcDbEntity
8
1
62
256
6
ByLayer
370
-1
48
1
60
0
100
AcDbSpline
70
4
71
3
72
14
73
10
40
0
40
0
40
0
40
0
40
0.283482543589486
40
0.283482543589486
40
0.569866164960758
40
0.569866164960758
40
0.829080366665748
40
0.829080366665748
40
1
40
1
40
1
40
1
41
1
10
11.7830187202146
20
-5.76855334833317
30
0
41
1
10
11.7997540416588
20
-5.73956774105207
30
0
41
1
10
11.8221245647278
20
-5.71262011108925
30
0
41
1
10
11.8758124214698
20
-5.66784149488606
30
0
41
1
10
11.9080913465151
20
-5.64946102245761
30
0
41
1
10
11.9743712153725
20
-5.62718290141612
30
0
41
1
10
12.0089383727024
20
-5.62179764625827
30
0
41
1
10
12.0657722723042
20
-5.62320788963839
30
0
41
1
10
12.0886650939142
20
-5.62646212742251
30
0
41
1
10
12.110684143202
20
-5.63229630615825
30
0
0
SPLINE
5
8E
100
AcDbEntity
8
1
62
256
6
ByLayer
370
-1
48
1
60
0
100
AcDbSpline
70
4
71
3
72
18
73
14
40
0
40
0
40
0
40
0
40
0.212474032872484
40
0.212474032872484
40
0.386603697879179
40
0.386603697879179
40
0.562415073202725
40
0.562415073202725
40
0.715377731647732
40
0.715377731647732
40
0.918235368779514
40
0.918235368779514
40
1
40
1
40
1
40
1
41
1
10
11.5795705594918
20
-8.7371976398816
30
0
41
1
10
11.6150549900643
20
-8.67573854137567
30
0
41
1
10
11.6614214330324
20
-8.6177965652727
30
0
41
1
10
11.7632610722638
20
-8.52708083386221
30
0
41
1
10
11.8168369646482
20
-8.4907487937065
30
0
41
1
10
11.933664141547
20
-8.43426965614984
30
0
41
1
10
11.998817845146
20
-8.41361608456791
30
0
41
1
10
12.1204006395284
20
-8.39386322846784
30
0
41
1
10
12.1782986968735
20
-8.39198952649056
30
0
41
1
10
12.3063711333546
20
-8.40319634507131
30
0
41
1
10
12.3766332226185
20
-8.4213031146557
30
0
41
1
10
12.4660517563232
20
-8.45900272749356
30
0
41
1
10
12.4910484697816
20
-8.47141723801499
30
0
41
1
10
12.5149933197587
20
-8.48515246463188
30
0
0
SPLINE
5
8F
100
AcDbEntity
8
1
62
256
6
ByLayer
370
-1
48
1
60
0
100
AcDbSpline
70
4
71
3
72
16
73
12
40
0
40
0
40
0
40
0
40
0.0629997311900894
40
0.0629997311900894
40
0.285872777163794
40
0.285872777163794
40
0.511544652680515
40
0.511544652680515
40
0.751675359283845
40
0.751675359283845
40
1
40
1
40
1
40
1
41
1
10
12.8667591585124
20
-8.43834001276662
30
0
41
1
10
12.8607995870307
20
-8.44429958424831
30
0
41
1
10
12.8545744758329
20
-8.45000725144337
30
0
41
1
10
12.8254703300201
20
-8.47446166389889
30
0
41
1
10
12.7996071548237
20
-8.49013169952624
30
0
41
1
10
12.7454750282226
20
-8.51271716752504
30
0
41
1
10
12.7165000787311
20
-8.51982953668104
30
0
41
1
10
12.6576630226847
20
-8.52543854420287
30
0
41
1
10
12.6271292425361
20
-8.52345605169768
30
0
41
1
10
12.568786531109
20
-8.5108162299326
30
0
41
1
10
12.5404432307542
20
-8.49975102320442
30
0
41
1
10
12.5149933197587
20
-8.48515246463188
30
0
0
SPLINE
5
90
100
AcDbEntity
8
1
62
256
6
ByLayer
370
-1
48
1
60
0
100
AcDbSpline
70
4
71
3
72
14
73
10
40
0
40
0
40
0
40
0
40
0.283903408666391
40
0.283903408666391
40
0.570234175542258
40
0.570234175542258
40
0.829405958796938
40
0.829405958796938
40
1
40
1
40
1
40
1
41
1
10
12.9135716103777
20
-8.0865741740129
30
0
41
1
10
12.9302499228547
20
-8.1156497547276
30
0
41
1
10
12.9423213614534
20
-8.14858621323458
30
0
41
1
10
12.9540358595505
20
-8.21755879291661
30
0
41
1
10
12.9536915382331
20
-8.25469772362683
30
0
41
1
10
12.9396220099782
20
-8.32318245375509
30
0
41
1
10
12.9268974504367
20
-8.35576546322966
30
0
41
1
10
12.8971272014163
20
-8.40414344123772
30
0
41
1
10
12.8828356722229
20
-8.42226349905619
30
0
41
1
10
12.8667591585124
20
-8.43834001276662
30
0
0
SPLINE
5
91
100
AcDbEntity
8
1
62
256
6
ByLayer
370
-1
48
1
60
0
100
AcDbSpline
70
4
71
3
72
14
73
10
40
0
40
0
40
0
40
0
40
0.282377988047944
40
0.282377988047944
40
0.567084253766321
40
0.567084253766321
40
0.824684854618493
40
0.824684854618493
40
1
40
1
40
1
40
1
41
1
10
10.3446876270891
20
-7.89947218545271
30
0
41
1
10
10.3110714665514
20
-7.89966928502648
30
0
41
1
10
10.2763679639499
20
-7.89392156241959
30
0
41
1
10
10.2104271093147
20
-7.87002545377047
30
0
41
1
10
10.1782194468913
20
-7.85134570958957
30
0
41
1
10
10.1255027887853
20
-7.80516168644735
30
0
41
1
10
10.1034150038317
20
-7.77792199838853
30
0
41
1
10
10.0756648362292
20
-7.72730085324741
30
0
41
1
10
10.0667547191955
20
-7.70505808114041
30
0
41
1
10
10.0607154519041
20
-7.68226499745623
30
0
0
SPLINE
5
92
100
AcDbEntity
8
1
62
256
6
ByLayer
370
-1
48
1
60
0
100
AcDbSpline
70
4
71
3
72
12
73
8
40
0
40
0
40
0
40
0
40
0.422118814263779
40
0.422118814263779
40
0.843213979141165
40
0.843213979141165
40
1
40
1
40
1
40
1
41
1
10
12.4735403403531
20
-6.3429364851406
30
0
41
1
10
12.4316766299215
20
-6.28941507570315
30
0
41
1
10
12.3981624989245
20
-6.22960644499568
30
0
41
1
10
12.3511342761941
20
-6.10888854233028
30
0
41
1
10
12.3367592545169
20
-6.04637329674
30
0
41
1
10
12.328761174702
20
-5.96204502664628
30
0
41
1
10
12.3277576341411
20
-5.93907107629698
30
0
41
1
10
12.3278913311985
20
-5.91626848134325
30
0
0
SPLINE
5
93
100
AcDbEntity
8
1
62
256
6
ByLayer
370
-1
48
1
60
0
100
AcDbSpline
70
4
71
3
72
12
73
8
40
0
40
0
40
0
40
0
40
0.495924969245278
40
0.495924969245278
40
0.90036244524097
40
0.90036244524097
40
1
40
1
40
1
40
1
41
1
10
13.0179016526174
20
-6.60627880276206
30
0
41
1
10
12.9465584356246
20
-6.60669710507364
30
0
41
1
10
12.8727646324038
20
-6.59582963279661
30
0
41
1
10
12.7427287652487
20
-6.55341965727035
30
0
41
1
10
12.6843486321909
20
-6.52543247921147
30
0
41
1
10
12.6172444618393
20
-6.48023517880338
30
0
41
1
10
12.6040748406815
20
-6.47067399728851
30
0
41
1
10
12.59123364882
20
-6.46062979360752
30
0
0
SPLINE
5
94
100
AcDbEntity
8
1
62
256
6
ByLayer
370
-1
48
1
60
0
100
AcDbSpline
70
4
71
3
72
18
73
14
40
0
40
0
40
0
40
0
40
0.212474276129479
40
0.212474276129479
40
0.386603898215963
40
0.386603898215963
40
0.562415227754655
40
0.562415227754655
40
0.715377877558436
40
0.715377877558436
40
0.918235557790093
40
0.918235557790093
40
1
40
1
40
1
40
1
41
1
10
10.4490176693287
20
-6.4191768142019
30
0
41
1
10
10.4843289902638
20
-6.48073562978388
30
0
41
1
10
10.511132010539
20
-6.54993628964388
30
0
41
1
10
10.5384014893901
20
-6.68356657714656
30
0
41
1
10
10.5428978016275
20
-6.7481434701912
30
0
41
1
10
10.5330354393736
20
-6.87753129469178
30
0
41
1
10
10.5181588728094
20
-6.94424156725927
30
0
41
1
10
10.4741527114792
20
-7.05928939833302
30
0
41
1
10
10.4466839173456
20
-7.11029097119339
30
0
41
1
10
10.3726486944521
20
-7.21539534373491
30
0
41
1
10
10.3216923664811
20
-7.26704871312984
30
0
41
1
10
10.2441711109951
20
-7.32542147375599
30
0
41
1
10
10.2208785285463
20
-7.34079702869536
30
0
41
1
10
10.196972494079
20
-7.35459957446881
30
0
0
SPLINE
5
95
100
AcDbEntity
8
1
62
256
6
ByLayer
370
-1
48
1
60
0
100
AcDbSpline
70
4
71
3
72
16
73
12
40
0
40
0
40
0
40
0
40
0.0629997311900991
40
0.0629997311900991
40
0.285872777163775
40
0.285872777163775
40
0.511544652680473
40
0.511544652680473
40
0.751675359283817
40
0.751675359283817
40
1
40
1
40
1
40
1
41
1
10
10.495830121194
20
-6.06741097544813
30
0
41
1
10
10.5017896926757
20
-6.06145140396643
30
0
41
1
10
10.5080148038736
20
-6.05574373677138
30
0
41
1
10
10.5371189496864
20
-6.03128932431585
30
0
41
1
10
10.5629821248827
20
-6.0156192886885
30
0
41
1
10
10.6171142514838
20
-5.9930338206897
30
0
41
1
10
10.6460892009753
20
-5.9859214515337
30
0
41
1
10
10.7049262570217
20
-5.98031244401187
30
0
41
1
10
10.7354600371704
20
-5.98229493651706
30
0
41
1
10
10.7938027485975
20
-5.99493475828214
30
0
41
1
10
10.8221460489523
20
-6.00599996501032
30
0
41
1
10
10.8475959599477
20
-6.02059852358289
30
0
0
SPLINE
5
96
100
AcDbEntity
8
1
62
256
6
ByLayer
370
-1
48
1
60
0
100
AcDbSpline
70
4
71
3
72
14
73
10
40
0
40
0
40
0
40
0
40
0.282377988047941
40
0.282377988047941
40
0.567084253766314
40
0.567084253766314
40
0.824684854618483
40
0.824684854618483
40
1
40
1
40
1
40
1
41
1
10
13.0179016526174
20
-6.60627880276206
30
0
41
1
10
13.051517813155
20
-6.60608170318829
30
0
41
1
10
13.0862213157565
20
-6.61182942579518
30
0
41
1
10
13.1521621703918
20
-6.6357255344443
30
0
41
1
10
13.1843698328152
20
-6.65440527862521
30
0
41
1
10
13.2370864909211
20
-6.70058930176739
30
0
41
1
10
13.2591742758747
20
-6.72782898982624
30
0
41
1
10
13.2869244434772
20
-6.77845013496736
30
0
41
1
10
13.2958345605109
20
-6.80069290707436
30
0
41
1
10
13.3018738278023
20
-6.82348599075854
30
0
0
SPLINE
5
97
100
AcDbEntity
8
1
62
256
6
ByLayer
370
-1
48
1
60
0
100
AcDbSpline
70
4
71
3
72
18
73
14
40
0
40
0
40
0
40
0
40
0.212474032872474
40
0.212474032872474
40
0.386603697879174
40
0.386603697879174
40
0.562415073202711
40
0.562415073202711
40
0.715377731647732
40
0.715377731647732
40
0.918235368779514
40
0.918235368779514
40
1
40
1
40
1
40
1
41
1
10
11.7830187202146
20
-5.76855334833317
30
0
41
1
10
11.7475342896421
20
-5.83001244683911
30
0
41
1
10
11.701167846674
20
-5.88795442294204
30
0
41
1
10
11.5993282074426
20
-5.97867015435256
30
0
41
1
10
11.5457523150582
20
-6.01500219450827
30
0
41
1
10
11.4289251381595
20
-6.07148133206496
30
0
41
1
10
11.3637714345605
20
-6.09213490364686
30
0
41
1
10
11.2421886401781
20
-6.11188775974696
30
0
41
1
10
11.1842905828329
20
-6.11376146172421
30
0
41
1
10
11.0562181463519
20
-6.10255464314346
30
0
41
1
10
10.985956057088
20
-6.08444787355907
30
0
41
1
10
10.8965375233832
20
-6.04674826072124
30
0
41
1
10
10.8715408099249
20
-6.03433375019981
30
0
41
1
10
10.8475959599477
20
-6.02059852358292
30
0
0
INSERT
5
CB
100
AcDbEntity
8
SK2
62
256
6
ByLayer
370
-1
48
1
60
0
100
AcDbBlockReference
2
DimnDraft3D11
10
0
20
0
30
0
41
1
42
1
43
1
50
0
210
0
220
0
230
1
0
LINE
5
4C
100
AcDbEntity
8
81
62
256
6
ByLayer
370
-1
48
1
60
0
100
AcDbLine
10
16.840919
20
-12.4125
30
0
11
26.840919
21
-12.4125
31
0
39
0
210
0
220
0
230
1
0
LINE
5
4D
100
AcDbEntity
8
80
62
256
6
ByLayer
370
-1
48
1
60
0
100
AcDbLine
10
0
20
0
30
0
11
-5
21
0
31
0
39
0
210
0
220
0
230
1
0
LINE
5
4E
100
AcDbEntity
8
1
62
256
6
ByLayer
370
-1
48
1
60
0
100
AcDbLine
10
8.471908
20
-1.21901
30
0
11
8.450415
21
-1.452914
31
0
39
0
210
0
220
0
230
1
0
LINE
5
50
100
AcDbEntity
8
1
62
256
6
ByLayer
370
-1
48
1
60
0
100
AcDbLine
10
7.19909
20
-10.665211
30
0
11
3.394886
21
-10.332386
31
0
39
0
210
0
220
0
230
1
0
LINE
5
51
100
AcDbEntity
8
1
62
256
6
ByLayer
370
-1
48
1
60
0
100
AcDbLine
10
8.693915
20
-1.23941
30
0
11
8.471908
21
-1.21901
31
0
39
0
210
0
220
0
230
1
0
LINE
5
52
100
AcDbEntity
8
1
62
256
6
ByLayer
370
-1
48
1
60
0
100
AcDbLine
10
0
20
7.936296
30
0
11
5.001972
21
7.936296
31
0
39
0
210
0
220
0
230
1
0
LINE
5
53
100
AcDbEntity
8
1
62
256
6
ByLayer
370
-1
48
1
60
0
100
AcDbLine
10
5.001972
20
7.936296
30
0
11
14.673649
21
2.029728
31
0
39
0
210
0
220
0
230
1
0
LINE
5
54
100
AcDbEntity
8
1
62
256
6
ByLayer
370
-1
48
1
60
0
100
AcDbLine
10
8.693915
20
-1.23941
30
0
11
8.672423
21
-1.473313
31
0
39
0
210
0
220
0
230
1
0
LINE
5
55
100
AcDbEntity
8
1
62
256
6
ByLayer
370
-1
48
1
60
0
100
AcDbLine
10
8.672423
20
-1.473313
30
0
11
8.450415
21
-1.452914
31
0
39
0
210
0
220
0
230
1
0
LINE
5
56
100
AcDbEntity
8
1
62
256
6
ByLayer
370
-1
48
1
60
0
100
AcDbLine
10
14.673649
20
2.029728
30
0
11
15.093633
21
-2.77071
31
0
39
0
210
0
220
0
230
1
0
LINE
5
57
100
AcDbEntity
8
1
62
256
6
ByLayer
370
-1
48
1
60
0
100
AcDbLine
10
3.394886
20
-10.332386
30
0
11
1
21
-7.9375
31
0
39
0
210
0
220
0
230
1
0
LINE
5
58
100
AcDbEntity
8
1
62
256
6
ByLayer
370
-1
48
1
60
0
100
AcDbLine
10
1
20
-7.9375
30
0
11
0
21
-7.9375
31
0
39
0
210
0
220
0
230
1
0
LINE
5
59
100
AcDbEntity
8
1
62
256
6
ByLayer
370
-1
48
1
60
0
100
AcDbLine
10
0
20
7.936296
30
0
11
0
21
-7.9375
31
0
39
0
210
0
220
0
230
1
0
LINE
5
5A
100
AcDbEntity
8
1
62
256
6
ByLayer
370
-1
48
1
60
0
100
AcDbLine
10
15.977692
20
-12.409454
30
0
11
7.94892
21
-11.707027
31
0
39
0
210
0
220
0
230
1
0
LINE
5
5B
100
AcDbEntity
8
SK1
62
256
6
ByLayer
370
-1
48
1
60
0
100
AcDbLine
10
-84.509081
20
-7.9375
30
0
11
-84.509081
21
7.9375
31
0
39
0
210
0
220
0
230
1
0
LINE
5
5D
100
AcDbEntity
8
SK1
62
256
6
ByLayer
370
-1
48
1
60
0
100
AcDbLine
10
-0.15
20
-7.9375
30
0
11
-84.509081
21
-7.9375
31
0
39
0
210
0
220
0
230
1
0
LINE
5
5E
100
AcDbEntity
8
SK1
62
256
6
ByLayer
370
-1
48
1
60
0
100
AcDbLine
10
0
20
-7.9375
30
0
11
0
21
7.936296
31
0
39
0
210
0
220
0
230
1
0
LINE
5
5F
100
AcDbEntity
8
SK1
62
256
6
ByLayer
370
-1
48
1
60
0
100
AcDbLine
10
-0.15
20
-7.9375
30
0
11
-0.15
21
7.9375
31
0
39
0
210
0
220
0
230
1
0
LINE
5
60
100
AcDbEntity
8
SK1
62
256
6
ByLayer
370
-1
48
1
60
0
100
AcDbLine
10
-0.15
20
7.93695
30
0
11
0
21
7.936296
31
0
39
0
210
0
220
0
230
1
0
LINE
5
61
100
AcDbEntity
8
1
62
256
6
ByLayer
370
-1
48
1
60
0
100
AcDbLine
10
7.384897
20
-2.096297
30
0
11
15.413669
21
-2.798724
31
0
39
0
210
0
220
0
230
1
0
LINE
5
62
100
AcDbEntity
8
1
62
256
6
ByLayer
370
-1
48
1
60
0
100
AcDbLine
10
7.227143
20
-10.98525
30
0
11
6.524717
21
-2.956478
31
0
39
0
210
0
220
0
230
1
0
LINE
5
63
100
AcDbEntity
8
1
62
256
6
ByLayer
370
-1
48
1
60
0
100
AcDbLine
10
16.135446
20
-3.520501
30
0
11
16.837873
21
-11.549273
31
0
39
0
210
0
220
0
230
1
0
LINE
5
64
100
AcDbEntity
8
SK1
62
256
6
ByLayer
370
-1
48
1
60
0
100
AcDbLine
10
0
20
-7.9375
30
0
11
-0.15
21
-7.9375
31
0
39
0
210
0
220
0
230
1
0
LINE
5
65
100
AcDbEntity
8
SK1
62
256
6
ByLayer
370
-1
48
1
60
0
100
AcDbLine
10
-84.509081
20
7.9375
30
0
11
-0.15
21
7.9375
31
0
39
0
210
0
220
0
230
1
0
MTEXT
5
98
100
AcDbEntity
8
SK6
62
256
6
ByLayer
370
-1
48
1
60
0
100
AcDbMText
10
-48.683661
20
18.395841
30
0
210
0
220
0
230
1
1
\W00.715;\fsimplex.shx,bigfont.shx;SCLCL 1616H 09 
40
3.5
41
0
44
1.084337
50
0
71
7
72
5
7
DEFAULT
0
DIMENSION
5
D9
100
AcDbEntity
8
2
62
256
6
ByLayer
370
-3
48
1
60
0
100
AcDbDimension
2
DimnDraft3D2
10
-6.489355
20
-10.443842
30
0
11
-1.59646
21
-20.738397
31
0
70
34
71
5
72
1
41
1
210
0
220
0
230
1
3
Standard
100
AcDb2LineAngularDimension
13
16.840919
23
-14.4125
33
0
14
16.840919
24
-35.904368
34
0
15
12.989405
25
-12.148012
35
0
16
4.366635
26
-23.915552
36
0
40
0
0
DIMENSION
5
EE
100
AcDbEntity
8
2
62
256
6
ByLayer
370
-3
48
1
60
0
100
AcDbDimension
2
DimnDraft3D3
10
44.090919
20
-12.4125
30
0
11
44.090919
21
-4.866447
31
0
70
32
71
5
72
1
41
1
210
0
220
0
230
1
3
Standard
100
AcDbAlignedDimension
13
2
23
7.9375
33
0
14
18.840919
24
-12.4125
34
0
50
90
100
AcDbRotatedDimension
1001
ACAD
1000
DSTYLE
1002
{
1070
    74
1070
     0
1070
   279
1070
     0
1070
   172
1070
     1
1070
   173
1070
     1
1070
   340
1005
99
1070
    77
1070
     1
1070
    73
1070
     0
1070
   171
1070
     3
1070
   274
1070
     4
1070
   177
1070
     2
1070
   176
1070
     2
1070
   178
1070
     7
1070
    78
1070
     8
1070
    41
1041
3.175
1070
   147
1041
2.25
1070
    42
1041
2.0
1070
    44
1041
2.0
1070
   140
1041
4.5
1070
   343
1005
DA
1070
   344
1005
DA
1002
}
0
DIMENSION
5
FC
100
AcDbEntity
8
SK2
62
256
6
ByLayer
370
-3
48
1
60
0
100
AcDbDimension
2
DimnDraft3D4
10
-94.259081
20
-7.9375
30
0
11
-94.259081
21
-2.066447
31
0
70
32
71
5
72
1
41
1
210
0
220
0
230
1
3
Standard
100
AcDbAlignedDimension
13
-86.509081
23
7.9375
33
0
14
-86.509081
24
-7.9375
34
0
50
90
100
AcDbRotatedDimension
1001
ACAD
1000
DSTYLE
1002
{
1070
    74
1070
     0
1070
   279
1070
     0
1070
   172
1070
     1
1070
   173
1070
     1
1070
   340
1005
99
1070
    77
1070
     1
1070
    73
1070
     0
1070
   171
1070
     3
1070
   274
1070
     4
1070
   177
1070
     2
1070
   176
1070
     2
1070
   178
1070
     7
1070
    78
1070
     8
1070
    41
1041
3.175
1070
   147
1041
2.25
1070
    42
1041
2.0
1070
    44
1041
2.0
1070
   140
1041
4.5
1070
   343
1005
DA
1070
   344
1005
DA
1002
}
0
ENDSEC
0
SECTION
2
OBJECTS
0
DICTIONARY
5
12c
330
0
100
AcDbDictionary
280
0
281
1
3
ACAD_GROUP
350
12d
3
ACAD_MLINESTYLE
350
12e
0
DICTIONARY
5
12d
330
0
100
AcDbDictionary
280
0
281
1
0
DICTIONARY
5
12e
330
0
100
AcDbDictionary
280
0
281
1
3
Standard
350
18
0
MLINESTYLE
5
18
330
12e
100
AcDbMlineStyle
2
Standard
70
0
3

62
256
51
90
52
90
71
2
49
-0.5
62
256
6
ByLayer
49
0.5
62
256
6
ByLayer
0
RASTERVARIABLES
5
11b
330

100
AcDbRasterVariables
90
0
70
1
71
1
72
1
0
ENDSEC
0
EOF
