0
SECTION
2
HEADER
9
$ACADVER
1
AC1015
9
$DWGCODEPAGE
3
ANSI_1252
9
$HANDSEED
5
1cf
9
$ANGBASE
50
0
9
$ANGDIR
70
0
9
$ATTMODE
70
1
9
$AUNITS
70
0
9
$AUPREC
70
0
9
$CECOLOR
62
256
9
$CELTSCALE
40
1
9
$CELTYPE
6
ByLayer
9
$CELWEIGHT
370
18
9
$CLAYER
8
0
9
$CMLJUST
70
0
9
$CMLSCALE
40
1
9
$CMLSTYLE
2
Standard
9
$DIMSTYLE
2
Standard
9
$TEXTSIZE
40
0.2
9
$TEXTSTYLE
7
Standard
9
$LUNITS
70
2
9
$LUPREC
70
4
9
$EXTNAMES
290
1
9
$INSUNITS
70
4
9
$LTSCALE
40
1
9
$LWDISPLAY
290
1
9
$PDMODE
70
0
9
$PDSIZE
40
0
9
$PLINEGEN
70
0
0
ENDSEC
0
SECTION
2
CLASSES
0
CLASS
1
RASTERVARIABLES
2
AcDbRasterVariables
3
ISM
90
0
280
0
281
0
0
ENDSEC
0
SECTION
2
TABLES
0
TABLE
2
VPORT
5
1c5
100
AcDbSymbolTable
0
VPORT
5
1
100
AcDbSymbolTableRecord
100
AcDbViewportTableRecord
2
*Active
70
0
10
0
20
0
11
1
21
1
12
-1
22
1
13
0
23
0
14
0.5
24
0.5
15
10
25
10
16
0
26
0
36
1
17
0
27
0
37
0
0
ENDTAB
0
TABLE
2
LTYPE
5
1c6
100
AcDbSymbolTable
0
LTYPE
5
14
100
AcDbSymbolTableRecord
100
AcDbLinetypeTableRecord
70
0
2
ByBlock
3

72
65
73
0
40
0
0
LTYPE
5
15
100
AcDbSymbolTableRecord
100
AcDbLinetypeTableRecord
70
0
2
ByLayer
3

72
65
73
0
40
0
0
LTYPE
5
16
100
AcDbSymbolTableRecord
100
AcDbLinetypeTableRecord
70
0
2
CONTINUOUS
3
Solid line
72
65
73
0
40
0
0
LTYPE
5
6A
100
AcDbSymbolTableRecord
100
AcDbLinetypeTableRecord
70
0
2
CENTER
3
____ _ ____ _ ____ _ ____
72
65
73
4
40
47.5
49
22
74
0
49
-8.5
74
0
49
8.5
74
0
49
-8.5
74
0
0
LTYPE
5
6B
100
AcDbSymbolTableRecord
100
AcDbLinetypeTableRecord
70
0
2
DASHED
3
__ __ __ __ __ __ __ __ __
72
65
73
2
40
25.72
49
12.86
74
0
49
-12.86
74
0
0
ENDTAB
0
TABLE
2
LAYER
5
1c7
100
AcDbSymbolTable
0
LAYER
5
10
100
AcDbSymbolTableRecord
100
AcDbLayerTableRecord
2
0
70
0
62
7
6
CONTINUOUS
290
1
370
-3
390
0
0
LAYER
5
6D
100
AcDbSymbolTableRecord
100
AcDbLayerTableRecord
2
80
70
0
62
-6
6
CONTINUOUS
290
1
370
-3
390
0
0
LAYER
5
6F
100
AcDbSymbolTableRecord
100
AcDbLayerTableRecord
2
81
70
0
62
-3
6
CONTINUOUS
290
1
370
-3
390
0
0
LAYER
5
71
100
AcDbSymbolTableRecord
100
AcDbLayerTableRecord
2
1
70
0
62
4
6
CONTINUOUS
290
1
370
-3
390
0
0
LAYER
5
14D
100
AcDbSymbolTableRecord
100
AcDbLayerTableRecord
2
2
70
0
62
7
6
CONTINUOUS
290
1
370
-3
390
0
0
LAYER
5
1b3
100
AcDbSymbolTableRecord
100
AcDbLayerTableRecord
2
SK6
70
0
62
5
6
CONTINUOUS
290
1
370
-3
390
0
0
LAYER
5
1b4
100
AcDbSymbolTableRecord
100
AcDbLayerTableRecord
2
SK2
70
0
62
7
6
CONTINUOUS
290
1
370
-3
390
0
0
ENDTAB
0
TABLE
2
STYLE
5
1c8
100
AcDbSymbolTable
0
STYLE
5
11
100
AcDbSymbolTableRecord
100
AcDbTextStyleTableRecord
2
Standard
3
txt
70
0
71
0
40
0
41
1
42
0
50
0
0
STYLE
5
109
100
AcDbSymbolTableRecord
100
AcDbTextStyleTableRecord
2
iso_b_vert
3
simplex.shx
70
0
71
0
40
0
41
1
42
0
50
0
0
STYLE
5
10A
100
AcDbSymbolTableRecord
100
AcDbTextStyleTableRecord
2
DWGDirectTextStyle
3
simplex
70
0
71
0
40
0
41
1
42
0
50
0
0
ENDTAB
0
TABLE
2
DIMSTYLE
5
1c9
100
AcDbSymbolTable
100
AcDbDimStyleTable
0
DIMSTYLE
105
27
100
AcDbSymbolTableRecord
100
AcDbDimStyleTableRecord
2
Standard
70
0
3
<>
41
0.18
42
0.0625
44
0.18
140
0.18
147
0.09
73
0
74
0
77
1
271
2
275
0
278
52
280
0
340
11
0
ENDTAB
0
TABLE
2
VIEW
5
1ca
100
AcDbSymbolTable
0
ENDTAB
0
TABLE
2
UCS
5
1cb
100
AcDbSymbolTable
0
ENDTAB
0
TABLE
2
APPID
5
1cc
100
AcDbSymbolTable
0
APPID
5
12
100
AcDbSymbolTableRecord
100
AcDbRegAppTableRecord
2
ACAD
70
0
0
ENDTAB
0
TABLE
2
BLOCK_RECORD
5
1cd
100
AcDbSymbolTable
0
BLOCK_RECORD
5
1F
100
AcDbSymbolTableRecord
100
AcDbBlockTableRecord
2
*Model_Space
340
0
70
0
0
BLOCK_RECORD
5
1B
100
AcDbSymbolTableRecord
100
AcDbBlockTableRecord
2
*Paper_Space
340
0
70
0
0
BLOCK_RECORD
5
23
100
AcDbSymbolTableRecord
100
AcDbBlockTableRecord
2
*Paper_Space0
340
0
70
0
0
BLOCK_RECORD
5
10C
100
AcDbSymbolTableRecord
100
AcDbBlockTableRecord
2
DimnDraft3D1
340
0
70
0
0
BLOCK_RECORD
5
11B
100
AcDbSymbolTableRecord
100
AcDbBlockTableRecord
2
_CLOSED
340
0
70
0
0
BLOCK_RECORD
5
122
100
AcDbSymbolTableRecord
100
AcDbBlockTableRecord
2
DimnDraft3D2
340
0
70
0
0
BLOCK_RECORD
5
130
100
AcDbSymbolTableRecord
100
AcDbBlockTableRecord
2
DimnDraft3D3
340
0
70
0
0
BLOCK_RECORD
5
13D
100
AcDbSymbolTableRecord
100
AcDbBlockTableRecord
2
DimnDraft3D4
340
0
70
0
0
BLOCK_RECORD
5
14B
100
AcDbSymbolTableRecord
100
AcDbBlockTableRecord
2
DimnDraft3D5
340
0
70
0
0
ENDTAB
0
ENDSEC
0
SECTION
2
BLOCKS
0
BLOCK
5
20
100
AcDbEntity
8
0
100
AcDbBlockBegin
2
*Model_Space
70
0
10
0
20
0
30
0
3
*Model_Space
0
ENDBLK
5
21
100
AcDbEntity
8
0
100
AcDbBlockEnd
0
BLOCK
5
1C
100
AcDbEntity
8
0
100
AcDbBlockBegin
2
*Paper_Space
70
0
10
0
20
0
30
0
3
*Paper_Space
0
ENDBLK
5
1D
100
AcDbEntity
8
0
100
AcDbBlockEnd
0
BLOCK
5
24
100
AcDbEntity
8
0
100
AcDbBlockBegin
2
*Paper_Space0
70
0
10
0
20
0
30
0
3
*Paper_Space0
0
ENDBLK
5
25
100
AcDbEntity
8
0
100
AcDbBlockEnd
0
BLOCK
5
118
100
AcDbEntity
8
0
100
AcDbBlockBegin
2
DimnDraft3D1
70
0
10
0
20
0
30
0
3
DimnDraft3D1
0
MTEXT
5
10D
100
AcDbEntity
8
SK2
62
256
6
ByLayer
370
18
48
1
60
0
100
AcDbMText
10
-8.500434
20
-2.593104
30
0
210
0
220
0
230
1
1
\W0.5144;15
40
3
41
0
44
1.084337
50
90
71
7
72
5
7
iso_b_vert
0
LINE
5
10F
100
AcDbEntity
8
SK2
62
256
6
ByLayer
370
13
48
1
60
0
100
AcDbLine
10
6
20
6
30
0
11
-9.750433
21
6
31
0
39
0
210
0
220
0
230
1
0
LINE
5
110
100
AcDbEntity
8
SK2
62
256
6
ByLayer
370
13
48
1
60
0
100
AcDbLine
10
6
20
-8.75
30
0
11
-9.750433
21
-8.75
31
0
39
0
210
0
220
0
230
1
0
LINE
5
111
100
AcDbEntity
8
SK2
62
256
6
ByLayer
370
13
48
1
60
0
100
AcDbLine
10
-7.750434
20
6
30
0
11
-7.750434
21
-8.75
31
0
39
0
210
0
220
0
230
1
0
LINE
5
112
100
AcDbEntity
8
SK2
62
256
6
ByLayer
370
13
48
1
60
0
100
AcDbLine
10
-7.750434
20
6
30
0
11
-7.332437
21
2.825002
31
0
39
0
210
0
220
0
230
1
0
LINE
5
113
100
AcDbEntity
8
SK2
62
256
6
ByLayer
370
13
48
1
60
0
100
AcDbLine
10
-7.750434
20
6
30
0
11
-8.16843
21
2.824998
31
0
39
0
210
0
220
0
230
1
0
LINE
5
114
100
AcDbEntity
8
SK2
62
256
6
ByLayer
370
13
48
1
60
0
100
AcDbLine
10
-7.332437
20
2.825002
30
0
11
-8.16843
21
2.824998
31
0
39
0
210
0
220
0
230
1
0
LINE
5
115
100
AcDbEntity
8
SK2
62
256
6
ByLayer
370
13
48
1
60
0
100
AcDbLine
10
-7.750434
20
-8.75
30
0
11
-8.16843
21
-5.575002
31
0
39
0
210
0
220
0
230
1
0
LINE
5
116
100
AcDbEntity
8
SK2
62
256
6
ByLayer
370
13
48
1
60
0
100
AcDbLine
10
-7.750434
20
-8.75
30
0
11
-7.332437
21
-5.574998
31
0
39
0
210
0
220
0
230
1
0
LINE
5
117
100
AcDbEntity
8
SK2
62
256
6
ByLayer
370
13
48
1
60
0
100
AcDbLine
10
-8.16843
20
-5.575002
30
0
11
-7.332437
21
-5.574998
31
0
39
0
210
0
220
0
230
1
0
ENDBLK
5
119
100
AcDbEntity
8
0
100
AcDbBlockEnd
0
BLOCK
5
11C
100
AcDbEntity
8
0
100
AcDbBlockBegin
2
_CLOSED
70
0
10
0
20
0
30
0
3
_CLOSED
0
LINE
5
11E
100
AcDbEntity
8
0
62
256
6
ByLayer
370
-2
48
1
60
0
100
AcDbLine
10
-1
20
0.166667
30
0
11
0
21
0
31
0
39
0
210
0
220
0
230
1
0
LINE
5
11F
100
AcDbEntity
8
0
62
256
6
ByLayer
370
-2
48
1
60
0
100
AcDbLine
10
0
20
0
30
0
11
-1
21
-0.166667
31
0
39
0
210
0
220
0
230
1
0
LINE
5
120
100
AcDbEntity
8
0
62
256
6
ByLayer
370
-2
48
1
60
0
100
AcDbLine
10
-1
20
0.166667
30
0
11
-1
21
-0.166667
31
0
39
0
210
0
220
0
230
1
0
LINE
5
121
100
AcDbEntity
8
0
62
256
6
ByLayer
370
-2
48
1
60
0
100
AcDbLine
10
0
20
0
30
0
11
-1
21
0
31
0
39
0
210
0
220
0
230
1
0
ENDBLK
5
11D
100
AcDbEntity
8
0
100
AcDbBlockEnd
0
BLOCK
5
12D
100
AcDbEntity
8
0
100
AcDbBlockBegin
2
DimnDraft3D2
70
0
10
0
20
0
30
0
3
DimnDraft3D2
0
MTEXT
5
123
100
AcDbEntity
8
SK2
62
256
6
ByLayer
370
18
48
1
60
0
100
AcDbMText
10
74.626984
20
-5.582371
30
0
210
0
220
0
230
1
1
\W0.6563;20
40
3
41
0
44
1.084337
50
90
71
7
72
5
7
iso_b_vert
0
LINE
5
124
100
AcDbEntity
8
SK2
62
256
6
ByLayer
370
13
48
1
60
0
100
AcDbLine
10
56.112134
20
6
30
0
11
77.376984
21
6
31
0
39
0
210
0
220
0
230
1
0
LINE
5
125
100
AcDbEntity
8
SK2
62
256
6
ByLayer
370
13
48
1
60
0
100
AcDbLine
10
60.317351
20
-14.034285
30
0
11
77.376984
21
-14.034285
31
0
39
0
210
0
220
0
230
1
0
LINE
5
126
100
AcDbEntity
8
SK2
62
256
6
ByLayer
370
13
48
1
60
0
100
AcDbLine
10
75.376984
20
6
30
0
11
75.376984
21
-14.034285
31
0
39
0
210
0
220
0
230
1
0
LINE
5
127
100
AcDbEntity
8
SK2
62
256
6
ByLayer
370
13
48
1
60
0
100
AcDbLine
10
75.376984
20
6
30
0
11
75.79498
21
2.825002
31
0
39
0
210
0
220
0
230
1
0
LINE
5
128
100
AcDbEntity
8
SK2
62
256
6
ByLayer
370
13
48
1
60
0
100
AcDbLine
10
75.376984
20
6
30
0
11
74.958987
21
2.824998
31
0
39
0
210
0
220
0
230
1
0
LINE
5
129
100
AcDbEntity
8
SK2
62
256
6
ByLayer
370
13
48
1
60
0
100
AcDbLine
10
75.79498
20
2.825002
30
0
11
74.958987
21
2.824998
31
0
39
0
210
0
220
0
230
1
0
LINE
5
12A
100
AcDbEntity
8
SK2
62
256
6
ByLayer
370
13
48
1
60
0
100
AcDbLine
10
75.376984
20
-14.034285
30
0
11
74.958987
21
-10.859287
31
0
39
0
210
0
220
0
230
1
0
LINE
5
12B
100
AcDbEntity
8
SK2
62
256
6
ByLayer
370
13
48
1
60
0
100
AcDbLine
10
75.376984
20
-14.034285
30
0
11
75.79498
21
-10.859284
31
0
39
0
210
0
220
0
230
1
0
LINE
5
12C
100
AcDbEntity
8
SK2
62
256
6
ByLayer
370
13
48
1
60
0
100
AcDbLine
10
74.958987
20
-10.859287
30
0
11
75.79498
21
-10.859284
31
0
39
0
210
0
220
0
230
1
0
ENDBLK
5
12E
100
AcDbEntity
8
0
100
AcDbBlockEnd
0
BLOCK
5
13A
100
AcDbEntity
8
0
100
AcDbBlockBegin
2
DimnDraft3D3
70
0
10
0
20
0
30
0
3
DimnDraft3D3
0
MTEXT
5
131
100
AcDbEntity
8
SK2
62
256
6
ByLayer
370
18
48
1
60
0
100
AcDbMText
10
63.97435
20
-5.896669
30
0
210
0
220
0
230
1
1
\W0.8385;90%%d
40
3
41
0
44
1.084337
50
34.4155852831107
71
7
72
5
7
iso_b_vert
0
LINE
5
132
100
AcDbEntity
8
SK2
62
256
6
ByLayer
370
13
48
1
60
0
100
AcDbLine
10
56.112134
20
6
30
0
11
72.831085
21
6
31
0
39
0
210
0
220
0
230
1
0
ARC
5
133
100
AcDbEntity
8
SK2
62
256
6
ByLayer
370
13
48
1
60
0
100
AcDbCircle
39
0
10
54.914641
20
6
30
0
40
15.9164438360549
210
0
220
0
230
1
100
AcDbArc
50
270.25
51
0
0
LINE
5
134
100
AcDbEntity
8
SK2
62
256
6
ByLayer
370
13
48
1
60
0
100
AcDbLine
10
54.98409
20
-9.916292
30
0
11
58.131859
21
-9.327322
31
0
39
0
210
0
220
0
230
1
0
LINE
5
135
100
AcDbEntity
8
SK2
62
256
6
ByLayer
370
13
48
1
60
0
100
AcDbLine
10
54.98409
20
-9.916292
30
0
11
58.177041
21
-10.162093
31
0
39
0
210
0
220
0
230
1
0
LINE
5
136
100
AcDbEntity
8
SK2
62
256
6
ByLayer
370
13
48
1
60
0
100
AcDbLine
10
58.131859
20
-9.327322
30
0
11
58.177041
21
-10.162093
31
0
39
0
210
0
220
0
230
1
0
LINE
5
137
100
AcDbEntity
8
SK2
62
256
6
ByLayer
370
13
48
1
60
0
100
AcDbLine
10
70.831085
20
6
30
0
11
71.090816
21
2.808155
31
0
39
0
210
0
220
0
230
1
0
LINE
5
138
100
AcDbEntity
8
SK2
62
256
6
ByLayer
370
13
48
1
60
0
100
AcDbLine
10
70.831085
20
6
30
0
11
70.255855
21
2.849688
31
0
39
0
210
0
220
0
230
1
0
LINE
5
139
100
AcDbEntity
8
SK2
62
256
6
ByLayer
370
13
48
1
60
0
100
AcDbLine
10
71.090816
20
2.808155
30
0
11
70.255855
21
2.849688
31
0
39
0
210
0
220
0
230
1
0
ENDBLK
5
13B
100
AcDbEntity
8
0
100
AcDbBlockEnd
0
BLOCK
5
148
100
AcDbEntity
8
0
100
AcDbBlockBegin
2
DimnDraft3D4
70
0
10
0
20
0
30
0
3
DimnDraft3D4
0
MTEXT
5
13E
100
AcDbEntity
8
SK2
62
256
6
ByLayer
370
18
48
1
60
0
100
AcDbMText
10
8.642779
20
-17.170812
30
0
210
0
220
0
230
1
1
\W0.6563;20
40
3
41
0
44
1.084337
50
0
71
7
72
5
7
iso_b_vert
0
LINE
5
13F
100
AcDbEntity
8
SK2
62
256
6
ByLayer
370
13
48
1
60
0
100
AcDbLine
10
0
20
-2
30
0
11
0
21
-19.920812
31
0
39
0
210
0
220
0
230
1
0
LINE
5
140
100
AcDbEntity
8
SK2
62
256
6
ByLayer
370
13
48
1
60
0
100
AcDbLine
10
20
20
-9.815643
30
0
11
20
21
-19.920812
31
0
39
0
210
0
220
0
230
1
0
LINE
5
141
100
AcDbEntity
8
SK2
62
256
6
ByLayer
370
13
48
1
60
0
100
AcDbLine
10
0
20
-17.920812
30
0
11
20
21
-17.920812
31
0
39
0
210
0
220
0
230
1
0
LINE
5
142
100
AcDbEntity
8
SK2
62
256
6
ByLayer
370
13
48
1
60
0
100
AcDbLine
10
0
20
-17.920812
30
0
11
3.174998
21
-17.502815
31
0
39
0
210
0
220
0
230
1
0
LINE
5
143
100
AcDbEntity
8
SK2
62
256
6
ByLayer
370
13
48
1
60
0
100
AcDbLine
10
0
20
-17.920812
30
0
11
3.175002
21
-18.338809
31
0
39
0
210
0
220
0
230
1
0
LINE
5
144
100
AcDbEntity
8
SK2
62
256
6
ByLayer
370
13
48
1
60
0
100
AcDbLine
10
3.174998
20
-17.502815
30
0
11
3.175002
21
-18.338809
31
0
39
0
210
0
220
0
230
1
0
LINE
5
145
100
AcDbEntity
8
SK2
62
256
6
ByLayer
370
13
48
1
60
0
100
AcDbLine
10
20
20
-17.920812
30
0
11
16.825002
21
-18.338809
31
0
39
0
210
0
220
0
230
1
0
LINE
5
146
100
AcDbEntity
8
SK2
62
256
6
ByLayer
370
13
48
1
60
0
100
AcDbLine
10
20
20
-17.920812
30
0
11
16.824998
21
-17.502815
31
0
39
0
210
0
220
0
230
1
0
LINE
5
147
100
AcDbEntity
8
SK2
62
256
6
ByLayer
370
13
48
1
60
0
100
AcDbLine
10
16.825002
20
-18.338809
30
0
11
16.824998
21
-17.502815
31
0
39
0
210
0
220
0
230
1
0
ENDBLK
5
149
100
AcDbEntity
8
0
100
AcDbBlockEnd
0
BLOCK
5
157
100
AcDbEntity
8
0
100
AcDbBlockBegin
2
DimnDraft3D5
70
0
10
0
20
0
30
0
3
DimnDraft3D5
0
MTEXT
5
14C
100
AcDbEntity
8
2
62
256
6
ByLayer
370
18
48
1
60
0
100
AcDbMText
10
25.946694
20
-26.94399
30
0
210
0
220
0
230
1
1
\W0.6563;55
40
3
41
0
44
1.084337
50
0
71
7
72
5
7
iso_b_vert
0
LINE
5
14E
100
AcDbEntity
8
2
62
256
6
ByLayer
370
13
48
1
60
0
100
AcDbLine
10
0
20
-2
30
0
11
0
21
-29.69399
31
0
39
0
210
0
220
0
230
1
0
LINE
5
14F
100
AcDbEntity
8
2
62
256
6
ByLayer
370
13
48
1
60
0
100
AcDbLine
10
54.999996
20
-15.561812
30
0
11
54.999996
21
-29.69399
31
0
39
0
210
0
220
0
230
1
0
LINE
5
150
100
AcDbEntity
8
2
62
256
6
ByLayer
370
13
48
1
60
0
100
AcDbLine
10
0
20
-27.69399
30
0
11
54.999996
21
-27.69399
31
0
39
0
210
0
220
0
230
1
0
LINE
5
151
100
AcDbEntity
8
2
62
256
6
ByLayer
370
13
48
1
60
0
100
AcDbLine
10
0
20
-27.69399
30
0
11
3.174998
21
-27.275993
31
0
39
0
210
0
220
0
230
1
0
LINE
5
152
100
AcDbEntity
8
2
62
256
6
ByLayer
370
13
48
1
60
0
100
AcDbLine
10
0
20
-27.69399
30
0
11
3.175002
21
-28.111987
31
0
39
0
210
0
220
0
230
1
0
LINE
5
153
100
AcDbEntity
8
2
62
256
6
ByLayer
370
13
48
1
60
0
100
AcDbLine
10
3.174998
20
-27.275993
30
0
11
3.175002
21
-28.111987
31
0
39
0
210
0
220
0
230
1
0
LINE
5
154
100
AcDbEntity
8
2
62
256
6
ByLayer
370
13
48
1
60
0
100
AcDbLine
10
54.999996
20
-27.69399
30
0
11
51.824998
21
-28.111987
31
0
39
0
210
0
220
0
230
1
0
LINE
5
155
100
AcDbEntity
8
2
62
256
6
ByLayer
370
13
48
1
60
0
100
AcDbLine
10
54.999996
20
-27.69399
30
0
11
51.824995
21
-27.275993
31
0
39
0
210
0
220
0
230
1
0
LINE
5
156
100
AcDbEntity
8
2
62
256
6
ByLayer
370
13
48
1
60
0
100
AcDbLine
10
51.824998
20
-28.111987
30
0
11
51.824995
21
-27.275993
31
0
39
0
210
0
220
0
230
1
0
ENDBLK
5
158
100
AcDbEntity
8
0
100
AcDbBlockEnd
0
ENDSEC
0
SECTION
2
ENTITIES
0
ARC
5
AE
100
AcDbEntity
8
1
62
256
6
ByLayer
370
18
48
1
60
0
100
AcDbCircle
39
0
10
8
20
0
30
0
40
8.00000000000002
210
0
220
0
230
1
100
AcDbArc
50
145.771134
51
214.228866
0
ELLIPSE
5
AF
100
AcDbEntity
8
1
62
256
6
ByLayer
370
18
48
1
60
0
100
AcDbEllipse
10
45.826744
20
-3.210798
30
0
11
-0.396996220846286
21
-0.00173223376591721
31
0
210
0
220
0
230
1
40
0.99863
41
-1.74532925194351
42
0
0
ELLIPSE
5
B0
100
AcDbEntity
8
1
62
256
6
ByLayer
370
18
48
1
60
0
100
AcDbEllipse
10
48.776145
20
-9.520054
30
0
11
-0.6859934697747
21
-0.00299322980730242
31
0
210
0
220
0
230
1
40
0.99863
41
-3.14159265306284
42
-2.56507499348137
0
ELLIPSE
5
B1
100
AcDbEntity
8
1
62
256
6
ByLayer
370
18
48
1
60
0
100
AcDbEllipse
10
50.214835
20
-8.378633
30
0
11
-1.67648404092912
21
-0.00731508794069115
31
0
210
0
220
0
230
1
40
0.99863
41
2.26892802763755
42
-2.96985027602695
0
ELLIPSE
5
B2
100
AcDbEntity
8
1
62
256
6
ByLayer
370
18
48
1
60
0
100
AcDbEllipse
10
50.214658
20
-8.338067
30
0
11
-2.93436293294618
21
-0.0128036549116381
31
0
210
0
220
0
230
1
40
0.99863
41
0
42
6.28318530717959
0
ELLIPSE
5
B3
100
AcDbEntity
8
1
62
256
6
ByLayer
370
18
48
1
60
0
100
AcDbEllipse
10
46.014189
20
-3.225212
30
0
11
-1.49998572108179
21
-0.00654496279234452
31
0
210
0
220
0
230
1
40
0.99863
41
0.577395743084996
42
1.17061318124996
0
ELLIPSE
5
B4
100
AcDbEntity
8
1
62
256
6
ByLayer
370
18
48
1
60
0
100
AcDbEllipse
10
48.434232
20
-7.662954
30
0
11
-0.685993469777167
21
-0.00299323043784214
31
0
210
0
220
0
230
1
40
0.99863
41
3.14159265319883
42
-2.70806313460065
0
ELLIPSE
5
B5
100
AcDbEntity
8
1
62
256
6
ByLayer
370
18
48
1
60
0
100
AcDbEllipse
10
50.214872
20
-8.387171
30
0
11
-2.9999714421622
21
-0.0130899278537935
31
0
210
0
220
0
230
1
40
0.99863
41
0
42
6.28318530717959
0
ELLIPSE
5
B6
100
AcDbEntity
8
1
62
256
6
ByLayer
370
18
48
1
60
0
100
AcDbEllipse
10
46.221091
20
-4.508553
30
0
11
-1.49998572170454
21
-0.00654494172618176
31
0
210
0
220
0
230
1
40
0.99863
41
-0.236828433698197
42
1.4781901472349E-08
0
ELLIPSE
5
B7
100
AcDbEntity
8
1
62
256
6
ByLayer
370
18
48
1
60
0
100
AcDbEllipse
10
50.214509
20
-8.304055
30
0
11
-1.20648851498953
21
-0.00526433221976101
31
0
210
0
220
0
230
1
40
0.99863
41
-2.30176999000793
42
-1.57984326756485
0
ELLIPSE
5
B8
100
AcDbEntity
8
1
62
256
6
ByLayer
370
18
48
1
60
0
100
AcDbEllipse
10
50.214509
20
-8.304055
30
0
11
-1.20648851498684
21
-0.00526433297803521
31
0
210
0
220
0
230
1
40
0.99863
41
-1.19823658569757
42
-0.429288106351133
0
ELLIPSE
5
B9
100
AcDbEntity
8
1
62
256
6
ByLayer
370
18
48
1
60
0
100
AcDbEllipse
10
19.05
20
-6.430462
30
0
11
-4.0499999999999
21
4.09308817308347E-15
31
0
210
0
220
0
230
1
40
0.34202
41
0
42
1.5707963267949
0
ELLIPSE
5
BA
100
AcDbEntity
8
1
62
256
6
ByLayer
370
18
48
1
60
0
100
AcDbEllipse
10
50.214835
20
-8.378633
30
0
11
-1.67648404092944
21
-0.00731508790826189
31
0
210
0
220
0
230
1
40
0.99863
41
-1.917071629448
42
-0.872664625933171
0
ELLIPSE
5
BB
100
AcDbEntity
8
1
62
256
6
ByLayer
370
18
48
1
60
0
100
AcDbEllipse
10
50.214624
20
-8.330383
30
0
11
-2.88380664207498
21
-0.0125830600784964
31
0
210
0
220
0
230
1
40
0.99863
41
0
42
6.28318530717959
0
ELLIPSE
5
BC
100
AcDbEntity
8
1
62
256
6
ByLayer
370
18
48
1
60
0
100
AcDbEllipse
10
50.214835
20
-8.378633
30
0
11
-1.67648404092752
21
-0.00731508806547584
31
0
210
0
220
0
230
1
40
0.99863
41
-0.872664626026869
42
0.171742377488571
0
ELLIPSE
5
BD
100
AcDbEntity
8
1
62
256
6
ByLayer
370
18
48
1
60
0
100
AcDbEllipse
10
46.223221
20
-4.75251
30
0
11
-1.49998572108117
21
-0.006544964250462
31
0
210
0
220
0
230
1
40
0.99863
41
0.00436332291478949
42
1.01867136331034
0
ELLIPSE
5
BE
100
AcDbEntity
8
1
62
256
6
ByLayer
370
18
48
1
60
0
100
AcDbEllipse
10
20.95
20
-6.430462
30
0
11
-4.05000000000003
21
4.0930881730836E-15
31
0
210
0
220
0
230
1
40
0.34202
41
3.14159265358979
42
-1.5707963267949
0
ELLIPSE
5
BF
100
AcDbEntity
8
1
62
256
6
ByLayer
370
18
48
1
60
0
100
AcDbEllipse
10
46.222719
20
-4.637372
30
0
11
-1.49998572108131
21
-0.00654496430885845
31
0
210
0
220
0
230
1
40
0.99863
41
0.00436332287591479
42
1.01867136327131
0
ELLIPSE
5
C0
100
AcDbEntity
8
1
62
256
6
ByLayer
370
18
48
1
60
0
100
AcDbEllipse
10
50.214509
20
-8.304055
30
0
11
-1.20648851498996
21
-0.00526433260064934
31
0
210
0
220
0
230
1
40
0.99863
41
2.79113152939282
42
-2.63585178760505
0
ELLIPSE
5
C1
100
AcDbEntity
8
1
62
256
6
ByLayer
370
18
48
1
60
0
100
AcDbEllipse
10
46.221495
20
-4.601187
30
0
11
-1.6964360326612
21
-0.00740213611556363
31
0
210
0
220
0
230
1
40
0.99863
41
-0.360154702177377
42
0.00436332868643846
0
ELLIPSE
5
C2
100
AcDbEntity
8
1
62
256
6
ByLayer
370
18
48
1
60
0
100
AcDbEllipse
10
50.553855
20
-10.163327
30
0
11
-0.685993469774311
21
-0.00299323007973015
31
0
210
0
220
0
230
1
40
0.99863
41
-2.17885877124522
42
-1.39486812762385
0
ELLIPSE
5
C3
100
AcDbEntity
8
1
62
256
6
ByLayer
370
18
48
1
60
0
100
AcDbEllipse
10
50.214509
20
-8.304055
30
0
11
-1.20648851498971
21
-0.00526433283322777
31
0
210
0
220
0
230
1
40
0.99863
41
0.767164334059896
42
1.74672452568449
0
ELLIPSE
5
C4
100
AcDbEntity
8
1
62
256
6
ByLayer
370
18
48
1
60
0
100
AcDbEllipse
10
54.564369
20
-4.710089
30
0
11
-0.396996220846128
21
-0.00173223381717264
31
0
210
0
220
0
230
1
40
0.99863
41
3.14159265358979
42
-1.7453292520729
0
ELLIPSE
5
C5
100
AcDbEntity
8
1
62
256
6
ByLayer
370
18
48
1
60
0
100
AcDbEllipse
10
45.865375
20
-12.064254
30
0
11
-0.396996220846096
21
-0.00173223386473504
31
0
210
0
220
0
230
1
40
0.99863
41
0
42
1.39626340139688
0
ELLIPSE
5
C6
100
AcDbEntity
8
1
62
256
6
ByLayer
370
18
48
1
60
0
100
AcDbEllipse
10
3.3
20
0
30
0
11
1.24107146979939E-16
21
2.02689046308738
31
0
210
0
220
0
230
1
40
0.74005
41
2.23128450291215
42
-2.23126334521462
0
ELLIPSE
5
C7
100
AcDbEntity
8
1
62
256
6
ByLayer
370
18
48
1
60
0
100
AcDbEllipse
10
51.577597
20
-8.061819
30
0
11
-0.291997220369686
21
-0.00127408641369234
31
0
210
0
220
0
230
1
40
0.99863
41
2.0071408853781
42
3.01394035109848
0
ELLIPSE
5
C8
100
AcDbEntity
8
1
62
256
6
ByLayer
370
18
48
1
60
0
100
AcDbEllipse
10
50.214835
20
-8.378633
30
0
11
-1.67648404092887
21
-0.00731508797853861
31
0
210
0
220
0
230
1
40
0.99863
41
1.22452102409976
42
2.26892802761475
0
ELLIPSE
5
C9
100
AcDbEntity
8
1
62
256
6
ByLayer
370
18
48
1
60
0
100
AcDbEllipse
10
46.015096
20
-3.432984
30
0
11
-1.49998572113082
21
-0.00654496909708941
31
0
210
0
220
0
230
1
40
0.99863
41
0
42
0.39184023968453
0
ELLIPSE
5
CA
100
AcDbEntity
8
1
62
256
6
ByLayer
370
18
48
1
60
0
100
AcDbEllipse
10
48.851422
20
-8.546291
30
0
11
-0.291997220370347
21
-0.00127408639720727
31
0
210
0
220
0
230
1
40
0.99863
41
0.128128702917175
42
1.48939303542381
0
ELLIPSE
5
CB
100
AcDbEntity
8
1
62
256
6
ByLayer
370
18
48
1
60
0
100
AcDbEllipse
10
20.95
20
-6.430462
30
0
11
-4.05000000000004
21
4.09308817308361E-15
31
0
210
0
220
0
230
1
40
0.34202
41
1.5707963267949
42
3.14159265358979
0
ELLIPSE
5
CC
100
AcDbEntity
8
1
62
256
6
ByLayer
370
18
48
1
60
0
100
AcDbEllipse
10
50.214835
20
-8.378633
30
0
11
-1.67648404092824
21
-0.00731508818580278
31
0
210
0
220
0
230
1
40
0.99863
41
0.171742377416902
42
1.22452102397588
0
ELLIPSE
5
CD
100
AcDbEntity
8
1
62
256
6
ByLayer
370
18
48
1
60
0
100
AcDbEllipse
10
49.750294
20
-9.606629
30
0
11
-0.291997220370448
21
-0.00127408631515671
31
0
210
0
220
0
230
1
40
0.99863
41
0.114406777068976
42
2.53071516944202
0
ELLIPSE
5
CE
100
AcDbEntity
8
1
62
256
6
ByLayer
370
18
48
1
60
0
100
AcDbEllipse
10
50.214772
20
-8.364218
30
0
11
-2.62497501189194
21
-0.0114536868683344
31
0
210
0
220
0
230
1
40
0.99863
41
3.14159265358979
42
-0.872664625995587
0
ELLIPSE
5
CF
100
AcDbEntity
8
1
62
256
6
ByLayer
370
18
48
1
60
0
100
AcDbEllipse
10
46.223626
20
-4.845143
30
0
11
-1.69643603247913
21
-0.00740214521261514
31
0
210
0
220
0
230
1
40
0.99863
41
0.00436332333123339
42
1.08645669454481
0
ELLIPSE
5
D0
100
AcDbEntity
8
1
62
256
6
ByLayer
370
18
48
1
60
0
100
AcDbEllipse
10
54.603
20
-13.563544
30
0
11
-0.396996220846164
21
-0.00173223378105476
31
0
210
0
220
0
230
1
40
0.99863
41
1.39626340160803
42
3.14159265358979
0
ELLIPSE
5
D1
100
AcDbEntity
8
1
62
256
6
ByLayer
370
18
48
1
60
0
100
AcDbEllipse
10
50.214509
20
-8.304055
30
0
11
-1.20648851499436
21
-0.00526433309845825
31
0
210
0
220
0
230
1
40
0.99863
41
-0.210664429025004
42
0.629099067014535
0
ELLIPSE
5
D2
100
AcDbEntity
8
1
62
256
6
ByLayer
370
18
48
1
60
0
100
AcDbEllipse
10
50.214772
20
-8.364218
30
0
11
-2.6249750118949
21
-0.0114536865867265
31
0
210
0
220
0
230
1
40
0.99863
41
-0.87266462588815
42
1.08694126096864E-10
0
ELLIPSE
5
D3
100
AcDbEntity
8
1
62
256
6
ByLayer
370
18
48
1
60
0
100
AcDbEllipse
10
46.014041
20
-3.191194
30
0
11
-1.49998572108125
21
-0.00654496384477033
31
0
210
0
220
0
230
1
40
0.99863
41
0.0807958569526257
42
1.17061318054776
0
ELLIPSE
5
D4
100
AcDbEntity
8
1
62
256
6
ByLayer
370
18
48
1
60
0
100
AcDbEllipse
10
48.776145
20
-9.520054
30
0
11
-0.685993469774039
21
-0.00299323155948033
31
0
210
0
220
0
230
1
40
0.99863
41
-2.32184691359912
42
-1.6521996198997
0
ELLIPSE
5
D5
100
AcDbEntity
8
1
62
256
6
ByLayer
370
18
48
1
60
0
100
AcDbEllipse
10
50.553855
20
-10.163327
30
0
11
-0.68599346978022
21
-0.00299322944753314
31
0
210
0
220
0
230
1
40
0.99863
41
-1.39486812670133
42
-0.610877483082949
0
ELLIPSE
5
D6
100
AcDbEntity
8
1
62
256
6
ByLayer
370
18
48
1
60
0
100
AcDbEllipse
10
50.214509
20
-8.304055
30
0
11
-1.20648851498919
21
-0.00526433269697831
31
0
210
0
220
0
230
1
40
0.99863
41
1.74672452579767
42
2.79113152931303
0
ELLIPSE
5
D7
100
AcDbEntity
8
1
62
256
6
ByLayer
370
18
48
1
60
0
100
AcDbEllipse
10
51.994787
20
-8.945157
30
0
11
-0.68599346978453
21
-0.00299322894855817
31
0
210
0
220
0
230
1
40
0.99863
41
-1.13445176607902
42
-0.350461122461879
0
ELLIPSE
5
D8
100
AcDbEntity
8
1
62
256
6
ByLayer
370
18
48
1
60
0
100
AcDbEllipse
10
46.015096
20
-3.432984
30
0
11
-1.49998572108109
21
-0.0065449639281937
31
0
210
0
220
0
230
1
40
0.99863
41
-2.91594243248793
42
-2.96465631148049E-16
0
ELLIPSE
5
D9
100
AcDbEntity
8
1
62
256
6
ByLayer
370
18
48
1
60
0
100
AcDbEllipse
10
50.214835
20
-8.378633
30
0
11
-1.79998286529733
21
-0.00785395671173339
31
0
210
0
220
0
230
1
40
0.99863
41
0
42
6.28318530717959
0
ELLIPSE
5
DA
100
AcDbEntity
8
1
62
256
6
ByLayer
370
18
48
1
60
0
100
AcDbEllipse
10
50.214835
20
-8.378633
30
0
11
-1.67648404092821
21
-0.00731508826427385
31
0
210
0
220
0
230
1
40
0.99863
41
-2.96985027621964
42
-1.91707162966077
0
ELLIPSE
5
DB
100
AcDbEntity
8
1
62
256
6
ByLayer
370
18
48
1
60
0
100
AcDbEllipse
10
50.214772
20
-8.364218
30
0
11
-2.62497501189193
21
-0.0114536868720577
31
0
210
0
220
0
230
1
40
0.99863
41
0
42
3.14159265358979
0
ELLIPSE
5
DC
100
AcDbEntity
8
1
62
256
6
ByLayer
370
18
48
1
60
0
100
AcDbEllipse
10
19.05
20
-6.430462
30
0
11
-4.04999999999998
21
4.09308817308355E-15
31
0
210
0
220
0
230
1
40
0.34202
41
-1.5707963267949
42
-6.41200261698745E-16
0
ELLIPSE
5
DD
100
AcDbEntity
8
1
62
256
6
ByLayer
370
18
48
1
60
0
100
AcDbEllipse
10
51.109062
20
-9.359297
30
0
11
-0.291997220370294
21
-0.00127408633337633
31
0
210
0
220
0
230
1
40
0.99863
41
0.962733882137812
42
3.02027319256702
0
POINT
5
6C
100
AcDbEntity
8
80
62
256
6
ByLayer
370
18
48
1
60
0
100
AcDbPoint
10
0
20
0
30
0
39
0
210
0
220
0
230
1
50
360
0
POINT
5
6E
100
AcDbEntity
8
81
62
256
6
ByLayer
370
18
48
1
60
0
100
AcDbPoint
10
55.002058
20
-14.034285
30
0
39
0
210
0
220
0
230
1
50
360
0
SPLINE
5
DE
100
AcDbEntity
8
1
62
256
6
ByLayer
370
18
48
1
60
0
100
AcDbSpline
70
4
71
3
72
67
73
63
40
0
40
0
40
0
40
0
40
0.0174334664526159
40
0.0348719851024044
40
0.0523102463552695
40
0.0697433617094148
40
0.0871800252711395
40
0.104622414458965
40
0.122064422874777
40
0.139500567029379
40
0.157680526484081
40
0.175868104254509
40
0.194055040260614
40
0.212234124209756
40
0.229410647230537
40
0.246599405136022
40
0.263791233018733
40
0.280978037929333
40
0.298152921802555
40
0.315787232553397
40
0.333438181037024
40
0.351093433127492
40
0.36874196051741
40
0.386374238779934
40
0.400672383532319
40
0.414977261181101
40
0.429281859838993
40
0.443579623968742
40
0.457879957075397
40
0.47218748775554
40
0.486494914578023
40
0.500795105989136
40
0.51605204516165
40
0.5313177564359
40
0.546583618406899
40
0.561840763192749
40
0.576965354128386
40
0.592101597346904
40
0.60724231644884
40
0.622379649352121
40
0.637505154926279
40
0.653015187570542
40
0.668535786946836
40
0.684060695128343
40
0.699582756579924
40
0.715094016325568
40
0.731694296755554
40
0.748301882134674
40
0.764910066985859
40
0.781511165232073
40
0.798105786069484
40
0.814706513302638
40
0.831307705494382
40
0.847902960596309
40
0.865364917245862
40
0.882832925127022
40
0.900301342280415
40
0.917763857219503
40
0.938318315277493
40
0.958881318294019
40
0.979444837609085
40
1
40
1
40
1
40
1
41
1
10
50.9435949113763
20
-9.66823134233653
30
0
41
1
10
50.938774449306
20
-9.66475282651132
30
0
41
1
10
50.9290330816107
20
-9.65791251473597
30
0
41
1
10
50.9141214212191
20
-9.64800099568344
30
0
41
1
10
50.8989161850327
20
-9.63845055298365
30
0
41
1
10
50.8834213183432
20
-9.62926963101918
30
0
41
1
10
50.8676390515736
20
-9.6204672479753
30
0
41
1
10
50.8515722726638
20
-9.61205161699012
30
0
41
1
10
50.8352284286614
20
-9.60403401306581
30
0
41
1
10
50.8183780810979
20
-9.59631741445351
30
0
41
1
10
50.8010102312274
20
-9.58893315183362
30
0
41
1
10
50.7831165225741
20
-9.58191358440265
30
0
41
1
10
50.7649470879426
20
-9.57537431071344
30
0
41
1
10
50.7468516073
20
-9.56944048279228
30
0
41
1
10
50.7288507923658
20
-9.56409403898822
30
0
41
1
10
50.7109660225856
20
-9.55931289696172
30
0
41
1
10
50.6928659109617
20
-9.55500625624133
30
0
41
1
10
50.6745699116357
20
-9.55118802985225
30
0
41
1
10
50.6559267647429
20
-9.54784089169598
30
0
41
1
10
50.6369357319909
20
-9.54499470091016
30
0
41
1
10
50.617603295289
20
-9.54267429931094
30
0
41
1
10
50.5981173555216
20
-9.54091437856815
30
0
41
1
10
50.5785103409887
20
-9.53972673265568
30
0
41
1
10
50.5600469724325
20
-9.53916120271695
30
0
41
1
10
50.5427640824817
20
-9.53910507322601
30
0
41
1
10
50.5266850244041
20
-9.53944525199061
30
0
41
1
10
50.5105805891181
20
-9.540180343602
30
0
41
1
10
50.4944672083178
20
-9.54131302947389
30
0
41
1
10
50.4783576621963
20
-9.54284732324429
30
0
41
1
10
50.462265476154
20
-9.54478165346205
30
0
41
1
10
50.4462104051376
20
-9.54711431336519
30
0
41
1
10
50.4298547648073
20
-9.54990491898721
30
0
41
1
10
50.4132174900108
20
-9.55318582829937
30
0
41
1
10
50.3963209861797
20
-9.55698281776846
30
0
41
1
10
50.3795423574436
20
-9.56121876852893
30
0
41
1
10
50.3629516645782
20
-9.56587353627367
30
0
41
1
10
50.3465623939757
20
-9.57093978772117
30
0
41
1
10
50.3303837569541
20
-9.57640369842238
30
0
41
1
10
50.3143839385737
20
-9.58226923613074
30
0
41
1
10
50.2985853925813
20
-9.58852372410035
30
0
41
1
10
50.282871567572
20
-9.59521387822747
30
0
41
1
10
50.2672578571006
20
-9.60234447660024
30
0
41
1
10
50.2517556874539
20
-9.60991487130916
30
0
41
1
10
50.236506032575
20
-9.61785285183228
30
0
41
1
10
50.2215249665303
20
-9.62614289087278
30
0
41
1
10
50.2064787332249
20
-9.63497529080693
30
0
41
1
10
50.1913955079014
20
-9.64436915391473
30
0
41
1
10
50.1763019552611
20
-9.65433921450454
30
0
41
1
10
50.161543482912
20
-9.66466039575951
30
0
41
1
10
50.1471295948228
20
-9.67531684414463
30
0
41
1
10
50.1330636146412
20
-9.68629761941108
30
0
41
1
10
50.1193460450735
20
-9.69759101816197
30
0
41
1
10
50.1059795572967
20
-9.7091851661985
30
0
41
1
10
50.0927418363057
20
-9.7212742240112
30
0
41
1
10
50.0796557448793
20
-9.73386647814015
30
0
41
1
10
50.066743608679
20
-9.74696815278186
30
0
41
1
10
50.0542284069166
20
-9.76035418247768
30
0
41
1
10
50.0413979132379
20
-9.77481777716555
30
0
41
1
10
50.0283381150739
20
-9.79040831559024
30
0
41
1
10
50.0151418812664
20
-9.80717024532799
30
0
41
1
10
50.0025011920144
20
-9.82426361358265
30
0
41
1
10
49.9944462882899
20
-9.835865306056
30
0
41
1
10
49.9905124351479
20
-9.84171781505862
30
0
0
SPLINE
5
DF
100
AcDbEntity
8
1
62
256
6
ByLayer
370
18
48
1
60
0
100
AcDbSpline
70
4
71
2
72
6
73
3
40
0
40
0
40
0
40
1
40
1
40
1
41
0.500195502250762
10
50.9687883256635
20
-7.03691887979784
30
0
41
0.499804497749238
10
50.9667620800988
20
-7.06394638199685
30
0
41
0.500195502250762
10
50.9668803393811
20
-7.09104924104174
30
0
0
SPLINE
5
E0
100
AcDbEntity
8
1
62
256
6
ByLayer
370
18
48
1
60
0
100
AcDbSpline
70
4
71
3
72
36
73
32
40
0
40
0
40
0
40
0
40
0.0350163753312142
40
0.0700600385354687
40
0.105102450140319
40
0.14011711740382
40
0.176091460625332
40
0.212098765482676
40
0.248104288978217
40
0.284076200822268
40
0.319196063779027
40
0.354350480940665
40
0.389502988091848
40
0.424620243900347
40
0.460976862274813
40
0.497376730791581
40
0.533774244883541
40
0.570127648821239
40
0.601945371610636
40
0.633795306071527
40
0.665643940648515
40
0.697459889061133
40
0.730411088254261
40
0.763401025671765
40
0.796389805499476
40
0.829339424295101
40
0.863426724966433
40
0.897582249236329
40
0.931759958422548
40
0.965913970311494
40
1
40
1
40
1
40
1
41
1
10
50.9435949113763
20
-9.66823134233653
30
0
41
1
10
50.9470145866154
20
-9.67069908439409
30
0
41
1
10
50.9539660057708
20
-9.67549237585689
30
0
41
1
10
50.9647292926338
20
-9.68225781674541
30
0
41
1
10
50.9758077982895
20
-9.68857598273876
30
0
41
1
10
50.9872901724963
20
-9.69448301079801
30
0
41
1
10
50.9991755409626
20
-9.69994507590235
30
0
41
1
10
51.0114563954857
20
-9.70493257500003
30
0
41
1
10
51.0240026570211
20
-9.70937807123565
30
0
41
1
10
51.0366895760826
20
-9.71323111839519
30
0
41
1
10
51.0494946695193
20
-9.71648747125366
30
0
41
1
10
51.062392117003
20
-9.71915231304261
30
0
41
1
10
51.0754566768935
20
-9.72123726860721
30
0
41
1
10
51.0888149317997
20
-9.72274418565502
30
0
41
1
10
51.1024522287741
20
-9.72362943901869
30
0
41
1
10
51.1163453529235
20
-9.72385980130664
30
0
41
1
10
51.1302994592304
20
-9.72341550640387
30
0
41
1
10
51.1436944469649
20
-9.72233183335687
30
0
41
1
10
51.1564991194878
20
-9.7206925598825
30
0
41
1
10
51.1686958431189
20
-9.71859127592438
30
0
41
1
10
51.180835666316
20
-9.71595316854615
30
0
41
1
10
51.1930316160273
20
-9.712739346695
30
0
41
1
10
51.2052561290104
20
-9.70892077132624
30
0
41
1
10
51.2174791038669
20
-9.70448175269302
30
0
41
1
10
51.2295240730957
20
-9.6994749975323
30
0
41
1
10
51.2414919121811
20
-9.69384457969925
30
0
41
1
10
51.2533464226853
20
-9.68756371586974
30
0
41
1
10
51.2650539342589
20
-9.68062517360584
30
0
41
1
10
51.2764476974123
20
-9.67312145968928
30
0
41
1
10
51.2874851161317
20
-9.6650785409811
30
0
41
1
10
51.2945755249186
20
-9.65937119298734
30
0
41
1
10
51.2980540401862
20
-9.65643228555783
30
0
0
SPLINE
5
E1
100
AcDbEntity
8
1
62
256
6
ByLayer
370
18
48
1
60
0
100
AcDbSpline
70
4
71
3
72
41
73
37
40
0
40
0
40
0
40
0
40
0.0312912309161371
40
0.0625824888989999
40
0.0897745970740302
40
0.116990085417852
40
0.144205879919959
40
0.171398405941645
40
0.199361716094752
40
0.227349467560237
40
0.255337823975515
40
0.2833019597779
40
0.310882037469677
40
0.338484135554358
40
0.36608696718981
40
0.393668045971863
40
0.421958223681732
40
0.450270332629688
40
0.478583327732947
40
0.506874714766259
40
0.536238179786281
40
0.56562396556643
40
0.595010763226428
40
0.624375609122808
40
0.654449925623901
40
0.684545899357699
40
0.714642885326788
40
0.744718583134238
40
0.776258721861898
40
0.807821392844934
40
0.839385103451091
40
0.87092666085088
40
0.903183535630843
40
0.935462265717702
40
0.967741896361742
40
1
40
1
40
1
40
1
41
1
10
48.5642628668155
20
-8.67195794186158
30
0
41
1
10
48.5650027514628
20
-8.67610857592027
30
0
41
1
10
48.5666600328051
20
-8.68436233939733
30
0
41
1
10
48.5695490278283
20
-8.69607911742769
30
0
41
1
10
48.5727569974434
20
-8.70711907703376
30
0
41
1
10
48.5762035252864
20
-8.71749126397763
30
0
41
1
10
48.580032292848
20
-8.72770327236645
30
0
41
1
10
48.5842747221962
20
-8.73783008281114
30
0
41
1
10
48.5889382023588
20
-8.74785046921543
30
0
41
1
10
48.594022411577
20
-8.75774554978362
30
0
41
1
10
48.599470218396
20
-8.76740442735826
30
0
41
1
10
48.6052420668145
20
-8.77676588998539
30
0
41
1
10
48.6113234677999
20
-8.78582057593669
30
0
41
1
10
48.6176951747777
20
-8.79456500439701
30
0
41
1
10
48.624369643331
20
-8.80302780707652
30
0
41
1
10
48.6313915934614
20
-8.81126567064791
30
0
41
1
10
48.6387589982828
20
-8.81925984484486
30
0
41
1
10
48.64646474121
20
-8.82699594433494
30
0
41
1
10
48.6544288731412
20
-8.83439700837981
30
0
41
1
10
48.6627378394044
20
-8.84154230593762
30
0
41
1
10
48.6713897898009
20
-8.84840933362399
30
0
41
1
10
48.6803782378946
20
-8.8549800849246
30
0
41
1
10
48.689576886423
20
-8.86116390737729
30
0
41
1
10
48.6990423473231
20
-8.86700103331375
30
0
41
1
10
48.7087660515324
20
-8.87247598537959
30
0
41
1
10
48.7187366440595
20
-8.87757848798586
30
0
41
1
10
48.728857242677
20
-8.8822627437858
30
0
41
1
10
48.7392750080662
20
-8.88659515346945
30
0
41
1
10
48.7499832018318
20
-8.89054987331089
30
0
41
1
10
48.7609718299564
20
-8.89410574004741
30
0
41
1
10
48.7720519758434
20
-8.89720143136406
30
0
41
1
10
48.7832878644349
20
-8.89985716987558
30
0
41
1
10
48.7946668240933
20
-8.90206134091789
30
0
41
1
10
48.8061747445462
20
-8.90380737917251
30
0
41
1
10
48.8177091224065
20
-8.90508212045983
30
0
41
1
10
48.8254003137651
20
-8.90562030259509
30
0
41
1
10
48.8292464851308
20
-8.90581125611887
30
0
0
SPLINE
5
E2
100
AcDbEntity
8
1
62
256
6
ByLayer
370
18
48
1
60
0
100
AcDbSpline
70
4
71
3
72
30
73
26
40
0
40
0
40
0
40
0
40
0.0192037537667629
40
0.0668344816376279
40
0.114480878420341
40
0.162126241798398
40
0.209755560011935
40
0.259421646418718
40
0.30910857219958
40
0.358793742854812
40
0.408457434888804
40
0.455177516798928
40
0.501930647244497
40
0.548692057209484
40
0.595439887746419
40
0.64215552146793
40
0.69011275177533
40
0.738115023130333
40
0.786128881981454
40
0.834124478814267
40
0.882076105939949
40
0.911525498014477
40
0.940974836631946
40
0.970487441570885
40
1
40
1
40
1
40
1
41
1
10
49.4624313659538
20
-9.58416289231569
30
0
41
1
10
49.4624207354226
20
-9.58170185984869
30
0
41
1
10
49.4623393603736
20
-9.57313160845779
30
0
41
1
10
49.46193681988
20
-9.55841821801341
30
0
41
1
10
49.46095994187
20
-9.54000116515622
30
0
41
1
10
49.4595034390908
20
-9.52154452361461
30
0
41
1
10
49.4575338212164
20
-9.50279686785105
30
0
41
1
10
49.4550191448487
20
-9.48376471443594
30
0
41
1
10
49.4519279808581
20
-9.46445753211547
30
0
41
1
10
49.4482891600748
20
-9.44515498965766
30
0
41
1
10
49.4441794379117
20
-9.42625489402437
30
0
41
1
10
49.4396276530591
20
-9.40776622761227
30
0
41
1
10
49.4346661988521
20
-9.38969624015005
30
0
41
1
10
49.4291983856361
20
-9.37168104070106
30
0
41
1
10
49.4232225667832
20
-9.35374473564364
30
0
41
1
10
49.4166780339649
20
-9.33574738552403
30
0
41
1
10
49.4095398290597
20
-9.3177037017191
30
0
41
1
10
49.4017906778046
20
-9.29963214037352
30
0
41
1
10
49.3934954365887
20
-9.28171362194137
30
0
41
1
10
49.3846607101187
20
-9.26398256234614
30
0
41
1
10
49.3764930799802
20
-9.24871750236598
30
0
41
1
10
49.3692110507062
20
-9.2358505347557
30
0
41
1
10
49.3629854624281
20
-9.22529740818428
30
0
41
1
10
49.3565560248446
20
-9.21483622379825
30
0
41
1
10
49.3521357767707
20
-9.20792926001087
30
0
41
1
10
49.3498927414618
20
-9.20449334152694
30
0
0
SPLINE
5
E3
100
AcDbEntity
8
1
62
256
6
ByLayer
370
18
48
1
60
0
100
AcDbSpline
70
4
71
3
72
41
73
37
40
0
40
0
40
0
40
0
40
0.0312912309161376
40
0.0625824888990027
40
0.0897745970740224
40
0.116990085417858
40
0.144205879919965
40
0.171398405941649
40
0.199361716094754
40
0.227349467560249
40
0.255337823975521
40
0.283301959777902
40
0.310882037469688
40
0.338484135554367
40
0.36608696718982
40
0.393668045971877
40
0.421958223681734
40
0.450270332629694
40
0.478583327732952
40
0.506874714766257
40
0.536238179786272
40
0.565623965566445
40
0.595010763226432
40
0.624375609122818
40
0.654449925623902
40
0.684545899357699
40
0.714642885326804
40
0.744718583134241
40
0.776258721861893
40
0.807821392844888
40
0.839385103451028
40
0.870926660850785
40
0.903183535630775
40
0.93546226571764
40
0.967741896361715
40
1
40
1
40
1
40
1
41
1
10
51.8654068691184
20
-8.0853082289835
30
0
41
1
10
51.8646669844191
20
-8.08115758300847
30
0
41
1
10
51.8630096632456
20
-8.07289469096199
30
0
41
1
10
51.8601204971357
20
-8.06113870300183
30
0
41
1
10
51.8569122624744
20
-8.0500379996422
30
0
41
1
10
51.853465392966
20
-8.03958750928825
30
0
41
1
10
51.8496361955104
20
-8.02927697705337
30
0
41
1
10
51.845393243944
20
-8.01903048376859
30
0
41
1
10
51.8407291465786
20
-8.00886864582542
30
0
41
1
10
51.835644224045
20
-7.99881008644606
30
0
41
1
10
51.8301956153655
20
-7.98896743713779
30
0
41
1
10
51.8244228822591
20
-7.97940322027258
30
0
41
1
10
51.8183405160701
20
-7.97012732732561
30
0
41
1
10
51.8119677668408
20
-7.96114403397183
30
0
41
1
10
51.8052921768293
20
-7.95242421362485
30
0
41
1
10
51.7982690179032
20
-7.94390931624562
30
0
41
1
10
51.7909003159277
20
-7.93561785810794
30
0
41
1
10
51.7831931876582
20
-7.92756426354355
30
0
41
1
10
51.7752275959439
20
-7.91982864400936
30
0
41
1
10
51.7669170787647
20
-7.91232790494328
30
0
41
1
10
51.7582634847925
20
-7.90508419982441
30
0
41
1
10
51.7492733000959
20
-7.89811545099507
30
0
41
1
10
51.7400728454772
20
-7.89151770574408
30
0
41
1
10
51.7306054970291
20
-7.88524798841925
30
0
41
1
10
51.7208798239289
20
-7.87932180269021
30
0
41
1
10
51.7109071822001
20
-7.87374966060949
30
0
41
1
10
51.7007844731689
20
-7.86858173668081
30
0
41
1
10
51.6903645042914
20
-7.86374432789853
30
0
41
1
10
51.6796540127653
20
-7.85926300347109
30
0
41
1
10
51.6686629924533
20
-7.8551588912584
30
0
41
1
10
51.6575803999277
20
-7.85150247521562
30
0
41
1
10
51.6463419950567
20
-7.8482700515813
30
0
41
1
10
51.6349604504651
20
-7.84547346127704
30
0
41
1
10
51.6234498782262
20
-7.84311968228317
30
0
41
1
10
51.6119128045721
20
-7.84122711451534
30
0
41
1
10
51.6042197897535
20
-7.84027102872823
30
0
41
1
10
51.6003727001163
20
-7.83986962424123
30
0
0
SPLINE
5
E4
100
AcDbEntity
8
1
62
256
6
ByLayer
370
18
48
1
60
0
100
AcDbSpline
70
4
71
3
72
34
73
30
40
0
40
0
40
0
40
0
40
0.0313334572549843
40
0.0689677483470256
40
0.107632787623907
40
0.146333217005281
40
0.185031739015933
40
0.22369417492858
40
0.261469358183045
40
0.299281725574186
40
0.337092030337883
40
0.374864398121737
40
0.41397091831105
40
0.453124017266331
40
0.492274556805219
40
0.531377582682376
40
0.565586044841284
40
0.599829192762444
40
0.634070918355707
40
0.668277438995218
40
0.703707458206688
40
0.739179267744869
40
0.774649793718593
40
0.810078060538712
40
0.848008758433646
40
0.886021284931462
40
0.924060369579809
40
0.962070943378885
40
1
40
1
40
1
40
1
41
1
10
49.4586000976943
20
-9.67740946338168
30
0
41
1
10
49.4586156587605
20
-9.68099239461258
30
0
41
1
10
49.4587896934604
20
-9.6888854969266
30
0
41
1
10
49.459536365136
20
-9.70123571109173
30
0
41
1
10
49.4609127548246
20
-9.71443946069751
30
0
41
1
10
49.4628948917892
20
-9.72775062634553
30
0
41
1
10
49.4654748491428
20
-9.74102054122446
30
0
41
1
10
49.4686331022196
20
-9.75411759272119
30
0
41
1
10
49.4723625415103
20
-9.76701989370293
30
0
41
1
10
49.4766463048073
20
-9.77970734717
30
0
41
1
10
49.4815117236326
20
-9.79224831490012
30
0
41
1
10
49.4870218862943
20
-9.80475518990242
30
0
41
1
10
49.4932069186143
20
-9.8171930715274
30
0
41
1
10
49.5000837355144
20
-9.82952475221101
30
0
41
1
10
49.5075702376812
20
-9.84156880340236
30
0
41
1
10
49.515319528732
20
-9.85279626645066
30
0
41
1
10
49.5232437716692
20
-9.86322222458823
30
0
41
1
10
49.5312535977746
20
-9.8728786408097
30
0
41
1
10
49.5396951011816
20
-9.88221366322492
30
0
41
1
10
49.5486595565007
20
-9.89130715745044
30
0
41
1
10
49.5581580671127
20
-9.90012011085728
30
0
41
1
10
49.5681889299591
20
-9.90861798116093
30
0
41
1
10
49.5786169572521
20
-9.91667190871571
30
0
41
1
10
49.5896713471137
20
-9.92443343467748
30
0
41
1
10
49.6013738296733
20
-9.93183548708829
30
0
41
1
10
49.6137262540955
20
-9.93882019871379
30
0
41
1
10
49.6264256811142
20
-9.94520108666344
30
0
41
1
10
49.6394230598292
20
-9.95095121672579
30
0
41
1
10
49.6482559196938
20
-9.9543423159253
30
0
41
1
10
49.6527134140897
20
-9.95592823555971
30
0
0
SPLINE
5
E5
100
AcDbEntity
8
1
62
256
6
ByLayer
370
18
48
1
60
0
100
AcDbSpline
70
4
71
2
72
6
73
3
40
0
40
0
40
0
40
1
40
1
40
1
41
0.50059616150477
10
49.3498927414592
20
-9.20449334152722
30
0
41
0.49940383849523
10
49.291729779966
20
-9.1447760097097
30
0
41
0.50059616150477
10
49.2423503847149
20
-9.07763301542444
30
0
0
SPLINE
5
E6
100
AcDbEntity
8
1
62
256
6
ByLayer
370
18
48
1
60
0
100
AcDbSpline
70
4
71
3
72
17
73
13
40
0
40
0
40
0
40
0
40
0.0999882813078109
40
0.199977210773463
40
0.299966324822902
40
0.399955194303344
40
0.499943425300652
40
0.59995427724318
40
0.69996588094036
40
0.7999776928643
40
0.899989215796418
40
1
40
1
40
1
40
1
41
1
10
44.7614409210807
20
-4.16346992765025
30
0
41
1
10
44.7565023196414
20
-4.15904192876116
30
0
41
1
10
44.7467382149517
20
-4.15005674228772
30
0
41
1
10
44.7324272199427
20
-4.13619209245038
30
0
41
1
10
44.7184640021039
20
-4.12193866193303
30
0
41
1
10
44.7048567380801
20
-4.10729528643971
30
0
41
1
10
44.691613792468
20
-4.0922594326018
30
0
41
1
10
44.6787441750476
20
-4.07682959720521
30
0
41
1
10
44.6662586425503
20
-4.0610040367694
30
0
41
1
10
44.6541693693353
20
-4.04478226000056
30
0
41
1
10
44.6424861393485
20
-4.02816290013457
30
0
41
1
10
44.6349781182769
20
-4.01681676632812
30
0
41
1
10
44.63129347402
20
-4.01107719980679
30
0
0
SPLINE
5
E7
100
AcDbEntity
8
1
62
256
6
ByLayer
370
18
48
1
60
0
100
AcDbSpline
70
4
71
2
72
6
73
3
40
0
40
0
40
0
40
1
40
1
40
1
41
0.50385794708953
10
51.3494658898626
20
-8.71276787359765
30
0
41
0.49614205291047
10
51.3082644758147
20
-8.8268635993516
30
0
41
0.50385794708953
10
51.3087936901652
20
-8.94814982461028
30
0
0
SPLINE
5
E8
100
AcDbEntity
8
1
62
256
6
ByLayer
370
18
48
1
60
0
100
AcDbSpline
70
4
71
3
72
19
73
15
40
0
40
0
40
0
40
0
40
0.023518354624327
40
0.110923694552321
40
0.198331974234714
40
0.285678428401695
40
0.374004953155126
40
0.462390228784874
40
0.550778124318076
40
0.639108224024101
40
0.729301370888022
40
0.819551416342644
40
0.909803741924499
40
1
40
1
40
1
40
1
41
1
10
51.4013727054394
20
-9.42992159967828
30
0
41
1
10
51.4013678701369
20
-9.4288838940455
30
0
41
1
10
51.4013203374474
20
-9.42399297763493
30
0
41
1
10
51.4010260253564
20
-9.41527226615932
30
0
41
1
10
51.4002047117577
20
-9.40381618276784
30
0
41
1
10
51.3989543914151
20
-9.39240591177794
30
0
41
1
10
51.3972746846919
20
-9.38105622213963
30
0
41
1
10
51.3951703011524
20
-9.36977989051162
30
0
41
1
10
51.3926569924374
20
-9.35863534229848
30
0
41
1
10
51.3897232279241
20
-9.34756128769549
30
0
41
1
10
51.3863659790647
20
-9.33657277156147
30
0
41
1
10
51.3825865745329
20
-9.32568382495484
30
0
41
1
10
51.3784184152596
20
-9.31498356473566
30
0
41
1
10
51.3753893650858
20
-9.30798765321893
30
0
41
1
10
51.3738120062583
20
-9.30452406827724
30
0
0
SPLINE
5
E9
100
AcDbEntity
8
1
62
256
6
ByLayer
370
18
48
1
60
0
100
AcDbSpline
70
4
71
3
72
156
73
152
40
0
40
0
40
0
40
0
40
0.0067751484118267
40
0.0135528868386696
40
0.0203314967747669
40
0.0271092473693154
40
0.0338844059902175
40
0.0406594019252727
40
0.0474369518617053
40
0.0542153728217086
40
0.0609929568456762
40
0.0677679813810659
40
0.0749031858808235
40
0.0820412980980174
40
0.0891804139438133
40
0.0963185873134126
40
0.10345384312322
40
0.110228156803593
40
0.117004878804173
40
0.123782434578537
40
0.130559212370072
40
0.137333572859524
40
0.144107499565371
40
0.150883755212759
40
0.157660816127829
40
0.164437123810938
40
0.171211094174681
40
0.178315151290353
40
0.185421816413309
40
0.192529377916857
40
0.199636090805645
40
0.206740187997709
40
0.213727670610968
40
0.22071758666956
40
0.227708327522755
40
0.234698266274533
40
0.24168576792742
40
0.248673166008956
40
0.255662985348397
40
0.262653611615262
40
0.2696434274527
40
0.276630822596055
40
0.283957654450265
40
0.291287310613222
40
0.298617890665948
40
0.305947509380726
40
0.313274309814691
40
0.319995112554688
40
0.326717396572131
40
0.333439664679511
40
0.340160445719178
40
0.346881432734597
40
0.353603939790973
40
0.360326426956334
40
0.367047386841493
40
0.373768590816161
40
0.380491360518558
40
0.38721410842379
40
0.39393528266811
40
0.399724021813358
40
0.405514314475984
40
0.411305108582184
40
0.417095368650427
40
0.422884080451126
40
0.42937267548768
40
0.435862763040202
40
0.442352835539491
40
0.448841410044179
40
0.455330140155497
40
0.461820391338673
40
0.468310632617472
40
0.474799349219649
40
0.481288153985704
40
0.487778495676832
40
0.494268834037847
40
0.500757634261763
40
0.507759503075551
40
0.51476330379974
40
0.521767109960754
40
0.528768986190441
40
0.535391475575301
40
0.542016379882031
40
0.548642109239244
40
0.555267048636916
40
0.561889567463634
40
0.568511754752969
40
0.57513629099376
40
0.581761639164264
40
0.58838622741754
40
0.595008458345752
40
0.601962899713903
40
0.608919964586171
40
0.615877943022759
40
0.622835078451435
40
0.629789579018299
40
0.63652734450502
40
0.643267407620393
40
0.650008267899509
40
0.656748387480576
40
0.663486200341803
40
0.6702236078808
40
0.676963241937376
40
0.683703641510756
40
0.690443317083341
40
0.697180759453739
40
0.704233025971207
40
0.711287794759906
40
0.718343412363714
40
0.725398205706267
40
0.732450492824602
40
0.739533517055082
40
0.746619063456144
40
0.753705450319767
40
0.760790992804648
40
0.767874013749419
40
0.774957147079972
40
0.782042830657668
40
0.789129349778874
40
0.796215002309071
40
0.803298109590418
40
0.809496909698275
40
0.815698052576577
40
0.821900347714494
40
0.828102616843384
40
0.834303699689536
40
0.840502459760899
40
0.847190786403467
40
0.853880618750912
40
0.860570432941409
40
0.867258734818915
40
0.873947254643825
40
0.880637320871899
40
0.887327368271703
40
0.89401586241575
40
0.900704573535015
40
0.907394871396195
40
0.914085151779818
40
0.920773839060385
40
0.926543487046617
40
0.932314701809784
40
0.938086428112466
40
0.943857621072827
40
0.949627250767873
40
0.956458606566031
40
0.963292607536393
40
0.970127479350424
40
0.976961456206273
40
0.98379279177153
40
0.990624246293936
40
0.997458361416776
40
1
40
1
40
1
40
1
41
1
10
1.8
20
3.97914284413115
30
0
41
1
10
1.80000026301254
20
3.98414999105518
30
0
41
1
10
1.80023055469098
20
3.99409558736395
30
0
41
1
10
1.80126645415434
20
4.00880665904797
30
0
41
1
10
1.80299040560856
20
4.02330166213928
30
0
41
1
10
1.8054010790902
20
4.0375709156679
30
0
41
1
10
1.80849748127087
20
4.05160675053582
30
0
41
1
10
1.81228009227243
20
4.06540453800938
30
0
41
1
10
1.81674503716465
20
4.07896239235205
30
0
41
1
10
1.8218885614784
20
4.09227539710258
30
0
41
1
10
1.8277060890114
20
4.10533568047973
30
0
41
1
10
1.83430935407061
20
4.11836489771616
30
0
41
1
10
1.84173967165736
20
4.13134410577279
30
0
41
1
10
1.85003402343074
20
4.14425625231342
30
0
41
1
10
1.85905847468232
20
4.15687605577296
30
0
41
1
10
1.86880453821046
20
4.16919738150541
30
0
41
1
10
1.87908985675314
20
4.18101416807682
30
0
41
1
10
1.88986963506067
20
4.19234287590325
30
0
41
1
10
1.90109741491555
20
4.20320303802802
30
0
41
1
10
1.91295403674684
20
4.2137916217881
30
0
41
1
10
1.92543012166656
20
4.22410586273201
30
0
41
1
10
1.93851869143213
20
4.23414473731687
30
0
41
1
10
1.95221610694726
20
4.24390926226134
30
0
41
1
10
1.96651586132713
20
4.25340281386468
30
0
41
1
10
1.98140995493433
20
4.26262669545592
30
0
41
1
10
1.99688750170312
20
4.27158021352614
30
0
41
1
10
2.0132014340617
20
4.28040535798195
30
0
41
1
10
2.03038094734191
20
4.28908931258162
30
0
41
1
10
2.04845175046081
20
4.29762127414794
30
0
41
1
10
2.06713323638618
20
4.30586757329346
30
0
41
1
10
2.08641149683496
20
4.31382938344832
30
0
41
1
10
2.10616808438916
20
4.32146739981438
30
0
41
1
10
2.12638656947961
20
4.32879098678287
30
0
41
1
10
2.14704881363292
20
4.3358111891826
30
0
41
1
10
2.16825622006543
20
4.34257239624158
30
0
41
1
10
2.18999448065868
20
4.34907714809732
30
0
41
1
10
2.21225351183075
20
4.35532912131403
30
0
41
1
10
2.23502814931583
20
4.36133309370923
30
0
41
1
10
2.25831113218684
20
4.36709518823086
30
0
41
1
10
2.28209152186982
20
4.37262001698238
30
0
41
1
10
2.30635391118026
20
4.37791105004072
30
0
41
1
10
2.33148802401661
20
4.3830546420699
30
0
41
1
10
2.35751583045649
20
4.38804324071113
30
0
41
1
10
2.38445548348415
20
4.3928706966933
30
0
41
1
10
2.41188506663105
20
4.3974644313379
30
0
41
1
10
2.43978511390362
20
4.40182904022137
30
0
41
1
10
2.46736062423916
20
4.40585578186245
30
0
41
1
10
2.49455991418674
20
4.40957113479368
30
0
41
1
10
2.52133489442878
20
4.41300016870576
30
0
41
1
10
2.54846667392431
20
4.41625541123441
30
0
41
1
10
2.57594307207
20
4.419340989028
30
0
41
1
10
2.60375591205915
20
4.42226133203474
30
0
41
1
10
2.63189553266937
20
4.42502101876427
30
0
41
1
10
2.66034801079332
20
4.42762397715294
30
0
41
1
10
2.68910007150047
20
4.43007411171743
30
0
41
1
10
2.71814260998983
20
4.43237557407305
30
0
41
1
10
2.74746504668782
20
4.43453245231585
30
0
41
1
10
2.77705209313658
20
4.4365482790176
30
0
41
1
10
2.80550924474349
20
4.43833969444174
30
0
41
1
10
2.83278873512085
20
4.43993118295051
30
0
41
1
10
2.85885017389844
20
4.44134457369472
30
0
41
1
10
2.88507379475037
20
4.44266289037753
30
0
41
1
10
2.91144610445029
20
4.44388785763316
30
0
41
1
10
2.93902574700452
20
4.44506703060399
30
0
41
1
10
2.96782655666923
20
4.44618935127675
30
0
41
1
10
2.99785750146359
20
4.44724339079136
30
0
41
1
10
3.02802886614718
20
4.44818928918531
30
0
41
1
10
3.05832508754793
20
4.44902898951027
30
0
41
1
10
3.08873503198107
20
4.44976448820444
30
0
41
1
10
3.11924679560317
20
4.45039724829092
30
0
41
1
10
3.14984359950885
20
4.45092850196081
30
0
41
1
10
3.18050901749747
20
4.45135944309932
30
0
41
1
10
3.21123122832063
20
4.45169125501258
30
0
41
1
10
3.24199800503074
20
4.45192450492793
30
0
41
1
10
3.27279225762813
20
4.45205961081625
30
0
41
1
10
3.30440879793652
20
4.45209792655964
30
0
41
1
10
3.3368361134139
20
4.45203057109287
30
0
41
1
10
3.37005787355108
20
4.45184759540638
30
0
41
1
10
3.40324102872459
20
4.45155011202541
30
0
41
1
10
3.43576614806999
20
4.4511449315491
30
0
41
1
10
3.46762314059196
20
4.45063846106149
30
0
41
1
10
3.49880598385301
20
4.4500362896577
30
0
41
1
10
3.52989534176284
20
4.44932741608296
30
0
41
1
10
3.56086879542354
20
4.44851043150573
30
0
41
1
10
3.59170970100018
20
4.44758376662459
30
0
41
1
10
3.62240795938536
20
4.44654547388506
30
0
41
1
10
3.65295467578001
20
4.4453929475442
30
0
41
1
10
3.68333534166934
20
4.44412370168177
30
0
41
1
10
3.71352901012952
20
4.44273544615258
30
0
41
1
10
3.74402215166939
20
4.44120037167004
30
0
41
1
10
3.77479355655103
20
4.43950796458547
30
0
41
1
10
3.80582076750023
20
4.43764666390703
30
0
41
1
10
3.8365903215185
20
4.43564009196288
30
0
41
1
10
3.86708013583436
20
4.43348481670216
30
0
41
1
10
3.89696095487125
20
4.43120091332901
30
0
41
1
10
3.9262337488317
20
4.42878942596824
30
0
41
1
10
3.95490295634045
20
4.42625155596978
30
0
41
1
10
3.9832664040623
20
4.42355775914167
30
0
41
1
10
4.01130609350243
20
4.42070448037098
30
0
41
1
10
4.03900877241066
20
4.41768767496852
30
0
41
1
10
4.06636670341811
20
4.4145024102271
30
0
41
1
10
4.09337401831459
20
4.41114397141667
30
0
41
1
10
4.12001998258957
20
4.4076080727513
30
0
41
1
10
4.14628839528157
20
4.4038910327139
30
0
41
1
10
4.1725708796381
20
4.39992771160626
30
0
41
1
10
4.19883897686252
20
4.395702079133
30
0
41
1
10
4.22506384227059
20
4.39119792008956
30
0
41
1
10
4.25083708822589
20
4.38647426250618
30
0
41
1
10
4.27614182438123
20
4.38152710928738
30
0
41
1
10
4.30100213856078
20
4.37634396246184
30
0
41
1
10
4.3254079701339
20
4.37091723677149
30
0
41
1
10
4.34935121925463
20
4.36524037596624
30
0
41
1
10
4.3727856258365
20
4.35931681098716
30
0
41
1
10
4.39569545558061
20
4.35314314078375
30
0
41
1
10
4.41806950271516
20
4.34671471014689
30
0
41
1
10
4.43990020585197
20
4.34002520826287
30
0
41
1
10
4.46118225971082
20
4.33306986927264
30
0
41
1
10
4.48190535801363
20
4.32584514749877
30
0
41
1
10
4.50205487966051
20
4.31834875909635
30
0
41
1
10
4.52080606523288
20
4.31090032205962
30
0
41
1
10
4.53823395203781
20
4.30353368169857
30
0
41
1
10
4.55441512227515
20
4.29628298654304
30
0
41
1
10
4.57013479084163
20
4.28881220459533
30
0
41
1
10
4.58538397063991
20
4.28112092004219
30
0
41
1
10
4.60015371857604
20
4.27320875645714
30
0
41
1
10
4.61481354425943
20
4.26485962507198
30
0
41
1
10
4.6293129780078
20
4.25604917697504
30
0
41
1
10
4.64360020370207
20
4.24675395712493
30
0
41
1
10
4.65730462196956
20
4.23719395377891
30
0
41
1
10
4.67041819058877
20
4.22736876820955
30
0
41
1
10
4.68293404561383
20
4.21727634446148
30
0
41
1
10
4.69484756905609
20
4.20691646499166
30
0
41
1
10
4.70615163385229
20
4.19629042059117
30
0
41
1
10
4.71683903326889
20
4.18539919463358
30
0
41
1
10
4.72690344974927
20
4.17424196123412
30
0
41
1
10
4.7363411372299
20
4.16281990473676
30
0
41
1
10
4.74514616139417
20
4.15113593370706
30
0
41
1
10
4.75293844201762
20
4.13973969461218
30
0
41
1
10
4.75981149339904
20
4.12867169508845
30
0
41
1
10
4.7658572635496
20
4.11797027182343
30
0
41
1
10
4.77141974586044
20
4.10708011365865
30
0
41
1
10
4.77649538129052
20
4.09600539241416
30
0
41
1
10
4.78136268980179
20
4.08405832922755
30
0
41
1
10
4.78590773760486
20
4.07119755052529
30
0
41
1
10
4.79000984294078
20
4.05738347619591
30
0
41
1
10
4.79341872854375
20
4.04332517908367
30
0
41
1
10
4.79613129630928
20
4.0290321152171
30
0
41
1
10
4.79814457480571
20
4.01451034170522
30
0
41
1
10
4.79945649476315
20
3.99976352733488
30
0
41
1
10
4.79993713540717
20
3.9879297031276
30
0
41
1
10
4.79999920103082
20
3.98102070535808
30
0
41
1
10
4.79999999999998
20
3.97914295255988
30
0
0
SPLINE
5
EA
100
AcDbEntity
8
1
62
256
6
ByLayer
370
18
48
1
60
0
100
AcDbSpline
70
4
71
3
72
33
73
29
40
0
40
0
40
0
40
0
40
0.0400328624716596
40
0.0800969221731683
40
0.120159550965146
40
0.160190460663215
40
0.201318533046899
40
0.242484289277761
40
0.283648008939599
40
0.324773301613968
40
0.36492443202852
40
0.405115066878624
40
0.445303518090718
40
0.485451667857704
40
0.527016731085386
40
0.568631240463511
40
0.610243058123191
40
0.651804446415644
40
0.688180373016629
40
0.724593125928003
40
0.761004392735089
40
0.797378290763487
40
0.835050075378002
40
0.872766147845881
40
0.910480896889172
40
0.948150874700547
40
0.987121471729827
40
1
40
1
40
1
40
1
41
1
10
51.7024576559901
20
-8.39443239330656
30
0
41
1
10
51.7062150511246
20
-8.39277601511046
30
0
41
1
10
51.7136645725786
20
-8.38929416283098
30
0
41
1
10
51.7246448465541
20
-8.38356517234421
30
0
41
1
10
51.7354014379503
20
-8.37733627581464
30
0
41
1
10
51.7460081169245
20
-8.37055027909526
30
0
41
1
10
51.756435728651
20
-8.36319061187401
30
0
41
1
10
51.7666554089671
20
-8.35524857142638
30
0
41
1
10
51.7765463906471
20
-8.34680086560357
30
0
41
1
10
51.7860048781954
20
-8.33792837988487
30
0
41
1
10
51.7950161320138
20
-8.32864826059848
30
0
41
1
10
51.803571757351
20
-8.31898535473139
30
0
41
1
10
51.8117179531983
20
-8.30888177957332
30
0
41
1
10
51.819517946368
20
-8.29823031100614
30
0
41
1
10
51.8269274586671
20
-8.2870211871602
30
0
41
1
10
51.8339068237222
20
-8.2752573144577
30
0
41
1
10
51.8403439764821
20
-8.26309529079911
30
0
41
1
10
51.8459658715202
20
-8.25108363860041
30
0
41
1
10
51.8508281792851
20
-8.23929207595869
30
0
41
1
10
51.8550015838709
20
-8.22778371320231
30
0
41
1
10
51.8586916153421
20
-8.21604896787136
30
0
41
1
10
51.8619203931512
20
-8.20397130136844
30
0
41
1
10
51.864649635794
20
-8.19155945595416
30
0
41
1
10
51.8668515043391
20
-8.17883124742122
30
0
41
1
10
51.8684834870211
20
-8.16596443110302
30
0
41
1
10
51.8695510066505
20
-8.15284496473927
30
0
41
1
10
51.869897941631
20
-8.14250867975638
30
0
41
1
10
51.869924260943
20
-8.13651040719376
30
0
41
1
10
51.869919577912
20
-8.13501943554865
30
0
0
SPLINE
5
EB
100
AcDbEntity
8
1
62
256
6
ByLayer
370
18
48
1
60
0
100
AcDbSpline
70
4
71
3
72
158
73
154
40
0
40
0
40
0
40
0
40
0.0042934714815871
40
0.0111275828010444
40
0.0179590334162615
40
0.0239622087148288
40
0.0299677672311866
40
0.0359745311838741
40
0.0419813080917641
40
0.0479868965107014
40
0.053990091752252
40
0.0606347098022261
40
0.0672817051647401
40
0.0739295159862965
40
0.0805765521132848
40
0.0872212043650673
40
0.0938655033708635
40
0.100512111723842
40
0.107159517762424
40
0.113806176251268
40
0.120450517321142
40
0.127421485795251
40
0.13439503316054
40
0.1413694744565
40
0.148343083485453
40
0.155314103696644
40
0.162139013672177
40
0.168966266842876
40
0.175794327870391
40
0.182621628924837
40
0.189446579074745
40
0.196271196446611
40
0.203098099754667
40
0.209925783111626
40
0.216752717839858
40
0.223577361572966
40
0.230724562824271
40
0.237874356846181
40
0.245025022831499
40
0.252174827902914
40
0.259322038424909
40
0.26599854426449
40
0.27267645986811
40
0.279354371318631
40
0.286030871493697
40
0.29270744724235
40
0.299385447381339
40
0.30606343738547
40
0.31273999931091
40
0.319416704375863
40
0.326094860990156
40
0.332773002216135
40
0.339449686292453
40
0.346607643985591
40
0.353767438109423
40
0.360927206628237
40
0.368085129396459
40
0.374734903237211
40
0.381386194966072
40
0.388037465788199
40
0.394687211113246
40
0.401337201035477
40
0.407988754392257
40
0.414640287564612
40
0.421290249956142
40
0.427940436837088
40
0.434592228716248
40
0.441244003764497
40
0.44789416768865
40
0.453637589623049
40
0.459382597048104
40
0.465128124824599
40
0.470873115301115
40
0.47661652301669
40
0.483355621547177
40
0.490097305513273
40
0.496839849971786
40
0.50358152809241
40
0.510320621718365
40
0.517059673705915
40
0.523801295513431
40
0.530543788160657
40
0.537285433660896
40
0.544024505527345
40
0.549941191672168
40
0.555860139289118
40
0.561780240547526
40
0.567700365704734
40
0.573619368483364
40
0.579536091416753
40
0.586160229721147
40
0.592786676497549
40
0.599413924150925
40
0.606040427626952
40
0.612664613502475
40
0.619288346418138
40
0.625914303846463
40
0.63254103413917
40
0.639167048343169
40
0.645790828893164
40
0.652729921185561
40
0.659671482389814
40
0.666613897984635
40
0.673555515518638
40
0.680494655072181
40
0.68740929605939
40
0.694326315208645
40
0.701244147040229
40
0.708161200957408
40
0.715075871114852
40
0.721990339412725
40
0.72890715516787
40
0.73582476011878
40
0.742741585564315
40
0.749656061992371
40
0.756900400107364
40
0.76414744648688
40
0.771395387332614
40
0.778642414144942
40
0.785886735842613
40
0.792604733358014
40
0.799324189030844
40
0.806043633133658
40
0.812761614868335
40
0.819479752335082
40
0.826199377370704
40
0.832918986614729
40
0.839637102542704
40
0.846355417145019
40
0.853075256595194
40
0.859795077612078
40
0.86651336707237
40
0.872290519038758
40
0.878069171625862
40
0.883848309594973
40
0.889626932663778
40
0.895404059866461
40
0.90225279571153
40
0.909104107277327
40
0.915956251508069
40
0.922807510541689
40
0.929656202310971
40
0.936505267631774
40
0.943356973758016
40
0.950209542486911
40
0.957061211616718
40
0.963910245896304
40
0.969923197878431
40
0.975938565944497
40
0.981955139263621
40
0.987971705851309
40
0.993987058380169
40
1
40
1
40
1
40
1
41
1
10
4.79999999999998
20
3.97914295255988
30
0
41
1
10
4.79999907987586
20
3.97596963245192
30
0
41
1
10
4.79987774886234
20
3.96771147634291
30
0
41
1
10
4.79918650851094
20
3.9542406807874
30
0
41
1
10
4.79775564604301
20
3.9393015727392
30
0
41
1
10
4.79577925414659
20
3.92483147117334
30
0
41
1
10
4.79334953783202
20
3.91085805207557
30
0
41
1
10
4.79038168383561
20
3.89675193036978
30
0
41
1
10
4.78687794229332
20
3.88252250551053
30
0
41
1
10
4.7828406345863
20
3.86817920170546
30
0
41
1
10
4.77810835020661
20
3.85321394466822
30
0
41
1
10
4.77261286086303
20
3.83761697637609
30
0
41
1
10
4.76628742369154
20
3.82138260779311
30
0
41
1
10
4.75931933491503
20
3.80504020075674
30
0
41
1
10
4.75171443788968
20
3.7886038780103
30
0
41
1
10
4.74347700284108
20
3.77208469045253
30
0
41
1
10
4.7346090026939
20
3.75549014993384
30
0
41
1
10
4.72511580822476
20
3.73882896586926
30
0
41
1
10
4.71500350782847
20
3.72211255507859
30
0
41
1
10
4.70428005377014
20
3.7053557924908
30
0
41
1
10
4.69276557053251
20
3.68829524962733
30
0
41
1
10
4.68042766792085
20
3.67093775980708
30
0
41
1
10
4.66723762165596
20
3.65329302554218
30
0
41
1
10
4.65339974238363
20
3.63565042454767
30
0
41
1
10
4.63892516516252
20
3.61802757274126
30
0
41
1
10
4.62392731315257
20
3.60056124003284
30
0
41
1
10
4.60842581645349
20
3.58326097168349
30
0
41
1
10
4.59244233798838
20
3.56613568772792
30
0
41
1
10
4.57587592948738
20
3.54907617294169
30
0
41
1
10
4.55873839580581
20
3.53209901838973
30
0
41
1
10
4.54103837436757
20
3.51521780378263
30
0
41
1
10
4.52278037858497
20
3.49844280942985
30
0
41
1
10
4.50397117916887
20
3.48178424644684
30
0
41
1
10
4.4846199421527
20
3.46525518789372
30
0
41
1
10
4.46473949415036
20
3.44887208329885
30
0
41
1
10
4.44401750398528
20
3.43239275733937
30
0
41
1
10
4.42242938364313
20
3.41583703702856
30
0
41
1
10
4.39995385585188
20
3.39922667609516
30
0
41
1
10
4.3769320688471
20
3.38282966850688
30
0
41
1
10
4.35337993483291
20
3.366664597422
30
0
41
1
10
4.32983671887816
20
3.35109622442276
30
0
41
1
10
4.30634860954094
20
3.3361183014155
30
0
41
1
10
4.28295983957849
20
3.32172126844813
30
0
41
1
10
4.25914172812518
20
3.30757402930703
30
0
41
1
10
4.2349046889385
20
3.29368936388014
30
0
41
1
10
4.21025549452568
20
3.28007846258618
30
0
41
1
10
4.18520229136776
20
3.26675165151917
30
0
41
1
10
4.15975651878824
20
3.25372140262558
30
0
41
1
10
4.13392923185579
20
3.2410001984087
30
0
41
1
10
4.10772772503288
20
3.22859915885356
30
0
41
1
10
4.08116070230778
20
3.21652822200913
30
0
41
1
10
4.05424057924895
20
3.20479940101615
30
0
41
1
10
4.02632463076694
20
3.19315151796759
30
0
41
1
10
3.9973915942358
20
3.18162660060685
30
0
41
1
10
3.96742432363401
20
3.17026863861794
30
0
41
1
10
3.93710254592107
20
3.15935547398362
30
0
41
1
10
3.90716812630891
20
3.14914846703115
30
0
41
1
10
3.877659395051
20
3.13962228726523
30
0
41
1
10
3.84861168328006
20
3.13074767929374
30
0
41
1
10
3.81930659103697
20
3.12229787921953
30
0
41
1
10
3.78975825224569
20
3.11428281939199
30
0
41
1
10
3.75997655928609
20
3.1067118383709
30
0
41
1
10
3.7299727431815
20
3.09959171204343
30
0
41
1
10
3.69976291672518
20
3.09293076935116
30
0
41
1
10
3.66936252261393
20
3.08673742720072
30
0
41
1
10
3.63878252511661
20
3.08101974180431
30
0
41
1
10
3.60803503758537
20
3.07578270000443
30
0
41
1
10
3.57713732915728
20
3.07103260199826
30
0
41
1
10
3.54751648406231
20
3.06696933103713
30
0
41
1
10
3.51920339012905
20
3.06352299132592
30
0
41
1
10
3.49222167500647
20
3.06062341539353
30
0
41
1
10
3.46516671743824
20
3.0581005638073
30
0
41
1
10
3.43805326738256
20
3.05595726396885
30
0
41
1
10
3.40932266975593
20
3.05409416930182
30
0
41
1
10
3.37897075898676
20
3.05259584561283
30
0
41
1
10
3.34700113089157
20
3.05154986042678
30
0
41
1
10
3.31500340380566
20
3.05103415412793
30
0
41
1
10
3.28300209483352
20
3.05104955625775
30
0
41
1
10
3.25101496132002
20
3.05159697991914
30
0
41
1
10
3.21905306649206
20
3.05267804676184
30
0
41
1
10
3.18712723091471
20
3.05428927665517
30
0
41
1
10
3.15525485241177
20
3.05642762359355
30
0
41
1
10
3.12346014174891
20
3.05908980450043
30
0
41
1
10
3.09304973565833
20
3.06214373899542
30
0
41
1
10
3.06402076516209
20
3.06551661981622
30
0
41
1
10
3.03636373541822
20
3.06913699179956
30
0
41
1
10
3.00880377164278
20
3.07314997265809
30
0
41
1
10
2.98135638840202
20
3.0775507707714
30
0
41
1
10
2.95403709683283
20
3.08233456563653
30
0
41
1
10
2.92577310021838
20
3.08770336960849
30
0
41
1
10
2.89658987083565
20
3.09370886541793
30
0
41
1
10
2.86651778497879
20
3.10039987158506
30
0
41
1
10
2.83664813656799
20
3.10754638055322
30
0
41
1
10
2.8070009510962
20
3.1151387040338
30
0
41
1
10
2.77759113031987
20
3.12316864374991
30
0
41
1
10
2.74842745062189
20
3.13162994310299
30
0
41
1
10
2.71951699453054
20
3.14051337381069
30
0
41
1
10
2.6908718770361
20
3.14980901833779
30
0
41
1
10
2.66251018405361
20
3.15950516152479
30
0
41
1
10
2.63399943146548
20
3.16975207173111
30
0
41
1
10
2.60536403851147
20
3.18056393088952
30
0
41
1
10
2.57662903436532
20
3.1919512007422
30
0
41
1
10
2.54824776849411
20
3.20373472271917
30
0
41
1
10
2.52023891654899
20
3.21589941321876
30
0
41
1
10
2.49264812388822
20
3.22841802164703
30
0
41
1
10
2.46548187703368
20
3.24127921570927
30
0
41
1
10
2.43874445118722
20
3.25446996399024
30
0
41
1
10
2.41241536635777
20
3.26799198930771
30
0
41
1
10
2.38651127415265
20
3.28182936445336
30
0
41
1
10
2.36104418522407
20
3.29596879992625
30
0
41
1
10
2.33602142992071
20
3.31039999302698
30
0
41
1
10
2.31144836488985
20
3.32511141969308
30
0
41
1
10
2.28733530452791
20
3.34008944103822
30
0
41
1
10
2.26369748498206
20
3.35531753782649
30
0
41
1
10
2.24017766936607
20
3.37102800549882
30
0
41
1
10
2.21681032287606
20
3.38722340494038
30
0
41
1
10
2.19363016303942
20
3.40390343654239
30
0
41
1
10
2.17100851029
20
3.42080254874722
30
0
41
1
10
2.14896156821158
20
3.43790127546412
30
0
41
1
10
2.12802085902279
20
3.45476530776204
30
0
41
1
10
2.10814609640218
20
3.47136699557965
30
0
41
1
10
2.08929380808339
20
3.48768242372839
30
0
41
1
10
2.0709675960573
20
3.50412072982391
30
0
41
1
10
2.05317680978684
20
3.52066870257352
30
0
41
1
10
2.03592893200918
20
3.53731540459723
30
0
41
1
10
2.01922972140941
20
3.55404986620892
30
0
41
1
10
2.0030880234642
20
3.5708586349258
30
0
41
1
10
1.98751269844343
20
3.58772852729809
30
0
41
1
10
1.97251103826197
20
3.60464864164638
30
0
41
1
10
1.95808836800136
20
3.62160828108764
30
0
41
1
10
1.94425287900087
20
3.63859406538839
30
0
41
1
10
1.93163105209754
20
3.65479909751546
30
0
41
1
10
1.92013557456271
20
3.67021202604786
30
0
41
1
10
1.90968003022124
20
3.68482704311588
30
0
41
1
10
1.89967654924773
20
3.69943011775041
30
0
41
1
10
1.89013091221357
20
3.71401134294231
30
0
41
1
10
1.88048594714112
20
3.72946249385542
30
0
41
1
10
1.87085113444181
20
3.74577058237347
30
0
41
1
10
1.86134439493528
20
3.7629169915106
30
0
41
1
10
1.85250114252625
20
3.7799922764145
30
0
41
1
10
1.84432904378892
20
3.79698047348582
30
0
41
1
10
1.83683401301586
20
3.81386943946189
30
0
41
1
10
1.83002151310815
20
3.83064996471918
30
0
41
1
10
1.8238929059238
20
3.84731447872016
30
0
41
1
10
1.81845175106615
20
3.86385153235273
30
0
41
1
10
1.81370301013149
20
3.88024631701287
30
0
41
1
10
1.80981556572703
20
3.89582676949706
30
0
41
1
10
1.80669745818008
20
3.91060652028707
30
0
41
1
10
1.80425710001045
20
3.92460382718483
30
0
41
1
10
1.80235690528639
20
3.93846736269363
30
0
41
1
10
1.80099810872171
20
3.95218815228437
30
0
41
1
10
1.80018168762448
20
3.96575806656458
30
0
41
1
10
1.8000002029485
20
3.97469893917147
30
0
41
1
10
1.79999999999999
20
3.97914284413115
30
0
0
SPLINE
5
EC
100
AcDbEntity
8
1
62
256
6
ByLayer
370
18
48
1
60
0
100
AcDbSpline
70
4
71
2
72
6
73
3
40
0
40
0
40
0
40
1
40
1
40
1
41
0.50059616150477
10
49.3496292973508
20
-9.14411678248765
30
0
41
0.49940383849523
10
49.2914663358576
20
-9.08439945067013
30
0
41
0.50059616150477
10
49.2420869406064
20
-9.01725645638486
30
0
0
SPLINE
5
ED
100
AcDbEntity
8
1
62
256
6
ByLayer
370
18
48
1
60
0
100
AcDbSpline
70
4
71
3
72
11
73
7
40
0
40
0
40
0
40
0
40
0.18269426585625
40
0.455436416567175
40
0.727989460565444
40
1
40
1
40
1
40
1
41
1
10
48.5597492214604
20
-8.62203209259029
30
0
41
1
10
48.5597666427412
20
-8.6250895189211
30
0
41
1
10
48.5599267448247
20
-8.63270636987423
30
0
41
1
10
48.560642334652
20
-8.64487363882663
30
0
41
1
10
48.5620824028415
20
-8.65848019395335
30
0
41
1
10
48.5634659894866
20
-8.66747788637404
30
0
41
1
10
48.5642628668155
20
-8.67195794186158
30
0
0
SPLINE
5
EE
100
AcDbEntity
8
1
62
256
6
ByLayer
370
18
48
1
60
0
100
AcDbSpline
70
4
71
3
72
33
73
29
40
0
40
0
40
0
40
0
40
0.0343891243264946
40
0.068795454388683
40
0.103202643002984
40
0.137592938662783
40
0.171972232653343
40
0.20636666134865
40
0.240762102839614
40
0.27514277851573
40
0.311644254722449
40
0.34816116800242
40
0.384679287971382
40
0.421182410349083
40
0.462839216931366
40
0.504523277567835
40
0.546218812782541
40
0.587907324195632
40
0.629567866161536
40
0.672106947970686
40
0.714669481051554
40
0.757241507596407
40
0.799807163441483
40
0.842348865802488
40
0.881717930886683
40
0.921087099820999
40
0.960543507103208
40
1
40
1
40
1
40
1
41
1
10
49.2423503847148
20
-9.07763301542444
30
0
41
1
10
49.2382548496862
20
-9.0738807881393
30
0
41
1
10
49.2299844376331
20
-9.06649229753976
30
0
41
1
10
49.2173387978704
20
-9.05575923852378
30
0
41
1
10
49.2044748459858
20
-9.04538570297545
30
0
41
1
10
49.1914082579692
20
-9.0353804514928
30
0
41
1
10
49.1781508680685
20
-9.02574880041955
30
0
41
1
10
49.1647148043557
20
-9.01649079984971
30
0
41
1
10
49.15111384515
20
-9.00760912314575
30
0
41
1
10
49.1370797526538
20
-8.99893259282037
30
0
41
1
10
49.1226118661316
20
-8.99049021741659
30
0
41
1
10
49.1077120698036
20
-8.98230814136154
30
0
41
1
10
49.0926812658887
20
-8.97455331632219
30
0
41
1
10
49.076821262507
20
-8.96688109481518
30
0
41
1
10
49.0601210107387
20
-8.95936224119593
30
0
41
1
10
49.0425746779898
20
-8.95206765192145
30
0
41
1
10
49.0249169142214
20
-8.94531638013114
30
0
41
1
10
49.007169869108
20
-8.93910672211222
30
0
41
1
10
48.9892231445308
20
-8.93339497473331
30
0
41
1
10
48.9710828357446
20
-8.9281887075473
30
0
41
1
10
48.9527551355798
20
-8.92349258443051
30
0
41
1
10
48.934378791245
20
-8.91933721373155
30
0
41
1
10
48.9159719400487
20
-8.91571832566354
30
0
41
1
10
48.8980043271501
20
-8.91270761040002
30
0
41
1
10
48.8804863104453
20
-8.91025488306565
30
0
41
1
10
48.8634110813536
20
-8.90830968097259
30
0
41
1
10
48.8463270891053
20
-8.90680558519822
30
0
41
1
10
48.8349388280343
20
-8.9060938620983
30
0
41
1
10
48.8292464851308
20
-8.90581125611887
30
0
0
SPLINE
5
EF
100
AcDbEntity
8
1
62
256
6
ByLayer
370
18
48
1
60
0
100
AcDbSpline
70
4
71
3
72
36
73
32
40
0
40
0
40
0
40
0
40
0.0350163753311957
40
0.0700600385354739
40
0.105102450140312
40
0.140117117403821
40
0.176091460625325
40
0.212098765482672
40
0.248104288978204
40
0.28407620082225
40
0.319196063779027
40
0.354350480940646
40
0.389502988091839
40
0.42462024390036
40
0.460976862274812
40
0.497376730791588
40
0.533774244883538
40
0.570127648821236
40
0.601945371610627
40
0.633795306071525
40
0.6656439406485
40
0.697459889061109
40
0.730411088254239
40
0.763401025671759
40
0.796389805499466
40
0.829339424295097
40
0.863426724966421
40
0.897582249236343
40
0.931759958422535
40
0.965913970311476
40
1
40
1
40
1
40
1
41
1
10
49.4860250681768
20
-7.07763157839987
30
0
41
1
10
49.4826063765444
20
-7.0753892609444
30
0
41
1
10
49.4756569090666
20
-7.07104325819901
30
0
41
1
10
49.4648965029111
20
-7.0649380226572
30
0
41
1
10
49.453820825413
20
-7.05926801852956
30
0
41
1
10
49.4423412476069
20
-7.0540018742488
30
0
41
1
10
49.4304586380179
20
-7.04917209323004
30
0
41
1
10
49.4181804994026
20
-7.04480703039899
30
0
41
1
10
49.4056368807359
20
-7.04096723121451
30
0
41
1
10
49.3929525056101
20
-7.03769720743962
30
0
41
1
10
49.3801498548352
20
-7.03500066789352
30
0
41
1
10
49.3672547478326
20
-7.03287222146919
30
0
41
1
10
49.3541924406924
20
-7.03130355495834
30
0
41
1
10
49.3408363707236
20
-7.03029738548607
30
0
41
1
10
49.3272011822336
20
-7.02989535809017
30
0
41
1
10
49.3133100823749
20
-7.03012892611899
30
0
41
1
10
49.2993578864204
20
-7.03101103875656
30
0
41
1
10
49.2859646146344
20
-7.03248797573816
30
0
41
1
10
49.2731614756914
20
-7.03447871759585
30
0
41
1
10
49.2609661183174
20
-7.03689312265634
30
0
41
1
10
49.248827560254
20
-7.03982117546838
30
0
41
1
10
49.2366327847971
20
-7.04330411487434
30
0
41
1
10
49.2244093473202
20
-7.04736917655702
30
0
41
1
10
49.2121873431014
20
-7.05203064754217
30
0
41
1
10
49.200143224458
20
-7.05723234129709
30
0
41
1
10
49.188176121416
20
-7.06303144679926
30
0
41
1
10
49.1763222237727
20
-7.06945276708366
30
0
41
1
10
49.1646151964049
20
-7.07650228044778
30
0
41
1
10
49.1532217811664
20
-7.08408573006387
30
0
41
1
10
49.1421845727168
20
-7.09217683876748
30
0
41
1
10
49.1350942107489
20
-7.09789491684722
30
0
41
1
10
49.1316156957476
20
-7.10083388528725
30
0
0
SPLINE
5
F0
100
AcDbEntity
8
1
62
256
6
ByLayer
370
18
48
1
60
0
100
AcDbSpline
70
4
71
3
72
33
73
29
40
0
40
0
40
0
40
0
40
0.0400328624716602
40
0.0800969221731673
40
0.120159550965147
40
0.160190460663201
40
0.20131853304689
40
0.242484289277755
40
0.283648008939593
40
0.324773301613974
40
0.364924432028534
40
0.405115066878619
40
0.445303518090727
40
0.485451667857707
40
0.527016731085389
40
0.568631240463503
40
0.610243058123191
40
0.65180444641565
40
0.688180373016644
40
0.724593125928002
40
0.761004392735085
40
0.797378290763487
40
0.835050075378003
40
0.872766147845883
40
0.910480896889172
40
0.948150874700545
40
0.98712147172983
40
1
40
1
40
1
40
1
41
1
10
48.727162323563
20
-8.35143052742984
30
0
41
1
10
48.7234059120361
20
-8.35331233045403
30
0
41
1
10
48.7159583422616
20
-8.35724147189564
30
0
41
1
10
48.7049809489965
20
-8.36363066837408
30
0
41
1
10
48.6942271857606
20
-8.3705077273883
30
0
41
1
10
48.6836233031899
20
-8.37793460849416
30
0
41
1
10
48.6731984503432
20
-8.38592656039313
30
0
41
1
10
48.6629814859374
20
-8.39449103767919
30
0
41
1
10
48.6530931471285
20
-8.40354444108303
30
0
41
1
10
48.6436372035168
20
-8.41299995043873
30
0
41
1
10
48.6346283923603
20
-8.42283988303485
30
0
41
1
10
48.6260751075032
20
-8.43303918403656
30
0
41
1
10
48.6179311644051
20
-8.44365904801511
30
0
41
1
10
48.6101333561718
20
-8.45481126391885
30
0
41
1
10
48.602725952356
20
-8.46650361348795
30
0
41
1
10
48.5957486115906
20
-8.4787314162577
30
0
41
1
10
48.5893133691819
20
-8.49133125739899
30
0
41
1
10
48.5836931900913
20
-8.50373617329551
30
0
41
1
10
48.5788324159053
20
-8.5158792040831
30
0
41
1
10
48.5746603775758
20
-8.52770068776026
30
0
41
1
10
48.5709716112368
20
-8.53972537817959
30
0
41
1
10
48.5677440076832
20
-8.55207216250609
30
0
41
1
10
48.5650158405374
20
-8.56473049213174
30
0
41
1
10
48.5628149426599
20
-8.57768115987823
30
0
41
1
10
48.5611838104473
20
-8.59074288815012
30
0
41
1
10
48.5601170272946
20
-8.60403114151733
30
0
41
1
10
48.5597705652408
20
-8.61447581257569
30
0
41
1
10
48.5597444821561
20
-8.62052822416882
30
0
41
1
10
48.5597492214604
20
-8.62203209259029
30
0
0
SPLINE
5
F1
100
AcDbEntity
8
1
62
256
6
ByLayer
370
18
48
1
60
0
100
AcDbSpline
70
4
71
3
72
67
73
63
40
0
40
0
40
0
40
0
40
0.0174334664526176
40
0.0348719851024062
40
0.0523102463552681
40
0.069743361709418
40
0.0871800252711429
40
0.104622414458968
40
0.122064422874775
40
0.139500567029377
40
0.157680526484076
40
0.17586810425451
40
0.19405504026061
40
0.21223412420976
40
0.229410647230538
40
0.246599405136028
40
0.263791233018735
40
0.280978037929335
40
0.298152921802555
40
0.315787232553394
40
0.333438181037021
40
0.351093433127496
40
0.368741960517406
40
0.386374238779934
40
0.400672383532316
40
0.414977261181103
40
0.42928185983899
40
0.443579623968742
40
0.457879957075396
40
0.472187487755538
40
0.486494914578032
40
0.500795105989141
40
0.516052045161649
40
0.531317756435901
40
0.546583618406897
40
0.561840763192755
40
0.576965354128385
40
0.592101597346903
40
0.607242316448844
40
0.622379649352121
40
0.637505154926278
40
0.653015187570544
40
0.668535786946842
40
0.684060695128342
40
0.699582756579926
40
0.715094016325565
40
0.731694296755552
40
0.748301882134677
40
0.764910066985855
40
0.781511165232076
40
0.798105786069485
40
0.814706513302637
40
0.831307705494384
40
0.847902960596306
40
0.865364917245869
40
0.882832925127023
40
0.900301342280417
40
0.917763857219503
40
0.938318315277497
40
0.958881318294021
40
0.979444837609082
40
1
40
1
40
1
40
1
41
1
10
49.4860250681768
20
-7.07763157839987
30
0
41
1
10
49.4908441432579
20
-7.08079222172567
30
0
41
1
10
49.5005827547876
20
-7.08700087087335
30
0
41
1
10
49.5154903332023
20
-7.09597687568141
30
0
41
1
10
49.5306915465082
20
-7.10460534794194
30
0
41
1
10
49.5461824539697
20
-7.11287888744014
30
0
41
1
10
49.561960829982
20
-7.12078958023991
30
0
41
1
10
49.5780237919798
20
-7.12833044499613
30
0
41
1
10
49.5943638995773
20
-7.13549173342594
30
0
41
1
10
49.6112105459105
20
-7.14236007793126
30
0
41
1
10
49.6285747403171
20
-7.14890657524056
30
0
41
1
10
49.6464648516572
20
-7.15510170444479
30
0
41
1
10
49.6646308064478
20
-7.16084346240088
30
0
41
1
10
49.6827229953461
20
-7.16602288291811
30
0
41
1
10
49.700720706639
20
-7.1706580290219
30
0
41
1
10
49.7186025597011
20
-7.17477071276972
30
0
41
1
10
49.7366998905214
20
-7.1784400442769
30
0
41
1
10
49.754993254648
20
-7.18165433130053
30
0
41
1
10
49.7736338984147
20
-7.18442779885477
30
0
41
1
10
49.792622574052
20
-7.18673378214174
30
0
41
1
10
49.8119528125806
20
-7.18855040271889
30
0
41
1
10
49.8314367422622
20
-7.18984964867492
30
0
41
1
10
49.8510419448825
20
-7.19062203743478
30
0
41
1
10
49.8695038102007
20
-7.19084305279282
30
0
41
1
10
49.8867854695392
20
-7.1906171485087
30
0
41
1
10
49.9028635303439
20
-7.19004841309704
30
0
41
1
10
49.9189671163927
20
-7.18911869188894
30
0
41
1
10
49.9350797993845
20
-7.18782608108809
30
0
41
1
10
49.9511888028304
20
-7.18616741602891
30
0
41
1
10
49.9672806021563
20
-7.18414445749783
30
0
41
1
10
49.9833354435737
20
-7.18175917771652
30
0
41
1
10
49.9996910111273
20
-7.17895189299835
30
0
41
1
10
50.0163283843889
20
-7.17569355011414
30
0
41
1
10
50.0332251690117
20
-7.17196091293824
30
0
41
1
10
50.0500042569673
20
-7.16783020686355
30
0
41
1
10
50.0665955840193
20
-7.1633207830479
30
0
41
1
10
50.0829856613091
20
-7.15843940955353
30
0
41
1
10
50.0991652712364
20
-7.1531984709847
30
0
41
1
10
50.1151662264362
20
-7.14759347145671
30
0
41
1
10
50.1309660682257
20
-7.14163595641589
30
0
41
1
10
50.1466813561501
20
-7.13528107562148
30
0
41
1
10
50.1622966975149
20
-7.12852424809132
30
0
41
1
10
50.1778006638917
20
-7.12136563096979
30
0
41
1
10
50.1930522613451
20
-7.11387285291471
30
0
41
1
10
50.2080354086617
20
-7.10605980323701
30
0
41
1
10
50.2230839076911
20
-7.09774666569644
30
0
41
1
10
50.2381695883493
20
-7.08891552025298
30
0
41
1
10
50.2532657889565
20
-7.07955232514194
30
0
41
1
10
50.2680270391242
20
-7.06986776896722
30
0
41
1
10
50.2824438267587
20
-7.05987584318109
30
0
41
1
10
50.2965128213816
20
-7.04958592260946
30
0
41
1
10
50.310233513567
20
-7.03900817057156
30
0
41
1
10
50.3236032255086
20
-7.02815294199081
30
0
41
1
10
50.3368443231376
20
-7.01683774770398
30
0
41
1
10
50.3499339433304
20
-7.00505422212824
30
0
41
1
10
50.3628497596774
20
-6.99279596962455
30
0
41
1
10
50.3753687267946
20
-6.98027289021531
30
0
41
1
10
50.3882032912013
20
-6.96674223174252
30
0
41
1
10
50.401267476005
20
-6.95215703068945
30
0
41
1
10
50.4144684208018
20
-6.93647477331604
30
0
41
1
10
50.4271139058179
20
-6.92048050626125
30
0
41
1
10
50.4351720556513
20
-6.90962276240028
30
0
41
1
10
50.4391075444052
20
-6.90414510567778
30
0
0
SPLINE
5
F2
100
AcDbEntity
8
1
62
256
6
ByLayer
370
18
48
1
60
0
100
AcDbSpline
70
4
71
3
72
41
73
37
40
0
40
0
40
0
40
0
40
0.0285489142322631
40
0.0570978449591971
40
0.0845575062608983
40
0.112040831621645
40
0.13952445170792
40
0.166984515253662
40
0.195225317528972
40
0.223490897066691
40
0.251757076411999
40
0.279998697321208
40
0.307808022103145
40
0.33563958778979
40
0.363471884500447
40
0.391282206925777
40
0.419809088037909
40
0.448358142701166
40
0.476908086591502
40
0.505436181221584
40
0.53501163362477
40
0.564609589421336
40
0.594208560867245
40
0.623785399291911
40
0.654077655783884
40
0.6843917549996
40
0.714706874309725
40
0.745000522834004
40
0.776511334830239
40
0.808044328302148
40
0.83957834038747
40
0.871090542371554
40
0.903306632960013
40
0.935544222427915
40
0.967782698967365
40
1
40
1
40
1
40
1
41
1
10
50.7769563218441
20
-6.80133793528537
30
0
41
1
10
50.7733619065763
20
-6.80006069207726
30
0
41
1
10
50.7661308960097
20
-6.79764547883214
30
0
41
1
10
50.7552880591436
20
-6.79447776086184
30
0
41
1
10
50.744478964588
20
-6.79175624537962
30
0
41
1
10
50.7337252913432
20
-6.78946395082412
30
0
41
1
10
50.7229086207643
20
-6.78756742572702
30
0
41
1
10
50.7119475458688
20
-6.78605551009651
30
0
41
1
10
50.7008564656805
20
-6.78494494313275
30
0
41
1
10
50.6896518364901
20
-6.78424485832151
30
0
41
1
10
50.6784596476164
20
-6.7839629992164
30
0
41
1
10
50.6673593611098
20
-6.78409691529885
30
0
41
1
10
50.6563666118615
20
-6.78463849372317
30
0
41
1
10
50.6454943470129
20
-6.78557274308508
30
0
41
1
10
50.6347054558773
20
-6.78689602430987
30
0
41
1
10
50.6239274431202
20
-6.78861718949525
30
0
41
1
10
50.6131774880631
20
-6.7907438064443
30
0
41
1
10
50.6024716784089
20
-6.79327702955539
30
0
41
1
10
50.5919184166878
20
-6.79618879577069
30
0
41
1
10
50.5814081355507
20
-6.7995098350831
30
0
41
1
10
50.570960889341
20
-6.80324910263437
30
0
41
1
10
50.560595212935
20
-6.80740949280573
30
0
41
1
10
50.5504513775174
20
-6.81193296475176
30
0
41
1
10
50.5404649198479
20
-6.81684618591965
30
0
41
1
10
50.530653558299
20
-6.8221495737823
30
0
41
1
10
50.5210319961305
20
-6.82783866912726
30
0
41
1
10
50.5116904766165
20
-6.83385610230092
30
0
41
1
10
50.5025202166053
20
-6.84027206675787
30
0
41
1
10
50.4935438215343
20
-6.84709033738073
30
0
41
1
10
50.4847811940928
20
-6.85431007189676
30
0
41
1
10
50.4763591930111
20
-6.86182522209857
30
0
41
1
10
50.4682276751256
20
-6.86967737236169
30
0
41
1
10
50.4604026644222
20
-6.87786163145511
30
0
41
1
10
50.4528967102149
20
-6.88636957380818
30
0
41
1
10
50.4457735384058
20
-6.89512519679416
30
0
41
1
10
50.4412859375552
20
-6.90111314810021
30
0
41
1
10
50.4391075444052
20
-6.90414510567778
30
0
0
SPLINE
5
F3
100
AcDbEntity
8
1
62
256
6
ByLayer
370
18
48
1
60
0
100
AcDbSpline
70
4
71
3
72
156
73
152
40
0
40
0
40
0
40
0
40
0.0067751484118268
40
0.0135528868386699
40
0.0203314967747669
40
0.0271092473693157
40
0.0338844059902179
40
0.0406594019252727
40
0.0474369518617055
40
0.054215372821709
40
0.0609929568456765
40
0.0677679813810663
40
0.0749031858808236
40
0.0820412980980173
40
0.0891804139438137
40
0.0963185873134124
40
0.103453843123221
40
0.110228156803593
40
0.117004878804173
40
0.123782434578537
40
0.130559212370072
40
0.137333572859524
40
0.144107499565372
40
0.150883755212759
40
0.157660816127828
40
0.164437123810938
40
0.171211094174681
40
0.178315151290353
40
0.18542181641331
40
0.192529377916857
40
0.199636090805645
40
0.206740187997709
40
0.213727670610968
40
0.22071758666956
40
0.227708327522755
40
0.234698266274533
40
0.24168576792742
40
0.248673166008956
40
0.255662985348397
40
0.262653611615262
40
0.2696434274527
40
0.276630822596055
40
0.283957654450265
40
0.291287310613223
40
0.298617890665948
40
0.305947509380726
40
0.313274309814691
40
0.319995112554688
40
0.326717396572131
40
0.333439664679511
40
0.340160445719178
40
0.346881432734597
40
0.353603939790973
40
0.360326426956334
40
0.367047386841493
40
0.373768590816161
40
0.380491360518558
40
0.38721410842379
40
0.39393528266811
40
0.399724021813358
40
0.405514314475984
40
0.411305108582184
40
0.417095368650427
40
0.422884080451127
40
0.42937267548768
40
0.435862763040202
40
0.442352835539491
40
0.448841410044179
40
0.455330140155497
40
0.461820391338673
40
0.468310632617472
40
0.474799349219649
40
0.481288153985704
40
0.487778495676832
40
0.494268834037847
40
0.500757634261764
40
0.507759503075552
40
0.51476330379974
40
0.521767109960755
40
0.528768986190441
40
0.535391475575302
40
0.542016379882031
40
0.548642109239244
40
0.555267048636916
40
0.561889567463634
40
0.56851175475297
40
0.575136290993761
40
0.581761639164264
40
0.588386227417541
40
0.595008458345753
40
0.601962899713903
40
0.608919964586171
40
0.615877943022759
40
0.622835078451435
40
0.629789579018299
40
0.63652734450502
40
0.643267407620393
40
0.650008267899509
40
0.656748387480577
40
0.663486200341803
40
0.6702236078808
40
0.676963241937376
40
0.683703641510756
40
0.690443317083341
40
0.69718075945374
40
0.704233025971207
40
0.711287794759907
40
0.718343412363714
40
0.725398205706268
40
0.732450492824602
40
0.739533517055083
40
0.746619063456145
40
0.753705450319768
40
0.760790992804648
40
0.76787401374942
40
0.774957147079973
40
0.782042830657668
40
0.789129349778874
40
0.796215002309071
40
0.803298109590419
40
0.809496909698275
40
0.815698052576577
40
0.821900347714494
40
0.828102616843384
40
0.834303699689537
40
0.840502459760899
40
0.847190786403467
40
0.853880618750912
40
0.860570432941409
40
0.867258734818916
40
0.873947254643825
40
0.880637320871899
40
0.887327368271703
40
0.89401586241575
40
0.900704573535015
40
0.907394871396196
40
0.914085151779819
40
0.920773839060386
40
0.926543487046617
40
0.932314701809784
40
0.938086428112467
40
0.943857621072828
40
0.949627250767874
40
0.956458606566032
40
0.963292607536394
40
0.970127479350425
40
0.976961456206274
40
0.98379279177153
40
0.990624246293937
40
0.997458361416777
40
1
40
1
40
1
40
1
41
1
10
1.79999999999999
20
-2.10152854513089
30
0
41
1
10
1.80000026301254
20
-2.09204739955413
30
0
41
1
10
1.80023055469098
20
-2.07305134699339
30
0
41
1
10
1.80126645415434
20
-2.04445678559748
30
0
41
1
10
1.80299040560856
20
-2.01578211108524
30
0
41
1
10
1.8054010790902
20
-1.98704795014091
30
0
41
1
10
1.80849748127086
20
-1.95827106508904
30
0
41
1
10
1.81228009227243
20
-1.92946142837317
30
0
41
1
10
1.81674503716466
20
-1.90062982988059
30
0
41
1
10
1.8218885614784
20
-1.87179264845176
30
0
41
1
10
1.8277060890114
20
-1.84297246226058
30
0
41
1
10
1.83430935407061
20
-1.81367574559715
30
0
41
1
10
1.84173967165736
20
-1.7839151684472
30
0
41
1
10
1.85003402343074
20
-1.75370676616194
30
0
41
1
10
1.85905847468232
20
-1.72357895503165
30
0
41
1
10
1.86880453821046
20
-1.69355769402912
30
0
41
1
10
1.87908985675314
20
-1.66416604425079
30
0
41
1
10
1.88986963506067
20
-1.63540923820977
30
0
41
1
10
1.90109741491555
20
-1.60728886445214
30
0
41
1
10
1.91295403674684
20
-1.57931900296961
30
0
41
1
10
1.92543012166655
20
-1.55152092395425
30
0
41
1
10
1.93851869143213
20
-1.52391095948889
30
0
41
1
10
1.95221610694726
20
-1.49649964129502
30
0
41
1
10
1.96651586132713
20
-1.4692965533299
30
0
41
1
10
1.98140995493433
20
-1.44231608571958
30
0
41
1
10
1.99688750170312
20
-1.41557834840144
30
0
41
1
10
2.0132014340617
20
-1.38866827934978
30
0
41
1
10
2.03038094734191
20
-1.3616110314294
30
0
41
1
10
2.0484517504608
20
-1.33443337943785
30
0
41
1
10
2.06713323638618
20
-1.30757715653181
30
0
41
1
10
2.08641149683495
20
-1.28106415982078
30
0
41
1
10
2.10616808438916
20
-1.2550538565851
30
0
41
1
10
2.12638656947961
20
-1.22955085207364
30
0
41
1
10
2.14704881363292
20
-1.20455729858325
30
0
41
1
10
2.16825622006543
20
-1.17994676312775
30
0
41
1
10
2.18999448065868
20
-1.1557387301255
30
0
41
1
10
2.21225351183075
20
-1.13194817625675
30
0
41
1
10
2.23502814931583
20
-1.10858586612449
30
0
41
1
10
2.25831113218684
20
-1.08566082370514
30
0
41
1
10
2.28209152186982
20
-1.06318684687126
30
0
41
1
10
2.30635391118026
20
-1.04118235049375
30
0
41
1
10
2.33148802401661
20
-1.01931316241095
30
0
41
1
10
2.35751583045649
20
-0.99761808062915
30
0
41
1
10
2.38445548348415
20
-0.976136673988276
30
0
41
1
10
2.41188506663105
20
-0.955224381883728
30
0
41
1
10
2.43978511390362
20
-0.934901210247239
30
0
41
1
10
2.46736062423916
20
-0.915726630827447
30
0
41
1
10
2.49455991418674
20
-0.897655864149737
30
0
41
1
10
2.52133489442878
20
-0.880639994191657
30
0
41
1
10
2.54846667392431
20
-0.864163783306282
30
0
41
1
10
2.57594307207
20
-0.848239179961109
30
0
41
1
10
2.60375591205915
20
-0.832876599939207
30
0
41
1
10
2.63189553266937
20
-0.818084369837592
30
0
41
1
10
2.66034801079332
20
-0.803873683310357
30
0
41
1
10
2.68910007150047
20
-0.790255735942589
30
0
41
1
10
2.71814260998983
20
-0.777240495139301
30
0
41
1
10
2.74746504668783
20
-0.764835398957749
30
0
41
1
10
2.77705209313658
20
-0.753050505283061
30
0
41
1
10
2.80550924474349
20
-0.74241175906252
30
0
41
1
10
2.83278873512085
20
-0.732829184622262
30
0
41
1
10
2.85885017389844
20
-0.72421278664028
30
0
41
1
10
2.88507379475037
20
-0.716079272094067
30
0
41
1
10
2.91144610445029
20
-0.708434989501685
30
0
41
1
10
2.93902574700452
20
-0.700997172152024
30
0
41
1
10
2.96782655666922
20
-0.693843186400522
30
0
41
1
10
2.99785750146359
20
-0.687053284058932
30
0
41
1
10
3.02802886614718
20
-0.680899812738257
30
0
41
1
10
3.05832508754793
20
-0.675388566798425
30
0
41
1
10
3.08873503198107
20
-0.670525186712378
30
0
41
1
10
3.11924679560317
20
-0.666311818423662
30
0
41
1
10
3.14984359950885
20
-0.662751882428057
30
0
41
1
10
3.18050901749747
20
-0.659849071667533
30
0
41
1
10
3.21123122832063
20
-0.657607253036454
30
0
41
1
10
3.24199800503074
20
-0.656026543661029
30
0
41
1
10
3.27279225762813
20
-0.655107964294618
30
0
41
1
10
3.30440879793652
20
-0.654846068367812
30
0
41
1
10
3.3368361134139
20
-0.655305660712956
30
0
41
1
10
3.37005787355108
20
-0.656549095818395
30
0
41
1
10
3.40324102872459
20
-0.658562873075828
30
0
41
1
10
3.43576614806999
20
-0.661295088307653
30
0
41
1
10
3.46762314059196
20
-0.664698146055728
30
0
41
1
10
3.49880598385302
20
-0.668721081965183
30
0
41
1
10
3.52989534176284
20
-0.673423009911948
30
0
41
1
10
3.56086879542354
20
-0.678798758616038
30
0
41
1
10
3.59170970100018
20
-0.684844296026321
30
0
41
1
10
3.62240795938537
20
-0.691557457523901
30
0
41
1
10
3.65295467578001
20
-0.698931540477485
30
0
41
1
10
3.68333534166934
20
-0.70695956718869
30
0
41
1
10
3.71352901012952
20
-0.715633107696835
30
0
41
1
10
3.74402215166939
20
-0.725101309498803
30
0
41
1
10
3.77479355655103
20
-0.735398010727696
30
0
41
1
10
3.80582076750023
20
-0.74655223374353
30
0
41
1
10
3.8365903215185
20
-0.758386837300063
30
0
41
1
10
3.86708013583436
20
-0.770889071087286
30
0
41
1
10
3.89696095487125
20
-0.783912410183404
30
0
41
1
10
3.9262337488317
20
-0.797426537407869
30
0
41
1
10
3.95490295634046
20
-0.811399095852305
30
0
41
1
10
3.9832664040623
20
-0.825962467590478
30
0
41
1
10
4.01130609350243
20
-0.841103119660573
30
0
41
1
10
4.03900877241066
20
-0.856810293619701
30
0
41
1
10
4.06636670341811
20
-0.873076896149237
30
0
41
1
10
4.09337401831459
20
-0.889893280178164
30
0
41
1
10
4.12001998258957
20
-0.907247921493082
30
0
41
1
10
4.14628839528157
20
-0.925125993901919
30
0
41
1
10
4.1725708796381
20
-0.943802492478655
30
0
41
1
10
4.19883897686252
20
-0.963298117130377
30
0
41
1
10
4.22506384227059
20
-0.983629886609668
30
0
41
1
10
4.25083708822589
20
-1.00448908995255
30
0
41
1
10
4.27614182438123
20
-1.02585757242099
30
0
41
1
10
4.30100213856078
20
-1.04775329301225
30
0
41
1
10
4.32540797013391
20
-1.07016972141361
30
0
41
1
10
4.34935121925463
20
-1.09309808751447
30
0
41
1
10
4.37278562583651
20
-1.11649090526257
30
0
41
1
10
4.39569545558061
20
-1.14032870768689
30
0
41
1
10
4.41806950271516
20
-1.164596946345
30
0
41
1
10
4.43990020585197
20
-1.18928614466935
30
0
41
1
10
4.46118225971082
20
-1.21438504629811
30
0
41
1
10
4.48190535801363
20
-1.23987785060862
30
0
41
1
10
4.50205487966051
20
-1.26574389976738
30
0
41
1
10
4.52080606523288
20
-1.2908765958085
30
0
41
1
10
4.53823395203782
20
-1.3152166390082
30
0
41
1
10
4.55441512227515
20
-1.33871222769223
30
0
41
1
10
4.57013479084163
20
-1.36245770368627
30
0
41
1
10
4.58538397063991
20
-1.38643831896461
30
0
41
1
10
4.60015371857604
20
-1.41063929805521
30
0
41
1
10
4.61481354425943
20
-1.43569295495828
30
0
41
1
10
4.6293129780078
20
-1.46161182692458
30
0
41
1
10
4.64360020370207
20
-1.48840479950054
30
0
41
1
10
4.65730462196956
20
-1.51540820305123
30
0
41
1
10
4.67041819058877
20
-1.54260669667253
30
0
41
1
10
4.68293404561383
20
-1.56998882225901
30
0
41
1
10
4.69484756905609
20
-1.59754242762805
30
0
41
1
10
4.7061516338523
20
-1.62525098300651
30
0
41
1
10
4.71683903326889
20
-1.65309851292213
30
0
41
1
10
4.72690344974927
20
-1.68107303697301
30
0
41
1
10
4.7363411372299
20
-1.70916213200751
30
0
41
1
10
4.74514616139417
20
-1.73734872621332
30
0
41
1
10
4.75293844201762
20
-1.76432154040591
30
0
41
1
10
4.75981149339904
20
-1.79005728992756
30
0
41
1
10
4.7658572635496
20
-1.8145398891828
30
0
41
1
10
4.77141974586045
20
-1.83905653323255
30
0
41
1
10
4.77649538129052
20
-1.86359334805239
30
0
41
1
10
4.78136268980179
20
-1.88964555659303
30
0
41
1
10
4.78590773760486
20
-1.91720908218187
30
0
41
1
10
4.79000984294079
20
-1.94627218023701
30
0
41
1
10
4.79341872854374
20
-1.97531240524153
30
0
41
1
10
4.79613129630928
20
-2.00430666300354
30
0
41
1
10
4.79814457480571
20
-2.0332382260758
30
0
41
1
10
4.79945649476315
20
-2.06209620461406
30
0
41
1
10
4.79993713540718
20
-2.08484452239111
30
0
41
1
10
4.79999920103082
20
-2.09797191905868
30
0
41
1
10
4.79999999999998
20
-2.10152833982632
30
0
0
SPLINE
5
F4
100
AcDbEntity
8
1
62
256
6
ByLayer
370
18
48
1
60
0
100
AcDbSpline
70
4
71
3
72
30
73
26
40
0
40
0
40
0
40
0
40
0.0484118367177117
40
0.096823715310819
40
0.138893784987041
40
0.181000027121887
40
0.223106742926476
40
0.265177459070054
40
0.308440688323788
40
0.351741731778773
40
0.395043711176786
40
0.438308217826926
40
0.480978529468407
40
0.523682909798617
40
0.566388425035975
40
0.609060285506217
40
0.652829223179519
40
0.696632091607535
40
0.740436331043889
40
0.784207139712648
40
0.829636604084903
40
0.875100601854675
40
0.920566165146573
40
0.96599776593104
40
1
40
1
40
1
40
1
41
1
10
49.1316156957476
20
-7.10083388528725
30
0
41
1
10
49.128393748426
20
-7.1035581033741
30
0
41
1
10
49.1220762145176
20
-7.10913369455284
30
0
41
1
10
49.1133661176637
20
-7.11750527486053
30
0
41
1
10
49.1053929167998
20
-7.12580691282024
30
0
41
1
10
49.0981101047149
20
-7.1339747009214
30
0
41
1
10
49.0911492406754
20
-7.14238706069594
30
0
41
1
10
49.084460784709
20
-7.15110856367526
30
0
41
1
10
49.0780665623305
20
-7.1601347748024
30
0
41
1
10
49.0719826477848
20
-7.16945586573151
30
0
41
1
10
49.0662771069461
20
-7.17896721748173
30
0
41
1
10
49.0609836336585
20
-7.18860424470294
30
0
41
1
10
49.0561032839666
20
-7.19834986417452
30
0
41
1
10
49.0516297469896
20
-7.20818590499466
30
0
41
1
10
49.0475442758801
20
-7.21813738510242
30
0
41
1
10
49.0438194494039
20
-7.22827093838434
30
0
41
1
10
49.0404703818533
20
-7.23857533624535
30
0
41
1
10
49.0375059700545
20
-7.24903721647436
30
0
41
1
10
49.0349540472056
20
-7.25954965683974
30
0
41
1
10
49.0327877554524
20
-7.27022618644058
30
0
41
1
10
49.0310254816417
20
-7.28105378987437
30
0
41
1
10
49.0296795794353
20
-7.29201789453917
30
0
41
1
10
49.0287672058402
20
-7.30296487730345
30
0
41
1
10
49.0283258688599
20
-7.31296183755822
30
0
41
1
10
49.0282614532209
20
-7.31929226173075
30
0
41
1
10
49.028273700382
20
-7.32199773719248
30
0
0
SPLINE
5
F5
100
AcDbEntity
8
1
62
256
6
ByLayer
370
18
48
1
60
0
100
AcDbSpline
70
4
71
3
72
24
73
20
40
0
40
0
40
0
40
0
40
7.08228833524E-05
40
0.0583325333119264
40
0.116619881791142
40
0.174909334226955
40
0.233173914930873
40
0.291415761987284
40
0.349679040552612
40
0.407943950974807
40
0.466188024098049
40
0.527473944292866
40
0.588781102388277
40
0.650089696899033
40
0.711377576512446
40
0.783517116383608
40
0.855686646250197
40
0.92785798815287
40
1
40
1
40
1
40
1
41
1
10
49.1204970772615
20
-7.72226371326457
30
0
41
1
10
49.1204970336
20
-7.72225371235987
30
0
41
1
10
49.1204710780494
20
-7.71632733419426
30
0
41
1
10
49.1202599686318
20
-7.70451324662477
30
0
41
1
10
49.119475795578
20
-7.68692671660088
30
0
41
1
10
49.1182323025141
20
-7.66947522260713
30
0
41
1
10
49.116537556074
20
-7.65217377016409
30
0
41
1
10
49.1143986951531
20
-7.63502949090711
30
0
41
1
10
49.1118249231895
20
-7.61804756121183
30
0
41
1
10
49.1088245176637
20
-7.60123511029428
30
0
41
1
10
49.1053461589222
20
-7.5843113817032
30
0
41
1
10
49.1013711511571
20
-7.56729189338028
30
0
41
1
10
49.0968828135948
20
-7.55019266679824
30
0
41
1
10
49.0919573656698
20
-7.53330794166137
30
0
41
1
10
49.0862878870861
20
-7.51566205573836
30
0
41
1
10
49.0797894769984
20
-7.49730625550952
30
0
41
1
10
49.0723778367067
20
-7.47829984578965
30
0
41
1
10
49.0644085887104
20
-7.45962115808285
30
0
41
1
10
49.0587351791969
20
-7.44739494242714
30
0
41
1
10
49.0558079732947
20
-7.44133885245867
30
0
0
SPLINE
5
F6
100
AcDbEntity
8
1
62
256
6
ByLayer
370
18
48
1
60
0
100
AcDbSpline
70
4
71
3
72
10
73
6
40
0
40
0
40
0
40
0
40
0.461038714777193
40
0.922436592007072
40
1
40
1
40
1
40
1
41
1
10
49.4597439799317
20
-9.64956581217361
30
0
41
1
10
49.4593751335762
20
-9.65381899056085
30
0
41
1
10
49.458814599977
20
-9.66235132899107
30
0
41
1
10
49.4585968341648
20
-9.67165937780997
30
0
41
1
10
49.4585975103403
20
-9.67668581131801
30
0
41
1
10
49.4586000976943
20
-9.67740946338168
30
0
0
SPLINE
5
F7
100
AcDbEntity
8
1
62
256
6
ByLayer
370
18
48
1
60
0
100
AcDbSpline
70
4
71
3
72
11
73
7
40
0
40
0
40
0
40
0
40
0.182694265856257
40
0.45543641656719
40
0.727989460565483
40
1
40
1
40
1
40
1
41
1
10
51.869919577912
20
-8.13501943554865
30
0
41
1
10
51.8699022695215
20
-8.13198788160196
30
0
41
1
10
51.8697424236199
20
-8.12442974284865
30
0
41
1
10
51.8690271440685
20
-8.1123335834379
30
0
41
1
10
51.8675872859669
20
-8.09877517660252
30
0
41
1
10
51.866203746181
20
-8.08978822346081
30
0
41
1
10
51.8654068691184
20
-8.0853082289835
30
0
0
SPLINE
5
F8
100
AcDbEntity
8
1
62
256
6
ByLayer
370
18
48
1
60
0
100
AcDbSpline
70
4
71
3
72
34
73
30
40
0
40
0
40
0
40
0
40
0.0313334572549857
40
0.0689677483470306
40
0.1076327876239
40
0.146333217005281
40
0.185031739015931
40
0.223694174928581
40
0.261469358183036
40
0.29928172557419
40
0.337092030337885
40
0.374864398121743
40
0.41397091831105
40
0.453124017266327
40
0.492274556805216
40
0.531377582682385
40
0.565586044841291
40
0.599829192762458
40
0.634070918355723
40
0.668277438995218
40
0.703707458206692
40
0.739179267744875
40
0.774649793718597
40
0.810078060538737
40
0.848008758433668
40
0.886021284931473
40
0.92406036957982
40
0.962070943378893
40
1
40
1
40
1
40
1
41
1
10
50.971025421128
20
-7.06972295628721
30
0
41
1
10
50.9710106557613
20
-7.06632238478379
30
0
41
1
10
50.9708383581277
20
-7.05882738621955
30
0
41
1
10
50.9700943501391
20
-7.04708764028329
30
0
41
1
10
50.9687207438223
20
-7.03452178843854
30
0
41
1
10
50.9667413483067
20
-7.02183891264186
30
0
41
1
10
50.9641640600368
20
-7.00918070280873
30
0
41
1
10
50.9610083782147
20
-6.99667293573398
30
0
41
1
10
50.9572814098976
20
-6.984336936599
30
0
41
1
10
50.9530000162664
20
-6.97219256708379
30
0
41
1
10
50.9481368797955
20
-6.96017467310953
30
0
41
1
10
50.9426289324122
20
-6.94817549933191
30
0
41
1
10
50.9364460396312
20
-6.93622796078276
30
0
41
1
10
50.9295712787435
20
-6.92436748043896
30
0
41
1
10
50.9220867188587
20
-6.91276856466862
30
0
41
1
10
50.9143391742288
20
-6.90194134927915
30
0
41
1
10
50.906416493861
20
-6.89187350341648
30
0
41
1
10
50.8984080615207
20
-6.88253651258347
30
0
41
1
10
50.8899678507696
20
-6.87349774319248
30
0
41
1
10
50.8810045975307
20
-6.86467974369674
30
0
41
1
10
50.8715071904826
20
-6.85611970691463
30
0
41
1
10
50.8614773264825
20
-6.84785075385642
30
0
41
1
10
50.8510501776795
20
-6.83999816011347
30
0
41
1
10
50.839996560798
20
-6.83241378701874
30
0
41
1
10
50.8282947313937
20
-6.8251614258068
30
0
41
1
10
50.8159428289124
20
-6.81829633347539
30
0
41
1
10
50.803243777096
20
-6.812001435017
30
0
41
1
10
50.7902466252685
20
-6.80630330341225
30
0
41
1
10
50.7814138159308
20
-6.80292378404914
30
0
41
1
10
50.7769563218441
20
-6.80133793528537
30
0
0
SPLINE
5
F9
100
AcDbEntity
8
1
62
256
6
ByLayer
370
18
48
1
60
0
100
AcDbSpline
70
4
71
3
72
30
73
26
40
0
40
0
40
0
40
0
40
0.0484118367177061
40
0.0968237153108273
40
0.138893784987047
40
0.181000027121886
40
0.223106742926484
40
0.265177459070063
40
0.308440688323787
40
0.351741731778781
40
0.395043711176769
40
0.438308217826932
40
0.480978529468415
40
0.523682909798624
40
0.566388425035983
40
0.609060285506212
40
0.652829223179523
40
0.696632091607535
40
0.740436331043888
40
0.784207139712649
40
0.829636604084899
40
0.875100601854676
40
0.920566165146567
40
0.965997765931039
40
1
40
1
40
1
40
1
41
1
10
51.2980540401862
20
-9.65643228555782
30
0
41
1
10
51.3012759874558
20
-9.65370805555479
30
0
41
1
10
51.3075934815334
20
-9.64812333586691
30
0
41
1
10
51.3163034073015
20
-9.63971254584876
30
0
41
1
10
51.3242763431202
20
-9.63135016437171
30
0
41
1
10
51.3315588135405
20
-9.62310407301381
30
0
41
1
10
51.3385192476866
20
-9.6145931895446
30
0
41
1
10
51.3452071814354
20
-9.60575200387564
30
0
41
1
10
51.3516007866118
20
-9.59658434135868
30
0
41
1
10
51.3576839878427
20
-9.58709977176572
30
0
41
1
10
51.3633887268216
20
-9.57740464842597
30
0
41
1
10
51.368681315422
20
-9.56756486711027
30
0
41
1
10
51.3735606999107
20
-9.55759804078723
30
0
41
1
10
51.378033194637
20
-9.54752313521943
30
0
41
1
10
51.3821175442889
20
-9.53731463758843
30
0
41
1
10
51.38584116197
20
-9.52690405064043
30
0
41
1
10
51.3891889323671
20
-9.5163023689842
30
0
41
1
10
51.3921519588241
20
-9.50552299380531
30
0
41
1
10
51.3947024218909
20
-9.49467599814482
30
0
41
1
10
51.3968671627277
20
-9.48364402696007
30
0
41
1
10
51.3986277929669
20
-9.47243974707433
30
0
41
1
10
51.3999719585575
20
-9.46107764188313
30
0
41
1
10
51.400882526114
20
-9.44971674820597
30
0
41
1
10
51.4013221474301
20
-9.4393265891848
30
0
41
1
10
51.4013854395709
20
-9.43273867984456
30
0
41
1
10
51.4013727054394
20
-9.42992159967828
30
0
0
SPLINE
5
FA
100
AcDbEntity
8
1
62
256
6
ByLayer
370
18
48
1
60
0
100
AcDbSpline
70
4
71
3
72
11
73
7
40
0
40
0
40
0
40
0
40
0.277985309917614
40
0.556051452494566
40
0.834113543691869
40
1
40
1
40
1
40
1
41
1
10
50.9698752053153
20
-7.09611506818622
30
0
41
1
10
50.9693524506908
20
-7.10180701331556
30
0
41
1
10
50.9684578329583
20
-7.11322364251586
30
0
41
1
10
50.9675669164313
20
-7.13044550815974
30
0
41
1
10
50.9671918120401
20
-7.14542859364854
30
0
41
1
10
50.9671582321277
20
-7.15467481487587
30
0
41
1
10
50.967173056584
20
-7.15813464578555
30
0
0
SPLINE
5
FB
100
AcDbEntity
8
1
62
256
6
ByLayer
370
18
48
1
60
0
100
AcDbSpline
70
4
71
1
72
4
73
2
40
0
40
0
40
1
40
1
41
1
10
45.4402659931484
20
-6.34784881011767
30
0
41
1
10
45.4434137640922
20
-6.34442204568781
30
0
0
SPLINE
5
FC
100
AcDbEntity
8
1
62
256
6
ByLayer
370
18
48
1
60
0
100
AcDbSpline
70
4
71
3
72
30
73
26
40
0
40
0
40
0
40
0
40
0.0192037537667618
40
0.0668344816376258
40
0.114480878420346
40
0.162126241798399
40
0.209755560011938
40
0.259421646418715
40
0.309108572199581
40
0.358793742854814
40
0.408457434888803
40
0.455177516798932
40
0.501930647244498
40
0.548692057209481
40
0.595439887746421
40
0.642155521467928
40
0.690112751775327
40
0.73811502313033
40
0.786128881981455
40
0.834124478814265
40
0.882076105939948
40
0.911525498014478
40
0.940974836631946
40
0.970487441570882
40
1
40
1
40
1
40
1
41
1
10
50.967173056584
20
-7.15813464578555
30
0
41
1
10
50.9671831499005
20
-7.16047255848472
30
0
41
1
10
50.9672626618888
20
-7.16861583052275
30
0
41
1
10
50.9676620488946
20
-7.18260649939893
30
0
41
1
10
50.9686350639216
20
-7.2001382273748
30
0
41
1
10
50.9700877834286
20
-7.21772781230646
30
0
41
1
10
50.9720536517209
20
-7.23561613259911
30
0
41
1
10
50.9745646227673
20
-7.25379909429325
30
0
41
1
10
50.9776521381392
20
-7.27227008014019
30
0
41
1
10
50.9812874272308
20
-7.29076322359893
30
0
41
1
10
50.9853938109919
20
-7.30889821870801
30
0
41
1
10
50.9899424502122
20
-7.3266659638887
30
0
41
1
10
50.9949009498214
20
-7.34405881168543
30
0
41
1
10
51.0003659430369
20
-7.36142771874533
30
0
41
1
10
51.0063390862221
20
-7.37875080982329
30
0
41
1
10
51.0128810739885
20
-7.39616488073531
30
0
41
1
10
51.0200168783412
20
-7.41365840191871
30
0
41
1
10
51.0277637865389
20
-7.43121589564928
30
0
41
1
10
51.0360569717582
20
-7.44866321734471
30
0
41
1
10
51.0448898395258
20
-7.4659682964414
30
0
41
1
10
51.0530560303288
20
-7.48090348710138
30
0
41
1
10
51.0603369623159
20
-7.49351897667474
30
0
41
1
10
51.0665617250471
20
-7.50388290303567
30
0
41
1
10
51.0729904207976
20
-7.51417407289024
30
0
41
1
10
51.0774102315523
20
-7.52098081116199
30
0
41
1
10
51.0796530624921
20
-7.52436989197636
30
0
0
SPLINE
5
FD
100
AcDbEntity
8
1
62
256
6
ByLayer
370
18
48
1
60
0
100
AcDbSpline
70
4
71
3
72
41
73
37
40
0
40
0
40
0
40
0
40
0.0285489142322483
40
0.0570978449592055
40
0.0845575062608979
40
0.112040831621634
40
0.139524451707918
40
0.16698451525365
40
0.195225317528964
40
0.223490897066701
40
0.251757076411987
40
0.279998697321189
40
0.307808022103136
40
0.335639587789782
40
0.363471884500443
40
0.39128220692576
40
0.419809088037893
40
0.448358142701177
40
0.476908086591488
40
0.505436181221582
40
0.535011633624753
40
0.564609589421328
40
0.594208560867242
40
0.623785399291902
40
0.654077655783883
40
0.6843917549996
40
0.714706874309719
40
0.745000522834001
40
0.776511334830229
40
0.808044328302148
40
0.839578340387476
40
0.871090542371561
40
0.903306632960014
40
0.935544222427911
40
0.967782698967372
40
1
40
1
40
1
40
1
41
1
10
49.6527134140897
20
-9.95592823555971
30
0
41
1
10
49.6563078293228
20
-9.95720547081126
30
0
41
1
10
49.6635388073492
20
-9.95961322643474
30
0
41
1
10
49.6743814999055
20
-9.96274787123562
30
0
41
1
10
49.6851903587168
20
-9.9654153584583
30
0
41
1
10
49.6959437097956
20
-9.96763381847597
30
0
41
1
10
49.7067599697353
20
-9.9694362326055
30
0
41
1
10
49.7177205415461
20
-9.97083285043345
30
0
41
1
10
49.7288110234896
20
-9.97180631067574
30
0
41
1
10
49.7400149581029
20
-9.97234721112959
30
0
41
1
10
49.7512063634415
20
-9.97244949838183
30
0
41
1
10
49.7623057835131
20
-9.97211701126205
30
0
41
1
10
49.7732975858767
20
-9.97135842425296
30
0
41
1
10
49.7841688270006
20
-9.97018955593715
30
0
41
1
10
49.7949566149596
20
-9.96861344685947
30
0
41
1
10
49.8057334370599
20
-9.96661940497741
30
0
41
1
10
49.8164821129227
20
-9.96419962017051
30
0
41
1
10
49.8271865549879
20
-9.96135297071523
30
0
41
1
10
49.8377383743238
20
-9.95811063624592
30
0
41
1
10
49.8482471223769
20
-9.95443824219321
30
0
41
1
10
49.8586927433465
20
-9.95032649942524
30
0
41
1
10
49.8690567020569
20
-9.94577244491873
30
0
41
1
10
49.8791987500043
20
-9.9408393175838
30
0
41
1
10
49.8891833385661
20
-9.93549773118518
30
0
41
1
10
49.8989927494581
20
-9.92974728854524
30
0
41
1
10
49.9086122804319
20
-9.92359268062285
30
0
41
1
10
49.9179517071692
20
-9.91709562141526
30
0
41
1
10
49.9271197873229
20
-9.91018007359292
30
0
41
1
10
49.9360939148188
20
-9.90284211631188
30
0
41
1
10
49.9448541872859
20
-9.89508266485203
30
0
41
1
10
49.9532737793207
20
-9.88701540528649
30
0
41
1
10
49.9614028193619
20
-9.87859537854382
30
0
41
1
10
49.9692252843759
20
-9.86982769410849
30
0
41
1
10
49.9767286267903
20
-9.8607211767228
30
0
41
1
10
49.9838491428746
20
-9.85135691027737
30
0
41
1
10
49.988334946941
20
-9.8449571690384
30
0
41
1
10
49.9905124351479
20
-9.84171781505862
30
0
0
SPLINE
5
FE
100
AcDbEntity
8
1
62
256
6
ByLayer
370
18
48
1
60
0
100
AcDbSpline
70
4
71
3
72
24
73
20
40
0
40
0
40
0
40
0
40
7.08228833544E-05
40
0.0583325333119282
40
0.116619881791139
40
0.174909334226955
40
0.233173914930872
40
0.291415761987287
40
0.349679040552618
40
0.407943950974811
40
0.46618802409806
40
0.527473944292873
40
0.588781102388292
40
0.650089696899039
40
0.711377576512452
40
0.783517116383616
40
0.855686646250209
40
0.92785798815287
40
1
40
1
40
1
40
1
41
1
10
51.3090655306151
20
-9.01045067119145
30
0
41
1
10
51.3090655742741
20
-9.01046067209616
30
0
41
1
10
51.3090923435905
20
-9.01657355100988
30
0
41
1
10
51.3093051276295
20
-9.02877142948956
30
0
41
1
10
51.3100919486503
20
-9.04696482563011
30
0
41
1
10
51.3113382195337
20
-9.06505294475358
30
0
41
1
10
51.3130358655198
20
-9.08301892000039
30
0
41
1
10
51.3151777408828
20
-9.10085405411269
30
0
41
1
10
51.3177546354648
20
-9.11855163069044
30
0
41
1
10
51.3207582651561
20
-9.1361030012278
30
0
41
1
10
51.3242400005364
20
-9.15380059350981
30
0
41
1
10
51.3282185370686
20
-9.17162881055073
30
0
41
1
10
51.3327105547783
20
-9.18957145943536
30
0
41
1
10
51.3376397680589
20
-9.20731913502034
30
0
41
1
10
51.3433133173697
20
-9.22589795695361
30
0
41
1
10
51.3498161140944
20
-9.24525909395433
30
0
41
1
10
51.357232465371
20
-9.26534517501889
30
0
41
1
10
51.3652065091267
20
-9.28512296286352
30
0
41
1
10
51.3708831647459
20
-9.29809312640058
30
0
41
1
10
51.3738120062584
20
-9.30452406827776
30
0
0
SPLINE
5
FF
100
AcDbEntity
8
1
62
256
6
ByLayer
370
18
48
1
60
0
100
AcDbSpline
70
4
71
3
72
11
73
7
40
0
40
0
40
0
40
0
40
0.277985309917622
40
0.556051452494555
40
0.83411354369188
40
1
40
1
40
1
40
1
41
1
10
49.4597439799317
20
-9.6495658121736
30
0
41
1
10
49.4602653336891
20
-9.64355281395227
30
0
41
1
10
49.4611571672019
20
-9.63149809268502
30
0
41
1
10
49.4620439589046
20
-9.61333089293088
30
0
41
1
10
49.462415542993
20
-9.59754101858538
30
0
41
1
10
49.4624469854465
20
-9.58780493097059
30
0
41
1
10
49.4624313659538
20
-9.58416289231569
30
0
0
SPLINE
5
100
100
AcDbEntity
8
1
62
256
6
ByLayer
370
18
48
1
60
0
100
AcDbSpline
70
4
71
3
72
10
73
6
40
0
40
0
40
0
40
0
40
0.461038714777152
40
0.922436592007018
40
1
40
1
40
1
40
1
41
1
10
50.9698752053153
20
-7.09611506818621
30
0
41
1
10
50.9702450422115
20
-7.0920889035467
30
0
41
1
10
50.970807541714
20
-7.08400711409269
30
0
41
1
10
50.9710274048037
20
-7.07517972284804
30
0
41
1
10
50.9710278476664
20
-7.07040975236997
30
0
41
1
10
50.971025421128
20
-7.06972295628721
30
0
0
SPLINE
5
101
100
AcDbEntity
8
1
62
256
6
ByLayer
370
18
48
1
60
0
100
AcDbSpline
70
4
71
3
72
51
73
47
40
0
40
0
40
0
40
0
40
0.0243799622952547
40
0.0487669898805718
40
0.0731536575066744
40
0.0975331288048761
40
0.121917562128665
40
0.146310002505768
40
0.170701910388494
40
0.195085617342237
40
0.220509519530039
40
0.245944075622617
40
0.271377734233229
40
0.296800412061265
40
0.32082103585993
40
0.344858769616202
40
0.368900796603086
40
0.392935799180625
40
0.416954130702454
40
0.441614950851888
40
0.466299038150484
40
0.490989143857669
40
0.515669845362839
40
0.540327823166494
40
0.560323159566638
40
0.580327911630196
40
0.600332273537468
40
0.620327077653894
40
0.640325474368298
40
0.660333936575966
40
0.680342253543645
40
0.700340452103573
40
0.721676620784657
40
0.743025056866838
40
0.764373703692282
40
0.785710159915257
40
0.806861247304309
40
0.828028629905182
40
0.84920227183514
40
0.870371178313628
40
0.891523544785612
40
0.913213655661032
40
0.934918543651651
40
0.956629457319088
40
0.978336389958662
40
1
40
1
40
1
40
1
41
1
10
48.727162323563
20
-8.35143052742984
30
0
41
1
10
48.7324573413119
20
-8.34877777129314
30
0
41
1
10
48.7429985651721
20
-8.34332995013184
30
0
41
1
10
48.7586640328363
20
-8.33473318645535
30
0
41
1
10
48.7741702830777
20
-8.32571167902039
30
0
41
1
10
48.7895084778615
20
-8.31626537427571
30
0
41
1
10
48.8046701701461
20
-8.30639249471738
30
0
41
1
10
48.8196473351907
20
-8.29609233060149
30
0
41
1
10
48.8344271352762
20
-8.28536679141304
30
0
41
1
10
48.8492043173858
20
-8.27405872932901
30
0
41
1
10
48.8639583398039
20
-8.26214472575513
30
0
41
1
10
48.8786666219822
20
-8.24960343469715
30
0
41
1
10
48.8931093339352
20
-8.2366029416531
30
0
41
1
10
48.90700948646
20
-8.22339442921118
30
0
41
1
10
48.9203723122786
20
-8.21000485636207
30
0
41
1
10
48.9332060713312
20
-8.19646357507009
30
0
41
1
10
48.9457507807075
20
-8.18252130775732
30
0
41
1
10
48.9579855887499
20
-8.1681895260581
30
0
41
1
10
48.9700001407085
20
-8.15334400687453
30
0
41
1
10
48.9817703484023
20
-8.13797150495866
30
0
41
1
10
48.9932727393622
20
-8.12206735694509
30
0
41
1
10
49.0043857845972
20
-8.10578138035955
30
0
41
1
10
49.0150839881399
20
-8.08913738178952
30
0
41
1
10
49.0246998159924
20
-8.07322131011178
30
0
41
1
10
49.0333087494696
20
-8.05811540621317
30
0
41
1
10
49.0409930447658
20
-8.04388990564548
30
0
41
1
10
49.0483629678842
20
-8.02946950966207
30
0
41
1
10
49.0554082807152
20
-8.01486764160669
30
0
41
1
10
49.0621194574221
20
-8.00009395611603
30
0
41
1
10
49.0684911456784
20
-7.98516106296224
30
0
41
1
10
49.0745150136372
20
-7.9700870757881
30
0
41
1
10
49.0803090764506
20
-7.95455042181761
30
0
41
1
10
49.0858372463065
20
-7.9385536697169
30
0
41
1
10
49.0910670566193
20
-7.92210511859224
30
0
41
1
10
49.0958754217134
20
-7.90556845121114
30
0
41
1
10
49.1002442367008
20
-7.88901368672776
30
0
41
1
10
49.1041728283408
20
-7.87245573055743
30
0
41
1
10
49.1076679099886
20
-7.85590840280425
30
0
41
1
10
49.1107418002882
20
-7.83934184405401
30
0
41
1
10
49.1133937007509
20
-7.82278096454104
30
0
41
1
10
49.1156425340188
20
-7.80610305068
30
0
41
1
10
49.1174765234635
20
-7.7893191636664
30
0
41
1
10
49.1188902432953
20
-7.77243904185065
30
0
41
1
10
49.1198735062028
20
-7.75561757315209
30
0
41
1
10
49.1204302790796
20
-7.73888127378443
30
0
41
1
10
49.1205215757138
20
-7.72778879612743
30
0
41
1
10
49.1204970711443
20
-7.72226231135441
30
0
0
SPLINE
5
102
100
AcDbEntity
8
1
62
256
6
ByLayer
370
18
48
1
60
0
100
AcDbSpline
70
4
71
3
72
33
73
29
40
0
40
0
40
0
40
0
40
0.0343891243264994
40
0.0687954543886887
40
0.103202643003007
40
0.137592938662804
40
0.171972232653373
40
0.20636666134868
40
0.240762102839643
40
0.275142778515783
40
0.311644254722495
40
0.348161168002469
40
0.384679287971444
40
0.42118241034916
40
0.462839216931454
40
0.504523277567923
40
0.54621881278263
40
0.587907324195709
40
0.629567866161612
40
0.67210694797078
40
0.714669481051642
40
0.757241507596515
40
0.799807163441576
40
0.842348865802596
40
0.881717930886779
40
0.921087099821072
40
0.960543507103262
40
1
40
1
40
1
40
1
41
1
10
51.187195419239
20
-7.65123021807906
30
0
41
1
10
51.1912912335051
20
-7.65504644145691
30
0
41
1
10
51.1995622569778
20
-7.66257505821884
30
0
41
1
10
51.2122089745157
20
-7.67355512354677
30
0
41
1
10
51.2250741585159
20
-7.68421103740167
30
0
41
1
10
51.2381421290594
20
-7.69453313871598
30
0
41
1
10
51.2514010479187
20
-7.70451519904956
30
0
41
1
10
51.264838781278
20
-7.71415585197756
30
0
41
1
10
51.2784415453155
20
-7.72345116304993
30
0
41
1
10
51.292477612119
20
-7.73258016838829
30
0
41
1
10
51.3069476467835
20
-7.741514858622
30
0
41
1
10
51.3218497675567
20
-7.75022965490233
30
0
41
1
10
51.3368830228178
20
-7.75854628354198
30
0
41
1
10
51.3527457186499
20
-7.76683556529419
30
0
41
1
10
51.3694489179888
20
-7.77502994807385
30
0
41
1
10
51.3869984651535
20
-7.78306122247341
30
0
41
1
10
51.4046595743451
20
-7.79057920394057
30
0
41
1
10
51.4224100857405
20
-7.79758327022741
30
0
41
1
10
51.4403604140009
20
-7.80412091573133
30
0
41
1
10
51.458504459269
20
-7.81018351604575
30
0
41
1
10
51.476836024486
20
-7.81576543824451
30
0
41
1
10
51.4952163290028
20
-7.82082841004767
30
0
41
1
10
51.5136272268708
20
-7.82537472106437
30
0
41
1
10
51.5315988631168
20
-7.82930751380087
30
0
41
1
10
51.549120867234
20
-7.8326740829289
30
0
41
1
10
51.5662000407129
20
-7.83552326623443
30
0
41
1
10
51.5832880345988
20
-7.8379444639801
30
0
41
1
10
51.5946789977529
20
-7.83927545499612
30
0
41
1
10
51.6003727001163
20
-7.83986962424123
30
0
0
SPLINE
5
103
100
AcDbEntity
8
1
62
256
6
ByLayer
370
18
48
1
60
0
100
AcDbSpline
70
4
71
3
72
51
73
47
40
0
40
0
40
0
40
0
40
0.0243799622952598
40
0.0487669898805755
40
0.0731536575066789
40
0.0975331288048835
40
0.121917562128666
40
0.14631000250578
40
0.170701910388495
40
0.195085617342246
40
0.22050951953005
40
0.245944075622623
40
0.271377734233235
40
0.296800412061268
40
0.320821035859935
40
0.344858769616204
40
0.368900796603089
40
0.392935799180627
40
0.416954130702461
40
0.441614950851896
40
0.46629903815049
40
0.490989143857674
40
0.515669845362844
40
0.540327823166493
40
0.560323159566638
40
0.580327911630201
40
0.600332273537469
40
0.620327077653898
40
0.640325474368301
40
0.660333936575967
40
0.680342253543647
40
0.70034045210357
40
0.721676620784658
40
0.743025056866839
40
0.764373703692284
40
0.785710159915259
40
0.806861247304308
40
0.828028629905184
40
0.84920227183514
40
0.870371178313628
40
0.891523544785615
40
0.913213655661033
40
0.93491854365165
40
0.956629457319086
40
0.978336389958664
40
1
40
1
40
1
40
1
41
1
10
51.7024576559901
20
-8.39443239330656
30
0
41
1
10
51.6971612512514
20
-8.39676727679181
30
0
41
1
10
51.6866172712242
20
-8.40158343502543
30
0
41
1
10
51.6709477215812
20
-8.40924468401916
30
0
41
1
10
51.6554374484575
20
-8.41734422059068
30
0
41
1
10
51.6400952944439
20
-8.42588314246051
30
0
41
1
10
51.6249297114002
20
-8.43486433138342
30
0
41
1
10
51.609948729442
20
-8.44428972889828
30
0
41
1
10
51.5951651929501
20
-8.45415895224182
30
0
41
1
10
51.5803843096087
20
-8.4646187598749
30
0
41
1
10
51.5656266317252
20
-8.47569499780538
30
0
41
1
10
51.5509147522323
20
-8.48741185032071
30
0
41
1
10
51.5364685604372
20
-8.49961482735296
30
0
41
1
10
51.5225651161678
20
-8.51206893230967
30
0
41
1
10
51.5091991867083
20
-8.52474720755502
30
0
41
1
10
51.4963625109389
20
-8.53762003081958
30
0
41
1
10
51.4838150207599
20
-8.55092498917487
30
0
41
1
10
51.4715775775193
20
-8.56465283176842
30
0
41
1
10
51.4595605224358
20
-8.57892468061544
30
0
41
1
10
51.4477879576284
20
-8.59375697530358
30
0
41
1
10
51.4362833684963
20
-8.6091573425711
30
0
41
1
10
51.4251683131768
20
-8.62498264464764
30
0
41
1
10
51.4144682977228
20
-8.64121138634329
30
0
41
1
10
51.4048509666334
20
-8.65678294370072
30
0
41
1
10
51.3962408025449
20
-8.67160681406588
30
0
41
1
10
51.3885555099768
20
-8.68560375820884
30
0
41
1
10
51.3811847376223
20
-8.69982952481505
30
0
41
1
10
51.3741387269836
20
-8.71427146815729
30
0
41
1
10
51.367427007602
20
-8.72892078257047
30
0
41
1
10
51.3610549326303
20
-8.74376504761692
30
0
41
1
10
51.3550308350733
20
-8.75878641511269
30
0
41
1
10
51.349236699484
20
-8.77430639018412
30
0
41
1
10
51.3437086280942
20
-8.79032570890527
30
0
41
1
10
51.3384790985738
20
-8.80683861250914
30
0
41
1
10
51.3336711927001
20
-8.82348052475113
30
0
41
1
10
51.3293030118999
20
-8.84018063333011
30
0
41
1
10
51.3253752269479
20
-8.85692346761894
30
0
41
1
10
51.3218811182064
20
-8.87369376765927
30
0
41
1
10
51.3188083647272
20
-8.89052086477841
30
0
41
1
10
51.3161577600617
20
-8.90737871725525
30
0
41
1
10
51.3139103897115
20
-8.92439190503123
30
0
41
1
10
51.3120780311535
20
-8.94154956135522
30
0
41
1
10
51.3106661080797
20
-8.95884146716288
30
0
41
1
10
51.3096847876451
20
-8.9761081150397
30
0
41
1
10
51.3091300955198
20
-8.99332128448239
30
0
41
1
10
51.3090402730425
20
-9.00475161192316
30
0
41
1
10
51.3090655362386
20
-9.01045195995685
30
0
0
SPLINE
5
104
100
AcDbEntity
8
1
62
256
6
ByLayer
370
18
48
1
60
0
100
AcDbSpline
70
4
71
2
72
6
73
3
40
0
40
0
40
0
40
1
40
1
40
1
41
0.502977927148433
10
49.0304135503559
20
-7.28656034842697
30
0
41
0.497022072851567
10
49.0362821757087
20
-7.33145701280463
30
0
41
0.502977927148433
10
49.0555074413868
20
-7.37246244980312
30
0
0
SPLINE
5
105
100
AcDbEntity
8
1
62
256
6
ByLayer
370
18
48
1
60
0
100
AcDbSpline
70
4
71
3
72
19
73
15
40
0
40
0
40
0
40
0
40
0.0235183546243451
40
0.11092369455234
40
0.198331974234725
40
0.285678428401698
40
0.374004953155127
40
0.462390228784874
40
0.550778124318077
40
0.639108224024093
40
0.729301370888029
40
0.819551416342654
40
0.909803741924498
40
1
40
1
40
1
40
1
41
1
10
49.028273700382
20
-7.32199773719248
30
0
41
1
10
49.0282783562614
20
-7.32299432232195
30
0
41
1
10
49.0283250391276
20
-7.32769047483783
30
0
41
1
10
49.0286178009208
20
-7.33605588646376
30
0
41
1
10
49.0294370041049
20
-7.34702830152171
30
0
41
1
10
49.0306851480318
20
-7.35793977794859
30
0
41
1
10
49.0323626137085
20
-7.36877586080515
30
0
41
1
10
49.0344646935706
20
-7.3795242318384
30
0
41
1
10
49.0369756477606
20
-7.39012916611442
30
0
41
1
10
49.0399069933272
20
-7.40064884246737
30
0
41
1
10
49.0432617597482
20
-7.41106842922108
30
0
41
1
10
49.0470386199815
20
-7.4213742692671
30
0
41
1
10
49.0512041935231
20
-7.4314819272087
30
0
41
1
10
49.0542314950076
20
-7.43807707121312
30
0
41
1
10
49.0558079732949
20
-7.44133885245916
30
0
0
SPLINE
5
106
100
AcDbEntity
8
1
62
256
6
ByLayer
370
18
48
1
60
0
100
AcDbSpline
70
4
71
3
72
158
73
154
40
0
40
0
40
0
40
0
40
0.0042934714815873
40
0.011127582801045
40
0.0179590334162617
40
0.0239622087148291
40
0.0299677672311872
40
0.0359745311838746
40
0.0419813080917641
40
0.0479868965107012
40
0.0539900917522526
40
0.0606347098022267
40
0.0672817051647407
40
0.0739295159862968
40
0.0805765521132852
40
0.0872212043650677
40
0.0938655033708641
40
0.100512111723842
40
0.107159517762424
40
0.113806176251268
40
0.120450517321142
40
0.127421485795251
40
0.134395033160541
40
0.1413694744565
40
0.148343083485453
40
0.155314103696644
40
0.162139013672178
40
0.168966266842876
40
0.175794327870391
40
0.182621628924838
40
0.189446579074746
40
0.196271196446612
40
0.203098099754667
40
0.209925783111627
40
0.216752717839858
40
0.223577361572966
40
0.230724562824271
40
0.237874356846181
40
0.245025022831499
40
0.252174827902914
40
0.259322038424909
40
0.26599854426449
40
0.272676459868111
40
0.279354371318631
40
0.286030871493697
40
0.29270744724235
40
0.299385447381339
40
0.30606343738547
40
0.31273999931091
40
0.319416704375863
40
0.326094860990156
40
0.332773002216135
40
0.339449686292453
40
0.346607643985591
40
0.353767438109424
40
0.360927206628237
40
0.368085129396459
40
0.374734903237211
40
0.381386194966072
40
0.3880374657882
40
0.394687211113246
40
0.401337201035477
40
0.407988754392257
40
0.414640287564612
40
0.421290249956142
40
0.427940436837088
40
0.434592228716248
40
0.441244003764497
40
0.44789416768865
40
0.453637589623049
40
0.459382597048104
40
0.4651281248246
40
0.470873115301116
40
0.47661652301669
40
0.483355621547177
40
0.490097305513272
40
0.496839849971786
40
0.50358152809241
40
0.510320621718365
40
0.517059673705914
40
0.523801295513431
40
0.530543788160657
40
0.537285433660896
40
0.544024505527345
40
0.549941191672168
40
0.555860139289118
40
0.561780240547526
40
0.567700365704733
40
0.573619368483364
40
0.579536091416753
40
0.586160229721147
40
0.592786676497549
40
0.599413924150926
40
0.606040427626952
40
0.612664613502475
40
0.619288346418138
40
0.625914303846463
40
0.63254103413917
40
0.639167048343169
40
0.645790828893164
40
0.652729921185562
40
0.659671482389815
40
0.666613897984636
40
0.673555515518638
40
0.680494655072181
40
0.68740929605939
40
0.694326315208645
40
0.701244147040228
40
0.708161200957408
40
0.715075871114852
40
0.721990339412725
40
0.72890715516787
40
0.73582476011878
40
0.742741585564315
40
0.749656061992371
40
0.756900400107364
40
0.76414744648688
40
0.771395387332614
40
0.778642414144942
40
0.785886735842613
40
0.792604733358014
40
0.799324189030844
40
0.806043633133657
40
0.812761614868335
40
0.819479752335082
40
0.826199377370704
40
0.832918986614729
40
0.839637102542703
40
0.846355417145019
40
0.853075256595194
40
0.859795077612078
40
0.86651336707237
40
0.872290519038757
40
0.878069171625862
40
0.883848309594973
40
0.889626932663778
40
0.895404059866461
40
0.90225279571153
40
0.909104107277327
40
0.915956251508068
40
0.92280751054169
40
0.929656202310972
40
0.936505267631774
40
0.943356973758016
40
0.950209542486911
40
0.957061211616719
40
0.963910245896304
40
0.969923197878431
40
0.975938565944496
40
0.981955139263622
40
0.98797170585131
40
0.993987058380169
40
1
40
1
40
1
40
1
41
1
10
4.79999999999998
20
-2.10152833982632
30
0
41
1
10
4.79999907987586
20
-2.10753572537714
30
0
41
1
10
4.79987774886234
20
-2.12308466238893
30
0
41
1
10
4.79918650851094
20
-2.14809871287879
30
0
41
1
10
4.79775564604301
20
-2.17536514074245
30
0
41
1
10
4.79577925414659
20
-2.20135498622202
30
0
41
1
10
4.79334953783202
20
-2.22608345575572
30
0
41
1
10
4.79038168383562
20
-2.25068408204383
30
0
41
1
10
4.78687794229332
20
-2.27514284677568
30
0
41
1
10
4.7828406345863
20
-2.29944577471012
30
0
41
1
10
4.77810835020661
20
-2.32444317437001
30
0
41
1
10
4.77261286086303
20
-2.35010900201768
30
0
41
1
10
4.76628742369154
20
-2.37641407931511
30
0
41
1
10
4.75931933491503
20
-2.40249349731804
30
0
41
1
10
4.75171443788968
20
-2.42833034026275
30
0
41
1
10
4.74347700284108
20
-2.45391237021012
30
0
41
1
10
4.7346090026939
20
-2.47923262415873
30
0
41
1
10
4.72511580822476
20
-2.50428642211919
30
0
41
1
10
4.71500350782847
20
-2.52906435630499
30
0
41
1
10
4.70428005377014
20
-2.55355179473315
30
0
41
1
10
4.69276557053251
20
-2.57813509058326
30
0
41
1
10
4.68042766792085
20
-2.60279137759946
30
0
41
1
10
4.66723762165597
20
-2.62749824563178
30
0
41
1
10
4.65339974238362
20
-2.65185539833775
30
0
41
1
10
4.63892516516253
20
-2.67584861877381
30
0
41
1
10
4.62392731315256
20
-2.6993035996044
30
0
41
1
10
4.60842581645349
20
-2.72222454951931
30
0
41
1
10
4.59244233798838
20
-2.74461883928629
30
0
41
1
10
4.57587592948738
20
-2.76664205902159
30
0
41
1
10
4.55873839580581
20
-2.78828320742044
30
0
41
1
10
4.54103837436757
20
-2.80953500011186
30
0
41
1
10
4.52278037858497
20
-2.83039425155979
30
0
41
1
10
4.50397117916887
20
-2.85086003695379
30
0
41
1
10
4.4846199421527
20
-2.87092739252651
30
0
41
1
10
4.46473949415036
20
-2.89058721859022
30
0
41
1
10
4.44401750398528
20
-2.91013717905531
30
0
41
1
10
4.42242938364313
20
-2.92955208950618
30
0
41
1
10
4.39995385585188
20
-2.94880753615217
30
0
41
1
10
4.3769320688471
20
-2.96760224630081
30
0
41
1
10
4.35337993483291
20
-2.98592749433751
30
0
41
1
10
4.32983671887815
20
-3.00338623806165
30
0
41
1
10
4.30634860954094
20
-3.02001161194302
30
0
41
1
10
4.28295983957849
20
-3.03583863786356
30
0
41
1
10
4.25914172812518
20
-3.0512450053221
30
0
41
1
10
4.2349046889385
20
-3.06622670768756
30
0
41
1
10
4.21025549452568
20
-3.0807814062974
30
0
41
1
10
4.18520229136776
20
-3.09490802386734
30
0
41
1
10
4.15975651878823
20
-3.10860300970939
30
0
41
1
10
4.13392923185579
20
-3.12186274980621
30
0
41
1
10
4.10772772503287
20
-3.13468504404516
30
0
41
1
10
4.08116070230778
20
-3.14706891922333
30
0
41
1
10
4.05424057924895
20
-3.15901109979807
30
0
41
1
10
4.02632463076694
20
-3.17078439481169
30
0
41
1
10
3.9973915942358
20
-3.18234846984688
30
0
41
1
10
3.967424323634
20
-3.19366240413126
30
0
41
1
10
3.93710254592107
20
-3.20445758758918
30
0
41
1
10
3.90716812630891
20
-3.214487063789
30
0
41
1
10
3.877659395051
20
-3.22379062102106
30
0
41
1
10
3.84861168328006
20
-3.23240908027666
30
0
41
1
10
3.81930659103697
20
-3.2405709487723
30
0
41
1
10
3.78975825224569
20
-3.24827354538655
30
0
41
1
10
3.75997655928609
20
-3.25551480629873
30
0
41
1
10
3.7299727431815
20
-3.26229410070603
30
0
41
1
10
3.69976291672518
20
-3.26860920609441
30
0
41
1
10
3.66936252261392
20
-3.2744578055478
30
0
41
1
10
3.63878252511661
20
-3.27983797195589
30
0
41
1
10
3.60803503758538
20
-3.28474934202816
30
0
41
1
10
3.57713732915728
20
-3.2891902362782
30
0
41
1
10
3.54751648406231
20
-3.29297847479045
30
0
41
1
10
3.51920339012905
20
-3.29618473175885
30
0
41
1
10
3.49222167500647
20
-3.29887729689496
30
0
41
1
10
3.46516671743824
20
-3.30121596636808
30
0
41
1
10
3.43805326738256
20
-3.30319975384577
30
0
41
1
10
3.40932266975593
20
-3.30492206625958
30
0
41
1
10
3.37897075898676
20
-3.30630634960906
30
0
41
1
10
3.34700113089156
20
-3.30727214194274
30
0
41
1
10
3.31500340380566
20
-3.30774784644083
30
0
41
1
10
3.28300209483351
20
-3.30773316812661
30
0
41
1
10
3.25101496132002
20
-3.30722772470841
30
0
41
1
10
3.21905306649206
20
-3.3062304614081
30
0
41
1
10
3.18712723091471
20
-3.30474268267933
30
0
41
1
10
3.15525485241177
20
-3.3027653177519
30
0
41
1
10
3.12346014174891
20
-3.30029950636263
30
0
41
1
10
3.09304973565833
20
-3.29746590138479
30
0
41
1
10
3.06402076516209
20
-3.29433098415553
30
0
41
1
10
3.03636373541821
20
-3.29095906439898
30
0
41
1
10
3.00880377164278
20
-3.28721247147379
30
0
41
1
10
2.98135638840202
20
-3.28309286580436
30
0
41
1
10
2.95403709683283
20
-3.27860192262659
30
0
41
1
10
2.92577310021838
20
-3.27354661273951
30
0
41
1
10
2.89658987083565
20
-3.26787286337073
30
0
41
1
10
2.86651778497879
20
-3.26152631970808
30
0
41
1
10
2.83664813656798
20
-3.2547185743738
30
0
41
1
10
2.8070009510962
20
-3.24745300230178
30
0
41
1
10
2.77759113031987
20
-3.23973160345625
30
0
41
1
10
2.74842745062189
20
-3.23155431013768
30
0
41
1
10
2.71951699453054
20
-3.22292277058397
30
0
41
1
10
2.6908718770361
20
-3.21383941594813
30
0
41
1
10
2.66251018405361
20
-3.20430836169899
30
0
41
1
10
2.63399943146548
20
-3.19417356539409
30
0
41
1
10
2.60536403851147
20
-3.18340960123384
30
0
41
1
10
2.57662903436532
20
-3.17199278292984
30
0
41
1
10
2.54824776849411
20
-3.16009198181312
30
0
41
1
10
2.52023891654899
20
-3.14771266381385
30
0
41
1
10
2.49264812388822
20
-3.13487283688096
30
0
41
1
10
2.46548187703368
20
-3.1215743144451
30
0
41
1
10
2.43874445118721
20
-3.1078206429736
30
0
41
1
10
2.41241536635777
20
-3.09359976810299
30
0
41
1
10
2.38651127415265
20
-3.07891782180628
30
0
41
1
10
2.36104418522407
20
-3.0637781741657
30
0
41
1
10
2.33602142992071
20
-3.04818066353424
30
0
41
1
10
2.31144836488984
20
-3.03212693337458
30
0
41
1
10
2.28733530452791
20
-3.01562094794039
30
0
41
1
10
2.26369748498205
20
-2.99866971744314
30
0
41
1
10
2.24017766936607
20
-2.98100049577733
30
0
41
1
10
2.21681032287606
20
-2.96258789045643
30
0
41
1
10
2.19363016303942
20
-2.94340906253636
30
0
41
1
10
2.17100851029
20
-2.9237533950175
30
0
41
1
10
2.14896156821158
20
-2.90363044088025
30
0
41
1
10
2.12802085902279
20
-2.88354383090214
30
0
41
1
10
2.10814609640218
20
-2.86353408435919
30
0
41
1
10
2.08929380808338
20
-2.84364084905789
30
0
41
1
10
2.07096759605731
20
-2.82336097682719
30
0
41
1
10
2.05317680978684
20
-2.802700338836
30
0
41
1
10
2.03592893200918
20
-2.78166164913103
30
0
41
1
10
2.01922972140941
20
-2.76024933390445
30
0
41
1
10
2.0030880234642
20
-2.73847084370624
30
0
41
1
10
1.98751269844343
20
-2.71633316284827
30
0
41
1
10
1.97251103826197
20
-2.69383994242517
30
0
41
1
10
1.95808836800136
20
-2.67099666745079
30
0
41
1
10
1.94425287900087
20
-2.64781224481915
30
0
41
1
10
1.93163105209754
20
-2.62539327775204
30
0
41
1
10
1.9201355745627
20
-2.60379625012105
30
0
41
1
10
1.90968003022125
20
-2.58307214796604
30
0
41
1
10
1.89967654924773
20
-2.56211473487406
30
0
41
1
10
1.89013091221357
20
-2.54093288904191
30
0
41
1
10
1.88048594714111
20
-2.5182095720744
30
0
41
1
10
1.87085113444181
20
-2.49389645857791
30
0
41
1
10
1.86134439493528
20
-2.46794883485782
30
0
41
1
10
1.85250114252625
20
-2.44171621350766
30
0
41
1
10
1.84432904378892
20
-2.41521587562441
30
0
41
1
10
1.83683401301586
20
-2.38845914446828
30
0
41
1
10
1.83002151310814
20
-2.36145199502809
30
0
41
1
10
1.82389290592381
20
-2.33420286625025
30
0
41
1
10
1.81845175106615
20
-2.30672615623952
30
0
41
1
10
1.81370301013149
20
-2.27904159707208
30
0
41
1
10
1.80981556572703
20
-2.25229722496015
30
0
41
1
10
1.80669745818008
20
-2.22652696818031
30
0
41
1
10
1.80425710001045
20
-2.20175941742021
30
0
41
1
10
1.80235690528638
20
-2.17686297568855
30
0
41
1
10
1.80099810872172
20
-2.15185259706037
30
0
41
1
10
1.80018168762443
20
-2.12674197911815
30
0
41
1
10
1.80000020294861
20
-2.10994259556267
30
0
41
1
10
1.79999999999999
20
-2.10152854513089
30
0
0
SPLINE
5
107
100
AcDbEntity
8
1
62
256
6
ByLayer
370
18
48
1
60
0
100
AcDbSpline
70
4
71
2
72
6
73
3
40
0
40
0
40
0
40
1
40
1
40
1
41
0.50059616150477
10
51.0796530624947
20
-7.52436989197626
30
0
41
0.49940383849523
10
51.1378160239879
20
-7.58408722379379
30
0
41
0.50059616150477
10
51.187195419239
20
-7.65123021807905
30
0
0
LINE
5
70
100
AcDbEntity
8
1
62
256
6
ByLayer
370
18
48
1
60
0
100
AcDbLine
10
19.05
20
-5.04528
30
0
11
20.95
21
-5.04528
31
0
39
0
210
0
220
0
230
1
0
LINE
5
72
100
AcDbEntity
8
1
62
256
6
ByLayer
370
18
48
1
60
0
100
AcDbLine
10
33.195425
20
-9.479336
30
0
11
45.46628
21
-11.584893
31
0
39
0
210
0
220
0
230
1
0
LINE
5
73
100
AcDbEntity
8
1
62
256
6
ByLayer
370
18
48
1
60
0
100
AcDbLine
10
1.385622
20
-4.5
30
0
11
5.8
21
-4.5
31
0
39
0
210
0
220
0
230
1
0
LINE
5
74
100
AcDbEntity
8
1
62
256
6
ByLayer
370
18
48
1
60
0
100
AcDbLine
10
44.525108
20
-4.615981
30
0
11
44.721148
21
-4.521634
31
0
39
0
210
0
220
0
230
1
0
LINE
5
75
100
AcDbEntity
8
1
62
256
6
ByLayer
370
18
48
1
60
0
100
AcDbLine
10
49.055507
20
-7.372462
30
0
11
49.055808
21
-7.441339
31
0
39
0
210
0
220
0
230
1
0
LINE
5
76
100
AcDbEntity
8
1
62
256
6
ByLayer
370
18
48
1
60
0
100
AcDbLine
10
30
20
-5.734375
30
0
11
30
21
-8.75
31
0
39
0
210
0
220
0
230
1
0
LINE
5
77
100
AcDbEntity
8
1
62
256
6
ByLayer
370
18
48
1
60
0
100
AcDbLine
10
27.93139
20
-5.7342
30
0
11
27.880189
21
6
31
0
39
0
210
0
220
0
230
1
0
LINE
5
78
100
AcDbEntity
8
1
62
256
6
ByLayer
370
18
48
1
60
0
100
AcDbLine
10
26.000449
20
-3.072588
30
0
11
8
21
-3.072588
31
0
39
0
210
0
220
0
230
1
0
LINE
5
79
100
AcDbEntity
8
1
62
256
6
ByLayer
370
18
48
1
60
0
100
AcDbLine
10
26.000449
20
-3.072588
30
0
11
27.93139
21
-5.7342
31
0
39
0
210
0
220
0
230
1
0
LINE
5
7A
100
AcDbEntity
8
1
62
256
6
ByLayer
370
18
48
1
60
0
100
AcDbLine
10
50.943294
20
-9.599355
30
0
11
50.943595
21
-9.668231
31
0
39
0
210
0
220
0
230
1
0
LINE
5
7B
100
AcDbEntity
8
1
62
256
6
ByLayer
370
18
48
1
60
0
100
AcDbLine
10
51.702157
20
-8.325556
30
0
11
51.702458
21
-8.394432
31
0
39
0
210
0
220
0
230
1
0
LINE
5
7C
100
AcDbEntity
8
1
62
256
6
ByLayer
370
18
48
1
60
0
100
AcDbLine
10
51.308794
20
-8.94815
30
0
11
51.309066
21
-9.010452
31
0
39
0
210
0
220
0
230
1
0
LINE
5
7D
100
AcDbEntity
8
1
62
256
6
ByLayer
370
18
48
1
60
0
100
AcDbLine
10
48.828946
20
-8.837026
30
0
11
48.829246
21
-8.905811
31
0
39
0
210
0
220
0
230
1
0
LINE
5
7E
100
AcDbEntity
8
1
62
256
6
ByLayer
370
18
48
1
60
0
100
AcDbLine
10
44.722776
20
-4.650452
30
0
11
44.723278
21
-4.76559
31
0
39
0
210
0
220
0
230
1
0
LINE
5
7F
100
AcDbEntity
8
1
62
256
6
ByLayer
370
18
48
1
60
0
100
AcDbLine
10
8
20
2.5
30
0
11
5.8
21
2.5
31
0
39
0
210
0
220
0
230
1
0
LINE
5
80
100
AcDbEntity
8
1
62
256
6
ByLayer
370
18
48
1
60
0
100
AcDbLine
10
49.462431
20
-9.584155
30
0
11
49.462139
21
-9.517061
31
0
39
0
210
0
220
0
230
1
0
LINE
5
81
100
AcDbEntity
8
1
62
256
6
ByLayer
370
18
48
1
60
0
100
AcDbLine
10
49.349893
20
-9.204493
30
0
11
49.349629
21
-9.144117
31
0
39
0
210
0
220
0
230
1
0
LINE
5
82
100
AcDbEntity
8
1
62
256
6
ByLayer
370
18
48
1
60
0
100
AcDbLine
10
52.839747
20
-8.352764
30
0
11
52.83949
21
-8.29391
31
0
39
0
210
0
220
0
230
1
0
LINE
5
83
100
AcDbEntity
8
1
62
256
6
ByLayer
370
18
48
1
60
0
100
AcDbLine
10
49.242087
20
-9.017256
30
0
11
49.24235
21
-9.077633
31
0
39
0
210
0
220
0
230
1
0
LINE
5
84
100
AcDbEntity
8
1
62
256
6
ByLayer
370
18
48
1
60
0
100
AcDbLine
10
5.8
20
4.5
30
0
11
1.385622
21
4.5
31
0
39
0
210
0
220
0
230
1
0
LINE
5
85
100
AcDbEntity
8
1
62
256
6
ByLayer
370
18
48
1
60
0
100
AcDbLine
10
26.088085
20
6
30
0
11
8
21
6
31
0
39
0
210
0
220
0
230
1
0
LINE
5
86
100
AcDbEntity
8
1
62
256
6
ByLayer
370
18
48
1
60
0
100
AcDbLine
10
26.088085
20
6
30
0
11
27.880189
21
6
31
0
39
0
210
0
220
0
230
1
0
LINE
5
87
100
AcDbEntity
8
1
62
256
6
ByLayer
370
18
48
1
60
0
100
AcDbLine
10
8
20
-8.75
30
0
11
8
21
-3.072588
31
0
39
0
210
0
220
0
230
1
0
LINE
5
88
100
AcDbEntity
8
1
62
256
6
ByLayer
370
18
48
1
60
0
100
AcDbLine
10
54.112134
20
6
30
0
11
27.880189
21
6
31
0
39
0
210
0
220
0
230
1
0
LINE
5
89
100
AcDbEntity
8
1
62
256
6
ByLayer
370
18
48
1
60
0
100
AcDbLine
10
26.000449
20
-3.072588
30
0
11
26.088085
21
6
31
0
39
0
210
0
220
0
230
1
0
LINE
5
8A
100
AcDbEntity
8
1
62
256
6
ByLayer
370
18
48
1
60
0
100
AcDbLine
10
20.95
20
-7.815643
30
0
11
20.95
21
-5.04528
31
0
39
0
210
0
220
0
230
1
0
LINE
5
8B
100
AcDbEntity
8
1
62
256
6
ByLayer
370
18
48
1
60
0
100
AcDbLine
10
5.8
20
3.979143
30
0
11
5.8
21
-4.5
31
0
39
0
210
0
220
0
230
1
0
LINE
5
8C
100
AcDbEntity
8
1
62
256
6
ByLayer
370
18
48
1
60
0
100
AcDbLine
10
1.385622
20
3.979143
30
0
11
1.385622
21
-4.5
31
0
39
0
210
0
220
0
230
1
0
LINE
5
8D
100
AcDbEntity
8
1
62
256
6
ByLayer
370
18
48
1
60
0
100
AcDbLine
10
50.969647
20
-7.043898
30
0
11
50.969875
21
-7.096115
31
0
39
0
210
0
220
0
230
1
0
LINE
5
8E
100
AcDbEntity
8
1
62
256
6
ByLayer
370
18
48
1
60
0
100
AcDbLine
10
30
20
-5.734375
30
0
11
27.93139
21
-5.7342
31
0
39
0
210
0
220
0
230
1
0
LINE
5
8F
100
AcDbEntity
8
1
62
256
6
ByLayer
370
18
48
1
60
0
100
AcDbLine
10
49.120497
20
-7.722262
30
0
11
49.120225
21
-7.65996
31
0
39
0
210
0
220
0
230
1
0
LINE
5
90
100
AcDbEntity
8
1
62
256
6
ByLayer
370
18
48
1
60
0
100
AcDbLine
10
5.8
20
-2.5
30
0
11
8
21
-2.5
31
0
39
0
210
0
220
0
230
1
0
LINE
5
91
100
AcDbEntity
8
1
62
256
6
ByLayer
370
18
48
1
60
0
100
AcDbLine
10
44.721091
20
-4.508562
30
0
11
44.721148
21
-4.521634
31
0
39
0
210
0
220
0
230
1
0
LINE
5
92
100
AcDbEntity
8
1
62
256
6
ByLayer
370
18
48
1
60
0
100
AcDbLine
10
44.723278
20
-4.76559
30
0
11
44.721148
21
-4.521634
31
0
39
0
210
0
220
0
230
1
0
LINE
5
93
100
AcDbEntity
8
1
62
256
6
ByLayer
370
18
48
1
60
0
100
AcDbLine
10
45.798141
20
-12.454984
30
0
11
54.535766
21
-13.954274
31
0
39
0
210
0
220
0
230
1
0
LINE
5
94
100
AcDbEntity
8
1
62
256
6
ByLayer
370
18
48
1
60
0
100
AcDbLine
10
47.475593
20
-3.091458
30
0
11
45.893978
21
-2.820068
31
0
39
0
210
0
220
0
230
1
0
LINE
5
95
100
AcDbEntity
8
1
62
256
6
ByLayer
370
18
48
1
60
0
100
AcDbLine
10
44.527238
20
-4.859937
30
0
11
44.525108
21
-4.615981
31
0
39
0
210
0
220
0
230
1
0
LINE
5
96
100
AcDbEntity
8
1
62
256
6
ByLayer
370
18
48
1
60
0
100
AcDbLine
10
54.631603
20
-4.319359
30
0
11
54.156805
21
-4.237888
31
0
39
0
210
0
220
0
230
1
0
LINE
5
97
100
AcDbEntity
8
1
62
256
6
ByLayer
370
18
48
1
60
0
100
AcDbLine
10
30
20
-8.75
30
0
11
8
21
-8.75
31
0
39
0
210
0
220
0
230
1
0
LINE
5
98
100
AcDbEntity
8
1
62
256
6
ByLayer
370
18
48
1
60
0
100
AcDbLine
10
45.46628
20
-11.584893
30
0
11
45.468379
21
-12.065986
31
0
39
0
210
0
220
0
230
1
0
LINE
5
99
100
AcDbEntity
8
1
62
256
6
ByLayer
370
18
48
1
60
0
100
AcDbLine
10
49.990212
20
-9.772841
30
0
11
49.990512
21
-9.841718
31
0
39
0
210
0
220
0
230
1
0
LINE
5
9A
100
AcDbEntity
8
1
62
256
6
ByLayer
370
18
48
1
60
0
100
AcDbLine
10
54.112134
20
6
30
0
11
54.156805
21
-4.237888
31
0
39
0
210
0
220
0
230
1
0
LINE
5
9B
100
AcDbEntity
8
1
62
256
6
ByLayer
370
18
48
1
60
0
100
AcDbLine
10
19.05
20
-7.815643
30
0
11
20.95
21
-7.815643
31
0
39
0
210
0
220
0
230
1
0
LINE
5
9C
100
AcDbEntity
8
1
62
256
6
ByLayer
370
18
48
1
60
0
100
AcDbLine
10
50.96688
20
-7.091049
30
0
11
50.967173
21
-7.158144
31
0
39
0
210
0
220
0
230
1
0
LINE
5
9D
100
AcDbEntity
8
1
62
256
6
ByLayer
370
18
48
1
60
0
100
AcDbLine
10
5.8
20
4.5
30
0
11
5.8
21
3.979143
31
0
39
0
210
0
220
0
230
1
0
LINE
5
9E
100
AcDbEntity
8
1
62
256
6
ByLayer
370
18
48
1
60
0
100
AcDbLine
10
1.385622
20
4.5
30
0
11
1.385622
21
3.979143
31
0
39
0
210
0
220
0
230
1
0
LINE
5
9F
100
AcDbEntity
8
1
62
256
6
ByLayer
370
18
48
1
60
0
100
AcDbLine
10
45.429748
20
-3.212531
30
0
11
45.46628
21
-11.584893
31
0
39
0
210
0
220
0
230
1
0
LINE
5
A0
100
AcDbEntity
8
1
62
256
6
ByLayer
370
18
48
1
60
0
100
AcDbLine
10
33
20
-8.75
30
0
11
33.195425
21
-9.479336
31
0
39
0
210
0
220
0
230
1
0
LINE
5
A1
100
AcDbEntity
8
1
62
256
6
ByLayer
370
18
48
1
60
0
100
AcDbLine
10
44.761441
20
-4.16347
30
0
11
44.760939
21
-4.048332
31
0
39
0
210
0
220
0
230
1
0
LINE
5
A2
100
AcDbEntity
8
1
62
256
6
ByLayer
370
18
48
1
60
0
100
AcDbLine
10
54.999996
20
-13.561812
30
0
11
54.961365
21
-4.708356
31
0
39
0
210
0
220
0
230
1
0
LINE
5
A3
100
AcDbEntity
8
1
62
256
6
ByLayer
370
18
48
1
60
0
100
AcDbLine
10
44.721105
20
-4.515098
30
0
11
44.721148
21
-4.521634
31
0
39
0
210
0
220
0
230
1
0
LINE
5
A4
100
AcDbEntity
8
1
62
256
6
ByLayer
370
18
48
1
60
0
100
AcDbLine
10
44.722776
20
-4.650452
30
0
11
44.721312
21
-4.482839
31
0
39
0
210
0
220
0
230
1
0
LINE
5
A5
100
AcDbEntity
8
1
62
256
6
ByLayer
370
18
48
1
60
0
100
AcDbLine
10
45.446587
20
-7.071618
30
0
11
45.440266
21
-6.347849
31
0
39
0
210
0
220
0
230
1
0
LINE
5
A6
100
AcDbEntity
8
1
62
256
6
ByLayer
370
18
48
1
60
0
100
AcDbLine
10
19.05
20
-7.815643
30
0
11
19.05
21
-5.04528
31
0
39
0
210
0
220
0
230
1
0
LINE
5
A7
100
AcDbEntity
8
1
62
256
6
ByLayer
370
18
48
1
60
0
100
AcDbLine
10
30
20
-8.75
30
0
11
33
21
-8.75
31
0
39
0
210
0
220
0
230
1
0
LINE
5
A8
100
AcDbEntity
8
1
62
256
6
ByLayer
370
18
48
1
60
0
100
AcDbLine
10
8
20
6
30
0
11
8
21
-3.072588
31
0
39
0
210
0
220
0
230
1
0
LINE
5
A9
100
AcDbEntity
8
1
62
256
6
ByLayer
370
18
48
1
60
0
100
AcDbLine
10
47.58954
20
-8.316817
30
0
11
47.589797
21
-8.375671
31
0
39
0
210
0
220
0
230
1
0
LINE
5
AA
100
AcDbEntity
8
1
62
256
6
ByLayer
370
18
48
1
60
0
100
AcDbLine
10
44.527238
20
-4.859937
30
0
11
44.723278
21
-4.76559
31
0
39
0
210
0
220
0
230
1
0
LINE
5
AB
100
AcDbEntity
8
1
62
256
6
ByLayer
370
18
48
1
60
0
100
AcDbLine
10
54.156805
20
-4.237888
30
0
11
47.475593
21
-3.091458
31
0
39
0
210
0
220
0
230
1
0
LINE
5
AC
100
AcDbEntity
8
80
62
256
6
ByLayer
370
13
48
1
60
0
100
AcDbLine
10
0
20
0
30
0
11
-3.613799
21
0
31
0
39
0
210
0
220
0
230
1
0
LINE
5
AD
100
AcDbEntity
8
81
62
256
6
ByLayer
370
18
48
1
60
0
100
AcDbLine
10
55.002058
20
-14.034285
30
0
11
58.317351
21
-14.034285
31
0
39
0
210
0
220
0
230
1
0
MTEXT
5
108
100
AcDbEntity
8
SK6
62
256
6
ByLayer
370
18
48
1
60
0
100
AcDbMText
10
18.403279
20
9.536917
30
0
210
0
220
0
230
1
1
\W0.7437;SCFCL 12CA-09
40
3
41
0
44
1.084337
50
0
71
7
72
5
7
iso_b_vert
0
DIMENSION
5
11A
100
AcDbEntity
8
SK2
62
256
6
ByLayer
370
13
48
1
60
0
100
AcDbDimension
2
DimnDraft3D1
10
-7.750434
20
-8.75
30
0
11
-7.750434
21
-3.343104
31
0
70
32
71
5
72
1
41
1
210
0
220
0
230
1
3
Standard
100
AcDbAlignedDimension
13
6
23
6
33
0
14
6
24
-8.75
34
0
50
90
100
AcDbRotatedDimension
1001
ACAD
1000
DSTYLE
1002
{
1070
    74
1070
     0
1070
   279
1070
     0
1070
   172
1070
     1
1070
   173
1070
     1
1070
   340
1005
109
1070
    77
1070
     1
1070
    73
1070
     0
1070
   171
1070
     3
1070
   274
1070
     4
1070
   177
1070
   254
1070
   176
1070
   254
1070
   178
1070
     7
1070
    78
1070
     8
1070
    41
1041
3.175
1070
   147
1041
1.5
1070
    42
1041
2.0
1070
    44
1041
2.0
1070
   140
1041
3.0
1070
   343
1005
11B
1070
   344
1005
11B
1002
}
0
DIMENSION
5
12F
100
AcDbEntity
8
SK2
62
256
6
ByLayer
370
13
48
1
60
0
100
AcDbDimension
2
DimnDraft3D2
10
75.376984
20
-14.034285
30
0
11
75.376984
21
-6.332371
31
0
70
32
71
5
72
1
41
1
210
0
220
0
230
1
3
Standard
100
AcDbAlignedDimension
13
56.112134
23
6
33
0
14
60.317351
24
-14.034285
34
0
50
90
100
AcDbRotatedDimension
1001
ACAD
1000
DSTYLE
1002
{
1070
    74
1070
     0
1070
   279
1070
     0
1070
   172
1070
     1
1070
   173
1070
     1
1070
   340
1005
109
1070
   271
1070
     0
1070
    77
1070
     1
1070
    73
1070
     0
1070
   171
1070
     3
1070
   274
1070
     4
1070
   177
1070
   254
1070
   176
1070
   254
1070
   178
1070
     7
1070
    78
1070
     8
1070
    41
1041
3.175
1070
   147
1041
1.5
1070
    42
1041
2.0
1070
    44
1041
2.0
1070
   140
1041
3.0
1070
   343
1005
11B
1070
   344
1005
11B
1002
}
0
DIMENSION
5
13C
100
AcDbEntity
8
SK2
62
256
6
ByLayer
370
13
48
1
60
0
100
AcDbDimension
2
DimnDraft3D3
10
27.880189
20
6
30
0
11
62.931737
21
-5.701843
31
0
70
34
71
5
72
1
41
1
210
0
220
0
230
1
3
Standard
100
AcDb2LineAngularDimension
13
54.999996
23
-13.561812
33
0
14
54.961365
24
-4.708356
34
0
15
54.112134
25
6
35
0
16
66.193794
26
-5.230045
36
0
40
0
0
DIMENSION
5
14A
100
AcDbEntity
8
SK2
62
256
6
ByLayer
370
13
48
1
60
0
100
AcDbDimension
2
DimnDraft3D4
10
20
20
-17.920812
30
0
11
7.892779
21
-17.920812
31
0
70
32
71
5
72
1
41
1
210
0
220
0
230
1
3
Standard
100
AcDbAlignedDimension
13
0
23
-2
33
0
14
20
24
-9.815643
34
0
50
0
100
AcDbRotatedDimension
1001
ACAD
1000
DSTYLE
1002
{
1070
   279
1070
     0
1070
   172
1070
     1
1070
   173
1070
     1
1070
   340
1005
109
1070
    77
1070
     1
1070
    73
1070
     0
1070
   171
1070
     3
1070
   274
1070
     4
1070
   177
1070
   254
1070
   176
1070
   254
1070
   178
1070
     7
1070
    78
1070
     8
1070
    41
1041
3.175
1070
   147
1041
1.5
1070
    42
1041
2.0
1070
    44
1041
2.0
1070
   140
1041
3.0
1070
   343
1005
11B
1070
   344
1005
11B
1002
}
0
DIMENSION
5
159
100
AcDbEntity
8
2
62
256
6
ByLayer
370
13
48
1
60
0
100
AcDbDimension
2
DimnDraft3D5
10
54.999996
20
-27.69399
30
0
11
25.196694
21
-27.69399
31
0
70
32
71
5
72
1
41
1
210
0
220
0
230
1
3
Standard
100
AcDbAlignedDimension
13
0
23
-2
33
0
14
54.999996
24
-15.561812
34
0
50
0
100
AcDbRotatedDimension
1001
ACAD
1000
DSTYLE
1002
{
1070
   279
1070
     0
1070
   172
1070
     1
1070
   173
1070
     1
1070
   340
1005
109
1070
    77
1070
     1
1070
    73
1070
     0
1070
   171
1070
     3
1070
   274
1070
     4
1070
   177
1070
   254
1070
   176
1070
   254
1070
   178
1070
     7
1070
    78
1070
     8
1070
    41
1041
3.175
1070
   147
1041
1.5
1070
    42
1041
2.0
1070
    44
1041
2.0
1070
   140
1041
3.0
1070
   343
1005
11B
1070
   344
1005
11B
1002
}
0
ENDSEC
0
SECTION
2
OBJECTS
0
DICTIONARY
5
1c2
330
0
100
AcDbDictionary
280
0
281
1
3
ACAD_GROUP
350
1c3
3
ACAD_MLINESTYLE
350
1c4
0
DICTIONARY
5
1c3
330
0
100
AcDbDictionary
280
0
281
1
0
DICTIONARY
5
1c4
330
0
100
AcDbDictionary
280
0
281
1
3
Standard
350
18
0
MLINESTYLE
5
18
330
1c4
100
AcDbMlineStyle
2
Standard
70
0
3

62
256
51
90
52
90
71
2
49
-0.5
62
256
6
ByLayer
49
0.5
62
256
6
ByLayer
0
RASTERVARIABLES
5
1b2
330

100
AcDbRasterVariables
90
0
70
1
71
1
72
1
0
ENDSEC
0
EOF
