  0
SECTION
  2
HEADER
  9
$ACADVER
  1
AC1015
  9
$ACADMAINTVER
 70
    20
  9
$DWGCODEPAGE
  3
ANSI_1252
  9
$INSBASE
 10
0.0
 20
0.0
 30
0.0
  9
$EXTMIN
 10
-16.70662254405079
 20
-5.029753445449387
 30
-0.0010953125149342
  9
$EXTMAX
 10
312.5033182183011
 20
39.75097730726816
 30
0.0057328914067512
  9
$LIMMIN
 10
-170.0
 20
-170.0
  9
$LIMMAX
 10
519.0
 20
260.0
  9
$ORTHOMODE
 70
     0
  9
$REGENMODE
 70
     1
  9
$FILLMODE
 70
     1
  9
$QTEXTMODE
 70
     0
  9
$MIRRTEXT
 70
     0
  9
$LTSCALE
 40
1.0
  9
$ATTMODE
 70
     1
  9
$TEXTSIZE
 40
3.5
  9
$TRACEWID
 40
1.0
  9
$TEXTSTYLE
  7
SIMPLEX
  9
$CLAYER
  8
1
  9
$CELTYPE
  6
BYLAYER
  9
$CECOLOR
 62
   256
  9
$CELTSCALE
 40
1.0
  9
$DISPSILH
 70
     0
  9
$DIMSCALE
 40
1.0
  9
$DIMASZ
 40
2.5
  9
$DIMEXO
 40
0.0
  9
$DIMDLI
 40
3.75
  9
$DIMRND
 40
0.0
  9
$DIMDLE
 40
0.0
  9
$DIMEXE
 40
1.25
  9
$DIMTP
 40
0.0
  9
$DIMTM
 40
0.0
  9
$DIMTXT
 40
3.5
  9
$DIMCEN
 40
0.0
  9
$DIMTSZ
 40
0.0
  9
$DIMTOL
 70
     0
  9
$DIMLIM
 70
     0
  9
$DIMTIH
 70
     0
  9
$DIMTOH
 70
     0
  9
$DIMSE1
 70
     0
  9
$DIMSE2
 70
     0
  9
$DIMTAD
 70
     1
  9
$DIMZIN
 70
     8
  9
$DIMBLK
  1

  9
$DIMASO
 70
     1
  9
$DIMSHO
 70
     1
  9
$DIMPOST
  1

  9
$DIMAPOST
  1

  9
$DIMALT
 70
     0
  9
$DIMALTD
 70
     3
  9
$DIMALTF
 40
0.039370078
  9
$DIMLFAC
 40
1.0
  9
$DIMTOFL
 70
     0
  9
$DIMTVP
 40
0.0
  9
$DIMTIX
 70
     0
  9
$DIMSOXD
 70
     0
  9
$DIMSAH
 70
     0
  9
$DIMBLK1
  1

  9
$DIMBLK2
  1

  9
$DIMSTYLE
  2
STANDARD
  9
$DIMCLRD
 70
     0
  9
$DIMCLRE
 70
     0
  9
$DIMCLRT
 70
     0
  9
$DIMTFAC
 40
1.0
  9
$DIMGAP
 40
0.625
  9
$DIMJUST
 70
     0
  9
$DIMSD1
 70
     0
  9
$DIMSD2
 70
     0
  9
$DIMTOLJ
 70
     0
  9
$DIMTZIN
 70
     8
  9
$DIMALTZ
 70
     0
  9
$DIMALTTZ
 70
     0
  9
$DIMUPT
 70
     0
  9
$DIMDEC
 70
     2
  9
$DIMTDEC
 70
     2
  9
$DIMALTU
 70
     2
  9
$DIMALTTD
 70
     3
  9
$DIMTXSTY
  7
SIMPLEX
  9
$DIMAUNIT
 70
     0
  9
$DIMADEC
 70
     2
  9
$DIMALTRND
 40
0.0
  9
$DIMAZIN
 70
     2
  9
$DIMDSEP
 70
    46
  9
$DIMATFIT
 70
     3
  9
$DIMFRAC
 70
     0
  9
$DIMLDRBLK
  1

  9
$DIMLUNIT
 70
     2
  9
$DIMLWD
 70
    -2
  9
$DIMLWE
 70
    -2
  9
$DIMTMOVE
 70
     0
  9
$LUNITS
 70
     2
  9
$LUPREC
 70
     4
  9
$SKETCHINC
 40
1.0
  9
$FILLETRAD
 40
0.0
  9
$AUNITS
 70
     0
  9
$AUPREC
 70
     0
  9
$MENU
  1
c:\tdm21\cad\caduti13\tdm13
  9
$ELEVATION
 40
0.0
  9
$PELEVATION
 40
0.0
  9
$THICKNESS
 40
0.0
  9
$LIMCHECK
 70
     0
  9
$CHAMFERA
 40
0.0
  9
$CHAMFERB
 40
0.0
  9
$CHAMFERC
 40
0.0
  9
$CHAMFERD
 40
0.0
  9
$SKPOLY
 70
     0
  9
$TDCREATE
 40
2455884.454646945
  9
$TDUCREATE
 40
2455884.371313611
  9
$TDUPDATE
 40
2456818.431542257
  9
$TDUUPDATE
 40
2456818.348208924
  9
$TDINDWG
 40
0.0007109491
  9
$TDUSRTIMER
 40
0.0007107523
  9
$USRTIMER
 70
     1
  9
$ANGBASE
 50
0.0
  9
$ANGDIR
 70
     0
  9
$PDMODE
 70
     1
  9
$PDSIZE
 40
0.0
  9
$PLINEWID
 40
0.0
  9
$SPLFRAME
 70
     0
  9
$SPLINETYPE
 70
     6
  9
$SPLINESEGS
 70
     8
  9
$HANDSEED
  5
245B3
  9
$SURFTAB1
 70
     6
  9
$SURFTAB2
 70
     6
  9
$SURFTYPE
 70
     6
  9
$SURFU
 70
     6
  9
$SURFV
 70
     6
  9
$UCSBASE
  2

  9
$UCSNAME
  2

  9
$UCSORG
 10
0.0
 20
0.0
 30
0.0
  9
$UCSXDIR
 10
1.0
 20
0.0
 30
0.0
  9
$UCSYDIR
 10
0.0
 20
1.0
 30
0.0
  9
$UCSORTHOREF
  2

  9
$UCSORTHOVIEW
 70
     0
  9
$UCSORGTOP
 10
0.0
 20
0.0
 30
0.0
  9
$UCSORGBOTTOM
 10
0.0
 20
0.0
 30
0.0
  9
$UCSORGLEFT
 10
0.0
 20
0.0
 30
0.0
  9
$UCSORGRIGHT
 10
0.0
 20
0.0
 30
0.0
  9
$UCSORGFRONT
 10
0.0
 20
0.0
 30
0.0
  9
$UCSORGBACK
 10
0.0
 20
0.0
 30
0.0
  9
$PUCSBASE
  2

  9
$PUCSNAME
  2

  9
$PUCSORG
 10
0.0
 20
0.0
 30
0.0
  9
$PUCSXDIR
 10
1.0
 20
0.0
 30
0.0
  9
$PUCSYDIR
 10
0.0
 20
1.0
 30
0.0
  9
$PUCSORTHOREF
  2

  9
$PUCSORTHOVIEW
 70
     0
  9
$PUCSORGTOP
 10
0.0
 20
0.0
 30
0.0
  9
$PUCSORGBOTTOM
 10
0.0
 20
0.0
 30
0.0
  9
$PUCSORGLEFT
 10
0.0
 20
0.0
 30
0.0
  9
$PUCSORGRIGHT
 10
0.0
 20
0.0
 30
0.0
  9
$PUCSORGFRONT
 10
0.0
 20
0.0
 30
0.0
  9
$PUCSORGBACK
 10
0.0
 20
0.0
 30
0.0
  9
$USERI1
 70
     0
  9
$USERI2
 70
     0
  9
$USERI3
 70
     0
  9
$USERI4
 70
     0
  9
$USERI5
 70
     0
  9
$USERR1
 40
0.0
  9
$USERR2
 40
0.0
  9
$USERR3
 40
0.0
  9
$USERR4
 40
0.0
  9
$USERR5
 40
0.0
  9
$WORLDVIEW
 70
     1
  9
$SHADEDGE
 70
     3
  9
$SHADEDIF
 70
    70
  9
$TILEMODE
 70
     1
  9
$MAXACTVP
 70
    64
  9
$PINSBASE
 10
0.0
 20
0.0
 30
0.0
  9
$PLIMCHECK
 70
     0
  9
$PEXTMIN
 10
0.0
 20
0.0
 30
0.0
  9
$PEXTMAX
 10
0.0
 20
0.0
 30
0.0
  9
$PLIMMIN
 10
0.0
 20
0.0
  9
$PLIMMAX
 10
12.0
 20
9.0
  9
$UNITMODE
 70
     0
  9
$VISRETAIN
 70
     0
  9
$PLINEGEN
 70
     0
  9
$PSLTSCALE
 70
     1
  9
$TREEDEPTH
 70
  3020
  9
$CMLSTYLE
  2
STANDARD
  9
$CMLJUST
 70
     0
  9
$CMLSCALE
 40
20.0
  9
$PROXYGRAPHICS
 70
     1
  9
$MEASUREMENT
 70
     1
  9
$CELWEIGHT
370
    -1
  9
$ENDCAPS
280
     0
  9
$JOINSTYLE
280
     0
  9
$LWDISPLAY
290
     0
  9
$INSUNITS
 70
     4
  9
$HYPERLINKBASE
  1

  9
$STYLESHEET
  1
MONOCHROME.CTB
  9
$XEDIT
290
     1
  9
$CEPSNTYPE
380
     0
  9
$PSTYLEMODE
290
     1
  9
$FINGERPRINTGUID
  2
{96411C75-3388-4E11-B733-E6D30CAF9F14}
  9
$VERSIONGUID
  2
{B042B680-1E0C-4514-AFC8-96A95B08E257}
  9
$EXTNAMES
290
     1
  9
$PSVPSCALE
 40
0.0
  9
$OLESTARTUP
290
     0
  0
ENDSEC
  0
SECTION
  2
CLASSES
  0
CLASS
  1
ACDBDICTIONARYWDFLT
  2
AcDbDictionaryWithDefault
  3
ObjectDBX Classes
 90
        0
280
     0
281
     0
  0
CLASS
  1
ACDBPLACEHOLDER
  2
AcDbPlaceHolder
  3
ObjectDBX Classes
 90
        0
280
     0
281
     0
  0
CLASS
  1
LAYOUT
  2
AcDbLayout
  3
ObjectDBX Classes
 90
        0
280
     0
281
     0
  0
CLASS
  1
DICTIONARYVAR
  2
AcDbDictionaryVar
  3
ObjectDBX Classes
 90
        0
280
     0
281
     0
  0
CLASS
  1
TABLESTYLE
  2
AcDbTableStyle
  3
ObjectDBX Classes
 90
     4095
280
     0
281
     0
  0
CLASS
  1
MATERIAL
  2
AcDbMaterial
  3
ObjectDBX Classes
 90
     1153
280
     0
281
     0
  0
CLASS
  1
VISUALSTYLE
  2
AcDbVisualStyle
  3
ObjectDBX Classes
 90
     4095
280
     0
281
     0
  0
CLASS
  1
SCALE
  2
AcDbScale
  3
ObjectDBX Classes
 90
     1153
280
     0
281
     0
  0
CLASS
  1
MLEADERSTYLE
  2
AcDbMLeaderStyle
  3
ACDB_MLEADERSTYLE_CLASS
 90
     4095
280
     0
281
     0
  0
CLASS
  1
CELLSTYLEMAP
  2
AcDbCellStyleMap
  3
ObjectDBX Classes
 90
     1152
280
     0
281
     0
  0
CLASS
  1
SORTENTSTABLE
  2
AcDbSortentsTable
  3
ObjectDBX Classes
 90
        0
280
     0
281
     0
  0
CLASS
  1
ACDBSECTIONVIEWSTYLE
  2
AcDbSectionViewStyle
  3
ObjectDBX Classes
 90
     1025
280
     0
281
     0
  0
CLASS
  1
ACDBDETAILVIEWSTYLE
  2
AcDbDetailViewStyle
  3
ObjectDBX Classes
 90
     1025
280
     0
281
     0
  0
CLASS
  1
EXACXREFPANELOBJECT
  2
ExAcXREFPanelObject
  3
EXAC_ESW
 90
     1025
280
     0
281
     0
  0
CLASS
  1
NPOCOLLECTION
  2
AcDbImpNonPersistentObjectsCollection
  3
ObjectDBX Classes
 90
     1153
280
     0
281
     0
  0
ENDSEC
  0
SECTION
  2
TABLES
  0
TABLE
  2
VPORT
  5
8
330
0
100
AcDbSymbolTable
 70
     1
  0
VPORT
  5
3ED
330
8
100
AcDbSymbolTableRecord
100
AcDbViewportTableRecord
  2
*Active
 70
     0
 10
0.0
 20
0.0
 11
1.0
 21
1.0
 12
147.8983478371251
 22
17.36061193090938
 13
0.0
 23
0.0
 14
5.0
 24
5.0
 15
5.0
 25
5.0
 16
0.0
 26
0.0
 36
1.0
 17
0.0
 27
0.0
 37
0.0
 40
166.8100597906785
 41
2.2
 42
50.0
 43
0.0
 44
0.0
 50
0.0
 51
0.0
 71
     0
 72
  2000
 73
     1
 74
     1
 75
     0
 76
     0
 77
     0
 78
     0
281
     0
 65
     1
110
0.0
120
0.0
130
0.0
111
1.0
121
0.0
131
0.0
112
0.0
122
1.0
132
0.0
 79
     0
146
0.0
1001
ACAD_NAV_VCDISPLAY
1070
     3
  0
ENDTAB
  0
TABLE
  2
LTYPE
  5
5
330
0
100
AcDbSymbolTable
 70
     3
  0
LTYPE
  5
12
330
5
100
AcDbSymbolTableRecord
100
AcDbLinetypeTableRecord
  2
BYBLOCK
 70
     0
  3

 72
    65
 73
     0
 40
0.0
  0
LTYPE
  5
13
330
5
100
AcDbSymbolTableRecord
100
AcDbLinetypeTableRecord
  2
BYLAYER
 70
     0
  3

 72
    65
 73
     0
 40
0.0
  0
LTYPE
  5
14
330
5
100
AcDbSymbolTableRecord
100
AcDbLinetypeTableRecord
  2
CONTINUOUS
 70
     0
  3
Solid line
 72
    65
 73
     0
 40
0.0
  0
LTYPE
  5
242F3
330
5
100
AcDbSymbolTableRecord
100
AcDbLinetypeTableRecord
  2
CENTER
 70
     0
  3
____ _ ____ _ ____ _ ____ _ ____ _ ____ _ ____
 72
    65
 73
     4
 40
0.1992
 49
0.1245
 74
     0
 49
-0.0249
 74
     0
 49
0.0249
 74
     0
 49
-0.0249
 74
     0
  0
LTYPE
  5
242F4
330
5
100
AcDbSymbolTableRecord
100
AcDbLinetypeTableRecord
  2
DASHED
 70
     0
  3
__ __ __ __ __ __ __ __ __ __ __ __ __ __ __ __
 72
    65
 73
     2
 40
0.29881
 49
0.1992
 74
     0
 49
-0.099604
 74
     0
  0
ENDTAB
  0
TABLE
  2
LAYER
  5
2
330
0
100
AcDbSymbolTable
 70
    39
  0
LAYER
  5
F
102
{ACAD_XDICTIONARY
360
24524
102
}
330
2
100
AcDbSymbolTableRecord
100
AcDbLayerTableRecord
  2
0
 70
     0
 62
     7
  6
CONTINUOUS
370
    -3
390
300
  0
LAYER
  5
23
102
{ACAD_XDICTIONARY
360
24526
102
}
330
2
100
AcDbSymbolTableRecord
100
AcDbLayerTableRecord
  2
1
 70
     0
 62
     4
  6
CONTINUOUS
370
    -3
390
300
  0
LAYER
  5
242F5
102
{ACAD_XDICTIONARY
360
24528
102
}
330
2
100
AcDbSymbolTableRecord
100
AcDbLayerTableRecord
  2
2
 70
     0
 62
     7
  6
CONTINUOUS
370
    -3
390
300
  0
LAYER
  5
242F6
102
{ACAD_XDICTIONARY
360
2452A
102
}
330
2
100
AcDbSymbolTableRecord
100
AcDbLayerTableRecord
  2
61
 70
     0
 62
     5
  6
CONTINUOUS
370
    -3
390
300
  0
LAYER
  5
242F7
102
{ACAD_XDICTIONARY
360
2452C
102
}
330
2
100
AcDbSymbolTableRecord
100
AcDbLayerTableRecord
  2
62
 70
     0
 62
    -5
  6
CONTINUOUS
370
    -3
390
300
  0
LAYER
  5
242F8
102
{ACAD_XDICTIONARY
360
2452E
102
}
330
2
100
AcDbSymbolTableRecord
100
AcDbLayerTableRecord
  2
63
 70
     0
 62
    -5
  6
CONTINUOUS
370
    -3
390
300
  0
LAYER
  5
242F9
102
{ACAD_XDICTIONARY
360
24530
102
}
330
2
100
AcDbSymbolTableRecord
100
AcDbLayerTableRecord
  2
64
 70
     0
 62
    -5
  6
CONTINUOUS
370
    -3
390
300
  0
LAYER
  5
242FA
102
{ACAD_XDICTIONARY
360
24532
102
}
330
2
100
AcDbSymbolTableRecord
100
AcDbLayerTableRecord
  2
65
 70
     0
 62
    -5
  6
CONTINUOUS
370
    -3
390
300
  0
LAYER
  5
242FB
102
{ACAD_XDICTIONARY
360
24534
102
}
330
2
100
AcDbSymbolTableRecord
100
AcDbLayerTableRecord
  2
66
 70
     0
 62
    -5
  6
CONTINUOUS
370
    -3
390
300
  0
LAYER
  5
242FC
102
{ACAD_XDICTIONARY
360
24536
102
}
330
2
100
AcDbSymbolTableRecord
100
AcDbLayerTableRecord
  2
67
 70
     0
 62
    -5
  6
CONTINUOUS
370
    -3
390
300
  0
LAYER
  5
242FD
102
{ACAD_XDICTIONARY
360
24538
102
}
330
2
100
AcDbSymbolTableRecord
100
AcDbLayerTableRecord
  2
68
 70
     0
 62
    -5
  6
CONTINUOUS
370
    -3
390
300
  0
LAYER
  5
242FE
102
{ACAD_XDICTIONARY
360
2453A
102
}
330
2
100
AcDbSymbolTableRecord
100
AcDbLayerTableRecord
  2
69
 70
     0
 62
    -5
  6
CONTINUOUS
370
    -3
390
300
  0
LAYER
  5
242FF
102
{ACAD_XDICTIONARY
360
2453C
102
}
330
2
100
AcDbSymbolTableRecord
100
AcDbLayerTableRecord
  2
70
 70
     0
 62
     5
  6
CONTINUOUS
370
    -3
390
300
  0
LAYER
  5
24300
102
{ACAD_XDICTIONARY
360
2453E
102
}
330
2
100
AcDbSymbolTableRecord
100
AcDbLayerTableRecord
  2
3
 70
     0
 62
     1
  6
DASHED
370
    -3
390
300
  0
LAYER
  5
24301
102
{ACAD_XDICTIONARY
360
24540
102
}
330
2
100
AcDbSymbolTableRecord
100
AcDbLayerTableRecord
  2
4
 70
     0
 62
    -2
  6
CENTER
370
    -3
390
300
  0
LAYER
  5
24302
102
{ACAD_XDICTIONARY
360
24542
102
}
330
2
100
AcDbSymbolTableRecord
100
AcDbLayerTableRecord
  2
5
 70
     0
 62
    -7
  6
CONTINUOUS
370
    -3
390
300
  0
LAYER
  5
24303
102
{ACAD_XDICTIONARY
360
24544
102
}
330
2
100
AcDbSymbolTableRecord
100
AcDbLayerTableRecord
  2
SK1
 70
     0
 62
     4
  6
CONTINUOUS
370
    -3
390
300
  0
LAYER
  5
24304
102
{ACAD_XDICTIONARY
360
24546
102
}
330
2
100
AcDbSymbolTableRecord
100
AcDbLayerTableRecord
  2
6
 70
     0
 62
     5
  6
CONTINUOUS
370
    -3
390
300
  0
LAYER
  5
24305
102
{ACAD_XDICTIONARY
360
24548
102
}
330
2
100
AcDbSymbolTableRecord
100
AcDbLayerTableRecord
  2
SK2
 70
     0
 62
     7
  6
CONTINUOUS
370
    -3
390
300
  0
LAYER
  5
24306
102
{ACAD_XDICTIONARY
360
2454A
102
}
330
2
100
AcDbSymbolTableRecord
100
AcDbLayerTableRecord
  2
SK3
 70
     0
 62
     1
  6
DASHED
370
    -3
390
300
  0
LAYER
  5
24307
102
{ACAD_XDICTIONARY
360
2454C
102
}
330
2
100
AcDbSymbolTableRecord
100
AcDbLayerTableRecord
  2
SK4
 70
     0
 62
     2
  6
CENTER
370
    -3
390
300
  0
LAYER
  5
24308
102
{ACAD_XDICTIONARY
360
2454E
102
}
330
2
100
AcDbSymbolTableRecord
100
AcDbLayerTableRecord
  2
CUT
 70
     0
 62
    -1
  6
CONTINUOUS
370
    -3
390
300
  0
LAYER
  5
24309
102
{ACAD_XDICTIONARY
360
24550
102
}
330
2
100
AcDbSymbolTableRecord
100
AcDbLayerTableRecord
  2
SK6
 70
     0
 62
     5
  6
CONTINUOUS
370
    -3
390
300
  0
LAYER
  5
2430A
102
{ACAD_XDICTIONARY
360
24552
102
}
330
2
100
AcDbSymbolTableRecord
100
AcDbLayerTableRecord
  2
80
 70
     0
 62
    -2
  6
CENTER
370
    -3
390
300
  0
LAYER
  5
2430B
102
{ACAD_XDICTIONARY
360
24554
102
}
330
2
100
AcDbSymbolTableRecord
100
AcDbLayerTableRecord
  2
81
 70
     0
 62
    -2
  6
CENTER
370
    -3
390
300
  0
LAYER
  5
2430C
102
{ACAD_XDICTIONARY
360
24556
102
}
330
2
100
AcDbSymbolTableRecord
100
AcDbLayerTableRecord
  2
82
 70
     0
 62
    -2
  6
CENTER
370
    -3
390
300
  0
LAYER
  5
2430D
102
{ACAD_XDICTIONARY
360
24558
102
}
330
2
100
AcDbSymbolTableRecord
100
AcDbLayerTableRecord
  2
NOCUT
 70
     0
 62
     7
  6
CONTINUOUS
370
    -3
390
300
  0
LAYER
  5
2430E
102
{ACAD_XDICTIONARY
360
2455A
102
}
330
2
100
AcDbSymbolTableRecord
100
AcDbLayerTableRecord
  2
50
 70
     0
 62
    -7
  6
CONTINUOUS
370
    -3
390
300
  0
LAYER
  5
2430F
102
{ACAD_XDICTIONARY
360
2455C
102
}
330
2
100
AcDbSymbolTableRecord
100
AcDbLayerTableRecord
  2
51
 70
     0
 62
     7
  6
CONTINUOUS
370
    -3
390
300
  0
LAYER
  5
24310
102
{ACAD_XDICTIONARY
360
2455E
102
}
330
2
100
AcDbSymbolTableRecord
100
AcDbLayerTableRecord
  2
52
 70
     0
 62
    -7
  6
CONTINUOUS
370
    -3
390
300
  0
LAYER
  5
24311
102
{ACAD_XDICTIONARY
360
24560
102
}
330
2
100
AcDbSymbolTableRecord
100
AcDbLayerTableRecord
  2
53
 70
     0
 62
    -7
  6
CONTINUOUS
370
    -3
390
300
  0
LAYER
  5
24312
102
{ACAD_XDICTIONARY
360
24562
102
}
330
2
100
AcDbSymbolTableRecord
100
AcDbLayerTableRecord
  2
54
 70
     0
 62
    -7
  6
CONTINUOUS
370
    -3
390
300
  0
LAYER
  5
24313
102
{ACAD_XDICTIONARY
360
24564
102
}
330
2
100
AcDbSymbolTableRecord
100
AcDbLayerTableRecord
  2
55
 70
     0
 62
    -7
  6
CONTINUOUS
370
    -3
390
300
  0
LAYER
  5
24314
102
{ACAD_XDICTIONARY
360
24566
102
}
330
2
100
AcDbSymbolTableRecord
100
AcDbLayerTableRecord
  2
56
 70
     0
 62
    -7
  6
CONTINUOUS
370
    -3
390
300
  0
LAYER
  5
24315
102
{ACAD_XDICTIONARY
360
24568
102
}
330
2
100
AcDbSymbolTableRecord
100
AcDbLayerTableRecord
  2
57
 70
     0
 62
    -7
  6
CONTINUOUS
370
    -3
390
300
  0
LAYER
  5
24316
102
{ACAD_XDICTIONARY
360
2456A
102
}
330
2
100
AcDbSymbolTableRecord
100
AcDbLayerTableRecord
  2
58
 70
     0
 62
    -7
  6
CONTINUOUS
370
    -3
390
300
  0
LAYER
  5
24317
102
{ACAD_XDICTIONARY
360
2456C
102
}
330
2
100
AcDbSymbolTableRecord
100
AcDbLayerTableRecord
  2
2L
 70
     0
 62
     7
  6
CONTINUOUS
370
    -3
390
300
  0
LAYER
  5
24318
102
{ACAD_XDICTIONARY
360
2456E
102
}
330
2
100
AcDbSymbolTableRecord
100
AcDbLayerTableRecord
  2
59
 70
     0
 62
    -7
  6
CONTINUOUS
370
    -3
390
300
  0
LAYER
  5
24319
330
2
100
AcDbSymbolTableRecord
100
AcDbLayerTableRecord
  2
Defpoints
 70
     0
 62
     7
  6
CONTINUOUS
290
     0
370
    -3
390
300
  0
ENDTAB
  0
TABLE
  2
STYLE
  5
3
330
0
100
AcDbSymbolTable
 70
     4
  0
STYLE
  5
10
330
3
100
AcDbSymbolTableRecord
100
AcDbTextStyleTableRecord
  2
STANDARD
 70
     0
 40
0.0
 41
1.0
 50
0.0
 71
     0
 42
5.0
  3
txt
  4

  0
STYLE
  5
1E
330
3
100
AcDbSymbolTableRecord
100
AcDbTextStyleTableRecord
  2
SIMPLEX
 70
     0
 40
0.0
 41
1.0
 50
0.0
 71
     0
 42
3.5
  3
simplex
  4

  0
STYLE
  5
2431A
330
3
100
AcDbSymbolTableRecord
100
AcDbTextStyleTableRecord
  2
Annotative
 70
     0
 40
0.0
 41
1.0
 50
0.0
 71
     0
 42
0.2
  3
txt
  4

1001
AcadAnnotative
1000
AnnotativeData
1002
{
1070
     1
1070
     1
1002
}
  0
STYLE
  5
2431B
330
3
100
AcDbSymbolTableRecord
100
AcDbTextStyleTableRecord
  2
SANDVIK_STYLE
 70
     0
 40
0.11811
 41
1.0
 50
0.0
 71
     0
 42
0.11811
  3
simplex.shx
  4

  0
ENDTAB
  0
TABLE
  2
VIEW
  5
6
330
0
100
AcDbSymbolTable
 70
     0
  0
ENDTAB
  0
TABLE
  2
UCS
  5
7
330
0
100
AcDbSymbolTable
 70
     0
  0
ENDTAB
  0
TABLE
  2
APPID
  5
9
330
0
100
AcDbSymbolTable
 70
    10
  0
APPID
  5
11
330
9
100
AcDbSymbolTableRecord
100
AcDbRegAppTableRecord
  2
ACAD
 70
     0
  0
APPID
  5
3A6
330
9
100
AcDbSymbolTableRecord
100
AcDbRegAppTableRecord
  2
ACAD_PSEXT
 70
     0
  0
APPID
  5
3A8
330
9
100
AcDbSymbolTableRecord
100
AcDbRegAppTableRecord
  2
ACAD_EXEMPT_FROM_CAD_STANDARDS
 70
     0
  0
APPID
  5
43E
330
9
100
AcDbSymbolTableRecord
100
AcDbRegAppTableRecord
  2
ACAD_MLEADERVER
 70
     0
  0
APPID
  5
4E2
330
9
100
AcDbSymbolTableRecord
100
AcDbRegAppTableRecord
  2
ACAD_DSTYLE_DIMJAG
 70
     0
  0
APPID
  5
4E3
330
9
100
AcDbSymbolTableRecord
100
AcDbRegAppTableRecord
  2
ACAD_DSTYLE_DIMBREAK
 70
     0
  0
APPID
  5
4E4
330
9
100
AcDbSymbolTableRecord
100
AcDbRegAppTableRecord
  2
ACAD_DSTYLE_DIMTALN
 70
     0
  0
APPID
  5
4E5
330
9
100
AcDbSymbolTableRecord
100
AcDbRegAppTableRecord
  2
AcadAnnotative
 70
     0
  0
APPID
  5
4E6
330
9
100
AcDbSymbolTableRecord
100
AcDbRegAppTableRecord
  2
ACAD_DSTYLE_DIMJOGGED_JOGANGLE_SYMBOL
 70
     0
  0
APPID
  5
24573
330
9
100
AcDbSymbolTableRecord
100
AcDbRegAppTableRecord
  2
ACAD_NAV_VCDISPLAY
 70
     0
  0
ENDTAB
  0
TABLE
  2
DIMSTYLE
  5
A
330
0
100
AcDbSymbolTable
 70
     5
100
AcDbDimStyleTable
 71
     1
340
3F
  0
DIMSTYLE
105
3F
102
{ACAD_REACTORS
330
2447D
330
2447C
330
2447B
330
2447A
330
24479
102
}
330
A
100
AcDbSymbolTableRecord
100
AcDbDimStyleTableRecord
  2
STANDARD
 70
     0
 41
2.5
 42
0.0
 43
3.75
 44
1.25
 73
     0
 74
     0
 77
     1
 78
     8
 79
     2
140
3.5
141
0.0
143
0.039370078
147
0.625
171
     3
179
     2
271
     2
272
     2
274
     3
283
     0
284
     8
340
1E
  0
DIMSTYLE
105
2431C
330
A
100
AcDbSymbolTableRecord
100
AcDbDimStyleTableRecord
  2
SANDVIK_STYLE
 70
     0
 41
2.5
 42
0.0
 43
3.75
 44
1.25
 73
     0
 74
     0
 77
     1
 78
     8
 79
     2
140
3.5
141
0.0
143
0.039370078
147
0.625
171
     3
179
     2
271
     2
272
     2
274
     3
283
     0
284
     8
340
1E
1001
ACAD_DSTYLE_DIMBREAK
1070
   391
1040
3.75
1001
ACAD_DSTYLE_DIMJAG
1070
   388
1040
1.5
1001
ACAD_DSTYLE_DIMTALN
1070
   392
1070
     0
  0
DIMSTYLE
105
2431D
330
A
100
AcDbSymbolTableRecord
100
AcDbDimStyleTableRecord
  2
ISO-25
 70
     0
 41
2.5
 42
0.625
 43
3.75
 44
1.25
 73
     0
 74
     0
 77
     1
 78
     8
140
2.5
141
2.5
143
0.03937007874016
147
0.625
171
     3
172
     1
271
     2
272
     2
274
     3
278
    44
283
     0
284
     8
340
10
1001
ACAD_DSTYLE_DIMJOGGED_JOGANGLE_SYMBOL
1070
   384
1040
1.570796326794896
  0
DIMSTYLE
105
2431E
330
A
100
AcDbSymbolTableRecord
100
AcDbDimStyleTableRecord
  2
Annotative
 70
     0
340
10
1001
AcadAnnotative
1000
AnnotativeData
1002
{
1070
     1
1070
     1
1002
}
  0
DIMSTYLE
105
2431F
330
A
100
AcDbSymbolTableRecord
100
AcDbDimStyleTableRecord
  2
SANDVIK_DIM
 70
     0
  4
 
 40
0.0
 42
0.0
 73
     0
 74
     0
 77
     1
 78
     8
173
     1
176
   256
177
   256
178
   256
271
     2
272
     2
279
     2
340
2431B
  0
ENDTAB
  0
TABLE
  2
BLOCK_RECORD
  5
1
330
0
100
AcDbSymbolTable
 70
    12
  0
BLOCK_RECORD
  5
18
330
1
100
AcDbSymbolTableRecord
100
AcDbBlockTableRecord
  2
*MODEL_SPACE
340
303
  0
BLOCK_RECORD
  5
338
330
1
100
AcDbSymbolTableRecord
100
AcDbBlockTableRecord
  2
*Paper_Space
340
33B
  0
BLOCK_RECORD
  5
24277
330
1
100
AcDbSymbolTableRecord
100
AcDbBlockTableRecord
  2
*D0
340
0
  0
BLOCK_RECORD
  5
24281
330
1
100
AcDbSymbolTableRecord
100
AcDbBlockTableRecord
  2
*D1
340
0
  0
BLOCK_RECORD
  5
2428B
330
1
100
AcDbSymbolTableRecord
100
AcDbBlockTableRecord
  2
*D2
340
0
  0
BLOCK_RECORD
  5
24295
330
1
100
AcDbSymbolTableRecord
100
AcDbBlockTableRecord
  2
*D3
340
0
  0
BLOCK_RECORD
  5
242A0
330
1
100
AcDbSymbolTableRecord
100
AcDbBlockTableRecord
  2
*D4
340
0
  0
BLOCK_RECORD
  5
242A9
330
1
100
AcDbSymbolTableRecord
100
AcDbBlockTableRecord
  2
*D5
340
0
  0
BLOCK_RECORD
  5
242B5
330
1
100
AcDbSymbolTableRecord
100
AcDbBlockTableRecord
  2
*D6
340
0
  0
BLOCK_RECORD
  5
242C1
330
1
100
AcDbSymbolTableRecord
100
AcDbBlockTableRecord
  2
*D7
340
0
  0
BLOCK_RECORD
  5
242CD
330
1
100
AcDbSymbolTableRecord
100
AcDbBlockTableRecord
  2
*D8
340
0
  0
BLOCK_RECORD
  5
242D9
330
1
100
AcDbSymbolTableRecord
100
AcDbBlockTableRecord
  2
*D9
340
0
  0
BLOCK_RECORD
  5
242E6
102
{ACAD_XDICTIONARY
360
242E7
102
}
330
1
100
AcDbSymbolTableRecord
100
AcDbBlockTableRecord
  2
_Zeropoint.dwg
340
0
102
{BLKREFS
331
242F1
102
}
  0
BLOCK_RECORD
  5
242EF
330
1
100
AcDbSymbolTableRecord
100
AcDbBlockTableRecord
  2
_nullpunkt
340
0
102
{BLKREFS
331
2447E
102
}
1001
ACAD
1000
DesignCenter Data
1002
{
1070
     1
1070
     4
1002
}
  0
ENDTAB
  0
ENDSEC
  0
SECTION
  2
BLOCKS
  0
BLOCK
  5
32
330
18
100
AcDbEntity
  8
0
100
AcDbBlockBegin
  2
*MODEL_SPACE
 70
     0
 10
0.0
 20
0.0
 30
0.0
  3
*MODEL_SPACE
  1

  0
ENDBLK
  5
33
330
18
100
AcDbEntity
  8
0
100
AcDbBlockEnd
  0
BLOCK
  5
339
330
338
100
AcDbEntity
 67
     1
  8
0
100
AcDbBlockBegin
  2
*Paper_Space
 70
     0
 10
0.0
 20
0.0
 30
0.0
  3
*Paper_Space
  1

  0
ENDBLK
  5
33A
330
338
100
AcDbEntity
 67
     1
  8
0
100
AcDbBlockEnd
  0
BLOCK
  5
24278
330
24277
100
AcDbEntity
  8
0
100
AcDbBlockBegin
  2
*D0
 70
     1
 10
0.0
 20
0.0
 30
0.0
  3
*D0
  1

  0
LINE
  5
24279
330
24277
100
AcDbEntity
  8
0
100
AcDbLine
 10
-0.0625
 20
0.0
 30
0.0
 11
-18.438844
 21
0.0
 31
0.0
  0
LINE
  5
2427A
330
24277
100
AcDbEntity
  8
0
100
AcDbLine
 10
24.67926
 20
-299.886872
 30
0.0
 11
-18.438844
 21
-299.886872
 31
0.0
  0
LINE
  5
2427B
330
24277
100
AcDbEntity
  8
0
100
AcDbLine
 10
-18.313844
 20
0.0
 30
0.0
 11
-18.313844
 21
-149.318436
 31
0.0
  0
LINE
  5
2427C
330
24277
100
AcDbEntity
  8
0
100
AcDbLine
 10
-18.313844
 20
-299.886872
 30
0.0
 11
-18.313844
 21
-150.568436
 31
0.0
  0
SOLID
  5
2427D
330
24277
100
AcDbEntity
  8
0
100
AcDbTrace
 10
-18.313844
 20
0.0
 30
0.0
 11
-18.045895
 21
-1.0
 31
0.0
 12
-18.581794
 22
-1.0
 32
0.0
 13
-18.581794
 23
-1.0
 33
0.0
  0
SOLID
  5
2427E
330
24277
100
AcDbEntity
  8
0
100
AcDbTrace
 10
-18.313844
 20
-299.886872
 30
0.0
 11
-18.581794
 21
-298.8868720000001
 31
0.0
 12
-18.045895
 22
-298.8868720000001
 32
0.0
 13
-18.045895
 23
-298.8868720000001
 33
0.0
  0
TEXT
  5
2427F
330
24277
100
AcDbEntity
  8
0
100
AcDbText
 10
-20.096266
 20
-150.505936
 30
0.0
 40
1.125
  1
300
100
AcDbText
  0
ENDBLK
  5
24280
330
24277
100
AcDbEntity
  8
0
100
AcDbBlockEnd
  0
BLOCK
  5
24282
330
24281
100
AcDbEntity
  8
0
100
AcDbBlockBegin
  2
*D1
 70
     1
 10
0.0
 20
0.0
 30
0.0
  3
*D1
  1

  0
LINE
  5
24283
330
24281
100
AcDbEntity
  8
0
100
AcDbLine
 10
28.5
 20
-303.222555
 30
0.0
 11
28.5
 21
-311.284797
 31
0.0
  0
LINE
  5
24284
330
24281
100
AcDbEntity
  8
0
100
AcDbLine
 10
8.818232
 20
-298.877982
 30
0.0
 11
8.818232
 21
-311.284797
 31
0.0
  0
LINE
  5
24285
330
24281
100
AcDbEntity
  8
0
100
AcDbLine
 10
28.5
 20
-311.159797
 30
0.0
 11
19.891147
 21
-311.159797
 31
0.0
  0
LINE
  5
24286
330
24281
100
AcDbEntity
  8
0
100
AcDbLine
 10
8.818232
 20
-311.159797
 30
0.0
 11
17.427085
 21
-311.159797
 31
0.0
  0
SOLID
  5
24287
330
24281
100
AcDbEntity
  8
0
100
AcDbTrace
 10
28.5
 20
-311.159797
 30
0.0
 11
27.3
 21
-311.481336
 31
0.0
 12
27.3
 22
-310.838258
 32
0.0
 13
27.3
 23
-310.838258
 33
0.0
  0
SOLID
  5
24288
330
24281
100
AcDbEntity
  8
0
100
AcDbTrace
 10
8.818232
 20
-311.159797
 30
0.0
 11
10.018232
 21
-310.838258
 31
0.0
 12
10.018232
 22
-311.481336
 32
0.0
 13
10.018232
 23
-311.481336
 33
0.0
  0
TEXT
  5
24289
330
24281
100
AcDbEntity
  8
0
100
AcDbText
 10
17.489585
 20
-311.722297
 30
0.0
 40
1.125
  1
20
100
AcDbText
  0
ENDBLK
  5
2428A
330
24281
100
AcDbEntity
  8
0
100
AcDbBlockEnd
  0
BLOCK
  5
2428C
330
2428B
100
AcDbEntity
  8
0
100
AcDbBlockBegin
  2
*D2
 70
     1
 10
0.0
 20
0.0
 30
0.0
  3
*D2
  1

  0
LINE
  5
2428D
330
2428B
100
AcDbEntity
  8
0
100
AcDbLine
 10
28.5625
 20
-300.0
 30
0.0
 11
40.156227
 21
-300.0
 31
0.0
  0
LINE
  5
2428E
330
2428B
100
AcDbEntity
  8
0
100
AcDbLine
 10
24.0625
 20
-272.483463
 30
0.0
 11
40.156227
 21
-272.483463
 31
0.0
  0
LINE
  5
2428F
330
2428B
100
AcDbEntity
  8
0
100
AcDbLine
 10
40.031227
 20
-300.0
 30
0.0
 11
40.031227
 21
-286.866732
 31
0.0
  0
LINE
  5
24290
330
2428B
100
AcDbEntity
  8
0
100
AcDbLine
 10
40.031227
 20
-272.483463
 30
0.0
 11
40.031227
 21
-285.6167319999999
 31
0.0
  0
SOLID
  5
24291
330
2428B
100
AcDbEntity
  8
0
100
AcDbTrace
 10
40.031227
 20
-300.0
 30
0.0
 11
39.729784
 21
-298.875
 31
0.0
 12
40.33267
 22
-298.875
 32
0.0
 13
40.33267
 23
-298.875
 33
0.0
  0
SOLID
  5
24292
330
2428B
100
AcDbEntity
  8
0
100
AcDbTrace
 10
40.031227
 20
-272.483463
 30
0.0
 11
40.33267
 21
-273.608463
 31
0.0
 12
39.729784
 22
-273.608463
 32
0.0
 13
39.729784
 23
-273.608463
 33
0.0
  0
TEXT
  5
24293
330
2428B
100
AcDbEntity
  8
0
100
AcDbText
 10
38.861696
 20
-286.804232
 30
0.0
 40
1.125
  1
28
100
AcDbText
  0
ENDBLK
  5
24294
330
2428B
100
AcDbEntity
  8
0
100
AcDbBlockEnd
  0
BLOCK
  5
24296
330
24295
100
AcDbEntity
  8
0
100
AcDbBlockBegin
  2
*D3
 70
     1
 10
0.0
 20
0.0
 30
0.0
  3
*D3
  1

  0
LINE
  5
24297
330
24295
100
AcDbEntity
  8
0
100
AcDbLine
 10
-1.0
 20
-0.9375
 30
0.0
 11
-1.0
 21
12.854743
 31
0.0
  0
LINE
  5
24298
330
24295
100
AcDbEntity
  8
0
100
AcDbLine
 10
24.0
 20
-0.9375
 30
0.0
 11
24.0
 21
12.854743
 31
0.0
  0
LINE
  5
24299
330
24295
100
AcDbEntity
  8
0
100
AcDbLine
 10
-1.0
 20
12.729743
 30
0.0
 11
8.580469
 21
12.729743
 31
0.0
  0
LINE
  5
2429A
330
24295
100
AcDbEntity
  8
0
100
AcDbLine
 10
24.0
 20
12.729743
 30
0.0
 11
14.419531
 21
12.729743
 31
0.0
  0
SOLID
  5
2429B
330
24295
100
AcDbEntity
  8
0
100
AcDbTrace
 10
-1.0
 20
12.729743
 30
0.0
 11
0.125
 21
13.031186
 31
0.0
 12
0.125
 22
12.4283
 32
0.0
 13
0.125
 23
12.4283
 33
0.0
  0
SOLID
  5
2429C
330
24295
100
AcDbEntity
  8
0
100
AcDbTrace
 10
24.0
 20
12.729743
 30
0.0
 11
22.875
 21
12.4283
 31
0.0
 12
22.875
 22
13.031186
 32
0.0
 13
22.875
 23
13.031186
 33
0.0
  0
TEXT
  5
2429D
330
24295
100
AcDbEntity
  8
0
100
AcDbText
 10
12.017969
 20
12.167243
 30
0.0
 40
1.125
  1
25
100
AcDbText
  0
TEXT
  5
2429E
330
24295
100
AcDbEntity
  8
0
100
AcDbText
 10
8.642969
 20
12.167243
 30
0.0
 40
1.125
  1
%%c
100
AcDbText
  0
ENDBLK
  5
2429F
330
24295
100
AcDbEntity
  8
0
100
AcDbBlockEnd
  0
BLOCK
  5
242A1
330
242A0
100
AcDbEntity
  8
0
100
AcDbBlockBegin
  2
*D4
 70
     1
 10
0.0
 20
0.0
 30
0.0
  3
*D4
  1

  0
LINE
  5
242A2
330
242A0
100
AcDbEntity
  8
0
100
AcDbLine
 10
28.5
 20
-300.0625
 30
0.0
 11
28.5
 21
-307.701059
 31
0.0
  0
LINE
  5
242A3
330
242A0
100
AcDbEntity
  8
0
100
AcDbLine
 10
28.5
 20
-307.576059
 30
0.0
 11
21.232031
 21
-307.576059
 31
0.0
  0
LINE
  5
242A4
330
242A0
100
AcDbEntity
  8
0
100
AcDbLine
 10
11.5
 20
-307.576059
 30
0.0
 11
18.767969
 21
-307.576059
 31
0.0
  0
SOLID
  5
242A5
330
242A0
100
AcDbEntity
  8
0
100
AcDbTrace
 10
28.5
 20
-307.576059
 30
0.0
 11
27.375
 21
-307.877501
 31
0.0
 12
27.375
 22
-307.274616
 32
0.0
 13
27.375
 23
-307.274616
 33
0.0
  0
SOLID
  5
242A6
330
242A0
100
AcDbEntity
  8
0
100
AcDbTrace
 10
11.5
 20
-307.576059
 30
0.0
 11
12.625
 21
-307.274616
 31
0.0
 12
12.625
 22
-307.877501
 32
0.0
 13
12.625
 23
-307.877501
 33
0.0
  0
TEXT
  5
242A7
330
242A0
100
AcDbEntity
  8
0
100
AcDbText
 10
18.830469
 20
-308.138559
 30
0.0
 40
1.125
  1
17
100
AcDbText
  0
ENDBLK
  5
242A8
330
242A0
100
AcDbEntity
  8
0
100
AcDbBlockEnd
  0
BLOCK
  5
242AA
330
242A9
100
AcDbEntity
  8
0
100
AcDbBlockBegin
  2
*D5
 70
     1
 10
0.0
 20
0.0
 30
0.0
  3
*D5
  1

  0
LINE
  5
244D4
330
242A9
100
AcDbEntity
  8
SK2
 62
     0
370
    -2
100
AcDbLine
 10
0.0
 20
-0.0625
 30
0.0
 11
301.136872
 21
-0.0625000000000853
 31
0.0
  0
LINE
  5
244D5
330
242A9
100
AcDbEntity
  8
SK2
 62
     0
370
    -2
100
AcDbLine
 10
299.886872
 20
24.67925999999998
 30
0.0
 11
298.6368720000001
 21
24.67925999999998
 31
0.0
  0
LINE
  5
244D6
330
242A9
100
AcDbEntity
  8
SK2
 62
     0
370
    -2
100
AcDbLine
 10
299.886872
 20
2.437499999999915
 30
0.0
 11
299.886872
 21
22.17925999999998
 31
0.0
  0
SOLID
  5
244D7
330
242A9
100
AcDbEntity
  8
SK2
 62
     0
100
AcDbTrace
 10
299.4702053333334
 20
2.437499999999915
 30
0.0
 11
300.3035386666667
 21
2.437499999999915
 31
0.0
 12
299.886872
 22
-0.062500000000085
 32
0.0
 13
299.886872
 23
-0.062500000000085
 33
0.0
  0
SOLID
  5
244D8
330
242A9
100
AcDbEntity
  8
SK2
 62
     0
100
AcDbTrace
 10
299.4702053333334
 20
22.17925999999998
 30
0.0
 11
300.3035386666667
 21
22.17925999999998
 31
0.0
 12
299.886872
 22
24.67925999999998
 32
0.0
 13
299.886872
 23
24.67925999999998
 33
0.0
  0
MTEXT
  5
244D9
330
242A9
100
AcDbEntity
  8
SK2
 62
     0
100
AcDbMText
 10
297.5118720000001
 20
12.30838
 30
0.0
 40
3.5
 41
0.0
 71
     5
 72
     1
  1
300
  7
SIMPLEX
 11
0.0000000000000001
 21
1.0
 31
0.0
 73
     1
 44
1.0
1001
ACAD
1000
MTEXTBEGIN
1070
    73
1070
     1
1070
    44
1040
1.0
1070
    74
1070
     0
1000
MTEXTEND
  0
POINT
  5
244DA
330
242A9
100
AcDbEntity
  8
Defpoints
 62
     0
100
AcDbPoint
 10
0.0
 20
-0.0625
 30
0.0
  0
POINT
  5
244DB
330
242A9
100
AcDbEntity
  8
Defpoints
 62
     0
100
AcDbPoint
 10
299.886872
 20
24.67925999999998
 30
0.0
  0
POINT
  5
244DC
330
242A9
100
AcDbEntity
  8
Defpoints
 62
     0
100
AcDbPoint
 10
299.886872
 20
24.67925999999998
 30
0.0
  0
ENDBLK
  5
242B4
330
242A9
100
AcDbEntity
  8
0
100
AcDbBlockEnd
  0
BLOCK
  5
242B6
330
242B5
100
AcDbEntity
  8
0
100
AcDbBlockBegin
  2
*D6
 70
     1
 10
0.0
 20
0.0
 30
0.0
  3
*D6
  1

  0
LINE
  5
244CB
330
242B5
100
AcDbEntity
  8
2L
 62
     0
370
    -2
100
AcDbLine
 10
303.222555
 20
28.49999999999998
 30
0.0
 11
312.409797
 21
28.49999999999998
 31
0.0
  0
LINE
  5
244CC
330
242B5
100
AcDbEntity
  8
2L
 62
     0
370
    -2
100
AcDbLine
 10
298.877982
 20
8.818231999999982
 30
0.0
 11
312.409797
 21
8.818231999999976
 31
0.0
  0
LINE
  5
244CD
330
242B5
100
AcDbEntity
  8
2L
 62
     0
370
    -2
100
AcDbLine
 10
311.159797
 20
25.99999999999998
 30
0.0
 11
311.159797
 21
11.31823199999998
 31
0.0
  0
SOLID
  5
244CE
330
242B5
100
AcDbEntity
  8
2L
 62
     0
100
AcDbTrace
 10
310.7431303333334
 20
25.99999999999998
 30
0.0
 11
311.5764636666666
 21
25.99999999999998
 31
0.0
 12
311.159797
 22
28.49999999999998
 32
0.0
 13
311.159797
 23
28.49999999999998
 33
0.0
  0
SOLID
  5
244CF
330
242B5
100
AcDbEntity
  8
2L
 62
     0
100
AcDbTrace
 10
310.7431303333334
 20
11.31823199999998
 30
0.0
 11
311.5764636666666
 21
11.31823199999998
 31
0.0
 12
311.159797
 22
8.818231999999976
 32
0.0
 13
311.159797
 23
8.818231999999976
 33
0.0
  0
MTEXT
  5
244D0
330
242B5
100
AcDbEntity
  8
2L
 62
     0
100
AcDbMText
 10
308.784797
 20
18.65911600000003
 30
0.0
 40
3.5
 41
0.0
 71
     5
 72
     1
  1
20
  7
SIMPLEX
 11
0.0000000000000001
 21
1.0
 31
0.0
 73
     1
 44
1.0
1001
ACAD
1000
MTEXTBEGIN
1070
    73
1070
     1
1070
    44
1040
1.0
1070
    74
1070
     0
1000
MTEXTEND
  0
POINT
  5
244D1
330
242B5
100
AcDbEntity
  8
Defpoints
 62
     0
100
AcDbPoint
 10
303.222555
 20
28.49999999999998
 30
0.0
  0
POINT
  5
244D2
330
242B5
100
AcDbEntity
  8
Defpoints
 62
     0
100
AcDbPoint
 10
298.877982
 20
8.818231999999982
 30
0.0
  0
POINT
  5
244D3
330
242B5
100
AcDbEntity
  8
Defpoints
 62
     0
100
AcDbPoint
 10
311.159797
 20
8.818231999999976
 30
0.0
  0
ENDBLK
  5
242C0
330
242B5
100
AcDbEntity
  8
0
100
AcDbBlockEnd
  0
BLOCK
  5
242C2
330
242C1
100
AcDbEntity
  8
0
100
AcDbBlockBegin
  2
*D7
 70
     1
 10
0.0
 20
0.0
 30
0.0
  3
*D7
  1

  0
LINE
  5
244C1
330
242C1
100
AcDbEntity
  8
2L
 62
     0
370
    -2
100
AcDbLine
 10
300.0
 20
28.56249999999998
 30
0.0
 11
271.233463
 21
28.56249999999999
 31
0.0
  0
LINE
  5
244C2
330
242C1
100
AcDbEntity
  8
2L
 62
     0
370
    -2
100
AcDbLine
 10
272.483463
 20
24.06249999999998
 30
0.0
 11
271.233463
 21
24.06249999999998
 31
0.0
  0
LINE
  5
244C3
330
242C1
100
AcDbEntity
  8
2L
 62
     0
370
    -2
100
AcDbLine
 10
272.483463
 20
31.06249999999999
 30
0.0
 11
272.483463
 21
33.56249999999999
 31
0.0
  0
LINE
  5
244C4
330
242C1
100
AcDbEntity
  8
2L
 62
     0
370
    -2
100
AcDbLine
 10
272.483463
 20
21.56249999999998
 30
0.0
 11
272.483463
 21
12.14583333333332
 31
0.0
  0
SOLID
  5
244C5
330
242C1
100
AcDbEntity
  8
2L
 62
     0
100
AcDbTrace
 10
272.0667963333333
 20
31.06249999999999
 30
0.0
 11
272.9001296666667
 21
31.06249999999999
 31
0.0
 12
272.483463
 22
28.56249999999999
 32
0.0
 13
272.483463
 23
28.56249999999999
 33
0.0
  0
SOLID
  5
244C6
330
242C1
100
AcDbEntity
  8
2L
 62
     0
100
AcDbTrace
 10
272.0667963333333
 20
21.56249999999998
 30
0.0
 11
272.9001296666667
 21
21.56249999999998
 31
0.0
 12
272.483463
 22
24.06249999999998
 32
0.0
 13
272.483463
 23
24.06249999999998
 33
0.0
  0
MTEXT
  5
244C7
330
242C1
100
AcDbEntity
  8
2L
 62
     0
100
AcDbMText
 10
270.108463
 20
15.60416666666669
 30
0.0
 40
3.5
 41
0.0
 71
     5
 72
     1
  1
28
  7
SIMPLEX
 11
0.0000000000000001
 21
1.0
 31
0.0
 73
     1
 44
1.0
1001
ACAD
1000
MTEXTBEGIN
1070
    73
1070
     1
1070
    44
1040
1.0
1070
    74
1070
     0
1000
MTEXTEND
  0
POINT
  5
244C8
330
242C1
100
AcDbEntity
  8
Defpoints
 62
     0
100
AcDbPoint
 10
300.0
 20
28.56249999999998
 30
0.0
  0
POINT
  5
244C9
330
242C1
100
AcDbEntity
  8
Defpoints
 62
     0
100
AcDbPoint
 10
272.483463
 20
24.06249999999998
 30
0.0
  0
POINT
  5
244CA
330
242C1
100
AcDbEntity
  8
Defpoints
 62
     0
100
AcDbPoint
 10
272.483463
 20
24.06249999999998
 30
0.0
  0
ENDBLK
  5
242CC
330
242C1
100
AcDbEntity
  8
0
100
AcDbBlockEnd
  0
BLOCK
  5
242CE
330
242CD
100
AcDbEntity
  8
0
100
AcDbBlockBegin
  2
*D8
 70
     1
 10
0.0
 20
0.0
 30
0.0
  3
*D8
  1

  0
LINE
  5
244B8
330
242CD
100
AcDbEntity
  8
SK2
 62
     0
370
    -2
100
AcDbLine
 10
0.9374999999999998
 20
-1.0
 30
0.0
 11
-13.979743
 21
-0.9999999999999955
 31
0.0
  0
LINE
  5
244B9
330
242CD
100
AcDbEntity
  8
SK2
 62
     0
370
    -2
100
AcDbLine
 10
0.9375000000000014
 20
24.0
 30
0.0
 11
-13.979743
 21
24.0
 31
0.0
  0
LINE
  5
244BA
330
242CD
100
AcDbEntity
  8
SK2
 62
     0
370
    -2
100
AcDbLine
 10
-12.729743
 20
1.500000000000003
 30
0.0
 11
-12.729743
 21
21.5
 31
0.0
  0
SOLID
  5
244BB
330
242CD
100
AcDbEntity
  8
SK2
 62
     0
100
AcDbTrace
 10
-13.14640966666667
 20
1.500000000000003
 30
0.0
 11
-12.31307633333334
 21
1.500000000000003
 31
0.0
 12
-12.729743
 22
-0.999999999999996
 32
0.0
 13
-12.729743
 23
-0.999999999999996
 33
0.0
  0
SOLID
  5
244BC
330
242CD
100
AcDbEntity
  8
SK2
 62
     0
100
AcDbTrace
 10
-13.14640966666666
 20
21.5
 30
0.0
 11
-12.31307633333333
 21
21.5
 31
0.0
 12
-12.729743
 22
24.0
 32
0.0
 13
-12.729743
 23
24.0
 33
0.0
  0
MTEXT
  5
244BD
330
242CD
100
AcDbEntity
  8
SK2
 62
     0
100
AcDbMText
 10
-15.104743
 20
11.5
 30
0.0
 40
3.5
 41
0.0
 71
     5
 72
     1
  1
25
  7
SIMPLEX
 11
0.0000000000000001
 21
1.0
 31
0.0
 73
     1
 44
1.0
1001
ACAD
1000
MTEXTBEGIN
1070
    73
1070
     1
1070
    44
1040
1.0
1070
    74
1070
     0
1000
MTEXTEND
  0
POINT
  5
244BE
330
242CD
100
AcDbEntity
  8
Defpoints
 62
     0
100
AcDbPoint
 10
0.9374999999999998
 20
-1.0
 30
0.0
  0
POINT
  5
244BF
330
242CD
100
AcDbEntity
  8
Defpoints
 62
     0
100
AcDbPoint
 10
0.9375000000000014
 20
24.0
 30
0.0
  0
POINT
  5
244C0
330
242CD
100
AcDbEntity
  8
Defpoints
 62
     0
100
AcDbPoint
 10
-12.729743
 20
24.0
 30
0.0
  0
ENDBLK
  5
242D8
330
242CD
100
AcDbEntity
  8
0
100
AcDbBlockEnd
  0
BLOCK
  5
242DA
330
242D9
100
AcDbEntity
  8
0
100
AcDbBlockBegin
  2
*D9
 70
     1
 10
0.0
 20
0.0
 30
0.0
  3
*D9
  1

  0
LINE
  5
244AE
330
242D9
100
AcDbEntity
  8
2L
 62
     0
370
    -2
100
AcDbLine
 10
300.0625
 20
28.49999999999998
 30
0.0
 11
308.826059
 21
28.49999999999998
 31
0.0
  0
LINE
  5
244AF
330
242D9
100
AcDbEntity
  8
2L
 62
     0
370
    -2
100
AcDbLine
 10
307.576059
 20
28.49999999999998
 30
0.0
 11
306.326059
 21
28.49999999999998
 31
0.0
  0
LINE
  5
244B0
330
242D9
100
AcDbEntity
  8
2L
 62
     0
370
    -2
100
AcDbLine
 10
307.576059
 20
25.99999999999998
 30
0.0
 11
307.576059
 21
23.49999999999998
 31
0.0
  0
LINE
  5
244B1
330
242D9
100
AcDbEntity
  8
2L
 62
     0
370
    -2
100
AcDbLine
 10
307.576059
 20
30.99999999999998
 30
0.0
 11
307.576059
 21
39.74999999999998
 31
0.0
  0
SOLID
  5
244B2
330
242D9
100
AcDbEntity
  8
2L
 62
     0
100
AcDbTrace
 10
307.1593923333333
 20
25.99999999999998
 30
0.0
 11
307.9927256666667
 21
25.99999999999998
 31
0.0
 12
307.576059
 22
28.49999999999998
 32
0.0
 13
307.576059
 23
28.49999999999998
 33
0.0
  0
SOLID
  5
244B3
330
242D9
100
AcDbEntity
  8
2L
 62
     0
100
AcDbTrace
 10
307.1593923333333
 20
30.99999999999998
 30
0.0
 11
307.9927256666667
 21
30.99999999999998
 31
0.0
 12
307.576059
 22
28.49999999999998
 32
0.0
 13
307.576059
 23
28.49999999999998
 33
0.0
  0
MTEXT
  5
244B4
330
242D9
100
AcDbEntity
  8
2L
 62
     0
100
AcDbMText
 10
305.201059
 20
36.62500000000004
 30
0.0
 40
3.5
 41
0.0
 71
     5
 72
     1
  1
17
  7
SIMPLEX
 11
0.0000000000000001
 21
1.0
 31
0.0
 73
     1
 44
1.0
1001
ACAD
1000
MTEXTBEGIN
1070
    73
1070
     1
1070
    44
1040
1.0
1070
    74
1070
     0
1000
MTEXTEND
  0
POINT
  5
244B5
330
242D9
100
AcDbEntity
  8
Defpoints
 62
     0
100
AcDbPoint
 10
300.0625
 20
28.49999999999998
 30
0.0
  0
POINT
  5
244B6
330
242D9
100
AcDbEntity
  8
Defpoints
 62
     0
100
AcDbPoint
 10
307.576059
 20
28.49999999999998
 30
0.0
  0
POINT
  5
244B7
330
242D9
100
AcDbEntity
  8
Defpoints
 62
     0
100
AcDbPoint
 10
307.576059
 20
28.49999999999998
 30
0.0
  0
ENDBLK
  5
242E5
330
242D9
100
AcDbEntity
  8
0
100
AcDbBlockEnd
  0
BLOCK
  5
242E9
330
242E6
100
AcDbEntity
  8
0
100
AcDbBlockBegin
  2
_Zeropoint.dwg
 70
     0
 10
0.0
 20
0.0
 30
0.0
  3
_Zeropoint.dwg
  1

  0
HATCH
  5
242EA
330
242E6
100
AcDbEntity
  8
2
100
AcDbHatch
 10
0.0
 20
0.0
 30
0.0
210
0.0
220
0.0
230
1.0
  2
_USER
 70
     0
 71
     1
 91
        2
 92
        7
 72
     1
 73
     1
 93
        3
 10
-2.5
 20
0.0
 42
0.4142135623730951
 10
0.0
 20
-2.5
 42
0.0
 10
0.0
 20
0.0
 42
0.0
 97
        3
330
242EB
330
242ED
330
242EC
 92
        7
 72
     1
 73
     1
 93
        3
 10
0.0
 20
2.5
 42
0.0
 10
0.0
 20
0.0
 42
0.0
 10
2.5
 20
0.0
 42
0.4142135623730951
 97
        3
330
242EC
330
242EB
330
242ED
 75
     0
 76
     0
 52
45.0
 41
0.5
 77
     0
 78
     1
 53
45.0
 43
0.0
 44
0.0
 45
-0.3535533905932737
 46
0.3535533905932738
 79
     0
 47
0.0807540860238484
 98
        2
 10
-1.081351813010084
 20
-0.6749528531090621
 10
1.100054950607727
 20
1.263145885468702
  0
LINE
  5
242EB
102
{ACAD_REACTORS
330
242EA
102
}
330
242E6
100
AcDbEntity
  8
2
100
AcDbLine
 10
5.0
 20
0.0
 30
0.0
 11
-5.0
 21
0.0
 31
0.0
  0
LINE
  5
242EC
102
{ACAD_REACTORS
330
242EA
102
}
330
242E6
100
AcDbEntity
  8
2
100
AcDbLine
 10
0.0
 20
5.0
 30
0.0
 11
0.0
 21
-5.0
 31
0.0
  0
CIRCLE
  5
242ED
102
{ACAD_REACTORS
330
242EA
102
}
330
242E6
100
AcDbEntity
  8
2
100
AcDbCircle
 10
0.0
 20
0.0
 30
0.0
 40
2.5
  0
ENDBLK
  5
242EE
330
242E6
100
AcDbEntity
  8
0
100
AcDbBlockEnd
  0
BLOCK
  5
242F0
330
242EF
100
AcDbEntity
  8
0
100
AcDbBlockBegin
  2
_nullpunkt
 70
     0
 10
0.0
 20
0.0
 30
0.0
  3
_nullpunkt
  1

  0
INSERT
  5
242F1
330
242EF
100
AcDbEntity
  8
0
100
AcDbBlockReference
  2
_Zeropoint.dwg
 10
0.0
 20
0.0
 30
0.0
  0
ENDBLK
  5
242F2
330
242EF
100
AcDbEntity
  8
0
100
AcDbBlockEnd
  0
ENDSEC
  0
SECTION
  2
ENTITIES
  0
LINE
  5
24320
330
18
100
AcDbEntity
  8
1
100
AcDbLine
 10
260.1
 20
27.49999999999999
 30
0.0
 11
260.0
 21
27.49999999999999
 31
0.0
  0
LINE
  5
24321
330
18
100
AcDbEntity
  8
1
100
AcDbLine
 10
260.1
 20
-4.500000000000015
 30
0.0
 11
260.0
 21
-4.500000000000015
 31
0.0
  0
LINE
  5
24322
330
18
100
AcDbEntity
  8
1
100
AcDbLine
 10
260.0
 20
-4.500000000000015
 30
0.0
 11
260.0
 21
-4.400000000000016
 31
0.0
  0
LINE
  5
24323
330
18
100
AcDbEntity
  8
1
100
AcDbLine
 10
300.0
 20
28.39999999999998
 30
0.0
 11
300.0
 21
28.49999999999998
 31
0.0
  0
LINE
  5
24324
330
18
100
AcDbEntity
  8
1
100
AcDbLine
 10
283.516979
 20
14.84540599999998
 30
0.0
 11
284.123569
 21
12.62356899999998
 31
0.0
  0
LINE
  5
24325
330
18
100
AcDbEntity
  8
1
100
AcDbLine
 10
286.345406
 20
12.01697899999998
 30
0.0
 11
284.123569
 21
12.62356899999998
 31
0.0
  0
LINE
  5
24326
330
18
100
AcDbEntity
  8
1
100
AcDbLine
 10
287.960653
 20
13.63222599999998
 30
0.0
 11
286.345406
 21
12.01697899999998
 31
0.0
  0
LINE
  5
24327
330
18
100
AcDbEntity
  8
1
100
AcDbLine
 10
287.354063
 20
15.85406299999998
 30
0.0
 11
287.960653
 21
13.63222599999998
 31
0.0
  0
LINE
  5
24328
330
18
100
AcDbEntity
  8
1
100
AcDbLine
 10
285.132226
 20
16.46065299999998
 30
0.0
 11
287.354063
 21
15.85406299999998
 31
0.0
  0
LINE
  5
24329
330
18
100
AcDbEntity
  8
1
100
AcDbLine
 10
285.132226
 20
16.46065299999998
 30
0.0
 11
283.516979
 21
14.84540599999998
 31
0.0
  0
LINE
  5
2432A
330
18
100
AcDbEntity
  8
1
100
AcDbLine
 10
281.9745240000001
 20
17.89914499999998
 30
0.0
 11
281.891354
 21
17.81597599999998
 31
0.0
  0
LINE
  5
2432B
330
18
100
AcDbEntity
  8
1
100
AcDbLine
 10
289.3159759999999
 20
10.39135399999998
 30
0.0
 11
289.3991450000001
 21
10.47452399999998
 31
0.0
  0
LINE
  5
2432C
330
18
100
AcDbEntity
  8
1
100
AcDbLine
 10
287.354063
 20
15.85406299999998
 30
0.0
 11
286.938215
 21
15.43821499999998
 31
0.0
  0
LINE
  5
2432D
330
18
100
AcDbEntity
  8
1
100
AcDbLine
 10
286.938215
 20
15.43821499999998
 30
0.0
 11
284.716377
 21
16.04480499999998
 31
0.0
  0
LINE
  5
2432E
330
18
100
AcDbEntity
  8
1
100
AcDbLine
 10
286.938215
 20
15.43821499999998
 30
0.0
 11
287.544805
 21
13.21637699999998
 31
0.0
  0
LINE
  5
2432F
330
18
100
AcDbEntity
  8
1
100
AcDbLine
 10
295.725813
 20
16.35370999999998
 30
0.0
 11
287.85371
 21
24.22581299999998
 31
0.0
  0
LINE
  5
24330
330
18
100
AcDbEntity
  8
1
100
AcDbLine
 10
294.64004
 20
14.15978299999998
 30
0.0
 11
295.725813
 21
16.35370999999998
 31
0.0
  0
LINE
  5
24331
330
18
100
AcDbEntity
  8
1
100
AcDbLine
 10
294.64004
 20
14.15978299999998
 30
0.0
 11
287.645814
 21
7.165557999999982
 31
0.0
  0
LINE
  5
24332
330
18
100
AcDbEntity
  8
1
100
AcDbLine
 10
283.426226
 20
7.188610999999982
 30
0.0
 11
278.688611
 21
11.92622599999998
 31
0.0
  0
LINE
  5
24333
330
18
100
AcDbEntity
  8
1
100
AcDbLine
 10
278.6655580000001
 20
16.14581399999998
 30
0.0
 11
285.659783
 21
23.14003999999998
 31
0.0
  0
LINE
  5
24334
330
18
100
AcDbEntity
  8
1
100
AcDbLine
 10
285.659783
 20
23.14003999999998
 30
0.0
 11
287.85371
 21
24.22581299999998
 31
0.0
  0
LINE
  5
24335
330
18
100
AcDbEntity
  8
1
100
AcDbLine
 10
277.960876
 20
11.19849199999998
 30
0.0
 11
278.688611
 21
11.92622599999998
 31
0.0
  0
LINE
  5
24336
330
18
100
AcDbEntity
  8
1
100
AcDbLine
 10
277.937824
 20
15.41807999999998
 30
0.0
 11
278.6655580000001
 21
16.14581399999998
 31
0.0
  0
LINE
  5
24337
330
18
100
AcDbEntity
  8
1
100
AcDbLine
 10
286.91808
 20
6.437823999999982
 30
0.0
 11
287.645814
 21
7.165557999999982
 31
0.0
  0
LINE
  5
24338
330
18
100
AcDbEntity
  8
1
100
AcDbLine
 10
282.698492
 20
6.460875999999982
 30
0.0
 11
283.426226
 21
7.188610999999982
 31
0.0
  0
LINE
  5
24339
330
18
100
AcDbEntity
  8
1
100
AcDbLine
 10
282.698492
 20
6.460875999999982
 30
0.0
 11
277.960876
 21
11.19849199999998
 31
0.0
  0
LINE
  5
2433A
330
18
100
AcDbEntity
  8
1
100
AcDbLine
 10
296.607459
 20
18.24256499999998
 30
0.0
 11
289.742565
 21
25.10745899999998
 31
0.0
  0
LINE
  5
2433B
330
18
100
AcDbEntity
  8
1
100
AcDbLine
 10
298.311755
 20
22.32162699999998
 30
0.0
 11
293.821627
 21
26.81175499999998
 31
0.0
  0
LINE
  5
2433C
330
18
100
AcDbEntity
  8
1
100
AcDbLine
 10
289.742565
 20
25.10745899999998
 30
0.0
 11
293.821627
 21
26.81175499999998
 31
0.0
  0
LINE
  5
2433D
330
18
100
AcDbEntity
  8
1
100
AcDbLine
 10
296.607459
 20
18.24256499999998
 30
0.0
 11
298.311755
 21
22.32162699999998
 31
0.0
  0
LINE
  5
2433E
330
18
100
AcDbEntity
  8
1
100
AcDbLine
 10
299.962785
 20
23.11939699999998
 30
0.0
 11
299.999733
 21
23.66122499999999
 31
0.0
  0
LINE
  5
2433F
330
18
100
AcDbEntity
  8
1
100
AcDbLine
 10
299.999733
 20
23.66122499999999
 30
0.0
 11
299.974317
 21
24.20439599999998
 31
0.0
  0
LINE
  5
24340
330
18
100
AcDbEntity
  8
1
100
AcDbLine
 10
299.974317
 20
24.20439599999998
 30
0.0
 11
299.886872
 21
24.74175999999998
 31
0.0
  0
LINE
  5
24341
330
18
100
AcDbEntity
  8
1
100
AcDbLine
 10
299.886872
 20
24.74175999999998
 30
0.0
 11
299.738549
 21
25.26624099999998
 31
0.0
  0
LINE
  5
24342
330
18
100
AcDbEntity
  8
1
100
AcDbLine
 10
299.738549
 20
25.26624099999998
 30
0.0
 11
299.531302
 21
25.77093299999998
 31
0.0
  0
LINE
  5
24343
330
18
100
AcDbEntity
  8
1
100
AcDbLine
 10
299.531302
 20
25.77093299999998
 30
0.0
 11
299.267858
 21
26.24918999999998
 31
0.0
  0
LINE
  5
24344
330
18
100
AcDbEntity
  8
1
100
AcDbLine
 10
299.267858
 20
26.24918999999998
 30
0.0
 11
298.951687
 21
26.69471699999998
 31
0.0
  0
LINE
  5
24345
330
18
100
AcDbEntity
  8
1
100
AcDbLine
 10
298.951687
 20
26.69471699999998
 30
0.0
 11
298.586952
 21
27.10164599999999
 31
0.0
  0
LINE
  5
24346
330
18
100
AcDbEntity
  8
1
100
AcDbLine
 10
298.586952
 20
27.10164599999999
 30
0.0
 11
298.178454
 21
27.46461899999998
 31
0.0
  0
LINE
  5
24347
330
18
100
AcDbEntity
  8
1
100
AcDbLine
 10
298.178454
 20
27.46461899999998
 30
0.0
 11
297.731574
 21
27.77885799999999
 31
0.0
  0
LINE
  5
24348
330
18
100
AcDbEntity
  8
1
100
AcDbLine
 10
297.731574
 20
27.77885799999999
 30
0.0
 11
297.252194
 21
28.04022499999998
 31
0.0
  0
LINE
  5
24349
330
18
100
AcDbEntity
  8
1
100
AcDbLine
 10
297.252194
 20
28.04022499999998
 30
0.0
 11
296.746627
 21
28.24527799999998
 31
0.0
  0
LINE
  5
2434A
330
18
100
AcDbEntity
  8
1
100
AcDbLine
 10
296.746627
 20
28.24527799999998
 30
0.0
 11
296.2215289999999
 21
28.39131799999998
 31
0.0
  0
LINE
  5
2434B
330
18
100
AcDbEntity
  8
1
100
AcDbLine
 10
296.2215289999999
 20
28.39131799999998
 30
0.0
 11
295.683814
 21
28.47642099999998
 31
0.0
  0
LINE
  5
2434C
330
18
100
AcDbEntity
  8
1
100
AcDbLine
 10
295.683814
 20
28.47642099999998
 30
0.0
 11
295.140563
 21
28.49946799999998
 31
0.0
  0
LINE
  5
2434D
330
18
100
AcDbEntity
  8
1
100
AcDbLine
 10
295.140563
 20
28.49946799999998
 30
0.0
 11
294.598928
 21
28.46015399999998
 31
0.0
  0
LINE
  5
2434E
330
18
100
AcDbEntity
  8
1
100
AcDbLine
 10
285.7388160000001
 20
11.75251099999998
 30
0.0
 11
285.982531
 21
11.76181999999998
 31
0.0
  0
LINE
  5
2434F
330
18
100
AcDbEntity
  8
1
100
AcDbLine
 10
285.982531
 20
11.76181999999998
 30
0.0
 11
286.223899
 21
11.79498399999998
 31
0.0
  0
LINE
  5
24350
330
18
100
AcDbEntity
  8
1
100
AcDbLine
 10
286.223899
 20
11.79498399999998
 30
0.0
 11
286.460595
 21
11.85168399999998
 31
0.0
  0
LINE
  5
24351
330
18
100
AcDbEntity
  8
1
100
AcDbLine
 10
286.460595
 20
11.85168399999998
 30
0.0
 11
286.69034
 21
11.93137299999998
 31
0.0
  0
LINE
  5
24352
330
18
100
AcDbEntity
  8
1
100
AcDbLine
 10
286.69034
 20
11.93137299999998
 30
0.0
 11
286.910922
 21
12.03328399999998
 31
0.0
  0
LINE
  5
24353
330
18
100
AcDbEntity
  8
1
100
AcDbLine
 10
286.910922
 20
12.03328399999998
 30
0.0
 11
287.120215
 21
12.15643499999998
 31
0.0
  0
LINE
  5
24354
330
18
100
AcDbEntity
  8
1
100
AcDbLine
 10
287.120215
 20
12.15643499999998
 30
0.0
 11
287.316205
 21
12.29964099999998
 31
0.0
  0
LINE
  5
24355
330
18
100
AcDbEntity
  8
1
100
AcDbLine
 10
287.316205
 20
12.29964099999998
 30
0.0
 11
287.497004
 21
12.46152199999998
 31
0.0
  0
LINE
  5
24356
330
18
100
AcDbEntity
  8
1
100
AcDbLine
 10
287.497004
 20
12.46152199999998
 30
0.0
 11
287.6608700000001
 21
12.64051999999998
 31
0.0
  0
LINE
  5
24357
330
18
100
AcDbEntity
  8
1
100
AcDbLine
 10
287.6608700000001
 20
12.64051999999998
 30
0.0
 11
287.806226
 21
12.83490999999998
 31
0.0
  0
LINE
  5
24358
330
18
100
AcDbEntity
  8
1
100
AcDbLine
 10
287.806226
 20
12.83490999999998
 30
0.0
 11
287.9316720000001
 21
13.04281999999998
 31
0.0
  0
LINE
  5
24359
330
18
100
AcDbEntity
  8
1
100
AcDbLine
 10
287.9316720000001
 20
13.04281999999998
 30
0.0
 11
288.035999
 21
13.26224899999998
 31
0.0
  0
LINE
  5
2435A
330
18
100
AcDbEntity
  8
1
100
AcDbLine
 10
288.035999
 20
13.26224899999998
 30
0.0
 11
288.118203
 21
13.49108199999998
 31
0.0
  0
LINE
  5
2435B
330
18
100
AcDbEntity
  8
1
100
AcDbLine
 10
288.118203
 20
13.49108199999998
 30
0.0
 11
288.177492
 21
13.72711599999998
 31
0.0
  0
LINE
  5
2435C
330
18
100
AcDbEntity
  8
1
100
AcDbLine
 10
288.177492
 20
13.72711599999998
 30
0.0
 11
288.213296
 21
13.96807899999998
 31
0.0
  0
LINE
  5
2435D
330
18
100
AcDbEntity
  8
1
100
AcDbLine
 10
288.213296
 20
13.96807899999998
 30
0.0
 11
288.2252689999999
 21
14.21164799999998
 31
0.0
  0
LINE
  5
2435E
330
18
100
AcDbEntity
  8
1
100
AcDbLine
 10
288.2252689999999
 20
14.21164799999998
 30
0.0
 11
288.213296
 21
14.45547899999998
 31
0.0
  0
LINE
  5
2435F
330
18
100
AcDbEntity
  8
1
100
AcDbLine
 10
288.213296
 20
14.45547899999998
 30
0.0
 11
288.177492
 21
14.69722399999998
 31
0.0
  0
LINE
  5
24360
330
18
100
AcDbEntity
  8
1
100
AcDbLine
 10
288.177492
 20
14.69722399999998
 30
0.0
 11
288.118203
 21
14.93455399999998
 31
0.0
  0
LINE
  5
24361
330
18
100
AcDbEntity
  8
1
100
AcDbLine
 10
288.118203
 20
14.93455399999998
 30
0.0
 11
288.035999
 21
15.16518399999998
 31
0.0
  0
LINE
  5
24362
330
18
100
AcDbEntity
  8
1
100
AcDbLine
 10
288.035999
 20
15.16518399999998
 30
0.0
 11
287.9316720000001
 21
15.38689199999998
 31
0.0
  0
LINE
  5
24363
330
18
100
AcDbEntity
  8
1
100
AcDbLine
 10
287.9316720000001
 20
15.38689199999998
 30
0.0
 11
287.806226
 21
15.59754399999998
 31
0.0
  0
LINE
  5
24364
330
18
100
AcDbEntity
  8
1
100
AcDbLine
 10
287.806226
 20
15.59754399999998
 30
0.0
 11
287.6608700000001
 21
15.79510999999998
 31
0.0
  0
LINE
  5
24365
330
18
100
AcDbEntity
  8
1
100
AcDbLine
 10
287.6608700000001
 20
15.79510999999998
 30
0.0
 11
287.497004
 21
15.97768799999998
 31
0.0
  0
LINE
  5
24366
330
18
100
AcDbEntity
  8
1
100
AcDbLine
 10
287.497004
 20
15.97768799999998
 30
0.0
 11
287.316205
 21
16.14351999999998
 31
0.0
  0
LINE
  5
24367
330
18
100
AcDbEntity
  8
1
100
AcDbLine
 10
287.316205
 20
16.14351999999998
 30
0.0
 11
287.120215
 21
16.29100899999998
 31
0.0
  0
LINE
  5
24368
330
18
100
AcDbEntity
  8
1
100
AcDbLine
 10
287.120215
 20
16.29100899999998
 30
0.0
 11
286.910922
 21
16.41873399999998
 31
0.0
  0
LINE
  5
24369
330
18
100
AcDbEntity
  8
1
100
AcDbLine
 10
286.910922
 20
16.41873399999998
 30
0.0
 11
286.69034
 21
16.52546499999998
 31
0.0
  0
LINE
  5
2436A
330
18
100
AcDbEntity
  8
1
100
AcDbLine
 10
286.69034
 20
16.52546499999998
 30
0.0
 11
286.460595
 21
16.61017499999998
 31
0.0
  0
LINE
  5
2436B
330
18
100
AcDbEntity
  8
1
100
AcDbLine
 10
286.460595
 20
16.61017499999998
 30
0.0
 11
286.223899
 21
16.67204699999998
 31
0.0
  0
LINE
  5
2436C
330
18
100
AcDbEntity
  8
1
100
AcDbLine
 10
286.223899
 20
16.67204699999998
 30
0.0
 11
285.982531
 21
16.71048499999998
 31
0.0
  0
LINE
  5
2436D
330
18
100
AcDbEntity
  8
1
100
AcDbLine
 10
285.982531
 20
16.71048499999998
 30
0.0
 11
285.7388160000001
 21
16.72511999999998
 31
0.0
  0
LINE
  5
2436E
330
18
100
AcDbEntity
  8
1
100
AcDbLine
 10
285.7388160000001
 20
16.72511999999998
 30
0.0
 11
285.495101
 21
16.71581099999998
 31
0.0
  0
LINE
  5
2436F
330
18
100
AcDbEntity
  8
1
100
AcDbLine
 10
285.495101
 20
16.71581099999998
 30
0.0
 11
285.253733
 21
16.68264699999998
 31
0.0
  0
LINE
  5
24370
330
18
100
AcDbEntity
  8
1
100
AcDbLine
 10
285.253733
 20
16.68264699999998
 30
0.0
 11
285.0170359999999
 21
16.62594699999998
 31
0.0
  0
LINE
  5
24371
330
18
100
AcDbEntity
  8
1
100
AcDbLine
 10
285.0170359999999
 20
16.62594699999998
 30
0.0
 11
284.787291
 21
16.54625799999998
 31
0.0
  0
LINE
  5
24372
330
18
100
AcDbEntity
  8
1
100
AcDbLine
 10
284.787291
 20
16.54625799999998
 30
0.0
 11
284.56671
 21
16.44434699999998
 31
0.0
  0
LINE
  5
24373
330
18
100
AcDbEntity
  8
1
100
AcDbLine
 10
284.56671
 20
16.44434699999998
 30
0.0
 11
284.357416
 21
16.32119599999998
 31
0.0
  0
LINE
  5
24374
330
18
100
AcDbEntity
  8
1
100
AcDbLine
 10
284.357416
 20
16.32119599999998
 30
0.0
 11
284.161426
 21
16.17798999999998
 31
0.0
  0
LINE
  5
24375
330
18
100
AcDbEntity
  8
1
100
AcDbLine
 10
284.161426
 20
16.17798999999998
 30
0.0
 11
283.980628
 21
16.01610899999998
 31
0.0
  0
LINE
  5
24376
330
18
100
AcDbEntity
  8
1
100
AcDbLine
 10
283.980628
 20
16.01610899999998
 30
0.0
 11
283.816761
 21
15.83711099999998
 31
0.0
  0
LINE
  5
24377
330
18
100
AcDbEntity
  8
1
100
AcDbLine
 10
283.816761
 20
15.83711099999998
 30
0.0
 11
283.671405
 21
15.64272199999998
 31
0.0
  0
LINE
  5
24378
330
18
100
AcDbEntity
  8
1
100
AcDbLine
 10
283.671405
 20
15.64272199999998
 30
0.0
 11
283.54596
 21
15.43481099999998
 31
0.0
  0
LINE
  5
24379
330
18
100
AcDbEntity
  8
1
100
AcDbLine
 10
283.54596
 20
15.43481099999998
 30
0.0
 11
283.441632
 21
15.21538299999998
 31
0.0
  0
LINE
  5
2437A
330
18
100
AcDbEntity
  8
1
100
AcDbLine
 10
283.441632
 20
15.21538299999998
 30
0.0
 11
283.359428
 21
14.98654999999998
 31
0.0
  0
LINE
  5
2437B
330
18
100
AcDbEntity
  8
1
100
AcDbLine
 10
283.359428
 20
14.98654999999998
 30
0.0
 11
283.300139
 21
14.75051499999998
 31
0.0
  0
LINE
  5
2437C
330
18
100
AcDbEntity
  8
1
100
AcDbLine
 10
283.300139
 20
14.75051499999998
 30
0.0
 11
283.264335
 21
14.50955299999998
 31
0.0
  0
LINE
  5
2437D
330
18
100
AcDbEntity
  8
1
100
AcDbLine
 10
283.264335
 20
14.50955299999998
 30
0.0
 11
283.252363
 21
14.26598299999998
 31
0.0
  0
LINE
  5
2437E
330
18
100
AcDbEntity
  8
1
100
AcDbLine
 10
283.252363
 20
14.26598299999998
 30
0.0
 11
283.264335
 21
14.02215199999998
 31
0.0
  0
LINE
  5
2437F
330
18
100
AcDbEntity
  8
1
100
AcDbLine
 10
283.264335
 20
14.02215199999998
 30
0.0
 11
283.300139
 21
13.78040699999998
 31
0.0
  0
LINE
  5
24380
330
18
100
AcDbEntity
  8
1
100
AcDbLine
 10
283.300139
 20
13.78040699999998
 30
0.0
 11
283.359428
 21
13.54307699999998
 31
0.0
  0
LINE
  5
24381
330
18
100
AcDbEntity
  8
1
100
AcDbLine
 10
283.359428
 20
13.54307699999998
 30
0.0
 11
283.441632
 21
13.31244799999998
 31
0.0
  0
LINE
  5
24382
330
18
100
AcDbEntity
  8
1
100
AcDbLine
 10
283.441632
 20
13.31244799999998
 30
0.0
 11
283.54596
 21
13.09073899999998
 31
0.0
  0
LINE
  5
24383
330
18
100
AcDbEntity
  8
1
100
AcDbLine
 10
283.54596
 20
13.09073899999998
 30
0.0
 11
283.671405
 21
12.88008799999998
 31
0.0
  0
LINE
  5
24384
330
18
100
AcDbEntity
  8
1
100
AcDbLine
 10
283.671405
 20
12.88008799999998
 30
0.0
 11
283.816761
 21
12.68252099999998
 31
0.0
  0
LINE
  5
24385
330
18
100
AcDbEntity
  8
1
100
AcDbLine
 10
283.816761
 20
12.68252099999998
 30
0.0
 11
283.980628
 21
12.49994299999998
 31
0.0
  0
LINE
  5
24386
330
18
100
AcDbEntity
  8
1
100
AcDbLine
 10
283.980628
 20
12.49994299999998
 30
0.0
 11
284.161426
 21
12.33411099999998
 31
0.0
  0
LINE
  5
24387
330
18
100
AcDbEntity
  8
1
100
AcDbLine
 10
284.161426
 20
12.33411099999998
 30
0.0
 11
284.357416
 21
12.18662199999998
 31
0.0
  0
LINE
  5
24388
330
18
100
AcDbEntity
  8
1
100
AcDbLine
 10
284.357416
 20
12.18662199999998
 30
0.0
 11
284.56671
 21
12.05889699999998
 31
0.0
  0
LINE
  5
24389
330
18
100
AcDbEntity
  8
1
100
AcDbLine
 10
284.56671
 20
12.05889699999998
 30
0.0
 11
284.787291
 21
11.95216599999998
 31
0.0
  0
LINE
  5
2438A
330
18
100
AcDbEntity
  8
1
100
AcDbLine
 10
284.787291
 20
11.95216599999998
 30
0.0
 11
285.0170359999999
 21
11.86745699999998
 31
0.0
  0
LINE
  5
2438B
330
18
100
AcDbEntity
  8
1
100
AcDbLine
 10
285.0170359999999
 20
11.86745699999998
 30
0.0
 11
285.253733
 21
11.80558499999998
 31
0.0
  0
LINE
  5
2438C
330
18
100
AcDbEntity
  8
1
100
AcDbLine
 10
285.253733
 20
11.80558499999998
 30
0.0
 11
285.495101
 21
11.76714599999998
 31
0.0
  0
LINE
  5
2438D
330
18
100
AcDbEntity
  8
1
100
AcDbLine
 10
285.495101
 20
11.76714599999998
 30
0.0
 11
285.7388160000001
 21
11.75251099999998
 31
0.0
  0
LINE
  5
2438E
330
18
100
AcDbEntity
  8
1
100
AcDbLine
 10
281.9745240000001
 20
17.89914499999998
 30
0.0
 11
281.632484
 21
17.52135399999998
 31
0.0
  0
LINE
  5
2438F
330
18
100
AcDbEntity
  8
1
100
AcDbLine
 10
281.632484
 20
17.52135399999998
 30
0.0
 11
281.32949
 21
17.11144899999998
 31
0.0
  0
LINE
  5
24390
330
18
100
AcDbEntity
  8
1
100
AcDbLine
 10
281.32949
 20
17.11144899999998
 30
0.0
 11
281.068459
 21
16.67337799999998
 31
0.0
  0
LINE
  5
24391
330
18
100
AcDbEntity
  8
1
100
AcDbLine
 10
281.068459
 20
16.67337799999998
 30
0.0
 11
280.851905
 21
16.21136099999998
 31
0.0
  0
LINE
  5
24392
330
18
100
AcDbEntity
  8
1
100
AcDbLine
 10
280.851905
 20
16.21136099999998
 30
0.0
 11
280.681915
 21
15.72984599999998
 31
0.0
  0
LINE
  5
24393
330
18
100
AcDbEntity
  8
1
100
AcDbLine
 10
280.681915
 20
15.72984599999998
 30
0.0
 11
280.560125
 21
15.23347199999998
 31
0.0
  0
LINE
  5
24394
330
18
100
AcDbEntity
  8
1
100
AcDbLine
 10
280.560125
 20
15.23347199999998
 30
0.0
 11
280.487708
 21
14.72701699999998
 31
0.0
  0
LINE
  5
24395
330
18
100
AcDbEntity
  8
1
100
AcDbLine
 10
280.487708
 20
14.72701699999998
 30
0.0
 11
280.465361
 21
14.21536099999998
 31
0.0
  0
LINE
  5
24396
330
18
100
AcDbEntity
  8
1
100
AcDbLine
 10
280.465361
 20
14.21536099999998
 30
0.0
 11
280.4933
 21
13.70342999999998
 31
0.0
  0
LINE
  5
24397
330
18
100
AcDbEntity
  8
1
100
AcDbLine
 10
280.4933
 20
13.70342999999998
 30
0.0
 11
280.571255
 21
13.19615399999998
 31
0.0
  0
LINE
  5
24398
330
18
100
AcDbEntity
  8
1
100
AcDbLine
 10
280.571255
 20
13.19615399999998
 30
0.0
 11
280.698477
 21
12.69841899999998
 31
0.0
  0
LINE
  5
24399
330
18
100
AcDbEntity
  8
1
100
AcDbLine
 10
280.698477
 20
12.69841899999998
 30
0.0
 11
280.873738
 21
12.21501799999998
 31
0.0
  0
LINE
  5
2439A
330
18
100
AcDbEntity
  8
1
100
AcDbLine
 10
280.873738
 20
12.21501799999998
 30
0.0
 11
281.095353
 21
11.75060699999998
 31
0.0
  0
LINE
  5
2439B
330
18
100
AcDbEntity
  8
1
100
AcDbLine
 10
281.095353
 20
11.75060699999998
 30
0.0
 11
281.361186
 21
11.30965799999998
 31
0.0
  0
LINE
  5
2439C
330
18
100
AcDbEntity
  8
1
100
AcDbLine
 10
281.361186
 20
11.30965799999998
 30
0.0
 11
281.668678
 21
10.89641799999998
 31
0.0
  0
LINE
  5
2439D
330
18
100
AcDbEntity
  8
1
100
AcDbLine
 10
281.668678
 20
10.89641799999998
 30
0.0
 11
282.014866
 21
10.51486599999998
 31
0.0
  0
LINE
  5
2439E
330
18
100
AcDbEntity
  8
1
100
AcDbLine
 10
282.014866
 20
10.51486599999998
 30
0.0
 11
282.396418
 21
10.16867799999998
 31
0.0
  0
LINE
  5
2439F
330
18
100
AcDbEntity
  8
1
100
AcDbLine
 10
282.396418
 20
10.16867799999998
 30
0.0
 11
282.809658
 21
9.861185999999982
 31
0.0
  0
LINE
  5
243A0
330
18
100
AcDbEntity
  8
1
100
AcDbLine
 10
282.809658
 20
9.861185999999982
 30
0.0
 11
283.250607
 21
9.595352999999981
 31
0.0
  0
LINE
  5
243A1
330
18
100
AcDbEntity
  8
1
100
AcDbLine
 10
283.250607
 20
9.595352999999981
 30
0.0
 11
283.715018
 21
9.373737999999985
 31
0.0
  0
LINE
  5
243A2
330
18
100
AcDbEntity
  8
1
100
AcDbLine
 10
283.715018
 20
9.373737999999985
 30
0.0
 11
284.198419
 21
9.198476999999982
 31
0.0
  0
LINE
  5
243A3
330
18
100
AcDbEntity
  8
1
100
AcDbLine
 10
284.198419
 20
9.198476999999982
 30
0.0
 11
284.696154
 21
9.071254999999982
 31
0.0
  0
LINE
  5
243A4
330
18
100
AcDbEntity
  8
1
100
AcDbLine
 10
284.696154
 20
9.071254999999982
 30
0.0
 11
285.20343
 21
8.99329999999998
 31
0.0
  0
LINE
  5
243A5
330
18
100
AcDbEntity
  8
1
100
AcDbLine
 10
285.20343
 20
8.99329999999998
 30
0.0
 11
285.715361
 21
8.96536099999998
 31
0.0
  0
LINE
  5
243A6
330
18
100
AcDbEntity
  8
1
100
AcDbLine
 10
285.715361
 20
8.96536099999998
 30
0.0
 11
286.227017
 21
8.98770799999998
 31
0.0
  0
LINE
  5
243A7
330
18
100
AcDbEntity
  8
1
100
AcDbLine
 10
286.227017
 20
8.98770799999998
 30
0.0
 11
286.733472
 21
9.060124999999981
 31
0.0
  0
LINE
  5
243A8
330
18
100
AcDbEntity
  8
1
100
AcDbLine
 10
286.733472
 20
9.060124999999981
 30
0.0
 11
287.229846
 21
9.181914999999982
 31
0.0
  0
LINE
  5
243A9
330
18
100
AcDbEntity
  8
1
100
AcDbLine
 10
287.229846
 20
9.181914999999982
 30
0.0
 11
287.711361
 21
9.351904999999982
 31
0.0
  0
LINE
  5
243AA
330
18
100
AcDbEntity
  8
1
100
AcDbLine
 10
287.711361
 20
9.351904999999982
 30
0.0
 11
288.173378
 21
9.568458999999981
 31
0.0
  0
LINE
  5
243AB
330
18
100
AcDbEntity
  8
1
100
AcDbLine
 10
288.173378
 20
9.568458999999981
 30
0.0
 11
288.611449
 21
9.829489999999982
 31
0.0
  0
LINE
  5
243AC
330
18
100
AcDbEntity
  8
1
100
AcDbLine
 10
288.611449
 20
9.829489999999982
 30
0.0
 11
289.021354
 21
10.13248399999998
 31
0.0
  0
LINE
  5
243AD
330
18
100
AcDbEntity
  8
1
100
AcDbLine
 10
289.021354
 20
10.13248399999998
 30
0.0
 11
289.3991450000001
 21
10.47452399999998
 31
0.0
  0
LINE
  5
243AE
330
18
100
AcDbEntity
  8
1
100
AcDbLine
 10
277.937824
 20
15.41807999999998
 30
0.0
 11
277.7423720000001
 21
15.20219899999998
 31
0.0
  0
LINE
  5
243AF
330
18
100
AcDbEntity
  8
1
100
AcDbLine
 10
277.7423720000001
 20
15.20219899999998
 30
0.0
 11
277.569233
 21
14.96796799999998
 31
0.0
  0
LINE
  5
243B0
330
18
100
AcDbEntity
  8
1
100
AcDbLine
 10
277.569233
 20
14.96796799999998
 30
0.0
 11
277.420072
 21
14.71764199999998
 31
0.0
  0
LINE
  5
243B1
330
18
100
AcDbEntity
  8
1
100
AcDbLine
 10
277.420072
 20
14.71764199999998
 30
0.0
 11
277.296327
 21
14.45363199999998
 31
0.0
  0
LINE
  5
243B2
330
18
100
AcDbEntity
  8
1
100
AcDbLine
 10
277.296327
 20
14.45363199999998
 30
0.0
 11
277.19919
 21
14.17847999999998
 31
0.0
  0
LINE
  5
243B3
330
18
100
AcDbEntity
  8
1
100
AcDbLine
 10
277.19919
 20
14.17847999999998
 30
0.0
 11
277.129596
 21
13.89483799999998
 31
0.0
  0
LINE
  5
243B4
330
18
100
AcDbEntity
  8
1
100
AcDbLine
 10
277.129596
 20
13.89483799999998
 30
0.0
 11
277.088214
 21
13.60543499999998
 31
0.0
  0
LINE
  5
243B5
330
18
100
AcDbEntity
  8
1
100
AcDbLine
 10
277.088214
 20
13.60543499999998
 30
0.0
 11
277.075445
 21
13.31305999999998
 31
0.0
  0
LINE
  5
243B6
330
18
100
AcDbEntity
  8
1
100
AcDbLine
 10
277.075445
 20
13.31305999999998
 30
0.0
 11
277.09141
 21
13.02052799999998
 31
0.0
  0
LINE
  5
243B7
330
18
100
AcDbEntity
  8
1
100
AcDbLine
 10
277.09141
 20
13.02052799999998
 30
0.0
 11
277.135956
 21
12.73065599999998
 31
0.0
  0
LINE
  5
243B8
330
18
100
AcDbEntity
  8
1
100
AcDbLine
 10
277.135956
 20
12.73065599999998
 30
0.0
 11
277.208654
 21
12.44623599999998
 31
0.0
  0
LINE
  5
243B9
330
18
100
AcDbEntity
  8
1
100
AcDbLine
 10
277.208654
 20
12.44623599999998
 30
0.0
 11
277.308803
 21
12.17000699999998
 31
0.0
  0
LINE
  5
243BA
330
18
100
AcDbEntity
  8
1
100
AcDbLine
 10
277.308803
 20
12.17000699999998
 30
0.0
 11
277.4354399999999
 21
11.90462899999998
 31
0.0
  0
LINE
  5
243BB
330
18
100
AcDbEntity
  8
1
100
AcDbLine
 10
277.4354399999999
 20
11.90462899999998
 30
0.0
 11
277.587345
 21
11.65265899999998
 31
0.0
  0
LINE
  5
243BC
330
18
100
AcDbEntity
  8
1
100
AcDbLine
 10
277.587345
 20
11.65265899999998
 30
0.0
 11
277.763054
 21
11.41652099999998
 31
0.0
  0
LINE
  5
243BD
330
18
100
AcDbEntity
  8
1
100
AcDbLine
 10
277.763054
 20
11.41652099999998
 30
0.0
 11
277.960876
 21
11.19849199999998
 31
0.0
  0
LINE
  5
243BE
330
18
100
AcDbEntity
  8
1
100
AcDbLine
 10
283.426226
 20
7.188610999999982
 30
0.0
 11
283.644256
 21
6.99078899999998
 31
0.0
  0
LINE
  5
243BF
330
18
100
AcDbEntity
  8
1
100
AcDbLine
 10
283.644256
 20
6.99078899999998
 30
0.0
 11
283.880393
 21
6.815078999999981
 31
0.0
  0
LINE
  5
243C0
330
18
100
AcDbEntity
  8
1
100
AcDbLine
 10
283.880393
 20
6.815078999999981
 30
0.0
 11
284.132364
 21
6.663174999999982
 31
0.0
  0
LINE
  5
243C1
330
18
100
AcDbEntity
  8
1
100
AcDbLine
 10
284.132364
 20
6.663174999999982
 30
0.0
 11
284.397741
 21
6.536537999999982
 31
0.0
  0
LINE
  5
243C2
330
18
100
AcDbEntity
  8
1
100
AcDbLine
 10
284.397741
 20
6.536537999999982
 30
0.0
 11
284.67397
 21
6.436387999999982
 31
0.0
  0
LINE
  5
243C3
330
18
100
AcDbEntity
  8
1
100
AcDbLine
 10
284.67397
 20
6.436387999999982
 30
0.0
 11
284.95839
 21
6.363689999999982
 31
0.0
  0
LINE
  5
243C4
330
18
100
AcDbEntity
  8
1
100
AcDbLine
 10
284.95839
 20
6.363689999999982
 30
0.0
 11
285.248262
 21
6.31914399999998
 31
0.0
  0
LINE
  5
243C5
330
18
100
AcDbEntity
  8
1
100
AcDbLine
 10
285.248262
 20
6.31914399999998
 30
0.0
 11
285.540795
 21
6.303178999999982
 31
0.0
  0
LINE
  5
243C6
330
18
100
AcDbEntity
  8
1
100
AcDbLine
 10
285.540795
 20
6.303178999999982
 30
0.0
 11
285.83317
 21
6.315948999999982
 31
0.0
  0
LINE
  5
243C7
330
18
100
AcDbEntity
  8
1
100
AcDbLine
 10
285.83317
 20
6.315948999999982
 30
0.0
 11
286.1225720000001
 21
6.357329999999982
 31
0.0
  0
LINE
  5
243C8
330
18
100
AcDbEntity
  8
1
100
AcDbLine
 10
286.1225720000001
 20
6.357329999999982
 30
0.0
 11
286.406215
 21
6.42692399999998
 31
0.0
  0
LINE
  5
243C9
330
18
100
AcDbEntity
  8
1
100
AcDbLine
 10
286.406215
 20
6.42692399999998
 30
0.0
 11
286.681366
 21
6.524061999999982
 31
0.0
  0
LINE
  5
243CA
330
18
100
AcDbEntity
  8
1
100
AcDbLine
 10
286.681366
 20
6.524061999999982
 30
0.0
 11
286.9453759999999
 21
6.647805999999982
 31
0.0
  0
LINE
  5
243CB
330
18
100
AcDbEntity
  8
1
100
AcDbLine
 10
286.9453759999999
 20
6.647805999999982
 30
0.0
 11
287.195702
 21
6.79696699999998
 31
0.0
  0
LINE
  5
243CC
330
18
100
AcDbEntity
  8
1
100
AcDbLine
 10
287.195702
 20
6.79696699999998
 30
0.0
 11
287.429933
 21
6.97010699999998
 31
0.0
  0
LINE
  5
243CD
330
18
100
AcDbEntity
  8
1
100
AcDbLine
 10
287.429933
 20
6.97010699999998
 30
0.0
 11
287.645814
 21
7.165557999999982
 31
0.0
  0
LINE
  5
243CE
330
18
100
AcDbEntity
  8
1
100
AcDbLine
 10
282.698492
 20
6.460875999999982
 30
0.0
 11
282.916521
 21
6.26305399999998
 31
0.0
  0
LINE
  5
243CF
330
18
100
AcDbEntity
  8
1
100
AcDbLine
 10
282.916521
 20
6.26305399999998
 30
0.0
 11
283.152659
 21
6.087344999999982
 31
0.0
  0
LINE
  5
243D0
330
18
100
AcDbEntity
  8
1
100
AcDbLine
 10
283.152659
 20
6.087344999999982
 30
0.0
 11
283.404629
 21
5.935439999999982
 31
0.0
  0
LINE
  5
243D1
330
18
100
AcDbEntity
  8
1
100
AcDbLine
 10
283.404629
 20
5.935439999999982
 30
0.0
 11
283.670007
 21
5.808802999999982
 31
0.0
  0
LINE
  5
243D2
330
18
100
AcDbEntity
  8
1
100
AcDbLine
 10
283.670007
 20
5.808802999999982
 30
0.0
 11
283.946236
 21
5.708653999999982
 31
0.0
  0
LINE
  5
243D3
330
18
100
AcDbEntity
  8
1
100
AcDbLine
 10
283.946236
 20
5.708653999999982
 30
0.0
 11
284.230656
 21
5.635955999999982
 31
0.0
  0
LINE
  5
243D4
330
18
100
AcDbEntity
  8
1
100
AcDbLine
 10
284.230656
 20
5.635955999999982
 30
0.0
 11
284.520528
 21
5.591409999999981
 31
0.0
  0
LINE
  5
243D5
330
18
100
AcDbEntity
  8
1
100
AcDbLine
 10
284.520528
 20
5.591409999999981
 30
0.0
 11
284.81306
 21
5.57544499999998
 31
0.0
  0
LINE
  5
243D6
330
18
100
AcDbEntity
  8
1
100
AcDbLine
 10
284.81306
 20
5.57544499999998
 30
0.0
 11
285.105435
 21
5.588213999999981
 31
0.0
  0
LINE
  5
243D7
330
18
100
AcDbEntity
  8
1
100
AcDbLine
 10
285.105435
 20
5.588213999999981
 30
0.0
 11
285.394838
 21
5.629595999999982
 31
0.0
  0
LINE
  5
243D8
330
18
100
AcDbEntity
  8
1
100
AcDbLine
 10
285.394838
 20
5.629595999999982
 30
0.0
 11
285.67848
 21
5.699189999999981
 31
0.0
  0
LINE
  5
243D9
330
18
100
AcDbEntity
  8
1
100
AcDbLine
 10
285.67848
 20
5.699189999999981
 30
0.0
 11
285.953632
 21
5.796326999999982
 31
0.0
  0
LINE
  5
243DA
330
18
100
AcDbEntity
  8
1
100
AcDbLine
 10
285.953632
 20
5.796326999999982
 30
0.0
 11
286.217642
 21
5.920071999999982
 31
0.0
  0
LINE
  5
243DB
330
18
100
AcDbEntity
  8
1
100
AcDbLine
 10
286.217642
 20
5.920071999999982
 30
0.0
 11
286.467968
 21
6.069232999999981
 31
0.0
  0
LINE
  5
243DC
330
18
100
AcDbEntity
  8
1
100
AcDbLine
 10
286.467968
 20
6.069232999999981
 30
0.0
 11
286.702199
 21
6.24237199999998
 31
0.0
  0
LINE
  5
243DD
330
18
100
AcDbEntity
  8
1
100
AcDbLine
 10
286.702199
 20
6.24237199999998
 30
0.0
 11
286.91808
 21
6.437823999999982
 31
0.0
  0
LINE
  5
243DE
330
18
100
AcDbEntity
  8
1
100
AcDbLine
 10
278.6655580000001
 20
16.14581399999998
 30
0.0
 11
278.470107
 21
15.92993299999998
 31
0.0
  0
LINE
  5
243DF
330
18
100
AcDbEntity
  8
1
100
AcDbLine
 10
278.470107
 20
15.92993299999998
 30
0.0
 11
278.296967
 21
15.69570199999998
 31
0.0
  0
LINE
  5
243E0
330
18
100
AcDbEntity
  8
1
100
AcDbLine
 10
278.296967
 20
15.69570199999998
 30
0.0
 11
278.147806
 21
15.44537599999998
 31
0.0
  0
LINE
  5
243E1
330
18
100
AcDbEntity
  8
1
100
AcDbLine
 10
278.147806
 20
15.44537599999998
 30
0.0
 11
278.024062
 21
15.18136599999998
 31
0.0
  0
LINE
  5
243E2
330
18
100
AcDbEntity
  8
1
100
AcDbLine
 10
278.024062
 20
15.18136599999998
 30
0.0
 11
277.926924
 21
14.90621499999998
 31
0.0
  0
LINE
  5
243E3
330
18
100
AcDbEntity
  8
1
100
AcDbLine
 10
277.926924
 20
14.90621499999998
 30
0.0
 11
277.85733
 21
14.62257199999998
 31
0.0
  0
LINE
  5
243E4
330
18
100
AcDbEntity
  8
1
100
AcDbLine
 10
277.85733
 20
14.62257199999998
 30
0.0
 11
277.8159490000001
 21
14.33316999999998
 31
0.0
  0
LINE
  5
243E5
330
18
100
AcDbEntity
  8
1
100
AcDbLine
 10
277.8159490000001
 20
14.33316999999998
 30
0.0
 11
277.803179
 21
14.04079499999998
 31
0.0
  0
LINE
  5
243E6
330
18
100
AcDbEntity
  8
1
100
AcDbLine
 10
277.803179
 20
14.04079499999998
 30
0.0
 11
277.819144
 21
13.74826199999998
 31
0.0
  0
LINE
  5
243E7
330
18
100
AcDbEntity
  8
1
100
AcDbLine
 10
277.819144
 20
13.74826199999998
 30
0.0
 11
277.8636899999999
 21
13.45838999999998
 31
0.0
  0
LINE
  5
243E8
330
18
100
AcDbEntity
  8
1
100
AcDbLine
 10
277.8636899999999
 20
13.45838999999998
 30
0.0
 11
277.936388
 21
13.17396999999998
 31
0.0
  0
LINE
  5
243E9
330
18
100
AcDbEntity
  8
1
100
AcDbLine
 10
277.936388
 20
13.17396999999998
 30
0.0
 11
278.036538
 21
12.89774099999998
 31
0.0
  0
LINE
  5
243EA
330
18
100
AcDbEntity
  8
1
100
AcDbLine
 10
278.036538
 20
12.89774099999998
 30
0.0
 11
278.163175
 21
12.63236399999998
 31
0.0
  0
LINE
  5
243EB
330
18
100
AcDbEntity
  8
1
100
AcDbLine
 10
278.163175
 20
12.63236399999998
 30
0.0
 11
278.315079
 21
12.38039299999998
 31
0.0
  0
LINE
  5
243EC
330
18
100
AcDbEntity
  8
1
100
AcDbLine
 10
278.315079
 20
12.38039299999998
 30
0.0
 11
278.490789
 21
12.14425599999998
 31
0.0
  0
LINE
  5
243ED
330
18
100
AcDbEntity
  8
1
100
AcDbLine
 10
278.490789
 20
12.14425599999998
 30
0.0
 11
278.688611
 21
11.92622599999998
 31
0.0
  0
LINE
  5
243EE
330
18
100
AcDbEntity
  8
1
100
AcDbLine
 10
291.895711
 20
27.13090299999999
 30
0.0
 11
291.581679
 21
26.78360399999998
 31
0.0
  0
LINE
  5
243EF
330
18
100
AcDbEntity
  8
1
100
AcDbLine
 10
291.581679
 20
26.78360399999998
 30
0.0
 11
291.304017
 21
26.40646799999998
 31
0.0
  0
LINE
  5
243F0
330
18
100
AcDbEntity
  8
1
100
AcDbLine
 10
291.304017
 20
26.40646799999998
 30
0.0
 11
291.065469
 21
26.00322099999998
 31
0.0
  0
LINE
  5
243F1
330
18
100
AcDbEntity
  8
1
100
AcDbLine
 10
291.065469
 20
26.00322099999998
 30
0.0
 11
290.868389
 21
25.57784599999998
 31
0.0
  0
LINE
  5
243F2
330
18
100
AcDbEntity
  8
1
100
AcDbLine
 10
297.077846
 20
19.36838899999998
 30
0.0
 11
297.503221
 21
19.56546899999998
 31
0.0
  0
LINE
  5
243F3
330
18
100
AcDbEntity
  8
1
100
AcDbLine
 10
297.503221
 20
19.56546899999998
 30
0.0
 11
297.906468
 21
19.80401699999998
 31
0.0
  0
LINE
  5
243F4
330
18
100
AcDbEntity
  8
1
100
AcDbLine
 10
297.906468
 20
19.80401699999998
 30
0.0
 11
298.283604
 21
20.08167899999998
 31
0.0
  0
LINE
  5
243F5
330
18
100
AcDbEntity
  8
1
100
AcDbLine
 10
298.283604
 20
20.08167899999998
 30
0.0
 11
298.630903
 21
20.39571099999998
 31
0.0
  0
LINE
  5
243F6
330
18
100
AcDbEntity
  8
1
100
AcDbLine
 10
297.074734
 20
19.36094099999998
 30
0.0
 11
297.498036
 21
19.55781599999998
 31
0.0
  0
LINE
  5
243F7
330
18
100
AcDbEntity
  8
1
100
AcDbLine
 10
297.498036
 20
19.55781599999998
 30
0.0
 11
297.899344
 21
19.79578799999998
 31
0.0
  0
LINE
  5
243F8
330
18
100
AcDbEntity
  8
1
100
AcDbLine
 10
297.899344
 20
19.79578799999998
 30
0.0
 11
298.274726
 21
20.07252399999998
 31
0.0
  0
LINE
  5
243F9
330
18
100
AcDbEntity
  8
1
100
AcDbLine
 10
298.274726
 20
20.07252399999998
 30
0.0
 11
298.620507
 21
20.38531399999998
 31
0.0
  0
LINE
  5
243FA
330
18
100
AcDbEntity
  8
1
100
AcDbLine
 10
291.885314
 20
27.12050699999998
 30
0.0
 11
291.572524
 21
26.77472599999998
 31
0.0
  0
LINE
  5
243FB
330
18
100
AcDbEntity
  8
1
100
AcDbLine
 10
291.572524
 20
26.77472599999998
 30
0.0
 11
291.295788
 21
26.39934399999998
 31
0.0
  0
LINE
  5
243FC
330
18
100
AcDbEntity
  8
1
100
AcDbLine
 10
291.295788
 20
26.39934399999998
 30
0.0
 11
291.057816
 21
25.99803599999998
 31
0.0
  0
LINE
  5
243FD
330
18
100
AcDbEntity
  8
1
100
AcDbLine
 10
291.057816
 20
25.99803599999998
 30
0.0
 11
290.860941
 21
25.57473399999998
 31
0.0
  0
LINE
  5
243FE
330
18
100
AcDbEntity
  8
1
100
AcDbLine
 10
289.3991450000001
 20
10.47452399999998
 30
0.0
 11
289.7411850000001
 21
10.85231599999998
 31
0.0
  0
LINE
  5
243FF
330
18
100
AcDbEntity
  8
1
100
AcDbLine
 10
289.7411850000001
 20
10.85231599999998
 30
0.0
 11
290.04418
 21
11.26222099999998
 31
0.0
  0
LINE
  5
24400
330
18
100
AcDbEntity
  8
1
100
AcDbLine
 10
290.04418
 20
11.26222099999998
 30
0.0
 11
290.305211
 21
11.70029099999998
 31
0.0
  0
LINE
  5
24401
330
18
100
AcDbEntity
  8
1
100
AcDbLine
 10
290.305211
 20
11.70029099999998
 30
0.0
 11
290.521764
 21
12.16230799999998
 31
0.0
  0
LINE
  5
24402
330
18
100
AcDbEntity
  8
1
100
AcDbLine
 10
290.521764
 20
12.16230799999998
 30
0.0
 11
290.691754
 21
12.64382299999998
 31
0.0
  0
LINE
  5
24403
330
18
100
AcDbEntity
  8
1
100
AcDbLine
 10
290.691754
 20
12.64382299999998
 30
0.0
 11
290.813544
 21
13.14019799999998
 31
0.0
  0
LINE
  5
24404
330
18
100
AcDbEntity
  8
1
100
AcDbLine
 10
290.813544
 20
13.14019799999998
 30
0.0
 11
290.885962
 21
13.64665199999998
 31
0.0
  0
LINE
  5
24405
330
18
100
AcDbEntity
  8
1
100
AcDbLine
 10
290.885962
 20
13.64665199999998
 30
0.0
 11
290.908308
 21
14.15830799999998
 31
0.0
  0
LINE
  5
24406
330
18
100
AcDbEntity
  8
1
100
AcDbLine
 10
290.908308
 20
14.15830799999998
 30
0.0
 11
290.880369
 21
14.67023999999998
 31
0.0
  0
LINE
  5
24407
330
18
100
AcDbEntity
  8
1
100
AcDbLine
 10
290.880369
 20
14.67023999999998
 30
0.0
 11
290.802414
 21
15.17751499999998
 31
0.0
  0
LINE
  5
24408
330
18
100
AcDbEntity
  8
1
100
AcDbLine
 10
290.802414
 20
15.17751499999998
 30
0.0
 11
290.675193
 21
15.67525099999998
 31
0.0
  0
LINE
  5
24409
330
18
100
AcDbEntity
  8
1
100
AcDbLine
 10
290.675193
 20
15.67525099999998
 30
0.0
 11
290.499931
 21
16.15865099999998
 31
0.0
  0
LINE
  5
2440A
330
18
100
AcDbEntity
  8
1
100
AcDbLine
 10
290.499931
 20
16.15865099999998
 30
0.0
 11
290.278316
 21
16.62306199999998
 31
0.0
  0
LINE
  5
2440B
330
18
100
AcDbEntity
  8
1
100
AcDbLine
 10
290.278316
 20
16.62306199999998
 30
0.0
 11
290.012483
 21
17.06401099999998
 31
0.0
  0
LINE
  5
2440C
330
18
100
AcDbEntity
  8
1
100
AcDbLine
 10
290.012483
 20
17.06401099999998
 30
0.0
 11
289.704992
 21
17.47725099999998
 31
0.0
  0
LINE
  5
2440D
330
18
100
AcDbEntity
  8
1
100
AcDbLine
 10
289.704992
 20
17.47725099999998
 30
0.0
 11
289.358803
 21
17.85880299999998
 31
0.0
  0
LINE
  5
2440E
330
18
100
AcDbEntity
  8
1
100
AcDbLine
 10
289.358803
 20
17.85880299999998
 30
0.0
 11
288.977251
 21
18.20499199999998
 31
0.0
  0
LINE
  5
2440F
330
18
100
AcDbEntity
  8
1
100
AcDbLine
 10
288.977251
 20
18.20499199999998
 30
0.0
 11
288.564011
 21
18.51248299999998
 31
0.0
  0
LINE
  5
24410
330
18
100
AcDbEntity
  8
1
100
AcDbLine
 10
288.564011
 20
18.51248299999998
 30
0.0
 11
288.123062
 21
18.77831599999998
 31
0.0
  0
LINE
  5
24411
330
18
100
AcDbEntity
  8
1
100
AcDbLine
 10
288.123062
 20
18.77831599999998
 30
0.0
 11
287.658651
 21
18.99993099999998
 31
0.0
  0
LINE
  5
24412
330
18
100
AcDbEntity
  8
1
100
AcDbLine
 10
287.658651
 20
18.99993099999998
 30
0.0
 11
287.175251
 21
19.17519299999998
 31
0.0
  0
LINE
  5
24413
330
18
100
AcDbEntity
  8
1
100
AcDbLine
 10
287.175251
 20
19.17519299999998
 30
0.0
 11
286.677515
 21
19.30241399999998
 31
0.0
  0
LINE
  5
24414
330
18
100
AcDbEntity
  8
1
100
AcDbLine
 10
286.677515
 20
19.30241399999998
 30
0.0
 11
286.17024
 21
19.38036899999998
 31
0.0
  0
LINE
  5
24415
330
18
100
AcDbEntity
  8
1
100
AcDbLine
 10
286.17024
 20
19.38036899999998
 30
0.0
 11
285.658308
 21
19.40830799999998
 31
0.0
  0
LINE
  5
24416
330
18
100
AcDbEntity
  8
1
100
AcDbLine
 10
285.658308
 20
19.40830799999998
 30
0.0
 11
285.146652
 21
19.38596199999998
 31
0.0
  0
LINE
  5
24417
330
18
100
AcDbEntity
  8
1
100
AcDbLine
 10
285.146652
 20
19.38596199999998
 30
0.0
 11
284.640198
 21
19.31354399999998
 31
0.0
  0
LINE
  5
24418
330
18
100
AcDbEntity
  8
1
100
AcDbLine
 10
284.640198
 20
19.31354399999998
 30
0.0
 11
284.143823
 21
19.19175399999998
 31
0.0
  0
LINE
  5
24419
330
18
100
AcDbEntity
  8
1
100
AcDbLine
 10
284.143823
 20
19.19175399999998
 30
0.0
 11
283.662308
 21
19.02176399999998
 31
0.0
  0
LINE
  5
2441A
330
18
100
AcDbEntity
  8
1
100
AcDbLine
 10
283.662308
 20
19.02176399999998
 30
0.0
 11
283.200291
 21
18.80521099999998
 31
0.0
  0
LINE
  5
2441B
330
18
100
AcDbEntity
  8
1
100
AcDbLine
 10
283.200291
 20
18.80521099999998
 30
0.0
 11
282.762221
 21
18.54417999999998
 31
0.0
  0
LINE
  5
2441C
330
18
100
AcDbEntity
  8
1
100
AcDbLine
 10
282.762221
 20
18.54417999999998
 30
0.0
 11
282.352316
 21
18.24118499999998
 31
0.0
  0
LINE
  5
2441D
330
18
100
AcDbEntity
  8
1
100
AcDbLine
 10
282.352316
 20
18.24118499999998
 30
0.0
 11
281.9745240000001
 21
17.89914499999998
 31
0.0
  0
LINE
  5
2441E
330
18
100
AcDbEntity
  8
1
100
AcDbLine
 10
298.630903
 20
20.39571099999998
 30
0.0
 11
298.941182
 21
20.73842199999998
 31
0.0
  0
LINE
  5
2441F
330
18
100
AcDbEntity
  8
1
100
AcDbLine
 10
298.941182
 20
20.73842199999998
 30
0.0
 11
299.216041
 21
21.11026399999998
 31
0.0
  0
LINE
  5
24420
330
18
100
AcDbEntity
  8
1
100
AcDbLine
 10
299.216041
 20
21.11026399999998
 30
0.0
 11
299.452833
 21
21.50765599999998
 31
0.0
  0
LINE
  5
24421
330
18
100
AcDbEntity
  8
1
100
AcDbLine
 10
299.452833
 20
21.50765599999998
 30
0.0
 11
299.649278
 21
21.92677199999998
 31
0.0
  0
LINE
  5
24422
330
18
100
AcDbEntity
  8
1
100
AcDbLine
 10
299.649278
 20
21.92677199999998
 30
0.0
 11
299.803484
 21
22.36357499999998
 31
0.0
  0
LINE
  5
24423
330
18
100
AcDbEntity
  8
1
100
AcDbLine
 10
299.803484
 20
22.36357499999998
 30
0.0
 11
299.913965
 21
22.81385699999999
 31
0.0
  0
LINE
  5
24424
330
18
100
AcDbEntity
  8
1
100
AcDbLine
 10
299.913965
 20
22.81385699999999
 30
0.0
 11
299.979658
 21
23.27328399999998
 31
0.0
  0
LINE
  5
24425
330
18
100
AcDbEntity
  8
1
100
AcDbLine
 10
299.979658
 20
23.27328399999998
 30
0.0
 11
299.999929
 21
23.73742899999998
 31
0.0
  0
LINE
  5
24426
330
18
100
AcDbEntity
  8
1
100
AcDbLine
 10
299.999929
 20
23.73742899999998
 30
0.0
 11
299.974585
 21
24.20182399999998
 31
0.0
  0
LINE
  5
24427
330
18
100
AcDbEntity
  8
1
100
AcDbLine
 10
299.974585
 20
24.20182399999998
 30
0.0
 11
299.903868
 21
24.66199599999998
 31
0.0
  0
LINE
  5
24428
330
18
100
AcDbEntity
  8
1
100
AcDbLine
 10
299.903868
 20
24.66199599999998
 30
0.0
 11
299.78846
 21
25.11351299999998
 31
0.0
  0
LINE
  5
24429
330
18
100
AcDbEntity
  8
1
100
AcDbLine
 10
299.78846
 20
25.11351299999998
 30
0.0
 11
299.629473
 21
25.55202599999998
 31
0.0
  0
LINE
  5
2442A
330
18
100
AcDbEntity
  8
1
100
AcDbLine
 10
299.629473
 20
25.55202599999998
 30
0.0
 11
299.428436
 21
25.97331299999999
 31
0.0
  0
LINE
  5
2442B
330
18
100
AcDbEntity
  8
1
100
AcDbLine
 10
299.428436
 20
25.97331299999999
 30
0.0
 11
299.187288
 21
26.37331699999998
 31
0.0
  0
LINE
  5
2442C
330
18
100
AcDbEntity
  8
1
100
AcDbLine
 10
299.187288
 20
26.37331699999998
 30
0.0
 11
298.908349
 21
26.74818499999998
 31
0.0
  0
LINE
  5
2442D
330
18
100
AcDbEntity
  8
1
100
AcDbLine
 10
298.908349
 20
26.74818499999998
 30
0.0
 11
298.594307
 21
27.09430699999999
 31
0.0
  0
LINE
  5
2442E
330
18
100
AcDbEntity
  8
1
100
AcDbLine
 10
298.594307
 20
27.09430699999999
 30
0.0
 11
298.248185
 21
27.40834899999998
 31
0.0
  0
LINE
  5
2442F
330
18
100
AcDbEntity
  8
1
100
AcDbLine
 10
298.248185
 20
27.40834899999998
 30
0.0
 11
297.873317
 21
27.68728799999998
 31
0.0
  0
LINE
  5
24430
330
18
100
AcDbEntity
  8
1
100
AcDbLine
 10
297.873317
 20
27.68728799999998
 30
0.0
 11
297.473313
 21
27.92843599999998
 31
0.0
  0
LINE
  5
24431
330
18
100
AcDbEntity
  8
1
100
AcDbLine
 10
297.473313
 20
27.92843599999998
 30
0.0
 11
297.052026
 21
28.12947299999998
 31
0.0
  0
LINE
  5
24432
330
18
100
AcDbEntity
  8
1
100
AcDbLine
 10
297.052026
 20
28.12947299999998
 30
0.0
 11
296.613513
 21
28.28845999999998
 31
0.0
  0
LINE
  5
24433
330
18
100
AcDbEntity
  8
1
100
AcDbLine
 10
296.613513
 20
28.28845999999998
 30
0.0
 11
296.161996
 21
28.40386799999998
 31
0.0
  0
LINE
  5
24434
330
18
100
AcDbEntity
  8
1
100
AcDbLine
 10
296.161996
 20
28.40386799999998
 30
0.0
 11
295.701824
 21
28.47458499999998
 31
0.0
  0
LINE
  5
24435
330
18
100
AcDbEntity
  8
1
100
AcDbLine
 10
295.701824
 20
28.47458499999998
 30
0.0
 11
295.237429
 21
28.49992899999998
 31
0.0
  0
LINE
  5
24436
330
18
100
AcDbEntity
  8
1
100
AcDbLine
 10
295.237429
 20
28.49992899999998
 30
0.0
 11
294.773284
 21
28.47965799999998
 31
0.0
  0
LINE
  5
24437
330
18
100
AcDbEntity
  8
1
100
AcDbLine
 10
294.773284
 20
28.47965799999998
 30
0.0
 11
294.313857
 21
28.41396499999998
 31
0.0
  0
LINE
  5
24438
330
18
100
AcDbEntity
  8
1
100
AcDbLine
 10
294.313857
 20
28.41396499999998
 30
0.0
 11
293.863575
 21
28.30348399999998
 31
0.0
  0
LINE
  5
24439
330
18
100
AcDbEntity
  8
1
100
AcDbLine
 10
293.863575
 20
28.30348399999998
 30
0.0
 11
293.426772
 21
28.14927799999999
 31
0.0
  0
LINE
  5
2443A
330
18
100
AcDbEntity
  8
1
100
AcDbLine
 10
293.426772
 20
28.14927799999999
 30
0.0
 11
293.007656
 21
27.95283299999999
 31
0.0
  0
LINE
  5
2443B
330
18
100
AcDbEntity
  8
1
100
AcDbLine
 10
293.007656
 20
27.95283299999999
 30
0.0
 11
292.610264
 21
27.71604099999998
 31
0.0
  0
LINE
  5
2443C
330
18
100
AcDbEntity
  8
1
100
AcDbLine
 10
292.610264
 20
27.71604099999998
 30
0.0
 11
292.238422
 21
27.44118199999999
 31
0.0
  0
LINE
  5
2443D
330
18
100
AcDbEntity
  8
1
100
AcDbLine
 10
292.238422
 20
27.44118199999999
 30
0.0
 11
291.895711
 21
27.13090299999999
 31
0.0
  0
LINE
  5
2443E
330
18
100
AcDbEntity
  8
1
100
AcDbLine
 10
281.891354
 20
17.81597599999998
 30
0.0
 11
281.549314
 21
17.43818399999998
 31
0.0
  0
LINE
  5
2443F
330
18
100
AcDbEntity
  8
1
100
AcDbLine
 10
281.549314
 20
17.43818399999998
 30
0.0
 11
281.24632
 21
17.02827899999998
 31
0.0
  0
LINE
  5
24440
330
18
100
AcDbEntity
  8
1
100
AcDbLine
 10
281.24632
 20
17.02827899999998
 30
0.0
 11
280.985289
 21
16.59020899999998
 31
0.0
  0
LINE
  5
24441
330
18
100
AcDbEntity
  8
1
100
AcDbLine
 10
280.985289
 20
16.59020899999998
 30
0.0
 11
280.768736
 21
16.12819099999998
 31
0.0
  0
LINE
  5
24442
330
18
100
AcDbEntity
  8
1
100
AcDbLine
 10
280.768736
 20
16.12819099999998
 30
0.0
 11
280.598745
 21
15.64667699999998
 31
0.0
  0
LINE
  5
24443
330
18
100
AcDbEntity
  8
1
100
AcDbLine
 10
280.598745
 20
15.64667699999998
 30
0.0
 11
280.4769549999999
 21
15.15030199999998
 31
0.0
  0
LINE
  5
24444
330
18
100
AcDbEntity
  8
1
100
AcDbLine
 10
280.4769549999999
 20
15.15030199999998
 30
0.0
 11
280.404538
 21
14.64384799999998
 31
0.0
  0
LINE
  5
24445
330
18
100
AcDbEntity
  8
1
100
AcDbLine
 10
280.404538
 20
14.64384799999998
 30
0.0
 11
280.382191
 21
14.13219099999998
 31
0.0
  0
LINE
  5
24446
330
18
100
AcDbEntity
  8
1
100
AcDbLine
 10
280.382191
 20
14.13219099999998
 30
0.0
 11
280.41013
 21
13.62025999999998
 31
0.0
  0
LINE
  5
24447
330
18
100
AcDbEntity
  8
1
100
AcDbLine
 10
280.41013
 20
13.62025999999998
 30
0.0
 11
280.488086
 21
13.11298399999998
 31
0.0
  0
LINE
  5
24448
330
18
100
AcDbEntity
  8
1
100
AcDbLine
 10
280.488086
 20
13.11298399999998
 30
0.0
 11
280.615307
 21
12.61524899999998
 31
0.0
  0
LINE
  5
24449
330
18
100
AcDbEntity
  8
1
100
AcDbLine
 10
280.615307
 20
12.61524899999998
 30
0.0
 11
280.790569
 21
12.13184799999998
 31
0.0
  0
LINE
  5
2444A
330
18
100
AcDbEntity
  8
1
100
AcDbLine
 10
280.790569
 20
12.13184799999998
 30
0.0
 11
281.012184
 21
11.66743699999998
 31
0.0
  0
LINE
  5
2444B
330
18
100
AcDbEntity
  8
1
100
AcDbLine
 10
281.012184
 20
11.66743699999998
 30
0.0
 11
281.278017
 21
11.22648799999998
 31
0.0
  0
LINE
  5
2444C
330
18
100
AcDbEntity
  8
1
100
AcDbLine
 10
281.278017
 20
11.22648799999998
 30
0.0
 11
281.585508
 21
10.81324799999998
 31
0.0
  0
LINE
  5
2444D
330
18
100
AcDbEntity
  8
1
100
AcDbLine
 10
281.585508
 20
10.81324799999998
 30
0.0
 11
281.931697
 21
10.43169699999998
 31
0.0
  0
LINE
  5
2444E
330
18
100
AcDbEntity
  8
1
100
AcDbLine
 10
281.931697
 20
10.43169699999998
 30
0.0
 11
282.313248
 21
10.08550799999998
 31
0.0
  0
LINE
  5
2444F
330
18
100
AcDbEntity
  8
1
100
AcDbLine
 10
282.313248
 20
10.08550799999998
 30
0.0
 11
282.7264879999999
 21
9.778016999999982
 31
0.0
  0
LINE
  5
24450
330
18
100
AcDbEntity
  8
1
100
AcDbLine
 10
282.7264879999999
 20
9.778016999999982
 30
0.0
 11
283.167437
 21
9.512183999999981
 31
0.0
  0
LINE
  5
24451
330
18
100
AcDbEntity
  8
1
100
AcDbLine
 10
283.167437
 20
9.512183999999981
 30
0.0
 11
283.631848
 21
9.29056899999998
 31
0.0
  0
LINE
  5
24452
330
18
100
AcDbEntity
  8
1
100
AcDbLine
 10
283.631848
 20
9.29056899999998
 30
0.0
 11
284.115249
 21
9.115306999999983
 31
0.0
  0
LINE
  5
24453
330
18
100
AcDbEntity
  8
1
100
AcDbLine
 10
284.115249
 20
9.115306999999983
 30
0.0
 11
284.612984
 21
8.988085999999981
 31
0.0
  0
LINE
  5
24454
330
18
100
AcDbEntity
  8
1
100
AcDbLine
 10
284.612984
 20
8.988085999999981
 30
0.0
 11
285.12026
 21
8.910129999999982
 31
0.0
  0
LINE
  5
24455
330
18
100
AcDbEntity
  8
1
100
AcDbLine
 10
285.12026
 20
8.910129999999982
 30
0.0
 11
285.6321910000001
 21
8.882190999999982
 31
0.0
  0
LINE
  5
24456
330
18
100
AcDbEntity
  8
1
100
AcDbLine
 10
285.6321910000001
 20
8.882190999999982
 30
0.0
 11
286.143848
 21
8.904537999999982
 31
0.0
  0
LINE
  5
24457
330
18
100
AcDbEntity
  8
1
100
AcDbLine
 10
286.143848
 20
8.904537999999982
 30
0.0
 11
286.650302
 21
8.976954999999982
 31
0.0
  0
LINE
  5
24458
330
18
100
AcDbEntity
  8
1
100
AcDbLine
 10
286.650302
 20
8.976954999999982
 30
0.0
 11
287.146677
 21
9.098744999999981
 31
0.0
  0
LINE
  5
24459
330
18
100
AcDbEntity
  8
1
100
AcDbLine
 10
287.146677
 20
9.098744999999981
 30
0.0
 11
287.628191
 21
9.268735999999982
 31
0.0
  0
LINE
  5
2445A
330
18
100
AcDbEntity
  8
1
100
AcDbLine
 10
287.628191
 20
9.268735999999982
 30
0.0
 11
288.090209
 21
9.485288999999982
 31
0.0
  0
LINE
  5
2445B
330
18
100
AcDbEntity
  8
1
100
AcDbLine
 10
288.090209
 20
9.485288999999982
 30
0.0
 11
288.528279
 21
9.746319999999981
 31
0.0
  0
LINE
  5
2445C
330
18
100
AcDbEntity
  8
1
100
AcDbLine
 10
288.528279
 20
9.746319999999981
 30
0.0
 11
288.938184
 21
10.04931399999998
 31
0.0
  0
LINE
  5
2445D
330
18
100
AcDbEntity
  8
1
100
AcDbLine
 10
288.938184
 20
10.04931399999998
 30
0.0
 11
289.3159759999999
 21
10.39135399999998
 31
0.0
  0
LINE
  5
2445E
330
18
100
AcDbEntity
  8
1
100
AcDbLine
 10
287.85371
 20
24.22581299999998
 30
0.0
 11
289.07825
 21
24.81302399999998
 31
0.0
  0
LINE
  5
2445F
330
18
100
AcDbEntity
  8
1
100
AcDbLine
 10
289.07825
 20
24.81302399999998
 30
0.0
 11
289.742565
 21
25.10745899999998
 31
0.0
  0
LINE
  5
24460
330
18
100
AcDbEntity
  8
1
100
AcDbLine
 10
295.725813
 20
16.35370999999998
 30
0.0
 11
296.313024
 21
17.57824999999998
 31
0.0
  0
LINE
  5
24461
330
18
100
AcDbEntity
  8
1
100
AcDbLine
 10
296.313024
 20
17.57824999999998
 30
0.0
 11
296.607459
 21
18.24256499999998
 31
0.0
  0
LINE
  5
24462
330
18
100
AcDbEntity
  8
1
100
AcDbLine
 10
260.0
 20
-1.000000000000015
 30
0.0
 11
280.582648
 21
-1.000000000000017
 31
0.0
  0
LINE
  5
24463
330
18
100
AcDbEntity
  8
1
100
AcDbLine
 10
260.0
 20
23.99999999999999
 30
0.0
 11
272.483463
 21
23.99999999999998
 31
0.0
  0
LINE
  5
24464
330
18
100
AcDbEntity
  8
1
100
AcDbLine
 10
298.889977
 20
9.265928999999982
 30
0.0
 11
299.551056
 21
21.71721399999999
 31
0.0
  0
LINE
  5
24465
330
18
100
AcDbEntity
  8
1
100
AcDbLine
 10
280.582648
 20
-1.000000000000017
 30
0.0
 11
298.740987
 21
8.370534999999982
 31
0.0
  0
LINE
  5
24466
330
18
100
AcDbEntity
  8
1
100
AcDbLine
 10
298.740987
 20
8.370534999999982
 30
0.0
 11
298.889977
 21
9.265928999999982
 31
0.0
  0
LINE
  5
24467
330
18
100
AcDbEntity
  8
1
100
AcDbLine
 10
272.483463
 20
23.99999999999998
 30
0.0
 11
292.238422
 21
27.44118199999999
 31
0.0
  0
LINE
  5
24468
330
18
100
AcDbEntity
  8
1
100
AcDbLine
 10
265.117414
 20
3.938886999999983
 30
0.0
 11
261.390089
 21
18.27512799999998
 31
0.0
  0
LINE
  5
24469
330
18
100
AcDbEntity
  8
1
100
AcDbLine
 10
265.117414
 20
3.938886999999983
 30
0.0
 11
112.996796
 21
3.938886999999993
 31
0.0
  0
LINE
  5
2446A
330
18
100
AcDbEntity
  8
1
100
AcDbLine
 10
261.390089
 20
18.27512799999998
 30
0.0
 11
112.996796
 21
18.27512799999999
 31
0.0
  0
LINE
  5
2446B
330
18
100
AcDbEntity
  8
1
100
AcDbLine
 10
260.0
 20
23.99999999999999
 30
0.0
 11
1.000000000000001
 21
24.0
 31
0.0
  0
LINE
  5
2446C
330
18
100
AcDbEntity
  8
1
100
AcDbLine
 10
0.0000000000000014
 20
23.0
 30
0.0
 11
0.0
 21
0.0
 31
0.0
  0
LINE
  5
2446D
330
18
100
AcDbEntity
  8
1
100
AcDbLine
 10
260.0
 20
-1.000000000000015
 30
0.0
 11
0.9999999999999998
 21
-1.0
 31
0.0
  0
LINE
  5
2446E
330
18
100
AcDbEntity
  8
1
100
AcDbLine
 10
112.996796
 20
3.938886999999993
 30
0.0
 11
0.0000000000000002
 21
3.938887
 31
0.0
  0
LINE
  5
2446F
330
18
100
AcDbEntity
  8
1
100
AcDbLine
 10
112.996796
 20
18.27512799999999
 30
0.0
 11
0.0000000000000011
 21
18.275128
 31
0.0
  0
LINE
  5
24470
330
18
100
AcDbEntity
  8
81
100
AcDbLine
 10
300.0
 20
28.49999999999998
 30
0.0
 11
303.160055
 21
28.49999999999998
 31
0.0
  0
LINE
  5
24471
330
18
100
AcDbEntity
  8
80
100
AcDbLine
 10
0.0
 20
0.0
 30
0.0
 11
-1.719591
 21
0.0000000000000001
 31
0.0
  0
POINT
  5
24472
330
18
100
AcDbEntity
  8
81
100
AcDbPoint
 10
300.0
 20
28.49999999999998
 30
0.0
 50
90.0
  0
POINT
  5
24473
330
18
100
AcDbEntity
  8
80
100
AcDbPoint
 10
0.0
 20
0.0
 30
0.0
 50
90.0
  0
ARC
  5
24474
330
18
100
AcDbEntity
  8
1
100
AcDbCircle
 10
281.170336
 20
27.52297899999998
 30
0.0
 40
28.529032
100
AcDbArc
 50
235.758159
 51
268.819643
  0
ARC
  5
24475
330
18
100
AcDbEntity
  8
1
100
AcDbCircle
 10
272.545971
 20
10.26834299999998
 30
0.0
 40
13.731799
100
AcDbArc
 50
90.26081299999999
 51
144.332291
  0
ARC
  5
24476
330
18
100
AcDbEntity
  8
1
100
AcDbCircle
 10
1.000000000000001
 20
23.0
 30
0.0
 40
1.0
100
AcDbArc
 50
90.0
 51
180.0
  0
ARC
  5
24477
330
18
100
AcDbEntity
  8
1
100
AcDbCircle
 10
1.0
 20
-0.0000000000000001
 30
0.0
 40
1.0
100
AcDbArc
 50
180.0
 51
270.0
  0
TEXT
  5
24478
330
18
100
AcDbEntity
  8
SK6
100
AcDbText
 10
202.9147
 20
12.22081699999999
 30
0.0
 40
2.2
  1
S25T-CRSPR-09ID
 50
180.0
 41
0.8754432486191328
  7
SANDVIK_STYLE
 72
     5
 11
182.286642
 21
12.22081699999999
 31
0.0
100
AcDbText
  0
DIMENSION
  5
24479
330
18
100
AcDbEntity
  8
SK2
100
AcDbDimension
  2
*D5
 10
299.886872
 20
24.67925999999998
 30
0.0
 11
297.5118720000001
 21
12.30838
 31
0.0
 70
    32
  1
300
 71
     5
 42
24.74176000000005
  3
STANDARD
100
AcDbAlignedDimension
 13
0.0
 23
-0.0625
 33
0.0
 14
299.886872
 24
24.67925999999998
 34
0.0
 50
90.0
100
AcDbRotatedDimension
  0
DIMENSION
  5
2447A
330
18
100
AcDbEntity
  8
2L
100
AcDbDimension
  2
*D6
 10
311.159797
 20
8.818231999999976
 30
0.0
 11
308.784797
 21
18.65911600000003
 31
0.0
 70
    32
  1
20
 71
     5
 42
19.681768
  3
STANDARD
100
AcDbAlignedDimension
 13
303.222555
 23
28.49999999999998
 33
0.0
 14
298.877982
 24
8.818231999999982
 34
0.0
 50
90.0
100
AcDbRotatedDimension
  0
DIMENSION
  5
2447B
330
18
100
AcDbEntity
  8
2L
100
AcDbDimension
  2
*D7
 10
272.483463
 20
24.06249999999998
 30
0.0
 11
270.108463
 21
15.60416666666669
 31
0.0
 70
    32
  1
28
 71
     5
 42
4.500000000000006
  3
STANDARD
100
AcDbAlignedDimension
 13
300.0
 23
28.56249999999998
 33
0.0
 14
272.483463
 24
24.06249999999998
 34
0.0
 50
90.0
100
AcDbRotatedDimension
  0
DIMENSION
  5
2447C
330
18
100
AcDbEntity
  8
SK2
100
AcDbDimension
  2
*D8
 10
-12.729743
 20
24.0
 30
0.0
 11
-15.104743
 21
11.5
 31
0.0
 70
    32
  1
25
 71
     5
 42
25.0
  3
STANDARD
100
AcDbAlignedDimension
 13
0.9374999999999998
 23
-1.0
 33
0.0
 14
0.9375000000000014
 24
24.0
 34
0.0
 50
90.0
100
AcDbRotatedDimension
  0
DIMENSION
  5
2447D
330
18
100
AcDbEntity
  8
2L
100
AcDbDimension
  2
*D9
 10
307.576059
 20
28.49999999999998
 30
0.0
 11
305.201059
 21
36.62500000000004
 31
0.0
 70
    32
  1
17
 71
     5
 42
0.0
  3
STANDARD
100
AcDbAlignedDimension
 13
300.0625
 23
28.49999999999998
 33
0.0
 14
307.576059
 24
28.49999999999998
 34
0.0
 50
90.0
100
AcDbRotatedDimension
  0
INSERT
  5
2447E
330
18
100
AcDbEntity
  8
5
100
AcDbBlockReference
  2
_nullpunkt
 10
0.0
 20
0.0
 30
0.0
  0
TEXT
  5
2447F
330
18
100
AcDbEntity
  8
5
100
AcDbText
 10
0.0
 20
0.0
 30
0.0
 40
0.1
  1
ISOORIENTED
100
AcDbText
  0
ENDSEC
  0
SECTION
  2
OBJECTS
  0
DICTIONARY
  5
C
330
0
100
AcDbDictionary
281
     1
  3
ACAD_2007HEADERVARS_RT
350
24577
  3
ACAD_CIP_PREVIOUS_PRODUCT_INFO
350
24521
  3
ACAD_COLOR
350
387
  3
ACAD_DETAILVIEWSTYLE
350
2451E
  3
ACAD_GROUP
350
D
  3
ACAD_LAYOUT
350
301
  3
ACAD_MATERIAL
350
386
  3
ACAD_MLEADERSTYLE
350
43C
  3
ACAD_MLINESTYLE
350
E
  3
ACAD_PLOTSETTINGS
350
302
  3
ACAD_PLOTSTYLENAME
350
2FF
  3
ACAD_SCALELIST
350
41A
  3
ACAD_SECTIONVIEWSTYLE
350
2451C
  3
ACAD_TABLESTYLE
350
388
  3
ACAD_VISUALSTYLE
350
3F2
  3
ACDB_RECOMPOSE_DATA
350
24575
  3
AcDbVariableDictionary
350
357
  3
DWGPROPS
350
24576
  0
DICTIONARY
  5
24524
330
F
100
AcDbDictionary
280
     1
281
     1
  3
ADSK_XREC_LAYER_RECONCILED
360
24525
  0
DICTIONARY
  5
24526
330
23
100
AcDbDictionary
280
     1
281
     1
  3
ADSK_XREC_LAYER_RECONCILED
360
24527
  0
DICTIONARY
  5
24528
330
242F5
100
AcDbDictionary
280
     1
281
     1
  3
ADSK_XREC_LAYER_RECONCILED
360
24529
  0
DICTIONARY
  5
2452A
330
242F6
100
AcDbDictionary
280
     1
281
     1
  3
ADSK_XREC_LAYER_RECONCILED
360
2452B
  0
DICTIONARY
  5
2452C
330
242F7
100
AcDbDictionary
280
     1
281
     1
  3
ADSK_XREC_LAYER_RECONCILED
360
2452D
  0
DICTIONARY
  5
2452E
330
242F8
100
AcDbDictionary
280
     1
281
     1
  3
ADSK_XREC_LAYER_RECONCILED
360
2452F
  0
DICTIONARY
  5
24530
330
242F9
100
AcDbDictionary
280
     1
281
     1
  3
ADSK_XREC_LAYER_RECONCILED
360
24531
  0
DICTIONARY
  5
24532
330
242FA
100
AcDbDictionary
280
     1
281
     1
  3
ADSK_XREC_LAYER_RECONCILED
360
24533
  0
DICTIONARY
  5
24534
330
242FB
100
AcDbDictionary
280
     1
281
     1
  3
ADSK_XREC_LAYER_RECONCILED
360
24535
  0
DICTIONARY
  5
24536
330
242FC
100
AcDbDictionary
280
     1
281
     1
  3
ADSK_XREC_LAYER_RECONCILED
360
24537
  0
DICTIONARY
  5
24538
330
242FD
100
AcDbDictionary
280
     1
281
     1
  3
ADSK_XREC_LAYER_RECONCILED
360
24539
  0
DICTIONARY
  5
2453A
330
242FE
100
AcDbDictionary
280
     1
281
     1
  3
ADSK_XREC_LAYER_RECONCILED
360
2453B
  0
DICTIONARY
  5
2453C
330
242FF
100
AcDbDictionary
280
     1
281
     1
  3
ADSK_XREC_LAYER_RECONCILED
360
2453D
  0
DICTIONARY
  5
2453E
330
24300
100
AcDbDictionary
280
     1
281
     1
  3
ADSK_XREC_LAYER_RECONCILED
360
2453F
  0
DICTIONARY
  5
24540
330
24301
100
AcDbDictionary
280
     1
281
     1
  3
ADSK_XREC_LAYER_RECONCILED
360
24541
  0
DICTIONARY
  5
24542
330
24302
100
AcDbDictionary
280
     1
281
     1
  3
ADSK_XREC_LAYER_RECONCILED
360
24543
  0
DICTIONARY
  5
24544
330
24303
100
AcDbDictionary
280
     1
281
     1
  3
ADSK_XREC_LAYER_RECONCILED
360
24545
  0
DICTIONARY
  5
24546
330
24304
100
AcDbDictionary
280
     1
281
     1
  3
ADSK_XREC_LAYER_RECONCILED
360
24547
  0
DICTIONARY
  5
24548
330
24305
100
AcDbDictionary
280
     1
281
     1
  3
ADSK_XREC_LAYER_RECONCILED
360
24549
  0
DICTIONARY
  5
2454A
330
24306
100
AcDbDictionary
280
     1
281
     1
  3
ADSK_XREC_LAYER_RECONCILED
360
2454B
  0
DICTIONARY
  5
2454C
330
24307
100
AcDbDictionary
280
     1
281
     1
  3
ADSK_XREC_LAYER_RECONCILED
360
2454D
  0
DICTIONARY
  5
2454E
330
24308
100
AcDbDictionary
280
     1
281
     1
  3
ADSK_XREC_LAYER_RECONCILED
360
2454F
  0
DICTIONARY
  5
24550
330
24309
100
AcDbDictionary
280
     1
281
     1
  3
ADSK_XREC_LAYER_RECONCILED
360
24551
  0
DICTIONARY
  5
24552
330
2430A
100
AcDbDictionary
280
     1
281
     1
  3
ADSK_XREC_LAYER_RECONCILED
360
24553
  0
DICTIONARY
  5
24554
330
2430B
100
AcDbDictionary
280
     1
281
     1
  3
ADSK_XREC_LAYER_RECONCILED
360
24555
  0
DICTIONARY
  5
24556
330
2430C
100
AcDbDictionary
280
     1
281
     1
  3
ADSK_XREC_LAYER_RECONCILED
360
24557
  0
DICTIONARY
  5
24558
330
2430D
100
AcDbDictionary
280
     1
281
     1
  3
ADSK_XREC_LAYER_RECONCILED
360
24559
  0
DICTIONARY
  5
2455A
330
2430E
100
AcDbDictionary
280
     1
281
     1
  3
ADSK_XREC_LAYER_RECONCILED
360
2455B
  0
DICTIONARY
  5
2455C
330
2430F
100
AcDbDictionary
280
     1
281
     1
  3
ADSK_XREC_LAYER_RECONCILED
360
2455D
  0
DICTIONARY
  5
2455E
330
24310
100
AcDbDictionary
280
     1
281
     1
  3
ADSK_XREC_LAYER_RECONCILED
360
2455F
  0
DICTIONARY
  5
24560
330
24311
100
AcDbDictionary
280
     1
281
     1
  3
ADSK_XREC_LAYER_RECONCILED
360
24561
  0
DICTIONARY
  5
24562
330
24312
100
AcDbDictionary
280
     1
281
     1
  3
ADSK_XREC_LAYER_RECONCILED
360
24563
  0
DICTIONARY
  5
24564
330
24313
100
AcDbDictionary
280
     1
281
     1
  3
ADSK_XREC_LAYER_RECONCILED
360
24565
  0
DICTIONARY
  5
24566
330
24314
100
AcDbDictionary
280
     1
281
     1
  3
ADSK_XREC_LAYER_RECONCILED
360
24567
  0
DICTIONARY
  5
24568
330
24315
100
AcDbDictionary
280
     1
281
     1
  3
ADSK_XREC_LAYER_RECONCILED
360
24569
  0
DICTIONARY
  5
2456A
330
24316
100
AcDbDictionary
280
     1
281
     1
  3
ADSK_XREC_LAYER_RECONCILED
360
2456B
  0
DICTIONARY
  5
2456C
330
24317
100
AcDbDictionary
280
     1
281
     1
  3
ADSK_XREC_LAYER_RECONCILED
360
2456D
  0
DICTIONARY
  5
2456E
330
24318
100
AcDbDictionary
280
     1
281
     1
  3
ADSK_XREC_LAYER_RECONCILED
360
2456F
  0
DICTIONARY
  5
242E7
330
242E6
100
AcDbDictionary
280
     1
281
     1
  3
ACAD_SORTENTS
360
242E8
  0
DICTIONARY
  5
24577
102
{ACAD_REACTORS
330
C
102
}
330
C
100
AcDbDictionary
281
     1
  3
DIMJOGANG
350
24578
  0
XRECORD
  5
24521
102
{ACAD_REACTORS
330
C
102
}
330
C
100
AcDbXrecord
280
     1
300
AMECH_PP
300
2013
300
PDSU_F_S
  0
DICTIONARY
  5
387
102
{ACAD_REACTORS
330
C
102
}
330
C
100
AcDbDictionary
281
     1
  0
DICTIONARY
  5
2451E
102
{ACAD_REACTORS
330
C
102
}
330
C
100
AcDbDictionary
281
     1
  3
Metric50
350
2451F
  0
DICTIONARY
  5
D
102
{ACAD_REACTORS
330
C
102
}
330
C
100
AcDbDictionary
281
     1
  0
DICTIONARY
  5
301
102
{ACAD_REACTORS
330
C
102
}
330
C
100
AcDbDictionary
281
     1
  3
Layout1
350
33B
  3
Model
350
303
  0
DICTIONARY
  5
386
102
{ACAD_REACTORS
330
C
102
}
330
C
100
AcDbDictionary
281
     1
  3
ByBlock
350
3F0
  3
ByLayer
350
3EF
  3
Global
350
3F1
  0
DICTIONARY
  5
43C
102
{ACAD_REACTORS
330
C
102
}
330
C
100
AcDbDictionary
281
     1
  3
Standard
350
43D
  0
DICTIONARY
  5
E
102
{ACAD_REACTORS
330
C
102
}
330
C
100
AcDbDictionary
281
     1
  3
STANDARD
350
1B
  0
DICTIONARY
  5
302
102
{ACAD_REACTORS
330
C
102
}
330
C
100
AcDbDictionary
281
     1
  0
ACDBDICTIONARYWDFLT
  5
2FF
102
{ACAD_REACTORS
330
C
102
}
330
C
100
AcDbDictionary
281
     1
  3
Normal
350
300
100
AcDbDictionaryWithDefault
340
300
  0
DICTIONARY
  5
41A
102
{ACAD_REACTORS
330
C
102
}
330
C
100
AcDbDictionary
281
     1
  3
A0
350
41B
  3
A1
350
41C
  3
A2
350
41D
  3
A3
350
41E
  3
A4
350
41F
  3
A5
350
420
  3
A6
350
421
  3
A7
350
422
  3
A8
350
423
  3
A9
350
424
  3
B0
350
425
  3
B1
350
426
  3
B2
350
427
  3
B3
350
428
  3
B4
350
429
  3
B5
350
42A
  3
B6
350
42B
  3
B7
350
42C
  3
B8
350
42D
  3
B9
350
42E
  3
C0
350
42F
  3
C1
350
430
  3
C2
350
431
  3
C3
350
432
  3
C4
350
433
  3
C5
350
434
  3
C6
350
435
  3
C7
350
436
  3
C8
350
437
  3
C9
350
438
  3
D0
350
439
  3
D1
350
43A
  3
D2
350
43B
  0
DICTIONARY
  5
2451C
102
{ACAD_REACTORS
330
C
102
}
330
C
100
AcDbDictionary
281
     1
  3
Metric50
350
2451D
  0
DICTIONARY
  5
388
102
{ACAD_REACTORS
330
C
102
}
330
C
100
AcDbDictionary
281
     1
  3
Standard
350
389
  0
DICTIONARY
  5
3F2
102
{ACAD_REACTORS
330
C
102
}
330
C
100
AcDbDictionary
281
     1
  3
2dWireframe
350
3F8
  3
3D Hidden
350
3FA
  3
3dWireframe
350
3F9
  3
Basic
350
3F7
  3
Brighten
350
3FE
  3
ColorChange
350
402
  3
Conceptual
350
3FB
  3
Dim
350
3FD
  3
EdgeColorOff
350
44E
  3
Facepattern
350
401
  3
Flat
350
3F3
  3
FlatWithEdges
350
3F4
  3
Gouraud
350
3F5
  3
GouraudWithEdges
350
3F6
  3
Hidden
350
24516
  3
JitterOff
350
44C
  3
Linepattern
350
400
  3
OverhangOff
350
44D
  3
Realistic
350
3FC
  3
Shaded
350
2451B
  3
Shaded with edges
350
2451A
  3
Shades of Gray
350
24517
  3
Sketchy
350
24518
  3
Thicken
350
3FF
  3
Wireframe
350
24515
  3
X-Ray
350
24519
  0
XRECORD
  5
24575
102
{ACAD_REACTORS
330
C
102
}
330
C
100
AcDbXrecord
280
     1
 90
        1
330
389
  0
DICTIONARY
  5
357
102
{ACAD_REACTORS
330
C
102
}
330
C
100
AcDbDictionary
281
     1
  3
CANNOSCALE
350
449
  3
CMLEADERSTYLE
350
447
  3
CTABLESTYLE
350
38E
  3
CVIEWDETAILSTYLE
350
24570
  3
CVIEWSECTIONSTYLE
350
24571
  3
DIMASSOC
350
359
  3
HIDETEXT
350
358
  3
INDEXCTL
350
11A0
  3
LIGHTINGUNITS
350
44A
  3
MSLTSCALE
350
448
  3
SORTENTS
350
119F
  3
XCLIPFRAME
350
24572
  0
XRECORD
  5
24576
102
{ACAD_REACTORS
330
C
102
}
330
C
100
AcDbXrecord
280
     1
  1
DWGPROPS COOKIE
  2

  3

  4

  6

  7

  8
Micke
  9

300
=
301
=
302
=
303
=
304
=
305
=
306
=
307
=
308
=
309
=
 40
0.00071
 41
2455884.454646945
 42
2456818.431542257
  1

 90
        0
  0
XRECORD
  5
24525
102
{ACAD_REACTORS
330
24524
102
}
330
24524
100
AcDbXrecord
280
     1
290
     1
  0
XRECORD
  5
24527
102
{ACAD_REACTORS
330
24526
102
}
330
24526
100
AcDbXrecord
280
     1
290
     1
  0
XRECORD
  5
24529
102
{ACAD_REACTORS
330
24528
102
}
330
24528
100
AcDbXrecord
280
     1
290
     1
  0
XRECORD
  5
2452B
102
{ACAD_REACTORS
330
2452A
102
}
330
2452A
100
AcDbXrecord
280
     1
290
     1
  0
XRECORD
  5
2452D
102
{ACAD_REACTORS
330
2452C
102
}
330
2452C
100
AcDbXrecord
280
     1
290
     1
  0
XRECORD
  5
2452F
102
{ACAD_REACTORS
330
2452E
102
}
330
2452E
100
AcDbXrecord
280
     1
290
     1
  0
XRECORD
  5
24531
102
{ACAD_REACTORS
330
24530
102
}
330
24530
100
AcDbXrecord
280
     1
290
     1
  0
XRECORD
  5
24533
102
{ACAD_REACTORS
330
24532
102
}
330
24532
100
AcDbXrecord
280
     1
290
     1
  0
XRECORD
  5
24535
102
{ACAD_REACTORS
330
24534
102
}
330
24534
100
AcDbXrecord
280
     1
290
     1
  0
XRECORD
  5
24537
102
{ACAD_REACTORS
330
24536
102
}
330
24536
100
AcDbXrecord
280
     1
290
     1
  0
XRECORD
  5
24539
102
{ACAD_REACTORS
330
24538
102
}
330
24538
100
AcDbXrecord
280
     1
290
     1
  0
XRECORD
  5
2453B
102
{ACAD_REACTORS
330
2453A
102
}
330
2453A
100
AcDbXrecord
280
     1
290
     1
  0
XRECORD
  5
2453D
102
{ACAD_REACTORS
330
2453C
102
}
330
2453C
100
AcDbXrecord
280
     1
290
     1
  0
XRECORD
  5
2453F
102
{ACAD_REACTORS
330
2453E
102
}
330
2453E
100
AcDbXrecord
280
     1
290
     1
  0
XRECORD
  5
24541
102
{ACAD_REACTORS
330
24540
102
}
330
24540
100
AcDbXrecord
280
     1
290
     1
  0
XRECORD
  5
24543
102
{ACAD_REACTORS
330
24542
102
}
330
24542
100
AcDbXrecord
280
     1
290
     1
  0
XRECORD
  5
24545
102
{ACAD_REACTORS
330
24544
102
}
330
24544
100
AcDbXrecord
280
     1
290
     1
  0
XRECORD
  5
24547
102
{ACAD_REACTORS
330
24546
102
}
330
24546
100
AcDbXrecord
280
     1
290
     1
  0
XRECORD
  5
24549
102
{ACAD_REACTORS
330
24548
102
}
330
24548
100
AcDbXrecord
280
     1
290
     1
  0
XRECORD
  5
2454B
102
{ACAD_REACTORS
330
2454A
102
}
330
2454A
100
AcDbXrecord
280
     1
290
     1
  0
XRECORD
  5
2454D
102
{ACAD_REACTORS
330
2454C
102
}
330
2454C
100
AcDbXrecord
280
     1
290
     1
  0
XRECORD
  5
2454F
102
{ACAD_REACTORS
330
2454E
102
}
330
2454E
100
AcDbXrecord
280
     1
290
     1
  0
XRECORD
  5
24551
102
{ACAD_REACTORS
330
24550
102
}
330
24550
100
AcDbXrecord
280
     1
290
     1
  0
XRECORD
  5
24553
102
{ACAD_REACTORS
330
24552
102
}
330
24552
100
AcDbXrecord
280
     1
290
     1
  0
XRECORD
  5
24555
102
{ACAD_REACTORS
330
24554
102
}
330
24554
100
AcDbXrecord
280
     1
290
     1
  0
XRECORD
  5
24557
102
{ACAD_REACTORS
330
24556
102
}
330
24556
100
AcDbXrecord
280
     1
290
     1
  0
XRECORD
  5
24559
102
{ACAD_REACTORS
330
24558
102
}
330
24558
100
AcDbXrecord
280
     1
290
     1
  0
XRECORD
  5
2455B
102
{ACAD_REACTORS
330
2455A
102
}
330
2455A
100
AcDbXrecord
280
     1
290
     1
  0
XRECORD
  5
2455D
102
{ACAD_REACTORS
330
2455C
102
}
330
2455C
100
AcDbXrecord
280
     1
290
     1
  0
XRECORD
  5
2455F
102
{ACAD_REACTORS
330
2455E
102
}
330
2455E
100
AcDbXrecord
280
     1
290
     1
  0
XRECORD
  5
24561
102
{ACAD_REACTORS
330
24560
102
}
330
24560
100
AcDbXrecord
280
     1
290
     1
  0
XRECORD
  5
24563
102
{ACAD_REACTORS
330
24562
102
}
330
24562
100
AcDbXrecord
280
     1
290
     1
  0
XRECORD
  5
24565
102
{ACAD_REACTORS
330
24564
102
}
330
24564
100
AcDbXrecord
280
     1
290
     1
  0
XRECORD
  5
24567
102
{ACAD_REACTORS
330
24566
102
}
330
24566
100
AcDbXrecord
280
     1
290
     1
  0
XRECORD
  5
24569
102
{ACAD_REACTORS
330
24568
102
}
330
24568
100
AcDbXrecord
280
     1
290
     1
  0
XRECORD
  5
2456B
102
{ACAD_REACTORS
330
2456A
102
}
330
2456A
100
AcDbXrecord
280
     1
290
     1
  0
XRECORD
  5
2456D
102
{ACAD_REACTORS
330
2456C
102
}
330
2456C
100
AcDbXrecord
280
     1
290
     1
  0
XRECORD
  5
2456F
102
{ACAD_REACTORS
330
2456E
102
}
330
2456E
100
AcDbXrecord
280
     1
290
     1
  0
SORTENTSTABLE
  5
242E8
102
{ACAD_REACTORS
330
242E7
102
}
330
242E7
100
AcDbSortentsTable
330
242E6
  0
XRECORD
  5
24578
102
{ACAD_REACTORS
330
24577
102
}
330
24577
100
AcDbXrecord
280
     1
 40
1.570796326794896
  0
ACDBDETAILVIEWSTYLE
  5
2451F
102
{ACAD_REACTORS
330
2451E
102
}
330
2451E
100
AcDbModelDocViewStyle
 70
     0
  3
Metric50
290
     0
100
AcDbDetailViewStyle
 70
     0
 71
     0
 90
        3
 71
     1
340
10
 40
5.0
340
0
 40
5.0
300

 40
0.0
280
     1
 71
     2
340
14
 90
       25
 71
     3
340
10
 40
5.0
 90
        0
 40
15.0
 90
        1
300
%<\AcVar ViewDetailId>% (%<\AcVar ViewScale \f "%sn">%)
 71
     4
340
14
 90
       25
340
14
 90
       25
280
     0
  0
LAYOUT
  5
33B
102
{ACAD_XDICTIONARY
360
2457B
102
}
102
{ACAD_REACTORS
330
301
102
}
330
301
100
AcDbPlotSettings
  1

  2
Lexmark Optra PS2
  4

  6

 40
0.0
 41
0.0
 42
0.0
 43
0.0
 44
0.0
 45
0.0
 46
0.0
 47
0.0
 48
0.0
 49
0.0
140
0.0
141
0.0
142
1.0
143
1.0
 70
   688
 72
     0
 73
     0
 74
     5
  7
monochrome.ctb
 75
    16
147
1.0
148
0.0
149
0.0
100
AcDbLayout
  1
Layout1
 70
     1
 71
     1
 10
0.0
 20
0.0
 11
12.0
 21
9.0
 12
0.0
 22
0.0
 32
0.0
 14
0.0
 24
0.0
 34
0.0
 15
0.0
 25
0.0
 35
0.0
146
0.0
 13
0.0
 23
0.0
 33
0.0
 16
1.0
 26
0.0
 36
0.0
 17
0.0
 27
1.0
 37
0.0
 76
     0
330
338
  0
LAYOUT
  5
303
102
{ACAD_XDICTIONARY
360
24579
102
}
102
{ACAD_REACTORS
330
301
102
}
330
301
100
AcDbPlotSettings
  1

  2
Default Windows System Printer.pc3
  4
A4
  6

 40
6.805083274841307
 41
5.535083293914794
 42
6.974411010742187
 43
7.14373779296875
 44
209.9733276367186
 45
296.9259948730469
 46
67.83299579489725
 47
0.0
 48
0.0
 49
0.0
140
0.0
141
0.0
142
1.0
143
0.3604333568168785
 70
  3764
 72
     1
 73
     1
 74
     1
  7
monochrome.ctb
 75
     0
147
2.774437995504559
148
-82.35087775247029
149
-53.69369632994493
100
AcDbLayout
  1
Model
 70
     1
 71
     0
 10
0.0
 20
0.0
 11
12.0
 21
9.0
 12
0.0
 22
0.0
 32
0.0
 14
0.0
 24
0.0
 34
0.0
 15
0.0
 25
0.0
 35
0.0
146
0.0
 13
0.0
 23
0.0
 33
0.0
 16
1.0
 26
0.0
 36
0.0
 17
0.0
 27
1.0
 37
0.0
 76
     0
330
18
331
3ED
1001
ACAD_PSEXT
1000
Default Windows System Printer.pc3
1000
Lexmark Optra Rx
1000
Lexmark Rx
1000
Erstellt von Lexmark Benutzerdefinierte Installation,Nov 13,2005,10:03
1070
     0
  0
MATERIAL
  5
3F0
102
{ACAD_XDICTIONARY
360
244E7
102
}
102
{ACAD_REACTORS
330
386
102
}
330
386
100
AcDbMaterial
  1
ByBlock
 73
     1
 78
     1
172
     1
176
     1
270
     1
274
     1
  0
MATERIAL
  5
3EF
102
{ACAD_XDICTIONARY
360
244E5
102
}
102
{ACAD_REACTORS
330
386
102
}
330
386
100
AcDbMaterial
  1
ByLayer
 73
     1
 78
     1
172
     1
176
     1
270
     1
274
     1
  0
MATERIAL
  5
3F1
102
{ACAD_XDICTIONARY
360
244E9
102
}
102
{ACAD_REACTORS
330
386
102
}
330
386
100
AcDbMaterial
  1
Global
 73
     1
 78
     1
172
     1
176
     1
270
     1
274
     1
  0
MLEADERSTYLE
  5
43D
102
{ACAD_REACTORS
330
43C
102
}
330
43C
100
AcDbMLeaderStyle
170
     2
171
     1
172
     0
 90
        2
 40
0.0
 41
0.0
173
     1
 91
-1056964608
340
12
 92
       -2
290
     1
 42
2.0
291
     1
 43
0.36
  3
Standard
 44
4.0
300

342
10
174
     1
178
     6
175
     1
176
     0
 93
-1056964608
 45
4.0
292
     0
297
     0
 46
4.0
 94
-1056964608
 47
1.0
 49
1.0
140
1.0
293
     1
141
0.0
294
     1
177
     0
142
1.0
295
     0
296
     0
143
0.125
1001
ACAD_MLEADERVER
1070
     2
  0
MLINESTYLE
  5
1B
102
{ACAD_REACTORS
330
E
102
}
330
E
100
AcDbMlineStyle
  2
STANDARD
 70
     0
  3

 62
     0
 51
90.0
 52
90.0
 71
     2
 49
0.5
 62
   256
  6
BYLAYER
 49
-0.5
 62
   256
  6
BYLAYER
  0
ACDBPLACEHOLDER
  5
300
102
{ACAD_REACTORS
330
2FF
102
}
330
2FF
  0
SCALE
  5
41B
102
{ACAD_REACTORS
330
41A
102
}
330
41A
100
AcDbScale
 70
     0
300
1:1
140
1.0
141
1.0
290
     1
  0
SCALE
  5
41C
102
{ACAD_REACTORS
330
41A
102
}
330
41A
100
AcDbScale
 70
     0
300
1:2
140
1.0
141
2.0
290
     0
  0
SCALE
  5
41D
102
{ACAD_REACTORS
330
41A
102
}
330
41A
100
AcDbScale
 70
     0
300
1:4
140
1.0
141
4.0
290
     0
  0
SCALE
  5
41E
102
{ACAD_REACTORS
330
41A
102
}
330
41A
100
AcDbScale
 70
     0
300
1:5
140
1.0
141
5.0
290
     0
  0
SCALE
  5
41F
102
{ACAD_REACTORS
330
41A
102
}
330
41A
100
AcDbScale
 70
     0
300
1:8
140
1.0
141
8.0
290
     0
  0
SCALE
  5
420
102
{ACAD_REACTORS
330
41A
102
}
330
41A
100
AcDbScale
 70
     0
300
1:10
140
1.0
141
10.0
290
     0
  0
SCALE
  5
421
102
{ACAD_REACTORS
330
41A
102
}
330
41A
100
AcDbScale
 70
     0
300
1:16
140
1.0
141
16.0
290
     0
  0
SCALE
  5
422
102
{ACAD_REACTORS
330
41A
102
}
330
41A
100
AcDbScale
 70
     0
300
1:20
140
1.0
141
20.0
290
     0
  0
SCALE
  5
423
102
{ACAD_REACTORS
330
41A
102
}
330
41A
100
AcDbScale
 70
     0
300
1:30
140
1.0
141
30.0
290
     0
  0
SCALE
  5
424
102
{ACAD_REACTORS
330
41A
102
}
330
41A
100
AcDbScale
 70
     0
300
1:40
140
1.0
141
40.0
290
     0
  0
SCALE
  5
425
102
{ACAD_REACTORS
330
41A
102
}
330
41A
100
AcDbScale
 70
     0
300
1:50
140
1.0
141
50.0
290
     0
  0
SCALE
  5
426
102
{ACAD_REACTORS
330
41A
102
}
330
41A
100
AcDbScale
 70
     0
300
1:100
140
1.0
141
100.0
290
     0
  0
SCALE
  5
427
102
{ACAD_REACTORS
330
41A
102
}
330
41A
100
AcDbScale
 70
     0
300
2:1
140
2.0
141
1.0
290
     0
  0
SCALE
  5
428
102
{ACAD_REACTORS
330
41A
102
}
330
41A
100
AcDbScale
 70
     0
300
4:1
140
4.0
141
1.0
290
     0
  0
SCALE
  5
429
102
{ACAD_REACTORS
330
41A
102
}
330
41A
100
AcDbScale
 70
     0
300
8:1
140
8.0
141
1.0
290
     0
  0
SCALE
  5
42A
102
{ACAD_REACTORS
330
41A
102
}
330
41A
100
AcDbScale
 70
     0
300
10:1
140
10.0
141
1.0
290
     0
  0
SCALE
  5
42B
102
{ACAD_REACTORS
330
41A
102
}
330
41A
100
AcDbScale
 70
     0
300
100:1
140
100.0
141
1.0
290
     0
  0
SCALE
  5
42C
102
{ACAD_REACTORS
330
41A
102
}
330
41A
100
AcDbScale
 70
     0
300
1/128" = 1'-0"
140
0.0078125
141
12.0
290
     0
  0
SCALE
  5
42D
102
{ACAD_REACTORS
330
41A
102
}
330
41A
100
AcDbScale
 70
     0
300
1/64" = 1'-0"
140
0.015625
141
12.0
290
     0
  0
SCALE
  5
42E
102
{ACAD_REACTORS
330
41A
102
}
330
41A
100
AcDbScale
 70
     0
300
1/32" = 1'-0"
140
0.03125
141
12.0
290
     0
  0
SCALE
  5
42F
102
{ACAD_REACTORS
330
41A
102
}
330
41A
100
AcDbScale
 70
     0
300
1/16" = 1'-0"
140
0.0625
141
12.0
290
     0
  0
SCALE
  5
430
102
{ACAD_REACTORS
330
41A
102
}
330
41A
100
AcDbScale
 70
     0
300
3/32" = 1'-0"
140
0.09375
141
12.0
290
     0
  0
SCALE
  5
431
102
{ACAD_REACTORS
330
41A
102
}
330
41A
100
AcDbScale
 70
     0
300
1/8" = 1'-0"
140
0.125
141
12.0
290
     0
  0
SCALE
  5
432
102
{ACAD_REACTORS
330
41A
102
}
330
41A
100
AcDbScale
 70
     0
300
3/16" = 1'-0"
140
0.1875
141
12.0
290
     0
  0
SCALE
  5
433
102
{ACAD_REACTORS
330
41A
102
}
330
41A
100
AcDbScale
 70
     0
300
1/4" = 1'-0"
140
0.25
141
12.0
290
     0
  0
SCALE
  5
434
102
{ACAD_REACTORS
330
41A
102
}
330
41A
100
AcDbScale
 70
     0
300
3/8" = 1'-0"
140
0.375
141
12.0
290
     0
  0
SCALE
  5
435
102
{ACAD_REACTORS
330
41A
102
}
330
41A
100
AcDbScale
 70
     0
300
1/2" = 1'-0"
140
0.5
141
12.0
290
     0
  0
SCALE
  5
436
102
{ACAD_REACTORS
330
41A
102
}
330
41A
100
AcDbScale
 70
     0
300
3/4" = 1'-0"
140
0.75
141
12.0
290
     0
  0
SCALE
  5
437
102
{ACAD_REACTORS
330
41A
102
}
330
41A
100
AcDbScale
 70
     0
300
1" = 1'-0"
140
1.0
141
12.0
290
     0
  0
SCALE
  5
438
102
{ACAD_REACTORS
330
41A
102
}
330
41A
100
AcDbScale
 70
     0
300
1-1/2" = 1'-0"
140
1.5
141
12.0
290
     0
  0
SCALE
  5
439
102
{ACAD_REACTORS
330
41A
102
}
330
41A
100
AcDbScale
 70
     0
300
3" = 1'-0"
140
3.0
141
12.0
290
     0
  0
SCALE
  5
43A
102
{ACAD_REACTORS
330
41A
102
}
330
41A
100
AcDbScale
 70
     0
300
6" = 1'-0"
140
6.0
141
12.0
290
     0
  0
SCALE
  5
43B
102
{ACAD_REACTORS
330
41A
102
}
330
41A
100
AcDbScale
 70
     0
300
1'-0" = 1'-0"
140
12.0
141
12.0
290
     0
  0
ACDBSECTIONVIEWSTYLE
  5
2451D
102
{ACAD_REACTORS
330
2451C
102
}
330
2451C
100
AcDbModelDocViewStyle
 70
     0
  3
Metric50
290
     0
100
AcDbSectionViewStyle
 70
     0
 71
     0
 90
      102
 71
     1
340
10
 40
5.0
340
0
340
0
 40
5.0
300
I, O, Q, S, X, Z
 40
10.0
 90
        0
 40
2.5
 90
        0
 71
     2
340
14
 90
       25
340
14
 90
       50
 40
5.0
 40
2.5
 40
5.0
 71
     3
340
10
 40
5.0
 90
        0
 40
15.0
 90
        1
300
%<\AcVar ViewSectionStartId>%-%<\AcVar ViewSectionEndId>% (%<\AcVar ViewScale \f "%sn">%)
 71
     4
300
ANSI31
 40
1.0
 90
        0
290
     0
290
     0
 90
        6
 40
0.0
 40
1.570796326794896
 40
0.2617993877991494
 40
1.308996938995747
 40
-0.2617993877991494
 40
1.832595714594046
  0
TABLESTYLE
  5
389
102
{ACAD_XDICTIONARY
360
444
102
}
102
{ACAD_REACTORS
330
388
102
}
330
388
100
AcDbTableStyle
  3
Standard
 70
     0
 71
     0
 40
1.5
 41
1.5
280
     0
281
     0
  7
STANDARD
140
4.5
170
     2
 62
     0
 63
     7
283
     0
274
    -2
284
     1
 64
     0
275
    -2
285
     1
 65
     0
276
    -2
286
     1
 66
     0
277
    -2
287
     1
 67
     0
278
    -2
288
     1
 68
     0
279
    -2
289
     1
 69
     0
  7
STANDARD
140
6.0
170
     5
 62
     0
 63
     7
283
     0
274
    -2
284
     1
 64
     0
275
    -2
285
     1
 65
     0
276
    -2
286
     1
 66
     0
277
    -2
287
     1
 67
     0
278
    -2
288
     1
 68
     0
279
    -2
289
     1
 69
     0
  7
STANDARD
140
4.5
170
     5
 62
     0
 63
     7
283
     0
274
    -2
284
     1
 64
     0
275
    -2
285
     1
 65
     0
276
    -2
286
     1
 66
     0
277
    -2
287
     1
 67
     0
278
    -2
288
     1
 68
     0
279
    -2
289
     1
 69
     0
  0
VISUALSTYLE
  5
3F8
102
{ACAD_XDICTIONARY
360
24588
102
}
102
{ACAD_REACTORS
330
3F2
102
}
330
3F2
100
AcDbVisualStyle
  2

 70
     4
 71
     0
 72
     2
 73
     0
 90
        0
 40
-0.6
 41
-30.0
 62
     5
 63
     7
 74
     1
 91
        4
 64
     7
 65
   257
 75
     1
175
     1
 42
1.0
 92
        0
 66
   257
 43
1.0
 76
     1
 77
     6
 78
     2
 67
     7
 79
     5
170
     0
171
     0
290
     0
174
     0
 93
        1
 44
0.0
173
     0
291
     0
 45
0.0
1001
ACAD
1000
AcDbSavedByObjectVersion
1070
     0
  0
VISUALSTYLE
  5
3FA
102
{ACAD_XDICTIONARY
360
2458C
102
}
102
{ACAD_REACTORS
330
3F2
102
}
330
3F2
100
AcDbVisualStyle
  2

 70
     6
 71
     1
 72
     2
 73
     2
 90
        0
 40
-0.6
 41
-30.0
 62
     5
 63
     7
 74
     2
 91
        2
 64
     7
 65
   257
 75
     2
175
     1
 42
40.0
 92
        0
 66
   257
 43
1.0
 76
     1
 77
     6
 78
     2
 67
     7
 79
     3
170
     0
171
     0
290
     0
174
     0
 93
        1
 44
0.0
173
     0
291
     0
 45
0.0
1001
ACAD
1000
AcDbSavedByObjectVersion
1070
     0
  0
VISUALSTYLE
  5
3F9
102
{ACAD_XDICTIONARY
360
2458A
102
}
102
{ACAD_REACTORS
330
3F2
102
}
330
3F2
100
AcDbVisualStyle
  2

 70
     5
 71
     0
 72
     2
 73
     0
 90
        0
 40
-0.6
 41
-30.0
 62
     5
 63
     7
 74
     1
 91
        4
 64
     7
 65
   257
 75
     1
175
     1
 42
1.0
 92
        0
 66
   257
 43
1.0
 76
     1
 77
     6
 78
     2
 67
     7
 79
     5
170
     0
171
     0
290
     0
174
     0
 93
        1
 44
0.0
173
     0
291
     0
 45
0.0
1001
ACAD
1000
AcDbSavedByObjectVersion
1070
     0
  0
VISUALSTYLE
  5
3F7
102
{ACAD_XDICTIONARY
360
24586
102
}
102
{ACAD_REACTORS
330
3F2
102
}
330
3F2
100
AcDbVisualStyle
  2

 70
     7
 71
     1
 72
     0
 73
     1
 90
        0
 40
-0.6
 41
-30.0
 62
     5
 63
     7
 74
     0
 91
        4
 64
     7
 65
   257
 75
     1
175
     1
 42
1.0
 92
        8
 66
     7
 43
1.0
 76
     1
 77
     6
 78
     2
 67
     7
 79
     5
170
     0
171
     0
290
     0
174
     0
 93
        1
 44
0.0
173
     0
291
     1
 45
0.0
1001
ACAD
1000
AcDbSavedByObjectVersion
1070
     0
  0
VISUALSTYLE
  5
3FE
102
{ACAD_XDICTIONARY
360
24594
102
}
102
{ACAD_REACTORS
330
3F2
102
}
330
3F2
100
AcDbVisualStyle
  2

 70
    12
 71
     2
 72
     2
 73
     0
 90
        0
 40
-0.6
 41
-30.0
 62
     5
 63
     7
 74
     1
 91
        4
 64
     7
 65
   257
 75
     1
175
     1
 42
1.0
 92
        8
 66
     7
 43
1.0
 76
     1
 77
     6
 78
     2
 67
     7
 79
     5
170
     0
171
     0
290
     0
174
     0
 93
        1
 44
50.0
173
     0
291
     1
 45
0.0
1001
ACAD
1000
AcDbSavedByObjectVersion
1070
     0
  0
VISUALSTYLE
  5
402
102
{ACAD_XDICTIONARY
360
2459C
102
}
102
{ACAD_REACTORS
330
3F2
102
}
330
3F2
100
AcDbVisualStyle
  2

 70
    16
 71
     2
 72
     2
 73
     3
 90
        0
 40
-0.6
 41
-30.0
 62
     5
 63
     8
 74
     1
 91
        4
 64
     7
 65
   257
 75
     1
175
     1
 42
1.0
 92
        8
 66
     8
 43
1.0
 76
     1
 77
     6
 78
     2
 67
     7
 79
     5
170
     0
171
     0
290
     0
174
     0
 93
        1
 44
0.0
173
     0
291
     1
 45
0.0
1001
ACAD
1000
AcDbSavedByObjectVersion
1070
     0
  0
VISUALSTYLE
  5
3FB
102
{ACAD_XDICTIONARY
360
2458E
102
}
102
{ACAD_REACTORS
330
3F2
102
}
330
3F2
100
AcDbVisualStyle
  2

 70
     9
 71
     3
 72
     2
 73
     0
 90
        0
 40
-0.6
 41
-30.0
 62
     5
 63
     7
 74
     2
 91
        2
 64
     7
 65
   257
 75
     1
175
     1
 42
40.0
 92
        8
 66
     7
 43
1.0
 76
     1
 77
     6
 78
     2
 67
     7
 79
     3
170
     0
171
     0
290
     0
174
     0
 93
        1
 44
0.0
173
     0
291
     0
 45
0.0
1001
ACAD
1000
AcDbSavedByObjectVersion
1070
     0
  0
VISUALSTYLE
  5
3FD
102
{ACAD_XDICTIONARY
360
24592
102
}
102
{ACAD_REACTORS
330
3F2
102
}
330
3F2
100
AcDbVisualStyle
  2

 70
    11
 71
     2
 72
     2
 73
     0
 90
        0
 40
-0.6
 41
-30.0
 62
     5
 63
     7
 74
     1
 91
        4
 64
     7
 65
   257
 75
     1
175
     1
 42
1.0
 92
        8
 66
     7
 43
1.0
 76
     1
 77
     6
 78
     2
 67
     7
 79
     5
170
     0
171
     0
290
     0
174
     0
 93
        1
 44
-50.0
173
     0
291
     1
 45
0.0
1001
ACAD
1000
AcDbSavedByObjectVersion
1070
     0
  0
VISUALSTYLE
  5
44E
102
{ACAD_XDICTIONARY
360
245A2
102
}
102
{ACAD_REACTORS
330
3F2
102
}
330
3F2
100
AcDbVisualStyle
  2

 70
    22
 71
     2
 72
     2
 73
     0
 90
        0
 40
-0.6
 41
-30.0
 62
     5
 63
     7
 74
     1
 91
        4
 64
     7
 65
   257
 75
     1
175
     1
 42
1.0
 92
        8
 66
     7
 43
1.0
 76
     1
 77
     6
 78
     2
 67
     7
 79
     5
170
     0
171
     0
290
     0
174
     0
 93
        1
 44
0.0
173
     0
291
     1
 45
0.0
1001
ACAD
1000
AcDbSavedByObjectVersion
1070
     0
  0
VISUALSTYLE
  5
401
102
{ACAD_XDICTIONARY
360
2459A
102
}
102
{ACAD_REACTORS
330
3F2
102
}
330
3F2
100
AcDbVisualStyle
  2

 70
    15
 71
     2
 72
     2
 73
     0
 90
        0
 40
-0.6
 41
-30.0
 62
     5
 63
     7
 74
     1
 91
        4
 64
     7
 65
   257
 75
     1
175
     1
 42
1.0
 92
        8
 66
     7
 43
1.0
 76
     1
 77
     6
 78
     2
 67
     7
 79
     5
170
     0
171
     0
290
     0
174
     0
 93
        1
 44
0.0
173
     0
291
     1
 45
0.0
1001
ACAD
1000
AcDbSavedByObjectVersion
1070
     0
  0
VISUALSTYLE
  5
3F3
102
{ACAD_XDICTIONARY
360
2457E
102
}
102
{ACAD_REACTORS
330
3F2
102
}
330
3F2
100
AcDbVisualStyle
  2

 70
     0
 71
     2
 72
     1
 73
     1
 90
        2
 40
-0.6
 41
30.0
 62
     5
 63
     7
 74
     0
 91
        4
 64
     7
 65
   257
 75
     1
175
     1
 42
1.0
 92
        8
 66
     7
 43
1.0
 76
     1
 77
     6
 78
     2
 67
     7
 79
     5
170
     0
171
     0
290
     0
174
     0
 93
       13
 44
0.0
173
     0
291
     1
 45
0.0
1001
ACAD
1000
AcDbSavedByObjectVersion
1070
     0
  0
VISUALSTYLE
  5
3F4
102
{ACAD_XDICTIONARY
360
24580
102
}
102
{ACAD_REACTORS
330
3F2
102
}
330
3F2
100
AcDbVisualStyle
  2

 70
     1
 71
     2
 72
     1
 73
     1
 90
        2
 40
-0.6
 41
30.0
 62
     5
 63
     7
 74
     1
 91
        4
 64
     7
 65
   257
 75
     1
175
     1
 42
1.0
 92
        0
 66
   257
 43
1.0
 76
     1
 77
     6
 78
     2
 67
     7
 79
     5
170
     0
171
     0
290
     0
174
     0
 93
       13
 44
0.0
173
     0
291
     1
 45
0.0
1001
ACAD
1000
AcDbSavedByObjectVersion
1070
     0
  0
VISUALSTYLE
  5
3F5
102
{ACAD_XDICTIONARY
360
24582
102
}
102
{ACAD_REACTORS
330
3F2
102
}
330
3F2
100
AcDbVisualStyle
  2

 70
     2
 71
     2
 72
     2
 73
     1
 90
        2
 40
-0.6
 41
30.0
 62
     5
 63
     7
 74
     0
 91
        4
 64
     7
 65
   257
 75
     1
175
     1
 42
1.0
 92
        0
 66
     7
 43
1.0
 76
     1
 77
     6
 78
     2
 67
     7
 79
     5
170
     0
171
     0
290
     0
174
     0
 93
       13
 44
0.0
173
     0
291
     1
 45
0.0
1001
ACAD
1000
AcDbSavedByObjectVersion
1070
     0
  0
VISUALSTYLE
  5
3F6
102
{ACAD_XDICTIONARY
360
24584
102
}
102
{ACAD_REACTORS
330
3F2
102
}
330
3F2
100
AcDbVisualStyle
  2

 70
     3
 71
     2
 72
     2
 73
     1
 90
        2
 40
-0.6
 41
30.0
 62
     5
 63
     7
 74
     1
 91
        4
 64
     7
 65
   257
 75
     1
175
     1
 42
1.0
 92
        0
 66
   257
 43
1.0
 76
     1
 77
     6
 78
     2
 67
     7
 79
     5
170
     0
171
     0
290
     0
174
     0
 93
       13
 44
0.0
173
     0
291
     1
 45
0.0
1001
ACAD
1000
AcDbSavedByObjectVersion
1070
     0
  0
VISUALSTYLE
  5
24516
102
{ACAD_XDICTIONARY
360
245A7
102
}
102
{ACAD_REACTORS
330
3F2
102
}
330
3F2
100
AcDbVisualStyle
  2
Hidden
 70
     6
 71
     1
 72
     2
 73
     2
 90
        0
 40
-0.6
 41
-30.0
 62
     5
 63
     7
 74
     2
 91
        2
 64
     7
 65
   257
 75
     2
175
     1
 42
40.0
 92
        0
 66
   257
 43
1.0
 76
     1
 77
     6
 78
     2
 67
     7
 79
     3
170
     0
171
     0
290
     0
174
     0
 93
        1
 44
0.0
173
     0
291
     0
 45
0.0
1001
ACAD
1000
AcDbSavedByObjectVersion
1070
     0
  0
VISUALSTYLE
  5
44C
102
{ACAD_XDICTIONARY
360
2459E
102
}
102
{ACAD_REACTORS
330
3F2
102
}
330
3F2
100
AcDbVisualStyle
  2

 70
    20
 71
     2
 72
     2
 73
     0
 90
        0
 40
-0.6
 41
-30.0
 62
     5
 63
     7
 74
     1
 91
        4
 64
     7
 65
   257
 75
     1
175
     1
 42
1.0
 92
       10
 66
     7
 43
1.0
 76
     1
 77
     6
 78
     2
 67
     7
 79
     5
170
     0
171
     0
290
     0
174
     0
 93
        1
 44
0.0
173
     0
291
     1
 45
0.0
1001
ACAD
1000
AcDbSavedByObjectVersion
1070
     0
  0
VISUALSTYLE
  5
400
102
{ACAD_XDICTIONARY
360
24598
102
}
102
{ACAD_REACTORS
330
3F2
102
}
330
3F2
100
AcDbVisualStyle
  2

 70
    14
 71
     2
 72
     2
 73
     0
 90
        0
 40
-0.6
 41
-30.0
 62
     5
 63
     7
 74
     1
 91
        4
 64
     7
 65
   257
 75
     7
175
     7
 42
1.0
 92
        8
 66
     7
 43
1.0
 76
     1
 77
     6
 78
     2
 67
     7
 79
     5
170
     0
171
     0
290
     0
174
     0
 93
        1
 44
0.0
173
     0
291
     1
 45
0.0
1001
ACAD
1000
AcDbSavedByObjectVersion
1070
     0
  0
VISUALSTYLE
  5
44D
102
{ACAD_XDICTIONARY
360
245A0
102
}
102
{ACAD_REACTORS
330
3F2
102
}
330
3F2
100
AcDbVisualStyle
  2

 70
    21
 71
     2
 72
     2
 73
     0
 90
        0
 40
-0.6
 41
-30.0
 62
     5
 63
     7
 74
     1
 91
        4
 64
     7
 65
   257
 75
     1
175
     1
 42
1.0
 92
        9
 66
     7
 43
1.0
 76
     1
 77
     6
 78
     2
 67
     7
 79
     5
170
     0
171
     0
290
     0
174
     0
 93
        1
 44
0.0
173
     0
291
     1
 45
0.0
1001
ACAD
1000
AcDbSavedByObjectVersion
1070
     0
  0
VISUALSTYLE
  5
3FC
102
{ACAD_XDICTIONARY
360
24590
102
}
102
{ACAD_REACTORS
330
3F2
102
}
330
3F2
100
AcDbVisualStyle
  2

 70
     8
 71
     2
 72
     2
 73
     0
 90
        0
 40
-0.6
 41
-30.0
 62
     5
 63
     7
 74
     1
 91
        0
 64
     7
 65
   257
 75
     1
175
     1
 42
1.0
 92
        8
 66
     8
 43
1.0
 76
     1
 77
     6
 78
     2
 67
     7
 79
     5
170
     0
171
     0
290
     0
174
     0
 93
       13
 44
0.0
173
     0
291
     0
 45
0.0
1001
ACAD
1000
AcDbSavedByObjectVersion
1070
     0
  0
VISUALSTYLE
  5
2451B
102
{ACAD_XDICTIONARY
360
245B1
102
}
102
{ACAD_REACTORS
330
3F2
102
}
330
3F2
100
AcDbVisualStyle
  2
Shaded
 70
    27
 71
     2
 72
     2
 73
     1
 90
        2
 40
-0.6
 41
30.0
 62
     5
 63
     7
 74
     0
 91
        4
 64
     7
 65
   257
 75
     1
175
     1
 42
1.0
 92
        8
 66
   257
 43
1.0
 76
     1
 77
     6
 78
     2
 67
     8
 79
     3
170
     0
171
     0
290
     0
174
     0
 93
        5
 44
0.0
173
     0
291
     0
 45
0.0
1001
ACAD
1000
AcDbSavedByObjectVersion
1070
     0
  0
VISUALSTYLE
  5
2451A
102
{ACAD_XDICTIONARY
360
245AF
102
}
102
{ACAD_REACTORS
330
3F2
102
}
330
3F2
100
AcDbVisualStyle
  2
Shaded with edges
 70
    26
 71
     2
 72
     2
 73
     1
 90
        2
 40
-0.6
 41
30.0
 62
     5
 63
     7
 74
     1
 91
       10
 64
     7
 65
   257
 75
     2
175
     1
 42
1.0
 92
        8
 66
   257
 43
1.0
 76
     1
 77
     6
 78
     2
 67
     7
 79
     3
170
     0
171
     0
290
     0
174
     0
 93
        5
 44
0.0
173
     0
291
     0
 45
0.0
1001
ACAD
1000
AcDbSavedByObjectVersion
1070
     0
  0
VISUALSTYLE
  5
24517
102
{ACAD_XDICTIONARY
360
245A9
102
}
102
{ACAD_REACTORS
330
3F2
102
}
330
3F2
100
AcDbVisualStyle
  2
Shades of Gray
 70
    23
 71
     2
 72
     2
 73
     3
 90
        0
 40
-0.6
 41
-30.0
 62
     5
 63
     7
 74
     2
 91
        2
 64
     7
 65
     7
 75
     1
175
     1
 42
40.0
 92
        8
 66
     7
 43
1.0
 76
     1
 77
     6
 78
     2
 67
     7
 79
     3
170
     0
171
     0
290
     0
174
     0
 93
        1
 44
0.0
173
     0
291
     0
 45
0.0
1001
ACAD
1000
AcDbSavedByObjectVersion
1070
     0
  0
VISUALSTYLE
  5
24518
102
{ACAD_XDICTIONARY
360
245AB
102
}
102
{ACAD_REACTORS
330
3F2
102
}
330
3F2
100
AcDbVisualStyle
  2
Sketchy
 70
    24
 71
     1
 72
     2
 73
     2
 90
        0
 40
-0.6
 41
-30.0
 62
     5
 63
     7
 74
     2
 91
        2
 64
     7
 65
     7
 75
     1
175
     1
 42
40.0
 92
       11
 66
     7
 43
1.0
 76
     1
 77
     6
 78
     2
 67
     7
 79
     6
170
     0
171
     0
290
     0
174
     0
 93
        1
 44
0.0
173
     0
291
     0
 45
0.0
1001
ACAD
1000
AcDbSavedByObjectVersion
1070
     0
  0
VISUALSTYLE
  5
3FF
102
{ACAD_XDICTIONARY
360
24596
102
}
102
{ACAD_REACTORS
330
3F2
102
}
330
3F2
100
AcDbVisualStyle
  2

 70
    13
 71
     2
 72
     2
 73
     0
 90
        0
 40
-0.6
 41
-30.0
 62
     5
 63
     7
 74
     1
 91
        4
 64
     7
 65
   257
 75
     1
175
     1
 42
1.0
 92
       12
 66
     7
 43
1.0
 76
     1
 77
     6
 78
     2
 67
     7
 79
     5
170
     0
171
     0
290
     0
174
     0
 93
        1
 44
0.0
173
     0
291
     1
 45
0.0
1001
ACAD
1000
AcDbSavedByObjectVersion
1070
     0
  0
VISUALSTYLE
  5
24515
102
{ACAD_XDICTIONARY
360
245A5
102
}
102
{ACAD_REACTORS
330
3F2
102
}
330
3F2
100
AcDbVisualStyle
  2
Wireframe
 70
     5
 71
     0
 72
     2
 73
     0
 90
        0
 40
-0.6
 41
-30.0
 62
     5
 63
     7
 74
     1
 91
        4
 64
     7
 65
   257
 75
     1
175
     1
 42
1.0
 92
        0
 66
   257
 43
1.0
 76
     1
 77
     6
 78
     2
 67
     7
 79
     3
170
     0
171
     0
290
     0
174
     0
 93
        1
 44
0.0
173
     0
291
     0
 45
0.0
1001
ACAD
1000
AcDbSavedByObjectVersion
1070
     0
  0
VISUALSTYLE
  5
24519
102
{ACAD_XDICTIONARY
360
245AD
102
}
102
{ACAD_REACTORS
330
3F2
102
}
330
3F2
100
AcDbVisualStyle
  2
X-Ray
 70
    25
 71
     2
 72
     2
 73
     1
 90
        1
 40
0.5
 41
-30.0
 62
     5
 63
     7
 74
     1
 91
        0
 64
     7
 65
   257
 75
     1
175
     1
 42
1.0
 92
        8
 66
     7
 43
1.0
 76
     1
 77
     6
 78
     2
 67
     7
 79
     3
170
     0
171
     0
290
     0
174
     0
 93
       13
 44
0.0
173
     0
291
     0
 45
0.0
1001
ACAD
1000
AcDbSavedByObjectVersion
1070
     0
  0
DICTIONARYVAR
  5
449
102
{ACAD_REACTORS
330
357
102
}
330
357
100
DictionaryVariables
280
     0
  1
1:1
  0
DICTIONARYVAR
  5
447
102
{ACAD_REACTORS
330
357
102
}
330
357
100
DictionaryVariables
280
     0
  1
STANDARD
  0
DICTIONARYVAR
  5
38E
102
{ACAD_REACTORS
330
357
102
}
330
357
100
DictionaryVariables
280
     0
  1
STANDARD
  0
DICTIONARYVAR
  5
24570
102
{ACAD_REACTORS
330
357
102
}
330
357
100
DictionaryVariables
280
     0
  1
Metric50
  0
DICTIONARYVAR
  5
24571
102
{ACAD_REACTORS
330
357
102
}
330
357
100
DictionaryVariables
280
     0
  1
Metric50
  0
DICTIONARYVAR
  5
359
102
{ACAD_REACTORS
330
357
102
}
330
357
100
DictionaryVariables
280
     0
  1
2
  0
DICTIONARYVAR
  5
358
102
{ACAD_REACTORS
330
357
102
}
330
357
100
DictionaryVariables
280
     0
  1
1
  0
DICTIONARYVAR
  5
11A0
102
{ACAD_REACTORS
330
357
102
}
330
357
100
DictionaryVariables
280
     0
  1
0
  0
DICTIONARYVAR
  5
44A
102
{ACAD_REACTORS
330
357
102
}
330
357
100
DictionaryVariables
280
     0
  1
0
  0
DICTIONARYVAR
  5
448
102
{ACAD_REACTORS
330
357
102
}
330
357
100
DictionaryVariables
280
     0
  1
0
  0
DICTIONARYVAR
  5
119F
102
{ACAD_REACTORS
330
357
102
}
330
357
100
DictionaryVariables
280
     0
  1
127
  0
DICTIONARYVAR
  5
24572
102
{ACAD_REACTORS
330
357
102
}
330
357
100
DictionaryVariables
280
     0
  1
2
  0
DICTIONARY
  5
2457B
330
33B
100
AcDbDictionary
280
     1
281
     1
  3
ACAD_XREC_ROUNDTRIP
360
2457C
  0
DICTIONARY
  5
24579
330
303
100
AcDbDictionary
280
     1
281
     1
  3
ACAD_XREC_ROUNDTRIP
360
2457A
  0
DICTIONARY
  5
244E7
330
3F0
100
AcDbDictionary
280
     1
281
     1
  3
ACAD_XREC_ROUNDTRIP
360
244E8
  0
DICTIONARY
  5
244E5
330
3EF
100
AcDbDictionary
280
     1
281
     1
  3
ACAD_XREC_ROUNDTRIP
360
244E6
  0
DICTIONARY
  5
244E9
330
3F1
100
AcDbDictionary
280
     1
281
     1
  3
ACAD_XREC_ROUNDTRIP
360
244EA
  0
DICTIONARY
  5
444
330
389
100
AcDbDictionary
280
     1
281
     1
  3
ACAD_ROUNDTRIP_2008_TABLESTYLE_CELLSTYLEMAP
360
24574
  3
ACAD_XREC_ROUNDTRIP
360
2457D
  0
DICTIONARY
  5
24588
330
3F8
100
AcDbDictionary
280
     1
281
     1
  3
ACAD_XREC_ROUNDTRIP
360
24589
  0
DICTIONARY
  5
2458C
330
3FA
100
AcDbDictionary
280
     1
281
     1
  3
ACAD_XREC_ROUNDTRIP
360
2458D
  0
DICTIONARY
  5
2458A
330
3F9
100
AcDbDictionary
280
     1
281
     1
  3
ACAD_XREC_ROUNDTRIP
360
2458B
  0
DICTIONARY
  5
24586
330
3F7
100
AcDbDictionary
280
     1
281
     1
  3
ACAD_XREC_ROUNDTRIP
360
24587
  0
DICTIONARY
  5
24594
330
3FE
100
AcDbDictionary
280
     1
281
     1
  3
ACAD_XREC_ROUNDTRIP
360
24595
  0
DICTIONARY
  5
2459C
330
402
100
AcDbDictionary
280
     1
281
     1
  3
ACAD_XREC_ROUNDTRIP
360
2459D
  0
DICTIONARY
  5
2458E
330
3FB
100
AcDbDictionary
280
     1
281
     1
  3
ACAD_XREC_ROUNDTRIP
360
2458F
  0
DICTIONARY
  5
24592
330
3FD
100
AcDbDictionary
280
     1
281
     1
  3
ACAD_XREC_ROUNDTRIP
360
24593
  0
DICTIONARY
  5
245A2
330
44E
100
AcDbDictionary
280
     1
281
     1
  3
ACAD_XREC_ROUNDTRIP
360
245A3
  0
DICTIONARY
  5
2459A
330
401
100
AcDbDictionary
280
     1
281
     1
  3
ACAD_XREC_ROUNDTRIP
360
2459B
  0
DICTIONARY
  5
2457E
330
3F3
100
AcDbDictionary
280
     1
281
     1
  3
ACAD_XREC_ROUNDTRIP
360
2457F
  0
DICTIONARY
  5
24580
330
3F4
100
AcDbDictionary
280
     1
281
     1
  3
ACAD_XREC_ROUNDTRIP
360
24581
  0
DICTIONARY
  5
24582
330
3F5
100
AcDbDictionary
280
     1
281
     1
  3
ACAD_XREC_ROUNDTRIP
360
24583
  0
DICTIONARY
  5
24584
330
3F6
100
AcDbDictionary
280
     1
281
     1
  3
ACAD_XREC_ROUNDTRIP
360
24585
  0
DICTIONARY
  5
245A7
330
24516
100
AcDbDictionary
280
     1
281
     1
  3
ACAD_XREC_ROUNDTRIP
360
245A8
  0
DICTIONARY
  5
2459E
330
44C
100
AcDbDictionary
280
     1
281
     1
  3
ACAD_XREC_ROUNDTRIP
360
2459F
  0
DICTIONARY
  5
24598
330
400
100
AcDbDictionary
280
     1
281
     1
  3
ACAD_XREC_ROUNDTRIP
360
24599
  0
DICTIONARY
  5
245A0
330
44D
100
AcDbDictionary
280
     1
281
     1
  3
ACAD_XREC_ROUNDTRIP
360
245A1
  0
DICTIONARY
  5
24590
330
3FC
100
AcDbDictionary
280
     1
281
     1
  3
ACAD_XREC_ROUNDTRIP
360
24591
  0
DICTIONARY
  5
245B1
330
2451B
100
AcDbDictionary
280
     1
281
     1
  3
ACAD_XREC_ROUNDTRIP
360
245B2
  0
DICTIONARY
  5
245AF
330
2451A
100
AcDbDictionary
280
     1
281
     1
  3
ACAD_XREC_ROUNDTRIP
360
245B0
  0
DICTIONARY
  5
245A9
330
24517
100
AcDbDictionary
280
     1
281
     1
  3
ACAD_XREC_ROUNDTRIP
360
245AA
  0
DICTIONARY
  5
245AB
330
24518
100
AcDbDictionary
280
     1
281
     1
  3
ACAD_XREC_ROUNDTRIP
360
245AC
  0
DICTIONARY
  5
24596
330
3FF
100
AcDbDictionary
280
     1
281
     1
  3
ACAD_XREC_ROUNDTRIP
360
24597
  0
DICTIONARY
  5
245A5
330
24515
100
AcDbDictionary
280
     1
281
     1
  3
ACAD_XREC_ROUNDTRIP
360
245A6
  0
DICTIONARY
  5
245AD
330
24519
100
AcDbDictionary
280
     1
281
     1
  3
ACAD_XREC_ROUNDTRIP
360
245AE
  0
XRECORD
  5
2457C
102
{ACAD_REACTORS
330
2457B
102
}
330
2457B
100
AcDbXrecord
280
     1
102
SHADEPLOT
 70
     0
102
SHADEPLOTRESLEVEL
 70
     2
102
SHADEPLOTCUSTOMDPI
 70
   300
  0
XRECORD
  5
2457A
102
{ACAD_REACTORS
330
24579
102
}
330
24579
100
AcDbXrecord
280
     1
102
SHADEPLOT
 70
     1
102
SHADEPLOTRESLEVEL
 70
     2
102
SHADEPLOTCUSTOMDPI
 70
   300
  0
XRECORD
  5
244E8
102
{ACAD_REACTORS
330
244E7
102
}
330
244E7
100
AcDbXrecord
280
     1
102
MATERIAL
148
0.0
149
0.0
149
0.0
 93
        0
 94
      127
282
     0
 72
     1
 77
     1
171
     1
175
     1
179
     1
273
     0
  0
XRECORD
  5
244E6
102
{ACAD_REACTORS
330
244E5
102
}
330
244E5
100
AcDbXrecord
280
     1
102
MATERIAL
148
0.0
149
0.0
149
0.0
 93
        0
 94
      127
282
     0
 72
     1
 77
     1
171
     1
175
     1
179
     1
273
     0
  0
XRECORD
  5
244EA
102
{ACAD_REACTORS
330
244E9
102
}
330
244E9
100
AcDbXrecord
280
     1
102
MATERIAL
148
0.0
149
0.0
149
0.0
 93
        0
 94
      127
282
     0
 72
     1
 77
     1
171
     1
175
     1
179
     1
273
     0
  0
CELLSTYLEMAP
  5
24574
102
{ACAD_REACTORS
330
444
102
}
330
444
100
AcDbCellStyleMap
 90
        3
300
CELLSTYLE
  1
TABLEFORMAT_BEGIN
 90
        5
170
     1
 91
        0
 92
    32768
 62
   257
 93
        1
300
CONTENTFORMAT
  1
CONTENTFORMAT_BEGIN
 90
        0
 91
        0
 92
        4
 93
        0
300

 40
0.0
140
1.0
 94
        5
 62
     0
340
10
144
6.0
309
CONTENTFORMAT_END
171
     1
301
MARGIN
  1
CELLMARGIN_BEGIN
 40
1.5
 40
1.5
 40
1.5
 40
1.5
 40
0.18
 40
0.18
309
CELLMARGIN_END
 94
        6
 95
        1
302
GRIDFORMAT
  1
GRIDFORMAT_BEGIN
 90
        0
 91
        1
 62
     0
 92
       -2
340
0
 93
        0
 40
0.045
309
GRIDFORMAT_END
 95
        2
302
GRIDFORMAT
  1
GRIDFORMAT_BEGIN
 90
        0
 91
        1
 62
     0
 92
       -2
340
0
 93
        0
 40
0.045
309
GRIDFORMAT_END
 95
        4
302
GRIDFORMAT
  1
GRIDFORMAT_BEGIN
 90
        0
 91
        1
 62
     0
 92
       -2
340
0
 93
        0
 40
0.045
309
GRIDFORMAT_END
 95
        8
302
GRIDFORMAT
  1
GRIDFORMAT_BEGIN
 90
        0
 91
        1
 62
     0
 92
       -2
340
0
 93
        0
 40
0.045
309
GRIDFORMAT_END
 95
       16
302
GRIDFORMAT
  1
GRIDFORMAT_BEGIN
 90
        0
 91
        1
 62
     0
 92
       -2
340
0
 93
        0
 40
0.045
309
GRIDFORMAT_END
 95
       32
302
GRIDFORMAT
  1
GRIDFORMAT_BEGIN
 90
        0
 91
        1
 62
     0
 92
       -2
340
0
 93
        0
 40
0.045
309
GRIDFORMAT_END
309
TABLEFORMAT_END
  1
CELLSTYLE_BEGIN
 90
        1
 91
        1
300
_TITLE
309
CELLSTYLE_END
300
CELLSTYLE
  1
TABLEFORMAT_BEGIN
 90
        5
170
     1
 91
        0
 92
        0
 62
   257
 93
        1
300
CONTENTFORMAT
  1
CONTENTFORMAT_BEGIN
 90
        0
 91
        0
 92
        4
 93
        0
300

 40
0.0
140
1.0
 94
        5
 62
     0
340
10
144
4.5
309
CONTENTFORMAT_END
171
     1
301
MARGIN
  1
CELLMARGIN_BEGIN
 40
1.5
 40
1.5
 40
1.5
 40
1.5
 40
0.18
 40
0.18
309
CELLMARGIN_END
 94
        6
 95
        1
302
GRIDFORMAT
  1
GRIDFORMAT_BEGIN
 90
        0
 91
        1
 62
     0
 92
       -2
340
0
 93
        0
 40
0.045
309
GRIDFORMAT_END
 95
        2
302
GRIDFORMAT
  1
GRIDFORMAT_BEGIN
 90
        0
 91
        1
 62
     0
 92
       -2
340
0
 93
        0
 40
0.045
309
GRIDFORMAT_END
 95
        4
302
GRIDFORMAT
  1
GRIDFORMAT_BEGIN
 90
        0
 91
        1
 62
     0
 92
       -2
340
0
 93
        0
 40
0.045
309
GRIDFORMAT_END
 95
        8
302
GRIDFORMAT
  1
GRIDFORMAT_BEGIN
 90
        0
 91
        1
 62
     0
 92
       -2
340
0
 93
        0
 40
0.045
309
GRIDFORMAT_END
 95
       16
302
GRIDFORMAT
  1
GRIDFORMAT_BEGIN
 90
        0
 91
        1
 62
     0
 92
       -2
340
0
 93
        0
 40
0.045
309
GRIDFORMAT_END
 95
       32
302
GRIDFORMAT
  1
GRIDFORMAT_BEGIN
 90
        0
 91
        1
 62
     0
 92
       -2
340
0
 93
        0
 40
0.045
309
GRIDFORMAT_END
309
TABLEFORMAT_END
  1
CELLSTYLE_BEGIN
 90
        2
 91
        1
300
_HEADER
309
CELLSTYLE_END
300
CELLSTYLE
  1
TABLEFORMAT_BEGIN
 90
        5
170
     1
 91
        0
 92
        0
 62
   257
 93
        1
300
CONTENTFORMAT
  1
CONTENTFORMAT_BEGIN
 90
        0
 91
        0
 92
        4
 93
        0
300

 40
0.0
140
1.0
 94
        2
 62
     0
340
10
144
4.5
309
CONTENTFORMAT_END
171
     1
301
MARGIN
  1
CELLMARGIN_BEGIN
 40
1.5
 40
1.5
 40
1.5
 40
1.5
 40
0.18
 40
0.18
309
CELLMARGIN_END
 94
        6
 95
        1
302
GRIDFORMAT
  1
GRIDFORMAT_BEGIN
 90
        0
 91
        1
 62
     0
 92
       -2
340
0
 93
        0
 40
0.045
309
GRIDFORMAT_END
 95
        2
302
GRIDFORMAT
  1
GRIDFORMAT_BEGIN
 90
        0
 91
        1
 62
     0
 92
       -2
340
0
 93
        0
 40
0.045
309
GRIDFORMAT_END
 95
        4
302
GRIDFORMAT
  1
GRIDFORMAT_BEGIN
 90
        0
 91
        1
 62
     0
 92
       -2
340
0
 93
        0
 40
0.045
309
GRIDFORMAT_END
 95
        8
302
GRIDFORMAT
  1
GRIDFORMAT_BEGIN
 90
        0
 91
        1
 62
     0
 92
       -2
340
0
 93
        0
 40
0.045
309
GRIDFORMAT_END
 95
       16
302
GRIDFORMAT
  1
GRIDFORMAT_BEGIN
 90
        0
 91
        1
 62
     0
 92
       -2
340
0
 93
        0
 40
0.045
309
GRIDFORMAT_END
 95
       32
302
GRIDFORMAT
  1
GRIDFORMAT_BEGIN
 90
        0
 91
        1
 62
     0
 92
       -2
340
0
 93
        0
 40
0.045
309
GRIDFORMAT_END
309
TABLEFORMAT_END
  1
CELLSTYLE_BEGIN
 90
        3
 91
        2
300
_DATA
309
CELLSTYLE_END
  0
XRECORD
  5
2457D
102
{ACAD_REACTORS
330
444
102
}
330
444
100
AcDbXrecord
280
     1
102
ACAD_ROUNDTRIP_PRE2007_TABLESTYLE
 90
        4
 91
        0
  1

 92
        4
 93
        0
  2

 94
        4
 95
        0
  3

  0
XRECORD
  5
24589
102
{ACAD_REACTORS
330
24588
102
}
330
24588
100
AcDbXrecord
280
     1
102
RTVSPost2010Prop28
280
     1
102
RTVSPost2010PropOp28
 70
     1
102
RTVSPost2010Prop29
280
     1
102
RTVSPost2010PropOp29
 70
     1
102
RTVSPost2010Prop30
280
     0
102
RTVSPost2010PropOp30
 70
     1
102
RTVSPost2010Prop31
280
     0
102
RTVSPost2010PropOp31
 70
     1
102
RTVSPost2010Prop32
280
     0
102
RTVSPost2010PropOp32
 70
     1
102
RTVSPost2010Prop33
280
     0
102
RTVSPost2010PropOp33
 70
     1
102
RTVSPost2010Prop34
280
     0
102
RTVSPost2010PropOp34
 70
     1
102
RTVSPost2010Prop35
280
     0
102
RTVSPost2010PropOp35
 70
     1
102
RTVSPost2010Prop36
280
     0
102
RTVSPost2010PropOp36
 70
     1
102
RTVSPost2010Prop37
 90
       50
102
RTVSPost2010PropOp37
 70
     1
102
RTVSPost2010Prop38
140
0.0
102
RTVSPost2010PropOp38
 70
     1
102
RTVSPost2010Prop39
140
1.0
102
RTVSPost2010PropOp39
 70
     1
102
RTVSPost2010Prop40
 90
        0
102
RTVSPost2010PropOp40
 70
     1
102
RTVSPost2010Prop41ColorIndex
 90
       18
102
RTVSPost2010Prop41ColorRGB
 90
        0
102
RTVSPost2010PropOp41
 70
     1
102
RTVSPost2010Prop42
 90
       50
102
RTVSPost2010PropOp42
 70
     1
102
RTVSPost2010Prop43
 90
        3
102
RTVSPost2010PropOp43
 70
     1
102
RTVSPost2010Prop44ColorIndex
 90
        5
102
RTVSPost2010Prop44ColorRGB
 90
      255
102
RTVSPost2010PropOp44
 70
     1
102
RTVSPost2010Prop45
280
     0
102
RTVSPost2010PropOp45
 70
     1
102
RTVSPost2010Prop46
 90
       50
102
RTVSPost2010PropOp46
 70
     1
102
RTVSPost2010Prop47
 90
       50
102
RTVSPost2010PropOp47
 70
     1
102
RTVSPost2010Prop48
 90
       50
102
RTVSPost2010PropOp48
 70
     1
102
RTVSPost2010Prop49
280
     0
102
RTVSPost2010PropOp49
 70
     1
102
RTVSPost2010Prop50
 90
       50
102
RTVSPost2010PropOp50
 70
     1
102
RTVSPost2010Prop51ColorIndex
 90
      256
102
RTVSPost2010Prop51ColorRGB
 90
-16777216
102
RTVSPost2010PropOp51
 70
     0
102
RTVSPost2010Prop52
140
1.0
102
RTVSPost2010PropOp52
 70
     0
102
RTVSPost2010Prop53
 90
        2
102
RTVSPost2010PropOp53
 70
     1
102
RTVSPost2010Prop54
  1
strokes_ogs.tif
102
RTVSPost2010PropOp54
 70
     1
102
RTVSPost2010Prop55
280
     0
102
RTVSPost2010PropOp55
 70
     1
102
RTVSPost2010Prop56
140
1.0
102
RTVSPost2010PropOp56
 70
     1
102
RTVSPost2010Prop57
140
1.0
102
RTVSPost2010PropOp57
 70
     1
102
RTVSPropertyOp0
 70
     1
102
RTVSPropertyOp1
 70
     1
102
RTVSPropertyOp2
 70
     1
102
RTVSPropertyOp3
 70
     1
102
RTVSPropertyOp4
 70
     1
102
RTVSPropertyOp5
 70
     1
102
RTVSPropertyOp6
 70
     1
102
RTVSPropertyOp7
 70
     1
102
RTVSPropertyOp8
 70
     1
102
RTVSPropertyOp9
 70
     1
102
RTVSPropertyOp10
 70
     1
102
RTVSPropertyOp11
 70
     1
102
RTVSPropertyOp12
 70
     1
102
RTVSPropertyOp13
 70
     1
102
RTVSPropertyOp14
 70
     1
102
RTVSPropertyOp15
 70
     1
102
RTVSPropertyOp16
 70
     1
102
RTVSPropertyOp17
 70
     1
102
RTVSPropertyOp18
 70
     1
102
RTVSPropertyOp19
 70
     1
102
RTVSPropertyOp20
 70
     1
102
RTVSPropertyOp21
 70
     1
102
RTVSPropertyOp22
 70
     1
102
RTVSPropertyOp23
 70
     1
102
RTVSPropertyOp24
 70
     1
102
RTVSPropertyOp25
 70
     1
102
RTVSPropertyOp26
 70
     1
102
RTVSPropertyOp27
 70
     1
102
RTVSPropertyOp28
 70
     1
102
RTVSPropertyOp29
 70
     1
102
RTVSPropertyOp30
 70
     1
102
RTVSPropertyOp31
 70
     1
102
RTVSPropertyOp32
 70
     1
102
RTVSPropertyOp33
 70
     1
102
RTVSPropertyOp34
 70
     1
102
RTVSPropertyOp35
 70
     1
102
RTVSPropertyOp36
 70
     1
102
RTVSPropertyOp37
 70
     1
102
RTVSPropertyOp38
 70
     1
102
RTVSPropertyOp39
 70
     1
102
RTVSPropertyOp40
 70
     1
102
RTVSPropertyOp41
 70
     1
102
RTVSPropertyOp42
 70
     1
102
RTVSPropertyOp43
 70
     1
102
RTVSPropertyOp44
 70
     1
102
RTVSPropertyOp45
 70
     1
102
RTVSPropertyOp46
 70
     1
102
RTVSPropertyOp47
 70
     1
102
RTVSPropertyOp48
 70
     1
102
RTVSPropertyOp49
 70
     1
102
RTVSPropertyOp50
 70
     1
102
RTVSPropertyOp51
 70
     0
102
RTVSPropertyOp52
 70
     0
102
RTVSPropertyOp53
 70
     1
102
RTVSPropertyOp54
 70
     1
102
RTVSPropertyOp55
 70
     1
102
RTVSPropertyOp56
 70
     1
102
RTVSPropertyOp57
 70
     1
102
RTVSPropertyOp58
 70
     1
102
RTVSPropertyOp59
 70
     1
102
RTVSPropertyOp60
 70
     1
102
RTVSPropertyOp61
 70
     1
102
RTVSPropertyOp62
 70
     1
  0
XRECORD
  5
2458D
102
{ACAD_REACTORS
330
2458C
102
}
330
2458C
100
AcDbXrecord
280
     1
102
RTVSPost2010Prop28
280
     0
102
RTVSPost2010PropOp28
 70
     1
102
RTVSPost2010Prop29
280
     1
102
RTVSPost2010PropOp29
 70
     1
102
RTVSPost2010Prop30
280
     1
102
RTVSPost2010PropOp30
 70
     1
102
RTVSPost2010Prop31
280
     0
102
RTVSPost2010PropOp31
 70
     1
102
RTVSPost2010Prop32
280
     0
102
RTVSPost2010PropOp32
 70
     1
102
RTVSPost2010Prop33
280
     0
102
RTVSPost2010PropOp33
 70
     1
102
RTVSPost2010Prop34
280
     0
102
RTVSPost2010PropOp34
 70
     1
102
RTVSPost2010Prop35
280
     0
102
RTVSPost2010PropOp35
 70
     1
102
RTVSPost2010Prop36
280
     0
102
RTVSPost2010PropOp36
 70
     1
102
RTVSPost2010Prop37
 90
       50
102
RTVSPost2010PropOp37
 70
     1
102
RTVSPost2010Prop38
140
0.0
102
RTVSPost2010PropOp38
 70
     1
102
RTVSPost2010Prop39
140
1.0
102
RTVSPost2010PropOp39
 70
     1
102
RTVSPost2010Prop40
 90
        0
102
RTVSPost2010PropOp40
 70
     1
102
RTVSPost2010Prop41ColorIndex
 90
       18
102
RTVSPost2010Prop41ColorRGB
 90
        0
102
RTVSPost2010PropOp41
 70
     1
102
RTVSPost2010Prop42
 90
       50
102
RTVSPost2010PropOp42
 70
     1
102
RTVSPost2010Prop43
 90
        3
102
RTVSPost2010PropOp43
 70
     1
102
RTVSPost2010Prop44ColorIndex
 90
        5
102
RTVSPost2010Prop44ColorRGB
 90
      255
102
RTVSPost2010PropOp44
 70
     1
102
RTVSPost2010Prop45
280
     0
102
RTVSPost2010PropOp45
 70
     1
102
RTVSPost2010Prop46
 90
       50
102
RTVSPost2010PropOp46
 70
     1
102
RTVSPost2010Prop47
 90
       50
102
RTVSPost2010PropOp47
 70
     1
102
RTVSPost2010Prop48
 90
       50
102
RTVSPost2010PropOp48
 70
     1
102
RTVSPost2010Prop49
280
     0
102
RTVSPost2010PropOp49
 70
     1
102
RTVSPost2010Prop50
 90
       50
102
RTVSPost2010PropOp50
 70
     1
102
RTVSPost2010Prop51ColorIndex
 90
      256
102
RTVSPost2010Prop51ColorRGB
 90
-16777216
102
RTVSPost2010PropOp51
 70
     0
102
RTVSPost2010Prop52
140
1.0
102
RTVSPost2010PropOp52
 70
     0
102
RTVSPost2010Prop53
 90
        2
102
RTVSPost2010PropOp53
 70
     1
102
RTVSPost2010Prop54
  1
strokes_ogs.tif
102
RTVSPost2010PropOp54
 70
     1
102
RTVSPost2010Prop55
280
     0
102
RTVSPost2010PropOp55
 70
     1
102
RTVSPost2010Prop56
140
1.0
102
RTVSPost2010PropOp56
 70
     1
102
RTVSPost2010Prop57
140
1.0
102
RTVSPost2010PropOp57
 70
     1
102
RTVSPropertyOp0
 70
     1
102
RTVSPropertyOp1
 70
     1
102
RTVSPropertyOp2
 70
     1
102
RTVSPropertyOp3
 70
     1
102
RTVSPropertyOp4
 70
     1
102
RTVSPropertyOp5
 70
     1
102
RTVSPropertyOp6
 70
     1
102
RTVSPropertyOp7
 70
     1
102
RTVSPropertyOp8
 70
     1
102
RTVSPropertyOp9
 70
     1
102
RTVSPropertyOp10
 70
     1
102
RTVSPropertyOp11
 70
     1
102
RTVSPropertyOp12
 70
     1
102
RTVSPropertyOp13
 70
     1
102
RTVSPropertyOp14
 70
     1
102
RTVSPropertyOp15
 70
     1
102
RTVSPropertyOp16
 70
     1
102
RTVSPropertyOp17
 70
     1
102
RTVSPropertyOp18
 70
     1
102
RTVSPropertyOp19
 70
     1
102
RTVSPropertyOp20
 70
     1
102
RTVSPropertyOp21
 70
     1
102
RTVSPropertyOp22
 70
     1
102
RTVSPropertyOp23
 70
     1
102
RTVSPropertyOp24
 70
     1
102
RTVSPropertyOp25
 70
     1
102
RTVSPropertyOp26
 70
     1
102
RTVSPropertyOp27
 70
     1
102
RTVSPropertyOp28
 70
     1
102
RTVSPropertyOp29
 70
     1
102
RTVSPropertyOp30
 70
     1
102
RTVSPropertyOp31
 70
     1
102
RTVSPropertyOp32
 70
     1
102
RTVSPropertyOp33
 70
     1
102
RTVSPropertyOp34
 70
     1
102
RTVSPropertyOp35
 70
     1
102
RTVSPropertyOp36
 70
     1
102
RTVSPropertyOp37
 70
     1
102
RTVSPropertyOp38
 70
     1
102
RTVSPropertyOp39
 70
     1
102
RTVSPropertyOp40
 70
     1
102
RTVSPropertyOp41
 70
     1
102
RTVSPropertyOp42
 70
     1
102
RTVSPropertyOp43
 70
     1
102
RTVSPropertyOp44
 70
     1
102
RTVSPropertyOp45
 70
     1
102
RTVSPropertyOp46
 70
     1
102
RTVSPropertyOp47
 70
     1
102
RTVSPropertyOp48
 70
     1
102
RTVSPropertyOp49
 70
     1
102
RTVSPropertyOp50
 70
     1
102
RTVSPropertyOp51
 70
     0
102
RTVSPropertyOp52
 70
     0
102
RTVSPropertyOp53
 70
     1
102
RTVSPropertyOp54
 70
     1
102
RTVSPropertyOp55
 70
     1
102
RTVSPropertyOp56
 70
     1
102
RTVSPropertyOp57
 70
     1
102
RTVSPropertyOp58
 70
     1
102
RTVSPropertyOp59
 70
     1
102
RTVSPropertyOp60
 70
     1
102
RTVSPropertyOp61
 70
     1
102
RTVSPropertyOp62
 70
     1
  0
XRECORD
  5
2458B
102
{ACAD_REACTORS
330
2458A
102
}
330
2458A
100
AcDbXrecord
280
     1
102
RTVSPost2010Prop28
280
     0
102
RTVSPost2010PropOp28
 70
     1
102
RTVSPost2010Prop29
280
     1
102
RTVSPost2010PropOp29
 70
     1
102
RTVSPost2010Prop30
280
     1
102
RTVSPost2010PropOp30
 70
     1
102
RTVSPost2010Prop31
280
     0
102
RTVSPost2010PropOp31
 70
     1
102
RTVSPost2010Prop32
280
     0
102
RTVSPost2010PropOp32
 70
     1
102
RTVSPost2010Prop33
280
     0
102
RTVSPost2010PropOp33
 70
     1
102
RTVSPost2010Prop34
280
     0
102
RTVSPost2010PropOp34
 70
     1
102
RTVSPost2010Prop35
280
     0
102
RTVSPost2010PropOp35
 70
     1
102
RTVSPost2010Prop36
280
     0
102
RTVSPost2010PropOp36
 70
     1
102
RTVSPost2010Prop37
 90
       50
102
RTVSPost2010PropOp37
 70
     1
102
RTVSPost2010Prop38
140
0.0
102
RTVSPost2010PropOp38
 70
     1
102
RTVSPost2010Prop39
140
1.0
102
RTVSPost2010PropOp39
 70
     1
102
RTVSPost2010Prop40
 90
        0
102
RTVSPost2010PropOp40
 70
     1
102
RTVSPost2010Prop41ColorIndex
 90
       18
102
RTVSPost2010Prop41ColorRGB
 90
        0
102
RTVSPost2010PropOp41
 70
     1
102
RTVSPost2010Prop42
 90
       50
102
RTVSPost2010PropOp42
 70
     1
102
RTVSPost2010Prop43
 90
        3
102
RTVSPost2010PropOp43
 70
     1
102
RTVSPost2010Prop44ColorIndex
 90
        5
102
RTVSPost2010Prop44ColorRGB
 90
      255
102
RTVSPost2010PropOp44
 70
     1
102
RTVSPost2010Prop45
280
     0
102
RTVSPost2010PropOp45
 70
     1
102
RTVSPost2010Prop46
 90
       50
102
RTVSPost2010PropOp46
 70
     1
102
RTVSPost2010Prop47
 90
       50
102
RTVSPost2010PropOp47
 70
     1
102
RTVSPost2010Prop48
 90
       50
102
RTVSPost2010PropOp48
 70
     1
102
RTVSPost2010Prop49
280
     0
102
RTVSPost2010PropOp49
 70
     1
102
RTVSPost2010Prop50
 90
       50
102
RTVSPost2010PropOp50
 70
     1
102
RTVSPost2010Prop51ColorIndex
 90
      256
102
RTVSPost2010Prop51ColorRGB
 90
-16777216
102
RTVSPost2010PropOp51
 70
     0
102
RTVSPost2010Prop52
140
1.0
102
RTVSPost2010PropOp52
 70
     0
102
RTVSPost2010Prop53
 90
        2
102
RTVSPost2010PropOp53
 70
     1
102
RTVSPost2010Prop54
  1
strokes_ogs.tif
102
RTVSPost2010PropOp54
 70
     1
102
RTVSPost2010Prop55
280
     0
102
RTVSPost2010PropOp55
 70
     1
102
RTVSPost2010Prop56
140
1.0
102
RTVSPost2010PropOp56
 70
     1
102
RTVSPost2010Prop57
140
1.0
102
RTVSPost2010PropOp57
 70
     1
102
RTVSPropertyOp0
 70
     1
102
RTVSPropertyOp1
 70
     1
102
RTVSPropertyOp2
 70
     1
102
RTVSPropertyOp3
 70
     1
102
RTVSPropertyOp4
 70
     1
102
RTVSPropertyOp5
 70
     1
102
RTVSPropertyOp6
 70
     1
102
RTVSPropertyOp7
 70
     1
102
RTVSPropertyOp8
 70
     1
102
RTVSPropertyOp9
 70
     1
102
RTVSPropertyOp10
 70
     1
102
RTVSPropertyOp11
 70
     1
102
RTVSPropertyOp12
 70
     1
102
RTVSPropertyOp13
 70
     1
102
RTVSPropertyOp14
 70
     1
102
RTVSPropertyOp15
 70
     1
102
RTVSPropertyOp16
 70
     1
102
RTVSPropertyOp17
 70
     1
102
RTVSPropertyOp18
 70
     1
102
RTVSPropertyOp19
 70
     1
102
RTVSPropertyOp20
 70
     1
102
RTVSPropertyOp21
 70
     1
102
RTVSPropertyOp22
 70
     1
102
RTVSPropertyOp23
 70
     1
102
RTVSPropertyOp24
 70
     1
102
RTVSPropertyOp25
 70
     1
102
RTVSPropertyOp26
 70
     1
102
RTVSPropertyOp27
 70
     1
102
RTVSPropertyOp28
 70
     1
102
RTVSPropertyOp29
 70
     1
102
RTVSPropertyOp30
 70
     1
102
RTVSPropertyOp31
 70
     1
102
RTVSPropertyOp32
 70
     1
102
RTVSPropertyOp33
 70
     1
102
RTVSPropertyOp34
 70
     1
102
RTVSPropertyOp35
 70
     1
102
RTVSPropertyOp36
 70
     1
102
RTVSPropertyOp37
 70
     1
102
RTVSPropertyOp38
 70
     1
102
RTVSPropertyOp39
 70
     1
102
RTVSPropertyOp40
 70
     1
102
RTVSPropertyOp41
 70
     1
102
RTVSPropertyOp42
 70
     1
102
RTVSPropertyOp43
 70
     1
102
RTVSPropertyOp44
 70
     1
102
RTVSPropertyOp45
 70
     1
102
RTVSPropertyOp46
 70
     1
102
RTVSPropertyOp47
 70
     1
102
RTVSPropertyOp48
 70
     1
102
RTVSPropertyOp49
 70
     1
102
RTVSPropertyOp50
 70
     1
102
RTVSPropertyOp51
 70
     0
102
RTVSPropertyOp52
 70
     0
102
RTVSPropertyOp53
 70
     1
102
RTVSPropertyOp54
 70
     1
102
RTVSPropertyOp55
 70
     1
102
RTVSPropertyOp56
 70
     1
102
RTVSPropertyOp57
 70
     1
102
RTVSPropertyOp58
 70
     1
102
RTVSPropertyOp59
 70
     1
102
RTVSPropertyOp60
 70
     1
102
RTVSPropertyOp61
 70
     1
102
RTVSPropertyOp62
 70
     1
  0
XRECORD
  5
24587
102
{ACAD_REACTORS
330
24586
102
}
330
24586
100
AcDbXrecord
280
     1
102
RTVSPost2010Prop28
280
     0
102
RTVSPost2010PropOp28
 70
     1
102
RTVSPost2010Prop29
280
     1
102
RTVSPost2010PropOp29
 70
     1
102
RTVSPost2010Prop30
280
     1
102
RTVSPost2010PropOp30
 70
     1
102
RTVSPost2010Prop31
280
     0
102
RTVSPost2010PropOp31
 70
     1
102
RTVSPost2010Prop32
280
     0
102
RTVSPost2010PropOp32
 70
     1
102
RTVSPost2010Prop33
280
     0
102
RTVSPost2010PropOp33
 70
     1
102
RTVSPost2010Prop34
280
     0
102
RTVSPost2010PropOp34
 70
     1
102
RTVSPost2010Prop35
280
     0
102
RTVSPost2010PropOp35
 70
     1
102
RTVSPost2010Prop36
280
     0
102
RTVSPost2010PropOp36
 70
     1
102
RTVSPost2010Prop37
 90
       50
102
RTVSPost2010PropOp37
 70
     1
102
RTVSPost2010Prop38
140
0.0
102
RTVSPost2010PropOp38
 70
     1
102
RTVSPost2010Prop39
140
1.0
102
RTVSPost2010PropOp39
 70
     1
102
RTVSPost2010Prop40
 90
        0
102
RTVSPost2010PropOp40
 70
     1
102
RTVSPost2010Prop41ColorIndex
 90
       18
102
RTVSPost2010Prop41ColorRGB
 90
        0
102
RTVSPost2010PropOp41
 70
     1
102
RTVSPost2010Prop42
 90
       50
102
RTVSPost2010PropOp42
 70
     1
102
RTVSPost2010Prop43
 90
        3
102
RTVSPost2010PropOp43
 70
     1
102
RTVSPost2010Prop44ColorIndex
 90
        5
102
RTVSPost2010Prop44ColorRGB
 90
      255
102
RTVSPost2010PropOp44
 70
     1
102
RTVSPost2010Prop45
280
     0
102
RTVSPost2010PropOp45
 70
     1
102
RTVSPost2010Prop46
 90
       50
102
RTVSPost2010PropOp46
 70
     1
102
RTVSPost2010Prop47
 90
       50
102
RTVSPost2010PropOp47
 70
     1
102
RTVSPost2010Prop48
 90
       50
102
RTVSPost2010PropOp48
 70
     1
102
RTVSPost2010Prop49
280
     0
102
RTVSPost2010PropOp49
 70
     1
102
RTVSPost2010Prop50
 90
       50
102
RTVSPost2010PropOp50
 70
     1
102
RTVSPost2010Prop51ColorIndex
 90
      256
102
RTVSPost2010Prop51ColorRGB
 90
-16777216
102
RTVSPost2010PropOp51
 70
     0
102
RTVSPost2010Prop52
140
1.0
102
RTVSPost2010PropOp52
 70
     0
102
RTVSPost2010Prop53
 90
        2
102
RTVSPost2010PropOp53
 70
     1
102
RTVSPost2010Prop54
  1
strokes_ogs.tif
102
RTVSPost2010PropOp54
 70
     1
102
RTVSPost2010Prop55
280
     0
102
RTVSPost2010PropOp55
 70
     1
102
RTVSPost2010Prop56
140
1.0
102
RTVSPost2010PropOp56
 70
     1
102
RTVSPost2010Prop57
140
1.0
102
RTVSPost2010PropOp57
 70
     1
102
RTVSPropertyOp0
 70
     1
102
RTVSPropertyOp1
 70
     1
102
RTVSPropertyOp2
 70
     1
102
RTVSPropertyOp3
 70
     1
102
RTVSPropertyOp4
 70
     1
102
RTVSPropertyOp5
 70
     1
102
RTVSPropertyOp6
 70
     1
102
RTVSPropertyOp7
 70
     1
102
RTVSPropertyOp8
 70
     1
102
RTVSPropertyOp9
 70
     1
102
RTVSPropertyOp10
 70
     1
102
RTVSPropertyOp11
 70
     1
102
RTVSPropertyOp12
 70
     1
102
RTVSPropertyOp13
 70
     1
102
RTVSPropertyOp14
 70
     1
102
RTVSPropertyOp15
 70
     1
102
RTVSPropertyOp16
 70
     1
102
RTVSPropertyOp17
 70
     1
102
RTVSPropertyOp18
 70
     1
102
RTVSPropertyOp19
 70
     1
102
RTVSPropertyOp20
 70
     1
102
RTVSPropertyOp21
 70
     1
102
RTVSPropertyOp22
 70
     1
102
RTVSPropertyOp23
 70
     1
102
RTVSPropertyOp24
 70
     1
102
RTVSPropertyOp25
 70
     1
102
RTVSPropertyOp26
 70
     1
102
RTVSPropertyOp27
 70
     1
102
RTVSPropertyOp28
 70
     1
102
RTVSPropertyOp29
 70
     1
102
RTVSPropertyOp30
 70
     1
102
RTVSPropertyOp31
 70
     1
102
RTVSPropertyOp32
 70
     1
102
RTVSPropertyOp33
 70
     1
102
RTVSPropertyOp34
 70
     1
102
RTVSPropertyOp35
 70
     1
102
RTVSPropertyOp36
 70
     1
102
RTVSPropertyOp37
 70
     1
102
RTVSPropertyOp38
 70
     1
102
RTVSPropertyOp39
 70
     1
102
RTVSPropertyOp40
 70
     1
102
RTVSPropertyOp41
 70
     1
102
RTVSPropertyOp42
 70
     1
102
RTVSPropertyOp43
 70
     1
102
RTVSPropertyOp44
 70
     1
102
RTVSPropertyOp45
 70
     1
102
RTVSPropertyOp46
 70
     1
102
RTVSPropertyOp47
 70
     1
102
RTVSPropertyOp48
 70
     1
102
RTVSPropertyOp49
 70
     1
102
RTVSPropertyOp50
 70
     1
102
RTVSPropertyOp51
 70
     0
102
RTVSPropertyOp52
 70
     0
102
RTVSPropertyOp53
 70
     1
102
RTVSPropertyOp54
 70
     1
102
RTVSPropertyOp55
 70
     1
102
RTVSPropertyOp56
 70
     1
102
RTVSPropertyOp57
 70
     1
102
RTVSPropertyOp58
 70
     1
102
RTVSPropertyOp59
 70
     1
102
RTVSPropertyOp60
 70
     1
102
RTVSPropertyOp61
 70
     1
102
RTVSPropertyOp62
 70
     1
  0
XRECORD
  5
24595
102
{ACAD_REACTORS
330
24594
102
}
330
24594
100
AcDbXrecord
280
     1
102
RTVSPost2010Prop28
280
     0
102
RTVSPost2010PropOp28
 70
     1
102
RTVSPost2010Prop29
280
     1
102
RTVSPost2010PropOp29
 70
     1
102
RTVSPost2010Prop30
280
     1
102
RTVSPost2010PropOp30
 70
     1
102
RTVSPost2010Prop31
280
     0
102
RTVSPost2010PropOp31
 70
     1
102
RTVSPost2010Prop32
280
     0
102
RTVSPost2010PropOp32
 70
     1
102
RTVSPost2010Prop33
280
     0
102
RTVSPost2010PropOp33
 70
     1
102
RTVSPost2010Prop34
280
     0
102
RTVSPost2010PropOp34
 70
     1
102
RTVSPost2010Prop35
280
     0
102
RTVSPost2010PropOp35
 70
     1
102
RTVSPost2010Prop36
280
     0
102
RTVSPost2010PropOp36
 70
     1
102
RTVSPost2010Prop37
 90
       50
102
RTVSPost2010PropOp37
 70
     1
102
RTVSPost2010Prop38
140
0.0
102
RTVSPost2010PropOp38
 70
     1
102
RTVSPost2010Prop39
140
1.0
102
RTVSPost2010PropOp39
 70
     1
102
RTVSPost2010Prop40
 90
        0
102
RTVSPost2010PropOp40
 70
     1
102
RTVSPost2010Prop41ColorIndex
 90
       18
102
RTVSPost2010Prop41ColorRGB
 90
        0
102
RTVSPost2010PropOp41
 70
     1
102
RTVSPost2010Prop42
 90
       50
102
RTVSPost2010PropOp42
 70
     1
102
RTVSPost2010Prop43
 90
        3
102
RTVSPost2010PropOp43
 70
     1
102
RTVSPost2010Prop44ColorIndex
 90
        5
102
RTVSPost2010Prop44ColorRGB
 90
      255
102
RTVSPost2010PropOp44
 70
     1
102
RTVSPost2010Prop45
280
     0
102
RTVSPost2010PropOp45
 70
     1
102
RTVSPost2010Prop46
 90
       50
102
RTVSPost2010PropOp46
 70
     1
102
RTVSPost2010Prop47
 90
       50
102
RTVSPost2010PropOp47
 70
     1
102
RTVSPost2010Prop48
 90
       50
102
RTVSPost2010PropOp48
 70
     1
102
RTVSPost2010Prop49
280
     0
102
RTVSPost2010PropOp49
 70
     1
102
RTVSPost2010Prop50
 90
       50
102
RTVSPost2010PropOp50
 70
     1
102
RTVSPost2010Prop51ColorIndex
 90
      256
102
RTVSPost2010Prop51ColorRGB
 90
-16777216
102
RTVSPost2010PropOp51
 70
     0
102
RTVSPost2010Prop52
140
1.0
102
RTVSPost2010PropOp52
 70
     0
102
RTVSPost2010Prop53
 90
        2
102
RTVSPost2010PropOp53
 70
     1
102
RTVSPost2010Prop54
  1
strokes_ogs.tif
102
RTVSPost2010PropOp54
 70
     1
102
RTVSPost2010Prop55
280
     0
102
RTVSPost2010PropOp55
 70
     1
102
RTVSPost2010Prop56
140
1.0
102
RTVSPost2010PropOp56
 70
     1
102
RTVSPost2010Prop57
140
1.0
102
RTVSPost2010PropOp57
 70
     1
102
RTVSPropertyOp0
 70
     1
102
RTVSPropertyOp1
 70
     1
102
RTVSPropertyOp2
 70
     1
102
RTVSPropertyOp3
 70
     1
102
RTVSPropertyOp4
 70
     1
102
RTVSPropertyOp5
 70
     1
102
RTVSPropertyOp6
 70
     1
102
RTVSPropertyOp7
 70
     1
102
RTVSPropertyOp8
 70
     1
102
RTVSPropertyOp9
 70
     1
102
RTVSPropertyOp10
 70
     1
102
RTVSPropertyOp11
 70
     1
102
RTVSPropertyOp12
 70
     1
102
RTVSPropertyOp13
 70
     1
102
RTVSPropertyOp14
 70
     1
102
RTVSPropertyOp15
 70
     1
102
RTVSPropertyOp16
 70
     1
102
RTVSPropertyOp17
 70
     1
102
RTVSPropertyOp18
 70
     1
102
RTVSPropertyOp19
 70
     1
102
RTVSPropertyOp20
 70
     1
102
RTVSPropertyOp21
 70
     1
102
RTVSPropertyOp22
 70
     1
102
RTVSPropertyOp23
 70
     1
102
RTVSPropertyOp24
 70
     1
102
RTVSPropertyOp25
 70
     1
102
RTVSPropertyOp26
 70
     1
102
RTVSPropertyOp27
 70
     1
102
RTVSPropertyOp28
 70
     1
102
RTVSPropertyOp29
 70
     1
102
RTVSPropertyOp30
 70
     1
102
RTVSPropertyOp31
 70
     1
102
RTVSPropertyOp32
 70
     1
102
RTVSPropertyOp33
 70
     1
102
RTVSPropertyOp34
 70
     1
102
RTVSPropertyOp35
 70
     1
102
RTVSPropertyOp36
 70
     1
102
RTVSPropertyOp37
 70
     1
102
RTVSPropertyOp38
 70
     1
102
RTVSPropertyOp39
 70
     1
102
RTVSPropertyOp40
 70
     1
102
RTVSPropertyOp41
 70
     1
102
RTVSPropertyOp42
 70
     1
102
RTVSPropertyOp43
 70
     1
102
RTVSPropertyOp44
 70
     1
102
RTVSPropertyOp45
 70
     1
102
RTVSPropertyOp46
 70
     1
102
RTVSPropertyOp47
 70
     1
102
RTVSPropertyOp48
 70
     1
102
RTVSPropertyOp49
 70
     1
102
RTVSPropertyOp50
 70
     1
102
RTVSPropertyOp51
 70
     0
102
RTVSPropertyOp52
 70
     0
102
RTVSPropertyOp53
 70
     1
102
RTVSPropertyOp54
 70
     1
102
RTVSPropertyOp55
 70
     1
102
RTVSPropertyOp56
 70
     1
102
RTVSPropertyOp57
 70
     1
102
RTVSPropertyOp58
 70
     1
102
RTVSPropertyOp59
 70
     1
102
RTVSPropertyOp60
 70
     1
102
RTVSPropertyOp61
 70
     1
102
RTVSPropertyOp62
 70
     1
  0
XRECORD
  5
2459D
102
{ACAD_REACTORS
330
2459C
102
}
330
2459C
100
AcDbXrecord
280
     1
102
RTVSPost2010Prop28
280
     0
102
RTVSPost2010PropOp28
 70
     1
102
RTVSPost2010Prop29
280
     1
102
RTVSPost2010PropOp29
 70
     1
102
RTVSPost2010Prop30
280
     1
102
RTVSPost2010PropOp30
 70
     1
102
RTVSPost2010Prop31
280
     0
102
RTVSPost2010PropOp31
 70
     1
102
RTVSPost2010Prop32
280
     0
102
RTVSPost2010PropOp32
 70
     1
102
RTVSPost2010Prop33
280
     0
102
RTVSPost2010PropOp33
 70
     1
102
RTVSPost2010Prop34
280
     0
102
RTVSPost2010PropOp34
 70
     1
102
RTVSPost2010Prop35
280
     0
102
RTVSPost2010PropOp35
 70
     1
102
RTVSPost2010Prop36
280
     0
102
RTVSPost2010PropOp36
 70
     1
102
RTVSPost2010Prop37
 90
       50
102
RTVSPost2010PropOp37
 70
     1
102
RTVSPost2010Prop38
140
0.0
102
RTVSPost2010PropOp38
 70
     1
102
RTVSPost2010Prop39
140
1.0
102
RTVSPost2010PropOp39
 70
     1
102
RTVSPost2010Prop40
 90
        0
102
RTVSPost2010PropOp40
 70
     1
102
RTVSPost2010Prop41ColorIndex
 90
       18
102
RTVSPost2010Prop41ColorRGB
 90
        0
102
RTVSPost2010PropOp41
 70
     1
102
RTVSPost2010Prop42
 90
       50
102
RTVSPost2010PropOp42
 70
     1
102
RTVSPost2010Prop43
 90
        3
102
RTVSPost2010PropOp43
 70
     1
102
RTVSPost2010Prop44ColorIndex
 90
        5
102
RTVSPost2010Prop44ColorRGB
 90
      255
102
RTVSPost2010PropOp44
 70
     1
102
RTVSPost2010Prop45
280
     0
102
RTVSPost2010PropOp45
 70
     1
102
RTVSPost2010Prop46
 90
       50
102
RTVSPost2010PropOp46
 70
     1
102
RTVSPost2010Prop47
 90
       50
102
RTVSPost2010PropOp47
 70
     1
102
RTVSPost2010Prop48
 90
       50
102
RTVSPost2010PropOp48
 70
     1
102
RTVSPost2010Prop49
280
     0
102
RTVSPost2010PropOp49
 70
     1
102
RTVSPost2010Prop50
 90
       50
102
RTVSPost2010PropOp50
 70
     1
102
RTVSPost2010Prop51ColorIndex
 90
      256
102
RTVSPost2010Prop51ColorRGB
 90
-16777216
102
RTVSPost2010PropOp51
 70
     0
102
RTVSPost2010Prop52
140
1.0
102
RTVSPost2010PropOp52
 70
     0
102
RTVSPost2010Prop53
 90
        2
102
RTVSPost2010PropOp53
 70
     1
102
RTVSPost2010Prop54
  1
strokes_ogs.tif
102
RTVSPost2010PropOp54
 70
     1
102
RTVSPost2010Prop55
280
     0
102
RTVSPost2010PropOp55
 70
     1
102
RTVSPost2010Prop56
140
1.0
102
RTVSPost2010PropOp56
 70
     1
102
RTVSPost2010Prop57
140
1.0
102
RTVSPost2010PropOp57
 70
     1
102
RTVSPropertyOp0
 70
     1
102
RTVSPropertyOp1
 70
     1
102
RTVSPropertyOp2
 70
     1
102
RTVSPropertyOp3
 70
     1
102
RTVSPropertyOp4
 70
     1
102
RTVSPropertyOp5
 70
     1
102
RTVSPropertyOp6
 70
     1
102
RTVSPropertyOp7
 70
     1
102
RTVSPropertyOp8
 70
     1
102
RTVSPropertyOp9
 70
     1
102
RTVSPropertyOp10
 70
     1
102
RTVSPropertyOp11
 70
     1
102
RTVSPropertyOp12
 70
     1
102
RTVSPropertyOp13
 70
     1
102
RTVSPropertyOp14
 70
     1
102
RTVSPropertyOp15
 70
     1
102
RTVSPropertyOp16
 70
     1
102
RTVSPropertyOp17
 70
     1
102
RTVSPropertyOp18
 70
     1
102
RTVSPropertyOp19
 70
     1
102
RTVSPropertyOp20
 70
     1
102
RTVSPropertyOp21
 70
     1
102
RTVSPropertyOp22
 70
     1
102
RTVSPropertyOp23
 70
     1
102
RTVSPropertyOp24
 70
     1
102
RTVSPropertyOp25
 70
     1
102
RTVSPropertyOp26
 70
     1
102
RTVSPropertyOp27
 70
     1
102
RTVSPropertyOp28
 70
     1
102
RTVSPropertyOp29
 70
     1
102
RTVSPropertyOp30
 70
     1
102
RTVSPropertyOp31
 70
     1
102
RTVSPropertyOp32
 70
     1
102
RTVSPropertyOp33
 70
     1
102
RTVSPropertyOp34
 70
     1
102
RTVSPropertyOp35
 70
     1
102
RTVSPropertyOp36
 70
     1
102
RTVSPropertyOp37
 70
     1
102
RTVSPropertyOp38
 70
     1
102
RTVSPropertyOp39
 70
     1
102
RTVSPropertyOp40
 70
     1
102
RTVSPropertyOp41
 70
     1
102
RTVSPropertyOp42
 70
     1
102
RTVSPropertyOp43
 70
     1
102
RTVSPropertyOp44
 70
     1
102
RTVSPropertyOp45
 70
     1
102
RTVSPropertyOp46
 70
     1
102
RTVSPropertyOp47
 70
     1
102
RTVSPropertyOp48
 70
     1
102
RTVSPropertyOp49
 70
     1
102
RTVSPropertyOp50
 70
     1
102
RTVSPropertyOp51
 70
     0
102
RTVSPropertyOp52
 70
     0
102
RTVSPropertyOp53
 70
     1
102
RTVSPropertyOp54
 70
     1
102
RTVSPropertyOp55
 70
     1
102
RTVSPropertyOp56
 70
     1
102
RTVSPropertyOp57
 70
     1
102
RTVSPropertyOp58
 70
     1
102
RTVSPropertyOp59
 70
     1
102
RTVSPropertyOp60
 70
     1
102
RTVSPropertyOp61
 70
     1
102
RTVSPropertyOp62
 70
     1
  0
XRECORD
  5
2458F
102
{ACAD_REACTORS
330
2458E
102
}
330
2458E
100
AcDbXrecord
280
     1
102
RTVSPost2010Prop28
280
     0
102
RTVSPost2010PropOp28
 70
     1
102
RTVSPost2010Prop29
280
     1
102
RTVSPost2010PropOp29
 70
     1
102
RTVSPost2010Prop30
280
     1
102
RTVSPost2010PropOp30
 70
     1
102
RTVSPost2010Prop31
280
     0
102
RTVSPost2010PropOp31
 70
     1
102
RTVSPost2010Prop32
280
     0
102
RTVSPost2010PropOp32
 70
     1
102
RTVSPost2010Prop33
280
     0
102
RTVSPost2010PropOp33
 70
     1
102
RTVSPost2010Prop34
280
     0
102
RTVSPost2010PropOp34
 70
     1
102
RTVSPost2010Prop35
280
     0
102
RTVSPost2010PropOp35
 70
     1
102
RTVSPost2010Prop36
280
     0
102
RTVSPost2010PropOp36
 70
     1
102
RTVSPost2010Prop37
 90
       50
102
RTVSPost2010PropOp37
 70
     1
102
RTVSPost2010Prop38
140
0.0
102
RTVSPost2010PropOp38
 70
     1
102
RTVSPost2010Prop39
140
1.0
102
RTVSPost2010PropOp39
 70
     1
102
RTVSPost2010Prop40
 90
        0
102
RTVSPost2010PropOp40
 70
     1
102
RTVSPost2010Prop41ColorIndex
 90
       18
102
RTVSPost2010Prop41ColorRGB
 90
        0
102
RTVSPost2010PropOp41
 70
     1
102
RTVSPost2010Prop42
 90
       50
102
RTVSPost2010PropOp42
 70
     1
102
RTVSPost2010Prop43
 90
        3
102
RTVSPost2010PropOp43
 70
     1
102
RTVSPost2010Prop44ColorIndex
 90
        5
102
RTVSPost2010Prop44ColorRGB
 90
      255
102
RTVSPost2010PropOp44
 70
     1
102
RTVSPost2010Prop45
280
     0
102
RTVSPost2010PropOp45
 70
     1
102
RTVSPost2010Prop46
 90
       50
102
RTVSPost2010PropOp46
 70
     1
102
RTVSPost2010Prop47
 90
       50
102
RTVSPost2010PropOp47
 70
     1
102
RTVSPost2010Prop48
 90
       50
102
RTVSPost2010PropOp48
 70
     1
102
RTVSPost2010Prop49
280
     0
102
RTVSPost2010PropOp49
 70
     1
102
RTVSPost2010Prop50
 90
       50
102
RTVSPost2010PropOp50
 70
     1
102
RTVSPost2010Prop51ColorIndex
 90
      256
102
RTVSPost2010Prop51ColorRGB
 90
-16777216
102
RTVSPost2010PropOp51
 70
     0
102
RTVSPost2010Prop52
140
1.0
102
RTVSPost2010PropOp52
 70
     0
102
RTVSPost2010Prop53
 90
        2
102
RTVSPost2010PropOp53
 70
     1
102
RTVSPost2010Prop54
  1
strokes_ogs.tif
102
RTVSPost2010PropOp54
 70
     1
102
RTVSPost2010Prop55
280
     0
102
RTVSPost2010PropOp55
 70
     1
102
RTVSPost2010Prop56
140
1.0
102
RTVSPost2010PropOp56
 70
     1
102
RTVSPost2010Prop57
140
1.0
102
RTVSPost2010PropOp57
 70
     1
102
RTVSPropertyOp0
 70
     1
102
RTVSPropertyOp1
 70
     1
102
RTVSPropertyOp2
 70
     1
102
RTVSPropertyOp3
 70
     1
102
RTVSPropertyOp4
 70
     1
102
RTVSPropertyOp5
 70
     1
102
RTVSPropertyOp6
 70
     1
102
RTVSPropertyOp7
 70
     1
102
RTVSPropertyOp8
 70
     1
102
RTVSPropertyOp9
 70
     1
102
RTVSPropertyOp10
 70
     1
102
RTVSPropertyOp11
 70
     1
102
RTVSPropertyOp12
 70
     1
102
RTVSPropertyOp13
 70
     1
102
RTVSPropertyOp14
 70
     1
102
RTVSPropertyOp15
 70
     1
102
RTVSPropertyOp16
 70
     1
102
RTVSPropertyOp17
 70
     1
102
RTVSPropertyOp18
 70
     1
102
RTVSPropertyOp19
 70
     1
102
RTVSPropertyOp20
 70
     1
102
RTVSPropertyOp21
 70
     1
102
RTVSPropertyOp22
 70
     1
102
RTVSPropertyOp23
 70
     1
102
RTVSPropertyOp24
 70
     1
102
RTVSPropertyOp25
 70
     1
102
RTVSPropertyOp26
 70
     1
102
RTVSPropertyOp27
 70
     1
102
RTVSPropertyOp28
 70
     1
102
RTVSPropertyOp29
 70
     1
102
RTVSPropertyOp30
 70
     1
102
RTVSPropertyOp31
 70
     1
102
RTVSPropertyOp32
 70
     1
102
RTVSPropertyOp33
 70
     1
102
RTVSPropertyOp34
 70
     1
102
RTVSPropertyOp35
 70
     1
102
RTVSPropertyOp36
 70
     1
102
RTVSPropertyOp37
 70
     1
102
RTVSPropertyOp38
 70
     1
102
RTVSPropertyOp39
 70
     1
102
RTVSPropertyOp40
 70
     1
102
RTVSPropertyOp41
 70
     1
102
RTVSPropertyOp42
 70
     1
102
RTVSPropertyOp43
 70
     1
102
RTVSPropertyOp44
 70
     1
102
RTVSPropertyOp45
 70
     1
102
RTVSPropertyOp46
 70
     1
102
RTVSPropertyOp47
 70
     1
102
RTVSPropertyOp48
 70
     1
102
RTVSPropertyOp49
 70
     1
102
RTVSPropertyOp50
 70
     1
102
RTVSPropertyOp51
 70
     0
102
RTVSPropertyOp52
 70
     0
102
RTVSPropertyOp53
 70
     1
102
RTVSPropertyOp54
 70
     1
102
RTVSPropertyOp55
 70
     1
102
RTVSPropertyOp56
 70
     1
102
RTVSPropertyOp57
 70
     1
102
RTVSPropertyOp58
 70
     1
102
RTVSPropertyOp59
 70
     1
102
RTVSPropertyOp60
 70
     1
102
RTVSPropertyOp61
 70
     1
102
RTVSPropertyOp62
 70
     1
  0
XRECORD
  5
24593
102
{ACAD_REACTORS
330
24592
102
}
330
24592
100
AcDbXrecord
280
     1
102
RTVSPost2010Prop28
280
     0
102
RTVSPost2010PropOp28
 70
     1
102
RTVSPost2010Prop29
280
     1
102
RTVSPost2010PropOp29
 70
     1
102
RTVSPost2010Prop30
280
     1
102
RTVSPost2010PropOp30
 70
     1
102
RTVSPost2010Prop31
280
     0
102
RTVSPost2010PropOp31
 70
     1
102
RTVSPost2010Prop32
280
     0
102
RTVSPost2010PropOp32
 70
     1
102
RTVSPost2010Prop33
280
     0
102
RTVSPost2010PropOp33
 70
     1
102
RTVSPost2010Prop34
280
     0
102
RTVSPost2010PropOp34
 70
     1
102
RTVSPost2010Prop35
280
     0
102
RTVSPost2010PropOp35
 70
     1
102
RTVSPost2010Prop36
280
     0
102
RTVSPost2010PropOp36
 70
     1
102
RTVSPost2010Prop37
 90
       50
102
RTVSPost2010PropOp37
 70
     1
102
RTVSPost2010Prop38
140
0.0
102
RTVSPost2010PropOp38
 70
     1
102
RTVSPost2010Prop39
140
1.0
102
RTVSPost2010PropOp39
 70
     1
102
RTVSPost2010Prop40
 90
        0
102
RTVSPost2010PropOp40
 70
     1
102
RTVSPost2010Prop41ColorIndex
 90
       18
102
RTVSPost2010Prop41ColorRGB
 90
        0
102
RTVSPost2010PropOp41
 70
     1
102
RTVSPost2010Prop42
 90
       50
102
RTVSPost2010PropOp42
 70
     1
102
RTVSPost2010Prop43
 90
        3
102
RTVSPost2010PropOp43
 70
     1
102
RTVSPost2010Prop44ColorIndex
 90
        5
102
RTVSPost2010Prop44ColorRGB
 90
      255
102
RTVSPost2010PropOp44
 70
     1
102
RTVSPost2010Prop45
280
     0
102
RTVSPost2010PropOp45
 70
     1
102
RTVSPost2010Prop46
 90
       50
102
RTVSPost2010PropOp46
 70
     1
102
RTVSPost2010Prop47
 90
       50
102
RTVSPost2010PropOp47
 70
     1
102
RTVSPost2010Prop48
 90
       50
102
RTVSPost2010PropOp48
 70
     1
102
RTVSPost2010Prop49
280
     0
102
RTVSPost2010PropOp49
 70
     1
102
RTVSPost2010Prop50
 90
       50
102
RTVSPost2010PropOp50
 70
     1
102
RTVSPost2010Prop51ColorIndex
 90
      256
102
RTVSPost2010Prop51ColorRGB
 90
-16777216
102
RTVSPost2010PropOp51
 70
     0
102
RTVSPost2010Prop52
140
1.0
102
RTVSPost2010PropOp52
 70
     0
102
RTVSPost2010Prop53
 90
        2
102
RTVSPost2010PropOp53
 70
     1
102
RTVSPost2010Prop54
  1
strokes_ogs.tif
102
RTVSPost2010PropOp54
 70
     1
102
RTVSPost2010Prop55
280
     0
102
RTVSPost2010PropOp55
 70
     1
102
RTVSPost2010Prop56
140
1.0
102
RTVSPost2010PropOp56
 70
     1
102
RTVSPost2010Prop57
140
1.0
102
RTVSPost2010PropOp57
 70
     1
102
RTVSPropertyOp0
 70
     1
102
RTVSPropertyOp1
 70
     1
102
RTVSPropertyOp2
 70
     1
102
RTVSPropertyOp3
 70
     1
102
RTVSPropertyOp4
 70
     1
102
RTVSPropertyOp5
 70
     1
102
RTVSPropertyOp6
 70
     1
102
RTVSPropertyOp7
 70
     1
102
RTVSPropertyOp8
 70
     1
102
RTVSPropertyOp9
 70
     1
102
RTVSPropertyOp10
 70
     1
102
RTVSPropertyOp11
 70
     1
102
RTVSPropertyOp12
 70
     1
102
RTVSPropertyOp13
 70
     1
102
RTVSPropertyOp14
 70
     1
102
RTVSPropertyOp15
 70
     1
102
RTVSPropertyOp16
 70
     1
102
RTVSPropertyOp17
 70
     1
102
RTVSPropertyOp18
 70
     1
102
RTVSPropertyOp19
 70
     1
102
RTVSPropertyOp20
 70
     1
102
RTVSPropertyOp21
 70
     1
102
RTVSPropertyOp22
 70
     1
102
RTVSPropertyOp23
 70
     1
102
RTVSPropertyOp24
 70
     1
102
RTVSPropertyOp25
 70
     1
102
RTVSPropertyOp26
 70
     1
102
RTVSPropertyOp27
 70
     1
102
RTVSPropertyOp28
 70
     1
102
RTVSPropertyOp29
 70
     1
102
RTVSPropertyOp30
 70
     1
102
RTVSPropertyOp31
 70
     1
102
RTVSPropertyOp32
 70
     1
102
RTVSPropertyOp33
 70
     1
102
RTVSPropertyOp34
 70
     1
102
RTVSPropertyOp35
 70
     1
102
RTVSPropertyOp36
 70
     1
102
RTVSPropertyOp37
 70
     1
102
RTVSPropertyOp38
 70
     1
102
RTVSPropertyOp39
 70
     1
102
RTVSPropertyOp40
 70
     1
102
RTVSPropertyOp41
 70
     1
102
RTVSPropertyOp42
 70
     1
102
RTVSPropertyOp43
 70
     1
102
RTVSPropertyOp44
 70
     1
102
RTVSPropertyOp45
 70
     1
102
RTVSPropertyOp46
 70
     1
102
RTVSPropertyOp47
 70
     1
102
RTVSPropertyOp48
 70
     1
102
RTVSPropertyOp49
 70
     1
102
RTVSPropertyOp50
 70
     1
102
RTVSPropertyOp51
 70
     0
102
RTVSPropertyOp52
 70
     0
102
RTVSPropertyOp53
 70
     1
102
RTVSPropertyOp54
 70
     1
102
RTVSPropertyOp55
 70
     1
102
RTVSPropertyOp56
 70
     1
102
RTVSPropertyOp57
 70
     1
102
RTVSPropertyOp58
 70
     1
102
RTVSPropertyOp59
 70
     1
102
RTVSPropertyOp60
 70
     1
102
RTVSPropertyOp61
 70
     1
102
RTVSPropertyOp62
 70
     1
  0
XRECORD
  5
245A3
102
{ACAD_REACTORS
330
245A2
102
}
330
245A2
100
AcDbXrecord
280
     1
102
RTVSPost2010Prop28
280
     0
102
RTVSPost2010PropOp28
 70
     1
102
RTVSPost2010Prop29
280
     1
102
RTVSPost2010PropOp29
 70
     1
102
RTVSPost2010Prop30
280
     1
102
RTVSPost2010PropOp30
 70
     1
102
RTVSPost2010Prop31
280
     0
102
RTVSPost2010PropOp31
 70
     1
102
RTVSPost2010Prop32
280
     0
102
RTVSPost2010PropOp32
 70
     1
102
RTVSPost2010Prop33
280
     0
102
RTVSPost2010PropOp33
 70
     1
102
RTVSPost2010Prop34
280
     0
102
RTVSPost2010PropOp34
 70
     1
102
RTVSPost2010Prop35
280
     0
102
RTVSPost2010PropOp35
 70
     1
102
RTVSPost2010Prop36
280
     0
102
RTVSPost2010PropOp36
 70
     1
102
RTVSPost2010Prop37
 90
       50
102
RTVSPost2010PropOp37
 70
     1
102
RTVSPost2010Prop38
140
0.0
102
RTVSPost2010PropOp38
 70
     1
102
RTVSPost2010Prop39
140
1.0
102
RTVSPost2010PropOp39
 70
     1
102
RTVSPost2010Prop40
 90
        0
102
RTVSPost2010PropOp40
 70
     1
102
RTVSPost2010Prop41ColorIndex
 90
       18
102
RTVSPost2010Prop41ColorRGB
 90
        0
102
RTVSPost2010PropOp41
 70
     1
102
RTVSPost2010Prop42
 90
       50
102
RTVSPost2010PropOp42
 70
     1
102
RTVSPost2010Prop43
 90
        3
102
RTVSPost2010PropOp43
 70
     1
102
RTVSPost2010Prop44ColorIndex
 90
        5
102
RTVSPost2010Prop44ColorRGB
 90
      255
102
RTVSPost2010PropOp44
 70
     1
102
RTVSPost2010Prop45
280
     0
102
RTVSPost2010PropOp45
 70
     1
102
RTVSPost2010Prop46
 90
       50
102
RTVSPost2010PropOp46
 70
     1
102
RTVSPost2010Prop47
 90
       50
102
RTVSPost2010PropOp47
 70
     1
102
RTVSPost2010Prop48
 90
       50
102
RTVSPost2010PropOp48
 70
     1
102
RTVSPost2010Prop49
280
     0
102
RTVSPost2010PropOp49
 70
     1
102
RTVSPost2010Prop50
 90
       50
102
RTVSPost2010PropOp50
 70
     1
102
RTVSPost2010Prop51ColorIndex
 90
      256
102
RTVSPost2010Prop51ColorRGB
 90
-16777216
102
RTVSPost2010PropOp51
 70
     0
102
RTVSPost2010Prop52
140
1.0
102
RTVSPost2010PropOp52
 70
     0
102
RTVSPost2010Prop53
 90
        2
102
RTVSPost2010PropOp53
 70
     1
102
RTVSPost2010Prop54
  1
strokes_ogs.tif
102
RTVSPost2010PropOp54
 70
     1
102
RTVSPost2010Prop55
280
     0
102
RTVSPost2010PropOp55
 70
     1
102
RTVSPost2010Prop56
140
1.0
102
RTVSPost2010PropOp56
 70
     1
102
RTVSPost2010Prop57
140
1.0
102
RTVSPost2010PropOp57
 70
     1
102
RTVSPropertyOp0
 70
     0
102
RTVSPropertyOp1
 70
     0
102
RTVSPropertyOp2
 70
     0
102
RTVSPropertyOp3
 70
     0
102
RTVSPropertyOp4
 70
     0
102
RTVSPropertyOp5
 70
     0
102
RTVSPropertyOp6
 70
     0
102
RTVSPropertyOp7
 70
     0
102
RTVSPropertyOp8
 70
     0
102
RTVSPropertyOp9
 70
     0
102
RTVSPropertyOp10
 70
     0
102
RTVSPropertyOp11
 70
     0
102
RTVSPropertyOp12
 70
     0
102
RTVSPropertyOp13
 70
     0
102
RTVSPropertyOp14
 70
     2
102
RTVSPropertyOp15
 70
     0
102
RTVSPropertyOp16
 70
     0
102
RTVSPropertyOp17
 70
     0
102
RTVSPropertyOp18
 70
     0
102
RTVSPropertyOp19
 70
     0
102
RTVSPropertyOp20
 70
     0
102
RTVSPropertyOp21
 70
     0
102
RTVSPropertyOp22
 70
     0
102
RTVSPropertyOp23
 70
     0
102
RTVSPropertyOp24
 70
     0
102
RTVSPropertyOp25
 70
     0
102
RTVSPropertyOp26
 70
     0
102
RTVSPropertyOp27
 70
     0
102
RTVSPropertyOp28
 70
     1
102
RTVSPropertyOp29
 70
     1
102
RTVSPropertyOp30
 70
     1
102
RTVSPropertyOp31
 70
     1
102
RTVSPropertyOp32
 70
     1
102
RTVSPropertyOp33
 70
     1
102
RTVSPropertyOp34
 70
     1
102
RTVSPropertyOp35
 70
     1
102
RTVSPropertyOp36
 70
     1
102
RTVSPropertyOp37
 70
     1
102
RTVSPropertyOp38
 70
     1
102
RTVSPropertyOp39
 70
     1
102
RTVSPropertyOp40
 70
     1
102
RTVSPropertyOp41
 70
     1
102
RTVSPropertyOp42
 70
     1
102
RTVSPropertyOp43
 70
     1
102
RTVSPropertyOp44
 70
     1
102
RTVSPropertyOp45
 70
     1
102
RTVSPropertyOp46
 70
     1
102
RTVSPropertyOp47
 70
     1
102
RTVSPropertyOp48
 70
     1
102
RTVSPropertyOp49
 70
     1
102
RTVSPropertyOp50
 70
     1
102
RTVSPropertyOp51
 70
     0
102
RTVSPropertyOp52
 70
     0
102
RTVSPropertyOp53
 70
     1
102
RTVSPropertyOp54
 70
     1
102
RTVSPropertyOp55
 70
     1
102
RTVSPropertyOp56
 70
     1
102
RTVSPropertyOp57
 70
     1
102
RTVSPropertyOp58
 70
     1
102
RTVSPropertyOp59
 70
     1
102
RTVSPropertyOp60
 70
     1
102
RTVSPropertyOp61
 70
     1
102
RTVSPropertyOp62
 70
     1
  0
XRECORD
  5
2459B
102
{ACAD_REACTORS
330
2459A
102
}
330
2459A
100
AcDbXrecord
280
     1
102
RTVSPost2010Prop28
280
     0
102
RTVSPost2010PropOp28
 70
     1
102
RTVSPost2010Prop29
280
     1
102
RTVSPost2010PropOp29
 70
     1
102
RTVSPost2010Prop30
280
     1
102
RTVSPost2010PropOp30
 70
     1
102
RTVSPost2010Prop31
280
     0
102
RTVSPost2010PropOp31
 70
     1
102
RTVSPost2010Prop32
280
     0
102
RTVSPost2010PropOp32
 70
     1
102
RTVSPost2010Prop33
280
     0
102
RTVSPost2010PropOp33
 70
     1
102
RTVSPost2010Prop34
280
     0
102
RTVSPost2010PropOp34
 70
     1
102
RTVSPost2010Prop35
280
     0
102
RTVSPost2010PropOp35
 70
     1
102
RTVSPost2010Prop36
280
     0
102
RTVSPost2010PropOp36
 70
     1
102
RTVSPost2010Prop37
 90
       50
102
RTVSPost2010PropOp37
 70
     1
102
RTVSPost2010Prop38
140
0.0
102
RTVSPost2010PropOp38
 70
     1
102
RTVSPost2010Prop39
140
1.0
102
RTVSPost2010PropOp39
 70
     1
102
RTVSPost2010Prop40
 90
        0
102
RTVSPost2010PropOp40
 70
     1
102
RTVSPost2010Prop41ColorIndex
 90
       18
102
RTVSPost2010Prop41ColorRGB
 90
        0
102
RTVSPost2010PropOp41
 70
     1
102
RTVSPost2010Prop42
 90
       50
102
RTVSPost2010PropOp42
 70
     1
102
RTVSPost2010Prop43
 90
        3
102
RTVSPost2010PropOp43
 70
     1
102
RTVSPost2010Prop44ColorIndex
 90
        5
102
RTVSPost2010Prop44ColorRGB
 90
      255
102
RTVSPost2010PropOp44
 70
     1
102
RTVSPost2010Prop45
280
     0
102
RTVSPost2010PropOp45
 70
     1
102
RTVSPost2010Prop46
 90
       50
102
RTVSPost2010PropOp46
 70
     1
102
RTVSPost2010Prop47
 90
       50
102
RTVSPost2010PropOp47
 70
     1
102
RTVSPost2010Prop48
 90
       50
102
RTVSPost2010PropOp48
 70
     1
102
RTVSPost2010Prop49
280
     0
102
RTVSPost2010PropOp49
 70
     1
102
RTVSPost2010Prop50
 90
       50
102
RTVSPost2010PropOp50
 70
     1
102
RTVSPost2010Prop51ColorIndex
 90
      256
102
RTVSPost2010Prop51ColorRGB
 90
-16777216
102
RTVSPost2010PropOp51
 70
     0
102
RTVSPost2010Prop52
140
1.0
102
RTVSPost2010PropOp52
 70
     0
102
RTVSPost2010Prop53
 90
        2
102
RTVSPost2010PropOp53
 70
     1
102
RTVSPost2010Prop54
  1
strokes_ogs.tif
102
RTVSPost2010PropOp54
 70
     1
102
RTVSPost2010Prop55
280
     0
102
RTVSPost2010PropOp55
 70
     1
102
RTVSPost2010Prop56
140
1.0
102
RTVSPost2010PropOp56
 70
     1
102
RTVSPost2010Prop57
140
1.0
102
RTVSPost2010PropOp57
 70
     1
102
RTVSPropertyOp0
 70
     1
102
RTVSPropertyOp1
 70
     1
102
RTVSPropertyOp2
 70
     1
102
RTVSPropertyOp3
 70
     1
102
RTVSPropertyOp4
 70
     1
102
RTVSPropertyOp5
 70
     1
102
RTVSPropertyOp6
 70
     1
102
RTVSPropertyOp7
 70
     1
102
RTVSPropertyOp8
 70
     1
102
RTVSPropertyOp9
 70
     1
102
RTVSPropertyOp10
 70
     1
102
RTVSPropertyOp11
 70
     1
102
RTVSPropertyOp12
 70
     1
102
RTVSPropertyOp13
 70
     1
102
RTVSPropertyOp14
 70
     1
102
RTVSPropertyOp15
 70
     1
102
RTVSPropertyOp16
 70
     1
102
RTVSPropertyOp17
 70
     1
102
RTVSPropertyOp18
 70
     1
102
RTVSPropertyOp19
 70
     1
102
RTVSPropertyOp20
 70
     1
102
RTVSPropertyOp21
 70
     1
102
RTVSPropertyOp22
 70
     1
102
RTVSPropertyOp23
 70
     1
102
RTVSPropertyOp24
 70
     1
102
RTVSPropertyOp25
 70
     1
102
RTVSPropertyOp26
 70
     1
102
RTVSPropertyOp27
 70
     1
102
RTVSPropertyOp28
 70
     1
102
RTVSPropertyOp29
 70
     1
102
RTVSPropertyOp30
 70
     1
102
RTVSPropertyOp31
 70
     1
102
RTVSPropertyOp32
 70
     1
102
RTVSPropertyOp33
 70
     1
102
RTVSPropertyOp34
 70
     1
102
RTVSPropertyOp35
 70
     1
102
RTVSPropertyOp36
 70
     1
102
RTVSPropertyOp37
 70
     1
102
RTVSPropertyOp38
 70
     1
102
RTVSPropertyOp39
 70
     1
102
RTVSPropertyOp40
 70
     1
102
RTVSPropertyOp41
 70
     1
102
RTVSPropertyOp42
 70
     1
102
RTVSPropertyOp43
 70
     1
102
RTVSPropertyOp44
 70
     1
102
RTVSPropertyOp45
 70
     1
102
RTVSPropertyOp46
 70
     1
102
RTVSPropertyOp47
 70
     1
102
RTVSPropertyOp48
 70
     1
102
RTVSPropertyOp49
 70
     1
102
RTVSPropertyOp50
 70
     1
102
RTVSPropertyOp51
 70
     0
102
RTVSPropertyOp52
 70
     0
102
RTVSPropertyOp53
 70
     1
102
RTVSPropertyOp54
 70
     1
102
RTVSPropertyOp55
 70
     1
102
RTVSPropertyOp56
 70
     1
102
RTVSPropertyOp57
 70
     1
102
RTVSPropertyOp58
 70
     1
102
RTVSPropertyOp59
 70
     1
102
RTVSPropertyOp60
 70
     1
102
RTVSPropertyOp61
 70
     1
102
RTVSPropertyOp62
 70
     1
  0
XRECORD
  5
2457F
102
{ACAD_REACTORS
330
2457E
102
}
330
2457E
100
AcDbXrecord
280
     1
102
RTVSPost2010Prop28
280
     0
102
RTVSPost2010PropOp28
 70
     1
102
RTVSPost2010Prop29
280
     1
102
RTVSPost2010PropOp29
 70
     1
102
RTVSPost2010Prop30
280
     1
102
RTVSPost2010PropOp30
 70
     1
102
RTVSPost2010Prop31
280
     0
102
RTVSPost2010PropOp31
 70
     1
102
RTVSPost2010Prop32
280
     0
102
RTVSPost2010PropOp32
 70
     1
102
RTVSPost2010Prop33
280
     0
102
RTVSPost2010PropOp33
 70
     1
102
RTVSPost2010Prop34
280
     0
102
RTVSPost2010PropOp34
 70
     1
102
RTVSPost2010Prop35
280
     0
102
RTVSPost2010PropOp35
 70
     1
102
RTVSPost2010Prop36
280
     0
102
RTVSPost2010PropOp36
 70
     1
102
RTVSPost2010Prop37
 90
       50
102
RTVSPost2010PropOp37
 70
     1
102
RTVSPost2010Prop38
140
0.0
102
RTVSPost2010PropOp38
 70
     1
102
RTVSPost2010Prop39
140
1.0
102
RTVSPost2010PropOp39
 70
     1
102
RTVSPost2010Prop40
 90
        0
102
RTVSPost2010PropOp40
 70
     1
102
RTVSPost2010Prop41ColorIndex
 90
       18
102
RTVSPost2010Prop41ColorRGB
 90
        0
102
RTVSPost2010PropOp41
 70
     1
102
RTVSPost2010Prop42
 90
       50
102
RTVSPost2010PropOp42
 70
     1
102
RTVSPost2010Prop43
 90
        3
102
RTVSPost2010PropOp43
 70
     1
102
RTVSPost2010Prop44ColorIndex
 90
        5
102
RTVSPost2010Prop44ColorRGB
 90
      255
102
RTVSPost2010PropOp44
 70
     1
102
RTVSPost2010Prop45
280
     0
102
RTVSPost2010PropOp45
 70
     1
102
RTVSPost2010Prop46
 90
       50
102
RTVSPost2010PropOp46
 70
     1
102
RTVSPost2010Prop47
 90
       50
102
RTVSPost2010PropOp47
 70
     1
102
RTVSPost2010Prop48
 90
       50
102
RTVSPost2010PropOp48
 70
     1
102
RTVSPost2010Prop49
280
     0
102
RTVSPost2010PropOp49
 70
     1
102
RTVSPost2010Prop50
 90
       50
102
RTVSPost2010PropOp50
 70
     1
102
RTVSPost2010Prop51ColorIndex
 90
      256
102
RTVSPost2010Prop51ColorRGB
 90
-16777216
102
RTVSPost2010PropOp51
 70
     0
102
RTVSPost2010Prop52
140
1.0
102
RTVSPost2010PropOp52
 70
     0
102
RTVSPost2010Prop53
 90
        2
102
RTVSPost2010PropOp53
 70
     1
102
RTVSPost2010Prop54
  1
strokes_ogs.tif
102
RTVSPost2010PropOp54
 70
     1
102
RTVSPost2010Prop55
280
     0
102
RTVSPost2010PropOp55
 70
     1
102
RTVSPost2010Prop56
140
1.0
102
RTVSPost2010PropOp56
 70
     1
102
RTVSPost2010Prop57
140
1.0
102
RTVSPost2010PropOp57
 70
     1
102
RTVSPropertyOp0
 70
     1
102
RTVSPropertyOp1
 70
     1
102
RTVSPropertyOp2
 70
     1
102
RTVSPropertyOp3
 70
     1
102
RTVSPropertyOp4
 70
     1
102
RTVSPropertyOp5
 70
     1
102
RTVSPropertyOp6
 70
     1
102
RTVSPropertyOp7
 70
     1
102
RTVSPropertyOp8
 70
     1
102
RTVSPropertyOp9
 70
     1
102
RTVSPropertyOp10
 70
     1
102
RTVSPropertyOp11
 70
     1
102
RTVSPropertyOp12
 70
     1
102
RTVSPropertyOp13
 70
     1
102
RTVSPropertyOp14
 70
     1
102
RTVSPropertyOp15
 70
     1
102
RTVSPropertyOp16
 70
     1
102
RTVSPropertyOp17
 70
     1
102
RTVSPropertyOp18
 70
     1
102
RTVSPropertyOp19
 70
     1
102
RTVSPropertyOp20
 70
     1
102
RTVSPropertyOp21
 70
     1
102
RTVSPropertyOp22
 70
     1
102
RTVSPropertyOp23
 70
     1
102
RTVSPropertyOp24
 70
     1
102
RTVSPropertyOp25
 70
     1
102
RTVSPropertyOp26
 70
     1
102
RTVSPropertyOp27
 70
     1
102
RTVSPropertyOp28
 70
     1
102
RTVSPropertyOp29
 70
     1
102
RTVSPropertyOp30
 70
     1
102
RTVSPropertyOp31
 70
     1
102
RTVSPropertyOp32
 70
     1
102
RTVSPropertyOp33
 70
     1
102
RTVSPropertyOp34
 70
     1
102
RTVSPropertyOp35
 70
     1
102
RTVSPropertyOp36
 70
     1
102
RTVSPropertyOp37
 70
     1
102
RTVSPropertyOp38
 70
     1
102
RTVSPropertyOp39
 70
     1
102
RTVSPropertyOp40
 70
     1
102
RTVSPropertyOp41
 70
     1
102
RTVSPropertyOp42
 70
     1
102
RTVSPropertyOp43
 70
     1
102
RTVSPropertyOp44
 70
     1
102
RTVSPropertyOp45
 70
     1
102
RTVSPropertyOp46
 70
     1
102
RTVSPropertyOp47
 70
     1
102
RTVSPropertyOp48
 70
     1
102
RTVSPropertyOp49
 70
     1
102
RTVSPropertyOp50
 70
     1
102
RTVSPropertyOp51
 70
     0
102
RTVSPropertyOp52
 70
     0
102
RTVSPropertyOp53
 70
     1
102
RTVSPropertyOp54
 70
     1
102
RTVSPropertyOp55
 70
     1
102
RTVSPropertyOp56
 70
     1
102
RTVSPropertyOp57
 70
     1
102
RTVSPropertyOp58
 70
     1
102
RTVSPropertyOp59
 70
     1
102
RTVSPropertyOp60
 70
     1
102
RTVSPropertyOp61
 70
     1
102
RTVSPropertyOp62
 70
     1
  0
XRECORD
  5
24581
102
{ACAD_REACTORS
330
24580
102
}
330
24580
100
AcDbXrecord
280
     1
102
RTVSPost2010Prop28
280
     0
102
RTVSPost2010PropOp28
 70
     1
102
RTVSPost2010Prop29
280
     1
102
RTVSPost2010PropOp29
 70
     1
102
RTVSPost2010Prop30
280
     1
102
RTVSPost2010PropOp30
 70
     1
102
RTVSPost2010Prop31
280
     0
102
RTVSPost2010PropOp31
 70
     1
102
RTVSPost2010Prop32
280
     0
102
RTVSPost2010PropOp32
 70
     1
102
RTVSPost2010Prop33
280
     0
102
RTVSPost2010PropOp33
 70
     1
102
RTVSPost2010Prop34
280
     0
102
RTVSPost2010PropOp34
 70
     1
102
RTVSPost2010Prop35
280
     0
102
RTVSPost2010PropOp35
 70
     1
102
RTVSPost2010Prop36
280
     0
102
RTVSPost2010PropOp36
 70
     1
102
RTVSPost2010Prop37
 90
       50
102
RTVSPost2010PropOp37
 70
     1
102
RTVSPost2010Prop38
140
0.0
102
RTVSPost2010PropOp38
 70
     1
102
RTVSPost2010Prop39
140
1.0
102
RTVSPost2010PropOp39
 70
     1
102
RTVSPost2010Prop40
 90
        0
102
RTVSPost2010PropOp40
 70
     1
102
RTVSPost2010Prop41ColorIndex
 90
       18
102
RTVSPost2010Prop41ColorRGB
 90
        0
102
RTVSPost2010PropOp41
 70
     1
102
RTVSPost2010Prop42
 90
       50
102
RTVSPost2010PropOp42
 70
     1
102
RTVSPost2010Prop43
 90
        3
102
RTVSPost2010PropOp43
 70
     1
102
RTVSPost2010Prop44ColorIndex
 90
        5
102
RTVSPost2010Prop44ColorRGB
 90
      255
102
RTVSPost2010PropOp44
 70
     1
102
RTVSPost2010Prop45
280
     0
102
RTVSPost2010PropOp45
 70
     1
102
RTVSPost2010Prop46
 90
       50
102
RTVSPost2010PropOp46
 70
     1
102
RTVSPost2010Prop47
 90
       50
102
RTVSPost2010PropOp47
 70
     1
102
RTVSPost2010Prop48
 90
       50
102
RTVSPost2010PropOp48
 70
     1
102
RTVSPost2010Prop49
280
     0
102
RTVSPost2010PropOp49
 70
     1
102
RTVSPost2010Prop50
 90
       50
102
RTVSPost2010PropOp50
 70
     1
102
RTVSPost2010Prop51ColorIndex
 90
      256
102
RTVSPost2010Prop51ColorRGB
 90
-16777216
102
RTVSPost2010PropOp51
 70
     0
102
RTVSPost2010Prop52
140
1.0
102
RTVSPost2010PropOp52
 70
     0
102
RTVSPost2010Prop53
 90
        2
102
RTVSPost2010PropOp53
 70
     1
102
RTVSPost2010Prop54
  1
strokes_ogs.tif
102
RTVSPost2010PropOp54
 70
     1
102
RTVSPost2010Prop55
280
     0
102
RTVSPost2010PropOp55
 70
     1
102
RTVSPost2010Prop56
140
1.0
102
RTVSPost2010PropOp56
 70
     1
102
RTVSPost2010Prop57
140
1.0
102
RTVSPost2010PropOp57
 70
     1
102
RTVSPropertyOp0
 70
     1
102
RTVSPropertyOp1
 70
     1
102
RTVSPropertyOp2
 70
     1
102
RTVSPropertyOp3
 70
     1
102
RTVSPropertyOp4
 70
     1
102
RTVSPropertyOp5
 70
     1
102
RTVSPropertyOp6
 70
     1
102
RTVSPropertyOp7
 70
     1
102
RTVSPropertyOp8
 70
     1
102
RTVSPropertyOp9
 70
     1
102
RTVSPropertyOp10
 70
     1
102
RTVSPropertyOp11
 70
     1
102
RTVSPropertyOp12
 70
     1
102
RTVSPropertyOp13
 70
     1
102
RTVSPropertyOp14
 70
     1
102
RTVSPropertyOp15
 70
     1
102
RTVSPropertyOp16
 70
     1
102
RTVSPropertyOp17
 70
     1
102
RTVSPropertyOp18
 70
     1
102
RTVSPropertyOp19
 70
     1
102
RTVSPropertyOp20
 70
     1
102
RTVSPropertyOp21
 70
     1
102
RTVSPropertyOp22
 70
     1
102
RTVSPropertyOp23
 70
     1
102
RTVSPropertyOp24
 70
     1
102
RTVSPropertyOp25
 70
     1
102
RTVSPropertyOp26
 70
     1
102
RTVSPropertyOp27
 70
     1
102
RTVSPropertyOp28
 70
     1
102
RTVSPropertyOp29
 70
     1
102
RTVSPropertyOp30
 70
     1
102
RTVSPropertyOp31
 70
     1
102
RTVSPropertyOp32
 70
     1
102
RTVSPropertyOp33
 70
     1
102
RTVSPropertyOp34
 70
     1
102
RTVSPropertyOp35
 70
     1
102
RTVSPropertyOp36
 70
     1
102
RTVSPropertyOp37
 70
     1
102
RTVSPropertyOp38
 70
     1
102
RTVSPropertyOp39
 70
     1
102
RTVSPropertyOp40
 70
     1
102
RTVSPropertyOp41
 70
     1
102
RTVSPropertyOp42
 70
     1
102
RTVSPropertyOp43
 70
     1
102
RTVSPropertyOp44
 70
     1
102
RTVSPropertyOp45
 70
     1
102
RTVSPropertyOp46
 70
     1
102
RTVSPropertyOp47
 70
     1
102
RTVSPropertyOp48
 70
     1
102
RTVSPropertyOp49
 70
     1
102
RTVSPropertyOp50
 70
     1
102
RTVSPropertyOp51
 70
     0
102
RTVSPropertyOp52
 70
     0
102
RTVSPropertyOp53
 70
     1
102
RTVSPropertyOp54
 70
     1
102
RTVSPropertyOp55
 70
     1
102
RTVSPropertyOp56
 70
     1
102
RTVSPropertyOp57
 70
     1
102
RTVSPropertyOp58
 70
     1
102
RTVSPropertyOp59
 70
     1
102
RTVSPropertyOp60
 70
     1
102
RTVSPropertyOp61
 70
     1
102
RTVSPropertyOp62
 70
     1
  0
XRECORD
  5
24583
102
{ACAD_REACTORS
330
24582
102
}
330
24582
100
AcDbXrecord
280
     1
102
RTVSPost2010Prop28
280
     0
102
RTVSPost2010PropOp28
 70
     1
102
RTVSPost2010Prop29
280
     1
102
RTVSPost2010PropOp29
 70
     1
102
RTVSPost2010Prop30
280
     1
102
RTVSPost2010PropOp30
 70
     1
102
RTVSPost2010Prop31
280
     0
102
RTVSPost2010PropOp31
 70
     1
102
RTVSPost2010Prop32
280
     0
102
RTVSPost2010PropOp32
 70
     1
102
RTVSPost2010Prop33
280
     0
102
RTVSPost2010PropOp33
 70
     1
102
RTVSPost2010Prop34
280
     0
102
RTVSPost2010PropOp34
 70
     1
102
RTVSPost2010Prop35
280
     0
102
RTVSPost2010PropOp35
 70
     1
102
RTVSPost2010Prop36
280
     0
102
RTVSPost2010PropOp36
 70
     1
102
RTVSPost2010Prop37
 90
       50
102
RTVSPost2010PropOp37
 70
     1
102
RTVSPost2010Prop38
140
0.0
102
RTVSPost2010PropOp38
 70
     1
102
RTVSPost2010Prop39
140
1.0
102
RTVSPost2010PropOp39
 70
     1
102
RTVSPost2010Prop40
 90
        0
102
RTVSPost2010PropOp40
 70
     1
102
RTVSPost2010Prop41ColorIndex
 90
       18
102
RTVSPost2010Prop41ColorRGB
 90
        0
102
RTVSPost2010PropOp41
 70
     1
102
RTVSPost2010Prop42
 90
       50
102
RTVSPost2010PropOp42
 70
     1
102
RTVSPost2010Prop43
 90
        3
102
RTVSPost2010PropOp43
 70
     1
102
RTVSPost2010Prop44ColorIndex
 90
        5
102
RTVSPost2010Prop44ColorRGB
 90
      255
102
RTVSPost2010PropOp44
 70
     1
102
RTVSPost2010Prop45
280
     0
102
RTVSPost2010PropOp45
 70
     1
102
RTVSPost2010Prop46
 90
       50
102
RTVSPost2010PropOp46
 70
     1
102
RTVSPost2010Prop47
 90
       50
102
RTVSPost2010PropOp47
 70
     1
102
RTVSPost2010Prop48
 90
       50
102
RTVSPost2010PropOp48
 70
     1
102
RTVSPost2010Prop49
280
     0
102
RTVSPost2010PropOp49
 70
     1
102
RTVSPost2010Prop50
 90
       50
102
RTVSPost2010PropOp50
 70
     1
102
RTVSPost2010Prop51ColorIndex
 90
      256
102
RTVSPost2010Prop51ColorRGB
 90
-16777216
102
RTVSPost2010PropOp51
 70
     0
102
RTVSPost2010Prop52
140
1.0
102
RTVSPost2010PropOp52
 70
     0
102
RTVSPost2010Prop53
 90
        2
102
RTVSPost2010PropOp53
 70
     1
102
RTVSPost2010Prop54
  1
strokes_ogs.tif
102
RTVSPost2010PropOp54
 70
     1
102
RTVSPost2010Prop55
280
     0
102
RTVSPost2010PropOp55
 70
     1
102
RTVSPost2010Prop56
140
1.0
102
RTVSPost2010PropOp56
 70
     1
102
RTVSPost2010Prop57
140
1.0
102
RTVSPost2010PropOp57
 70
     1
102
RTVSPropertyOp0
 70
     1
102
RTVSPropertyOp1
 70
     1
102
RTVSPropertyOp2
 70
     1
102
RTVSPropertyOp3
 70
     1
102
RTVSPropertyOp4
 70
     1
102
RTVSPropertyOp5
 70
     1
102
RTVSPropertyOp6
 70
     1
102
RTVSPropertyOp7
 70
     1
102
RTVSPropertyOp8
 70
     1
102
RTVSPropertyOp9
 70
     1
102
RTVSPropertyOp10
 70
     1
102
RTVSPropertyOp11
 70
     1
102
RTVSPropertyOp12
 70
     1
102
RTVSPropertyOp13
 70
     1
102
RTVSPropertyOp14
 70
     1
102
RTVSPropertyOp15
 70
     1
102
RTVSPropertyOp16
 70
     1
102
RTVSPropertyOp17
 70
     1
102
RTVSPropertyOp18
 70
     1
102
RTVSPropertyOp19
 70
     1
102
RTVSPropertyOp20
 70
     1
102
RTVSPropertyOp21
 70
     1
102
RTVSPropertyOp22
 70
     1
102
RTVSPropertyOp23
 70
     1
102
RTVSPropertyOp24
 70
     1
102
RTVSPropertyOp25
 70
     1
102
RTVSPropertyOp26
 70
     1
102
RTVSPropertyOp27
 70
     1
102
RTVSPropertyOp28
 70
     1
102
RTVSPropertyOp29
 70
     1
102
RTVSPropertyOp30
 70
     1
102
RTVSPropertyOp31
 70
     1
102
RTVSPropertyOp32
 70
     1
102
RTVSPropertyOp33
 70
     1
102
RTVSPropertyOp34
 70
     1
102
RTVSPropertyOp35
 70
     1
102
RTVSPropertyOp36
 70
     1
102
RTVSPropertyOp37
 70
     1
102
RTVSPropertyOp38
 70
     1
102
RTVSPropertyOp39
 70
     1
102
RTVSPropertyOp40
 70
     1
102
RTVSPropertyOp41
 70
     1
102
RTVSPropertyOp42
 70
     1
102
RTVSPropertyOp43
 70
     1
102
RTVSPropertyOp44
 70
     1
102
RTVSPropertyOp45
 70
     1
102
RTVSPropertyOp46
 70
     1
102
RTVSPropertyOp47
 70
     1
102
RTVSPropertyOp48
 70
     1
102
RTVSPropertyOp49
 70
     1
102
RTVSPropertyOp50
 70
     1
102
RTVSPropertyOp51
 70
     0
102
RTVSPropertyOp52
 70
     0
102
RTVSPropertyOp53
 70
     1
102
RTVSPropertyOp54
 70
     1
102
RTVSPropertyOp55
 70
     1
102
RTVSPropertyOp56
 70
     1
102
RTVSPropertyOp57
 70
     1
102
RTVSPropertyOp58
 70
     1
102
RTVSPropertyOp59
 70
     1
102
RTVSPropertyOp60
 70
     1
102
RTVSPropertyOp61
 70
     1
102
RTVSPropertyOp62
 70
     1
  0
XRECORD
  5
24585
102
{ACAD_REACTORS
330
24584
102
}
330
24584
100
AcDbXrecord
280
     1
102
RTVSPost2010Prop28
280
     0
102
RTVSPost2010PropOp28
 70
     1
102
RTVSPost2010Prop29
280
     1
102
RTVSPost2010PropOp29
 70
     1
102
RTVSPost2010Prop30
280
     1
102
RTVSPost2010PropOp30
 70
     1
102
RTVSPost2010Prop31
280
     0
102
RTVSPost2010PropOp31
 70
     1
102
RTVSPost2010Prop32
280
     0
102
RTVSPost2010PropOp32
 70
     1
102
RTVSPost2010Prop33
280
     0
102
RTVSPost2010PropOp33
 70
     1
102
RTVSPost2010Prop34
280
     0
102
RTVSPost2010PropOp34
 70
     1
102
RTVSPost2010Prop35
280
     0
102
RTVSPost2010PropOp35
 70
     1
102
RTVSPost2010Prop36
280
     0
102
RTVSPost2010PropOp36
 70
     1
102
RTVSPost2010Prop37
 90
       50
102
RTVSPost2010PropOp37
 70
     1
102
RTVSPost2010Prop38
140
0.0
102
RTVSPost2010PropOp38
 70
     1
102
RTVSPost2010Prop39
140
1.0
102
RTVSPost2010PropOp39
 70
     1
102
RTVSPost2010Prop40
 90
        0
102
RTVSPost2010PropOp40
 70
     1
102
RTVSPost2010Prop41ColorIndex
 90
       18
102
RTVSPost2010Prop41ColorRGB
 90
        0
102
RTVSPost2010PropOp41
 70
     1
102
RTVSPost2010Prop42
 90
       50
102
RTVSPost2010PropOp42
 70
     1
102
RTVSPost2010Prop43
 90
        3
102
RTVSPost2010PropOp43
 70
     1
102
RTVSPost2010Prop44ColorIndex
 90
        5
102
RTVSPost2010Prop44ColorRGB
 90
      255
102
RTVSPost2010PropOp44
 70
     1
102
RTVSPost2010Prop45
280
     0
102
RTVSPost2010PropOp45
 70
     1
102
RTVSPost2010Prop46
 90
       50
102
RTVSPost2010PropOp46
 70
     1
102
RTVSPost2010Prop47
 90
       50
102
RTVSPost2010PropOp47
 70
     1
102
RTVSPost2010Prop48
 90
       50
102
RTVSPost2010PropOp48
 70
     1
102
RTVSPost2010Prop49
280
     0
102
RTVSPost2010PropOp49
 70
     1
102
RTVSPost2010Prop50
 90
       50
102
RTVSPost2010PropOp50
 70
     1
102
RTVSPost2010Prop51ColorIndex
 90
      256
102
RTVSPost2010Prop51ColorRGB
 90
-16777216
102
RTVSPost2010PropOp51
 70
     0
102
RTVSPost2010Prop52
140
1.0
102
RTVSPost2010PropOp52
 70
     0
102
RTVSPost2010Prop53
 90
        2
102
RTVSPost2010PropOp53
 70
     1
102
RTVSPost2010Prop54
  1
strokes_ogs.tif
102
RTVSPost2010PropOp54
 70
     1
102
RTVSPost2010Prop55
280
     0
102
RTVSPost2010PropOp55
 70
     1
102
RTVSPost2010Prop56
140
1.0
102
RTVSPost2010PropOp56
 70
     1
102
RTVSPost2010Prop57
140
1.0
102
RTVSPost2010PropOp57
 70
     1
102
RTVSPropertyOp0
 70
     1
102
RTVSPropertyOp1
 70
     1
102
RTVSPropertyOp2
 70
     1
102
RTVSPropertyOp3
 70
     1
102
RTVSPropertyOp4
 70
     1
102
RTVSPropertyOp5
 70
     1
102
RTVSPropertyOp6
 70
     1
102
RTVSPropertyOp7
 70
     1
102
RTVSPropertyOp8
 70
     1
102
RTVSPropertyOp9
 70
     1
102
RTVSPropertyOp10
 70
     1
102
RTVSPropertyOp11
 70
     1
102
RTVSPropertyOp12
 70
     1
102
RTVSPropertyOp13
 70
     1
102
RTVSPropertyOp14
 70
     1
102
RTVSPropertyOp15
 70
     1
102
RTVSPropertyOp16
 70
     1
102
RTVSPropertyOp17
 70
     1
102
RTVSPropertyOp18
 70
     1
102
RTVSPropertyOp19
 70
     1
102
RTVSPropertyOp20
 70
     1
102
RTVSPropertyOp21
 70
     1
102
RTVSPropertyOp22
 70
     1
102
RTVSPropertyOp23
 70
     1
102
RTVSPropertyOp24
 70
     1
102
RTVSPropertyOp25
 70
     1
102
RTVSPropertyOp26
 70
     1
102
RTVSPropertyOp27
 70
     1
102
RTVSPropertyOp28
 70
     1
102
RTVSPropertyOp29
 70
     1
102
RTVSPropertyOp30
 70
     1
102
RTVSPropertyOp31
 70
     1
102
RTVSPropertyOp32
 70
     1
102
RTVSPropertyOp33
 70
     1
102
RTVSPropertyOp34
 70
     1
102
RTVSPropertyOp35
 70
     1
102
RTVSPropertyOp36
 70
     1
102
RTVSPropertyOp37
 70
     1
102
RTVSPropertyOp38
 70
     1
102
RTVSPropertyOp39
 70
     1
102
RTVSPropertyOp40
 70
     1
102
RTVSPropertyOp41
 70
     1
102
RTVSPropertyOp42
 70
     1
102
RTVSPropertyOp43
 70
     1
102
RTVSPropertyOp44
 70
     1
102
RTVSPropertyOp45
 70
     1
102
RTVSPropertyOp46
 70
     1
102
RTVSPropertyOp47
 70
     1
102
RTVSPropertyOp48
 70
     1
102
RTVSPropertyOp49
 70
     1
102
RTVSPropertyOp50
 70
     1
102
RTVSPropertyOp51
 70
     0
102
RTVSPropertyOp52
 70
     0
102
RTVSPropertyOp53
 70
     1
102
RTVSPropertyOp54
 70
     1
102
RTVSPropertyOp55
 70
     1
102
RTVSPropertyOp56
 70
     1
102
RTVSPropertyOp57
 70
     1
102
RTVSPropertyOp58
 70
     1
102
RTVSPropertyOp59
 70
     1
102
RTVSPropertyOp60
 70
     1
102
RTVSPropertyOp61
 70
     1
102
RTVSPropertyOp62
 70
     1
  0
XRECORD
  5
245A8
102
{ACAD_REACTORS
330
245A7
102
}
330
245A7
100
AcDbXrecord
280
     1
102
RTVSPost2010Prop28
280
     0
102
RTVSPost2010PropOp28
 70
     1
102
RTVSPost2010Prop29
280
     1
102
RTVSPost2010PropOp29
 70
     1
102
RTVSPost2010Prop30
280
     1
102
RTVSPost2010PropOp30
 70
     1
102
RTVSPost2010Prop31
280
     0
102
RTVSPost2010PropOp31
 70
     1
102
RTVSPost2010Prop32
280
     0
102
RTVSPost2010PropOp32
 70
     1
102
RTVSPost2010Prop33
280
     0
102
RTVSPost2010PropOp33
 70
     1
102
RTVSPost2010Prop34
280
     0
102
RTVSPost2010PropOp34
 70
     1
102
RTVSPost2010Prop35
280
     0
102
RTVSPost2010PropOp35
 70
     1
102
RTVSPost2010Prop36
280
     0
102
RTVSPost2010PropOp36
 70
     1
102
RTVSPost2010Prop37
 90
       50
102
RTVSPost2010PropOp37
 70
     1
102
RTVSPost2010Prop38
140
0.0
102
RTVSPost2010PropOp38
 70
     1
102
RTVSPost2010Prop39
140
1.0
102
RTVSPost2010PropOp39
 70
     1
102
RTVSPost2010Prop40
 90
        0
102
RTVSPost2010PropOp40
 70
     1
102
RTVSPost2010Prop41ColorIndex
 90
       18
102
RTVSPost2010Prop41ColorRGB
 90
        0
102
RTVSPost2010PropOp41
 70
     1
102
RTVSPost2010Prop42
 90
       50
102
RTVSPost2010PropOp42
 70
     1
102
RTVSPost2010Prop43
 90
        3
102
RTVSPost2010PropOp43
 70
     1
102
RTVSPost2010Prop44ColorIndex
 90
        5
102
RTVSPost2010Prop44ColorRGB
 90
      255
102
RTVSPost2010PropOp44
 70
     1
102
RTVSPost2010Prop45
280
     0
102
RTVSPost2010PropOp45
 70
     1
102
RTVSPost2010Prop46
 90
       50
102
RTVSPost2010PropOp46
 70
     1
102
RTVSPost2010Prop47
 90
       50
102
RTVSPost2010PropOp47
 70
     1
102
RTVSPost2010Prop48
 90
       50
102
RTVSPost2010PropOp48
 70
     1
102
RTVSPost2010Prop49
280
     0
102
RTVSPost2010PropOp49
 70
     1
102
RTVSPost2010Prop50
 90
       50
102
RTVSPost2010PropOp50
 70
     1
102
RTVSPost2010Prop51ColorIndex
 90
      256
102
RTVSPost2010Prop51ColorRGB
 90
-16777216
102
RTVSPost2010PropOp51
 70
     0
102
RTVSPost2010Prop52
140
1.0
102
RTVSPost2010PropOp52
 70
     0
102
RTVSPost2010Prop53
 90
        2
102
RTVSPost2010PropOp53
 70
     1
102
RTVSPost2010Prop54
  1
strokes_ogs.tif
102
RTVSPost2010PropOp54
 70
     1
102
RTVSPost2010Prop55
280
     0
102
RTVSPost2010PropOp55
 70
     1
102
RTVSPost2010Prop56
140
1.0
102
RTVSPost2010PropOp56
 70
     1
102
RTVSPost2010Prop57
140
1.0
102
RTVSPost2010PropOp57
 70
     1
102
RTVSPropertyOp0
 70
     1
102
RTVSPropertyOp1
 70
     1
102
RTVSPropertyOp2
 70
     1
102
RTVSPropertyOp3
 70
     1
102
RTVSPropertyOp4
 70
     1
102
RTVSPropertyOp5
 70
     1
102
RTVSPropertyOp6
 70
     1
102
RTVSPropertyOp7
 70
     1
102
RTVSPropertyOp8
 70
     1
102
RTVSPropertyOp9
 70
     1
102
RTVSPropertyOp10
 70
     1
102
RTVSPropertyOp11
 70
     1
102
RTVSPropertyOp12
 70
     1
102
RTVSPropertyOp13
 70
     1
102
RTVSPropertyOp14
 70
     1
102
RTVSPropertyOp15
 70
     1
102
RTVSPropertyOp16
 70
     1
102
RTVSPropertyOp17
 70
     1
102
RTVSPropertyOp18
 70
     1
102
RTVSPropertyOp19
 70
     1
102
RTVSPropertyOp20
 70
     1
102
RTVSPropertyOp21
 70
     1
102
RTVSPropertyOp22
 70
     1
102
RTVSPropertyOp23
 70
     1
102
RTVSPropertyOp24
 70
     1
102
RTVSPropertyOp25
 70
     1
102
RTVSPropertyOp26
 70
     1
102
RTVSPropertyOp27
 70
     1
102
RTVSPropertyOp28
 70
     1
102
RTVSPropertyOp29
 70
     1
102
RTVSPropertyOp30
 70
     1
102
RTVSPropertyOp31
 70
     1
102
RTVSPropertyOp32
 70
     1
102
RTVSPropertyOp33
 70
     1
102
RTVSPropertyOp34
 70
     1
102
RTVSPropertyOp35
 70
     1
102
RTVSPropertyOp36
 70
     1
102
RTVSPropertyOp37
 70
     1
102
RTVSPropertyOp38
 70
     1
102
RTVSPropertyOp39
 70
     1
102
RTVSPropertyOp40
 70
     1
102
RTVSPropertyOp41
 70
     1
102
RTVSPropertyOp42
 70
     1
102
RTVSPropertyOp43
 70
     1
102
RTVSPropertyOp44
 70
     1
102
RTVSPropertyOp45
 70
     1
102
RTVSPropertyOp46
 70
     1
102
RTVSPropertyOp47
 70
     1
102
RTVSPropertyOp48
 70
     1
102
RTVSPropertyOp49
 70
     1
102
RTVSPropertyOp50
 70
     1
102
RTVSPropertyOp51
 70
     0
102
RTVSPropertyOp52
 70
     0
102
RTVSPropertyOp53
 70
     1
102
RTVSPropertyOp54
 70
     1
102
RTVSPropertyOp55
 70
     1
102
RTVSPropertyOp56
 70
     1
102
RTVSPropertyOp57
 70
     1
102
RTVSPropertyOp58
 70
     1
102
RTVSPropertyOp59
 70
     1
102
RTVSPropertyOp60
 70
     1
102
RTVSPropertyOp61
 70
     1
102
RTVSPropertyOp62
 70
     1
  0
XRECORD
  5
2459F
102
{ACAD_REACTORS
330
2459E
102
}
330
2459E
100
AcDbXrecord
280
     1
102
RTVSPost2010Prop28
280
     0
102
RTVSPost2010PropOp28
 70
     1
102
RTVSPost2010Prop29
280
     1
102
RTVSPost2010PropOp29
 70
     1
102
RTVSPost2010Prop30
280
     1
102
RTVSPost2010PropOp30
 70
     1
102
RTVSPost2010Prop31
280
     0
102
RTVSPost2010PropOp31
 70
     1
102
RTVSPost2010Prop32
280
     0
102
RTVSPost2010PropOp32
 70
     1
102
RTVSPost2010Prop33
280
     0
102
RTVSPost2010PropOp33
 70
     1
102
RTVSPost2010Prop34
280
     0
102
RTVSPost2010PropOp34
 70
     1
102
RTVSPost2010Prop35
280
     0
102
RTVSPost2010PropOp35
 70
     1
102
RTVSPost2010Prop36
280
     0
102
RTVSPost2010PropOp36
 70
     1
102
RTVSPost2010Prop37
 90
       50
102
RTVSPost2010PropOp37
 70
     1
102
RTVSPost2010Prop38
140
0.0
102
RTVSPost2010PropOp38
 70
     1
102
RTVSPost2010Prop39
140
1.0
102
RTVSPost2010PropOp39
 70
     1
102
RTVSPost2010Prop40
 90
        0
102
RTVSPost2010PropOp40
 70
     1
102
RTVSPost2010Prop41ColorIndex
 90
       18
102
RTVSPost2010Prop41ColorRGB
 90
        0
102
RTVSPost2010PropOp41
 70
     1
102
RTVSPost2010Prop42
 90
       50
102
RTVSPost2010PropOp42
 70
     1
102
RTVSPost2010Prop43
 90
        3
102
RTVSPost2010PropOp43
 70
     1
102
RTVSPost2010Prop44ColorIndex
 90
        5
102
RTVSPost2010Prop44ColorRGB
 90
      255
102
RTVSPost2010PropOp44
 70
     1
102
RTVSPost2010Prop45
280
     0
102
RTVSPost2010PropOp45
 70
     1
102
RTVSPost2010Prop46
 90
       50
102
RTVSPost2010PropOp46
 70
     1
102
RTVSPost2010Prop47
 90
       50
102
RTVSPost2010PropOp47
 70
     1
102
RTVSPost2010Prop48
 90
       50
102
RTVSPost2010PropOp48
 70
     1
102
RTVSPost2010Prop49
280
     0
102
RTVSPost2010PropOp49
 70
     1
102
RTVSPost2010Prop50
 90
       50
102
RTVSPost2010PropOp50
 70
     1
102
RTVSPost2010Prop51ColorIndex
 90
      256
102
RTVSPost2010Prop51ColorRGB
 90
-16777216
102
RTVSPost2010PropOp51
 70
     0
102
RTVSPost2010Prop52
140
1.0
102
RTVSPost2010PropOp52
 70
     0
102
RTVSPost2010Prop53
 90
        2
102
RTVSPost2010PropOp53
 70
     1
102
RTVSPost2010Prop54
  1
strokes_ogs.tif
102
RTVSPost2010PropOp54
 70
     1
102
RTVSPost2010Prop55
280
     0
102
RTVSPost2010PropOp55
 70
     1
102
RTVSPost2010Prop56
140
1.0
102
RTVSPost2010PropOp56
 70
     1
102
RTVSPost2010Prop57
140
1.0
102
RTVSPost2010PropOp57
 70
     1
102
RTVSPropertyOp0
 70
     0
102
RTVSPropertyOp1
 70
     0
102
RTVSPropertyOp2
 70
     0
102
RTVSPropertyOp3
 70
     0
102
RTVSPropertyOp4
 70
     0
102
RTVSPropertyOp5
 70
     0
102
RTVSPropertyOp6
 70
     0
102
RTVSPropertyOp7
 70
     0
102
RTVSPropertyOp8
 70
     0
102
RTVSPropertyOp9
 70
     0
102
RTVSPropertyOp10
 70
     0
102
RTVSPropertyOp11
 70
     0
102
RTVSPropertyOp12
 70
     0
102
RTVSPropertyOp13
 70
     0
102
RTVSPropertyOp14
 70
     2
102
RTVSPropertyOp15
 70
     0
102
RTVSPropertyOp16
 70
     0
102
RTVSPropertyOp17
 70
     0
102
RTVSPropertyOp18
 70
     0
102
RTVSPropertyOp19
 70
     0
102
RTVSPropertyOp20
 70
     0
102
RTVSPropertyOp21
 70
     0
102
RTVSPropertyOp22
 70
     0
102
RTVSPropertyOp23
 70
     0
102
RTVSPropertyOp24
 70
     0
102
RTVSPropertyOp25
 70
     0
102
RTVSPropertyOp26
 70
     0
102
RTVSPropertyOp27
 70
     0
102
RTVSPropertyOp28
 70
     1
102
RTVSPropertyOp29
 70
     1
102
RTVSPropertyOp30
 70
     1
102
RTVSPropertyOp31
 70
     1
102
RTVSPropertyOp32
 70
     1
102
RTVSPropertyOp33
 70
     1
102
RTVSPropertyOp34
 70
     1
102
RTVSPropertyOp35
 70
     1
102
RTVSPropertyOp36
 70
     1
102
RTVSPropertyOp37
 70
     1
102
RTVSPropertyOp38
 70
     1
102
RTVSPropertyOp39
 70
     1
102
RTVSPropertyOp40
 70
     1
102
RTVSPropertyOp41
 70
     1
102
RTVSPropertyOp42
 70
     1
102
RTVSPropertyOp43
 70
     1
102
RTVSPropertyOp44
 70
     1
102
RTVSPropertyOp45
 70
     1
102
RTVSPropertyOp46
 70
     1
102
RTVSPropertyOp47
 70
     1
102
RTVSPropertyOp48
 70
     1
102
RTVSPropertyOp49
 70
     1
102
RTVSPropertyOp50
 70
     1
102
RTVSPropertyOp51
 70
     0
102
RTVSPropertyOp52
 70
     0
102
RTVSPropertyOp53
 70
     1
102
RTVSPropertyOp54
 70
     1
102
RTVSPropertyOp55
 70
     1
102
RTVSPropertyOp56
 70
     1
102
RTVSPropertyOp57
 70
     1
102
RTVSPropertyOp58
 70
     1
102
RTVSPropertyOp59
 70
     1
102
RTVSPropertyOp60
 70
     1
102
RTVSPropertyOp61
 70
     1
102
RTVSPropertyOp62
 70
     1
  0
XRECORD
  5
24599
102
{ACAD_REACTORS
330
24598
102
}
330
24598
100
AcDbXrecord
280
     1
102
RTVSPost2010Prop28
280
     0
102
RTVSPost2010PropOp28
 70
     1
102
RTVSPost2010Prop29
280
     1
102
RTVSPost2010PropOp29
 70
     1
102
RTVSPost2010Prop30
280
     1
102
RTVSPost2010PropOp30
 70
     1
102
RTVSPost2010Prop31
280
     0
102
RTVSPost2010PropOp31
 70
     1
102
RTVSPost2010Prop32
280
     0
102
RTVSPost2010PropOp32
 70
     1
102
RTVSPost2010Prop33
280
     0
102
RTVSPost2010PropOp33
 70
     1
102
RTVSPost2010Prop34
280
     0
102
RTVSPost2010PropOp34
 70
     1
102
RTVSPost2010Prop35
280
     0
102
RTVSPost2010PropOp35
 70
     1
102
RTVSPost2010Prop36
280
     0
102
RTVSPost2010PropOp36
 70
     1
102
RTVSPost2010Prop37
 90
       50
102
RTVSPost2010PropOp37
 70
     1
102
RTVSPost2010Prop38
140
0.0
102
RTVSPost2010PropOp38
 70
     1
102
RTVSPost2010Prop39
140
1.0
102
RTVSPost2010PropOp39
 70
     1
102
RTVSPost2010Prop40
 90
        0
102
RTVSPost2010PropOp40
 70
     1
102
RTVSPost2010Prop41ColorIndex
 90
       18
102
RTVSPost2010Prop41ColorRGB
 90
        0
102
RTVSPost2010PropOp41
 70
     1
102
RTVSPost2010Prop42
 90
       50
102
RTVSPost2010PropOp42
 70
     1
102
RTVSPost2010Prop43
 90
        3
102
RTVSPost2010PropOp43
 70
     1
102
RTVSPost2010Prop44ColorIndex
 90
        5
102
RTVSPost2010Prop44ColorRGB
 90
      255
102
RTVSPost2010PropOp44
 70
     1
102
RTVSPost2010Prop45
280
     0
102
RTVSPost2010PropOp45
 70
     1
102
RTVSPost2010Prop46
 90
       50
102
RTVSPost2010PropOp46
 70
     1
102
RTVSPost2010Prop47
 90
       50
102
RTVSPost2010PropOp47
 70
     1
102
RTVSPost2010Prop48
 90
       50
102
RTVSPost2010PropOp48
 70
     1
102
RTVSPost2010Prop49
280
     0
102
RTVSPost2010PropOp49
 70
     1
102
RTVSPost2010Prop50
 90
       50
102
RTVSPost2010PropOp50
 70
     1
102
RTVSPost2010Prop51ColorIndex
 90
      256
102
RTVSPost2010Prop51ColorRGB
 90
-16777216
102
RTVSPost2010PropOp51
 70
     0
102
RTVSPost2010Prop52
140
1.0
102
RTVSPost2010PropOp52
 70
     0
102
RTVSPost2010Prop53
 90
        2
102
RTVSPost2010PropOp53
 70
     1
102
RTVSPost2010Prop54
  1
strokes_ogs.tif
102
RTVSPost2010PropOp54
 70
     1
102
RTVSPost2010Prop55
280
     0
102
RTVSPost2010PropOp55
 70
     1
102
RTVSPost2010Prop56
140
1.0
102
RTVSPost2010PropOp56
 70
     1
102
RTVSPost2010Prop57
140
1.0
102
RTVSPost2010PropOp57
 70
     1
102
RTVSPropertyOp0
 70
     1
102
RTVSPropertyOp1
 70
     1
102
RTVSPropertyOp2
 70
     1
102
RTVSPropertyOp3
 70
     1
102
RTVSPropertyOp4
 70
     1
102
RTVSPropertyOp5
 70
     1
102
RTVSPropertyOp6
 70
     1
102
RTVSPropertyOp7
 70
     1
102
RTVSPropertyOp8
 70
     1
102
RTVSPropertyOp9
 70
     1
102
RTVSPropertyOp10
 70
     1
102
RTVSPropertyOp11
 70
     1
102
RTVSPropertyOp12
 70
     1
102
RTVSPropertyOp13
 70
     1
102
RTVSPropertyOp14
 70
     1
102
RTVSPropertyOp15
 70
     1
102
RTVSPropertyOp16
 70
     1
102
RTVSPropertyOp17
 70
     1
102
RTVSPropertyOp18
 70
     1
102
RTVSPropertyOp19
 70
     1
102
RTVSPropertyOp20
 70
     1
102
RTVSPropertyOp21
 70
     1
102
RTVSPropertyOp22
 70
     1
102
RTVSPropertyOp23
 70
     1
102
RTVSPropertyOp24
 70
     1
102
RTVSPropertyOp25
 70
     1
102
RTVSPropertyOp26
 70
     1
102
RTVSPropertyOp27
 70
     1
102
RTVSPropertyOp28
 70
     1
102
RTVSPropertyOp29
 70
     1
102
RTVSPropertyOp30
 70
     1
102
RTVSPropertyOp31
 70
     1
102
RTVSPropertyOp32
 70
     1
102
RTVSPropertyOp33
 70
     1
102
RTVSPropertyOp34
 70
     1
102
RTVSPropertyOp35
 70
     1
102
RTVSPropertyOp36
 70
     1
102
RTVSPropertyOp37
 70
     1
102
RTVSPropertyOp38
 70
     1
102
RTVSPropertyOp39
 70
     1
102
RTVSPropertyOp40
 70
     1
102
RTVSPropertyOp41
 70
     1
102
RTVSPropertyOp42
 70
     1
102
RTVSPropertyOp43
 70
     1
102
RTVSPropertyOp44
 70
     1
102
RTVSPropertyOp45
 70
     1
102
RTVSPropertyOp46
 70
     1
102
RTVSPropertyOp47
 70
     1
102
RTVSPropertyOp48
 70
     1
102
RTVSPropertyOp49
 70
     1
102
RTVSPropertyOp50
 70
     1
102
RTVSPropertyOp51
 70
     0
102
RTVSPropertyOp52
 70
     0
102
RTVSPropertyOp53
 70
     1
102
RTVSPropertyOp54
 70
     1
102
RTVSPropertyOp55
 70
     1
102
RTVSPropertyOp56
 70
     1
102
RTVSPropertyOp57
 70
     1
102
RTVSPropertyOp58
 70
     1
102
RTVSPropertyOp59
 70
     1
102
RTVSPropertyOp60
 70
     1
102
RTVSPropertyOp61
 70
     1
102
RTVSPropertyOp62
 70
     1
  0
XRECORD
  5
245A1
102
{ACAD_REACTORS
330
245A0
102
}
330
245A0
100
AcDbXrecord
280
     1
102
RTVSPost2010Prop28
280
     0
102
RTVSPost2010PropOp28
 70
     1
102
RTVSPost2010Prop29
280
     1
102
RTVSPost2010PropOp29
 70
     1
102
RTVSPost2010Prop30
280
     1
102
RTVSPost2010PropOp30
 70
     1
102
RTVSPost2010Prop31
280
     0
102
RTVSPost2010PropOp31
 70
     1
102
RTVSPost2010Prop32
280
     0
102
RTVSPost2010PropOp32
 70
     1
102
RTVSPost2010Prop33
280
     0
102
RTVSPost2010PropOp33
 70
     1
102
RTVSPost2010Prop34
280
     0
102
RTVSPost2010PropOp34
 70
     1
102
RTVSPost2010Prop35
280
     0
102
RTVSPost2010PropOp35
 70
     1
102
RTVSPost2010Prop36
280
     0
102
RTVSPost2010PropOp36
 70
     1
102
RTVSPost2010Prop37
 90
       50
102
RTVSPost2010PropOp37
 70
     1
102
RTVSPost2010Prop38
140
0.0
102
RTVSPost2010PropOp38
 70
     1
102
RTVSPost2010Prop39
140
1.0
102
RTVSPost2010PropOp39
 70
     1
102
RTVSPost2010Prop40
 90
        0
102
RTVSPost2010PropOp40
 70
     1
102
RTVSPost2010Prop41ColorIndex
 90
       18
102
RTVSPost2010Prop41ColorRGB
 90
        0
102
RTVSPost2010PropOp41
 70
     1
102
RTVSPost2010Prop42
 90
       50
102
RTVSPost2010PropOp42
 70
     1
102
RTVSPost2010Prop43
 90
        3
102
RTVSPost2010PropOp43
 70
     1
102
RTVSPost2010Prop44ColorIndex
 90
        5
102
RTVSPost2010Prop44ColorRGB
 90
      255
102
RTVSPost2010PropOp44
 70
     1
102
RTVSPost2010Prop45
280
     0
102
RTVSPost2010PropOp45
 70
     1
102
RTVSPost2010Prop46
 90
       50
102
RTVSPost2010PropOp46
 70
     1
102
RTVSPost2010Prop47
 90
       50
102
RTVSPost2010PropOp47
 70
     1
102
RTVSPost2010Prop48
 90
       50
102
RTVSPost2010PropOp48
 70
     1
102
RTVSPost2010Prop49
280
     0
102
RTVSPost2010PropOp49
 70
     1
102
RTVSPost2010Prop50
 90
       50
102
RTVSPost2010PropOp50
 70
     1
102
RTVSPost2010Prop51ColorIndex
 90
      256
102
RTVSPost2010Prop51ColorRGB
 90
-16777216
102
RTVSPost2010PropOp51
 70
     0
102
RTVSPost2010Prop52
140
1.0
102
RTVSPost2010PropOp52
 70
     0
102
RTVSPost2010Prop53
 90
        2
102
RTVSPost2010PropOp53
 70
     1
102
RTVSPost2010Prop54
  1
strokes_ogs.tif
102
RTVSPost2010PropOp54
 70
     1
102
RTVSPost2010Prop55
280
     0
102
RTVSPost2010PropOp55
 70
     1
102
RTVSPost2010Prop56
140
1.0
102
RTVSPost2010PropOp56
 70
     1
102
RTVSPost2010Prop57
140
1.0
102
RTVSPost2010PropOp57
 70
     1
102
RTVSPropertyOp0
 70
     0
102
RTVSPropertyOp1
 70
     0
102
RTVSPropertyOp2
 70
     0
102
RTVSPropertyOp3
 70
     0
102
RTVSPropertyOp4
 70
     0
102
RTVSPropertyOp5
 70
     0
102
RTVSPropertyOp6
 70
     0
102
RTVSPropertyOp7
 70
     0
102
RTVSPropertyOp8
 70
     0
102
RTVSPropertyOp9
 70
     0
102
RTVSPropertyOp10
 70
     0
102
RTVSPropertyOp11
 70
     0
102
RTVSPropertyOp12
 70
     0
102
RTVSPropertyOp13
 70
     0
102
RTVSPropertyOp14
 70
     2
102
RTVSPropertyOp15
 70
     0
102
RTVSPropertyOp16
 70
     0
102
RTVSPropertyOp17
 70
     0
102
RTVSPropertyOp18
 70
     0
102
RTVSPropertyOp19
 70
     0
102
RTVSPropertyOp20
 70
     0
102
RTVSPropertyOp21
 70
     0
102
RTVSPropertyOp22
 70
     0
102
RTVSPropertyOp23
 70
     0
102
RTVSPropertyOp24
 70
     0
102
RTVSPropertyOp25
 70
     0
102
RTVSPropertyOp26
 70
     0
102
RTVSPropertyOp27
 70
     0
102
RTVSPropertyOp28
 70
     1
102
RTVSPropertyOp29
 70
     1
102
RTVSPropertyOp30
 70
     1
102
RTVSPropertyOp31
 70
     1
102
RTVSPropertyOp32
 70
     1
102
RTVSPropertyOp33
 70
     1
102
RTVSPropertyOp34
 70
     1
102
RTVSPropertyOp35
 70
     1
102
RTVSPropertyOp36
 70
     1
102
RTVSPropertyOp37
 70
     1
102
RTVSPropertyOp38
 70
     1
102
RTVSPropertyOp39
 70
     1
102
RTVSPropertyOp40
 70
     1
102
RTVSPropertyOp41
 70
     1
102
RTVSPropertyOp42
 70
     1
102
RTVSPropertyOp43
 70
     1
102
RTVSPropertyOp44
 70
     1
102
RTVSPropertyOp45
 70
     1
102
RTVSPropertyOp46
 70
     1
102
RTVSPropertyOp47
 70
     1
102
RTVSPropertyOp48
 70
     1
102
RTVSPropertyOp49
 70
     1
102
RTVSPropertyOp50
 70
     1
102
RTVSPropertyOp51
 70
     0
102
RTVSPropertyOp52
 70
     0
102
RTVSPropertyOp53
 70
     1
102
RTVSPropertyOp54
 70
     1
102
RTVSPropertyOp55
 70
     1
102
RTVSPropertyOp56
 70
     1
102
RTVSPropertyOp57
 70
     1
102
RTVSPropertyOp58
 70
     1
102
RTVSPropertyOp59
 70
     1
102
RTVSPropertyOp60
 70
     1
102
RTVSPropertyOp61
 70
     1
102
RTVSPropertyOp62
 70
     1
  0
XRECORD
  5
24591
102
{ACAD_REACTORS
330
24590
102
}
330
24590
100
AcDbXrecord
280
     1
102
RTVSPost2010Prop28
280
     0
102
RTVSPost2010PropOp28
 70
     1
102
RTVSPost2010Prop29
280
     1
102
RTVSPost2010PropOp29
 70
     1
102
RTVSPost2010Prop30
280
     1
102
RTVSPost2010PropOp30
 70
     1
102
RTVSPost2010Prop31
280
     0
102
RTVSPost2010PropOp31
 70
     1
102
RTVSPost2010Prop32
280
     0
102
RTVSPost2010PropOp32
 70
     1
102
RTVSPost2010Prop33
280
     0
102
RTVSPost2010PropOp33
 70
     1
102
RTVSPost2010Prop34
280
     0
102
RTVSPost2010PropOp34
 70
     1
102
RTVSPost2010Prop35
280
     0
102
RTVSPost2010PropOp35
 70
     1
102
RTVSPost2010Prop36
280
     0
102
RTVSPost2010PropOp36
 70
     1
102
RTVSPost2010Prop37
 90
       50
102
RTVSPost2010PropOp37
 70
     1
102
RTVSPost2010Prop38
140
0.0
102
RTVSPost2010PropOp38
 70
     1
102
RTVSPost2010Prop39
140
1.0
102
RTVSPost2010PropOp39
 70
     1
102
RTVSPost2010Prop40
 90
        0
102
RTVSPost2010PropOp40
 70
     1
102
RTVSPost2010Prop41ColorIndex
 90
       18
102
RTVSPost2010Prop41ColorRGB
 90
        0
102
RTVSPost2010PropOp41
 70
     1
102
RTVSPost2010Prop42
 90
       50
102
RTVSPost2010PropOp42
 70
     1
102
RTVSPost2010Prop43
 90
        3
102
RTVSPost2010PropOp43
 70
     1
102
RTVSPost2010Prop44ColorIndex
 90
        5
102
RTVSPost2010Prop44ColorRGB
 90
      255
102
RTVSPost2010PropOp44
 70
     1
102
RTVSPost2010Prop45
280
     0
102
RTVSPost2010PropOp45
 70
     1
102
RTVSPost2010Prop46
 90
       50
102
RTVSPost2010PropOp46
 70
     1
102
RTVSPost2010Prop47
 90
       50
102
RTVSPost2010PropOp47
 70
     1
102
RTVSPost2010Prop48
 90
       50
102
RTVSPost2010PropOp48
 70
     1
102
RTVSPost2010Prop49
280
     0
102
RTVSPost2010PropOp49
 70
     1
102
RTVSPost2010Prop50
 90
       50
102
RTVSPost2010PropOp50
 70
     1
102
RTVSPost2010Prop51ColorIndex
 90
      256
102
RTVSPost2010Prop51ColorRGB
 90
-16777216
102
RTVSPost2010PropOp51
 70
     0
102
RTVSPost2010Prop52
140
1.0
102
RTVSPost2010PropOp52
 70
     0
102
RTVSPost2010Prop53
 90
        2
102
RTVSPost2010PropOp53
 70
     1
102
RTVSPost2010Prop54
  1
strokes_ogs.tif
102
RTVSPost2010PropOp54
 70
     1
102
RTVSPost2010Prop55
280
     0
102
RTVSPost2010PropOp55
 70
     1
102
RTVSPost2010Prop56
140
1.0
102
RTVSPost2010PropOp56
 70
     1
102
RTVSPost2010Prop57
140
1.0
102
RTVSPost2010PropOp57
 70
     1
102
RTVSPropertyOp0
 70
     1
102
RTVSPropertyOp1
 70
     1
102
RTVSPropertyOp2
 70
     1
102
RTVSPropertyOp3
 70
     1
102
RTVSPropertyOp4
 70
     1
102
RTVSPropertyOp5
 70
     1
102
RTVSPropertyOp6
 70
     1
102
RTVSPropertyOp7
 70
     1
102
RTVSPropertyOp8
 70
     1
102
RTVSPropertyOp9
 70
     1
102
RTVSPropertyOp10
 70
     1
102
RTVSPropertyOp11
 70
     1
102
RTVSPropertyOp12
 70
     1
102
RTVSPropertyOp13
 70
     1
102
RTVSPropertyOp14
 70
     1
102
RTVSPropertyOp15
 70
     1
102
RTVSPropertyOp16
 70
     1
102
RTVSPropertyOp17
 70
     1
102
RTVSPropertyOp18
 70
     1
102
RTVSPropertyOp19
 70
     1
102
RTVSPropertyOp20
 70
     1
102
RTVSPropertyOp21
 70
     1
102
RTVSPropertyOp22
 70
     1
102
RTVSPropertyOp23
 70
     1
102
RTVSPropertyOp24
 70
     1
102
RTVSPropertyOp25
 70
     1
102
RTVSPropertyOp26
 70
     1
102
RTVSPropertyOp27
 70
     1
102
RTVSPropertyOp28
 70
     1
102
RTVSPropertyOp29
 70
     1
102
RTVSPropertyOp30
 70
     1
102
RTVSPropertyOp31
 70
     1
102
RTVSPropertyOp32
 70
     1
102
RTVSPropertyOp33
 70
     1
102
RTVSPropertyOp34
 70
     1
102
RTVSPropertyOp35
 70
     1
102
RTVSPropertyOp36
 70
     1
102
RTVSPropertyOp37
 70
     1
102
RTVSPropertyOp38
 70
     1
102
RTVSPropertyOp39
 70
     1
102
RTVSPropertyOp40
 70
     1
102
RTVSPropertyOp41
 70
     1
102
RTVSPropertyOp42
 70
     1
102
RTVSPropertyOp43
 70
     1
102
RTVSPropertyOp44
 70
     1
102
RTVSPropertyOp45
 70
     1
102
RTVSPropertyOp46
 70
     1
102
RTVSPropertyOp47
 70
     1
102
RTVSPropertyOp48
 70
     1
102
RTVSPropertyOp49
 70
     1
102
RTVSPropertyOp50
 70
     1
102
RTVSPropertyOp51
 70
     0
102
RTVSPropertyOp52
 70
     0
102
RTVSPropertyOp53
 70
     1
102
RTVSPropertyOp54
 70
     1
102
RTVSPropertyOp55
 70
     1
102
RTVSPropertyOp56
 70
     1
102
RTVSPropertyOp57
 70
     1
102
RTVSPropertyOp58
 70
     1
102
RTVSPropertyOp59
 70
     1
102
RTVSPropertyOp60
 70
     1
102
RTVSPropertyOp61
 70
     1
102
RTVSPropertyOp62
 70
     1
  0
XRECORD
  5
245B2
102
{ACAD_REACTORS
330
245B1
102
}
330
245B1
100
AcDbXrecord
280
     1
102
RTVSPost2010Prop28
280
     0
102
RTVSPost2010PropOp28
 70
     1
102
RTVSPost2010Prop29
280
     1
102
RTVSPost2010PropOp29
 70
     1
102
RTVSPost2010Prop30
280
     1
102
RTVSPost2010PropOp30
 70
     1
102
RTVSPost2010Prop31
280
     0
102
RTVSPost2010PropOp31
 70
     1
102
RTVSPost2010Prop32
280
     0
102
RTVSPost2010PropOp32
 70
     1
102
RTVSPost2010Prop33
280
     0
102
RTVSPost2010PropOp33
 70
     1
102
RTVSPost2010Prop34
280
     0
102
RTVSPost2010PropOp34
 70
     1
102
RTVSPost2010Prop35
280
     0
102
RTVSPost2010PropOp35
 70
     1
102
RTVSPost2010Prop36
280
     0
102
RTVSPost2010PropOp36
 70
     1
102
RTVSPost2010Prop37
 90
       50
102
RTVSPost2010PropOp37
 70
     1
102
RTVSPost2010Prop38
140
0.0
102
RTVSPost2010PropOp38
 70
     1
102
RTVSPost2010Prop39
140
1.0
102
RTVSPost2010PropOp39
 70
     1
102
RTVSPost2010Prop40
 90
        0
102
RTVSPost2010PropOp40
 70
     1
102
RTVSPost2010Prop41ColorIndex
 90
       18
102
RTVSPost2010Prop41ColorRGB
 90
        0
102
RTVSPost2010PropOp41
 70
     1
102
RTVSPost2010Prop42
 90
       50
102
RTVSPost2010PropOp42
 70
     1
102
RTVSPost2010Prop43
 90
        3
102
RTVSPost2010PropOp43
 70
     1
102
RTVSPost2010Prop44ColorIndex
 90
        5
102
RTVSPost2010Prop44ColorRGB
 90
      255
102
RTVSPost2010PropOp44
 70
     1
102
RTVSPost2010Prop45
280
     0
102
RTVSPost2010PropOp45
 70
     1
102
RTVSPost2010Prop46
 90
       50
102
RTVSPost2010PropOp46
 70
     1
102
RTVSPost2010Prop47
 90
       50
102
RTVSPost2010PropOp47
 70
     1
102
RTVSPost2010Prop48
 90
       50
102
RTVSPost2010PropOp48
 70
     1
102
RTVSPost2010Prop49
280
     0
102
RTVSPost2010PropOp49
 70
     1
102
RTVSPost2010Prop50
 90
       50
102
RTVSPost2010PropOp50
 70
     1
102
RTVSPost2010Prop51ColorIndex
 90
      256
102
RTVSPost2010Prop51ColorRGB
 90
-16777216
102
RTVSPost2010PropOp51
 70
     0
102
RTVSPost2010Prop52
140
1.0
102
RTVSPost2010PropOp52
 70
     0
102
RTVSPost2010Prop53
 90
        2
102
RTVSPost2010PropOp53
 70
     1
102
RTVSPost2010Prop54
  1
strokes_ogs.tif
102
RTVSPost2010PropOp54
 70
     1
102
RTVSPost2010Prop55
280
     0
102
RTVSPost2010PropOp55
 70
     1
102
RTVSPost2010Prop56
140
1.0
102
RTVSPost2010PropOp56
 70
     1
102
RTVSPost2010Prop57
140
1.0
102
RTVSPost2010PropOp57
 70
     1
102
RTVSPropertyOp0
 70
     1
102
RTVSPropertyOp1
 70
     1
102
RTVSPropertyOp2
 70
     1
102
RTVSPropertyOp3
 70
     1
102
RTVSPropertyOp4
 70
     1
102
RTVSPropertyOp5
 70
     1
102
RTVSPropertyOp6
 70
     1
102
RTVSPropertyOp7
 70
     1
102
RTVSPropertyOp8
 70
     1
102
RTVSPropertyOp9
 70
     1
102
RTVSPropertyOp10
 70
     1
102
RTVSPropertyOp11
 70
     1
102
RTVSPropertyOp12
 70
     1
102
RTVSPropertyOp13
 70
     1
102
RTVSPropertyOp14
 70
     1
102
RTVSPropertyOp15
 70
     1
102
RTVSPropertyOp16
 70
     1
102
RTVSPropertyOp17
 70
     1
102
RTVSPropertyOp18
 70
     1
102
RTVSPropertyOp19
 70
     1
102
RTVSPropertyOp20
 70
     1
102
RTVSPropertyOp21
 70
     1
102
RTVSPropertyOp22
 70
     1
102
RTVSPropertyOp23
 70
     1
102
RTVSPropertyOp24
 70
     1
102
RTVSPropertyOp25
 70
     1
102
RTVSPropertyOp26
 70
     1
102
RTVSPropertyOp27
 70
     1
102
RTVSPropertyOp28
 70
     1
102
RTVSPropertyOp29
 70
     1
102
RTVSPropertyOp30
 70
     1
102
RTVSPropertyOp31
 70
     1
102
RTVSPropertyOp32
 70
     1
102
RTVSPropertyOp33
 70
     1
102
RTVSPropertyOp34
 70
     1
102
RTVSPropertyOp35
 70
     1
102
RTVSPropertyOp36
 70
     1
102
RTVSPropertyOp37
 70
     1
102
RTVSPropertyOp38
 70
     1
102
RTVSPropertyOp39
 70
     1
102
RTVSPropertyOp40
 70
     1
102
RTVSPropertyOp41
 70
     1
102
RTVSPropertyOp42
 70
     1
102
RTVSPropertyOp43
 70
     1
102
RTVSPropertyOp44
 70
     1
102
RTVSPropertyOp45
 70
     1
102
RTVSPropertyOp46
 70
     1
102
RTVSPropertyOp47
 70
     1
102
RTVSPropertyOp48
 70
     1
102
RTVSPropertyOp49
 70
     1
102
RTVSPropertyOp50
 70
     1
102
RTVSPropertyOp51
 70
     0
102
RTVSPropertyOp52
 70
     0
102
RTVSPropertyOp53
 70
     1
102
RTVSPropertyOp54
 70
     1
102
RTVSPropertyOp55
 70
     1
102
RTVSPropertyOp56
 70
     1
102
RTVSPropertyOp57
 70
     1
102
RTVSPropertyOp58
 70
     1
102
RTVSPropertyOp59
 70
     1
102
RTVSPropertyOp60
 70
     1
102
RTVSPropertyOp61
 70
     1
102
RTVSPropertyOp62
 70
     1
  0
XRECORD
  5
245B0
102
{ACAD_REACTORS
330
245AF
102
}
330
245AF
100
AcDbXrecord
280
     1
102
RTVSPost2010Prop28
280
     0
102
RTVSPost2010PropOp28
 70
     1
102
RTVSPost2010Prop29
280
     1
102
RTVSPost2010PropOp29
 70
     1
102
RTVSPost2010Prop30
280
     1
102
RTVSPost2010PropOp30
 70
     1
102
RTVSPost2010Prop31
280
     0
102
RTVSPost2010PropOp31
 70
     1
102
RTVSPost2010Prop32
280
     0
102
RTVSPost2010PropOp32
 70
     1
102
RTVSPost2010Prop33
280
     0
102
RTVSPost2010PropOp33
 70
     1
102
RTVSPost2010Prop34
280
     0
102
RTVSPost2010PropOp34
 70
     1
102
RTVSPost2010Prop35
280
     0
102
RTVSPost2010PropOp35
 70
     1
102
RTVSPost2010Prop36
280
     0
102
RTVSPost2010PropOp36
 70
     1
102
RTVSPost2010Prop37
 90
       50
102
RTVSPost2010PropOp37
 70
     1
102
RTVSPost2010Prop38
140
0.0
102
RTVSPost2010PropOp38
 70
     1
102
RTVSPost2010Prop39
140
1.0
102
RTVSPost2010PropOp39
 70
     1
102
RTVSPost2010Prop40
 90
        0
102
RTVSPost2010PropOp40
 70
     1
102
RTVSPost2010Prop41ColorIndex
 90
       18
102
RTVSPost2010Prop41ColorRGB
 90
        0
102
RTVSPost2010PropOp41
 70
     1
102
RTVSPost2010Prop42
 90
       50
102
RTVSPost2010PropOp42
 70
     1
102
RTVSPost2010Prop43
 90
        3
102
RTVSPost2010PropOp43
 70
     1
102
RTVSPost2010Prop44ColorIndex
 90
        5
102
RTVSPost2010Prop44ColorRGB
 90
      255
102
RTVSPost2010PropOp44
 70
     1
102
RTVSPost2010Prop45
280
     0
102
RTVSPost2010PropOp45
 70
     1
102
RTVSPost2010Prop46
 90
       50
102
RTVSPost2010PropOp46
 70
     1
102
RTVSPost2010Prop47
 90
       50
102
RTVSPost2010PropOp47
 70
     1
102
RTVSPost2010Prop48
 90
       50
102
RTVSPost2010PropOp48
 70
     1
102
RTVSPost2010Prop49
280
     0
102
RTVSPost2010PropOp49
 70
     1
102
RTVSPost2010Prop50
 90
       50
102
RTVSPost2010PropOp50
 70
     1
102
RTVSPost2010Prop51ColorIndex
 90
      256
102
RTVSPost2010Prop51ColorRGB
 90
-16777216
102
RTVSPost2010PropOp51
 70
     0
102
RTVSPost2010Prop52
140
1.0
102
RTVSPost2010PropOp52
 70
     0
102
RTVSPost2010Prop53
 90
        2
102
RTVSPost2010PropOp53
 70
     1
102
RTVSPost2010Prop54
  1
strokes_ogs.tif
102
RTVSPost2010PropOp54
 70
     1
102
RTVSPost2010Prop55
280
     0
102
RTVSPost2010PropOp55
 70
     1
102
RTVSPost2010Prop56
140
1.0
102
RTVSPost2010PropOp56
 70
     1
102
RTVSPost2010Prop57
140
1.0
102
RTVSPost2010PropOp57
 70
     1
102
RTVSPropertyOp0
 70
     1
102
RTVSPropertyOp1
 70
     1
102
RTVSPropertyOp2
 70
     1
102
RTVSPropertyOp3
 70
     1
102
RTVSPropertyOp4
 70
     1
102
RTVSPropertyOp5
 70
     1
102
RTVSPropertyOp6
 70
     1
102
RTVSPropertyOp7
 70
     1
102
RTVSPropertyOp8
 70
     1
102
RTVSPropertyOp9
 70
     1
102
RTVSPropertyOp10
 70
     1
102
RTVSPropertyOp11
 70
     1
102
RTVSPropertyOp12
 70
     1
102
RTVSPropertyOp13
 70
     1
102
RTVSPropertyOp14
 70
     1
102
RTVSPropertyOp15
 70
     1
102
RTVSPropertyOp16
 70
     1
102
RTVSPropertyOp17
 70
     1
102
RTVSPropertyOp18
 70
     1
102
RTVSPropertyOp19
 70
     1
102
RTVSPropertyOp20
 70
     1
102
RTVSPropertyOp21
 70
     1
102
RTVSPropertyOp22
 70
     1
102
RTVSPropertyOp23
 70
     1
102
RTVSPropertyOp24
 70
     1
102
RTVSPropertyOp25
 70
     1
102
RTVSPropertyOp26
 70
     1
102
RTVSPropertyOp27
 70
     1
102
RTVSPropertyOp28
 70
     1
102
RTVSPropertyOp29
 70
     1
102
RTVSPropertyOp30
 70
     1
102
RTVSPropertyOp31
 70
     1
102
RTVSPropertyOp32
 70
     1
102
RTVSPropertyOp33
 70
     1
102
RTVSPropertyOp34
 70
     1
102
RTVSPropertyOp35
 70
     1
102
RTVSPropertyOp36
 70
     1
102
RTVSPropertyOp37
 70
     1
102
RTVSPropertyOp38
 70
     1
102
RTVSPropertyOp39
 70
     1
102
RTVSPropertyOp40
 70
     1
102
RTVSPropertyOp41
 70
     1
102
RTVSPropertyOp42
 70
     1
102
RTVSPropertyOp43
 70
     1
102
RTVSPropertyOp44
 70
     1
102
RTVSPropertyOp45
 70
     1
102
RTVSPropertyOp46
 70
     1
102
RTVSPropertyOp47
 70
     1
102
RTVSPropertyOp48
 70
     1
102
RTVSPropertyOp49
 70
     1
102
RTVSPropertyOp50
 70
     1
102
RTVSPropertyOp51
 70
     0
102
RTVSPropertyOp52
 70
     0
102
RTVSPropertyOp53
 70
     1
102
RTVSPropertyOp54
 70
     1
102
RTVSPropertyOp55
 70
     1
102
RTVSPropertyOp56
 70
     1
102
RTVSPropertyOp57
 70
     1
102
RTVSPropertyOp58
 70
     1
102
RTVSPropertyOp59
 70
     1
102
RTVSPropertyOp60
 70
     1
102
RTVSPropertyOp61
 70
     1
102
RTVSPropertyOp62
 70
     1
  0
XRECORD
  5
245AA
102
{ACAD_REACTORS
330
245A9
102
}
330
245A9
100
AcDbXrecord
280
     1
102
RTVSPost2010Prop28
280
     0
102
RTVSPost2010PropOp28
 70
     1
102
RTVSPost2010Prop29
280
     1
102
RTVSPost2010PropOp29
 70
     1
102
RTVSPost2010Prop30
280
     1
102
RTVSPost2010PropOp30
 70
     1
102
RTVSPost2010Prop31
280
     0
102
RTVSPost2010PropOp31
 70
     1
102
RTVSPost2010Prop32
280
     0
102
RTVSPost2010PropOp32
 70
     1
102
RTVSPost2010Prop33
280
     0
102
RTVSPost2010PropOp33
 70
     1
102
RTVSPost2010Prop34
280
     0
102
RTVSPost2010PropOp34
 70
     1
102
RTVSPost2010Prop35
280
     0
102
RTVSPost2010PropOp35
 70
     1
102
RTVSPost2010Prop36
280
     0
102
RTVSPost2010PropOp36
 70
     1
102
RTVSPost2010Prop37
 90
       50
102
RTVSPost2010PropOp37
 70
     1
102
RTVSPost2010Prop38
140
0.0
102
RTVSPost2010PropOp38
 70
     1
102
RTVSPost2010Prop39
140
1.0
102
RTVSPost2010PropOp39
 70
     1
102
RTVSPost2010Prop40
 90
        0
102
RTVSPost2010PropOp40
 70
     1
102
RTVSPost2010Prop41ColorIndex
 90
       18
102
RTVSPost2010Prop41ColorRGB
 90
        0
102
RTVSPost2010PropOp41
 70
     1
102
RTVSPost2010Prop42
 90
       50
102
RTVSPost2010PropOp42
 70
     1
102
RTVSPost2010Prop43
 90
        3
102
RTVSPost2010PropOp43
 70
     1
102
RTVSPost2010Prop44ColorIndex
 90
        5
102
RTVSPost2010Prop44ColorRGB
 90
      255
102
RTVSPost2010PropOp44
 70
     1
102
RTVSPost2010Prop45
280
     0
102
RTVSPost2010PropOp45
 70
     1
102
RTVSPost2010Prop46
 90
       50
102
RTVSPost2010PropOp46
 70
     1
102
RTVSPost2010Prop47
 90
       50
102
RTVSPost2010PropOp47
 70
     1
102
RTVSPost2010Prop48
 90
       50
102
RTVSPost2010PropOp48
 70
     1
102
RTVSPost2010Prop49
280
     0
102
RTVSPost2010PropOp49
 70
     1
102
RTVSPost2010Prop50
 90
       50
102
RTVSPost2010PropOp50
 70
     1
102
RTVSPost2010Prop51ColorIndex
 90
      256
102
RTVSPost2010Prop51ColorRGB
 90
-16777216
102
RTVSPost2010PropOp51
 70
     0
102
RTVSPost2010Prop52
140
1.0
102
RTVSPost2010PropOp52
 70
     0
102
RTVSPost2010Prop53
 90
        2
102
RTVSPost2010PropOp53
 70
     1
102
RTVSPost2010Prop54
  1
strokes_ogs.tif
102
RTVSPost2010PropOp54
 70
     1
102
RTVSPost2010Prop55
280
     0
102
RTVSPost2010PropOp55
 70
     1
102
RTVSPost2010Prop56
140
1.0
102
RTVSPost2010PropOp56
 70
     1
102
RTVSPost2010Prop57
140
1.0
102
RTVSPost2010PropOp57
 70
     1
102
RTVSPropertyOp0
 70
     1
102
RTVSPropertyOp1
 70
     1
102
RTVSPropertyOp2
 70
     1
102
RTVSPropertyOp3
 70
     1
102
RTVSPropertyOp4
 70
     1
102
RTVSPropertyOp5
 70
     1
102
RTVSPropertyOp6
 70
     1
102
RTVSPropertyOp7
 70
     1
102
RTVSPropertyOp8
 70
     1
102
RTVSPropertyOp9
 70
     1
102
RTVSPropertyOp10
 70
     1
102
RTVSPropertyOp11
 70
     1
102
RTVSPropertyOp12
 70
     1
102
RTVSPropertyOp13
 70
     1
102
RTVSPropertyOp14
 70
     1
102
RTVSPropertyOp15
 70
     1
102
RTVSPropertyOp16
 70
     1
102
RTVSPropertyOp17
 70
     1
102
RTVSPropertyOp18
 70
     1
102
RTVSPropertyOp19
 70
     1
102
RTVSPropertyOp20
 70
     1
102
RTVSPropertyOp21
 70
     1
102
RTVSPropertyOp22
 70
     1
102
RTVSPropertyOp23
 70
     1
102
RTVSPropertyOp24
 70
     1
102
RTVSPropertyOp25
 70
     1
102
RTVSPropertyOp26
 70
     1
102
RTVSPropertyOp27
 70
     1
102
RTVSPropertyOp28
 70
     1
102
RTVSPropertyOp29
 70
     1
102
RTVSPropertyOp30
 70
     1
102
RTVSPropertyOp31
 70
     1
102
RTVSPropertyOp32
 70
     1
102
RTVSPropertyOp33
 70
     1
102
RTVSPropertyOp34
 70
     1
102
RTVSPropertyOp35
 70
     1
102
RTVSPropertyOp36
 70
     1
102
RTVSPropertyOp37
 70
     1
102
RTVSPropertyOp38
 70
     1
102
RTVSPropertyOp39
 70
     1
102
RTVSPropertyOp40
 70
     1
102
RTVSPropertyOp41
 70
     1
102
RTVSPropertyOp42
 70
     1
102
RTVSPropertyOp43
 70
     1
102
RTVSPropertyOp44
 70
     1
102
RTVSPropertyOp45
 70
     1
102
RTVSPropertyOp46
 70
     1
102
RTVSPropertyOp47
 70
     1
102
RTVSPropertyOp48
 70
     1
102
RTVSPropertyOp49
 70
     1
102
RTVSPropertyOp50
 70
     1
102
RTVSPropertyOp51
 70
     0
102
RTVSPropertyOp52
 70
     0
102
RTVSPropertyOp53
 70
     1
102
RTVSPropertyOp54
 70
     1
102
RTVSPropertyOp55
 70
     1
102
RTVSPropertyOp56
 70
     1
102
RTVSPropertyOp57
 70
     1
102
RTVSPropertyOp58
 70
     1
102
RTVSPropertyOp59
 70
     1
102
RTVSPropertyOp60
 70
     1
102
RTVSPropertyOp61
 70
     1
102
RTVSPropertyOp62
 70
     1
  0
XRECORD
  5
245AC
102
{ACAD_REACTORS
330
245AB
102
}
330
245AB
100
AcDbXrecord
280
     1
102
RTVSPost2010Prop28
280
     0
102
RTVSPost2010PropOp28
 70
     1
102
RTVSPost2010Prop29
280
     1
102
RTVSPost2010PropOp29
 70
     1
102
RTVSPost2010Prop30
280
     1
102
RTVSPost2010PropOp30
 70
     1
102
RTVSPost2010Prop31
280
     0
102
RTVSPost2010PropOp31
 70
     1
102
RTVSPost2010Prop32
280
     0
102
RTVSPost2010PropOp32
 70
     1
102
RTVSPost2010Prop33
280
     0
102
RTVSPost2010PropOp33
 70
     1
102
RTVSPost2010Prop34
280
     0
102
RTVSPost2010PropOp34
 70
     1
102
RTVSPost2010Prop35
280
     0
102
RTVSPost2010PropOp35
 70
     1
102
RTVSPost2010Prop36
280
     0
102
RTVSPost2010PropOp36
 70
     1
102
RTVSPost2010Prop37
 90
       50
102
RTVSPost2010PropOp37
 70
     1
102
RTVSPost2010Prop38
140
0.0
102
RTVSPost2010PropOp38
 70
     1
102
RTVSPost2010Prop39
140
1.0
102
RTVSPost2010PropOp39
 70
     1
102
RTVSPost2010Prop40
 90
        0
102
RTVSPost2010PropOp40
 70
     1
102
RTVSPost2010Prop41ColorIndex
 90
       18
102
RTVSPost2010Prop41ColorRGB
 90
        0
102
RTVSPost2010PropOp41
 70
     1
102
RTVSPost2010Prop42
 90
       50
102
RTVSPost2010PropOp42
 70
     1
102
RTVSPost2010Prop43
 90
        3
102
RTVSPost2010PropOp43
 70
     1
102
RTVSPost2010Prop44ColorIndex
 90
        5
102
RTVSPost2010Prop44ColorRGB
 90
      255
102
RTVSPost2010PropOp44
 70
     1
102
RTVSPost2010Prop45
280
     0
102
RTVSPost2010PropOp45
 70
     1
102
RTVSPost2010Prop46
 90
       50
102
RTVSPost2010PropOp46
 70
     1
102
RTVSPost2010Prop47
 90
       50
102
RTVSPost2010PropOp47
 70
     1
102
RTVSPost2010Prop48
 90
       50
102
RTVSPost2010PropOp48
 70
     1
102
RTVSPost2010Prop49
280
     0
102
RTVSPost2010PropOp49
 70
     1
102
RTVSPost2010Prop50
 90
       50
102
RTVSPost2010PropOp50
 70
     1
102
RTVSPost2010Prop51ColorIndex
 90
      256
102
RTVSPost2010Prop51ColorRGB
 90
-16777216
102
RTVSPost2010PropOp51
 70
     0
102
RTVSPost2010Prop52
140
1.0
102
RTVSPost2010PropOp52
 70
     0
102
RTVSPost2010Prop53
 90
        2
102
RTVSPost2010PropOp53
 70
     1
102
RTVSPost2010Prop54
  1
strokes_ogs.tif
102
RTVSPost2010PropOp54
 70
     1
102
RTVSPost2010Prop55
280
     0
102
RTVSPost2010PropOp55
 70
     1
102
RTVSPost2010Prop56
140
1.0
102
RTVSPost2010PropOp56
 70
     1
102
RTVSPost2010Prop57
140
1.0
102
RTVSPost2010PropOp57
 70
     1
102
RTVSPropertyOp0
 70
     1
102
RTVSPropertyOp1
 70
     1
102
RTVSPropertyOp2
 70
     1
102
RTVSPropertyOp3
 70
     1
102
RTVSPropertyOp4
 70
     1
102
RTVSPropertyOp5
 70
     1
102
RTVSPropertyOp6
 70
     1
102
RTVSPropertyOp7
 70
     1
102
RTVSPropertyOp8
 70
     1
102
RTVSPropertyOp9
 70
     1
102
RTVSPropertyOp10
 70
     1
102
RTVSPropertyOp11
 70
     1
102
RTVSPropertyOp12
 70
     1
102
RTVSPropertyOp13
 70
     1
102
RTVSPropertyOp14
 70
     1
102
RTVSPropertyOp15
 70
     1
102
RTVSPropertyOp16
 70
     1
102
RTVSPropertyOp17
 70
     1
102
RTVSPropertyOp18
 70
     1
102
RTVSPropertyOp19
 70
     1
102
RTVSPropertyOp20
 70
     1
102
RTVSPropertyOp21
 70
     1
102
RTVSPropertyOp22
 70
     1
102
RTVSPropertyOp23
 70
     1
102
RTVSPropertyOp24
 70
     1
102
RTVSPropertyOp25
 70
     1
102
RTVSPropertyOp26
 70
     1
102
RTVSPropertyOp27
 70
     1
102
RTVSPropertyOp28
 70
     1
102
RTVSPropertyOp29
 70
     1
102
RTVSPropertyOp30
 70
     1
102
RTVSPropertyOp31
 70
     1
102
RTVSPropertyOp32
 70
     1
102
RTVSPropertyOp33
 70
     1
102
RTVSPropertyOp34
 70
     1
102
RTVSPropertyOp35
 70
     1
102
RTVSPropertyOp36
 70
     1
102
RTVSPropertyOp37
 70
     1
102
RTVSPropertyOp38
 70
     1
102
RTVSPropertyOp39
 70
     1
102
RTVSPropertyOp40
 70
     1
102
RTVSPropertyOp41
 70
     1
102
RTVSPropertyOp42
 70
     1
102
RTVSPropertyOp43
 70
     1
102
RTVSPropertyOp44
 70
     1
102
RTVSPropertyOp45
 70
     1
102
RTVSPropertyOp46
 70
     1
102
RTVSPropertyOp47
 70
     1
102
RTVSPropertyOp48
 70
     1
102
RTVSPropertyOp49
 70
     1
102
RTVSPropertyOp50
 70
     1
102
RTVSPropertyOp51
 70
     0
102
RTVSPropertyOp52
 70
     0
102
RTVSPropertyOp53
 70
     1
102
RTVSPropertyOp54
 70
     1
102
RTVSPropertyOp55
 70
     1
102
RTVSPropertyOp56
 70
     1
102
RTVSPropertyOp57
 70
     1
102
RTVSPropertyOp58
 70
     1
102
RTVSPropertyOp59
 70
     1
102
RTVSPropertyOp60
 70
     1
102
RTVSPropertyOp61
 70
     1
102
RTVSPropertyOp62
 70
     1
  0
XRECORD
  5
24597
102
{ACAD_REACTORS
330
24596
102
}
330
24596
100
AcDbXrecord
280
     1
102
RTVSPost2010Prop28
280
     0
102
RTVSPost2010PropOp28
 70
     1
102
RTVSPost2010Prop29
280
     1
102
RTVSPost2010PropOp29
 70
     1
102
RTVSPost2010Prop30
280
     1
102
RTVSPost2010PropOp30
 70
     1
102
RTVSPost2010Prop31
280
     0
102
RTVSPost2010PropOp31
 70
     1
102
RTVSPost2010Prop32
280
     0
102
RTVSPost2010PropOp32
 70
     1
102
RTVSPost2010Prop33
280
     0
102
RTVSPost2010PropOp33
 70
     1
102
RTVSPost2010Prop34
280
     0
102
RTVSPost2010PropOp34
 70
     1
102
RTVSPost2010Prop35
280
     0
102
RTVSPost2010PropOp35
 70
     1
102
RTVSPost2010Prop36
280
     0
102
RTVSPost2010PropOp36
 70
     1
102
RTVSPost2010Prop37
 90
       50
102
RTVSPost2010PropOp37
 70
     1
102
RTVSPost2010Prop38
140
0.0
102
RTVSPost2010PropOp38
 70
     1
102
RTVSPost2010Prop39
140
1.0
102
RTVSPost2010PropOp39
 70
     1
102
RTVSPost2010Prop40
 90
        0
102
RTVSPost2010PropOp40
 70
     1
102
RTVSPost2010Prop41ColorIndex
 90
       18
102
RTVSPost2010Prop41ColorRGB
 90
        0
102
RTVSPost2010PropOp41
 70
     1
102
RTVSPost2010Prop42
 90
       50
102
RTVSPost2010PropOp42
 70
     1
102
RTVSPost2010Prop43
 90
        3
102
RTVSPost2010PropOp43
 70
     1
102
RTVSPost2010Prop44ColorIndex
 90
        5
102
RTVSPost2010Prop44ColorRGB
 90
      255
102
RTVSPost2010PropOp44
 70
     1
102
RTVSPost2010Prop45
280
     0
102
RTVSPost2010PropOp45
 70
     1
102
RTVSPost2010Prop46
 90
       50
102
RTVSPost2010PropOp46
 70
     1
102
RTVSPost2010Prop47
 90
       50
102
RTVSPost2010PropOp47
 70
     1
102
RTVSPost2010Prop48
 90
       50
102
RTVSPost2010PropOp48
 70
     1
102
RTVSPost2010Prop49
280
     0
102
RTVSPost2010PropOp49
 70
     1
102
RTVSPost2010Prop50
 90
       50
102
RTVSPost2010PropOp50
 70
     1
102
RTVSPost2010Prop51ColorIndex
 90
      256
102
RTVSPost2010Prop51ColorRGB
 90
-16777216
102
RTVSPost2010PropOp51
 70
     0
102
RTVSPost2010Prop52
140
1.0
102
RTVSPost2010PropOp52
 70
     0
102
RTVSPost2010Prop53
 90
        2
102
RTVSPost2010PropOp53
 70
     1
102
RTVSPost2010Prop54
  1
strokes_ogs.tif
102
RTVSPost2010PropOp54
 70
     1
102
RTVSPost2010Prop55
280
     0
102
RTVSPost2010PropOp55
 70
     1
102
RTVSPost2010Prop56
140
1.0
102
RTVSPost2010PropOp56
 70
     1
102
RTVSPost2010Prop57
140
1.0
102
RTVSPost2010PropOp57
 70
     1
102
RTVSPropertyOp0
 70
     1
102
RTVSPropertyOp1
 70
     1
102
RTVSPropertyOp2
 70
     1
102
RTVSPropertyOp3
 70
     1
102
RTVSPropertyOp4
 70
     1
102
RTVSPropertyOp5
 70
     1
102
RTVSPropertyOp6
 70
     1
102
RTVSPropertyOp7
 70
     1
102
RTVSPropertyOp8
 70
     1
102
RTVSPropertyOp9
 70
     1
102
RTVSPropertyOp10
 70
     1
102
RTVSPropertyOp11
 70
     1
102
RTVSPropertyOp12
 70
     1
102
RTVSPropertyOp13
 70
     1
102
RTVSPropertyOp14
 70
     1
102
RTVSPropertyOp15
 70
     1
102
RTVSPropertyOp16
 70
     1
102
RTVSPropertyOp17
 70
     1
102
RTVSPropertyOp18
 70
     1
102
RTVSPropertyOp19
 70
     1
102
RTVSPropertyOp20
 70
     1
102
RTVSPropertyOp21
 70
     1
102
RTVSPropertyOp22
 70
     1
102
RTVSPropertyOp23
 70
     1
102
RTVSPropertyOp24
 70
     1
102
RTVSPropertyOp25
 70
     1
102
RTVSPropertyOp26
 70
     1
102
RTVSPropertyOp27
 70
     1
102
RTVSPropertyOp28
 70
     1
102
RTVSPropertyOp29
 70
     1
102
RTVSPropertyOp30
 70
     1
102
RTVSPropertyOp31
 70
     1
102
RTVSPropertyOp32
 70
     1
102
RTVSPropertyOp33
 70
     1
102
RTVSPropertyOp34
 70
     1
102
RTVSPropertyOp35
 70
     1
102
RTVSPropertyOp36
 70
     1
102
RTVSPropertyOp37
 70
     1
102
RTVSPropertyOp38
 70
     1
102
RTVSPropertyOp39
 70
     1
102
RTVSPropertyOp40
 70
     1
102
RTVSPropertyOp41
 70
     1
102
RTVSPropertyOp42
 70
     1
102
RTVSPropertyOp43
 70
     1
102
RTVSPropertyOp44
 70
     1
102
RTVSPropertyOp45
 70
     1
102
RTVSPropertyOp46
 70
     1
102
RTVSPropertyOp47
 70
     1
102
RTVSPropertyOp48
 70
     1
102
RTVSPropertyOp49
 70
     1
102
RTVSPropertyOp50
 70
     1
102
RTVSPropertyOp51
 70
     0
102
RTVSPropertyOp52
 70
     0
102
RTVSPropertyOp53
 70
     1
102
RTVSPropertyOp54
 70
     1
102
RTVSPropertyOp55
 70
     1
102
RTVSPropertyOp56
 70
     1
102
RTVSPropertyOp57
 70
     1
102
RTVSPropertyOp58
 70
     1
102
RTVSPropertyOp59
 70
     1
102
RTVSPropertyOp60
 70
     1
102
RTVSPropertyOp61
 70
     1
102
RTVSPropertyOp62
 70
     1
  0
XRECORD
  5
245A6
102
{ACAD_REACTORS
330
245A5
102
}
330
245A5
100
AcDbXrecord
280
     1
102
RTVSPost2010Prop28
280
     0
102
RTVSPost2010PropOp28
 70
     1
102
RTVSPost2010Prop29
280
     1
102
RTVSPost2010PropOp29
 70
     1
102
RTVSPost2010Prop30
280
     1
102
RTVSPost2010PropOp30
 70
     1
102
RTVSPost2010Prop31
280
     0
102
RTVSPost2010PropOp31
 70
     1
102
RTVSPost2010Prop32
280
     0
102
RTVSPost2010PropOp32
 70
     1
102
RTVSPost2010Prop33
280
     0
102
RTVSPost2010PropOp33
 70
     1
102
RTVSPost2010Prop34
280
     0
102
RTVSPost2010PropOp34
 70
     1
102
RTVSPost2010Prop35
280
     0
102
RTVSPost2010PropOp35
 70
     1
102
RTVSPost2010Prop36
280
     0
102
RTVSPost2010PropOp36
 70
     1
102
RTVSPost2010Prop37
 90
       50
102
RTVSPost2010PropOp37
 70
     1
102
RTVSPost2010Prop38
140
0.0
102
RTVSPost2010PropOp38
 70
     1
102
RTVSPost2010Prop39
140
1.0
102
RTVSPost2010PropOp39
 70
     1
102
RTVSPost2010Prop40
 90
        0
102
RTVSPost2010PropOp40
 70
     1
102
RTVSPost2010Prop41ColorIndex
 90
       18
102
RTVSPost2010Prop41ColorRGB
 90
        0
102
RTVSPost2010PropOp41
 70
     1
102
RTVSPost2010Prop42
 90
       50
102
RTVSPost2010PropOp42
 70
     1
102
RTVSPost2010Prop43
 90
        3
102
RTVSPost2010PropOp43
 70
     1
102
RTVSPost2010Prop44ColorIndex
 90
        5
102
RTVSPost2010Prop44ColorRGB
 90
      255
102
RTVSPost2010PropOp44
 70
     1
102
RTVSPost2010Prop45
280
     0
102
RTVSPost2010PropOp45
 70
     1
102
RTVSPost2010Prop46
 90
       50
102
RTVSPost2010PropOp46
 70
     1
102
RTVSPost2010Prop47
 90
       50
102
RTVSPost2010PropOp47
 70
     1
102
RTVSPost2010Prop48
 90
       50
102
RTVSPost2010PropOp48
 70
     1
102
RTVSPost2010Prop49
280
     0
102
RTVSPost2010PropOp49
 70
     1
102
RTVSPost2010Prop50
 90
       50
102
RTVSPost2010PropOp50
 70
     1
102
RTVSPost2010Prop51ColorIndex
 90
      256
102
RTVSPost2010Prop51ColorRGB
 90
-16777216
102
RTVSPost2010PropOp51
 70
     0
102
RTVSPost2010Prop52
140
1.0
102
RTVSPost2010PropOp52
 70
     0
102
RTVSPost2010Prop53
 90
        2
102
RTVSPost2010PropOp53
 70
     1
102
RTVSPost2010Prop54
  1
strokes_ogs.tif
102
RTVSPost2010PropOp54
 70
     1
102
RTVSPost2010Prop55
280
     0
102
RTVSPost2010PropOp55
 70
     1
102
RTVSPost2010Prop56
140
1.0
102
RTVSPost2010PropOp56
 70
     1
102
RTVSPost2010Prop57
140
1.0
102
RTVSPost2010PropOp57
 70
     1
102
RTVSPropertyOp0
 70
     1
102
RTVSPropertyOp1
 70
     1
102
RTVSPropertyOp2
 70
     1
102
RTVSPropertyOp3
 70
     1
102
RTVSPropertyOp4
 70
     1
102
RTVSPropertyOp5
 70
     1
102
RTVSPropertyOp6
 70
     1
102
RTVSPropertyOp7
 70
     1
102
RTVSPropertyOp8
 70
     1
102
RTVSPropertyOp9
 70
     1
102
RTVSPropertyOp10
 70
     1
102
RTVSPropertyOp11
 70
     1
102
RTVSPropertyOp12
 70
     1
102
RTVSPropertyOp13
 70
     1
102
RTVSPropertyOp14
 70
     1
102
RTVSPropertyOp15
 70
     1
102
RTVSPropertyOp16
 70
     1
102
RTVSPropertyOp17
 70
     1
102
RTVSPropertyOp18
 70
     1
102
RTVSPropertyOp19
 70
     1
102
RTVSPropertyOp20
 70
     1
102
RTVSPropertyOp21
 70
     1
102
RTVSPropertyOp22
 70
     1
102
RTVSPropertyOp23
 70
     1
102
RTVSPropertyOp24
 70
     1
102
RTVSPropertyOp25
 70
     1
102
RTVSPropertyOp26
 70
     1
102
RTVSPropertyOp27
 70
     1
102
RTVSPropertyOp28
 70
     1
102
RTVSPropertyOp29
 70
     1
102
RTVSPropertyOp30
 70
     1
102
RTVSPropertyOp31
 70
     1
102
RTVSPropertyOp32
 70
     1
102
RTVSPropertyOp33
 70
     1
102
RTVSPropertyOp34
 70
     1
102
RTVSPropertyOp35
 70
     1
102
RTVSPropertyOp36
 70
     1
102
RTVSPropertyOp37
 70
     1
102
RTVSPropertyOp38
 70
     1
102
RTVSPropertyOp39
 70
     1
102
RTVSPropertyOp40
 70
     1
102
RTVSPropertyOp41
 70
     1
102
RTVSPropertyOp42
 70
     1
102
RTVSPropertyOp43
 70
     1
102
RTVSPropertyOp44
 70
     1
102
RTVSPropertyOp45
 70
     1
102
RTVSPropertyOp46
 70
     1
102
RTVSPropertyOp47
 70
     1
102
RTVSPropertyOp48
 70
     1
102
RTVSPropertyOp49
 70
     1
102
RTVSPropertyOp50
 70
     1
102
RTVSPropertyOp51
 70
     0
102
RTVSPropertyOp52
 70
     0
102
RTVSPropertyOp53
 70
     1
102
RTVSPropertyOp54
 70
     1
102
RTVSPropertyOp55
 70
     1
102
RTVSPropertyOp56
 70
     1
102
RTVSPropertyOp57
 70
     1
102
RTVSPropertyOp58
 70
     1
102
RTVSPropertyOp59
 70
     1
102
RTVSPropertyOp60
 70
     1
102
RTVSPropertyOp61
 70
     1
102
RTVSPropertyOp62
 70
     1
  0
XRECORD
  5
245AE
102
{ACAD_REACTORS
330
245AD
102
}
330
245AD
100
AcDbXrecord
280
     1
102
RTVSPost2010Prop28
280
     0
102
RTVSPost2010PropOp28
 70
     1
102
RTVSPost2010Prop29
280
     1
102
RTVSPost2010PropOp29
 70
     1
102
RTVSPost2010Prop30
280
     1
102
RTVSPost2010PropOp30
 70
     1
102
RTVSPost2010Prop31
280
     0
102
RTVSPost2010PropOp31
 70
     1
102
RTVSPost2010Prop32
280
     0
102
RTVSPost2010PropOp32
 70
     1
102
RTVSPost2010Prop33
280
     0
102
RTVSPost2010PropOp33
 70
     1
102
RTVSPost2010Prop34
280
     0
102
RTVSPost2010PropOp34
 70
     1
102
RTVSPost2010Prop35
280
     0
102
RTVSPost2010PropOp35
 70
     1
102
RTVSPost2010Prop36
280
     0
102
RTVSPost2010PropOp36
 70
     1
102
RTVSPost2010Prop37
 90
       50
102
RTVSPost2010PropOp37
 70
     1
102
RTVSPost2010Prop38
140
0.0
102
RTVSPost2010PropOp38
 70
     1
102
RTVSPost2010Prop39
140
1.0
102
RTVSPost2010PropOp39
 70
     1
102
RTVSPost2010Prop40
 90
        0
102
RTVSPost2010PropOp40
 70
     1
102
RTVSPost2010Prop41ColorIndex
 90
       18
102
RTVSPost2010Prop41ColorRGB
 90
        0
102
RTVSPost2010PropOp41
 70
     1
102
RTVSPost2010Prop42
 90
       50
102
RTVSPost2010PropOp42
 70
     1
102
RTVSPost2010Prop43
 90
        3
102
RTVSPost2010PropOp43
 70
     1
102
RTVSPost2010Prop44ColorIndex
 90
        5
102
RTVSPost2010Prop44ColorRGB
 90
      255
102
RTVSPost2010PropOp44
 70
     1
102
RTVSPost2010Prop45
280
     0
102
RTVSPost2010PropOp45
 70
     1
102
RTVSPost2010Prop46
 90
       50
102
RTVSPost2010PropOp46
 70
     1
102
RTVSPost2010Prop47
 90
       50
102
RTVSPost2010PropOp47
 70
     1
102
RTVSPost2010Prop48
 90
       50
102
RTVSPost2010PropOp48
 70
     1
102
RTVSPost2010Prop49
280
     0
102
RTVSPost2010PropOp49
 70
     1
102
RTVSPost2010Prop50
 90
       50
102
RTVSPost2010PropOp50
 70
     1
102
RTVSPost2010Prop51ColorIndex
 90
      256
102
RTVSPost2010Prop51ColorRGB
 90
-16777216
102
RTVSPost2010PropOp51
 70
     0
102
RTVSPost2010Prop52
140
1.0
102
RTVSPost2010PropOp52
 70
     0
102
RTVSPost2010Prop53
 90
        2
102
RTVSPost2010PropOp53
 70
     1
102
RTVSPost2010Prop54
  1
strokes_ogs.tif
102
RTVSPost2010PropOp54
 70
     1
102
RTVSPost2010Prop55
280
     0
102
RTVSPost2010PropOp55
 70
     1
102
RTVSPost2010Prop56
140
1.0
102
RTVSPost2010PropOp56
 70
     1
102
RTVSPost2010Prop57
140
1.0
102
RTVSPost2010PropOp57
 70
     1
102
RTVSPropertyOp0
 70
     1
102
RTVSPropertyOp1
 70
     1
102
RTVSPropertyOp2
 70
     1
102
RTVSPropertyOp3
 70
     1
102
RTVSPropertyOp4
 70
     1
102
RTVSPropertyOp5
 70
     1
102
RTVSPropertyOp6
 70
     1
102
RTVSPropertyOp7
 70
     1
102
RTVSPropertyOp8
 70
     1
102
RTVSPropertyOp9
 70
     1
102
RTVSPropertyOp10
 70
     1
102
RTVSPropertyOp11
 70
     1
102
RTVSPropertyOp12
 70
     1
102
RTVSPropertyOp13
 70
     1
102
RTVSPropertyOp14
 70
     1
102
RTVSPropertyOp15
 70
     1
102
RTVSPropertyOp16
 70
     1
102
RTVSPropertyOp17
 70
     1
102
RTVSPropertyOp18
 70
     1
102
RTVSPropertyOp19
 70
     1
102
RTVSPropertyOp20
 70
     1
102
RTVSPropertyOp21
 70
     1
102
RTVSPropertyOp22
 70
     1
102
RTVSPropertyOp23
 70
     1
102
RTVSPropertyOp24
 70
     1
102
RTVSPropertyOp25
 70
     1
102
RTVSPropertyOp26
 70
     1
102
RTVSPropertyOp27
 70
     1
102
RTVSPropertyOp28
 70
     1
102
RTVSPropertyOp29
 70
     1
102
RTVSPropertyOp30
 70
     1
102
RTVSPropertyOp31
 70
     1
102
RTVSPropertyOp32
 70
     1
102
RTVSPropertyOp33
 70
     1
102
RTVSPropertyOp34
 70
     1
102
RTVSPropertyOp35
 70
     1
102
RTVSPropertyOp36
 70
     1
102
RTVSPropertyOp37
 70
     1
102
RTVSPropertyOp38
 70
     1
102
RTVSPropertyOp39
 70
     1
102
RTVSPropertyOp40
 70
     1
102
RTVSPropertyOp41
 70
     1
102
RTVSPropertyOp42
 70
     1
102
RTVSPropertyOp43
 70
     1
102
RTVSPropertyOp44
 70
     1
102
RTVSPropertyOp45
 70
     1
102
RTVSPropertyOp46
 70
     1
102
RTVSPropertyOp47
 70
     1
102
RTVSPropertyOp48
 70
     1
102
RTVSPropertyOp49
 70
     1
102
RTVSPropertyOp50
 70
     1
102
RTVSPropertyOp51
 70
     0
102
RTVSPropertyOp52
 70
     0
102
RTVSPropertyOp53
 70
     1
102
RTVSPropertyOp54
 70
     1
102
RTVSPropertyOp55
 70
     1
102
RTVSPropertyOp56
 70
     1
102
RTVSPropertyOp57
 70
     1
102
RTVSPropertyOp58
 70
     1
102
RTVSPropertyOp59
 70
     1
102
RTVSPropertyOp60
 70
     1
102
RTVSPropertyOp61
 70
     1
102
RTVSPropertyOp62
 70
     1
  0
ENDSEC
  0
EOF
