0
SECTION
2
HEADER
9
$ACADVER
1
AC1015
9
$DWGCODEPAGE
3
ANSI_1252
9
$HANDSEED
5
207
9
$ANGBASE
50
0
9
$ANGDIR
70
0
9
$ATTMODE
70
1
9
$AUNITS
70
0
9
$AUPREC
70
0
9
$CECOLOR
62
256
9
$CELTSCALE
40
1
9
$CELTYPE
6
ByLayer
9
$CELWEIGHT
370
18
9
$CLAYER
8
0
9
$CMLJUST
70
0
9
$CMLSCALE
40
1
9
$CMLSTYLE
2
Standard
9
$DIMSTYLE
2
Standard
9
$TEXTSIZE
40
0.2
9
$TEXTSTYLE
7
Standard
9
$LUNITS
70
2
9
$LUPREC
70
4
9
$EXTNAMES
290
1
9
$INSUNITS
70
4
9
$LTSCALE
40
1
9
$LWDISPLAY
290
1
9
$PDMODE
70
0
9
$PDSIZE
40
0
9
$PLINEGEN
70
0
0
ENDSEC
0
SECTION
2
CLASSES
0
CLASS
1
RASTERVARIABLES
2
AcDbRasterVariables
3
ISM
90
0
280
0
281
0
0
ENDSEC
0
SECTION
2
TABLES
0
TABLE
2
VPORT
5
1fd
100
AcDbSymbolTable
0
VPORT
5
1
100
AcDbSymbolTableRecord
100
AcDbViewportTableRecord
2
*Active
70
0
10
0
20
0
11
1
21
1
12
-1
22
1
13
0
23
0
14
0.5
24
0.5
15
10
25
10
16
0
26
0
36
1
17
0
27
0
37
0
0
ENDTAB
0
TABLE
2
LTYPE
5
1fe
100
AcDbSymbolTable
0
LTYPE
5
14
100
AcDbSymbolTableRecord
100
AcDbLinetypeTableRecord
70
0
2
ByBlock
3

72
65
73
0
40
0
0
LTYPE
5
15
100
AcDbSymbolTableRecord
100
AcDbLinetypeTableRecord
70
0
2
ByLayer
3

72
65
73
0
40
0
0
LTYPE
5
16
100
AcDbSymbolTableRecord
100
AcDbLinetypeTableRecord
70
0
2
CONTINUOUS
3
Solid line
72
65
73
0
40
0
0
LTYPE
5
6A
100
AcDbSymbolTableRecord
100
AcDbLinetypeTableRecord
70
0
2
CENTER
3
____ _ ____ _ ____ _ ____
72
65
73
4
40
47.5
49
22
74
0
49
-8.5
74
0
49
8.5
74
0
49
-8.5
74
0
0
LTYPE
5
6B
100
AcDbSymbolTableRecord
100
AcDbLinetypeTableRecord
70
0
2
DASHED
3
__ __ __ __ __ __ __ __ __
72
65
73
2
40
25.72
49
12.86
74
0
49
-12.86
74
0
0
ENDTAB
0
TABLE
2
LAYER
5
1ff
100
AcDbSymbolTable
0
LAYER
5
10
100
AcDbSymbolTableRecord
100
AcDbLayerTableRecord
2
0
70
0
62
7
6
CONTINUOUS
290
1
370
-3
390
0
0
LAYER
5
6D
100
AcDbSymbolTableRecord
100
AcDbLayerTableRecord
2
2
70
0
62
7
6
CONTINUOUS
290
1
370
-3
390
0
0
LAYER
5
6F
100
AcDbSymbolTableRecord
100
AcDbLayerTableRecord
2
80
70
0
62
-6
6
CONTINUOUS
290
1
370
-3
390
0
0
LAYER
5
71
100
AcDbSymbolTableRecord
100
AcDbLayerTableRecord
2
81
70
0
62
-3
6
CONTINUOUS
290
1
370
-3
390
0
0
LAYER
5
74
100
AcDbSymbolTableRecord
100
AcDbLayerTableRecord
2
1
70
0
62
4
6
CONTINUOUS
290
1
370
-3
390
0
0
LAYER
5
1ea
100
AcDbSymbolTableRecord
100
AcDbLayerTableRecord
2
SK1
70
0
62
4
6
CONTINUOUS
290
1
370
-3
390
0
0
LAYER
5
1eb
100
AcDbSymbolTableRecord
100
AcDbLayerTableRecord
2
SK6
70
0
62
5
6
CONTINUOUS
290
1
370
-3
390
0
0
LAYER
5
1ec
100
AcDbSymbolTableRecord
100
AcDbLayerTableRecord
2
SK2
70
0
62
7
6
CONTINUOUS
290
1
370
-3
390
0
0
ENDTAB
0
TABLE
2
STYLE
5
200
100
AcDbSymbolTable
0
STYLE
5
11
100
AcDbSymbolTableRecord
100
AcDbTextStyleTableRecord
2
Standard
3
txt
70
0
71
0
40
0
41
1
42
0
50
0
0
STYLE
5
124
100
AcDbSymbolTableRecord
100
AcDbTextStyleTableRecord
2
iso_b_vert
3
simplex.shx
70
0
71
0
40
0
41
1
42
0
50
0
0
STYLE
5
125
100
AcDbSymbolTableRecord
100
AcDbTextStyleTableRecord
2
DWGDirectTextStyle
3
simplex
70
0
71
0
40
0
41
1
42
0
50
0
0
ENDTAB
0
TABLE
2
DIMSTYLE
5
201
100
AcDbSymbolTable
100
AcDbDimStyleTable
0
DIMSTYLE
105
27
100
AcDbSymbolTableRecord
100
AcDbDimStyleTableRecord
2
Standard
70
0
3
<>
41
0.18
42
0.0625
44
0.18
140
0.18
147
0.09
73
0
74
0
77
1
271
2
275
0
278
52
280
0
340
11
0
ENDTAB
0
TABLE
2
VIEW
5
202
100
AcDbSymbolTable
0
ENDTAB
0
TABLE
2
UCS
5
203
100
AcDbSymbolTable
0
ENDTAB
0
TABLE
2
APPID
5
204
100
AcDbSymbolTable
0
APPID
5
12
100
AcDbSymbolTableRecord
100
AcDbRegAppTableRecord
2
ACAD
70
0
0
ENDTAB
0
TABLE
2
BLOCK_RECORD
5
205
100
AcDbSymbolTable
0
BLOCK_RECORD
5
1F
100
AcDbSymbolTableRecord
100
AcDbBlockTableRecord
2
*Model_Space
340
0
70
0
0
BLOCK_RECORD
5
1B
100
AcDbSymbolTableRecord
100
AcDbBlockTableRecord
2
*Paper_Space
340
0
70
0
0
BLOCK_RECORD
5
23
100
AcDbSymbolTableRecord
100
AcDbBlockTableRecord
2
*Paper_Space0
340
0
70
0
0
BLOCK_RECORD
5
127
100
AcDbSymbolTableRecord
100
AcDbBlockTableRecord
2
DimnDraft3D11
340
0
70
0
0
BLOCK_RECORD
5
135
100
AcDbSymbolTableRecord
100
AcDbBlockTableRecord
2
DimnDraft3D2
340
0
70
0
0
BLOCK_RECORD
5
144
100
AcDbSymbolTableRecord
100
AcDbBlockTableRecord
2
_CLOSED
340
0
70
0
0
BLOCK_RECORD
5
14B
100
AcDbSymbolTableRecord
100
AcDbBlockTableRecord
2
DimnDraft3D3
340
0
70
0
0
BLOCK_RECORD
5
159
100
AcDbSymbolTableRecord
100
AcDbBlockTableRecord
2
DimnDraft3D4
340
0
70
0
0
BLOCK_RECORD
5
167
100
AcDbSymbolTableRecord
100
AcDbBlockTableRecord
2
DimnDraft3D5
340
0
70
0
0
BLOCK_RECORD
5
175
100
AcDbSymbolTableRecord
100
AcDbBlockTableRecord
2
DimnDraft3D6
340
0
70
0
0
BLOCK_RECORD
5
183
100
AcDbSymbolTableRecord
100
AcDbBlockTableRecord
2
DimnDraft3D7
340
0
70
0
0
ENDTAB
0
ENDSEC
0
SECTION
2
BLOCKS
0
BLOCK
5
20
100
AcDbEntity
8
0
100
AcDbBlockBegin
2
*Model_Space
70
0
10
0
20
0
30
0
3
*Model_Space
0
ENDBLK
5
21
100
AcDbEntity
8
0
100
AcDbBlockEnd
0
BLOCK
5
1C
100
AcDbEntity
8
0
100
AcDbBlockBegin
2
*Paper_Space
70
0
10
0
20
0
30
0
3
*Paper_Space
0
ENDBLK
5
1D
100
AcDbEntity
8
0
100
AcDbBlockEnd
0
BLOCK
5
24
100
AcDbEntity
8
0
100
AcDbBlockBegin
2
*Paper_Space0
70
0
10
0
20
0
30
0
3
*Paper_Space0
0
ENDBLK
5
25
100
AcDbEntity
8
0
100
AcDbBlockEnd
0
BLOCK
5
128
100
AcDbEntity
8
0
100
AcDbBlockBegin
2
DimnDraft3D11
70
0
10
0
20
0
30
0
3
DimnDraft3D11
0
LINE
5
12A
100
AcDbEntity
8
2
62
256
6
ByLayer
370
25
48
1
60
0
100
AcDbLine
10
28.7
20
36.0625
30
0
11
28.7
21
57.3125
31
0
39
0
210
0
220
0
230
1
0
LINE
5
12B
100
AcDbEntity
8
2
62
256
6
ByLayer
370
25
48
1
60
0
100
AcDbLine
10
0
20
13.9375
30
0
11
0
21
57.3125
31
0
39
0
210
0
220
0
230
1
0
LINE
5
12C
100
AcDbEntity
8
2
62
256
6
ByLayer
370
25
48
1
60
0
100
AcDbLine
10
28.7
20
54.3125
30
0
11
0
21
54.3125
31
0
39
0
210
0
220
0
230
1
0
LINE
5
12D
100
AcDbEntity
8
2
62
256
6
ByLayer
370
25
48
1
60
0
100
AcDbLine
10
28.7
20
54.3125
30
0
11
25.700001
21
53.917543
31
0
39
0
210
0
220
0
230
1
0
LINE
5
12E
100
AcDbEntity
8
2
62
256
6
ByLayer
370
25
48
1
60
0
100
AcDbLine
10
28.7
20
54.3125
30
0
11
25.699999
21
54.707457
31
0
39
0
210
0
220
0
230
1
0
LINE
5
12F
100
AcDbEntity
8
2
62
256
6
ByLayer
370
25
48
1
60
0
100
AcDbLine
10
25.700001
20
53.917543
30
0
11
25.699999
21
54.707457
31
0
39
0
210
0
220
0
230
1
0
LINE
5
130
100
AcDbEntity
8
2
62
256
6
ByLayer
370
25
48
1
60
0
100
AcDbLine
10
0
20
54.3125
30
0
11
2.999999
21
54.707457
31
0
39
0
210
0
220
0
230
1
0
LINE
5
131
100
AcDbEntity
8
2
62
256
6
ByLayer
370
25
48
1
60
0
100
AcDbLine
10
0
20
54.3125
30
0
11
3.000001
21
53.917543
31
0
39
0
210
0
220
0
230
1
0
LINE
5
132
100
AcDbEntity
8
2
62
256
6
ByLayer
370
25
48
1
60
0
100
AcDbLine
10
2.999999
20
54.707457
30
0
11
3.000001
21
53.917543
31
0
39
0
210
0
220
0
230
1
0
MTEXT
5
133
100
AcDbEntity
8
2
62
256
6
ByLayer
370
18
48
1
60
0
100
AcDbMText
10
10.193421
20
55.4375
30
0
210
0
220
0
230
1
1
\W0.7346;28.7
40
4.5
41
0
44
1.084337
50
0
71
7
72
5
7
iso_b_vert
0
ENDBLK
5
129
100
AcDbEntity
8
0
100
AcDbBlockEnd
0
BLOCK
5
141
100
AcDbEntity
8
0
100
AcDbBlockBegin
2
DimnDraft3D2
70
0
10
0
20
0
30
0
3
DimnDraft3D2
0
MTEXT
5
136
100
AcDbEntity
8
SK2
62
256
6
ByLayer
370
18
48
1
60
0
100
AcDbMText
10
-133.525
20
-1.563158
30
0
210
0
220
0
230
1
1
\W0.6740;25
40
4.5
41
0
44
1.084337
50
90
71
7
72
5
7
iso_b_vert
0
LINE
5
138
100
AcDbEntity
8
SK2
62
256
6
ByLayer
370
13
48
1
60
0
100
AcDbLine
10
-124.15
20
12.4375
30
0
11
-135.4
21
12.4375
31
0
39
0
210
0
220
0
230
1
0
LINE
5
139
100
AcDbEntity
8
SK2
62
256
6
ByLayer
370
13
48
1
60
0
100
AcDbLine
10
-124.15
20
-12.4375
30
0
11
-135.4
21
-12.4375
31
0
39
0
210
0
220
0
230
1
0
LINE
5
13A
100
AcDbEntity
8
SK2
62
256
6
ByLayer
370
13
48
1
60
0
100
AcDbLine
10
-132.4
20
12.4375
30
0
11
-132.4
21
-12.4375
31
0
39
0
210
0
220
0
230
1
0
LINE
5
13B
100
AcDbEntity
8
SK2
62
256
6
ByLayer
370
13
48
1
60
0
100
AcDbLine
10
-132.4
20
12.4375
30
0
11
-132.005043
21
9.437501
31
0
39
0
210
0
220
0
230
1
0
LINE
5
13C
100
AcDbEntity
8
SK2
62
256
6
ByLayer
370
13
48
1
60
0
100
AcDbLine
10
-132.4
20
12.4375
30
0
11
-132.794957
21
9.437499
31
0
39
0
210
0
220
0
230
1
0
LINE
5
13D
100
AcDbEntity
8
SK2
62
256
6
ByLayer
370
13
48
1
60
0
100
AcDbLine
10
-132.005043
20
9.437501
30
0
11
-132.794957
21
9.437499
31
0
39
0
210
0
220
0
230
1
0
LINE
5
13E
100
AcDbEntity
8
SK2
62
256
6
ByLayer
370
13
48
1
60
0
100
AcDbLine
10
-132.4
20
-12.4375
30
0
11
-132.794957
21
-9.437501
31
0
39
0
210
0
220
0
230
1
0
LINE
5
13F
100
AcDbEntity
8
SK2
62
256
6
ByLayer
370
13
48
1
60
0
100
AcDbLine
10
-132.4
20
-12.4375
30
0
11
-132.005043
21
-9.437499
31
0
39
0
210
0
220
0
230
1
0
LINE
5
140
100
AcDbEntity
8
SK2
62
256
6
ByLayer
370
13
48
1
60
0
100
AcDbLine
10
-132.794957
20
-9.437501
30
0
11
-132.005043
21
-9.437499
31
0
39
0
210
0
220
0
230
1
0
ENDBLK
5
142
100
AcDbEntity
8
0
100
AcDbBlockEnd
0
BLOCK
5
145
100
AcDbEntity
8
0
100
AcDbBlockBegin
2
_CLOSED
70
0
10
0
20
0
30
0
3
_CLOSED
0
LINE
5
147
100
AcDbEntity
8
0
62
256
6
ByLayer
370
-2
48
1
60
0
100
AcDbLine
10
-1
20
0.166667
30
0
11
0
21
0
31
0
39
0
210
0
220
0
230
1
0
LINE
5
148
100
AcDbEntity
8
0
62
256
6
ByLayer
370
-2
48
1
60
0
100
AcDbLine
10
0
20
0
30
0
11
-1
21
-0.166667
31
0
39
0
210
0
220
0
230
1
0
LINE
5
149
100
AcDbEntity
8
0
62
256
6
ByLayer
370
-2
48
1
60
0
100
AcDbLine
10
-1
20
0.166667
30
0
11
-1
21
-0.166667
31
0
39
0
210
0
220
0
230
1
0
LINE
5
14A
100
AcDbEntity
8
0
62
256
6
ByLayer
370
-2
48
1
60
0
100
AcDbLine
10
0
20
0
30
0
11
-1
21
0
31
0
39
0
210
0
220
0
230
1
0
ENDBLK
5
146
100
AcDbEntity
8
0
100
AcDbBlockEnd
0
BLOCK
5
156
100
AcDbEntity
8
0
100
AcDbBlockBegin
2
DimnDraft3D3
70
0
10
0
20
0
30
0
3
DimnDraft3D3
0
MTEXT
5
14C
100
AcDbEntity
8
2
62
256
6
ByLayer
370
18
48
1
60
0
100
AcDbMText
10
13.825
20
40.1875
30
0
210
0
220
0
230
1
1
\W0.7121;8.7
40
4.5
41
0
44
1.084337
50
90
71
7
72
5
7
iso_b_vert
0
LINE
5
14D
100
AcDbEntity
8
2
62
256
6
ByLayer
370
13
48
1
60
0
100
AcDbLine
10
25.2
20
34.5625
30
0
11
11.95
21
34.5625
31
0
39
0
210
0
220
0
230
1
0
LINE
5
14E
100
AcDbEntity
8
2
62
256
6
ByLayer
370
13
48
1
60
0
100
AcDbLine
10
18.2
20
25.8625
30
0
11
11.95
21
25.8625
31
0
39
0
210
0
220
0
230
1
0
LINE
5
14F
100
AcDbEntity
8
2
62
256
6
ByLayer
370
13
48
1
60
0
100
AcDbLine
10
14.95
20
25.8625
30
0
11
14.95
21
46.2625
31
0
39
0
210
0
220
0
230
1
0
LINE
5
150
100
AcDbEntity
8
2
62
256
6
ByLayer
370
13
48
1
60
0
100
AcDbLine
10
14.95
20
34.5625
30
0
11
15.344957
21
31.562501
31
0
39
0
210
0
220
0
230
1
0
LINE
5
151
100
AcDbEntity
8
2
62
256
6
ByLayer
370
13
48
1
60
0
100
AcDbLine
10
14.95
20
34.5625
30
0
11
14.555043
21
31.562499
31
0
39
0
210
0
220
0
230
1
0
LINE
5
152
100
AcDbEntity
8
2
62
256
6
ByLayer
370
13
48
1
60
0
100
AcDbLine
10
15.344957
20
31.562501
30
0
11
14.555043
21
31.562499
31
0
39
0
210
0
220
0
230
1
0
LINE
5
153
100
AcDbEntity
8
2
62
256
6
ByLayer
370
13
48
1
60
0
100
AcDbLine
10
14.95
20
25.8625
30
0
11
14.555043
21
28.862499
31
0
39
0
210
0
220
0
230
1
0
LINE
5
154
100
AcDbEntity
8
2
62
256
6
ByLayer
370
13
48
1
60
0
100
AcDbLine
10
14.95
20
25.8625
30
0
11
15.344957
21
28.862501
31
0
39
0
210
0
220
0
230
1
0
LINE
5
155
100
AcDbEntity
8
2
62
256
6
ByLayer
370
13
48
1
60
0
100
AcDbLine
10
14.555043
20
28.862499
30
0
11
15.344957
21
28.862501
31
0
39
0
210
0
220
0
230
1
0
ENDBLK
5
157
100
AcDbEntity
8
0
100
AcDbBlockEnd
0
BLOCK
5
164
100
AcDbEntity
8
0
100
AcDbBlockBegin
2
DimnDraft3D4
70
0
10
0
20
0
30
0
3
DimnDraft3D4
0
MTEXT
5
15A
100
AcDbEntity
8
2
62
256
6
ByLayer
370
18
48
1
60
0
100
AcDbMText
10
23.825
20
20.405921
30
0
210
0
220
0
230
1
1
\W0.7346;20.0
40
4.5
41
0
44
1.084337
50
90
71
7
72
5
7
iso_b_vert
0
LINE
5
15B
100
AcDbEntity
8
2
62
256
6
ByLayer
370
13
48
1
60
0
100
AcDbLine
10
24.7
20
14.5625
30
0
11
27.95
21
14.5625
31
0
39
0
210
0
220
0
230
1
0
LINE
5
15C
100
AcDbEntity
8
2
62
256
6
ByLayer
370
13
48
1
60
0
100
AcDbLine
10
25.2
20
34.5625
30
0
11
21.95
21
34.5625
31
0
39
0
210
0
220
0
230
1
0
LINE
5
15D
100
AcDbEntity
8
2
62
256
6
ByLayer
370
13
48
1
60
0
100
AcDbLine
10
24.95
20
14.5625
30
0
11
24.95
21
34.5625
31
0
39
0
210
0
220
0
230
1
0
LINE
5
15E
100
AcDbEntity
8
2
62
256
6
ByLayer
370
13
48
1
60
0
100
AcDbLine
10
24.95
20
14.5625
30
0
11
24.555043
21
17.562499
31
0
39
0
210
0
220
0
230
1
0
LINE
5
15F
100
AcDbEntity
8
2
62
256
6
ByLayer
370
13
48
1
60
0
100
AcDbLine
10
24.95
20
14.5625
30
0
11
25.344957
21
17.562501
31
0
39
0
210
0
220
0
230
1
0
LINE
5
160
100
AcDbEntity
8
2
62
256
6
ByLayer
370
13
48
1
60
0
100
AcDbLine
10
24.555043
20
17.562499
30
0
11
25.344957
21
17.562501
31
0
39
0
210
0
220
0
230
1
0
LINE
5
161
100
AcDbEntity
8
2
62
256
6
ByLayer
370
13
48
1
60
0
100
AcDbLine
10
24.95
20
34.5625
30
0
11
25.344957
21
31.562501
31
0
39
0
210
0
220
0
230
1
0
LINE
5
162
100
AcDbEntity
8
2
62
256
6
ByLayer
370
13
48
1
60
0
100
AcDbLine
10
24.95
20
34.5625
30
0
11
24.555043
21
31.562499
31
0
39
0
210
0
220
0
230
1
0
LINE
5
163
100
AcDbEntity
8
2
62
256
6
ByLayer
370
13
48
1
60
0
100
AcDbLine
10
25.344957
20
31.562501
30
0
11
24.555043
21
31.562499
31
0
39
0
210
0
220
0
230
1
0
ENDBLK
5
165
100
AcDbEntity
8
0
100
AcDbBlockEnd
0
BLOCK
5
172
100
AcDbEntity
8
0
100
AcDbBlockBegin
2
DimnDraft3D5
70
0
10
0
20
0
30
0
3
DimnDraft3D5
0
MTEXT
5
168
100
AcDbEntity
8
2
62
256
6
ByLayer
370
18
48
1
60
0
100
AcDbMText
10
49.006731
20
9.2625
30
0
210
0
220
0
230
1
1
\W0.7361;47
40
4.5
41
0
44
1.084337
50
90
71
7
72
5
7
iso_b_vert
0
LINE
5
169
100
AcDbEntity
8
2
62
256
6
ByLayer
370
13
48
1
60
0
100
AcDbLine
10
1.5
20
-12.4375
30
0
11
53.131731
21
-12.4375
31
0
39
0
210
0
220
0
230
1
0
LINE
5
16A
100
AcDbEntity
8
2
62
256
6
ByLayer
370
13
48
1
60
0
100
AcDbLine
10
30.2
20
34.5625
30
0
11
53.131731
21
34.5625
31
0
39
0
210
0
220
0
230
1
0
LINE
5
16B
100
AcDbEntity
8
2
62
256
6
ByLayer
370
13
48
1
60
0
100
AcDbLine
10
50.131731
20
-12.4375
30
0
11
50.131731
21
34.5625
31
0
39
0
210
0
220
0
230
1
0
LINE
5
16C
100
AcDbEntity
8
2
62
256
6
ByLayer
370
13
48
1
60
0
100
AcDbLine
10
50.131731
20
-12.4375
30
0
11
49.736773
21
-9.437501
31
0
39
0
210
0
220
0
230
1
0
LINE
5
16D
100
AcDbEntity
8
2
62
256
6
ByLayer
370
13
48
1
60
0
100
AcDbLine
10
50.131731
20
-12.4375
30
0
11
50.526688
21
-9.437499
31
0
39
0
210
0
220
0
230
1
0
LINE
5
16E
100
AcDbEntity
8
2
62
256
6
ByLayer
370
13
48
1
60
0
100
AcDbLine
10
49.736773
20
-9.437501
30
0
11
50.526688
21
-9.437499
31
0
39
0
210
0
220
0
230
1
0
LINE
5
16F
100
AcDbEntity
8
2
62
256
6
ByLayer
370
13
48
1
60
0
100
AcDbLine
10
50.131731
20
34.5625
30
0
11
50.526688
21
31.562501
31
0
39
0
210
0
220
0
230
1
0
LINE
5
170
100
AcDbEntity
8
2
62
256
6
ByLayer
370
13
48
1
60
0
100
AcDbLine
10
50.131731
20
34.5625
30
0
11
49.736773
21
31.562499
31
0
39
0
210
0
220
0
230
1
0
LINE
5
171
100
AcDbEntity
8
2
62
256
6
ByLayer
370
13
48
1
60
0
100
AcDbLine
10
50.526688
20
31.562501
30
0
11
49.736773
21
31.562499
31
0
39
0
210
0
220
0
230
1
0
ENDBLK
5
173
100
AcDbEntity
8
0
100
AcDbBlockEnd
0
BLOCK
5
180
100
AcDbEntity
8
0
100
AcDbBlockBegin
2
DimnDraft3D6
70
0
10
0
20
0
30
0
3
DimnDraft3D6
0
MTEXT
5
176
100
AcDbEntity
8
SK2
62
256
6
ByLayer
370
18
48
1
60
0
100
AcDbMText
10
-49.657237
20
65.4375
30
0
210
0
220
0
230
1
1
\W0.6217;150
40
4.5
41
0
44
1.084337
50
0
71
7
72
5
7
iso_b_vert
0
LINE
5
177
100
AcDbEntity
8
SK2
62
256
6
ByLayer
370
13
48
1
60
0
100
AcDbLine
10
-122.65
20
13.9375
30
0
11
-122.65
21
67.3125
31
0
39
0
210
0
220
0
230
1
0
LINE
5
178
100
AcDbEntity
8
SK2
62
256
6
ByLayer
370
13
48
1
60
0
100
AcDbLine
10
28.7
20
36.0625
30
0
11
28.7
21
67.3125
31
0
39
0
210
0
220
0
230
1
0
LINE
5
179
100
AcDbEntity
8
SK2
62
256
6
ByLayer
370
13
48
1
60
0
100
AcDbLine
10
-122.65
20
64.3125
30
0
11
28.7
21
64.3125
31
0
39
0
210
0
220
0
230
1
0
LINE
5
17A
100
AcDbEntity
8
SK2
62
256
6
ByLayer
370
13
48
1
60
0
100
AcDbLine
10
-122.65
20
64.3125
30
0
11
-119.650001
21
64.707457
31
0
39
0
210
0
220
0
230
1
0
LINE
5
17B
100
AcDbEntity
8
SK2
62
256
6
ByLayer
370
13
48
1
60
0
100
AcDbLine
10
-122.65
20
64.3125
30
0
11
-119.649999
21
63.917543
31
0
39
0
210
0
220
0
230
1
0
LINE
5
17C
100
AcDbEntity
8
SK2
62
256
6
ByLayer
370
13
48
1
60
0
100
AcDbLine
10
-119.650001
20
64.707457
30
0
11
-119.649999
21
63.917543
31
0
39
0
210
0
220
0
230
1
0
LINE
5
17D
100
AcDbEntity
8
SK2
62
256
6
ByLayer
370
13
48
1
60
0
100
AcDbLine
10
28.7
20
64.3125
30
0
11
25.700001
21
63.917543
31
0
39
0
210
0
220
0
230
1
0
LINE
5
17E
100
AcDbEntity
8
SK2
62
256
6
ByLayer
370
13
48
1
60
0
100
AcDbLine
10
28.7
20
64.3125
30
0
11
25.699999
21
64.707457
31
0
39
0
210
0
220
0
230
1
0
LINE
5
17F
100
AcDbEntity
8
SK2
62
256
6
ByLayer
370
13
48
1
60
0
100
AcDbLine
10
25.700001
20
63.917543
30
0
11
25.699999
21
64.707457
31
0
39
0
210
0
220
0
230
1
0
ENDBLK
5
181
100
AcDbEntity
8
0
100
AcDbBlockEnd
0
BLOCK
5
18E
100
AcDbEntity
8
0
100
AcDbBlockBegin
2
DimnDraft3D7
70
0
10
0
20
0
30
0
3
DimnDraft3D7
0
MTEXT
5
184
100
AcDbEntity
8
2
62
256
6
ByLayer
370
18
48
1
60
0
100
AcDbMText
10
34.325
20
45.4375
30
0
210
0
220
0
230
1
1
\W0.6380;4
40
4.5
41
0
44
1.084337
50
0
71
7
72
5
7
iso_b_vert
0
LINE
5
185
100
AcDbEntity
8
2
62
256
6
ByLayer
370
13
48
1
60
0
100
AcDbLine
10
24.7
20
36.0625
30
0
11
24.7
21
47.3125
31
0
39
0
210
0
220
0
230
1
0
LINE
5
186
100
AcDbEntity
8
2
62
256
6
ByLayer
370
13
48
1
60
0
100
AcDbLine
10
28.7
20
36.0625
30
0
11
28.7
21
47.3125
31
0
39
0
210
0
220
0
230
1
0
LINE
5
187
100
AcDbEntity
8
2
62
256
6
ByLayer
370
13
48
1
60
0
100
AcDbLine
10
35.686842
20
44.3125
30
0
11
13.45
21
44.3125
31
0
39
0
210
0
220
0
230
1
0
LINE
5
188
100
AcDbEntity
8
2
62
256
6
ByLayer
370
13
48
1
60
0
100
AcDbLine
10
24.7
20
44.3125
30
0
11
21.700001
21
43.917543
31
0
39
0
210
0
220
0
230
1
0
LINE
5
189
100
AcDbEntity
8
2
62
256
6
ByLayer
370
13
48
1
60
0
100
AcDbLine
10
24.7
20
44.3125
30
0
11
21.699999
21
44.707457
31
0
39
0
210
0
220
0
230
1
0
LINE
5
18A
100
AcDbEntity
8
2
62
256
6
ByLayer
370
13
48
1
60
0
100
AcDbLine
10
21.700001
20
43.917543
30
0
11
21.699999
21
44.707457
31
0
39
0
210
0
220
0
230
1
0
LINE
5
18B
100
AcDbEntity
8
2
62
256
6
ByLayer
370
13
48
1
60
0
100
AcDbLine
10
28.7
20
44.3125
30
0
11
31.699999
21
44.707457
31
0
39
0
210
0
220
0
230
1
0
LINE
5
18C
100
AcDbEntity
8
2
62
256
6
ByLayer
370
13
48
1
60
0
100
AcDbLine
10
28.7
20
44.3125
30
0
11
31.700001
21
43.917543
31
0
39
0
210
0
220
0
230
1
0
LINE
5
18D
100
AcDbEntity
8
2
62
256
6
ByLayer
370
13
48
1
60
0
100
AcDbLine
10
31.699999
20
44.707457
30
0
11
31.700001
21
43.917543
31
0
39
0
210
0
220
0
230
1
0
ENDBLK
5
18F
100
AcDbEntity
8
0
100
AcDbBlockEnd
0
ENDSEC
0
SECTION
2
ENTITIES
0
ARC
5
BD
100
AcDbEntity
8
1
62
256
6
ByLayer
370
18
48
1
60
0
100
AcDbCircle
39
0
10
-21.3
20
14.6625
30
0
40
1.6
210
0
220
0
230
-1
100
AcDbArc
50
180
51
270
0
ARC
5
BE
100
AcDbEntity
8
1
62
256
6
ByLayer
370
18
48
1
60
0
100
AcDbCircle
39
0
10
-18.9
20
25.8625
30
0
40
6
210
0
220
0
230
-1
100
AcDbArc
50
198.659906
51
228.189685
0
ARC
5
BF
100
AcDbEntity
8
1
62
256
6
ByLayer
370
18
48
1
60
0
100
AcDbCircle
39
0
10
-29.89
20
-1.36126
30
0
40
1.6
210
0
220
0
230
-1
100
AcDbArc
50
0
51
60
0
ARC
5
C2
100
AcDbEntity
8
1
62
256
6
ByLayer
370
18
48
1
60
0
100
AcDbCircle
39
0
10
-20.185263
20
4.916308
30
0
40
0.501259405157916
210
0
220
0
230
-1
100
AcDbArc
50
128.054217
51
291.945783
0
ARC
5
C4
100
AcDbEntity
8
1
62
256
6
ByLayer
370
18
48
1
60
0
100
AcDbCircle
39
0
10
-19.775615
20
3.333455
30
0
40
1.13980641809794
210
0
220
0
230
-1
100
AcDbArc
50
18.752695
51
101.247305
0
ARC
5
C5
100
AcDbEntity
8
1
62
256
6
ByLayer
370
18
48
1
60
0
100
AcDbCircle
39
0
10
-15.04877
20
6.0625
30
0
40
1.13980641809794
210
0
220
0
230
-1
100
AcDbArc
50
132.227341
51
227.772659
0
ARC
5
C6
100
AcDbEntity
8
1
62
256
6
ByLayer
370
18
48
1
60
0
100
AcDbCircle
39
0
10
-18.2
20
8.354884
30
0
40
0.501259405157916
210
0
220
0
230
-1
100
AcDbArc
50
8.054217
51
157.074182
0
ARC
5
C7
100
AcDbEntity
8
1
62
256
6
ByLayer
370
18
48
1
60
0
100
AcDbCircle
39
0
10
-16.214737
20
7.208692
30
0
40
0.501259405157916
210
0
220
0
230
-1
100
AcDbArc
50
322.925818
51
97.074182
0
ARC
5
C9
100
AcDbEntity
8
1
62
256
6
ByLayer
370
18
48
1
60
0
100
AcDbCircle
39
0
10
-16.214737
20
4.916308
30
0
40
0.501259405157916
210
0
220
0
230
-1
100
AcDbArc
50
262.925818
51
37.074182
0
ARC
5
CA
100
AcDbEntity
8
1
62
256
6
ByLayer
370
18
48
1
60
0
100
AcDbCircle
39
0
10
-16.624385
20
3.333455
30
0
40
1.13980641809794
210
0
220
0
230
-1
100
AcDbArc
50
72.227341
51
161.247305
0
ARC
5
CB
100
AcDbEntity
8
1
62
256
6
ByLayer
370
18
48
1
60
0
100
AcDbCircle
39
0
10
-20.185263
20
7.208692
30
0
40
0.501259405157916
210
0
220
0
230
-1
100
AcDbArc
50
82.925818
51
231.945783
0
ARC
5
CD
100
AcDbEntity
8
1
62
256
6
ByLayer
370
18
48
1
60
0
100
AcDbCircle
39
0
10
-19.775615
20
8.791545
30
0
40
1.13980641809794
210
0
220
0
230
-1
100
AcDbArc
50
252.227341
51
347.772659
0
ARC
5
CE
100
AcDbEntity
8
1
62
256
6
ByLayer
370
18
48
1
60
0
100
AcDbCircle
39
0
10
-21.35123
20
6.0625
30
0
40
1.13980641809794
210
0
220
0
230
-1
100
AcDbArc
50
318.752695
51
41.247305
0
ARC
5
CF
100
AcDbEntity
8
1
62
256
6
ByLayer
370
18
48
1
60
0
100
AcDbCircle
39
0
10
-16.624385
20
8.791545
30
0
40
1.13980641809794
210
0
220
0
230
-1
100
AcDbArc
50
198.752695
51
287.772659
0
ARC
5
D0
100
AcDbEntity
8
1
62
256
6
ByLayer
370
18
48
1
60
0
100
AcDbCircle
39
0
10
-18.2
20
3.770116
30
0
40
0.501259405157916
210
0
220
0
230
-1
100
AcDbArc
50
188.054217
51
351.945783
0
CIRCLE
5
C0
100
AcDbEntity
8
1
62
256
6
ByLayer
370
18
48
1
60
0
100
AcDbCircle
10
24.2
20
-8.9375
30
0
40
1.64999999999999
39
0
210
0
220
0
230
1
0
CIRCLE
5
C1
100
AcDbEntity
8
1
62
256
6
ByLayer
370
18
48
1
60
0
100
AcDbCircle
10
-18.2
20
6.0625
30
0
40
5.50000000000001
39
0
210
0
220
0
230
-1
0
CIRCLE
5
C3
100
AcDbEntity
8
1
62
256
6
ByLayer
370
18
48
1
60
0
100
AcDbCircle
10
18.2
20
6.0625
30
0
40
4.4958
39
0
210
0
220
0
230
1
0
CIRCLE
5
C8
100
AcDbEntity
8
1
62
256
6
ByLayer
370
18
48
1
60
0
100
AcDbCircle
10
-18.2
20
6.0625
30
0
40
3.0330983114651
39
0
210
0
220
0
230
-1
0
CIRCLE
5
CC
100
AcDbEntity
8
1
62
256
6
ByLayer
370
18
48
1
60
0
100
AcDbCircle
10
-18.2
20
6.0625
30
0
40
5.0038
39
0
210
0
220
0
230
-1
0
ELLIPSE
5
D1
100
AcDbEntity
8
1
62
256
6
ByLayer
370
18
48
1
60
0
100
AcDbEllipse
10
47.4
20
38.455662
30
0
11
-19.1000000000267
21
4.47495176765443E-14
31
0
210
0
220
0
230
1
40
0.57735
41
0.449660365206066
42
0.923476308416187
0
ELLIPSE
5
D2
100
AcDbEntity
8
1
62
256
6
ByLayer
370
18
48
1
60
0
100
AcDbEllipse
10
47.4
20
30.822804
30
0
11
3.19544672361652E-14
21
27.277626928771
31
0
210
0
220
0
230
1
40
0.700208
41
1.62184250606648
42
2.12182064320054
0
ELLIPSE
5
D3
100
AcDbEntity
8
1
62
256
6
ByLayer
370
18
48
1
60
0
100
AcDbEllipse
10
42.2
20
30.822804
30
0
11
3.22890689853715E-14
21
27.5632565284482
31
0
210
0
220
0
230
1
40
0.700208
41
1.92006490322992
42
2.11546497612098
0
ELLIPSE
5
D4
100
AcDbEntity
8
1
62
256
6
ByLayer
370
18
48
1
60
0
100
AcDbEllipse
10
26.141524
20
29.494974
30
0
11
-0.500000052757181
21
2.12567830841472E-08
31
0
210
0
220
0
230
1
40
0.493963
41
-1.22173041892236
42
-1.13446396436252
0
ELLIPSE
5
D5
100
AcDbEntity
8
1
62
256
6
ByLayer
370
18
48
1
60
0
100
AcDbEllipse
10
27.140419
20
25.5125
30
0
11
-2.1445069205126
21
5.02437959930974E-15
31
0
210
0
220
0
230
1
40
0.466308
41
-2.41641269498053
42
-2.3000379341071
0
ELLIPSE
5
D6
100
AcDbEntity
8
1
62
256
6
ByLayer
370
18
48
1
60
0
100
AcDbEllipse
10
42.200002
20
37.574232
30
0
11
-17.087733196851
21
-9.46287451870695
31
0
210
0
220
0
230
1
40
0.28551
41
-0.215505017635946
42
-0.185373351477348
0
ELLIPSE
5
D7
100
AcDbEntity
8
1
62
256
6
ByLayer
370
18
48
1
60
0
100
AcDbEllipse
10
27.258476
20
29.494974
30
0
11
-0.500000052757181
21
-2.12567818514635E-08
31
0
210
0
220
0
230
1
40
0.493963
41
-2.00712868922728
42
-1.91986223466743
0
ELLIPSE
5
D8
100
AcDbEntity
8
1
62
256
6
ByLayer
370
18
48
1
60
0
100
AcDbEllipse
10
42.2
20
30.822804
30
0
11
2.89430514656382E-14
21
24.7069605080558
31
0
210
0
220
0
230
1
40
0.700208
41
1.6294890194899
42
1.77293552592768
0
POINT
5
6C
100
AcDbEntity
8
2
62
256
6
ByLayer
370
18
48
1
60
0
100
AcDbPoint
10
28.7
20
34.5625
30
0
39
0
210
0
220
0
230
1
50
360
0
POINT
5
6E
100
AcDbEntity
8
80
62
256
6
ByLayer
370
18
48
1
60
0
100
AcDbPoint
10
0
20
0
30
0
39
0
210
0
220
0
230
1
50
360
0
POINT
5
70
100
AcDbEntity
8
81
62
256
6
ByLayer
370
18
48
1
60
0
100
AcDbPoint
10
28.7
20
34.5625
30
0
39
0
210
0
220
0
230
1
50
360
0
SPLINE
5
D9
100
AcDbEntity
8
1
62
256
6
ByLayer
370
18
48
1
60
0
100
AcDbSpline
70
4
71
3
72
18
73
14
40
0
40
0
40
0
40
0
40
0.144750876405297
40
0.144750876405297
40
0.315925214275803
40
0.315925214275803
40
0.377975172833704
40
0.377975172833704
40
0.605475544816662
40
0.605475544816662
40
0.831645385768217
40
0.831645385768217
40
1
40
1
40
1
40
1
41
1
10
25.6927288748259
20
14.6624999999999
30
0
41
1
10
25.6927288748259
20
14.5321774646307
30
0
41
1
10
25.6736423010277
20
14.4006204723181
30
0
41
1
10
25.5940480597819
20
14.1272809518391
30
0
41
1
10
25.525561337902
20
13.9847389533221
30
0
41
1
10
25.4071423865056
20
13.8102048537366
30
0
41
1
10
25.3728251465755
20
13.7650663759563
30
0
41
1
10
25.2048468189618
20
13.5662544945665
30
0
41
1
10
25.0422735307236
20
13.4336578746872
30
0
41
1
10
24.6901711144108
20
13.2300978542721
30
0
41
1
10
24.4961746658588
20
13.1558609797497
30
0
41
1
10
24.1505769841223
20
13.0791262553025
30
0
41
1
10
23.9986496314887
20
13.0624999999999
30
0
41
1
10
23.8476159586825
20
13.0624999999999
30
0
0
SPLINE
5
DA
100
AcDbEntity
8
1
62
256
6
ByLayer
370
18
48
1
60
0
100
AcDbSpline
70
4
71
2
72
6
73
3
40
0
40
0
40
0
40
1
40
1
40
1
41
0.500000003138901
10
24.9070885305183
20
27.689553770097
30
0
41
0.499999996861099
10
24.906740467048
20
28.3952129959454
30
0
41
0.500000003138901
10
24.9064094911441
20
29.1004430053146
30
0
0
SPLINE
5
DB
100
AcDbEntity
8
1
62
256
6
ByLayer
370
18
48
1
60
0
100
AcDbSpline
70
4
71
3
72
8
73
4
40
0
40
0
40
0
40
0
40
1
40
1
40
1
40
1
41
1
10
24.0652709837187
20
21.3903640450003
30
0
41
1
10
25.2402233650273
20
22.6471867739809
30
0
41
1
10
25.4762539364343
20
24.3014142974501
30
0
41
1
10
25.2522393757372
20
25.8624999999999
30
0
0
SPLINE
5
DC
100
AcDbEntity
8
1
62
256
6
ByLayer
370
18
48
1
60
0
100
AcDbSpline
70
4
71
3
72
14
73
10
40
0
40
0
40
0
40
0
40
0.238019487539997
40
0.238019487539997
40
0.586694618108366
40
0.586694618108366
40
0.947526689118932
40
0.947526689118932
40
1
40
1
40
1
40
1
41
1
10
24.5816428827551
20
23.9340453121204
30
0
41
1
10
24.6002805454808
20
23.9888525401353
30
0
41
1
10
24.6216462308731
20
24.0527389928649
30
0
41
1
10
24.676256623975
20
24.2263902761662
30
0
41
1
10
24.7111718518511
20
24.3464687953029
30
0
41
1
10
24.776034266221
20
24.6072550961234
30
0
41
1
10
24.8065985177119
20
24.7524105749992
30
0
41
1
10
24.8340841099789
20
24.9194057040013
30
0
41
1
10
24.8374918340614
20
24.9409463010179
30
0
41
1
10
24.840763515273
20
24.9625
30
0
0
SPLINE
5
DD
100
AcDbEntity
8
1
62
256
6
ByLayer
370
18
48
1
60
0
100
AcDbSpline
70
4
71
3
72
10
73
6
40
0
40
0
40
0
40
0
40
0.208911983327503
40
0.208911983327503
40
1
40
1
40
1
40
1
41
1
10
24.8781230032224
20
25.2578635823363
30
0
41
1
10
24.8826789944005
20
25.2984074550235
30
0
41
1
10
24.8868450638919
20
25.3394099336704
30
0
41
1
10
24.9046944041219
20
25.5370512556147
30
0
41
1
10
24.912596586684
20
25.6996901655127
30
0
41
1
10
24.9130268336264
20
25.8625000000155
30
0
0
SPLINE
5
DE
100
AcDbEntity
8
1
62
256
6
ByLayer
370
18
48
1
60
0
100
AcDbSpline
70
4
71
3
72
12
73
8
40
0
40
0
40
0
40
0
40
0.256073663354132
40
0.256073663354132
40
0.725560724053991
40
0.725560724053991
40
1
40
1
40
1
40
1
41
1
10
28.7453254314731
20
26.1757701308389
30
0
41
1
10
28.7542591882106
20
26.1299106155135
30
0
41
1
10
28.7624532005512
20
26.0800009896391
30
0
41
1
10
28.7826827519295
20
25.9308814401759
30
0
41
1
10
28.7924808859415
20
25.8226664079791
30
0
41
1
10
28.8008288693175
20
25.6464756636346
30
0
41
1
10
28.8024169312245
20
25.5793134586864
30
0
41
1
10
28.8024169312245
20
25.5125
30
0
0
SPLINE
5
DF
100
AcDbEntity
8
1
62
256
6
ByLayer
370
18
48
1
60
0
100
AcDbSpline
70
4
71
2
72
6
73
3
40
0
40
0
40
0
40
1
40
1
40
1
41
0.500000055840896
10
24.9064094911441
20
29.1004430053151
30
0
41
0.499999944159104
10
24.906724793455
20
29.1365578944272
30
0
41
0.500000055840896
10
24.9070556032777
20
29.1726948527239
30
0
0
SPLINE
5
E0
100
AcDbEntity
8
1
62
256
6
ByLayer
370
18
48
1
60
0
100
AcDbSpline
70
4
71
3
72
8
73
4
40
0
40
0
40
0
40
0
40
1
40
1
40
1
40
1
41
1
10
24.9130268336258
20
25.8625000000157
30
0
41
1
10
24.913145545935
20
25.9074219494853
30
0
41
1
10
24.913205604467
20
25.9524739768506
30
0
41
1
10
24.913205604467
20
25.9975
30
0
0
SPLINE
5
E1
100
AcDbEntity
8
1
62
256
6
ByLayer
370
18
48
1
60
0
100
AcDbSpline
70
4
71
3
72
10
73
6
40
0
40
0
40
0
40
0
40
0.770049689008136
40
0.770049689008136
40
1
40
1
40
1
40
1
41
1
10
28.8024169312245
20
25.2625
30
0
41
1
10
28.8024169312245
20
25.1526223023623
30
0
41
1
10
28.7980264260867
20
25.0412319150885
30
0
41
1
10
28.7873496479525
20
24.9066504596989
30
0
41
1
10
28.7845342983077
20
24.8761348099145
30
0
41
1
10
28.7813980309685
20
24.8462662453682
30
0
0
SPLINE
5
E2
100
AcDbEntity
8
1
62
256
6
ByLayer
370
18
48
1
60
0
100
AcDbSpline
70
4
71
3
72
10
73
6
40
0
40
0
40
0
40
0
40
0.822583100030769
40
0.822583100030769
40
1
40
1
40
1
40
1
41
1
10
24.913205604467
20
26.8625
30
0
41
1
10
24.913205604467
20
27.0948326216092
30
0
41
1
10
24.9114299890269
20
27.330705975126
30
0
41
1
10
24.9082926815941
20
27.5963433739912
30
0
41
1
10
24.9076966332497
20
27.6433792153897
30
0
41
1
10
24.9070885305183
20
27.6895537701066
30
0
0
SPLINE
5
E3
100
AcDbEntity
8
1
62
256
6
ByLayer
370
18
48
1
60
0
100
AcDbSpline
70
4
71
3
72
10
73
6
40
0
40
0
40
0
40
0
40
0.5
40
0.5
40
1
40
1
40
1
40
1
41
1
10
24.840763515273
20
24.9625
30
0
41
1
10
24.8481971248561
20
25.0114723090184
30
0
41
1
10
24.8550298364852
20
25.0605744015776
30
0
41
1
10
24.8674867574395
20
25.1590396022425
30
0
41
1
10
24.8731161224293
20
25.2084563483085
30
0
41
1
10
24.8781230032225
20
25.2578635823363
30
0
0
SPLINE
5
E4
100
AcDbEntity
8
1
62
256
6
ByLayer
370
18
48
1
60
0
100
AcDbSpline
70
4
71
5
72
12
73
6
40
0
40
0
40
0
40
0
40
0
40
0
40
1
40
1
40
1
40
1
40
1
40
1
41
1
10
27.72496397163
20
29.733997638529
30
0
41
1
10
27.7287216985979
20
29.7191688075426
30
0
41
1
10
27.73221165334
20
29.7039179624262
30
0
41
1
10
27.7354200316989
20
29.6883313089744
30
0
41
1
10
27.7383378093865
20
29.6724929588013
30
0
41
1
10
27.7409608360568
20
29.6564771006566
30
0
0
SPLINE
5
E5
100
AcDbEntity
8
1
62
256
6
ByLayer
370
18
48
1
60
0
100
AcDbSpline
70
4
71
5
72
12
73
6
40
0
40
0
40
0
40
0
40
0
40
0
40
1
40
1
40
1
40
1
40
1
40
1
41
1
10
26.7980685396387
20
29.7243767442909
30
0
41
1
10
26.7891787332033
20
29.7414372024362
30
0
41
1
10
26.7799540654163
20
29.7566031118682
30
0
41
1
10
26.7705006184813
20
29.7696703525718
30
0
41
1
10
26.7609326334812
20
29.7804801779678
30
0
41
1
10
26.751365920862
20
29.788936842137
30
0
0
SPLINE
5
E6
100
AcDbEntity
8
1
62
256
6
ByLayer
370
18
48
1
60
0
100
AcDbSpline
70
4
71
5
72
12
73
6
40
0
40
0
40
0
40
0
40
0
40
0
40
1
40
1
40
1
40
1
40
1
40
1
41
1
10
26.6019314603414
20
29.7243767442909
30
0
41
1
10
26.6108212667768
20
29.7414372024362
30
0
41
1
10
26.6200459345638
20
29.7566031118682
30
0
41
1
10
26.6294993814988
20
29.7696703525718
30
0
41
1
10
26.6390673664989
20
29.7804801779678
30
0
41
1
10
26.648634079118
20
29.788936842137
30
0
0
SPLINE
5
E7
100
AcDbEntity
8
1
62
256
6
ByLayer
370
18
48
1
60
0
100
AcDbSpline
70
4
71
3
72
8
73
4
40
0
40
0
40
0
40
0
40
1
40
1
40
1
40
1
41
1
10
25.6750372305503
20
29.7339989093526
30
0
41
1
10
25.6706064916801
20
29.7080244317542
30
0
41
1
10
25.6661757528099
20
29.6820499541558
30
0
41
1
10
25.6617450139397
20
29.6560754765575
30
0
0
SPLINE
5
E8
100
AcDbEntity
8
1
62
256
6
ByLayer
370
18
48
1
60
0
100
AcDbSpline
70
4
71
3
72
8
73
4
40
0
40
0
40
0
40
0
40
1
40
1
40
1
40
1
41
1
10
25.6236967395356
20
29.7335193020157
30
0
41
1
10
25.62883903451
20
29.7074167623418
30
0
41
1
10
25.6338713499695
20
29.6798505579353
30
0
41
1
10
25.638846123831
20
29.6516393494823
30
0
0
SPLINE
5
E9
100
AcDbEntity
8
1
62
256
6
ByLayer
370
18
48
1
60
0
100
AcDbSpline
70
4
71
3
72
8
73
4
40
0
40
0
40
0
40
0
40
1
40
1
40
1
40
1
41
1
10
27.7763364027475
20
29.7335209473241
30
0
41
1
10
27.7713287320536
20
29.7074843196708
30
0
41
1
10
27.7663210613597
20
29.6799595505277
30
0
41
1
10
27.7613133906658
20
29.6517959494607
30
0
0
SPLINE
5
EA
100
AcDbEntity
8
1
62
256
6
ByLayer
370
18
48
1
60
0
100
AcDbSpline
70
4
71
5
72
12
73
6
40
0
40
0
40
0
40
0
40
0
40
0
40
1
40
1
40
1
40
1
40
1
40
1
41
1
10
26.6999991719027
20
29.7593312788889
30
0
41
1
10
26.6999991296974
20
29.7655765219452
30
0
41
1
10
26.6999990871672
20
29.7713447386853
30
0
41
1
10
26.6999990444152
20
29.7766195775142
30
0
41
1
10
26.6999990015462
20
29.7813873172232
30
0
41
1
10
26.6999989586655
20
29.785637278888
30
0
0
SPLINE
5
EB
100
AcDbEntity
8
1
62
256
6
ByLayer
370
18
48
1
60
0
100
AcDbSpline
70
4
71
5
72
12
73
6
40
0
40
0
40
0
40
0
40
0
40
0
40
1
40
1
40
1
40
1
40
1
40
1
41
1
10
25.4375000018301
20
29.587213135958
30
0
41
1
10
25.4375000018301
20
29.6031891961583
30
0
41
1
10
25.4375000018297
20
29.6191636489609
30
0
41
1
10
25.4375000018291
20
29.635071834145
30
0
41
1
10
25.4375000018281
20
29.6508455656979
30
0
41
1
10
25.4375000018271
20
29.6664160314034
30
0
0
SPLINE
5
EC
100
AcDbEntity
8
1
62
256
6
ByLayer
370
18
48
1
60
0
100
AcDbSpline
70
4
71
5
72
12
73
6
40
0
40
0
40
0
40
0
40
0
40
0
40
1
40
1
40
1
40
1
40
1
40
1
41
1
10
25.5492721693393
20
29.8169768187388
30
0
41
1
10
25.5298089879768
20
29.7886568567981
30
0
41
1
10
25.5095682325944
20
29.761105721366
30
0
41
1
10
25.4893043393456
20
29.7356571279387
30
0
41
1
10
25.464469746777
20
29.7105602610777
30
0
41
1
10
25.43748326613
20
29.711149071261
30
0
0
SPLINE
5
ED
100
AcDbEntity
8
1
62
256
6
ByLayer
370
18
48
1
60
0
100
AcDbSpline
70
4
71
5
72
12
73
6
40
0
40
0
40
0
40
0
40
0
40
0
40
1
40
1
40
1
40
1
40
1
40
1
41
1
10
25.43750000182
20
29.711149071261
30
0
41
1
10
25.43750000182
20
29.702126047543
30
0
41
1
10
25.43750000182
20
29.693102935457
30
0
41
1
10
25.4375000018301
20
29.684117977602
30
0
41
1
10
25.4375000018301
20
29.675209416284
30
0
41
1
10
25.4375000018301
20
29.666414529465
30
0
0
SPLINE
5
EE
100
AcDbEntity
8
1
62
256
6
ByLayer
370
18
48
1
60
0
100
AcDbSpline
70
4
71
5
72
12
73
6
40
0
40
0
40
0
40
0
40
0
40
0
40
1
40
1
40
1
40
1
40
1
40
1
41
1
10
27.9624999981501
20
29.587213135958
30
0
41
1
10
27.9624999981501
20
29.6031891961583
30
0
41
1
10
27.9624999981504
20
29.6191636489609
30
0
41
1
10
27.9624999981511
20
29.635071834145
30
0
41
1
10
27.9624999981519
20
29.6508455656978
30
0
41
1
10
27.962499998153
20
29.6664160314034
30
0
0
SPLINE
5
EF
100
AcDbEntity
8
1
62
256
6
ByLayer
370
18
48
1
60
0
100
AcDbSpline
70
4
71
5
72
12
73
6
40
0
40
0
40
0
40
0
40
0
40
0
40
1
40
1
40
1
40
1
40
1
40
1
41
1
10
26.7000010413146
20
29.78563859731
30
0
41
1
10
26.7104884106687
20
29.785637113425
30
0
41
1
10
26.7209937253154
20
29.785972402754
30
0
41
1
10
26.7313196658265
20
29.786638490398
30
0
41
1
10
26.7413964729972
20
29.787619059739
30
0
41
1
10
26.7513654625636
20
29.788938371891
30
0
0
SPLINE
5
F0
100
AcDbEntity
8
1
62
256
6
ByLayer
370
18
48
1
60
0
100
AcDbSpline
70
4
71
5
72
12
73
6
40
0
40
0
40
0
40
0
40
0
40
0
40
1
40
1
40
1
40
1
40
1
40
1
41
1
10
26.0860077709401
20
29.9665952322569
30
0
41
1
10
26.0436360405611
20
29.9780218445425
30
0
41
1
10
26.0012350844651
20
30.0065255561666
30
0
41
1
10
25.965350245098
20
30.0505449925155
30
0
41
1
10
25.942113880624
20
30.1025576740716
30
0
41
1
10
25.932798864639
20
30.154534473802
30
0
0
SPLINE
5
F1
100
AcDbEntity
8
1
62
256
6
ByLayer
370
18
48
1
60
0
100
AcDbSpline
70
4
71
3
72
9
73
5
40
0
40
0
40
0
40
0
40
0.483279051500138
40
1
40
1
40
1
40
1
41
1
10
26.0858718985826
20
30.4735831217959
30
0
41
1
10
26.0497535295642
20
30.4886806153013
30
0
41
1
10
25.9750174761264
20
30.5199203172055
30
0
41
1
10
25.9471822849371
20
30.5903831809605
30
0
41
1
10
25.9327992585441
20
30.626792818754
30
0
0
SPLINE
5
F2
100
AcDbEntity
8
1
62
256
6
ByLayer
370
18
48
1
60
0
100
AcDbSpline
70
4
71
9
72
20
73
10
40
0
40
0
40
0
40
0
40
0
40
0
40
0
40
0
40
0
40
0
40
1
40
1
40
1
40
1
40
1
40
1
40
1
40
1
40
1
40
1
41
1
10
26.086008146792
20
29.9665950455308
30
0
41
1
10
26.086008146792
20
29.9758804679319
30
0
41
1
10
26.086008146792
20
29.9890621466555
30
0
41
1
10
26.086008146792
20
30.0058925822593
30
0
41
1
10
26.086008146792
20
30.0259858007243
30
0
41
1
10
26.086008146792
20
30.0488296796692
30
0
41
1
10
26.086008146792
20
30.0738085688049
30
0
41
1
10
26.086008146792
20
30.1002348077262
30
0
41
1
10
26.086008146792
20
30.127384714655
30
0
41
1
10
26.086008146792
20
30.1545346232299
30
0
0
SPLINE
5
F3
100
AcDbEntity
8
1
62
256
6
ByLayer
370
18
48
1
60
0
100
AcDbSpline
70
4
71
5
72
12
73
6
40
0
40
0
40
0
40
0
40
0
40
0
40
1
40
1
40
1
40
1
40
1
40
1
41
1
10
26.086008146792
20
30.154535237246
30
0
41
1
10
26.051101880145
20
30.154535353459
30
0
41
1
10
26.0161937740481
20
30.154534961532
30
0
41
1
10
25.9835064418791
20
30.154534778041
30
0
41
1
10
25.955236534679
20
30.15453470145
30
0
41
1
10
25.932799258544
20
30.154534624267
30
0
0
SPLINE
5
F4
100
AcDbEntity
8
1
62
256
6
ByLayer
370
18
48
1
60
0
100
AcDbSpline
70
4
71
5
72
12
73
6
40
0
40
0
40
0
40
0
40
0
40
0
40
1
40
1
40
1
40
1
40
1
40
1
41
1
10
25.6236939754917
20
29.7335179066312
30
0
41
1
10
25.5912773800645
20
29.7156153713103
30
0
41
1
10
25.5575710234146
20
29.6981658397791
30
0
41
1
10
25.5238034388496
20
29.6820058794957
30
0
41
1
10
25.4824382503599
20
29.6660456788019
30
0
41
1
10
25.4374905976747
20
29.6664143744172
30
0
0
SPLINE
5
F5
100
AcDbEntity
8
1
62
256
6
ByLayer
370
18
48
1
60
0
100
AcDbSpline
70
4
71
5
72
12
73
6
40
0
40
0
40
0
40
0
40
0
40
0
40
1
40
1
40
1
40
1
40
1
40
1
41
1
10
26.6999989586655
20
29.78563859731
30
0
41
1
10
26.6895115893115
20
29.785637113425
30
0
41
1
10
26.6790062746646
20
29.785972402754
30
0
41
1
10
26.6686803341536
20
29.786638490398
30
0
41
1
10
26.6586035269829
20
29.787619059739
30
0
41
1
10
26.6486345374166
20
29.788938371891
30
0
0
SPLINE
5
F6
100
AcDbEntity
8
1
62
256
6
ByLayer
370
18
48
1
60
0
100
AcDbSpline
70
4
71
3
72
8
73
4
40
0
40
0
40
0
40
0
40
1
40
1
40
1
40
1
41
1
10
25.8350994629751
20
29.85701468776
30
0
41
1
10
25.8520713869949
20
29.867472568242
30
0
41
1
10
25.8702774771395
20
29.875506893995
30
0
41
1
10
25.8891450501166
20
29.8812676747625
30
0
0
SPLINE
5
F7
100
AcDbEntity
8
1
62
256
6
ByLayer
370
18
48
1
60
0
100
AcDbSpline
70
4
71
5
72
12
73
6
40
0
40
0
40
0
40
0
40
0
40
0
40
1
40
1
40
1
40
1
40
1
40
1
41
1
10
25.8892166595941
20
29.881259179749
30
0
41
1
10
25.8468474762173
20
29.892688576064
30
0
41
1
10
25.8044492373037
20
29.9211917253313
30
0
41
1
10
25.7685656682148
20
29.9652077601826
30
0
41
1
10
25.7453274744593
20
30.0172165284201
30
0
41
1
10
25.7360077221533
20
30.0691910200621
30
0
0
SPLINE
5
F8
100
AcDbEntity
8
1
62
256
6
ByLayer
370
18
48
1
60
0
100
AcDbSpline
70
4
71
3
72
8
73
4
40
0
40
0
40
0
40
0
40
1
40
1
40
1
40
1
41
1
10
25.6749636260018
20
29.7340361908495
30
0
41
1
10
25.6338385641062
20
29.7560171365626
30
0
41
1
10
25.5877507112855
20
29.7864620782012
30
0
41
1
10
25.5492236702013
20
29.8169334647003
30
0
0
SPLINE
5
F9
100
AcDbEntity
8
1
62
256
6
ByLayer
370
18
48
1
60
0
100
AcDbSpline
70
4
71
5
72
12
73
6
40
0
40
0
40
0
40
0
40
0
40
0
40
1
40
1
40
1
40
1
40
1
40
1
41
1
10
25.5493068208501
20
29.817027240934
30
0
41
1
10
25.56254905501
20
29.799394283342
30
0
41
1
10
25.5769625856601
20
29.781739602171
30
0
41
1
10
25.5923365808001
20
29.764658134363
30
0
41
1
10
25.60797019738
20
29.748377796262
30
0
41
1
10
25.6236948665701
20
29.733518466978
30
0
0
SPLINE
5
FA
100
AcDbEntity
8
1
62
256
6
ByLayer
370
18
48
1
60
0
100
AcDbSpline
70
4
71
5
72
12
73
6
40
0
40
0
40
0
40
0
40
0
40
0
40
1
40
1
40
1
40
1
40
1
40
1
41
1
10
25.6236966477101
20
29.733519565953
30
0
41
1
10
25.6340751905863
20
29.7330500036852
30
0
41
1
10
25.6444537773833
20
29.7328617673525
30
0
41
1
10
25.6547740437891
20
29.7329575052283
30
0
41
1
10
25.6649776300614
20
29.7333366775775
30
0
41
1
10
25.6750081311584
20
29.7339955743364
30
0
0
SPLINE
5
FB
100
AcDbEntity
8
1
62
256
6
ByLayer
370
18
48
1
60
0
100
AcDbSpline
70
4
71
1
72
4
73
2
40
0
40
0
40
1
40
1
41
1
10
25.6673293782447
20
31.3054987884909
30
0
41
1
10
25.6672909272413
20
30.0247677176975
30
0
0
SPLINE
5
FC
100
AcDbEntity
8
1
62
256
6
ByLayer
370
18
48
1
60
0
100
AcDbSpline
70
4
71
2
72
6
73
3
40
0
40
0
40
0
40
1
40
1
40
1
41
1
10
25.6672726975854
20
30.0266951347802
30
0
41
1
10
25.6994821613141
20
30.0530810726917
30
0
41
1
10
25.7360223390888
20
30.0692078563494
30
0
0
SPLINE
5
FD
100
AcDbEntity
8
1
62
256
6
ByLayer
370
18
48
1
60
0
100
AcDbSpline
70
4
71
1
72
4
73
2
40
0
40
0
40
1
40
1
41
1
10
25.7360366983828
20
30.0691759994221
30
0
41
1
10
25.9328011983425
20
30.1545342082524
30
0
0
SPLINE
5
FE
100
AcDbEntity
8
1
62
256
6
ByLayer
370
18
48
1
60
0
100
AcDbSpline
70
4
71
1
72
4
73
2
40
0
40
0
40
1
40
1
41
1
10
25.9328021803552
20
30.1545345677255
30
0
41
1
10
25.9328263385192
20
30.6267928178304
30
0
0
SPLINE
5
FF
100
AcDbEntity
8
1
62
256
6
ByLayer
370
18
48
1
60
0
100
AcDbSpline
70
4
71
5
72
12
73
6
40
0
40
0
40
0
40
0
40
0
40
0
40
1
40
1
40
1
40
1
40
1
40
1
41
1
10
25.4373958744201
20
30.0321583634624
30
0
41
1
10
25.43636891772
20
30.082466832063
30
0
41
1
10
25.42901374064
20
30.132646230243
30
0
41
1
10
25.41535007192
20
30.18163461406
30
0
41
1
10
25.39567216469
20
30.228376999488
30
0
41
1
10
25.37051276656
20
30.271954532001
30
0
0
SPLINE
5
100
100
AcDbEntity
8
1
62
256
6
ByLayer
370
18
48
1
60
0
100
AcDbSpline
70
4
71
11
72
24
73
12
40
0
40
0
40
0
40
0
40
0
40
0
40
0
40
0
40
0
40
0
40
0
40
0
40
1
40
1
40
1
40
1
40
1
40
1
40
1
40
1
40
1
40
1
40
1
40
1
41
1
10
25.07499999999
20
34.562497548185
30
0
41
1
10
25.01788013317
20
34.562497548185
30
0
41
1
10
24.96076027041
20
34.553525179955
30
0
41
1
10
24.90520637012
20
34.535580445735
30
0
41
1
10
24.85278442962
20
34.508970819965
30
0
41
1
10
24.80499140644
20
34.474311262895
30
0
41
1
10
24.76318628567
20
34.432506142525
30
0
41
1
10
24.72852672741
20
34.384713119595
30
0
41
1
10
24.7019171027101
20
34.332291173885
30
0
41
1
10
24.68397236756
20
34.276737281035
30
0
41
1
10
24.6749999999901
20
34.219617414615
30
0
41
1
10
24.6749999999901
20
34.162497548185
30
0
0
SPLINE
5
101
100
AcDbEntity
8
1
62
256
6
ByLayer
370
18
48
1
60
0
100
AcDbSpline
70
4
71
11
72
24
73
12
40
0
40
0
40
0
40
0
40
0
40
0
40
0
40
0
40
0
40
0
40
0
40
0
40
1
40
1
40
1
40
1
40
1
40
1
40
1
40
1
40
1
40
1
40
1
40
1
41
1
10
24.6750000000001
20
34.162497548185
30
0
41
1
10
24.6750000000001
20
34.150598566871
30
0
41
1
10
24.6750519147735
20
34.1386995855571
30
0
41
1
10
24.6751557443305
20
34.1268008559102
30
0
41
1
10
24.6753114872816
20
34.1149026296076
30
0
41
1
10
24.6755191409073
20
34.1030051582964
30
0
41
1
10
24.6757787010596
20
34.0911086936237
30
0
41
1
10
24.6760901622696
20
34.0792134872167
30
0
41
1
10
24.6764535176804
20
34.0673197906524
30
0
41
1
10
24.6768687590341
20
34.0554278554682
30
0
41
1
10
24.677335876744
20
34.0435379331612
30
0
41
1
10
24.677854859824
20
34.0316502751485
30
0
0
SPLINE
5
102
100
AcDbEntity
8
1
62
256
6
ByLayer
370
18
48
1
60
0
100
AcDbSpline
70
4
71
11
72
24
73
12
40
0
40
0
40
0
40
0
40
0
40
0
40
0
40
0
40
0
40
0
40
0
40
0
40
1
40
1
40
1
40
1
40
1
40
1
40
1
40
1
40
1
40
1
40
1
40
1
41
1
10
24.7966351019401
20
31.311135457765
30
0
41
1
10
24.7970157529001
20
31.302417117345
30
0
41
1
10
24.79781485416
20
31.293717046855
30
0
41
1
10
24.7990314313901
20
31.285057562045
30
0
41
1
10
24.80066317142
20
31.276460920215
30
0
41
1
10
24.80270642623
20
31.267949228385
30
0
41
1
10
24.8051562243301
20
31.259544351875
30
0
41
1
10
24.80800628937
20
31.251267823785
30
0
41
1
10
24.8112490660801
20
31.243140756315
30
0
41
1
10
24.8148757530601
20
31.235183754435
30
0
41
1
10
24.8188763423701
20
31.227416832615
30
0
41
1
10
24.82323966552
20
31.219859335265
30
0
0
SPLINE
5
103
100
AcDbEntity
8
1
62
256
6
ByLayer
370
18
48
1
60
0
100
AcDbSpline
70
4
71
5
72
12
73
6
40
0
40
0
40
0
40
0
40
0
40
0
40
1
40
1
40
1
40
1
40
1
40
1
41
1
10
27.77630335227
20
29.733519565953
30
0
41
1
10
27.7659248093939
20
29.7330500036852
30
0
41
1
10
27.7555462225968
20
29.7328617673525
30
0
41
1
10
27.745225956191
20
29.7329575052283
30
0
41
1
10
27.7350223699187
20
29.7333366775775
30
0
41
1
10
27.7249918688218
20
29.7339955743364
30
0
0
SPLINE
5
104
100
AcDbEntity
8
1
62
256
6
ByLayer
370
18
48
1
60
0
100
AcDbSpline
70
4
71
5
72
12
73
6
40
0
40
0
40
0
40
0
40
0
40
0
40
1
40
1
40
1
40
1
40
1
40
1
41
1
10
27.5107836456925
20
29.8812448892351
30
0
41
1
10
27.5531531713951
20
29.8926744690082
30
0
41
1
10
27.5955508954042
20
29.9211791218312
30
0
41
1
10
27.6314325427904
20
29.9651970955462
30
0
41
1
10
27.6546669686697
20
30.0172070615626
30
0
41
1
10
27.663981498659
20
30.069181149502
30
0
0
SPLINE
5
105
100
AcDbEntity
8
1
62
256
6
ByLayer
370
18
48
1
60
0
100
AcDbSpline
70
4
71
5
72
12
73
6
40
0
40
0
40
0
40
0
40
0
40
0
40
1
40
1
40
1
40
1
40
1
40
1
41
1
10
27.6639806023617
20
30.0691761485454
30
0
41
1
10
27.6246245296978
20
30.0862468134054
30
0
41
1
10
27.5852684570347
20
30.1033174782654
30
0
41
1
10
27.5459123843706
20
30.1203881431254
30
0
41
1
10
27.5065563117067
20
30.1374588079854
30
0
41
1
10
27.4672002390437
20
30.1545294728454
30
0
0
SPLINE
5
106
100
AcDbEntity
8
1
62
256
6
ByLayer
370
18
48
1
60
0
100
AcDbSpline
70
4
71
5
72
12
73
6
40
0
40
0
40
0
40
0
40
0
40
0
40
1
40
1
40
1
40
1
40
1
40
1
41
1
10
27.313991853188
20
30.154535237246
30
0
41
1
10
27.348898119835
20
30.154535353459
30
0
41
1
10
27.3838062259321
20
30.154534961532
30
0
41
1
10
27.416493558101
20
30.154534778041
30
0
41
1
10
27.444763465301
20
30.15453470145
30
0
41
1
10
27.467200741436
20
30.154534624267
30
0
0
SPLINE
5
107
100
AcDbEntity
8
1
62
256
6
ByLayer
370
18
48
1
60
0
100
AcDbSpline
70
4
71
3
72
8
73
4
40
0
40
0
40
0
40
0
40
1
40
1
40
1
40
1
41
1
10
27.4671995341936
20
30.1545345677255
30
0
41
1
10
27.4671962065838
20
30.3119539844271
30
0
41
1
10
27.4671928788199
20
30.4693734011288
30
0
41
1
10
27.4671895509022
20
30.6267928178304
30
0
0
SPLINE
5
108
100
AcDbEntity
8
1
62
256
6
ByLayer
370
18
48
1
60
0
100
AcDbSpline
70
4
71
11
72
24
73
12
40
0
40
0
40
0
40
0
40
0
40
0
40
0
40
0
40
0
40
0
40
0
40
0
40
1
40
1
40
1
40
1
40
1
40
1
40
1
40
1
40
1
40
1
40
1
40
1
41
1
10
28.6033648980401
20
31.311135457765
30
0
41
1
10
28.60298424708
20
31.302417117345
30
0
41
1
10
28.60218514582
20
31.293717046855
30
0
41
1
10
28.6009685685901
20
31.285057562045
30
0
41
1
10
28.5993368285601
20
31.276460920215
30
0
41
1
10
28.5972935737501
20
31.267949228385
30
0
41
1
10
28.59484377565
20
31.259544351875
30
0
41
1
10
28.59199371061
20
31.251267823785
30
0
41
1
10
28.5887509339
20
31.243140756315
30
0
41
1
10
28.58512424692
20
31.235183754435
30
0
41
1
10
28.5811236576101
20
31.227416832615
30
0
41
1
10
28.5767603344601
20
31.219859335265
30
0
0
SPLINE
5
109
100
AcDbEntity
8
1
62
256
6
ByLayer
370
18
48
1
60
0
100
AcDbSpline
70
4
71
11
72
24
73
12
40
0
40
0
40
0
40
0
40
0
40
0
40
0
40
0
40
0
40
0
40
0
40
0
40
1
40
1
40
1
40
1
40
1
40
1
40
1
40
1
40
1
40
1
40
1
40
1
41
1
10
28.72499999998
20
34.162497548185
30
0
41
1
10
28.72499999998
20
34.150598566871
30
0
41
1
10
28.7249480852066
20
34.138699585557
30
0
41
1
10
28.7248442556495
20
34.1268008559102
30
0
41
1
10
28.7246885126985
20
34.1149026296076
30
0
41
1
10
28.7244808590727
20
34.1030051582964
30
0
41
1
10
28.7242212989206
20
34.0911086936237
30
0
41
1
10
28.7239098377104
20
34.0792134872167
30
0
41
1
10
28.7235464822997
20
34.0673197906524
30
0
41
1
10
28.7231312409461
20
34.0554278554682
30
0
41
1
10
28.7226641232361
20
34.0435379331612
30
0
41
1
10
28.722145140156
20
34.0316502751485
30
0
0
SPLINE
5
10A
100
AcDbEntity
8
1
62
256
6
ByLayer
370
18
48
1
60
0
100
AcDbSpline
70
4
71
11
72
24
73
12
40
0
40
0
40
0
40
0
40
0
40
0
40
0
40
0
40
0
40
0
40
0
40
0
40
1
40
1
40
1
40
1
40
1
40
1
40
1
40
1
40
1
40
1
40
1
40
1
41
1
10
28.32499999999
20
34.562497548185
30
0
41
1
10
28.3821198668101
20
34.562497548185
30
0
41
1
10
28.43923972957
20
34.553525179955
30
0
41
1
10
28.4947936298601
20
34.535580445735
30
0
41
1
10
28.54721557036
20
34.508970819965
30
0
41
1
10
28.5950085935401
20
34.474311262895
30
0
41
1
10
28.6368137143101
20
34.432506142525
30
0
41
1
10
28.67147327257
20
34.384713119595
30
0
41
1
10
28.69808289727
20
34.332291173885
30
0
41
1
10
28.71602763242
20
34.276737281035
30
0
41
1
10
28.7249999999901
20
34.219617414615
30
0
41
1
10
28.7249999999901
20
34.162497548185
30
0
0
SPLINE
5
10B
100
AcDbEntity
8
1
62
256
6
ByLayer
370
18
48
1
60
0
100
AcDbSpline
70
4
71
9
72
20
73
10
40
0
40
0
40
0
40
0
40
0
40
0
40
0
40
0
40
0
40
0
40
1
40
1
40
1
40
1
40
1
40
1
40
1
40
1
40
1
40
1
41
1
10
27.313991853188
20
29.9665950455308
30
0
41
1
10
27.313991853188
20
29.9758804679319
30
0
41
1
10
27.313991853188
20
29.9890621466555
30
0
41
1
10
27.313991853188
20
30.0058925822593
30
0
41
1
10
27.313991853188
20
30.0259858007243
30
0
41
1
10
27.313991853188
20
30.0488296796692
30
0
41
1
10
27.313991853188
20
30.0738085688049
30
0
41
1
10
27.313991853188
20
30.1002348077262
30
0
41
1
10
27.313991853188
20
30.127384714655
30
0
41
1
10
27.313991853188
20
30.1545346232299
30
0
0
SPLINE
5
10C
100
AcDbEntity
8
1
62
256
6
ByLayer
370
18
48
1
60
0
100
AcDbSpline
70
4
71
5
72
12
73
6
40
0
40
0
40
0
40
0
40
0
40
0
40
1
40
1
40
1
40
1
40
1
40
1
41
1
10
27.31399222904
20
29.9665952322569
30
0
41
1
10
27.3563639594191
20
29.9780218445425
30
0
41
1
10
27.398764915515
20
30.0065255561666
30
0
41
1
10
27.4346497548821
20
30.0505449925155
30
0
41
1
10
27.457886119356
20
30.1025576740716
30
0
41
1
10
27.467201135341
20
30.154534473802
30
0
0
SPLINE
5
10D
100
AcDbEntity
8
1
62
256
6
ByLayer
370
18
48
1
60
0
100
AcDbSpline
70
4
71
3
72
9
73
5
40
0
40
0
40
0
40
0
40
0.524705012072512
40
1
40
1
40
1
40
1
41
1
10
25.5492264585043
20
29.8170105736158
30
0
41
1
10
25.5676903123026
20
29.8576524735682
30
0
41
1
10
25.6028793296999
20
29.9351091378221
30
0
41
1
10
25.6461583615193
20
29.9965779006209
30
0
41
1
10
25.6667286684253
20
30.0257936954932
30
0
0
SPLINE
5
10E
100
AcDbEntity
8
1
62
256
6
ByLayer
370
18
48
1
60
0
100
AcDbSpline
70
4
71
1
72
4
73
2
40
0
40
0
40
1
40
1
41
1
10
25.4373958787901
20
30.021965713829
30
0
41
1
10
25.4373958787901
20
29.7111490442
30
0
0
SPLINE
5
10F
100
AcDbEntity
8
1
62
256
6
ByLayer
370
18
48
1
60
0
100
AcDbSpline
70
4
71
5
72
12
73
6
40
0
40
0
40
0
40
0
40
0
40
0
40
1
40
1
40
1
40
1
40
1
40
1
41
1
10
25.6749660000893
20
29.7340504987507
30
0
41
1
10
25.7026947449533
20
29.7634743533865
30
0
41
1
10
25.7352689760637
20
29.7902373338555
30
0
41
1
10
25.7695826361721
20
29.8147182041632
30
0
41
1
10
25.8033043439879
20
29.8377831761999
30
0
41
1
10
25.835139159436
20
29.856947736896
30
0
0
SPLINE
5
110
100
AcDbEntity
8
1
62
256
6
ByLayer
370
18
48
1
60
0
100
AcDbSpline
70
4
71
5
72
12
73
6
40
0
40
0
40
0
40
0
40
0
40
0
40
1
40
1
40
1
40
1
40
1
40
1
41
1
10
25.8351049609519
20
29.8569581144545
30
0
41
1
10
25.7932384405291
20
29.869666942142
30
0
41
1
10
25.7501593400371
20
29.8962014162722
30
0
41
1
10
25.7116369174436
20
29.9349452415019
30
0
41
1
10
25.6835139268328
20
29.9800155253897
30
0
41
1
10
25.6678342027957
20
30.0251790306576
30
0
0
SPLINE
5
111
100
AcDbEntity
8
1
62
256
6
ByLayer
370
18
48
1
60
0
100
AcDbSpline
70
4
71
5
72
15
73
9
40
0
40
0
40
0
40
0
40
0
40
0
40
0.590893213830289
40
0.590893213830289
40
0.590893213830289
40
1
40
1
40
1
40
1
40
1
40
1
41
1
10
25.66731365919
20
31.305498789295
30
0
41
1
10
25.65308417723
20
31.341805256355
30
0
41
1
10
25.6359957732701
20
31.378689162795
30
0
41
1
10
25.61594638029
20
31.413548405485
30
0
41
1
10
25.57624156883
20
31.470011788755
30
0
41
1
10
25.52055277382
20
31.513299268455
30
0
41
1
10
25.49533134776
20
31.527064626345
30
0
41
1
10
25.46756299536
20
31.535115052965
30
0
41
1
10
25.4373958787901
20
31.535114852875
30
0
0
SPLINE
5
112
100
AcDbEntity
8
1
62
256
6
ByLayer
370
18
48
1
60
0
100
AcDbSpline
70
4
71
1
72
4
73
2
40
0
40
0
40
1
40
1
41
1
10
25.4373958787901
20
30.032158245501
30
0
41
1
10
25.4373958787901
20
30.021965713829
30
0
0
SPLINE
5
113
100
AcDbEntity
8
1
62
256
6
ByLayer
370
18
48
1
60
0
100
AcDbSpline
70
4
71
5
72
12
73
6
40
0
40
0
40
0
40
0
40
0
40
0
40
1
40
1
40
1
40
1
40
1
40
1
41
1
10
27.85069317913
20
29.817027240934
30
0
41
1
10
27.83745094497
20
29.799394283342
30
0
41
1
10
27.82303741432
20
29.781739602171
30
0
41
1
10
27.8076634191801
20
29.764658134363
30
0
41
1
10
27.7920298026
20
29.748377796262
30
0
41
1
10
27.7763051334101
20
29.733518466978
30
0
0
SPLINE
5
114
100
AcDbEntity
8
1
62
256
6
ByLayer
370
18
48
1
60
0
100
AcDbSpline
70
4
71
5
72
12
73
6
40
0
40
0
40
0
40
0
40
0
40
0
40
1
40
1
40
1
40
1
40
1
40
1
41
1
10
27.7763060244884
20
29.7335179066312
30
0
41
1
10
27.8087226199157
20
29.7156153713103
30
0
41
1
10
27.8424289765655
20
29.6981658397791
30
0
41
1
10
27.8761965611305
20
29.6820058794957
30
0
41
1
10
27.9175617496202
20
29.6660456788019
30
0
41
1
10
27.9625094023054
20
29.6664143744172
30
0
0
SPLINE
5
115
100
AcDbEntity
8
1
62
256
6
ByLayer
370
18
48
1
60
0
100
AcDbSpline
70
4
71
9
72
20
73
10
40
0
40
0
40
0
40
0
40
0
40
0
40
0
40
0
40
0
40
0
40
1
40
1
40
1
40
1
40
1
40
1
40
1
40
1
40
1
40
1
41
1
10
27.9626041234595
20
30.0321582454546
30
0
41
1
10
27.9625810105986
20
30.0310258993538
30
0
41
1
10
27.9625607833053
20
30.0298934943535
30
0
41
1
10
27.9625434417512
20
30.0287610388575
30
0
41
1
10
27.9625289860792
20
30.02762854127
30
0
41
1
10
27.9625174164037
20
30.0264960099958
30
0
41
1
10
27.9625087328105
20
30.0253634534402
30
0
41
1
10
27.9625029353569
20
30.0242308800084
30
0
41
1
10
27.9625000240715
20
30.0230982981059
30
0
41
1
10
27.9624999989545
20
30.0219657161381
30
0
0
SPLINE
5
116
100
AcDbEntity
8
1
62
256
6
ByLayer
370
18
48
1
60
0
100
AcDbSpline
70
4
71
5
72
12
73
6
40
0
40
0
40
0
40
0
40
0
40
0
40
1
40
1
40
1
40
1
40
1
40
1
41
1
10
27.9626041255601
20
30.0321583634624
30
0
41
1
10
27.9636310822601
20
30.0824668320629
30
0
41
1
10
27.9709862593401
20
30.132646230243
30
0
41
1
10
27.98464992806
20
30.18163461406
30
0
41
1
10
28.00432783529
20
30.228376999488
30
0
41
1
10
28.0294872334201
20
30.271954532001
30
0
0
SPLINE
5
117
100
AcDbEntity
8
1
62
256
6
ByLayer
370
18
48
1
60
0
100
AcDbSpline
70
4
71
2
72
8
73
5
40
0
40
0
40
0
40
0.5
40
0.5
40
1
40
1
40
1
41
1
10
27.3141281015619
20
30.4735831217961
30
0
41
1
10
27.3663233972195
20
30.4739450357067
30
0
41
1
10
27.4115315947495
20
30.5280365107734
30
0
41
1
10
27.4434117401416
20
30.5661810107494
30
0
41
1
10
27.467200741436
20
30.6267928187541
30
0
0
SPLINE
5
118
100
AcDbEntity
8
1
62
256
6
ByLayer
370
18
48
1
60
0
100
AcDbSpline
70
4
71
5
72
15
73
9
40
0
40
0
40
0
40
0
40
0
40
0
40
0.590893213830289
40
0.590893213830289
40
0.590893213830289
40
1
40
1
40
1
40
1
40
1
40
1
41
1
10
27.7326863407901
20
31.305498789295
30
0
41
1
10
27.7469158227501
20
31.341805256355
30
0
41
1
10
27.76400422671
20
31.378689162795
30
0
41
1
10
27.78405361969
20
31.413548405485
30
0
41
1
10
27.8237584311501
20
31.470011788755
30
0
41
1
10
27.87944722616
20
31.513299268455
30
0
41
1
10
27.90466865222
20
31.5270646263449
30
0
41
1
10
27.9324370046201
20
31.535115052965
30
0
41
1
10
27.9626041211901
20
31.535114852875
30
0
0
SPLINE
5
119
100
AcDbEntity
8
1
62
256
6
ByLayer
370
18
48
1
60
0
100
AcDbSpline
70
4
71
3
72
10
73
6
40
0
40
0
40
0
40
0
40
0.240222257205029
40
0.488202588130336
40
1
40
1
40
1
40
1
41
1
10
27.7250296420451
20
29.7340434608344
30
0
41
1
10
27.7128122310156
20
29.746036986532
30
0
41
1
10
27.687982842789
20
29.7704113736287
30
0
41
1
10
27.6323500486301
20
29.8136091572924
30
0
41
1
10
27.5920251863731
20
29.8395107713618
30
0
41
1
10
27.5648617687384
20
29.8569584778387
30
0
0
SPLINE
5
11A
100
AcDbEntity
8
1
62
256
6
ByLayer
370
18
48
1
60
0
100
AcDbSpline
70
4
71
3
72
8
73
4
40
0
40
0
40
0
40
0
40
1
40
1
40
1
40
1
41
1
10
27.564900352384
20
29.8570125441346
30
0
41
1
10
27.5475269599555
20
29.8672517419672
30
0
41
1
10
27.5295219852481
20
29.8754125834291
30
0
41
1
10
27.5108549362639
20
29.8812560032637
30
0
0
SPLINE
5
11B
100
AcDbEntity
8
1
62
256
6
ByLayer
370
18
48
1
60
0
100
AcDbSpline
70
4
71
5
72
12
73
6
40
0
40
0
40
0
40
0
40
0
40
0
40
1
40
1
40
1
40
1
40
1
40
1
41
1
10
27.564900537005
20
29.85701468776
30
0
41
1
10
27.6067771000027
20
29.8697051343861
30
0
41
1
10
27.6498679094445
20
29.896222134638
30
0
41
1
10
27.6884031117382
20
29.9349512993813
30
0
41
1
10
27.7165390886094
20
29.9800137117287
30
0
41
1
10
27.7322288313079
20
30.0251783452374
30
0
0
SPLINE
5
11C
100
AcDbEntity
8
1
62
256
6
ByLayer
370
18
48
1
60
0
100
AcDbSpline
70
4
71
5
72
12
73
6
40
0
40
0
40
0
40
0
40
0
40
0
40
1
40
1
40
1
40
1
40
1
40
1
41
1
10
27.7327501188
20
30.0266951359474
30
0
41
1
10
27.7195788987401
20
30.0375119496434
30
0
41
1
10
27.7060464403901
20
30.0471644302929
30
0
41
1
10
27.692223676939
20
30.055642438818
30
0
41
1
10
27.67818339246
20
30.0629684222769
30
0
41
1
10
27.663995296386
20
30.0692078572515
30
0
0
SPLINE
5
11D
100
AcDbEntity
8
1
62
256
6
ByLayer
370
18
48
1
60
0
100
AcDbSpline
70
4
71
1
72
4
73
2
40
0
40
0
40
1
40
1
41
1
10
27.7326863407901
20
31.305498789295
30
0
41
1
10
27.7326863407901
20
30.0247677165347
30
0
0
SPLINE
5
11E
100
AcDbEntity
8
1
62
256
6
ByLayer
370
18
48
1
60
0
100
AcDbSpline
70
4
71
5
72
12
73
6
40
0
40
0
40
0
40
0
40
0
40
0
40
1
40
1
40
1
40
1
40
1
40
1
41
1
10
27.8507813092135
20
29.8170105712829
30
0
41
1
10
27.8308824579964
20
29.8655913336421
30
0
41
1
10
27.8075957046565
20
29.9109256928868
30
0
41
1
10
27.7827645828012
20
29.953072788869
30
0
41
1
10
27.7577316622368
20
29.992681943405
30
0
41
1
10
27.7332525887711
20
30.0257792576025
30
0
0
SPLINE
5
11F
100
AcDbEntity
8
1
62
256
6
ByLayer
370
18
48
1
60
0
100
AcDbSpline
70
4
71
5
72
12
73
6
40
0
40
0
40
0
40
0
40
0
40
0
40
1
40
1
40
1
40
1
40
1
40
1
41
1
10
27.72504078958
20
29.734043293808
30
0
41
1
10
27.7496474542142
20
29.7471712889492
30
0
41
1
10
27.7757935815764
20
29.7627820783203
30
0
41
1
10
27.8022502063381
20
29.7802210387504
30
0
41
1
10
27.8276340358277
20
29.7985773712488
30
0
41
1
10
27.8507880304151
20
29.8169336725392
30
0
0
SPLINE
5
120
100
AcDbEntity
8
1
62
256
6
ByLayer
370
18
48
1
60
0
100
AcDbSpline
70
4
71
5
72
12
73
6
40
0
40
0
40
0
40
0
40
0
40
0
40
1
40
1
40
1
40
1
40
1
40
1
41
1
10
27.9624999981601
20
29.711149071261
30
0
41
1
10
27.9624999981601
20
29.702126047543
30
0
41
1
10
27.9624999981601
20
29.693102935457
30
0
41
1
10
27.9624999981501
20
29.684117977602
30
0
41
1
10
27.9624999981501
20
29.675209416284
30
0
41
1
10
27.9624999981501
20
29.666414529465
30
0
0
SPLINE
5
121
100
AcDbEntity
8
1
62
256
6
ByLayer
370
18
48
1
60
0
100
AcDbSpline
70
4
71
3
72
10
73
6
40
0
40
0
40
0
40
0
40
0.516778517254399
40
0.75934448788804
40
1
40
1
40
1
40
1
41
1
10
27.8507540408426
20
29.8170057588168
30
0
41
1
10
27.8664521576509
20
29.7953874514533
30
0
41
1
10
27.88951867081
20
29.7636219233096
30
0
41
1
10
27.9247923037798
20
29.7222113567247
30
0
41
1
10
27.9499751112995
20
29.7148267678756
30
0
41
1
10
27.96251673384
20
29.711149071261
30
0
0
SPLINE
5
122
100
AcDbEntity
8
1
62
256
6
ByLayer
370
18
48
1
60
0
100
AcDbSpline
70
4
71
1
72
4
73
2
40
0
40
0
40
1
40
1
41
1
10
27.9624999981807
20
30.021965713829
30
0
41
1
10
27.9624999981556
20
29.7111490442
30
0
0
INSERT
5
134
100
AcDbEntity
8
2
62
256
6
ByLayer
370
25
48
1
60
0
100
AcDbBlockReference
2
DimnDraft3D11
10
0
20
0
30
0
41
1
42
1
43
1
50
0
210
0
220
0
230
1
0
LINE
5
72
100
AcDbEntity
8
80
62
256
6
ByLayer
370
18
48
1
60
0
100
AcDbLine
10
0
20
0
30
0
11
-5
21
0
31
0
39
0
210
0
220
0
230
1
0
LINE
5
73
100
AcDbEntity
8
1
62
256
6
ByLayer
370
18
48
1
60
0
100
AcDbLine
10
22.9
20
21.390364
30
0
11
22.9
21
14.6625
31
0
39
0
210
0
220
0
230
1
0
LINE
5
75
100
AcDbEntity
8
81
62
256
6
ByLayer
370
18
48
1
60
0
100
AcDbLine
10
28.7
20
34.5625
30
0
11
33.7
21
34.5625
31
0
39
0
210
0
220
0
230
1
0
LINE
5
76
100
AcDbEntity
8
1
62
256
6
ByLayer
370
18
48
1
60
0
100
AcDbLine
10
25.970514
20
29.727061
30
0
11
26.099353
21
29.750225
31
0
39
0
210
0
220
0
230
1
0
LINE
5
77
100
AcDbEntity
8
1
62
256
6
ByLayer
370
18
48
1
60
0
100
AcDbLine
10
30.19864
20
33.6625
30
0
11
28.745325
21
33.6625
31
0
39
0
210
0
220
0
230
1
0
LINE
5
78
100
AcDbEntity
8
1
62
256
6
ByLayer
370
18
48
1
60
0
100
AcDbLine
10
28.665424
20
25.5125
30
0
11
28.802417
21
25.5125
31
0
39
0
210
0
220
0
230
1
0
LINE
5
79
100
AcDbEntity
8
1
62
256
6
ByLayer
370
18
48
1
60
0
100
AcDbLine
10
27.429486
20
29.727061
30
0
11
27.300647
21
29.750225
31
0
39
0
210
0
220
0
230
1
0
LINE
5
7A
100
AcDbEntity
8
1
62
256
6
ByLayer
370
18
48
1
60
0
100
AcDbLine
10
23.847616
20
13.0625
30
0
11
3.079011
21
13.0625
31
0
39
0
210
0
220
0
230
1
0
LINE
5
7B
100
AcDbEntity
8
1
62
256
6
ByLayer
370
18
48
1
60
0
100
AcDbLine
10
28.802417
20
25.5125
30
0
11
28.802417
21
25.2625
31
0
39
0
210
0
220
0
230
1
0
LINE
5
7C
100
AcDbEntity
8
1
62
256
6
ByLayer
370
18
48
1
60
0
100
AcDbLine
10
0
20
-12.4375
30
0
11
0
21
12.4375
31
0
39
0
210
0
220
0
230
1
0
LINE
5
7D
100
AcDbEntity
8
1
62
256
6
ByLayer
370
18
48
1
60
0
100
AcDbLine
10
26.099353
20
29.750225
30
0
11
27.300647
21
29.750225
31
0
39
0
210
0
220
0
230
1
0
LINE
5
7E
100
AcDbEntity
8
1
62
256
6
ByLayer
370
18
48
1
60
0
100
AcDbLine
10
28.745325
20
33.6625
30
0
11
28.745325
21
26.17577
31
0
39
0
210
0
220
0
230
1
0
LINE
5
7F
100
AcDbEntity
8
1
62
256
6
ByLayer
370
18
48
1
60
0
100
AcDbLine
10
27.774561
20
29.648614
30
0
11
25.625439
21
29.648614
31
0
39
0
210
0
220
0
230
1
0
LINE
5
80
100
AcDbEntity
8
1
62
256
6
ByLayer
370
18
48
1
60
0
100
AcDbLine
10
24.913206
20
25.9975
30
0
11
24.913206
21
26.8625
31
0
39
0
210
0
220
0
230
1
0
LINE
5
81
100
AcDbEntity
8
1
62
256
6
ByLayer
370
18
48
1
60
0
100
AcDbLine
10
0.5
20
-12.439682
30
0
11
3.079011
21
-12.481679
31
0
39
0
210
0
220
0
230
1
0
LINE
5
82
100
AcDbEntity
8
1
62
256
6
ByLayer
370
18
48
1
60
0
100
AcDbLine
10
25.692729
20
14.6625
30
0
11
22.9
21
14.6625
31
0
39
0
210
0
220
0
230
1
0
LINE
5
83
100
AcDbEntity
8
1
62
256
6
ByLayer
370
18
48
1
60
0
100
AcDbLine
10
35.881731
20
29.659082
30
0
11
35.881731
21
3.945588
31
0
39
0
210
0
220
0
230
1
0
LINE
5
84
100
AcDbEntity
8
1
62
256
6
ByLayer
370
18
48
1
60
0
100
AcDbLine
10
22.9
20
21.390364
30
0
11
24.065271
21
21.390364
31
0
39
0
210
0
220
0
230
1
0
LINE
5
85
100
AcDbEntity
8
1
62
256
6
ByLayer
370
18
48
1
60
0
100
AcDbLine
10
3.079011
20
13.0625
30
0
11
0.533494
21
13.0625
31
0
39
0
210
0
220
0
230
1
0
LINE
5
86
100
AcDbEntity
8
1
62
256
6
ByLayer
370
18
48
1
60
0
100
AcDbLine
10
28.29
20
-1.36126
30
0
11
28.29
21
-8.9475
31
0
39
0
210
0
220
0
230
1
0
LINE
5
87
100
AcDbEntity
8
1
62
256
6
ByLayer
370
18
48
1
60
0
100
AcDbLine
10
25.320255
20
29.527939
30
0
11
25.320255
21
30.358975
31
0
39
0
210
0
220
0
230
1
0
LINE
5
88
100
AcDbEntity
8
1
62
256
6
ByLayer
370
18
48
1
60
0
100
AcDbLine
10
31.127016
20
16.541324
30
0
11
25.692729
21
16.541324
31
0
39
0
210
0
220
0
230
1
0
LINE
5
89
100
AcDbEntity
8
1
62
256
6
ByLayer
370
18
48
1
60
0
100
AcDbLine
10
31.127016
20
16.541324
30
0
11
31.127016
21
1.200452
31
0
39
0
210
0
220
0
230
1
0
LINE
5
8A
100
AcDbEntity
8
1
62
256
6
ByLayer
370
18
48
1
60
0
100
AcDbLine
10
25.252239
20
25.8625
30
0
11
24.913027
21
25.8625
31
0
39
0
210
0
220
0
230
1
0
LINE
5
8B
100
AcDbEntity
8
1
62
256
6
ByLayer
370
18
48
1
60
0
100
AcDbLine
10
0.5
20
-12.439682
30
0
11
0
21
-12.4375
31
0
39
0
210
0
220
0
230
1
0
LINE
5
8C
100
AcDbEntity
8
1
62
256
6
ByLayer
370
18
48
1
60
0
100
AcDbLine
10
25.625439
20
29.648614
30
0
11
25.930215
21
29.718815
31
0
39
0
210
0
220
0
230
1
0
LINE
5
8D
100
AcDbEntity
8
1
62
256
6
ByLayer
370
18
48
1
60
0
100
AcDbLine
10
0.5
20
12.9375
30
0
11
0
21
12.4375
31
0
39
0
210
0
220
0
230
1
0
LINE
5
8E
100
AcDbEntity
8
1
62
256
6
ByLayer
370
18
48
1
60
0
100
AcDbLine
10
28.700997
20
25.2625
30
0
11
28.802417
21
25.2625
31
0
39
0
210
0
220
0
230
1
0
LINE
5
8F
100
AcDbEntity
8
1
62
256
6
ByLayer
370
18
48
1
60
0
100
AcDbLine
10
0.5
20
12.9375
30
0
11
0.5
21
-12.439682
31
0
39
0
210
0
220
0
230
1
0
LINE
5
90
100
AcDbEntity
8
1
62
256
6
ByLayer
370
18
48
1
60
0
100
AcDbLine
10
35.881731
20
3.945588
30
0
11
31.127088
21
1.200493
31
0
39
0
210
0
220
0
230
1
0
LINE
5
91
100
AcDbEntity
8
1
62
256
6
ByLayer
370
18
48
1
60
0
100
AcDbLine
10
24.929789
20
29.373518
30
0
11
25.625439
21
29.648614
31
0
39
0
210
0
220
0
230
1
0
LINE
5
92
100
AcDbEntity
8
1
62
256
6
ByLayer
370
18
48
1
60
0
100
AcDbLine
10
3.079011
20
13.0625
30
0
11
3.079011
21
-12.481679
31
0
39
0
210
0
220
0
230
1
0
LINE
5
93
100
AcDbEntity
8
1
62
256
6
ByLayer
370
18
48
1
60
0
100
AcDbLine
10
27.774561
20
29.648614
30
0
11
27.469785
21
29.718815
31
0
39
0
210
0
220
0
230
1
0
LINE
5
94
100
AcDbEntity
8
1
62
256
6
ByLayer
370
18
48
1
60
0
100
AcDbLine
10
31.127016
20
1.200452
30
0
11
29.09
21
0.02438
31
0
39
0
210
0
220
0
230
1
0
LINE
5
95
100
AcDbEntity
8
1
62
256
6
ByLayer
370
18
48
1
60
0
100
AcDbLine
10
0.533494
20
13.0625
30
0
11
0.5
21
12.9375
31
0
39
0
210
0
220
0
230
1
0
LINE
5
96
100
AcDbEntity
8
1
62
256
6
ByLayer
370
18
48
1
60
0
100
AcDbLine
10
24.755821
20
-12.481679
30
0
11
28.29
21
-8.9475
31
0
39
0
210
0
220
0
230
1
0
LINE
5
97
100
AcDbEntity
8
1
62
256
6
ByLayer
370
18
48
1
60
0
100
AcDbLine
10
3.079011
20
-12.481679
30
0
11
24.755821
21
-12.481679
31
0
39
0
210
0
220
0
230
1
0
LINE
5
98
100
AcDbEntity
8
1
62
256
6
ByLayer
370
18
48
1
60
0
100
AcDbLine
10
25.692729
20
16.541324
30
0
11
25.692729
21
14.6625
31
0
39
0
210
0
220
0
230
1
0
LINE
5
99
100
AcDbEntity
8
1
62
256
6
ByLayer
370
18
48
1
60
0
100
AcDbLine
10
28.324879
20
29.43099
30
0
11
27.774561
21
29.648614
31
0
39
0
210
0
220
0
230
1
0
LINE
5
9A
100
AcDbEntity
8
1
62
256
6
ByLayer
370
18
48
1
60
0
100
AcDbLine
10
28.706023
20
33.6625
30
0
11
28.745325
21
33.6625
31
0
39
0
210
0
220
0
230
1
0
LINE
5
9B
100
AcDbEntity
8
SK1
62
256
6
ByLayer
370
18
48
1
60
0
100
AcDbLine
10
-122.65
20
12.4375
30
0
11
-122.65
21
-12.4375
31
0
39
0
210
0
220
0
230
1
0
LINE
5
9D
100
AcDbEntity
8
SK1
62
256
6
ByLayer
370
18
48
1
60
0
100
AcDbLine
10
-122.65
20
-12.4375
30
0
11
0
21
-12.4375
31
0
39
0
210
0
220
0
230
1
0
LINE
5
9E
100
AcDbEntity
8
SK1
62
256
6
ByLayer
370
18
48
1
60
0
100
AcDbLine
10
0
20
12.4375
30
0
11
0
21
-12.4375
31
0
39
0
210
0
220
0
230
1
0
LINE
5
9F
100
AcDbEntity
8
SK1
62
256
6
ByLayer
370
18
48
1
60
0
100
AcDbLine
10
0
20
12.4375
30
0
11
-122.65
21
12.4375
31
0
39
0
210
0
220
0
230
1
0
LINE
5
A0
100
AcDbEntity
8
1
62
256
6
ByLayer
370
18
48
1
60
0
100
AcDbLine
10
25.470172
20
29.587213
30
0
11
25.4375
21
29.587213
31
0
39
0
210
0
220
0
230
1
0
LINE
5
A1
100
AcDbEntity
8
1
62
256
6
ByLayer
370
18
48
1
60
0
100
AcDbLine
10
27.929828
20
29.587213
30
0
11
27.9625
21
29.587213
31
0
39
0
210
0
220
0
230
1
0
LINE
5
A2
100
AcDbEntity
8
1
62
256
6
ByLayer
370
18
48
1
60
0
100
AcDbLine
10
27.9625
20
29.574264
30
0
11
27.9625
21
29.587213
31
0
39
0
210
0
220
0
230
1
0
LINE
5
A3
100
AcDbEntity
8
1
62
256
6
ByLayer
370
18
48
1
60
0
100
AcDbLine
10
25.4375
20
29.574264
30
0
11
25.4375
21
29.587213
31
0
39
0
210
0
220
0
230
1
0
LINE
5
A4
100
AcDbEntity
8
1
62
256
6
ByLayer
370
18
48
1
60
0
100
AcDbLine
10
27.510774
20
29.881243
30
0
11
27.313988
21
29.966597
31
0
39
0
210
0
220
0
230
1
0
LINE
5
A5
100
AcDbEntity
8
1
62
256
6
ByLayer
370
18
48
1
60
0
100
AcDbLine
10
26.751366
20
29.788937
30
0
11
27.510784
21
29.881247
31
0
39
0
210
0
220
0
230
1
0
LINE
5
A6
100
AcDbEntity
8
1
62
256
6
ByLayer
370
18
48
1
60
0
100
AcDbLine
10
25.889226
20
29.881243
30
0
11
26.086012
21
29.966597
31
0
39
0
210
0
220
0
230
1
0
LINE
5
A7
100
AcDbEntity
8
1
62
256
6
ByLayer
370
18
48
1
60
0
100
AcDbLine
10
26.086008
20
30.154535
30
0
11
26.086008
21
30.473583
31
0
39
0
210
0
220
0
230
1
0
LINE
5
A8
100
AcDbEntity
8
1
62
256
6
ByLayer
370
18
48
1
60
0
100
AcDbLine
10
25.370513
20
30.271955
30
0
11
24.82324
21
31.219859
31
0
39
0
210
0
220
0
230
1
0
LINE
5
A9
100
AcDbEntity
8
1
62
256
6
ByLayer
370
18
48
1
60
0
100
AcDbLine
10
26.7
20
30.154535
30
0
11
26.086006
21
30.154535
31
0
39
0
210
0
220
0
230
1
0
LINE
5
AA
100
AcDbEntity
8
1
62
256
6
ByLayer
370
18
48
1
60
0
100
AcDbLine
10
26.7
20
29.966594
30
0
11
26.086008
21
29.966595
31
0
39
0
210
0
220
0
230
1
0
LINE
5
AB
100
AcDbEntity
8
1
62
256
6
ByLayer
370
18
48
1
60
0
100
AcDbLine
10
26.648634
20
29.788937
30
0
11
25.889216
21
29.881247
31
0
39
0
210
0
220
0
230
1
0
LINE
5
AC
100
AcDbEntity
8
1
62
256
6
ByLayer
370
18
48
1
60
0
100
AcDbLine
10
24.677855
20
34.03165
30
0
11
24.750711
21
32.362971
31
0
39
0
210
0
220
0
230
1
0
LINE
5
AD
100
AcDbEntity
8
1
62
256
6
ByLayer
370
18
48
1
60
0
100
AcDbLine
10
24.750711
20
32.362971
30
0
11
24.785118
21
31.574929
31
0
39
0
210
0
220
0
230
1
0
LINE
5
AE
100
AcDbEntity
8
1
62
256
6
ByLayer
370
18
48
1
60
0
100
AcDbLine
10
24.785118
20
31.574929
30
0
11
24.796635
21
31.311135
31
0
39
0
210
0
220
0
230
1
0
LINE
5
AF
100
AcDbEntity
8
1
62
256
6
ByLayer
370
18
48
1
60
0
100
AcDbLine
10
25.667338
20
31.305504
30
0
11
25.932824
21
30.626798
31
0
39
0
210
0
220
0
230
1
0
LINE
5
B0
100
AcDbEntity
8
1
62
256
6
ByLayer
370
18
48
1
60
0
100
AcDbLine
10
28.722145
20
34.03165
30
0
11
28.649289
21
32.362971
31
0
39
0
210
0
220
0
230
1
0
LINE
5
B1
100
AcDbEntity
8
1
62
256
6
ByLayer
370
18
48
1
60
0
100
AcDbLine
10
28.649289
20
32.362971
30
0
11
28.614882
21
31.574929
31
0
39
0
210
0
220
0
230
1
0
LINE
5
B2
100
AcDbEntity
8
1
62
256
6
ByLayer
370
18
48
1
60
0
100
AcDbLine
10
28.614882
20
31.574929
30
0
11
28.603365
21
31.311135
31
0
39
0
210
0
220
0
230
1
0
LINE
5
B3
100
AcDbEntity
8
1
62
256
6
ByLayer
370
18
48
1
60
0
100
AcDbLine
10
27.314128
20
30.473584
30
0
11
26.085872
21
30.473584
31
0
39
0
210
0
220
0
230
1
0
LINE
5
B4
100
AcDbEntity
8
1
62
256
6
ByLayer
370
18
48
1
60
0
100
AcDbLine
10
26.7
20
30.154535
30
0
11
27.313994
21
30.154535
31
0
39
0
210
0
220
0
230
1
0
LINE
5
B5
100
AcDbEntity
8
1
62
256
6
ByLayer
370
18
48
1
60
0
100
AcDbLine
10
27.313992
20
30.154535
30
0
11
27.313992
21
30.473583
31
0
39
0
210
0
220
0
230
1
0
LINE
5
B6
100
AcDbEntity
8
1
62
256
6
ByLayer
370
18
48
1
60
0
100
AcDbLine
10
26.7
20
29.966594
30
0
11
27.313992
21
29.966595
31
0
39
0
210
0
220
0
230
1
0
LINE
5
B7
100
AcDbEntity
8
1
62
256
6
ByLayer
370
18
48
1
60
0
100
AcDbLine
10
25.437396
20
31.535115
30
0
11
25.437396
21
30.032158
31
0
39
0
210
0
220
0
230
1
0
LINE
5
B8
100
AcDbEntity
8
1
62
256
6
ByLayer
370
18
48
1
60
0
100
AcDbLine
10
27.962604
20
31.535115
30
0
11
27.962604
21
30.032158
31
0
39
0
210
0
220
0
230
1
0
LINE
5
B9
100
AcDbEntity
8
1
62
256
6
ByLayer
370
18
48
1
60
0
100
AcDbLine
10
28.029487
20
30.271955
30
0
11
28.57676
21
31.219859
31
0
39
0
210
0
220
0
230
1
0
LINE
5
BA
100
AcDbEntity
8
1
62
256
6
ByLayer
370
18
48
1
60
0
100
AcDbLine
10
28.325
20
34.562502
30
0
11
25.075
21
34.562502
31
0
39
0
210
0
220
0
230
1
0
LINE
5
BB
100
AcDbEntity
8
1
62
256
6
ByLayer
370
18
48
1
60
0
100
AcDbLine
10
25.437396
20
31.535115
30
0
11
27.962604
21
31.535115
31
0
39
0
210
0
220
0
230
1
0
LINE
5
BC
100
AcDbEntity
8
1
62
256
6
ByLayer
370
18
48
1
60
0
100
AcDbLine
10
27.732662
20
31.305504
30
0
11
27.467176
21
30.626798
31
0
39
0
210
0
220
0
230
1
0
MTEXT
5
123
100
AcDbEntity
8
SK6
62
256
6
ByLayer
370
18
48
1
60
0
100
AcDbMText
10
-72.464102
20
-23.334589
30
0
210
0
220
0
230
1
1
\W0.7371;RG151.37-2525-027B30
40
3.5
41
0
44
1.084337
50
0
71
7
72
5
7
iso_b_vert
0
DIMENSION
5
143
100
AcDbEntity
8
SK2
62
256
6
ByLayer
370
13
48
1
60
0
100
AcDbDimension
2
DimnDraft3D2
10
-132.4
20
-12.4375
30
0
11
-132.4
21
-2.688158
31
0
70
32
71
5
72
1
41
1
210
0
220
0
230
1
3
Standard
100
AcDbAlignedDimension
13
-124.15
23
12.4375
33
0
14
-124.15
24
-12.4375
34
0
50
90
100
AcDbRotatedDimension
1001
ACAD
1000
DSTYLE
1002
{
1070
    74
1070
     0
1070
   279
1070
     0
1070
   172
1070
     1
1070
   173
1070
     1
1070
   340
1005
124
1070
   271
1070
     3
1070
   272
1070
     3
1070
    77
1070
     1
1070
    73
1070
     0
1070
   171
1070
     4
1070
   274
1070
     4
1070
   177
1070
     2
1070
   176
1070
     2
1070
   178
1070
     7
1070
    78
1070
     8
1070
    41
1041
3.0
1070
   147
1041
2.25
1070
    42
1041
1.5
1070
    44
1041
3.0
1070
   140
1041
4.5
1070
   343
1005
144
1070
   344
1005
144
1002
}
0
DIMENSION
5
158
100
AcDbEntity
8
2
62
256
6
ByLayer
370
13
48
1
60
0
100
AcDbDimension
2
DimnDraft3D3
10
14.95
20
25.8625
30
0
11
14.95
21
39.0625
31
0
70
32
71
5
72
1
41
1
210
0
220
0
230
1
3
Standard
100
AcDbAlignedDimension
13
25.2
23
34.5625
33
0
14
18.2
24
25.8625
34
0
50
90
100
AcDbRotatedDimension
1001
ACAD
1000
DSTYLE
1002
{
1070
    74
1070
     0
1070
   279
1070
     0
1070
   172
1070
     1
1070
   173
1070
     1
1070
   340
1005
124
1070
   271
1070
     3
1070
   272
1070
     3
1070
    77
1070
     1
1070
    73
1070
     0
1070
   171
1070
     4
1070
   274
1070
     4
1070
   177
1070
     2
1070
   176
1070
     2
1070
   178
1070
     7
1070
    78
1070
     8
1070
    41
1041
3.0
1070
   147
1041
2.25
1070
    42
1041
1.5
1070
    44
1041
3.0
1070
   140
1041
4.5
1070
   343
1005
144
1070
   344
1005
144
1002
}
0
DIMENSION
5
166
100
AcDbEntity
8
2
62
256
6
ByLayer
370
13
48
1
60
0
100
AcDbDimension
2
DimnDraft3D4
10
24.95
20
34.5625
30
0
11
24.95
21
19.280921
31
0
70
32
71
5
72
1
41
1
210
0
220
0
230
1
3
Standard
100
AcDbAlignedDimension
13
24.7
23
14.5625
33
0
14
25.2
24
34.5625
34
0
50
90
100
AcDbRotatedDimension
1001
ACAD
1000
DSTYLE
1002
{
1070
    74
1070
     0
1070
   279
1070
     0
1070
   172
1070
     1
1070
   173
1070
     1
1070
   340
1005
124
1070
   271
1070
     3
1070
   272
1070
     3
1070
    77
1070
     1
1070
    73
1070
     0
1070
   171
1070
     4
1070
   274
1070
     4
1070
   177
1070
     2
1070
   176
1070
     2
1070
   178
1070
     7
1070
    78
1070
     8
1070
    41
1041
3.0
1070
   147
1041
2.25
1070
    42
1041
1.5
1070
    44
1041
3.0
1070
   140
1041
4.5
1070
   343
1005
144
1070
   344
1005
144
1002
}
0
DIMENSION
5
174
100
AcDbEntity
8
2
62
256
6
ByLayer
370
13
48
1
60
0
100
AcDbDimension
2
DimnDraft3D5
10
50.131731
20
34.5625
30
0
11
50.131731
21
8.1375
31
0
70
32
71
5
72
1
41
1
210
0
220
0
230
1
3
Standard
100
AcDbAlignedDimension
13
1.5
23
-12.4375
33
0
14
30.2
24
34.5625
34
0
50
90
100
AcDbRotatedDimension
1001
ACAD
1000
DSTYLE
1002
{
1070
    74
1070
     0
1070
   279
1070
     0
1070
   172
1070
     1
1070
   173
1070
     1
1070
   340
1005
124
1070
   271
1070
     3
1070
   272
1070
     3
1070
    77
1070
     1
1070
    73
1070
     0
1070
   171
1070
     4
1070
   274
1070
     4
1070
   177
1070
     2
1070
   176
1070
     2
1070
   178
1070
     7
1070
    78
1070
     8
1070
    41
1041
3.0
1070
   147
1041
2.25
1070
    42
1041
1.5
1070
    44
1041
3.0
1070
   140
1041
4.5
1070
   343
1005
144
1070
   344
1005
144
1002
}
0
DIMENSION
5
182
100
AcDbEntity
8
SK2
62
256
6
ByLayer
370
13
48
1
60
0
100
AcDbDimension
2
DimnDraft3D6
10
28.7
20
64.3125
30
0
11
-50.782237
21
64.3125
31
0
70
32
71
5
72
1
41
1
210
0
220
0
230
1
3
Standard
100
AcDbAlignedDimension
13
-122.65
23
13.9375
33
0
14
28.7
24
36.0625
34
0
50
0
100
AcDbRotatedDimension
1001
ACAD
1000
DSTYLE
1002
{
1070
   279
1070
     0
1070
   172
1070
     1
1070
   173
1070
     1
1070
   340
1005
124
1070
   271
1070
     3
1070
   272
1070
     3
1070
    77
1070
     1
1070
    73
1070
     0
1070
   171
1070
     4
1070
   274
1070
     4
1070
   177
1070
     2
1070
   176
1070
     2
1070
   178
1070
     7
1070
    78
1070
     8
1070
    41
1041
3.0
1070
   147
1041
2.25
1070
    42
1041
1.5
1070
    44
1041
3.0
1070
   140
1041
4.5
1070
   343
1005
144
1070
   344
1005
144
1002
}
0
DIMENSION
5
190
100
AcDbEntity
8
2
62
256
6
ByLayer
370
13
48
1
60
0
100
AcDbDimension
2
DimnDraft3D7
10
28.7
20
44.3125
30
0
11
33.2
21
44.3125
31
0
70
32
71
5
72
1
41
1
210
0
220
0
230
1
3
Standard
100
AcDbAlignedDimension
13
24.7
23
36.0625
33
0
14
28.7
24
36.0625
34
0
50
0
100
AcDbRotatedDimension
1001
ACAD
1000
DSTYLE
1002
{
1070
   279
1070
     0
1070
   172
1070
     1
1070
   173
1070
     1
1070
   340
1005
124
1070
   271
1070
     3
1070
   272
1070
     3
1070
    77
1070
     1
1070
    73
1070
     0
1070
   171
1070
     4
1070
   274
1070
     4
1070
   177
1070
     2
1070
   176
1070
     2
1070
   178
1070
     7
1070
    78
1070
     8
1070
    41
1041
3.0
1070
   147
1041
2.25
1070
    42
1041
1.5
1070
    44
1041
3.0
1070
   140
1041
4.5
1070
   343
1005
144
1070
   344
1005
144
1002
}
0
ENDSEC
0
SECTION
2
OBJECTS
0
DICTIONARY
5
1fa
330
0
100
AcDbDictionary
280
0
281
1
3
ACAD_GROUP
350
1fb
3
ACAD_MLINESTYLE
350
1fc
0
DICTIONARY
5
1fb
330
0
100
AcDbDictionary
280
0
281
1
0
DICTIONARY
5
1fc
330
0
100
AcDbDictionary
280
0
281
1
3
Standard
350
18
0
MLINESTYLE
5
18
330
1fc
100
AcDbMlineStyle
2
Standard
70
0
3

62
256
51
90
52
90
71
2
49
-0.5
62
256
6
ByLayer
49
0.5
62
256
6
ByLayer
0
RASTERVARIABLES
5
1e9
330

100
AcDbRasterVariables
90
0
70
1
71
1
72
1
0
ENDSEC
0
EOF
