0
SECTION
2
HEADER
9
$ACADVER
1
AC1015
9
$DWGCODEPAGE
3
ANSI_1252
9
$HANDSEED
5
23c
9
$ANGBASE
50
0
9
$ANGDIR
70
0
9
$ATTMODE
70
1
9
$AUNITS
70
0
9
$AUPREC
70
0
9
$CECOLOR
62
256
9
$CELTSCALE
40
1
9
$CELTYPE
6
ByLayer
9
$CELWEIGHT
370
18
9
$CLAYER
8
0
9
$CMLJUST
70
0
9
$CMLSCALE
40
1
9
$CMLSTYLE
2
Standard
9
$DIMSTYLE
2
Standard
9
$TEXTSIZE
40
0.2
9
$TEXTSTYLE
7
Standard
9
$LUNITS
70
2
9
$LUPREC
70
4
9
$EXTNAMES
290
1
9
$INSUNITS
70
4
9
$LTSCALE
40
1
9
$LWDISPLAY
290
1
9
$PDMODE
70
0
9
$PDSIZE
40
0
9
$PLINEGEN
70
0
0
ENDSEC
0
SECTION
2
CLASSES
0
CLASS
1
RASTERVARIABLES
2
AcDbRasterVariables
3
ISM
90
0
280
0
281
0
0
ENDSEC
0
SECTION
2
TABLES
0
TABLE
2
VPORT
5
232
100
AcDbSymbolTable
0
VPORT
5
1
100
AcDbSymbolTableRecord
100
AcDbViewportTableRecord
2
*Active
70
0
10
0
20
0
11
1
21
1
12
-1
22
1
13
0
23
0
14
0.5
24
0.5
15
10
25
10
16
0
26
0
36
1
17
0
27
0
37
0
0
ENDTAB
0
TABLE
2
LTYPE
5
233
100
AcDbSymbolTable
0
LTYPE
5
14
100
AcDbSymbolTableRecord
100
AcDbLinetypeTableRecord
70
0
2
ByBlock
3

72
65
73
0
40
0
0
LTYPE
5
15
100
AcDbSymbolTableRecord
100
AcDbLinetypeTableRecord
70
0
2
ByLayer
3

72
65
73
0
40
0
0
LTYPE
5
16
100
AcDbSymbolTableRecord
100
AcDbLinetypeTableRecord
70
0
2
CONTINUOUS
3
Solid line
72
65
73
0
40
0
0
LTYPE
5
6A
100
AcDbSymbolTableRecord
100
AcDbLinetypeTableRecord
70
0
2
CENTER
3
____ _ ____ _ ____ _ ____
72
65
73
4
40
47.5
49
22
74
0
49
-8.5
74
0
49
8.5
74
0
49
-8.5
74
0
0
LTYPE
5
6B
100
AcDbSymbolTableRecord
100
AcDbLinetypeTableRecord
70
0
2
DASHED
3
__ __ __ __ __ __ __ __ __
72
65
73
2
40
25.72
49
12.86
74
0
49
-12.86
74
0
0
ENDTAB
0
TABLE
2
LAYER
5
234
100
AcDbSymbolTable
0
LAYER
5
10
100
AcDbSymbolTableRecord
100
AcDbLayerTableRecord
2
0
70
0
62
7
6
CONTINUOUS
290
1
370
-3
390
0
0
LAYER
5
6D
100
AcDbSymbolTableRecord
100
AcDbLayerTableRecord
2
2
70
0
62
7
6
CONTINUOUS
290
1
370
-3
390
0
0
LAYER
5
6F
100
AcDbSymbolTableRecord
100
AcDbLayerTableRecord
2
80
70
0
62
-6
6
CONTINUOUS
290
1
370
-3
390
0
0
LAYER
5
72
100
AcDbSymbolTableRecord
100
AcDbLayerTableRecord
2
81
70
0
62
-3
6
CONTINUOUS
290
1
370
-3
390
0
0
LAYER
5
76
100
AcDbSymbolTableRecord
100
AcDbLayerTableRecord
2
1
70
0
62
4
6
CONTINUOUS
290
1
370
-3
390
0
0
LAYER
5
21f
100
AcDbSymbolTableRecord
100
AcDbLayerTableRecord
2
SK1
70
0
62
4
6
CONTINUOUS
290
1
370
-3
390
0
0
LAYER
5
220
100
AcDbSymbolTableRecord
100
AcDbLayerTableRecord
2
SK6
70
0
62
5
6
CONTINUOUS
290
1
370
-3
390
0
0
LAYER
5
221
100
AcDbSymbolTableRecord
100
AcDbLayerTableRecord
2
SK2
70
0
62
7
6
CONTINUOUS
290
1
370
-3
390
0
0
ENDTAB
0
TABLE
2
STYLE
5
235
100
AcDbSymbolTable
0
STYLE
5
11
100
AcDbSymbolTableRecord
100
AcDbTextStyleTableRecord
2
Standard
3
txt
70
0
71
0
40
0
41
1
42
0
50
0
0
STYLE
5
167
100
AcDbSymbolTableRecord
100
AcDbTextStyleTableRecord
2
iso_b_vert
3
simplex.shx
70
0
71
0
40
0
41
1
42
0
50
0
0
STYLE
5
168
100
AcDbSymbolTableRecord
100
AcDbTextStyleTableRecord
2
DWGDirectTextStyle
3
simplex
70
0
71
0
40
0
41
1
42
0
50
0
0
ENDTAB
0
TABLE
2
DIMSTYLE
5
236
100
AcDbSymbolTable
100
AcDbDimStyleTable
0
DIMSTYLE
105
27
100
AcDbSymbolTableRecord
100
AcDbDimStyleTableRecord
2
Standard
70
0
3
<>
41
0.18
42
0.0625
44
0.18
140
0.18
147
0.09
73
0
74
0
77
1
271
2
275
0
278
52
280
0
340
11
0
ENDTAB
0
TABLE
2
VIEW
5
237
100
AcDbSymbolTable
0
ENDTAB
0
TABLE
2
UCS
5
238
100
AcDbSymbolTable
0
ENDTAB
0
TABLE
2
APPID
5
239
100
AcDbSymbolTable
0
APPID
5
12
100
AcDbSymbolTableRecord
100
AcDbRegAppTableRecord
2
ACAD
70
0
0
ENDTAB
0
TABLE
2
BLOCK_RECORD
5
23a
100
AcDbSymbolTable
0
BLOCK_RECORD
5
1F
100
AcDbSymbolTableRecord
100
AcDbBlockTableRecord
2
*Model_Space
340
0
70
0
0
BLOCK_RECORD
5
1B
100
AcDbSymbolTableRecord
100
AcDbBlockTableRecord
2
*Paper_Space
340
0
70
0
0
BLOCK_RECORD
5
23
100
AcDbSymbolTableRecord
100
AcDbBlockTableRecord
2
*Paper_Space0
340
0
70
0
0
BLOCK_RECORD
5
16A
100
AcDbSymbolTableRecord
100
AcDbBlockTableRecord
2
DimnDraft3D11
340
0
70
0
0
BLOCK_RECORD
5
178
100
AcDbSymbolTableRecord
100
AcDbBlockTableRecord
2
DimnDraft3D2
340
0
70
0
0
BLOCK_RECORD
5
187
100
AcDbSymbolTableRecord
100
AcDbBlockTableRecord
2
_CLOSED
340
0
70
0
0
BLOCK_RECORD
5
18E
100
AcDbSymbolTableRecord
100
AcDbBlockTableRecord
2
DimnDraft3D3
340
0
70
0
0
BLOCK_RECORD
5
19C
100
AcDbSymbolTableRecord
100
AcDbBlockTableRecord
2
DimnDraft3D4
340
0
70
0
0
BLOCK_RECORD
5
1AA
100
AcDbSymbolTableRecord
100
AcDbBlockTableRecord
2
DimnDraft3D5
340
0
70
0
0
BLOCK_RECORD
5
1B8
100
AcDbSymbolTableRecord
100
AcDbBlockTableRecord
2
DimnDraft3D6
340
0
70
0
0
ENDTAB
0
ENDSEC
0
SECTION
2
BLOCKS
0
BLOCK
5
20
100
AcDbEntity
8
0
100
AcDbBlockBegin
2
*Model_Space
70
0
10
0
20
0
30
0
3
*Model_Space
0
ENDBLK
5
21
100
AcDbEntity
8
0
100
AcDbBlockEnd
0
BLOCK
5
1C
100
AcDbEntity
8
0
100
AcDbBlockBegin
2
*Paper_Space
70
0
10
0
20
0
30
0
3
*Paper_Space
0
ENDBLK
5
1D
100
AcDbEntity
8
0
100
AcDbBlockEnd
0
BLOCK
5
24
100
AcDbEntity
8
0
100
AcDbBlockBegin
2
*Paper_Space0
70
0
10
0
20
0
30
0
3
*Paper_Space0
0
ENDBLK
5
25
100
AcDbEntity
8
0
100
AcDbBlockEnd
0
BLOCK
5
16B
100
AcDbEntity
8
0
100
AcDbBlockBegin
2
DimnDraft3D11
70
0
10
0
20
0
30
0
3
DimnDraft3D11
0
LINE
5
16D
100
AcDbEntity
8
2
62
256
6
ByLayer
370
25
48
1
60
0
100
AcDbLine
10
34.7
20
36.0625
30
0
11
34.7
21
57.3125
31
0
39
0
210
0
220
0
230
1
0
LINE
5
16E
100
AcDbEntity
8
2
62
256
6
ByLayer
370
25
48
1
60
0
100
AcDbLine
10
0
20
13.9375
30
0
11
0
21
57.3125
31
0
39
0
210
0
220
0
230
1
0
LINE
5
16F
100
AcDbEntity
8
2
62
256
6
ByLayer
370
25
48
1
60
0
100
AcDbLine
10
34.7
20
54.3125
30
0
11
0
21
54.3125
31
0
39
0
210
0
220
0
230
1
0
LINE
5
170
100
AcDbEntity
8
2
62
256
6
ByLayer
370
25
48
1
60
0
100
AcDbLine
10
34.7
20
54.3125
30
0
11
31.700001
21
53.917543
31
0
39
0
210
0
220
0
230
1
0
LINE
5
171
100
AcDbEntity
8
2
62
256
6
ByLayer
370
25
48
1
60
0
100
AcDbLine
10
34.7
20
54.3125
30
0
11
31.699999
21
54.707457
31
0
39
0
210
0
220
0
230
1
0
LINE
5
172
100
AcDbEntity
8
2
62
256
6
ByLayer
370
25
48
1
60
0
100
AcDbLine
10
31.700001
20
53.917543
30
0
11
31.699999
21
54.707457
31
0
39
0
210
0
220
0
230
1
0
LINE
5
173
100
AcDbEntity
8
2
62
256
6
ByLayer
370
25
48
1
60
0
100
AcDbLine
10
0
20
54.3125
30
0
11
2.999999
21
54.707457
31
0
39
0
210
0
220
0
230
1
0
LINE
5
174
100
AcDbEntity
8
2
62
256
6
ByLayer
370
25
48
1
60
0
100
AcDbLine
10
0
20
54.3125
30
0
11
3.000001
21
53.917543
31
0
39
0
210
0
220
0
230
1
0
LINE
5
175
100
AcDbEntity
8
2
62
256
6
ByLayer
370
25
48
1
60
0
100
AcDbLine
10
2.999999
20
54.707457
30
0
11
3.000001
21
53.917543
31
0
39
0
210
0
220
0
230
1
0
MTEXT
5
176
100
AcDbEntity
8
2
62
256
6
ByLayer
370
18
48
1
60
0
100
AcDbMText
10
12.956579
20
55.4375
30
0
210
0
220
0
230
1
1
\W0.7640;34.7
40
4.5
41
0
44
1.084337
50
0
71
7
72
5
7
iso_b_vert
0
ENDBLK
5
16C
100
AcDbEntity
8
0
100
AcDbBlockEnd
0
BLOCK
5
184
100
AcDbEntity
8
0
100
AcDbBlockBegin
2
DimnDraft3D2
70
0
10
0
20
0
30
0
3
DimnDraft3D2
0
MTEXT
5
179
100
AcDbEntity
8
SK2
62
256
6
ByLayer
370
18
48
1
60
0
100
AcDbMText
10
-127.525
20
-1.563158
30
0
210
0
220
0
230
1
1
\W0.6740;25
40
4.5
41
0
44
1.084337
50
90
71
7
72
5
7
iso_b_vert
0
LINE
5
17B
100
AcDbEntity
8
SK2
62
256
6
ByLayer
370
13
48
1
60
0
100
AcDbLine
10
-118.15
20
12.4375
30
0
11
-129.4
21
12.4375
31
0
39
0
210
0
220
0
230
1
0
LINE
5
17C
100
AcDbEntity
8
SK2
62
256
6
ByLayer
370
13
48
1
60
0
100
AcDbLine
10
-118.15
20
-12.4375
30
0
11
-129.4
21
-12.4375
31
0
39
0
210
0
220
0
230
1
0
LINE
5
17D
100
AcDbEntity
8
SK2
62
256
6
ByLayer
370
13
48
1
60
0
100
AcDbLine
10
-126.4
20
12.4375
30
0
11
-126.4
21
-12.4375
31
0
39
0
210
0
220
0
230
1
0
LINE
5
17E
100
AcDbEntity
8
SK2
62
256
6
ByLayer
370
13
48
1
60
0
100
AcDbLine
10
-126.4
20
12.4375
30
0
11
-126.005043
21
9.437501
31
0
39
0
210
0
220
0
230
1
0
LINE
5
17F
100
AcDbEntity
8
SK2
62
256
6
ByLayer
370
13
48
1
60
0
100
AcDbLine
10
-126.4
20
12.4375
30
0
11
-126.794957
21
9.437499
31
0
39
0
210
0
220
0
230
1
0
LINE
5
180
100
AcDbEntity
8
SK2
62
256
6
ByLayer
370
13
48
1
60
0
100
AcDbLine
10
-126.005043
20
9.437501
30
0
11
-126.794957
21
9.437499
31
0
39
0
210
0
220
0
230
1
0
LINE
5
181
100
AcDbEntity
8
SK2
62
256
6
ByLayer
370
13
48
1
60
0
100
AcDbLine
10
-126.4
20
-12.4375
30
0
11
-126.794957
21
-9.437501
31
0
39
0
210
0
220
0
230
1
0
LINE
5
182
100
AcDbEntity
8
SK2
62
256
6
ByLayer
370
13
48
1
60
0
100
AcDbLine
10
-126.4
20
-12.4375
30
0
11
-126.005043
21
-9.437499
31
0
39
0
210
0
220
0
230
1
0
LINE
5
183
100
AcDbEntity
8
SK2
62
256
6
ByLayer
370
13
48
1
60
0
100
AcDbLine
10
-126.794957
20
-9.437501
30
0
11
-126.005043
21
-9.437499
31
0
39
0
210
0
220
0
230
1
0
ENDBLK
5
185
100
AcDbEntity
8
0
100
AcDbBlockEnd
0
BLOCK
5
188
100
AcDbEntity
8
0
100
AcDbBlockBegin
2
_CLOSED
70
0
10
0
20
0
30
0
3
_CLOSED
0
LINE
5
18A
100
AcDbEntity
8
0
62
256
6
ByLayer
370
-2
48
1
60
0
100
AcDbLine
10
-1
20
0.166667
30
0
11
0
21
0
31
0
39
0
210
0
220
0
230
1
0
LINE
5
18B
100
AcDbEntity
8
0
62
256
6
ByLayer
370
-2
48
1
60
0
100
AcDbLine
10
0
20
0
30
0
11
-1
21
-0.166667
31
0
39
0
210
0
220
0
230
1
0
LINE
5
18C
100
AcDbEntity
8
0
62
256
6
ByLayer
370
-2
48
1
60
0
100
AcDbLine
10
-1
20
0.166667
30
0
11
-1
21
-0.166667
31
0
39
0
210
0
220
0
230
1
0
LINE
5
18D
100
AcDbEntity
8
0
62
256
6
ByLayer
370
-2
48
1
60
0
100
AcDbLine
10
0
20
0
30
0
11
-1
21
0
31
0
39
0
210
0
220
0
230
1
0
ENDBLK
5
189
100
AcDbEntity
8
0
100
AcDbBlockEnd
0
BLOCK
5
199
100
AcDbEntity
8
0
100
AcDbBlockBegin
2
DimnDraft3D3
70
0
10
0
20
0
30
0
3
DimnDraft3D3
0
MTEXT
5
18F
100
AcDbEntity
8
2
62
256
6
ByLayer
370
18
48
1
60
0
100
AcDbMText
10
15.825
20
22.999342
30
0
210
0
220
0
230
1
1
\W0.6740;20
40
4.5
41
0
44
1.084337
50
90
71
7
72
5
7
iso_b_vert
0
LINE
5
190
100
AcDbEntity
8
2
62
256
6
ByLayer
370
13
48
1
60
0
100
AcDbLine
10
29.2
20
34.5625
30
0
11
13.95
21
34.5625
31
0
39
0
210
0
220
0
230
1
0
LINE
5
191
100
AcDbEntity
8
2
62
256
6
ByLayer
370
13
48
1
60
0
100
AcDbLine
10
20.2
20
14.5625
30
0
11
13.95
21
14.5625
31
0
39
0
210
0
220
0
230
1
0
LINE
5
192
100
AcDbEntity
8
2
62
256
6
ByLayer
370
13
48
1
60
0
100
AcDbLine
10
16.95
20
34.5625
30
0
11
16.95
21
14.5625
31
0
39
0
210
0
220
0
230
1
0
LINE
5
193
100
AcDbEntity
8
2
62
256
6
ByLayer
370
13
48
1
60
0
100
AcDbLine
10
16.95
20
34.5625
30
0
11
17.344957
21
31.562501
31
0
39
0
210
0
220
0
230
1
0
LINE
5
194
100
AcDbEntity
8
2
62
256
6
ByLayer
370
13
48
1
60
0
100
AcDbLine
10
16.95
20
34.5625
30
0
11
16.555043
21
31.562499
31
0
39
0
210
0
220
0
230
1
0
LINE
5
195
100
AcDbEntity
8
2
62
256
6
ByLayer
370
13
48
1
60
0
100
AcDbLine
10
17.344957
20
31.562501
30
0
11
16.555043
21
31.562499
31
0
39
0
210
0
220
0
230
1
0
LINE
5
196
100
AcDbEntity
8
2
62
256
6
ByLayer
370
13
48
1
60
0
100
AcDbLine
10
16.95
20
14.5625
30
0
11
16.555043
21
17.562499
31
0
39
0
210
0
220
0
230
1
0
LINE
5
197
100
AcDbEntity
8
2
62
256
6
ByLayer
370
13
48
1
60
0
100
AcDbLine
10
16.95
20
14.5625
30
0
11
17.344957
21
17.562501
31
0
39
0
210
0
220
0
230
1
0
LINE
5
198
100
AcDbEntity
8
2
62
256
6
ByLayer
370
13
48
1
60
0
100
AcDbLine
10
16.555043
20
17.562499
30
0
11
17.344957
21
17.562501
31
0
39
0
210
0
220
0
230
1
0
ENDBLK
5
19A
100
AcDbEntity
8
0
100
AcDbBlockEnd
0
BLOCK
5
1A7
100
AcDbEntity
8
0
100
AcDbBlockBegin
2
DimnDraft3D4
70
0
10
0
20
0
30
0
3
DimnDraft3D4
0
MTEXT
5
19D
100
AcDbEntity
8
2
62
256
6
ByLayer
370
18
48
1
60
0
100
AcDbMText
10
52.570849
20
9.2625
30
0
210
0
220
0
230
1
1
\W0.7361;47
40
4.5
41
0
44
1.084337
50
90
71
7
72
5
7
iso_b_vert
0
LINE
5
19E
100
AcDbEntity
8
2
62
256
6
ByLayer
370
13
48
1
60
0
100
AcDbLine
10
1.5
20
-12.4375
30
0
11
56.695849
21
-12.4375
31
0
39
0
210
0
220
0
230
1
0
LINE
5
19F
100
AcDbEntity
8
2
62
256
6
ByLayer
370
13
48
1
60
0
100
AcDbLine
10
36.2
20
34.5625
30
0
11
56.695849
21
34.5625
31
0
39
0
210
0
220
0
230
1
0
LINE
5
1A0
100
AcDbEntity
8
2
62
256
6
ByLayer
370
13
48
1
60
0
100
AcDbLine
10
53.695849
20
-12.4375
30
0
11
53.695849
21
34.5625
31
0
39
0
210
0
220
0
230
1
0
LINE
5
1A1
100
AcDbEntity
8
2
62
256
6
ByLayer
370
13
48
1
60
0
100
AcDbLine
10
53.695849
20
-12.4375
30
0
11
53.300892
21
-9.437501
31
0
39
0
210
0
220
0
230
1
0
LINE
5
1A2
100
AcDbEntity
8
2
62
256
6
ByLayer
370
13
48
1
60
0
100
AcDbLine
10
53.695849
20
-12.4375
30
0
11
54.090807
21
-9.437499
31
0
39
0
210
0
220
0
230
1
0
LINE
5
1A3
100
AcDbEntity
8
2
62
256
6
ByLayer
370
13
48
1
60
0
100
AcDbLine
10
53.300892
20
-9.437501
30
0
11
54.090807
21
-9.437499
31
0
39
0
210
0
220
0
230
1
0
LINE
5
1A4
100
AcDbEntity
8
2
62
256
6
ByLayer
370
13
48
1
60
0
100
AcDbLine
10
53.695849
20
34.5625
30
0
11
54.090807
21
31.562501
31
0
39
0
210
0
220
0
230
1
0
LINE
5
1A5
100
AcDbEntity
8
2
62
256
6
ByLayer
370
13
48
1
60
0
100
AcDbLine
10
53.695849
20
34.5625
30
0
11
53.300892
21
31.562499
31
0
39
0
210
0
220
0
230
1
0
LINE
5
1A6
100
AcDbEntity
8
2
62
256
6
ByLayer
370
13
48
1
60
0
100
AcDbLine
10
54.090807
20
31.562501
30
0
11
53.300892
21
31.562499
31
0
39
0
210
0
220
0
230
1
0
ENDBLK
5
1A8
100
AcDbEntity
8
0
100
AcDbBlockEnd
0
BLOCK
5
1B5
100
AcDbEntity
8
0
100
AcDbBlockBegin
2
DimnDraft3D5
70
0
10
0
20
0
30
0
3
DimnDraft3D5
0
MTEXT
5
1AB
100
AcDbEntity
8
SK2
62
256
6
ByLayer
370
18
48
1
60
0
100
AcDbMText
10
-43.657237
20
65.4375
30
0
210
0
220
0
230
1
1
\W0.6217;150
40
4.5
41
0
44
1.084337
50
0
71
7
72
5
7
iso_b_vert
0
LINE
5
1AC
100
AcDbEntity
8
SK2
62
256
6
ByLayer
370
13
48
1
60
0
100
AcDbLine
10
-116.65
20
13.9375
30
0
11
-116.65
21
67.3125
31
0
39
0
210
0
220
0
230
1
0
LINE
5
1AD
100
AcDbEntity
8
SK2
62
256
6
ByLayer
370
13
48
1
60
0
100
AcDbLine
10
34.7
20
36.0625
30
0
11
34.7
21
67.3125
31
0
39
0
210
0
220
0
230
1
0
LINE
5
1AE
100
AcDbEntity
8
SK2
62
256
6
ByLayer
370
13
48
1
60
0
100
AcDbLine
10
-116.65
20
64.3125
30
0
11
34.7
21
64.3125
31
0
39
0
210
0
220
0
230
1
0
LINE
5
1AF
100
AcDbEntity
8
SK2
62
256
6
ByLayer
370
13
48
1
60
0
100
AcDbLine
10
-116.65
20
64.3125
30
0
11
-113.650001
21
64.707457
31
0
39
0
210
0
220
0
230
1
0
LINE
5
1B0
100
AcDbEntity
8
SK2
62
256
6
ByLayer
370
13
48
1
60
0
100
AcDbLine
10
-116.65
20
64.3125
30
0
11
-113.649999
21
63.917543
31
0
39
0
210
0
220
0
230
1
0
LINE
5
1B1
100
AcDbEntity
8
SK2
62
256
6
ByLayer
370
13
48
1
60
0
100
AcDbLine
10
-113.650001
20
64.707457
30
0
11
-113.649999
21
63.917543
31
0
39
0
210
0
220
0
230
1
0
LINE
5
1B2
100
AcDbEntity
8
SK2
62
256
6
ByLayer
370
13
48
1
60
0
100
AcDbLine
10
34.7
20
64.3125
30
0
11
31.700001
21
63.917543
31
0
39
0
210
0
220
0
230
1
0
LINE
5
1B3
100
AcDbEntity
8
SK2
62
256
6
ByLayer
370
13
48
1
60
0
100
AcDbLine
10
34.7
20
64.3125
30
0
11
31.699999
21
64.707457
31
0
39
0
210
0
220
0
230
1
0
LINE
5
1B4
100
AcDbEntity
8
SK2
62
256
6
ByLayer
370
13
48
1
60
0
100
AcDbLine
10
31.700001
20
63.917543
30
0
11
31.699999
21
64.707457
31
0
39
0
210
0
220
0
230
1
0
ENDBLK
5
1B6
100
AcDbEntity
8
0
100
AcDbBlockEnd
0
BLOCK
5
1C3
100
AcDbEntity
8
0
100
AcDbBlockBegin
2
DimnDraft3D6
70
0
10
0
20
0
30
0
3
DimnDraft3D6
0
MTEXT
5
1B9
100
AcDbEntity
8
2
62
256
6
ByLayer
370
18
48
1
60
0
100
AcDbMText
10
30.818421
20
45.4375
30
0
210
0
220
0
230
1
1
\W0.5404;8
40
4.5
41
0
44
1.084337
50
0
71
7
72
5
7
iso_b_vert
0
LINE
5
1BA
100
AcDbEntity
8
2
62
256
6
ByLayer
370
13
48
1
60
0
100
AcDbLine
10
26.7
20
36.0625
30
0
11
26.7
21
47.3125
31
0
39
0
210
0
220
0
230
1
0
LINE
5
1BB
100
AcDbEntity
8
2
62
256
6
ByLayer
370
13
48
1
60
0
100
AcDbLine
10
34.7
20
36.0625
30
0
11
34.7
21
47.3125
31
0
39
0
210
0
220
0
230
1
0
LINE
5
1BC
100
AcDbEntity
8
2
62
256
6
ByLayer
370
13
48
1
60
0
100
AcDbLine
10
15.45
20
44.3125
30
0
11
45.95
21
44.3125
31
0
39
0
210
0
220
0
230
1
0
LINE
5
1BD
100
AcDbEntity
8
2
62
256
6
ByLayer
370
13
48
1
60
0
100
AcDbLine
10
26.7
20
44.3125
30
0
11
23.700001
21
43.917543
31
0
39
0
210
0
220
0
230
1
0
LINE
5
1BE
100
AcDbEntity
8
2
62
256
6
ByLayer
370
13
48
1
60
0
100
AcDbLine
10
26.7
20
44.3125
30
0
11
23.699999
21
44.707457
31
0
39
0
210
0
220
0
230
1
0
LINE
5
1BF
100
AcDbEntity
8
2
62
256
6
ByLayer
370
13
48
1
60
0
100
AcDbLine
10
23.700001
20
43.917543
30
0
11
23.699999
21
44.707457
31
0
39
0
210
0
220
0
230
1
0
LINE
5
1C0
100
AcDbEntity
8
2
62
256
6
ByLayer
370
13
48
1
60
0
100
AcDbLine
10
34.7
20
44.3125
30
0
11
37.699999
21
44.707457
31
0
39
0
210
0
220
0
230
1
0
LINE
5
1C1
100
AcDbEntity
8
2
62
256
6
ByLayer
370
13
48
1
60
0
100
AcDbLine
10
34.7
20
44.3125
30
0
11
37.700001
21
43.917543
31
0
39
0
210
0
220
0
230
1
0
LINE
5
1C2
100
AcDbEntity
8
2
62
256
6
ByLayer
370
13
48
1
60
0
100
AcDbLine
10
37.699999
20
44.707457
30
0
11
37.700001
21
43.917543
31
0
39
0
210
0
220
0
230
1
0
ENDBLK
5
1C4
100
AcDbEntity
8
0
100
AcDbBlockEnd
0
ENDSEC
0
SECTION
2
ENTITIES
0
ARC
5
DB
100
AcDbEntity
8
1
62
256
6
ByLayer
370
18
48
1
60
0
100
AcDbCircle
39
0
10
-25.925
20
14.6625
30
0
40
1.6
210
0
220
0
230
-1
100
AcDbArc
50
249.164417
51
270
0
ARC
5
DF
100
AcDbEntity
8
1
62
256
6
ByLayer
370
18
48
1
60
0
100
AcDbCircle
39
0
10
19.35
20
5.4125
30
0
40
2.807
210
0
220
0
230
1
100
AcDbArc
50
329.965127
51
30.034873
0
ARC
5
E0
100
AcDbEntity
8
1
62
256
6
ByLayer
370
18
48
1
60
0
100
AcDbCircle
39
0
10
19.35
20
5.4125
30
0
40
2.807
210
0
220
0
230
1
100
AcDbArc
50
270
51
329.965127
0
ARC
5
E1
100
AcDbEntity
8
1
62
256
6
ByLayer
370
18
48
1
60
0
100
AcDbCircle
39
0
10
19.35
20
5.4125
30
0
40
2.807
210
0
220
0
230
1
100
AcDbArc
50
30.034873
51
90
0
ARC
5
E2
100
AcDbEntity
8
1
62
256
6
ByLayer
370
18
48
1
60
0
100
AcDbCircle
39
0
10
19.35
20
5.4125
30
0
40
2.0135
210
0
220
0
230
1
100
AcDbArc
50
178.140164
51
181.859836
0
ARC
5
E3
100
AcDbEntity
8
1
62
256
6
ByLayer
370
18
48
1
60
0
100
AcDbCircle
39
0
10
19.35
20
5.4125
30
0
40
2.807
210
0
220
0
230
1
100
AcDbArc
50
90
51
149.965127
0
ARC
5
E5
100
AcDbEntity
8
1
62
256
6
ByLayer
370
18
48
1
60
0
100
AcDbCircle
39
0
10
19.35
20
5.4125
30
0
40
2.0135
210
0
220
0
230
1
100
AcDbArc
50
358.140164
51
1.859836
0
ARC
5
E7
100
AcDbEntity
8
1
62
256
6
ByLayer
370
18
48
1
60
0
100
AcDbCircle
39
0
10
19.35
20
5.4125
30
0
40
2.807
210
0
220
0
230
1
100
AcDbArc
50
210.034873
51
270
0
ARC
5
E8
100
AcDbEntity
8
1
62
256
6
ByLayer
370
18
48
1
60
0
100
AcDbCircle
39
0
10
19.35
20
5.4125
30
0
40
2.807
210
0
220
0
230
1
100
AcDbArc
50
149.965127
51
210.034873
0
CIRCLE
5
DC
100
AcDbEntity
8
1
62
256
6
ByLayer
370
18
48
1
60
0
100
AcDbCircle
10
-19.35
20
5.4125
30
0
40
6.15000000000002
39
0
210
0
220
0
230
-1
0
CIRCLE
5
DD
100
AcDbEntity
8
1
62
256
6
ByLayer
370
18
48
1
60
0
100
AcDbCircle
10
26.5
20
-8.9375
30
0
40
1.65000000000001
39
0
210
0
220
0
230
1
0
CIRCLE
5
DE
100
AcDbEntity
8
1
62
256
6
ByLayer
370
18
48
1
60
0
100
AcDbCircle
10
-19.35
20
5.4125
30
0
40
5.93
39
0
210
0
220
0
230
-1
0
CIRCLE
5
E4
100
AcDbEntity
8
1
62
256
6
ByLayer
370
18
48
1
60
0
100
AcDbCircle
10
-19.35
20
5.4125
30
0
40
3
39
0
210
0
220
0
230
-1
0
CIRCLE
5
E6
100
AcDbEntity
8
1
62
256
6
ByLayer
370
18
48
1
60
0
100
AcDbCircle
10
19.35
20
5.4125
30
0
40
5.13
39
0
210
0
220
0
230
1
0
ELLIPSE
5
E9
100
AcDbEntity
8
1
62
256
6
ByLayer
370
18
48
1
60
0
100
AcDbEllipse
10
66.938524
20
-278.333675
30
0
11
-5.48074819627973
21
818.31239440599
31
0
210
0
220
0
230
1
40
0.039846
41
1.20121882231616
42
1.20253752243044
0
ELLIPSE
5
EA
100
AcDbEntity
8
1
62
256
6
ByLayer
370
18
48
1
60
0
100
AcDbEllipse
10
66.9
20
25.503434
30
0
11
5.52511141577121E-14
21
47.164587919879
31
0
210
0
220
0
230
1
40
0.700208
41
1.62931860492073
42
1.80611891956153
0
ELLIPSE
5
EB
100
AcDbEntity
8
1
62
256
6
ByLayer
370
18
48
1
60
0
100
AcDbEllipse
10
66.864516
20
317.886776
30
0
11
-5.44866248501587
21
-817.256524427226
31
0
210
0
220
0
230
1
40
0.039812
41
-1.20469537073051
42
-1.20160173465014
0
ELLIPSE
5
EC
100
AcDbEntity
8
1
62
256
6
ByLayer
370
18
48
1
60
0
100
AcDbEllipse
10
66.9
20
39.548346
30
0
11
-33.0249999999696
21
7.73744932599188E-14
31
0
210
0
220
0
230
1
40
0.57735
41
0.330405846086916
42
0.858713034596872
0
ELLIPSE
5
ED
100
AcDbEntity
8
1
62
256
6
ByLayer
370
18
48
1
60
0
100
AcDbEllipse
10
59.568431
20
-288.601347
30
0
11
-5.28638982859531
21
2830.25601753093
31
0
210
0
220
0
230
1
40
0.011167
41
1.46060784195866
42
1.46341868893947
0
ELLIPSE
5
EE
100
AcDbEntity
8
1
62
256
6
ByLayer
370
18
48
1
60
0
100
AcDbEllipse
10
27.395756
20
22.573112
30
0
11
-139.969268909971
21
0.573882753086187
31
0
210
0
220
0
230
1
40
0.005859
41
-1.59803966347898
42
-1.59053583319518
0
ELLIPSE
5
EF
100
AcDbEntity
8
1
62
256
6
ByLayer
370
18
48
1
60
0
100
AcDbEllipse
10
27.581514
20
22.795253
30
0
11
-0.00847056356523458
21
-0.105038037218545
31
0
210
0
220
0
230
1
40
0.005984
41
-1.57408079387884
42
-1.56376009482168
0
ELLIPSE
5
F0
100
AcDbEntity
8
1
62
256
6
ByLayer
370
18
48
1
60
0
100
AcDbEllipse
10
59.7
20
25.503434
30
0
11
5.38290567233771E-14
21
45.9506621210732
31
0
210
0
220
0
230
1
40
0.700208
41
1.6297585780072
42
1.80896718977049
0
POINT
5
6C
100
AcDbEntity
8
2
62
256
6
ByLayer
370
18
48
1
60
0
100
AcDbPoint
10
30.700152
20
34.5625
30
0
39
0
210
0
220
0
230
1
50
360
0
POINT
5
6E
100
AcDbEntity
8
80
62
256
6
ByLayer
370
18
48
1
60
0
100
AcDbPoint
10
0
20
0
30
0
39
0
210
0
220
0
230
1
50
360
0
POINT
5
70
100
AcDbEntity
8
2
62
256
6
ByLayer
370
18
48
1
60
0
100
AcDbPoint
10
34.7
20
34.5625
30
0
39
0
210
0
220
0
230
1
50
360
0
POINT
5
71
100
AcDbEntity
8
81
62
256
6
ByLayer
370
18
48
1
60
0
100
AcDbPoint
10
34.7
20
34.5625
30
0
39
0
210
0
220
0
230
1
50
360
0
SPLINE
5
F1
100
AcDbEntity
8
1
62
256
6
ByLayer
370
18
48
1
60
0
100
AcDbSpline
70
4
71
3
72
8
73
4
40
0
40
0
40
0
40
0
40
1
40
1
40
1
40
1
41
1
10
33.9315368131586
20
22.7448299678877
30
0
41
1
10
33.1262545721578
20
22.867625014402
30
0
41
1
10
32.3202447224237
20
22.9871995661694
30
0
41
1
10
31.5143627668527
20
23.1073256149135
30
0
0
SPLINE
5
F2
100
AcDbEntity
8
1
62
256
6
ByLayer
370
18
48
1
60
0
100
AcDbSpline
70
4
71
3
72
8
73
4
40
0
40
0
40
0
40
0
40
1
40
1
40
1
40
1
41
1
10
31.3999377804179
20
23.1868683787898
30
0
41
1
10
31.3840724114079
20
23.2231668659518
30
0
41
1
10
31.3682051405729
20
23.2594647953484
30
0
41
1
10
31.3523366997625
20
23.2957623814972
30
0
0
SPLINE
5
F3
100
AcDbEntity
8
1
62
256
6
ByLayer
370
18
48
1
60
0
100
AcDbSpline
70
4
71
3
72
8
73
4
40
0
40
0
40
0
40
0
40
1
40
1
40
1
40
1
41
1
10
30.0204128095373
20
23.3014267685506
30
0
41
1
10
30.0041026858193
20
23.2652782682876
30
0
41
1
10
29.9877928956948
20
23.2291296670236
30
0
41
1
10
29.9714836478292
20
23.1929809015972
30
0
0
SPLINE
5
F4
100
AcDbEntity
8
1
62
256
6
ByLayer
370
18
48
1
60
0
100
AcDbSpline
70
4
71
3
72
14
73
10
40
0
40
0
40
0
40
0
40
0.216026539343366
40
0.216026539343366
40
0.492412034630918
40
0.492412034630918
40
0.768719053557655
40
0.768719053557655
40
1
40
1
40
1
40
1
41
1
10
31.3523366997625
20
23.2957623814972
30
0
41
1
10
31.3479061375691
20
23.3058968814665
30
0
41
1
10
31.3417854590053
20
23.315632896309
30
0
41
1
10
31.3246996195769
20
23.3357754719648
30
0
41
1
10
31.3125976469673
20
23.345877831849
30
0
41
1
10
31.2853718381867
20
23.3620047725056
30
0
41
1
10
31.2698732005783
20
23.3682529415952
30
0
41
1
10
31.240237410757
20
23.3754591552017
30
0
41
1
10
31.2259923776295
20
23.3771856663392
30
0
41
1
10
31.2118753534473
20
23.3772458009337
30
0
0
SPLINE
5
F5
100
AcDbEntity
8
1
62
256
6
ByLayer
370
18
48
1
60
0
100
AcDbSpline
70
4
71
3
72
8
73
4
40
0
40
0
40
0
40
0
40
1
40
1
40
1
40
1
41
1
10
34.5542110842821
20
17.0547136990037
30
0
41
1
10
34.554670273835
20
17.1072721976696
30
0
41
1
10
34.5549002289497
20
17.1598922514988
30
0
41
1
10
34.5549002289497
20
17.2125
30
0
0
SPLINE
5
F6
100
AcDbEntity
8
1
62
256
6
ByLayer
370
18
48
1
60
0
100
AcDbSpline
70
4
71
3
72
8
73
4
40
0
40
0
40
0
40
0
40
1
40
1
40
1
40
1
41
1
10
26.481588595506
20
13.1399936002866
30
0
41
1
10
26.4877946618835
20
13.156312089916
30
0
41
1
10
26.494001763919
20
13.165674004382
30
0
41
1
10
26.5002089897927
20
13.1675041722414
30
0
0
SPLINE
5
F7
100
AcDbEntity
8
1
62
256
6
ByLayer
370
18
48
1
60
0
100
AcDbSpline
70
4
71
3
72
12
73
8
40
0
40
0
40
0
40
0
40
0.272687128612957
40
0.272687128612957
40
0.627911576712077
40
0.627911576712077
40
1
40
1
40
1
40
1
41
1
10
27.5808253401151
20
22.7945648831064
30
0
41
1
10
27.5797052873718
20
22.7806685226391
30
0
41
1
10
27.5787003463511
20
22.764165031627
30
0
41
1
10
27.5767444069297
20
22.7220408284794
30
0
41
1
10
27.5758760743977
20
22.6945472497691
30
0
41
1
10
27.5746985645139
20
22.6355040507392
30
0
41
1
10
27.5743981004234
20
22.6029301054978
30
0
41
1
10
27.5744183509637
20
22.5709071705098
30
0
0
SPLINE
5
F8
100
AcDbEntity
8
1
62
256
6
ByLayer
370
18
48
1
60
0
100
AcDbSpline
70
4
71
3
72
14
73
10
40
0
40
0
40
0
40
0
40
0.228350110183706
40
0.228350110183706
40
0.550740827125451
40
0.550740827125451
40
0.873059524678054
40
0.873059524678054
40
1
40
1
40
1
40
1
41
1
10
29.9714836478292
20
23.1929809015972
30
0
41
1
10
29.9673555676421
20
23.1838311846039
30
0
41
1
10
29.9618499380109
20
23.1750255789095
30
0
41
1
10
29.9458184950127
20
23.1555257354717
30
0
41
1
10
29.9339045075058
20
23.145285986797
30
0
41
1
10
29.9069837364942
20
23.1288443820794
30
0
41
1
10
29.8916062756745
20
23.122414892805
30
0
41
1
10
29.8692061382372
20
23.1166743452728
30
0
41
1
10
29.8626799722319
20
23.1153870410113
30
0
41
1
10
29.8560928198676
20
23.1144641320342
30
0
0
SPLINE
5
F9
100
AcDbEntity
8
1
62
256
6
ByLayer
370
18
48
1
60
0
100
AcDbSpline
70
4
71
3
72
8
73
4
40
0
40
0
40
0
40
0
40
1
40
1
40
1
40
1
41
1
10
28.4521199151031
20
14.5066941812309
30
0
41
1
10
28.4483805813551
20
14.5587940817053
30
0
41
1
10
28.4420508184529
20
14.6108089036614
30
0
41
1
10
28.4332635590283
20
14.6624999999999
30
0
0
SPLINE
5
FA
100
AcDbEntity
8
1
62
256
6
ByLayer
370
18
48
1
60
0
100
AcDbSpline
70
4
71
3
72
10
73
6
40
0
40
0
40
0
40
0
40
0.588247400870853
40
0.588247400870853
40
1
40
1
40
1
40
1
41
1
10
29.8560928198676
20
23.1144641320342
30
0
41
1
10
29.4802897127265
20
23.0618113251747
30
0
41
1
10
29.1044868855392
20
23.0091571773972
30
0
41
1
10
28.4656367342495
20
22.9196397549378
30
0
41
1
10
28.2025889175807
20
22.8827788386231
30
0
41
1
10
27.9395423333165
20
22.8459120219112
30
0
0
SPLINE
5
FB
100
AcDbEntity
8
1
62
256
6
ByLayer
370
18
48
1
60
0
100
AcDbSpline
70
4
71
3
72
14
73
10
40
0
40
0
40
0
40
0
40
0.266044453166618
40
0.266044453166618
40
0.588077285720648
40
0.588077285720648
40
0.910333045600034
40
0.910333045600034
40
1
40
1
40
1
40
1
41
1
10
31.5143627668527
20
23.1073256149135
30
0
41
1
10
31.500712847513
20
23.109360293646
30
0
41
1
10
31.4872850083504
20
23.1129965840215
30
0
41
1
10
31.4597901664264
20
23.1241119278276
30
0
41
1
10
31.4458118917899
20
23.1324096193712
30
0
41
1
10
31.4223065753606
20
23.1520601908654
30
0
41
1
10
31.4124584968272
20
23.1636859579556
30
0
41
1
10
31.4033306515374
20
23.1796473476066
30
0
41
1
10
31.4015284329998
20
23.1832291137787
30
0
41
1
10
31.3999377804179
20
23.1868683787898
30
0
0
SPLINE
5
FC
100
AcDbEntity
8
1
62
256
6
ByLayer
370
18
48
1
60
0
100
AcDbSpline
70
4
71
3
72
16
73
12
40
0
40
0
40
0
40
0
40
0.191071026948435
40
0.191071026948435
40
0.317463061439323
40
0.317463061439323
40
0.547594579149436
40
0.547594579149436
40
0.777418509553335
40
0.777418509553335
40
1
40
1
40
1
40
1
41
1
10
28.4521199151045
20
14.5066941812306
30
0
41
1
10
28.4369108367897
20
14.3557662439603
30
0
41
1
10
28.3989666442353
20
14.2055592468751
30
0
41
1
10
28.302164943953
20
13.9718437205447
30
0
41
1
10
28.25412031854
20
13.8816295833599
30
0
41
1
10
28.0974768229858
20
13.6449732658984
30
0
41
1
10
27.9685249046223
20
13.5084720732671
30
0
41
1
10
27.6772278451046
20
13.2887014270598
30
0
41
1
10
27.5109854530833
20
13.2023067122433
30
0
41
1
10
27.1697580041671
20
13.090866886335
30
0
41
1
10
26.9910182428716
20
13.0624999999999
30
0
41
1
10
26.8144313565965
20
13.0624999999999
30
0
0
SPLINE
5
FD
100
AcDbEntity
8
1
62
256
6
ByLayer
370
18
48
1
60
0
100
AcDbSpline
70
4
71
3
72
14
73
10
40
0
40
0
40
0
40
0
40
0.255781763381189
40
0.255781763381189
40
0.532060299918042
40
0.532060299918042
40
0.808335872503394
40
0.808335872503394
40
1
40
1
40
1
40
1
41
1
10
30.1618625613503
20
23.3816954663042
30
0
41
1
10
30.1463215249331
20
23.3817609831488
30
0
41
1
10
30.1305834328146
20
23.3798003827841
30
0
41
1
10
30.0997683882379
20
23.3717979249652
30
0
41
1
10
30.0844230956223
20
23.3653224370327
30
0
41
1
10
30.0575843599148
20
23.3488036576183
30
0
41
1
10
30.0457208076285
20
23.3385326542509
30
0
41
1
10
30.0298791734185
20
23.3191134493308
30
0
41
1
10
30.0244783808054
20
23.3104373871452
30
0
41
1
10
30.0204128095373
20
23.3014267685506
30
0
0
SPLINE
5
FE
100
AcDbEntity
8
1
62
256
6
ByLayer
370
18
48
1
60
0
100
AcDbSpline
70
4
71
3
72
14
73
10
40
0
40
0
40
0
40
0
40
0.266694905213927
40
0.266694905213927
40
0.533430501204737
40
0.533430501204737
40
0.801050523163388
40
0.801050523163388
40
1
40
1
40
1
40
1
41
1
10
27.5795450517103
20
14.6624999999999
30
0
41
1
10
27.5796635499412
20
14.4840759303288
30
0
41
1
10
27.5493273582678
20
14.3032334223173
30
0
41
1
10
27.4329421827142
20
13.9666361826674
30
0
41
1
10
27.3452960692821
20
13.8062567053891
30
0
41
1
10
27.1254378923854
20
13.5271399979164
30
0
41
1
10
26.9900748039798
20
13.4047055355725
30
0
41
1
10
26.7288556669729
20
13.2383486056638
30
0
41
1
10
26.6073055985449
20
13.1809658200378
30
0
41
1
10
26.4815885955092
20
13.1399936002797
30
0
0
SPLINE
5
FF
100
AcDbEntity
8
1
62
256
6
ByLayer
370
18
48
1
60
0
100
AcDbSpline
70
4
71
3
72
16
73
12
40
0
40
0
40
0
40
0
40
0.127584677532073
40
0.127584677532073
40
0.362590002519594
40
0.362590002519594
40
0.591391403795637
40
0.591391403795637
40
0.816975731274065
40
0.816975731274065
40
1
40
1
40
1
40
1
41
1
10
34.7886675376047
20
7.71972331852106
30
0
41
1
10
34.8041847068436
20
7.64619245350849
30
0
41
1
10
34.8183469644458
20
7.5666232578464
30
0
41
1
10
34.8532665767259
20
7.32833953861993
30
0
41
1
10
34.8701311719753
20
7.15495068015758
30
0
41
1
10
34.8878466966882
20
6.80463795899141
30
0
41
1
10
34.8893295020786
20
6.62307666494235
30
0
41
1
10
34.8774847333355
20
6.27577789580647
30
0
41
1
10
34.8642222684812
20
6.10515475380234
30
0
41
1
10
34.829675923276
20
5.82428910372855
30
0
41
1
10
34.8100702719301
20
5.7059969254305
30
0
41
1
10
34.7877878727195
20
5.60096323872929
30
0
0
SPLINE
5
100
100
AcDbEntity
8
1
62
256
6
ByLayer
370
18
48
1
60
0
100
AcDbSpline
70
4
71
3
72
8
73
4
40
0
40
0
40
0
40
0
40
1
40
1
40
1
40
1
41
1
10
34.5549002289497
20
23.0125
30
0
41
1
10
34.5549002289497
20
23.0651077485012
30
0
41
1
10
34.554670273835
20
23.1177278023303
30
0
41
1
10
34.5542110842821
20
23.1702863009962
30
0
0
SPLINE
5
101
100
AcDbEntity
8
1
62
256
6
ByLayer
370
18
48
1
60
0
100
AcDbSpline
70
4
71
3
72
16
73
12
40
0
40
0
40
0
40
0
40
0.191836824669049
40
0.191836824669049
40
0.488625600663326
40
0.488625600663326
40
0.756617127620188
40
0.756617127620188
40
0.99488562644998
40
0.99488562644998
40
1
40
1
40
1
40
1
41
1
10
21.7022029994346
20
4.59206812837306
30
0
41
1
10
21.728965557296
20
4.56550272753947
30
0
41
1
10
21.7530517894596
20
4.53530563709475
30
0
41
1
10
21.8045455835095
20
4.45160245119479
30
0
41
1
10
21.8273454613304
20
4.39273756016854
30
0
41
1
10
21.8475087167515
20
4.27558565055512
30
0
41
1
10
21.8473195131245
20
4.21596924093848
30
0
41
1
10
21.8265486102036
20
4.10736274709532
30
0
41
1
10
21.8078772017483
20
4.05637964553529
30
0
41
1
10
21.7812269493294
20
4.00951506340886
30
0
41
1
10
21.7806545636872
20
4.00851683910901
30
0
41
1
10
21.780078622718
20
4.00752068078972
30
0
0
SPLINE
5
102
100
AcDbEntity
8
1
62
256
6
ByLayer
370
18
48
1
60
0
100
AcDbSpline
70
4
71
3
72
18
73
14
40
0
40
0
40
0
40
0
40
0.181612675763432
40
0.181612675763432
40
0.360704962161441
40
0.360704962161441
40
0.541858957768575
40
0.541858957768575
40
0.695330353238802
40
0.695330353238802
40
0.891708592214993
40
0.891708592214993
40
1
40
1
40
1
40
1
41
1
10
19.8167667794753
20
2.96433167240337
30
0
41
1
10
19.8431653733301
20
3.06356782122458
30
0
41
1
10
19.8836157753469
20
3.16185999741441
30
0
41
1
10
19.9919947765957
20
3.34564601643297
30
0
41
1
10
20.0610858438143
20
3.43333901470314
30
0
41
1
10
20.2249292154154
20
3.58714331940033
30
0
41
1
10
20.3228271976652
20
3.65512401824532
30
0
41
1
10
20.5139334587058
20
3.74860342666528
30
0
41
1
10
20.6078204891179
20
3.78023345322248
30
0
41
1
10
20.8187995200451
20
3.82372848042019
30
0
41
1
10
20.9385309194924
20
3.82872858458032
30
0
41
1
10
21.1146112708123
20
3.8106886242893
30
0
41
1
10
21.1762400013983
20
3.79914926125403
30
0
41
1
10
21.2358011562704
20
3.78303585934629
30
0
0
SPLINE
5
103
100
AcDbEntity
8
1
62
256
6
ByLayer
370
18
48
1
60
0
100
AcDbSpline
70
4
71
3
72
14
73
10
40
0
40
0
40
0
40
0
40
0.222411655270659
40
0.222411655270659
40
0.515858824453686
40
0.515858824453686
40
0.78084748039133
40
0.78084748039133
40
1
40
1
40
1
40
1
41
1
10
17.4641988437301
20
3.7830358593441
30
0
41
1
10
17.4220984987036
20
3.77164622492006
30
0
41
1
10
17.3775208528568
20
3.76579564354958
30
0
41
1
10
17.2734775128698
20
3.76697802898781
30
0
41
1
10
17.2120206515667
20
3.77892053886671
30
0
41
1
10
17.1029872110552
20
3.8236484449684
30
0
41
1
10
17.0530145077153
20
3.85509044478397
30
0
41
1
10
16.9752539436448
20
3.92684984498473
30
0
41
1
10
16.9441728549134
20
3.96557486951971
30
0
41
1
10
16.9199213772817
20
4.00752068078972
30
0
0
SPLINE
5
104
100
AcDbEntity
8
1
62
256
6
ByLayer
370
18
48
1
60
0
100
AcDbSpline
70
4
71
3
72
18
73
14
40
0
40
0
40
0
40
0
40
0.0150229386922509
40
0.0150229386922509
40
0.237604440562225
40
0.237604440562225
40
0.460204731428099
40
0.460204731428099
40
0.694992075280034
40
0.694992075280034
40
0.951641525778776
40
0.951641525778776
40
1
40
1
40
1
40
1
41
1
10
21.780078622718
20
6.81747931921015
30
0
41
1
10
21.7817615942788
20
6.8145684199844
30
0
41
1
10
21.7834142774076
20
6.81163974908367
30
0
41
1
10
21.8087692760005
20
6.76559206826633
30
0
41
1
10
21.8259974141088
20
6.71820390746316
30
0
41
1
10
21.8450960858194
20
6.62278515642174
30
0
41
1
10
21.8472443400599
20
6.57353995133965
30
0
41
1
10
21.8373217764369
20
6.4767792924751
30
0
41
1
10
21.8243922232513
20
6.42828745515033
30
0
41
1
10
21.7844502710446
20
6.33586243531735
30
0
41
1
10
21.7557916634703
20
6.29159141129662
30
0
41
1
10
21.7156161608077
20
6.24664772247579
30
0
41
1
10
21.7089992246004
20
6.23967802970276
30
0
41
1
10
21.7022029994316
20
6.23293187163006
30
0
0
SPLINE
5
105
100
AcDbEntity
8
1
62
256
6
ByLayer
370
18
48
1
60
0
100
AcDbSpline
70
4
71
3
72
12
73
8
40
0
40
0
40
0
40
0
40
0.455353062346809
40
0.455353062346809
40
0.827333545905724
40
0.827333545905724
40
1
40
1
40
1
40
1
41
1
10
16.9977970005681
20
6.23293187163009
30
0
41
1
10
17.0830288936759
20
6.14832787316544
30
0
41
1
10
17.1577281806254
20
6.04740784593113
30
0
41
1
10
17.2617358000775
20
5.84179317452731
30
0
41
1
10
17.2977816418946
20
5.73873170351473
30
0
41
1
10
17.3281708432747
20
5.58125860275328
30
0
41
1
10
17.3346282332609
20
5.52963974960497
30
0
41
1
10
17.3375606880438
20
5.47784726997739
30
0
0
SPLINE
5
106
100
AcDbEntity
8
1
62
256
6
ByLayer
370
18
48
1
60
0
100
AcDbSpline
70
4
71
3
72
16
73
12
40
0
40
0
40
0
40
0
40
0.19193028118274
40
0.19193028118274
40
0.488707775608027
40
0.488707775608027
40
0.756688906725735
40
0.756688906725735
40
0.994950483060348
40
0.994950483060348
40
1
40
1
40
1
40
1
41
1
10
16.9977970005652
20
6.23293187162679
30
0
41
1
10
16.9710214643374
20
6.25951015521656
30
0
41
1
10
16.9469247874563
20
6.28972378361993
30
0
41
1
10
16.8954314204746
20
6.37344826847587
30
0
41
1
10
16.8726387319835
20
6.43231438647757
30
0
41
1
10
16.8524886700382
20
6.5494656184689
30
0
41
1
10
16.8526841067729
20
6.60908034869365
30
0
41
1
10
16.8734651759509
20
6.71768198350966
30
0
41
1
10
16.8921409914945
20
6.76866200997412
30
0
41
1
10
16.9187875582716
20
6.81551023611081
30
0
41
1
10
16.919352734855
20
6.81649578458703
30
0
41
1
10
16.9199213772817
20
6.81747931921015
30
0
0
SPLINE
5
107
100
AcDbEntity
8
1
62
256
6
ByLayer
370
18
48
1
60
0
100
AcDbSpline
70
4
71
3
72
18
73
14
40
0
40
0
40
0
40
0
40
0.181752771450186
40
0.181752771450186
40
0.360818406833421
40
0.360818406833421
40
0.54194416304126
40
0.54194416304126
40
0.695407615755985
40
0.695407615755985
40
0.891808268956474
40
0.891808268956474
40
1
40
1
40
1
40
1
41
1
10
18.8832332205245
20
7.86066832759647
30
0
41
1
10
18.8568143498754
20
7.76135595536024
30
0
41
1
10
18.8163215393519
20
7.66298804678303
30
0
41
1
10
18.7078644062601
20
7.47916032013788
30
0
41
1
10
18.6387629402268
20
7.39149072916743
30
0
41
1
10
18.4749112530845
20
7.23773547728155
30
0
41
1
10
18.3770165049069
20
7.16978148262086
30
0
41
1
10
18.1859189844751
20
7.07633981208483
30
0
41
1
10
18.0920350840379
20
7.04472485397068
30
0
41
1
10
17.8810474443438
20
7.00125520435398
30
0
41
1
10
17.7613055341863
20
6.99627113264413
30
0
41
1
10
17.5852768627444
20
7.01433231120117
30
0
41
1
10
17.5237060408919
20
7.02586533621732
30
0
41
1
10
17.4641988437294
20
7.04196414065359
30
0
0
SPLINE
5
108
100
AcDbEntity
8
1
62
256
6
ByLayer
370
18
48
1
60
0
100
AcDbSpline
70
4
71
3
72
12
73
8
40
0
40
0
40
0
40
0
40
0.368706056448694
40
0.368706056448694
40
0.737980850847997
40
0.737980850847997
40
1
40
1
40
1
40
1
41
1
10
21.362439311956
20
5.47784726997739
30
0
41
1
10
21.3686189055836
20
5.58699012153397
30
0
41
1
10
21.3909267930615
20
5.69585174404125
30
0
41
1
10
21.4607873109885
20
5.89500963121057
30
0
41
1
10
21.5090539743429
20
5.9880727775012
30
0
41
1
10
21.6069950332968
20
6.12951094235052
30
0
41
1
10
21.6527452978834
20
6.18383851991308
30
0
41
1
10
21.7022029994316
20
6.23293187163009
30
0
0
SPLINE
5
109
100
AcDbEntity
8
1
62
256
6
ByLayer
370
18
48
1
60
0
100
AcDbSpline
70
4
71
3
72
14
73
10
40
0
40
0
40
0
40
0
40
0.2201700379591
40
0.2201700379591
40
0.51389454431454
40
0.51389454431454
40
0.779127126142504
40
0.779127126142504
40
1
40
1
40
1
40
1
41
1
10
19.816766779477
20
2.96433167240298
30
0
41
1
10
19.8056672194857
20
2.92260681413197
30
0
41
1
10
19.7886559514448
20
2.88150108159348
30
0
41
1
10
19.7360280644164
20
2.79224245971426
30
0
41
1
10
19.6950327446087
20
2.74487543405635
30
0
41
1
10
19.6018667893727
20
2.67258365220934
30
0
41
1
10
19.5496677430621
20
2.64490899809383
30
0
41
1
10
19.4483054575269
20
2.61314633608825
30
0
41
1
10
19.3988305749588
20
2.60549999999992
30
0
41
1
10
19.3499999999998
20
2.60549999999992
30
0
0
SPLINE
5
10A
100
AcDbEntity
8
1
62
256
6
ByLayer
370
18
48
1
60
0
100
AcDbSpline
70
4
71
3
72
14
73
10
40
0
40
0
40
0
40
0
40
0.219116464512353
40
0.219116464512353
40
0.512971212475588
40
0.512971212475588
40
0.778318620253407
40
0.778318620253407
40
1
40
1
40
1
40
1
41
1
10
21.2358011562696
20
7.04196414065598
30
0
41
1
10
21.2772802266618
20
7.05318569828739
30
0
41
1
10
21.3211569919017
20
7.05903137643685
30
0
41
1
10
21.4245700582765
20
7.05828568184177
30
0
41
1
10
21.4861281818992
20
7.04657916499312
30
0
41
1
10
21.5954305674516
20
7.00222808006376
30
0
41
1
10
21.6455690842404
20
6.97093924257237
30
0
41
1
10
21.7240231322849
20
6.89904237532789
30
0
41
1
10
21.7555485246601
20
6.85990703760339
30
0
41
1
10
21.780078622718
20
6.81747931921015
30
0
0
SPLINE
5
10B
100
AcDbEntity
8
1
62
256
6
ByLayer
370
18
48
1
60
0
100
AcDbSpline
70
4
71
3
72
18
73
14
40
0
40
0
40
0
40
0
40
0.0173285944903332
40
0.0173285944903332
40
0.239841647765374
40
0.239841647765374
40
0.462510527753947
40
0.462510527753947
40
0.697478079776752
40
0.697478079776752
40
0.95439220234841
40
0.95439220234841
40
1
40
1
40
1
40
1
41
1
10
16.9199213772817
20
4.00752068078972
30
0
41
1
10
16.9179807029301
20
4.01087730760347
30
0
41
1
10
16.9160802821221
20
4.01425760618605
30
0
41
1
10
16.8906332592299
20
4.06082424807971
30
0
41
1
10
16.8735628407804
20
4.10824494326954
30
0
41
1
10
16.8547609531242
20
4.20370168370812
30
0
41
1
10
16.8527648587478
20
4.25295286274462
30
0
41
1
10
16.8629866118793
20
4.34970120981666
30
0
41
1
10
16.8760730914401
20
4.39816982818729
30
0
41
1
10
16.916329453616
20
4.49051298492364
30
0
41
1
10
16.945151621395
20
4.53471764470663
30
0
41
1
10
16.9851348030686
20
4.57914196762442
30
0
41
1
10
16.991386072922
20
4.58570442937216
30
0
41
1
10
16.9977970005681
20
4.59206812836979
30
0
0
SPLINE
5
10C
100
AcDbEntity
8
1
62
256
6
ByLayer
370
18
48
1
60
0
100
AcDbSpline
70
4
71
3
72
16
73
12
40
0
40
0
40
0
40
0
40
0.218620732637231
40
0.218620732637231
40
0.441132096326308
40
0.441132096326308
40
0.674870839126928
40
0.674870839126928
40
0.929765351321932
40
0.929765351321932
40
1
40
1
40
1
40
1
41
1
10
16.9199213772817
20
6.81747931921015
30
0
41
1
10
16.9440613583093
20
6.85923228385929
30
0
41
1
10
16.9749652609369
20
6.89779289412098
30
0
41
1
10
17.0457183219904
20
6.96326774515941
30
0
41
1
10
17.0866082715035
20
6.99081711895013
30
0
41
1
10
17.17418959593
20
7.03279163260368
30
0
41
1
10
17.2221475197233
20
7.04705631980906
30
0
41
1
10
17.3213982636594
20
7.06126119779785
30
0
41
1
10
17.3738356388484
20
7.06002385148039
30
0
41
1
10
17.4371826459674
20
7.04865244901163
30
0
41
1
10
17.4508014492004
20
7.04558861037845
30
0
41
1
10
17.4641988437297
20
7.04196414065433
30
0
0
SPLINE
5
10D
100
AcDbEntity
8
1
62
256
6
ByLayer
370
18
48
1
60
0
100
AcDbSpline
70
4
71
3
72
18
73
14
40
0
40
0
40
0
40
0
40
0.0157923844671072
40
0.0157923844671072
40
0.23881109546189
40
0.23881109546189
40
0.461892552251097
40
0.461892552251097
40
0.697221985203082
40
0.697221985203082
40
0.954485725072596
40
0.954485725072596
40
1
40
1
40
1
40
1
41
1
10
19.3499999999998
20
2.60549999999992
30
0
41
1
10
19.3464730096042
20
2.60549999999992
30
0
41
1
10
19.3429457593785
20
2.60553863924039
30
0
41
1
10
19.2902320617185
20
2.60669361826265
30
0
41
1
10
19.2406001967536
20
2.61554678582334
30
0
41
1
10
19.1484717102425
20
2.64686055907396
30
0
41
1
10
19.1047865104683
20
2.669692396469
30
0
41
1
10
19.0260365031902
20
2.7267947244228
30
0
41
1
10
18.9905591865772
20
2.76229930132223
30
0
41
1
10
18.9306097965799
20
2.8432130359746
30
0
41
1
10
18.9066723275178
20
2.89021690075006
30
0
41
1
10
18.8881117339852
20
2.94697206899178
30
0
41
1
10
18.8855473924985
20
2.95563236380846
30
0
41
1
10
18.8832332205245
20
2.9643316724034
30
0
0
SPLINE
5
10E
100
AcDbEntity
8
1
62
256
6
ByLayer
370
18
48
1
60
0
100
AcDbSpline
70
4
71
3
72
12
73
8
40
0
40
0
40
0
40
0
40
0.368706056538493
40
0.368706056538493
40
0.737980850952354
40
0.737980850952354
40
1
40
1
40
1
40
1
41
1
10
17.3375606880438
20
5.34715273002249
30
0
41
1
10
17.3313810944147
20
5.23800987843939
30
0
41
1
10
17.3090732069272
20
5.12914825590565
30
0
41
1
10
17.2392126889779
20
4.92999036871569
30
0
41
1
10
17.1909460256159
20
4.83692722242631
30
0
41
1
10
17.0930049666666
20
4.69548905760618
30
0
41
1
10
17.0472547020968
20
4.64116148006735
30
0
41
1
10
16.9977970005681
20
4.59206812836976
30
0
0
SPLINE
5
10F
100
AcDbEntity
8
1
62
256
6
ByLayer
370
18
48
1
60
0
100
AcDbSpline
70
4
71
3
72
12
73
8
40
0
40
0
40
0
40
0
40
0.455353062347106
40
0.455353062347106
40
0.827333545906266
40
0.827333545906266
40
1
40
1
40
1
40
1
41
1
10
21.7022029994316
20
4.59206812836976
30
0
41
1
10
21.6169711063238
20
4.67667212683443
30
0
41
1
10
21.5422718193743
20
4.77759215406871
30
0
41
1
10
21.4382641999223
20
4.98320682547256
30
0
41
1
10
21.4022183581052
20
5.08626829648512
30
0
41
1
10
21.371829156725
20
5.24374139724659
30
0
41
1
10
21.3653717667389
20
5.29536025039491
30
0
41
1
10
21.362439311956
20
5.34715273002246
30
0
0
SPLINE
5
110
100
AcDbEntity
8
1
62
256
6
ByLayer
370
18
48
1
60
0
100
AcDbSpline
70
4
71
3
72
16
73
12
40
0
40
0
40
0
40
0
40
0.218557773056347
40
0.218557773056347
40
0.441067473679259
40
0.441067473679259
40
0.674801337484699
40
0.674801337484699
40
0.929688497508485
40
0.929688497508485
40
1
40
1
40
1
40
1
41
1
10
21.780078622718
20
4.00752068078972
30
0
41
1
10
21.7559455888972
20
3.96577973215972
30
0
41
1
10
21.7250527149333
20
3.9272293704484
30
0
41
1
10
21.6543152640529
20
3.86175760272479
30
0
41
1
10
21.6134276553378
20
3.83420463464194
30
0
41
1
10
21.5258503446474
20
3.792222748499
30
0
41
1
10
21.4778941267025
20
3.77795396964447
30
0
41
1
10
21.3786459740658
20
3.76374041878665
30
0
41
1
10
21.3262093904104
20
3.76497292025914
30
0
41
1
10
21.2628470541122
20
3.77634087127316
30
0
41
1
10
21.2492131529496
20
3.77940743922261
30
0
41
1
10
21.2358011562701
20
3.78303585934552
30
0
0
SPLINE
5
111
100
AcDbEntity
8
1
62
256
6
ByLayer
370
18
48
1
60
0
100
AcDbSpline
70
4
71
3
72
18
73
14
40
0
40
0
40
0
40
0
40
0.181666908878577
40
0.181666908878577
40
0.360750617017819
40
0.360750617017819
40
0.5418954530747
40
0.5418954530747
40
0.695365105948639
40
0.695365105948639
40
0.891753383060556
40
0.891753383060556
40
1
40
1
40
1
40
1
41
1
10
21.2358011562701
20
7.0419641406543
30
0
41
1
10
21.1366484671723
20
7.01513982650025
30
0
41
1
10
21.0312756755242
20
7.00096024593512
30
0
41
1
10
20.8178933346768
20
7.0028139531035
30
0
41
1
10
20.7073993968489
20
7.01874262300365
30
0
41
1
10
20.4922541831346
20
7.08361400515474
30
0
41
1
10
20.3844106004873
20
7.13434413957168
30
0
41
1
10
20.2078436255827
20
7.25300412179089
30
0
41
1
10
20.1334733576071
20
7.3184542246232
30
0
41
1
10
19.9902247488766
20
7.47934033730434
30
0
41
1
10
19.9259704993084
20
7.58049807468672
30
0
41
1
10
19.8534717551391
20
7.74195116030251
30
0
41
1
10
19.8326236268417
20
7.80106013506105
30
0
41
1
10
19.8167667794747
20
7.86066832759633
30
0
0
SPLINE
5
112
100
AcDbEntity
8
1
62
256
6
ByLayer
370
18
48
1
60
0
100
AcDbSpline
70
4
71
3
72
18
73
14
40
0
40
0
40
0
40
0
40
0.181347322288274
40
0.181347322288274
40
0.360491893295297
40
0.360491893295297
40
0.541701215502888
40
0.541701215502888
40
0.695189055143497
40
0.695189055143497
40
0.89152626545883
40
0.89152626545883
40
1
40
1
40
1
40
1
41
1
10
17.4641988437296
20
3.78303585934555
30
0
41
1
10
17.5631778335095
20
3.8098131816821
30
0
41
1
10
17.6683526563045
20
3.82398999892581
30
0
41
1
10
17.8815634124242
20
3.82224287813628
30
0
41
1
10
17.9920917073036
20
3.80636148257957
30
0
41
1
10
18.2073243078437
20
3.74156255186637
30
0
41
1
10
18.3152243274797
20
3.69085653161051
30
0
41
1
10
18.4918758315761
20
3.57222237022393
30
0
41
1
10
18.5662794422929
20
3.50678327831929
30
0
41
1
10
18.7095683332406
20
3.34594310858304
30
0
41
1
10
18.7738422271742
20
3.24482441744277
30
0
41
1
10
18.8464418767043
20
3.08329355141802
30
0
41
1
10
18.8673436078639
20
3.02406303443891
30
0
41
1
10
18.8832332205251
20
2.96433167240352
30
0
0
SPLINE
5
113
100
AcDbEntity
8
1
62
256
6
ByLayer
370
18
48
1
60
0
100
AcDbSpline
70
4
71
3
72
18
73
14
40
0
40
0
40
0
40
0
40
0.0162289153285379
40
0.0162289153285379
40
0.239234459040957
40
0.239234459040957
40
0.462328698874896
40
0.462328698874896
40
0.697692042263413
40
0.697692042263413
40
0.955005672045988
40
0.955005672045988
40
1
40
1
40
1
40
1
41
1
10
19.3499999999998
20
8.21949999999993
30
0
41
1
10
19.3536242766895
20
8.21949999999993
30
0
41
1
10
19.3572488353029
20
8.21945919936121
30
0
41
1
10
19.4100561366262
20
8.21827024359709
30
0
41
1
10
19.4596784109304
20
8.20938819618416
30
0
41
1
10
19.5517850503579
20
8.17802227881319
30
0
41
1
10
19.5954568409307
20
8.15516498505559
30
0
41
1
10
19.6741765483864
20
8.09801487893006
30
0
41
1
10
19.7096352317558
20
8.06248682706891
30
0
41
1
10
19.7695415102292
20
7.98152940017218
30
0
41
1
10
19.7934526634122
20
7.93450505354622
30
0
41
1
10
19.8119466966159
20
7.8778304916666
30
0
41
1
10
19.8144789819862
20
7.8692684906714
30
0
41
1
10
19.8167667794753
20
7.86066832759647
30
0
0
SPLINE
5
114
100
AcDbEntity
8
1
62
256
6
ByLayer
370
18
48
1
60
0
100
AcDbSpline
70
4
71
3
72
14
73
10
40
0
40
0
40
0
40
0
40
0.220792708734965
40
0.220792708734965
40
0.51444020832232
40
0.51444020832232
40
0.779604980836361
40
0.779604980836361
40
1
40
1
40
1
40
1
41
1
10
18.8832332205229
20
7.86066832759684
30
0
41
1
10
18.8943640459225
20
7.90251071707948
30
0
41
1
10
18.9114407543236
20
7.9437315689749
30
0
41
1
10
18.9641996246415
20
8.03305205926145
30
0
41
1
10
19.0052239912513
20
8.08038021288905
30
0
41
1
10
19.0984261881924
20
8.15259237023139
30
0
41
1
10
19.15063462289
20
8.18022541378002
30
0
41
1
10
19.2519088779038
20
8.21188757569033
30
0
41
1
10
19.3012746101242
20
8.21949999999993
30
0
41
1
10
19.3499999999998
20
8.21949999999993
30
0
0
SPLINE
5
115
100
AcDbEntity
8
1
62
256
6
ByLayer
370
18
48
1
60
0
100
AcDbSpline
70
4
71
5
72
12
73
6
40
0
40
0
40
0
40
0
40
0
40
0
40
1
40
1
40
1
40
1
40
1
40
1
41
1
10
30.4225303720258
20
25.50535699163
30
0
41
1
10
30.3842211476333
20
25.5053261726168
30
0
41
1
10
30.3458964755627
20
25.5040985886775
30
0
41
1
10
30.3076737611685
20
25.5012793601911
30
0
41
1
10
30.2696008861607
20
25.4973460301949
30
0
41
1
10
30.2317969718732
20
25.4920212005385
30
0
0
SPLINE
5
116
100
AcDbEntity
8
1
62
256
6
ByLayer
370
18
48
1
60
0
100
AcDbSpline
70
4
71
3
72
16
73
12
40
0
40
0
40
0
40
0
40
0.0040051937033791
40
0.0081233336124729
40
0.0162581606210836
40
0.0321730544213364
40
0.0629558962209329
40
0.122666009016105
40
0.243856595800703
40
0.49452396132445
40
1
40
1
40
1
40
1
41
1
10
30.2317249887642
20
25.4920211895393
30
0
41
1
10
30.2311019528197
20
25.4918863299519
30
0
41
1
10
30.2298383113571
20
25.4916128077453
30
0
41
1
10
30.2273128927421
20
25.4910584739814
30
0
41
1
10
30.2229620360884
20
25.4900096116061
30
0
41
1
10
30.2145880249184
20
25.4876719226103
30
0
41
1
10
30.1987793174741
20
25.4819740991099
30
0
41
1
10
30.1695490564691
20
25.4663030451436
30
0
41
1
10
30.120109572859
20
25.4221316352469
30
0
41
1
10
30.0503315815822
20
25.3108970705724
30
0
41
1
10
30.0280710074593
20
25.2038097707737
30
0
41
1
10
30.0131899852038
20
25.1322227361
30
0
0
SPLINE
5
117
100
AcDbEntity
8
1
62
256
6
ByLayer
370
18
48
1
60
0
100
AcDbSpline
70
4
71
5
72
12
73
6
40
0
40
0
40
0
40
0
40
0
40
0
40
1
40
1
40
1
40
1
40
1
40
1
41
1
10
31.4225436797324
20
24.92041328442
30
0
41
1
10
31.4098144961432
20
24.96241139387
30
0
41
1
10
31.3980739845453
20
25.00460329739
30
0
41
1
10
31.3872990738897
20
25.04696695877
30
0
41
1
10
31.3774722528606
20
25.0894797832
30
0
41
1
10
31.3685789668157
20
25.13211955257
30
0
0
SPLINE
5
118
100
AcDbEntity
8
1
62
256
6
ByLayer
370
18
48
1
60
0
100
AcDbSpline
70
4
71
5
72
12
73
6
40
0
40
0
40
0
40
0
40
0
40
0
40
1
40
1
40
1
40
1
40
1
40
1
41
1
10
31.4529904560839
20
24.92041328426
30
0
41
1
10
31.4449178700756
20
24.92041328432
30
0
41
1
10
31.4376798556271
20
24.92041328444
30
0
41
1
10
31.4314557631014
20
24.92041328435
30
0
41
1
10
31.426384008529
20
24.92041328437
30
0
41
1
10
31.4225436773439
20
24.92041328443
30
0
0
SPLINE
5
119
100
AcDbEntity
8
1
62
256
6
ByLayer
370
18
48
1
60
0
100
AcDbSpline
70
4
71
5
72
12
73
6
40
0
40
0
40
0
40
0
40
0
40
0
40
1
40
1
40
1
40
1
40
1
40
1
41
1
10
31.5882325108328
20
24.8178276268
30
0
41
1
10
31.5786053969397
20
24.81782762618
30
0
41
1
10
31.5691968696925
20
24.81782762758
30
0
41
1
10
31.5601989307685
20
24.81782762618
30
0
41
1
10
31.5517946727306
20
24.81782762708
30
0
41
1
10
31.5441374461988
20
24.81782762689
30
0
0
SPLINE
5
11A
100
AcDbEntity
8
1
62
256
6
ByLayer
370
18
48
1
60
0
100
AcDbSpline
70
4
71
8
72
18
73
9
40
0
40
0
40
0
40
0
40
0
40
0
40
0
40
0
40
0
40
1
40
1
40
1
40
1
40
1
40
1
40
1
40
1
40
1
41
1
10
27.3856927388433
20
15.0748110215
30
0
41
1
10
27.3856545190271
20
15.08106591532
30
0
41
1
10
27.3856210625266
20
15.08770301197
30
0
41
1
10
27.3855927089084
20
15.0946667392
30
0
41
1
10
27.3855697384965
20
15.10189677004
30
0
41
1
10
27.3855523660289
20
15.1093290604
30
0
41
1
10
27.3855407361646
20
15.11689703415
30
0
41
1
10
27.3855349212325
20
15.12453284965
30
0
41
1
10
27.3855349212328
20
15.13216866514
30
0
0
SPLINE
5
11B
100
AcDbEntity
8
1
62
256
6
ByLayer
370
18
48
1
60
0
100
AcDbSpline
70
4
71
5
72
12
73
6
40
0
40
0
40
0
40
0
40
0
40
0
40
1
40
1
40
1
40
1
40
1
40
1
41
1
10
28.5785164248282
20
24.51359915869
30
0
41
1
10
28.5215125944739
20
24.49929778226
30
0
41
1
10
28.4672516425637
20
24.47138514454
30
0
41
1
10
28.4187972066964
20
24.43412932108
30
0
41
1
10
28.3751358668854
20
24.3911349824
30
0
41
1
10
28.3360917023914
20
24.34367848899
30
0
0
SPLINE
5
11C
100
AcDbEntity
8
1
62
256
6
ByLayer
370
18
48
1
60
0
100
AcDbSpline
70
4
71
5
72
12
73
6
40
0
40
0
40
0
40
0
40
0
40
0
40
1
40
1
40
1
40
1
40
1
40
1
41
1
10
28.3360811122294
20
24.3436868211121
30
0
41
1
10
28.2655485013381
20
24.2580317993418
30
0
41
1
10
28.1877859069901
20
24.1781791467942
30
0
41
1
10
28.1019068564972
20
24.1061183128687
30
0
41
1
10
28.0062823076656
20
24.0454014338881
30
0
41
1
10
27.9027721527928
20
24.002912378842
30
0
0
SPLINE
5
11D
100
AcDbEntity
8
1
62
256
6
ByLayer
370
18
48
1
60
0
100
AcDbSpline
70
4
71
5
72
22
73
16
40
0
40
0
40
0
40
0
40
0
40
0
40
0.333333333333333
40
0.333333333333333
40
0.333333333333333
40
0.333333333333333
40
0.333333333333333
40
0.666666666666667
40
0.666666666666667
40
0.666666666666667
40
0.666666666666667
40
0.666666666666667
40
1
40
1
40
1
40
1
40
1
40
1
41
1
10
29.916754244606
20
25.18958037975
30
0
41
1
10
29.9297975563133
20
25.25644048968
30
0
41
1
10
29.953577601623
20
25.32206077285
30
0
41
1
10
29.9849925551721
20
25.38626569857
30
0
41
1
10
30.0280652778671
20
25.44500096524
30
0
41
1
10
30.0887568018225
20
25.4915884251499
30
0
41
1
10
30.1041945491517
20
25.50343860435
30
0
41
1
10
30.1208032429192
20
25.51438292131
30
0
41
1
10
30.1385075749509
20
25.52411676176
30
0
41
1
10
30.1571426161657
20
25.53237403676
30
0
41
1
10
30.1768401910633
20
25.5388022793877
30
0
41
1
10
30.185741135938
20
25.54170707521
30
0
41
1
10
30.1947485270669
20
25.54433190399
30
0
41
1
10
30.2040182307908
20
25.54652361099
30
0
41
1
10
30.21337638279
20
25.54807234072
30
0
41
1
10
30.2228133596079
20
25.54940181511
30
0
0
SPLINE
5
11E
100
AcDbEntity
8
1
62
256
6
ByLayer
370
18
48
1
60
0
100
AcDbSpline
70
4
71
5
72
19
73
13
40
0
40
0
40
0
40
0
40
0
40
0
40
0.44522345479053
40
0.44522345479053
40
0.44522345479053
40
0.55477654520947
40
0.55477654520947
40
0.55477654520947
40
0.55477654520947
40
1
40
1
40
1
40
1
40
1
40
1
41
1
10
30.222809266134
20
25.54940429806
30
0
41
1
10
30.2426305076456
20
25.55205877067
30
0
41
1
10
30.2625195204034
20
25.55434150192
30
0
41
1
10
30.2824569328201
20
25.55633537624
30
0
41
1
10
30.3073493689776
20
25.55842888491
30
0
41
1
10
30.3322904237554
20
25.56001014375
30
0
41
1
10
30.3372173487935
20
25.56030203956
30
0
41
1
10
30.3421458763913
20
25.56057337586
30
0
41
1
10
30.3621843099347
20
25.56155470334
30
0
41
1
10
30.3772969974525
20
25.56216416951
30
0
41
1
10
30.3924304188131
20
25.56253257604
30
0
41
1
10
30.4075577943925
20
25.56268546629
30
0
41
1
10
30.422688106301
20
25.56271845637
30
0
0
SPLINE
5
11F
100
AcDbEntity
8
1
62
256
6
ByLayer
370
18
48
1
60
0
100
AcDbSpline
70
4
71
5
72
12
73
6
40
0
40
0
40
0
40
0
40
0
40
0
40
1
40
1
40
1
40
1
40
1
40
1
41
1
10
29.3841796522119
20
26.14316632218
30
0
41
1
10
29.2682269401012
20
26.14298682909
30
0
41
1
10
29.1532313838263
20
26.1738312314
30
0
41
1
10
29.0548004748724
20
26.22904446845
30
0
41
1
10
28.9698084140962
20
26.2953341277
30
0
41
1
10
28.8975078390296
20
26.36926334812
30
0
0
SPLINE
5
120
100
AcDbEntity
8
1
62
256
6
ByLayer
370
18
48
1
60
0
100
AcDbSpline
70
4
71
5
72
12
73
6
40
0
40
0
40
0
40
0
40
0
40
0
40
1
40
1
40
1
40
1
40
1
40
1
41
1
10
28.5785158541834
20
24.5136014917
30
0
41
1
10
28.5755140485698
20
24.52587398982
30
0
41
1
10
28.5721824442202
20
24.5381464632
30
0
41
1
10
28.5686208446661
20
24.55000994804
30
0
41
1
10
28.564951764351
20
24.56105637966
30
0
41
1
10
28.5612969772384
20
24.57095663571
30
0
0
SPLINE
5
121
100
AcDbEntity
8
1
62
256
6
ByLayer
370
18
48
1
60
0
100
AcDbSpline
70
4
71
5
72
12
73
6
40
0
40
0
40
0
40
0
40
0
40
0
40
1
40
1
40
1
40
1
40
1
40
1
41
1
10
30.422688925013
20
25.56272626063
30
0
41
1
10
30.4226277736853
20
25.55271841521
30
0
41
1
10
30.4225799572614
20
25.54164050042
30
0
41
1
10
30.4225473875435
20
25.52980327683
30
0
41
1
10
30.4225311077867
20
25.51758590949
30
0
41
1
10
30.4225311074025
20
25.505368617
30
0
0
SPLINE
5
122
100
AcDbEntity
8
1
62
256
6
ByLayer
370
18
48
1
60
0
100
AcDbSpline
70
4
71
5
72
15
73
9
40
0
40
0
40
0
40
0
40
0
40
0
40
0.437068328965547
40
0.437068328965547
40
0.437068328965547
40
1
40
1
40
1
40
1
40
1
40
1
41
1
10
29.2117075115626
20
30.0935782149
30
0
41
1
10
29.1547102522055
20
30.0936473805
30
0
41
1
10
29.1001182825893
20
30.1041724572
30
0
41
1
10
29.0469646585909
20
30.1246295952
30
0
41
1
10
28.93655053505
20
30.1852463326
30
0
41
1
10
28.8448840585652
20
30.2703759745
30
0
41
1
10
28.7995517839323
20
30.3216602355
30
0
41
1
10
28.7572690922453
20
30.3771792816
30
0
41
1
10
28.7200842660729
20
30.433086004
30
0
0
SPLINE
5
123
100
AcDbEntity
8
1
62
256
6
ByLayer
370
18
48
1
60
0
100
AcDbSpline
70
4
71
5
72
12
73
6
40
0
40
0
40
0
40
0
40
0
40
0
40
1
40
1
40
1
40
1
40
1
40
1
41
1
10
30.2228133596103
20
25.54940181492
30
0
41
1
10
30.224728785256
20
25.5394253268473
30
0
41
1
10
30.2266575620746
20
25.5283576206838
30
0
41
1
10
30.2285383569676
20
25.5165144554111
30
0
41
1
10
30.2303063046663
20
25.5042826684554
30
0
41
1
10
30.2319106848831
20
25.4920503298062
30
0
0
SPLINE
5
124
100
AcDbEntity
8
1
62
256
6
ByLayer
370
18
48
1
60
0
100
AcDbSpline
70
4
71
5
72
12
73
6
40
0
40
0
40
0
40
0
40
0
40
0
40
1
40
1
40
1
40
1
40
1
40
1
41
1
10
29.9167542447174
20
25.1895803803304
30
0
41
1
10
29.9432216424642
20
25.1860088988331
30
0
41
1
10
29.9697711295703
20
25.1772745295151
30
0
41
1
10
29.9923516626472
20
25.163862684879
30
0
41
1
10
30.0071407499496
20
25.1480419467943
30
0
41
1
10
30.0132948095198
20
25.1322310584347
30
0
0
SPLINE
5
125
100
AcDbEntity
8
1
62
256
6
ByLayer
370
18
48
1
60
0
100
AcDbSpline
70
4
71
5
72
12
73
6
40
0
40
0
40
0
40
0
40
0
40
0
40
1
40
1
40
1
40
1
40
1
40
1
41
1
10
29.8636144426598
20
24.97777092767
30
0
41
1
10
29.8879676021163
20
24.97304245407
30
0
41
1
10
29.912387671976
20
24.96381669698
30
0
41
1
10
29.9336452055848
20
24.95067991478
30
0
41
1
10
29.9486477041909
20
24.93554321724
30
0
41
1
10
29.9564288059055
20
24.92041328443
30
0
0
SPLINE
5
126
100
AcDbEntity
8
1
62
256
6
ByLayer
370
18
48
1
60
0
100
AcDbSpline
70
4
71
5
72
12
73
6
40
0
40
0
40
0
40
0
40
0
40
0
40
1
40
1
40
1
40
1
40
1
40
1
41
1
10
29.9564288035022
20
24.92041328442
30
0
41
1
10
29.9697078970738
20
24.96241139387
30
0
41
1
10
29.9820008561321
20
25.00460329739
30
0
41
1
10
29.9933304631902
20
25.04696695877
30
0
41
1
10
30.0037139337178
20
25.0894797832
30
0
41
1
10
30.0131655314354
20
25.13211955257
30
0
0
SPLINE
5
127
100
AcDbEntity
8
1
62
256
6
ByLayer
370
18
48
1
60
0
100
AcDbSpline
70
4
71
5
72
12
73
6
40
0
40
0
40
0
40
0
40
0
40
0
40
1
40
1
40
1
40
1
40
1
40
1
41
1
10
29.9165687220071
20
25.18947719621
30
0
41
1
10
29.9077498837191
20
25.14685023177
30
0
41
1
10
29.8980608980496
20
25.10434577374
30
0
41
1
10
29.8874875529771
20
25.06198305591
30
0
41
1
10
29.8760124617455
20
25.0197832651
30
0
41
1
10
29.8636144426586
20
24.97777092836
30
0
0
SPLINE
5
128
100
AcDbEntity
8
1
62
256
6
ByLayer
370
18
48
1
60
0
100
AcDbSpline
70
4
71
5
72
12
73
6
40
0
40
0
40
0
40
0
40
0
40
0
40
1
40
1
40
1
40
1
40
1
40
1
41
1
10
29.863614442625
20
24.97777092791
30
0
41
1
10
29.8775919346171
20
24.9693488447
30
0
41
1
10
29.8915971724549
20
24.95875805827
30
0
41
1
10
29.9047463180727
20
24.94652621377
30
0
41
1
10
29.9161620688556
20
24.93346941129
30
0
41
1
10
29.9252735021053
20
24.92041328426
30
0
0
SPLINE
5
129
100
AcDbEntity
8
1
62
256
6
ByLayer
370
18
48
1
60
0
100
AcDbSpline
70
4
71
5
72
12
73
6
40
0
40
0
40
0
40
0
40
0
40
0
40
1
40
1
40
1
40
1
40
1
40
1
41
1
10
29.9252735021053
20
24.92041328426
30
0
41
1
10
29.933457122269
20
24.92041328432
30
0
41
1
10
29.9408244104382
20
24.92041328444
30
0
41
1
10
29.9471934869229
20
24.92041328435
30
0
41
1
10
29.9524225705272
20
24.92041328437
30
0
41
1
10
29.9564288059055
20
24.92041328443
30
0
0
SPLINE
5
12A
100
AcDbEntity
8
1
62
256
6
ByLayer
370
18
48
1
60
0
100
AcDbSpline
70
4
71
5
72
12
73
6
40
0
40
0
40
0
40
0
40
0
40
0
40
1
40
1
40
1
40
1
40
1
40
1
41
1
10
29.7884333773424
20
24.8178276268
30
0
41
1
10
29.7980901651175
20
24.81782762618
30
0
41
1
10
29.8075489613071
20
24.81782762758
30
0
41
1
10
29.8166171739572
20
24.81782762618
30
0
41
1
10
29.8251102889527
20
24.81782762708
30
0
41
1
10
29.8328728360008
20
24.81782762689
30
0
0
SPLINE
5
12B
100
AcDbEntity
8
1
62
256
6
ByLayer
370
18
48
1
60
0
100
AcDbSpline
70
4
71
8
72
18
73
9
40
0
40
0
40
0
40
0
40
0
40
0
40
0
40
0
40
0
40
1
40
1
40
1
40
1
40
1
40
1
40
1
40
1
40
1
41
1
10
29.832872833573
20
24.81782762777
30
0
41
1
10
29.827178135992
20
24.82598778272
30
0
41
1
10
29.8206603090396
20
24.8341479373
30
0
41
1
10
29.8134219045242
20
24.84216114147
30
0
41
1
10
29.8055862270643
20
24.84988044356
30
0
41
1
10
29.7972934576719
20
24.85716444815
30
0
41
1
10
29.7886954578478
20
24.86388288168
30
0
41
1
10
29.7799497911442
20
24.86992142068
30
0
41
1
10
29.7712137792746
20
24.87518527141
30
0
0
SPLINE
5
12C
100
AcDbEntity
8
1
62
256
6
ByLayer
370
18
48
1
60
0
100
AcDbSpline
70
4
71
5
72
12
73
6
40
0
40
0
40
0
40
0
40
0
40
0
40
1
40
1
40
1
40
1
40
1
40
1
41
1
10
29.7884333769581
20
24.81782762775
30
0
41
1
10
29.7854314705688
20
24.83010058831
30
0
41
1
10
29.7820997335537
20
24.84237364203
30
0
41
1
10
29.7785380138798
20
24.8542375973
30
0
41
1
10
29.7748687293282
20
24.8652845514
30
0
41
1
10
29.7712137804334
20
24.87518527138
30
0
0
SPLINE
5
12D
100
AcDbEntity
8
1
62
256
6
ByLayer
370
18
48
1
60
0
100
AcDbSpline
70
4
71
5
72
12
73
6
40
0
40
0
40
0
40
0
40
0
40
0
40
1
40
1
40
1
40
1
40
1
40
1
41
1
10
32.812867527334
20
24.5709088156938
30
0
41
1
10
32.8155023854998
20
24.9915864162249
30
0
41
1
10
32.8181315940256
20
25.4122640173466
30
0
41
1
10
32.820757251778
20
25.8329416186876
30
0
41
1
10
32.8233798484961
20
26.2536192202471
30
0
41
1
10
32.8259998555498
20
26.674296822041
30
0
0
SPLINE
5
12E
100
AcDbEntity
8
1
62
256
6
ByLayer
370
18
48
1
60
0
100
AcDbSpline
70
4
71
2
72
6
73
3
40
0
40
0
40
0
40
1
40
1
40
1
41
1
10
32.8251934498377
20
26.6742947579408
30
0
41
1
10
32.7336340975692
20
26.6072684892365
30
0
41
1
10
32.6497013853076
20
26.5226210950061
30
0
0
SPLINE
5
12F
100
AcDbEntity
8
1
62
256
6
ByLayer
370
18
48
1
60
0
100
AcDbSpline
70
4
71
5
72
12
73
6
40
0
40
0
40
0
40
0
40
0
40
0
40
1
40
1
40
1
40
1
40
1
40
1
41
1
10
31.4642271761995
20
25.18947719621
30
0
41
1
10
31.4725250800816
20
25.14685023177
30
0
41
1
10
31.4816946284635
20
25.10434577374
30
0
41
1
10
31.4917502684266
20
25.06198305591
30
0
41
1
10
31.5027096456387
20
25.0197832651
30
0
41
1
10
31.514594241539
20
24.97777092836
30
0
0
SPLINE
5
130
100
AcDbEntity
8
1
62
256
6
ByLayer
370
18
48
1
60
0
100
AcDbSpline
70
4
71
5
72
12
73
6
40
0
40
0
40
0
40
0
40
0
40
0
40
1
40
1
40
1
40
1
40
1
40
1
41
1
10
32.7944315869244
20
24.51359915869
30
0
41
1
10
32.8512602538524
20
24.49929778226
30
0
41
1
10
32.9053544707523
20
24.47138514454
30
0
41
1
10
32.9536600140811
20
24.43412932108
30
0
41
1
10
32.9971871897523
20
24.3911349824
30
0
41
1
10
33.0361113779292
20
24.34367848899
30
0
0
SPLINE
5
131
100
AcDbEntity
8
1
62
256
6
ByLayer
370
18
48
1
60
0
100
AcDbSpline
70
4
71
5
72
12
73
6
40
0
40
0
40
0
40
0
40
0
40
0
40
1
40
1
40
1
40
1
40
1
40
1
41
1
10
33.0361216295689
20
24.34368719384
30
0
41
1
10
33.0497048058846
20
24.3552188692
30
0
41
1
10
33.0640254815503
20
24.36675075487
30
0
41
1
10
33.078167576261
20
24.3775033301
30
0
41
1
10
33.0911152634595
20
24.38670425165
30
0
41
1
10
33.1021294882983
20
24.39387456607
30
0
0
SPLINE
5
132
100
AcDbEntity
8
1
62
256
6
ByLayer
370
18
48
1
60
0
100
AcDbSpline
70
4
71
5
72
12
73
6
40
0
40
0
40
0
40
0
40
0
40
0
40
1
40
1
40
1
40
1
40
1
40
1
41
1
10
33.1021197577913
20
24.39386632335
30
0
41
1
10
33.0554002408036
20
24.443765342052
30
0
41
1
10
33.0031653645043
20
24.4888392270177
30
0
41
1
10
32.9452129274247
20
24.5277263636056
30
0
41
1
10
32.8803280926224
20
24.5565789533698
30
0
41
1
10
32.8121719089804
20
24.5709079833223
30
0
0
SPLINE
5
133
100
AcDbEntity
8
1
62
256
6
ByLayer
370
18
48
1
60
0
100
AcDbSpline
70
4
71
5
72
12
73
6
40
0
40
0
40
0
40
0
40
0
40
0
40
1
40
1
40
1
40
1
40
1
40
1
41
1
10
32.0082710813262
20
26.14316632218
30
0
41
1
10
32.1242216127943
20
26.14298682909
30
0
41
1
10
32.2395940831569
20
26.1738312314
30
0
41
1
10
32.3386997619686
20
26.22904446845
30
0
41
1
10
32.4245019368237
20
26.2953341277
30
0
41
1
10
32.4977059788761
20
26.36926334812
30
0
0
SPLINE
5
134
100
AcDbEntity
8
1
62
256
6
ByLayer
370
18
48
1
60
0
100
AcDbSpline
70
4
71
5
72
19
73
13
40
0
40
0
40
0
40
0
40
0
40
0
40
0.44522345479053
40
0.44522345479053
40
0.44522345479053
40
0.55477654520947
40
0.55477654520947
40
0.55477654520947
40
0.55477654520947
40
1
40
1
40
1
40
1
40
1
40
1
41
1
10
31.1623852190784
20
25.54940429806
30
0
41
1
10
31.1425964172645
20
25.55205877067
30
0
41
1
10
31.1227353012112
20
25.55434150192
30
0
41
1
10
31.1028222557429
20
25.55633537624
30
0
41
1
10
31.0779554037138
20
25.55842888491
30
0
41
1
10
31.053033673082
20
25.56001014375
30
0
41
1
10
31.0481103152309
20
25.56030203956
30
0
41
1
10
31.0431851035713
20
25.56057337586
30
0
41
1
10
31.0231586626083
20
25.56155470334
30
0
41
1
10
31.008053423238
20
25.56216416951
30
0
41
1
10
30.9929245040897
20
25.56253257604
30
0
41
1
10
30.9777989969481
20
25.56268546629
30
0
41
1
10
30.9626690882049
20
25.56271845637
30
0
0
SPLINE
5
135
100
AcDbEntity
8
1
62
256
6
ByLayer
370
18
48
1
60
0
100
AcDbSpline
70
4
71
5
72
12
73
6
40
0
40
0
40
0
40
0
40
0
40
0
40
1
40
1
40
1
40
1
40
1
40
1
41
1
10
30.9626683648636
20
25.56272626063
30
0
41
1
10
30.9626072135359
20
25.55271841521
30
0
41
1
10
30.962559397112
20
25.54164050042
30
0
41
1
10
30.9625268273941
20
25.52980327683
30
0
41
1
10
30.9625105476373
20
25.51758590949
30
0
41
1
10
30.9625105472531
20
25.505368617
30
0
0
SPLINE
5
136
100
AcDbEntity
8
1
62
256
6
ByLayer
370
18
48
1
60
0
100
AcDbSpline
70
4
71
5
72
12
73
6
40
0
40
0
40
0
40
0
40
0
40
0
40
1
40
1
40
1
40
1
40
1
40
1
41
1
10
30.9625112825124
20
25.50535699163
30
0
41
1
10
31.0008205091267
20
25.5053261726168
30
0
41
1
10
31.039129512109
20
25.5040985886775
30
0
41
1
10
31.0773209230473
20
25.5012793601911
30
0
41
1
10
31.1153470363718
20
25.4973460301949
30
0
41
1
10
31.1530892105749
20
25.4920212005385
30
0
0
SPLINE
5
137
100
AcDbEntity
8
1
62
256
6
ByLayer
370
18
48
1
60
0
100
AcDbSpline
70
4
71
5
72
22
73
16
40
0
40
0
40
0
40
0
40
0
40
0
40
0.333333333333333
40
0.333333333333333
40
0.333333333333333
40
0.333333333333333
40
0.333333333333333
40
0.666666666666667
40
0.666666666666667
40
0.666666666666667
40
0.666666666666667
40
0.666666666666667
40
1
40
1
40
1
40
1
40
1
40
1
41
1
10
31.4640429145852
20
25.18958037975
30
0
41
1
10
31.4518166850277
20
25.25644048968
30
0
41
1
10
31.4288385702288
20
25.32206077285
30
0
41
1
10
31.3982082504297
20
25.38626569857
30
0
41
1
10
31.3558533180299
20
25.44500096524
30
0
41
1
10
31.2957311288042
20
25.4915884251499
30
0
41
1
10
31.2804381998142
20
25.50343860435
30
0
41
1
10
31.2639632540874
20
25.51438292131
30
0
41
1
10
31.2463778776321
20
25.52411676176
30
0
41
1
10
31.227843746533
20
25.53237403676
30
0
41
1
10
31.2082247295242
20
25.5388022793877
30
0
41
1
10
31.1993592834072
20
25.54170707521
30
0
41
1
10
31.1903839696085
20
25.54433190399
30
0
41
1
10
31.1811410501932
20
25.54652361099
30
0
41
1
10
31.1718018248743
20
25.54807234072
30
0
41
1
10
31.1623810952572
20
25.54940181511
30
0
0
SPLINE
5
138
100
AcDbEntity
8
1
62
256
6
ByLayer
370
18
48
1
60
0
100
AcDbSpline
70
4
71
5
72
12
73
6
40
0
40
0
40
0
40
0
40
0
40
0
40
1
40
1
40
1
40
1
40
1
40
1
41
1
10
31.1623810952597
20
25.54940181492
30
0
41
1
10
31.1603437657454
20
25.5394253268473
30
0
41
1
10
31.158320286003
20
25.5283576206838
30
0
41
1
10
31.1563758728031
20
25.5165144554111
30
0
41
1
10
31.1545774660634
20
25.5042826684554
30
0
41
1
10
31.1529756832195
20
25.4920503298062
30
0
0
SPLINE
5
139
100
AcDbEntity
8
1
62
256
6
ByLayer
370
18
48
1
60
0
100
AcDbSpline
70
4
71
5
72
12
73
6
40
0
40
0
40
0
40
0
40
0
40
0
40
1
40
1
40
1
40
1
40
1
40
1
41
1
10
31.1530883881692
20
25.4920233837883
30
0
41
1
10
31.2402548421437
20
25.4760543748799
30
0
41
1
10
31.3010026275745
20
25.3854768257608
30
0
41
1
10
31.3304439382202
20
25.3107634085756
30
0
41
1
10
31.357159058463
20
25.2201094695955
30
0
41
1
10
31.3684473514016
20
25.1322227361
30
0
0
SPLINE
5
13A
100
AcDbEntity
8
1
62
256
6
ByLayer
370
18
48
1
60
0
100
AcDbSpline
70
4
71
5
72
12
73
6
40
0
40
0
40
0
40
0
40
0
40
0
40
1
40
1
40
1
40
1
40
1
40
1
41
1
10
31.4640672004935
20
25.1894555849334
30
0
41
1
10
31.4375770398225
20
25.1858645409242
30
0
41
1
10
31.4111479518859
20
25.1771227484244
30
0
41
1
10
31.3888241263983
20
25.1637185476615
30
0
41
1
10
31.3743734050645
20
25.1479137535479
30
0
41
1
10
31.3685789668157
20
25.13211955257
30
0
0
SPLINE
5
13B
100
AcDbEntity
8
1
62
256
6
ByLayer
370
18
48
1
60
0
100
AcDbSpline
70
4
71
5
72
12
73
6
40
0
40
0
40
0
40
0
40
0
40
0
40
1
40
1
40
1
40
1
40
1
40
1
41
1
10
31.5145942415382
20
24.97777092767
30
0
41
1
10
31.4901832964831
20
24.97304245407
30
0
41
1
10
31.4658174598413
20
24.96381669698
30
0
41
1
10
31.44473486129
20
24.95067991478
30
0
41
1
10
31.4300025503916
20
24.93554321724
30
0
41
1
10
31.4225436773439
20
24.92041328443
30
0
0
SPLINE
5
13C
100
AcDbEntity
8
1
62
256
6
ByLayer
370
18
48
1
60
0
100
AcDbSpline
70
4
71
8
72
18
73
9
40
0
40
0
40
0
40
0
40
0
40
0
40
0
40
0
40
0
40
1
40
1
40
1
40
1
40
1
40
1
40
1
40
1
40
1
41
1
10
31.5441374486589
20
24.81782762777
30
0
41
1
10
31.5497548815842
20
24.82598778272
30
0
41
1
10
31.5562140068864
20
24.8341479373
30
0
41
1
10
31.563413664151
20
24.84216114147
30
0
41
1
10
31.5712314721816
20
24.84988044356
30
0
41
1
10
31.5795276527427
20
24.85716444815
30
0
41
1
10
31.5881502033499
20
24.86388288168
30
0
41
1
10
31.5969408888283
20
24.86992142068
30
0
41
1
10
31.6057412290168
20
24.87518527141
30
0
0
SPLINE
5
13D
100
AcDbEntity
8
1
62
256
6
ByLayer
370
18
48
1
60
0
100
AcDbSpline
70
4
71
5
72
12
73
6
40
0
40
0
40
0
40
0
40
0
40
0
40
1
40
1
40
1
40
1
40
1
40
1
41
1
10
31.5145942415733
20
24.97777092791
30
0
41
1
10
31.5005138252234
20
24.9693488447
30
0
41
1
10
31.4864597029982
20
24.95875805827
30
0
41
1
10
31.4733223448917
20
24.94652621377
30
0
41
1
10
31.4619782670342
20
24.93346941129
30
0
41
1
10
31.4529904560839
20
24.92041328426
30
0
0
SPLINE
5
13E
100
AcDbEntity
8
1
62
256
6
ByLayer
370
18
48
1
60
0
100
AcDbSpline
70
4
71
5
72
12
73
6
40
0
40
0
40
0
40
0
40
0
40
0
40
1
40
1
40
1
40
1
40
1
40
1
41
1
10
31.5882325112484
20
24.81782762775
30
0
41
1
10
31.5912251942288
20
24.83010058831
30
0
41
1
10
31.5945820540227
20
24.84237364203
30
0
41
1
10
31.5982035758227
20
24.8542375973
30
0
41
1
10
31.6019652856727
20
24.8652845514
30
0
41
1
10
31.6057412278576
20
24.87518527138
30
0
0
SPLINE
5
13F
100
AcDbEntity
8
1
62
256
6
ByLayer
370
18
48
1
60
0
100
AcDbSpline
70
4
71
5
72
12
73
6
40
0
40
0
40
0
40
0
40
0
40
0
40
1
40
1
40
1
40
1
40
1
40
1
41
1
10
32.7944321558163
20
24.5136014917
30
0
41
1
10
32.7974247428258
20
24.52587398982
30
0
41
1
10
32.8007814742352
20
24.5381464632
30
0
41
1
10
32.804402877324
20
24.55000994804
30
0
41
1
10
32.8081643806242
20
24.56105637966
30
0
41
1
10
32.8119401587477
20
24.57095663571
30
0
0
SPLINE
5
140
100
AcDbEntity
8
1
62
256
6
ByLayer
370
18
48
1
60
0
100
AcDbSpline
70
4
71
8
72
18
73
9
40
0
40
0
40
0
40
0
40
0
40
0
40
0
40
0
40
0
40
1
40
1
40
1
40
1
40
1
40
1
40
1
40
1
40
1
41
1
10
27.3856927388433
20
24.0501889785
30
0
41
1
10
27.3856545190271
20
24.04393408468
30
0
41
1
10
27.3856210625266
20
24.03729698803
30
0
41
1
10
27.3855927089084
20
24.0303332608
30
0
41
1
10
27.3855697384965
20
24.02310322996
30
0
41
1
10
27.3855523660289
20
24.0156709396
30
0
41
1
10
27.3855407361646
20
24.00810296585
30
0
41
1
10
27.3855349212326
20
24.00046715035
30
0
41
1
10
27.3855349212328
20
23.99283133486
30
0
0
SPLINE
5
141
100
AcDbEntity
8
1
62
256
6
ByLayer
370
18
48
1
60
0
100
AcDbSpline
70
4
71
5
72
12
73
6
40
0
40
0
40
0
40
0
40
0
40
0
40
1
40
1
40
1
40
1
40
1
40
1
41
1
10
27.475275104193
20
34.5625
30
0
41
1
10
27.2170535351215
20
34.5624130546
30
0
41
1
10
26.958346735627
20
34.4586489023
30
0
41
1
10
26.7572671663069
20
34.248590443
30
0
41
1
10
26.6648903520026
20
33.9855939055
30
0
41
1
10
26.6760669611471
20
33.7276044901
30
0
0
SPLINE
5
142
100
AcDbEntity
8
1
62
256
6
ByLayer
370
18
48
1
60
0
100
AcDbSpline
70
4
71
11
72
24
73
12
40
0
40
0
40
0
40
0
40
0
40
0
40
0
40
0
40
0
40
0
40
0
40
0
40
1
40
1
40
1
40
1
40
1
40
1
40
1
40
1
40
1
40
1
40
1
40
1
41
1
10
26.9430963490391
20
27.61139310891
30
0
41
1
10
26.9434769855051
20
27.60267476842
30
0
41
1
10
26.9442760563678
20
27.59397469806
30
0
41
1
10
26.9454925873043
20
27.58531521336
30
0
41
1
10
26.9471242652226
20
27.57671857155
30
0
41
1
10
26.9491674422417
20
27.5682068797
30
0
41
1
10
26.9516171470709
20
27.55980200313
30
0
41
1
10
26.9544671035891
20
27.55152547498
30
0
41
1
10
26.9577097568242
20
27.54339840746
30
0
41
1
10
26.961336305691
20
27.53544140554
30
0
41
1
10
26.9653367426508
20
27.5276744837
30
0
41
1
10
26.9696998996389
20
27.52011698635
30
0
0
SPLINE
5
143
100
AcDbEntity
8
1
62
256
6
ByLayer
370
18
48
1
60
0
100
AcDbSpline
70
4
71
11
72
24
73
12
40
0
40
0
40
0
40
0
40
0
40
0
40
0
40
0
40
0
40
0
40
0
40
0
40
1
40
1
40
1
40
1
40
1
40
1
40
1
40
1
40
1
40
1
40
1
40
1
41
1
10
27.3734840626598
20
26.82071566957
30
0
41
1
10
27.3782438703139
20
26.81247112695
30
0
41
1
10
27.3825720110254
20
26.80397735207
30
0
41
1
10
27.386453985766
20
26.79525945903
30
0
41
1
10
27.3898769390255
20
26.78634351111
30
0
41
1
10
27.392829729888
20
26.77725639771
30
0
41
1
10
27.3953029923501
20
26.76802570516
30
0
41
1
10
27.3972891841692
20
26.75867958246
30
0
41
1
10
27.3987826239214
20
26.74924660322
30
0
41
1
10
27.3997795157114
20
26.73975562497
30
0
41
1
10
27.4002779616013
20
26.73023564724
30
0
41
1
10
27.4002779615914
20
26.72071566951
30
0
0
SPLINE
5
144
100
AcDbEntity
8
1
62
256
6
ByLayer
370
18
48
1
60
0
100
AcDbSpline
70
4
71
3
72
9
73
5
40
0
40
0
40
0
40
0
40
0.532506196566938
40
1
40
1
40
1
40
1
41
1
10
28.2843645884791
20
26.6550790769361
30
0
41
1
10
28.2092864551752
20
26.5914431530555
30
0
41
1
10
28.0682962962101
20
26.4719404612731
30
0
41
1
10
27.8856491431345
20
26.4482296860733
30
0
41
1
10
27.800262730857
20
26.4371450455927
30
0
0
SPLINE
5
145
100
AcDbEntity
8
1
62
256
6
ByLayer
370
18
48
1
60
0
100
AcDbSpline
70
4
71
3
72
8
73
4
40
0
40
0
40
0
40
0
40
1
40
1
40
1
40
1
41
1
10
27.7856903849361
20
24.0502178255945
30
0
41
1
10
27.8106914569148
20
24.0519502665298
30
0
41
1
10
27.8356925288935
20
24.0536827074652
30
0
41
1
10
27.8606936008722
20
24.0554151484006
30
0
0
SPLINE
5
146
100
AcDbEntity
8
1
62
256
6
ByLayer
370
18
48
1
60
0
100
AcDbSpline
70
4
71
3
72
9
73
5
40
0
40
0
40
0
40
0
40
0.455364492365395
40
1
40
1
40
1
40
1
41
1
10
27.8764835567255
20
24.0600333696968
30
0
41
1
10
27.9456861449652
20
24.0990772362644
30
0
41
1
10
28.0976580035532
20
24.1848192456265
30
0
41
1
10
28.2095846448651
20
24.3201577393812
30
0
41
1
10
28.2705438679738
20
24.3938678886299
30
0
0
SPLINE
5
147
100
AcDbEntity
8
1
62
256
6
ByLayer
370
18
48
1
60
0
100
AcDbSpline
70
4
71
5
72
12
73
6
40
0
40
0
40
0
40
0
40
0
40
0
40
1
40
1
40
1
40
1
40
1
40
1
41
1
10
27.8680205458122
20
23.9982091738559
30
0
41
1
10
27.8516149329375
20
23.996051236202
30
0
41
1
10
27.835136165331
20
23.9944254699007
30
0
41
1
10
27.8186094325284
20
23.9933461574982
30
0
41
1
10
27.8020639836652
20
23.9928257658732
30
0
41
1
10
27.7855337028398
20
23.9928743252963
30
0
0
SPLINE
5
148
100
AcDbEntity
8
1
62
256
6
ByLayer
370
18
48
1
60
0
100
AcDbSpline
70
4
71
5
72
12
73
6
40
0
40
0
40
0
40
0
40
0
40
0
40
1
40
1
40
1
40
1
40
1
40
1
41
1
10
27.8680188158397
20
23.9982330272908
30
0
41
1
10
27.8664205299118
20
24.0104215087867
30
0
41
1
10
27.8648387731979
20
24.0226096226958
30
0
41
1
10
27.8633239285554
20
24.0344133648688
30
0
41
1
10
27.8619251475799
20
24.0454498836545
30
0
41
1
10
27.860681539357
20
24.0554061514644
30
0
0
SPLINE
5
149
100
AcDbEntity
8
1
62
256
6
ByLayer
370
18
48
1
60
0
100
AcDbSpline
70
4
71
5
72
12
73
6
40
0
40
0
40
0
40
0
40
0
40
0
40
1
40
1
40
1
40
1
40
1
40
1
41
1
10
27.7856900869555
20
24.0502018288363
30
0
41
1
10
27.7856293638799
20
24.0401977540549
30
0
41
1
10
27.785581879415
20
24.0291251879979
30
0
41
1
10
27.7855495696307
20
24.0172945631076
30
0
41
1
10
27.7855335044411
20
24.0050844057222
30
0
41
1
10
27.7855337022739
20
23.992874325298
30
0
0
SPLINE
5
14A
100
AcDbEntity
8
1
62
256
6
ByLayer
370
18
48
1
60
0
100
AcDbSpline
70
4
71
3
72
8
73
4
40
0
40
0
40
0
40
0
40
1
40
1
40
1
40
1
41
1
10
28.5737509570632
20
26.6742917666895
30
0
41
1
10
28.6316294994952
20
26.6237348761264
30
0
41
1
10
28.6895080419273
20
26.5731779855632
30
0
41
1
10
28.7473865843594
20
26.522621095
30
0
0
SPLINE
5
14B
100
AcDbEntity
8
1
62
256
6
ByLayer
370
18
48
1
60
0
100
AcDbSpline
70
4
71
5
72
12
73
6
40
0
40
0
40
0
40
0
40
0
40
0
40
1
40
1
40
1
40
1
40
1
40
1
41
1
10
28.5603690030573
20
24.5709088156964
30
0
41
1
10
28.5628751519994
20
24.9915864162273
30
0
41
1
10
28.5653869505885
20
25.4122640173488
30
0
41
1
10
28.5679022999565
20
25.8329416186895
30
0
41
1
10
28.5704207103632
20
26.2536192202488
30
0
41
1
10
28.5729417104359
20
26.6742968220425
30
0
0
SPLINE
5
14C
100
AcDbEntity
8
1
62
256
6
ByLayer
370
18
48
1
60
0
100
AcDbSpline
70
4
71
3
72
9
73
5
40
0
40
0
40
0
40
0
40
0.536360108577782
40
1
40
1
40
1
40
1
41
1
10
28.5737578452801
20
26.6743042712702
30
0
41
1
10
28.544621590855
20
26.6936415082372
30
0
41
1
10
28.4902994032817
20
26.7296942210654
30
0
41
1
10
28.4246677656046
20
26.7348897373333
30
0
41
1
10
28.3942383202381
20
26.7372985859316
30
0
0
SPLINE
5
14D
100
AcDbEntity
8
1
62
256
6
ByLayer
370
18
48
1
60
0
100
AcDbSpline
70
4
71
5
72
12
73
6
40
0
40
0
40
0
40
0
40
0
40
0
40
1
40
1
40
1
40
1
40
1
40
1
41
1
10
28.3942366385564
20
26.7373287842856
30
0
41
1
10
28.3701371287651
20
26.7240679046649
30
0
41
1
10
28.3470046299607
20
26.7089012244671
30
0
41
1
10
28.3249609313614
20
26.6921209845735
30
0
41
1
10
28.3040767952955
20
26.6740638290925
30
0
41
1
10
28.2843672149398
20
26.65507589514
30
0
0
SPLINE
5
14E
100
AcDbEntity
8
1
62
256
6
ByLayer
370
18
48
1
60
0
100
AcDbSpline
70
4
71
3
72
9
73
5
40
0
40
0
40
0
40
0
40
0.537936677317002
40
1
40
1
40
1
40
1
41
1
10
28.2705568806991
20
24.3938737783527
30
0
41
1
10
28.3158629718415
20
24.4374318496606
30
0
41
1
10
28.4000849501018
20
24.5184043379563
30
0
41
1
10
28.5101894664635
20
24.5543153961585
30
0
41
1
10
28.5610647251361
20
24.5709085790325
30
0
0
SPLINE
5
14F
100
AcDbEntity
8
1
62
256
6
ByLayer
370
18
48
1
60
0
100
AcDbSpline
70
4
71
5
72
15
73
9
40
0
40
0
40
0
40
0
40
0
40
0
40
0.0074613572676751
40
0.0074613572676751
40
0.0074613572676751
40
1
40
1
40
1
40
1
40
1
40
1
41
1
10
28.2055811985875
20
31.0586060347465
30
0
41
1
10
28.2062379162833
20
31.0581209068507
30
0
41
1
10
28.2068941234775
20
31.0576351973064
30
0
41
1
10
28.2075498213247
20
31.0571489078664
30
0
41
1
10
28.2953608806558
20
30.9918970251079
30
0
41
1
10
28.3740659936984
20
30.9162903458
30
0
41
1
10
28.4441132039294
20
30.8359438481
30
0
41
1
10
28.5084300668355
20
30.7506536441
30
0
41
1
10
28.5666045455541
20
30.6633681941
30
0
0
SPLINE
5
150
100
AcDbEntity
8
1
62
256
6
ByLayer
370
18
48
1
60
0
100
AcDbSpline
70
4
71
5
72
12
73
6
40
0
40
0
40
0
40
0
40
0
40
0
40
1
40
1
40
1
40
1
40
1
40
1
41
1
10
28.336081419153
20
24.34368719384
30
0
41
1
10
28.3224563764938
20
24.3552188692
30
0
41
1
10
28.3081633709023
20
24.36675075487
30
0
41
1
10
28.2941215091725
20
24.3775033301
30
0
41
1
10
28.2813394181795
20
24.38670425165
30
0
41
1
10
28.2705413958735
20
24.39387456607
30
0
0
SPLINE
5
151
100
AcDbEntity
8
1
62
256
6
ByLayer
370
18
48
1
60
0
100
AcDbSpline
70
4
71
5
72
12
73
6
40
0
40
0
40
0
40
0
40
0
40
0
40
1
40
1
40
1
40
1
40
1
40
1
41
1
10
27.8764785200564
20
24.06004184198
30
0
41
1
10
27.8816966092175
20
24.05034748179
30
0
41
1
10
27.887130423051
20
24.03939454875
30
0
41
1
10
27.892588390255
20
24.02753823438
30
0
41
1
10
27.897862849422
20
24.01522963975
30
0
41
1
10
27.902773645726
20
24.00292107339
30
0
0
SPLINE
5
152
100
AcDbEntity
8
1
62
256
6
ByLayer
370
18
48
1
60
0
100
AcDbSpline
70
4
71
5
72
12
73
6
40
0
40
0
40
0
40
0
40
0
40
0
40
1
40
1
40
1
40
1
40
1
40
1
41
1
10
27.8764785246693
20
24.0600418334
30
0
41
1
10
27.8734584117397
20
24.05877727087
30
0
41
1
10
27.8704219355772
20
24.05756814699
30
0
41
1
10
27.8672195216412
20
24.05659293678
30
0
41
1
10
27.8639739482275
20
24.05598559577
30
0
41
1
10
27.8607041798415
20
24.05543267505
30
0
0
SPLINE
5
153
100
AcDbEntity
8
1
62
256
6
ByLayer
370
18
48
1
60
0
100
AcDbSpline
70
4
71
5
72
12
73
6
40
0
40
0
40
0
40
0
40
0
40
0
40
1
40
1
40
1
40
1
40
1
40
1
41
1
10
27.902771083732
20
24.0029205480075
30
0
41
1
10
27.895957544696
20
24.0015233464929
30
0
41
1
10
27.8890483452916
20
24.0003454735756
30
0
41
1
10
27.8820713712597
20
23.9993998119326
30
0
41
1
10
27.8750526654226
20
23.9986942166871
30
0
41
1
10
27.868018815815
20
23.99823302729
30
0
0
SPLINE
5
154
100
AcDbEntity
8
1
62
256
6
ByLayer
370
18
48
1
60
0
100
AcDbSpline
70
4
71
8
72
18
73
9
40
0
40
0
40
0
40
0
40
0
40
0
40
0
40
0
40
0
40
1
40
1
40
1
40
1
40
1
40
1
40
1
40
1
40
1
41
1
10
33.9854414310669
20
24.0501889785
30
0
41
1
10
33.9854032112507
20
24.04393408468
30
0
41
1
10
33.9853697547501
20
24.03729698803
30
0
41
1
10
33.985341401132
20
24.0303332608
30
0
41
1
10
33.98531843072
20
24.02310322996
30
0
41
1
10
33.9853010582524
20
24.0156709396
30
0
41
1
10
33.9852894283882
20
24.00810296585
30
0
41
1
10
33.9852836134561
20
24.00046715035
30
0
41
1
10
33.9852836134563
20
23.99283133486
30
0
0
SPLINE
5
155
100
AcDbEntity
8
1
62
256
6
ByLayer
370
18
48
1
60
0
100
AcDbSpline
70
4
71
5
72
12
73
6
40
0
40
0
40
0
40
0
40
0
40
0
40
1
40
1
40
1
40
1
40
1
40
1
41
1
10
33.0060680229643
20
26.7373287842856
30
0
41
1
10
33.0301675213891
20
26.7240679046649
30
0
41
1
10
33.0532999758712
20
26.7089012244671
30
0
41
1
10
33.075343604175
20
26.6921209845735
30
0
41
1
10
33.0962276982376
20
26.6740638290925
30
0
41
1
10
33.1159374005465
20
26.65507589514
30
0
0
SPLINE
5
156
100
AcDbEntity
8
1
62
256
6
ByLayer
370
18
48
1
60
0
100
AcDbSpline
70
4
71
2
72
8
73
5
40
0
40
0
40
0
40
0.5
40
0.5
40
1
40
1
40
1
41
1
10
33.1159429111123
20
26.6550820305357
30
0
41
1
10
33.2213969858023
20
26.5534470863661
30
0
41
1
10
33.3375740121435
20
26.498281544502
30
0
41
1
10
33.4665966157317
20
26.4370164040192
30
0
41
1
10
33.6000418846292
20
26.43714504559
30
0
0
SPLINE
5
157
100
AcDbEntity
8
1
62
256
6
ByLayer
370
18
48
1
60
0
100
AcDbSpline
70
4
71
5
72
12
73
6
40
0
40
0
40
0
40
0
40
0
40
0
40
1
40
1
40
1
40
1
40
1
40
1
41
1
10
33.4946880644993
20
24.0600418334
30
0
41
1
10
33.4976984916164
20
24.05877727087
30
0
41
1
10
33.5007259221501
20
24.05756814699
30
0
41
1
10
33.5039221406647
20
24.05659293678
30
0
41
1
10
33.5071656620766
20
24.05598559577
30
0
41
1
10
33.5104340196094
20
24.05543267505
30
0
0
SPLINE
5
158
100
AcDbEntity
8
1
62
256
6
ByLayer
370
18
48
1
60
0
100
AcDbSpline
70
4
71
5
72
12
73
6
40
0
40
0
40
0
40
0
40
0
40
0
40
1
40
1
40
1
40
1
40
1
40
1
41
1
10
33.585443977549
20
24.05023068322
30
0
41
1
10
33.570413534442
20
24.0501835659138
30
0
41
1
10
33.5553695089608
20
24.0506885962297
30
0
41
1
10
33.5403427189287
20
24.0517360382308
30
0
41
1
10
33.5253597643869
20
24.0533137904746
30
0
41
1
10
33.5104435514268
20
24.0554079888699
30
0
0
SPLINE
5
159
100
AcDbEntity
8
1
62
256
6
ByLayer
370
18
48
1
60
0
100
AcDbSpline
70
4
71
5
72
12
73
6
40
0
40
0
40
0
40
0
40
0
40
0
40
1
40
1
40
1
40
1
40
1
40
1
41
1
10
33.5027979888769
20
23.9982091738559
30
0
41
1
10
33.5192036017515
20
23.996051236202
30
0
41
1
10
33.535682369358
20
23.9944254699007
30
0
41
1
10
33.5522091021607
20
23.9933461574982
30
0
41
1
10
33.5687545510239
20
23.9928257658732
30
0
41
1
10
33.5852848318493
20
23.9928743252963
30
0
0
SPLINE
5
15A
100
AcDbEntity
8
1
62
256
6
ByLayer
370
18
48
1
60
0
100
AcDbSpline
70
4
71
5
72
12
73
6
40
0
40
0
40
0
40
0
40
0
40
0
40
1
40
1
40
1
40
1
40
1
40
1
41
1
10
33.9250295112968
20
34.5625
30
0
41
1
10
34.1832510803642
20
34.5624130546
30
0
41
1
10
34.4419578798551
20
34.4586489023
30
0
41
1
10
34.6430374491842
20
34.248590443
30
0
41
1
10
34.73541426348
20
33.9855939055
30
0
41
1
10
34.724237654339
20
33.7276044901
30
0
0
SPLINE
5
15B
100
AcDbEntity
8
1
62
256
6
ByLayer
370
18
48
1
60
0
100
AcDbSpline
70
4
71
11
72
24
73
12
40
0
40
0
40
0
40
0
40
0
40
0
40
0
40
0
40
0
40
0
40
0
40
0
40
1
40
1
40
1
40
1
40
1
40
1
40
1
40
1
40
1
40
1
40
1
40
1
41
1
10
34.4572082664471
20
27.61139310891
30
0
41
1
10
34.4568276299811
20
27.60267476842
30
0
41
1
10
34.4560285591184
20
27.59397469806
30
0
41
1
10
34.4548120281819
20
27.58531521336
30
0
41
1
10
34.4531803502637
20
27.57671857155
30
0
41
1
10
34.4511371732445
20
27.5682068797
30
0
41
1
10
34.4486874684153
20
27.55980200313
30
0
41
1
10
34.4458375118971
20
27.55152547498
30
0
41
1
10
34.4425948586621
20
27.54339840746
30
0
41
1
10
34.4389683097952
20
27.53544140554
30
0
41
1
10
34.4349678728354
20
27.5276744837
30
0
41
1
10
34.4306047158473
20
27.52011698635
30
0
0
SPLINE
5
15C
100
AcDbEntity
8
1
62
256
6
ByLayer
370
18
48
1
60
0
100
AcDbSpline
70
4
71
11
72
24
73
12
40
0
40
0
40
0
40
0
40
0
40
0
40
0
40
0
40
0
40
0
40
0
40
0
40
1
40
1
40
1
40
1
40
1
40
1
40
1
40
1
40
1
40
1
40
1
40
1
41
1
10
34.0268205528265
20
26.82071566957
30
0
41
1
10
34.0220607451723
20
26.81247112695
30
0
41
1
10
34.0177326044609
20
26.80397735207
30
0
41
1
10
34.0138506297202
20
26.79525945903
30
0
41
1
10
34.0104276764607
20
26.78634351111
30
0
41
1
10
34.0074748855982
20
26.77725639771
30
0
41
1
10
34.0050016231361
20
26.76802570516
30
0
41
1
10
34.0030154313171
20
26.75867958246
30
0
41
1
10
34.0015219915649
20
26.74924660322
30
0
41
1
10
34.0005250997748
20
26.73975562497
30
0
41
1
10
34.0000266538849
20
26.73023564724
30
0
41
1
10
34.0000266538949
20
26.72071566951
30
0
0
SPLINE
5
15D
100
AcDbEntity
8
1
62
256
6
ByLayer
370
18
48
1
60
0
100
AcDbSpline
70
4
71
3
72
9
73
5
40
0
40
0
40
0
40
0
40
0.535321006567771
40
1
40
1
40
1
40
1
41
1
10
32.8251837503277
20
26.6743040765449
30
0
41
1
10
32.8544931272143
20
26.6936354326976
30
0
41
1
10
32.9092441579547
20
26.7297471412155
30
0
41
1
10
32.9753443007193
20
26.7349013667729
30
0
41
1
10
33.0060596485249
20
26.7372964271169
30
0
0
SPLINE
5
15E
100
AcDbEntity
8
1
62
256
6
ByLayer
370
18
48
1
60
0
100
AcDbSpline
70
4
71
5
72
15
73
9
40
0
40
0
40
0
40
0
40
0
40
0
40
0.0074613573021805
40
0.0074613573021805
40
0.0074613573021805
40
1
40
1
40
1
40
1
40
1
40
1
41
1
10
33.1947233939806
20
31.0586060347577
30
0
41
1
10
33.1940627279119
20
31.0581209068597
30
0
41
1
10
33.1934025676208
20
31.0576351973132
30
0
41
1
10
33.1927429119672
20
31.0571489078709
30
0
41
1
10
33.1044007832643
20
30.9918970251105
30
0
41
1
10
33.0250805220932
20
30.9162903458
30
0
41
1
10
32.954379173622
20
30.8359438481
30
0
41
1
10
32.8893682755205
20
30.7506536441
30
0
41
1
10
32.8304834241095
20
30.6633681941
30
0
0
SPLINE
5
15F
100
AcDbEntity
8
1
62
256
6
ByLayer
370
18
48
1
60
0
100
AcDbSpline
70
4
71
5
72
15
73
9
40
0
40
0
40
0
40
0
40
0
40
0
40
0.437068328965547
40
0.437068328965547
40
0.437068328965547
40
1
40
1
40
1
40
1
40
1
40
1
41
1
10
32.1807432219755
20
30.0935782149
30
0
41
1
10
32.2377410453897
20
30.0936473805
30
0
41
1
10
32.2924186817634
20
30.1041724572
30
0
41
1
10
32.3457387853972
20
30.1246295952
30
0
41
1
10
32.4566462337281
20
30.1852463326
30
0
41
1
10
32.5490055462384
20
30.2703759745
30
0
41
1
10
32.5947552044925
20
30.3216602355
30
0
41
1
10
32.6374897282872
20
30.3771792816
30
0
41
1
10
32.6751295518329
20
30.433086004
30
0
0
SPLINE
5
160
100
AcDbEntity
8
1
62
256
6
ByLayer
370
18
48
1
60
0
100
AcDbSpline
70
4
71
5
72
12
73
6
40
0
40
0
40
0
40
0
40
0
40
0
40
1
40
1
40
1
40
1
40
1
40
1
41
1
10
33.0361219355493
20
24.3436868211121
30
0
41
1
10
33.1064378112895
20
24.2580317993417
30
0
41
1
10
33.1839614539324
20
24.1781791467942
30
0
41
1
10
33.2695766121812
20
24.1061183128687
30
0
41
1
10
33.3649073224499
20
24.0454014338881
30
0
41
1
10
33.468099407585
20
24.002912378842
30
0
0
SPLINE
5
161
100
AcDbEntity
8
1
62
256
6
ByLayer
370
18
48
1
60
0
100
AcDbSpline
70
4
71
5
72
12
73
6
40
0
40
0
40
0
40
0
40
0
40
0
40
1
40
1
40
1
40
1
40
1
40
1
41
1
10
33.4946825680407
20
24.0600309728911
30
0
41
1
10
33.4008930354007
20
24.1020278821963
30
0
41
1
10
33.3142565771641
20
24.1616475440502
30
0
41
1
10
33.2364560593282
20
24.2321982989645
30
0
41
1
10
33.1660139054109
20
24.310246623697
30
0
41
1
10
33.1021260265514
20
24.3938692912784
30
0
0
SPLINE
5
162
100
AcDbEntity
8
1
62
256
6
ByLayer
370
18
48
1
60
0
100
AcDbSpline
70
4
71
5
72
12
73
6
40
0
40
0
40
0
40
0
40
0
40
0
40
1
40
1
40
1
40
1
40
1
40
1
41
1
10
33.4681004733633
20
24.0029205480075
30
0
41
1
10
33.4748930771226
20
24.0015233464929
30
0
41
1
10
33.4817863253374
20
24.0003454735756
30
0
41
1
10
33.4887525611952
20
23.9993998119326
30
0
41
1
10
33.4957658690933
20
23.9986942166871
30
0
41
1
10
33.5027997188743
20
23.99823302729
30
0
0
SPLINE
5
163
100
AcDbEntity
8
1
62
256
6
ByLayer
370
18
48
1
60
0
100
AcDbSpline
70
4
71
5
72
12
73
6
40
0
40
0
40
0
40
0
40
0
40
0
40
1
40
1
40
1
40
1
40
1
40
1
41
1
10
33.5027997188743
20
23.99823302729
30
0
41
1
10
33.5043980536805
20
24.0104222892848
30
0
41
1
10
33.5060128831016
20
24.0226116312688
30
0
41
1
10
33.5075938495112
20
24.0344169401093
30
0
41
1
10
33.5090896635489
20
24.0454552308225
30
0
41
1
10
33.5104573031399
20
24.0554133358171
30
0
0
SPLINE
5
164
100
AcDbEntity
8
1
62
256
6
ByLayer
370
18
48
1
60
0
100
AcDbSpline
70
4
71
5
72
12
73
6
40
0
40
0
40
0
40
0
40
0
40
0
40
1
40
1
40
1
40
1
40
1
40
1
41
1
10
33.4946880692261
20
24.06004184198
30
0
41
1
10
33.4893412467019
20
24.05034748179
30
0
41
1
10
33.4838100693046
20
24.03939454875
30
0
41
1
10
33.4782908651615
20
24.02753823438
30
0
41
1
10
33.4729936255818
20
24.01522963975
30
0
41
1
10
33.4680979192415
20
24.00292107339
30
0
0
SPLINE
5
165
100
AcDbEntity
8
1
62
256
6
ByLayer
370
18
48
1
60
0
100
AcDbSpline
70
4
71
3
72
8
73
4
40
0
40
0
40
0
40
0
40
1
40
1
40
1
40
1
41
1
10
33.5854439604549
20
24.0501889784984
30
0
41
1
10
33.5853416756992
20
24.0335210001082
30
0
41
1
10
33.5852853453116
20
24.0132221678717
30
0
41
1
10
33.5852848320003
20
23.9928743252867
30
0
0
INSERT
5
177
100
AcDbEntity
8
2
62
256
6
ByLayer
370
25
48
1
60
0
100
AcDbBlockReference
2
DimnDraft3D11
10
0
20
0
30
0
41
1
42
1
43
1
50
0
210
0
220
0
230
1
0
LINE
5
73
100
AcDbEntity
8
80
62
256
6
ByLayer
370
18
48
1
60
0
100
AcDbLine
10
0
20
0
30
0
11
-5
21
0
31
0
39
0
210
0
220
0
230
1
0
LINE
5
74
100
AcDbEntity
8
81
62
256
6
ByLayer
370
18
48
1
60
0
100
AcDbLine
10
34.7
20
34.5625
30
0
11
39.7
21
34.5625
31
0
39
0
210
0
220
0
230
1
0
LINE
5
75
100
AcDbEntity
8
1
62
256
6
ByLayer
370
18
48
1
60
0
100
AcDbLine
10
45.321061
20
2.508561
30
0
11
45.321061
21
25.11459
31
0
39
0
210
0
220
0
230
1
0
LINE
5
77
100
AcDbEntity
8
1
62
256
6
ByLayer
370
18
48
1
60
0
100
AcDbLine
10
2.462728
20
13.0625
30
0
11
0.533494
21
13.0625
31
0
39
0
210
0
220
0
230
1
0
LINE
5
78
100
AcDbEntity
8
1
62
256
6
ByLayer
370
18
48
1
60
0
100
AcDbLine
10
0.5
20
12.9375
30
0
11
0
21
12.4375
31
0
39
0
210
0
220
0
230
1
0
LINE
5
79
100
AcDbEntity
8
1
62
256
6
ByLayer
370
18
48
1
60
0
100
AcDbLine
10
34.785196
20
14.506694
30
0
11
28.45212
21
14.506694
31
0
39
0
210
0
220
0
230
1
0
LINE
5
7A
100
AcDbEntity
8
1
62
256
6
ByLayer
370
18
48
1
60
0
100
AcDbLine
10
34.05576
20
23.16669
30
0
11
34.554211
21
23.170286
31
0
39
0
210
0
220
0
230
1
0
LINE
5
7B
100
AcDbEntity
8
1
62
256
6
ByLayer
370
18
48
1
60
0
100
AcDbLine
10
35.661297
20
33.3625
30
0
11
34.708303
21
33.3625
31
0
39
0
210
0
220
0
230
1
0
LINE
5
7C
100
AcDbEntity
8
1
62
256
6
ByLayer
370
18
48
1
60
0
100
AcDbLine
10
2.462728
20
-12.471643
30
0
11
30.340857
21
-12.471643
31
0
39
0
210
0
220
0
230
1
0
LINE
5
7D
100
AcDbEntity
8
1
62
256
6
ByLayer
370
18
48
1
60
0
100
AcDbLine
10
34.785263
20
-8.027237
30
0
11
45.321061
21
2.508561
31
0
39
0
210
0
220
0
230
1
0
LINE
5
7E
100
AcDbEntity
8
1
62
256
6
ByLayer
370
18
48
1
60
0
100
AcDbLine
10
34.533763
20
25.529868
30
0
11
34.533763
21
29.364921
31
0
39
0
210
0
220
0
230
1
0
LINE
5
7F
100
AcDbEntity
8
1
62
256
6
ByLayer
370
18
48
1
60
0
100
AcDbLine
10
0
20
-12.4375
30
0
11
0
21
12.4375
31
0
39
0
210
0
220
0
230
1
0
LINE
5
80
100
AcDbEntity
8
1
62
256
6
ByLayer
370
18
48
1
60
0
100
AcDbLine
10
27.939542
20
22.845912
30
0
11
27.580913
21
22.795649
31
0
39
0
210
0
220
0
230
1
0
LINE
5
81
100
AcDbEntity
8
1
62
256
6
ByLayer
370
18
48
1
60
0
100
AcDbLine
10
0.5
20
-12.439682
30
0
11
0
21
-12.4375
31
0
39
0
210
0
220
0
230
1
0
LINE
5
82
100
AcDbEntity
8
1
62
256
6
ByLayer
370
18
48
1
60
0
100
AcDbLine
10
34.785196
20
14.506694
30
0
11
34.785196
21
-8.027304
31
0
39
0
210
0
220
0
230
1
0
LINE
5
83
100
AcDbEntity
8
1
62
256
6
ByLayer
370
18
48
1
60
0
100
AcDbLine
10
0.5
20
12.9375
30
0
11
0.5
21
-12.439682
31
0
39
0
210
0
220
0
230
1
0
LINE
5
84
100
AcDbEntity
8
1
62
256
6
ByLayer
370
18
48
1
60
0
100
AcDbLine
10
2.462728
20
13.0625
30
0
11
2.462728
21
-12.471643
31
0
39
0
210
0
220
0
230
1
0
LINE
5
85
100
AcDbEntity
8
1
62
256
6
ByLayer
370
18
48
1
60
0
100
AcDbLine
10
34.5549
20
23.0125
30
0
11
34.05578
21
23.0125
31
0
39
0
210
0
220
0
230
1
0
LINE
5
86
100
AcDbEntity
8
1
62
256
6
ByLayer
370
18
48
1
60
0
100
AcDbLine
10
30.340857
20
-12.471643
30
0
11
34.785196
21
-8.027304
31
0
39
0
210
0
220
0
230
1
0
LINE
5
87
100
AcDbEntity
8
1
62
256
6
ByLayer
370
18
48
1
60
0
100
AcDbLine
10
0.5
20
-12.439682
30
0
11
2.462728
21
-12.471643
31
0
39
0
210
0
220
0
230
1
0
LINE
5
88
100
AcDbEntity
8
1
62
256
6
ByLayer
370
18
48
1
60
0
100
AcDbLine
10
28.433264
20
14.6625
30
0
11
27.579545
21
14.6625
31
0
39
0
210
0
220
0
230
1
0
LINE
5
89
100
AcDbEntity
8
1
62
256
6
ByLayer
370
18
48
1
60
0
100
AcDbLine
10
34.554211
20
17.054714
30
0
11
34.409031
21
17.055761
31
0
39
0
210
0
220
0
230
1
0
LINE
5
8A
100
AcDbEntity
8
1
62
256
6
ByLayer
370
18
48
1
60
0
100
AcDbLine
10
0.533494
20
13.0625
30
0
11
0.5
21
12.9375
31
0
39
0
210
0
220
0
230
1
0
LINE
5
8B
100
AcDbEntity
8
1
62
256
6
ByLayer
370
18
48
1
60
0
100
AcDbLine
10
26.814431
20
13.0625
30
0
11
2.462728
21
13.0625
31
0
39
0
210
0
220
0
230
1
0
LINE
5
8C
100
AcDbEntity
8
1
62
256
6
ByLayer
370
18
48
1
60
0
100
AcDbLine
10
34.055757
20
25.528144
30
0
11
34.533763
21
25.529868
31
0
39
0
210
0
220
0
230
1
0
LINE
5
8D
100
AcDbEntity
8
1
62
256
6
ByLayer
370
18
48
1
60
0
100
AcDbLine
10
34.389255
20
17.2125
30
0
11
34.5549
21
17.2125
31
0
39
0
210
0
220
0
230
1
0
LINE
5
8E
100
AcDbEntity
8
1
62
256
6
ByLayer
370
18
48
1
60
0
100
AcDbLine
10
34.5549
20
17.2125
30
0
11
34.5549
21
23.0125
31
0
39
0
210
0
220
0
230
1
0
LINE
5
8F
100
AcDbEntity
8
SK1
62
256
6
ByLayer
370
18
48
1
60
0
100
AcDbLine
10
-116.65
20
12.4375
30
0
11
-116.65
21
-12.4375
31
0
39
0
210
0
220
0
230
1
0
LINE
5
91
100
AcDbEntity
8
SK1
62
256
6
ByLayer
370
18
48
1
60
0
100
AcDbLine
10
-116.65
20
-12.4375
30
0
11
0
21
-12.4375
31
0
39
0
210
0
220
0
230
1
0
LINE
5
92
100
AcDbEntity
8
SK1
62
256
6
ByLayer
370
18
48
1
60
0
100
AcDbLine
10
0
20
12.4375
30
0
11
0
21
-12.4375
31
0
39
0
210
0
220
0
230
1
0
LINE
5
93
100
AcDbEntity
8
SK1
62
256
6
ByLayer
370
18
48
1
60
0
100
AcDbLine
10
0
20
12.4375
30
0
11
-116.65
21
12.4375
31
0
39
0
210
0
220
0
230
1
0
LINE
5
94
100
AcDbEntity
8
1
62
256
6
ByLayer
370
18
48
1
60
0
100
AcDbLine
10
33.985284
20
23.992831
30
0
11
33.985284
21
21.652093
31
0
39
0
210
0
220
0
230
1
0
LINE
5
95
100
AcDbEntity
8
1
62
256
6
ByLayer
370
18
48
1
60
0
100
AcDbLine
10
33.5028
20
23.998222
30
0
11
33.5028
21
22.809033
31
0
39
0
210
0
220
0
230
1
0
LINE
5
96
100
AcDbEntity
8
1
62
256
6
ByLayer
370
18
48
1
60
0
100
AcDbLine
10
33.468098
20
24.00291
30
0
11
33.468098
21
22.814267
31
0
39
0
210
0
220
0
230
1
0
LINE
5
97
100
AcDbEntity
8
1
62
256
6
ByLayer
370
18
48
1
60
0
100
AcDbLine
10
34.055784
20
20.575016
30
0
11
34.055784
21
26.870594
31
0
39
0
210
0
220
0
230
1
0
LINE
5
98
100
AcDbEntity
8
1
62
256
6
ByLayer
370
18
48
1
60
0
100
AcDbLine
10
31.588233
20
24.817828
30
0
11
31.588233
21
23.096215
31
0
39
0
210
0
220
0
230
1
0
LINE
5
99
100
AcDbEntity
8
1
62
256
6
ByLayer
370
18
48
1
60
0
100
AcDbLine
10
27.868019
20
23.998222
30
0
11
27.868019
21
22.835786
31
0
39
0
210
0
220
0
230
1
0
LINE
5
9A
100
AcDbEntity
8
1
62
256
6
ByLayer
370
18
48
1
60
0
100
AcDbLine
10
27.385535
20
15.132169
30
0
11
27.579234
21
15.132169
31
0
39
0
210
0
220
0
230
1
0
LINE
5
9B
100
AcDbEntity
8
1
62
256
6
ByLayer
370
18
48
1
60
0
100
AcDbLine
10
27.902774
20
24.00291
30
0
11
27.902774
21
22.840632
31
0
39
0
210
0
220
0
230
1
0
LINE
5
9C
100
AcDbEntity
8
1
62
256
6
ByLayer
370
18
48
1
60
0
100
AcDbLine
10
27.385693
20
15.074811
30
0
11
27.579277
21
15.074811
31
0
39
0
210
0
220
0
230
1
0
LINE
5
9D
100
AcDbEntity
8
1
62
256
6
ByLayer
370
18
48
1
60
0
100
AcDbLine
10
29.788433
20
24.817828
30
0
11
29.788433
21
23.104919
31
0
39
0
210
0
220
0
230
1
0
LINE
5
9E
100
AcDbEntity
8
1
62
256
6
ByLayer
370
18
48
1
60
0
100
AcDbLine
10
27.385693
20
15.074811
30
0
11
27.392539
21
13.954396
31
0
39
0
210
0
220
0
230
1
0
LINE
5
9F
100
AcDbEntity
8
1
62
256
6
ByLayer
370
18
48
1
60
0
100
AcDbLine
10
31.544137
20
24.817828
30
0
11
31.544137
21
23.102784
31
0
39
0
210
0
220
0
230
1
0
LINE
5
A0
100
AcDbEntity
8
1
62
256
6
ByLayer
370
18
48
1
60
0
100
AcDbLine
10
29.832873
20
24.817828
30
0
11
29.832873
21
23.11116
31
0
39
0
210
0
220
0
230
1
0
LINE
5
A1
100
AcDbEntity
8
1
62
256
6
ByLayer
370
18
48
1
60
0
100
AcDbLine
10
31.45299
20
23.13087
30
0
11
31.45299
21
24.920413
31
0
39
0
210
0
220
0
230
1
0
LINE
5
A2
100
AcDbEntity
8
1
62
256
6
ByLayer
370
18
48
1
60
0
100
AcDbLine
10
29.925273
20
23.141084
30
0
11
29.925273
21
24.920413
31
0
39
0
210
0
220
0
230
1
0
LINE
5
A3
100
AcDbEntity
8
1
62
256
6
ByLayer
370
18
48
1
60
0
100
AcDbLine
10
31.422544
20
23.155818
30
0
11
31.422544
21
24.920413
31
0
39
0
210
0
220
0
230
1
0
LINE
5
A4
100
AcDbEntity
8
1
62
256
6
ByLayer
370
18
48
1
60
0
100
AcDbLine
10
29.956429
20
23.168878
30
0
11
29.956429
21
24.920413
31
0
39
0
210
0
220
0
230
1
0
LINE
5
A5
100
AcDbEntity
8
1
62
256
6
ByLayer
370
18
48
1
60
0
100
AcDbLine
10
31.368579
20
23.258577
30
0
11
31.368579
21
25.132158
31
0
39
0
210
0
220
0
230
1
0
LINE
5
A6
100
AcDbEntity
8
1
62
256
6
ByLayer
370
18
48
1
60
0
100
AcDbLine
10
30.013166
20
23.285294
30
0
11
30.013166
21
25.132158
31
0
39
0
210
0
220
0
230
1
0
LINE
5
A7
100
AcDbEntity
8
1
62
256
6
ByLayer
370
18
48
1
60
0
100
AcDbLine
10
31.153161
20
23.377415
30
0
11
31.153161
21
25.492035
31
0
39
0
210
0
220
0
230
1
0
LINE
5
A8
100
AcDbEntity
8
1
62
256
6
ByLayer
370
18
48
1
60
0
100
AcDbLine
10
30.231725
20
23.381399
30
0
11
30.231725
21
25.492035
31
0
39
0
210
0
220
0
230
1
0
LINE
5
A9
100
AcDbEntity
8
1
62
256
6
ByLayer
370
18
48
1
60
0
100
AcDbLine
10
30.962511
20
23.378283
30
0
11
30.962511
21
25.505364
31
0
39
0
210
0
220
0
230
1
0
LINE
5
AA
100
AcDbEntity
8
1
62
256
6
ByLayer
370
18
48
1
60
0
100
AcDbLine
10
30.422531
20
23.380512
30
0
11
30.422531
21
25.505364
31
0
39
0
210
0
220
0
230
1
0
LINE
5
AB
100
AcDbEntity
8
1
62
256
6
ByLayer
370
18
48
1
60
0
100
AcDbLine
10
29.925273
20
24.920413
30
0
11
29.832873
21
24.817828
31
0
39
0
210
0
220
0
230
1
0
LINE
5
AC
100
AcDbEntity
8
1
62
256
6
ByLayer
370
18
48
1
60
0
100
AcDbLine
10
32.794432
20
24.513602
30
0
11
31.588233
21
24.817828
31
0
39
0
210
0
220
0
230
1
0
LINE
5
AD
100
AcDbEntity
8
1
62
256
6
ByLayer
370
18
48
1
60
0
100
AcDbLine
10
28.720084
20
30.433086
30
0
11
28.566602
21
30.663371
31
0
39
0
210
0
220
0
230
1
0
LINE
5
AE
100
AcDbEntity
8
1
62
256
6
ByLayer
370
18
48
1
60
0
100
AcDbLine
10
28.566604
20
30.663371
30
0
11
28.747386
21
26.522623
31
0
39
0
210
0
220
0
230
1
0
LINE
5
AF
100
AcDbEntity
8
1
62
256
6
ByLayer
370
18
48
1
60
0
100
AcDbLine
10
28.561067
20
24.570902
30
0
11
29.771214
21
24.875185
31
0
39
0
210
0
220
0
230
1
0
LINE
5
B0
100
AcDbEntity
8
1
62
256
6
ByLayer
370
18
48
1
60
0
100
AcDbLine
10
30.696225
20
26.143167
30
0
11
29.38418
21
26.143166
31
0
39
0
210
0
220
0
230
1
0
LINE
5
B1
100
AcDbEntity
8
1
62
256
6
ByLayer
370
18
48
1
60
0
100
AcDbLine
10
28.897508
20
26.369263
30
0
11
28.747385
21
26.522623
31
0
39
0
210
0
220
0
230
1
0
LINE
5
B2
100
AcDbEntity
8
1
62
256
6
ByLayer
370
18
48
1
60
0
100
AcDbLine
10
29.211708
20
30.093578
30
0
11
29.38418
21
26.143166
31
0
39
0
210
0
220
0
230
1
0
LINE
5
B3
100
AcDbEntity
8
1
62
256
6
ByLayer
370
18
48
1
60
0
100
AcDbLine
10
28.720084
20
30.433086
30
0
11
28.897508
21
26.369264
31
0
39
0
210
0
220
0
230
1
0
LINE
5
B4
100
AcDbEntity
8
1
62
256
6
ByLayer
370
18
48
1
60
0
100
AcDbLine
10
29.863614
20
24.977771
30
0
11
29.771214
21
24.875185
31
0
39
0
210
0
220
0
230
1
0
LINE
5
B5
100
AcDbEntity
8
1
62
256
6
ByLayer
370
18
48
1
60
0
100
AcDbLine
10
28.578516
20
24.513602
30
0
11
29.788433
21
24.817828
31
0
39
0
210
0
220
0
230
1
0
LINE
5
B6
100
AcDbEntity
8
1
62
256
6
ByLayer
370
18
48
1
60
0
100
AcDbLine
10
32.67513
20
30.433086
30
0
11
32.497706
21
26.369263
31
0
39
0
210
0
220
0
230
1
0
LINE
5
B7
100
AcDbEntity
8
1
62
256
6
ByLayer
370
18
48
1
60
0
100
AcDbLine
10
32.497706
20
26.369263
30
0
11
32.649703
21
26.522623
31
0
39
0
210
0
220
0
230
1
0
LINE
5
B8
100
AcDbEntity
8
1
62
256
6
ByLayer
370
18
48
1
60
0
100
AcDbLine
10
30.422688
20
25.562726
30
0
11
30.962669
21
25.562726
31
0
39
0
210
0
220
0
230
1
0
LINE
5
B9
100
AcDbEntity
8
1
62
256
6
ByLayer
370
18
48
1
60
0
100
AcDbLine
10
31.514594
20
24.977771
30
0
11
31.605741
21
24.875185
31
0
39
0
210
0
220
0
230
1
0
LINE
5
BA
100
AcDbEntity
8
1
62
256
6
ByLayer
370
18
48
1
60
0
100
AcDbLine
10
30.422531
20
25.505369
30
0
11
30.962511
21
25.505369
31
0
39
0
210
0
220
0
230
1
0
LINE
5
BB
100
AcDbEntity
8
1
62
256
6
ByLayer
370
18
48
1
60
0
100
AcDbLine
10
32.180743
20
30.093578
30
0
11
30.696225
21
30.093578
31
0
39
0
210
0
220
0
230
1
0
LINE
5
BC
100
AcDbEntity
8
1
62
256
6
ByLayer
370
18
48
1
60
0
100
AcDbLine
10
30.696225
20
26.143167
30
0
11
32.008271
21
26.143166
31
0
39
0
210
0
220
0
230
1
0
LINE
5
BD
100
AcDbEntity
8
1
62
256
6
ByLayer
370
18
48
1
60
0
100
AcDbLine
10
32.180743
20
30.093578
30
0
11
32.008271
21
26.143166
31
0
39
0
210
0
220
0
230
1
0
LINE
5
BE
100
AcDbEntity
8
1
62
256
6
ByLayer
370
18
48
1
60
0
100
AcDbLine
10
31.45299
20
24.920413
30
0
11
31.544137
21
24.817828
31
0
39
0
210
0
220
0
230
1
0
LINE
5
BF
100
AcDbEntity
8
1
62
256
6
ByLayer
370
18
48
1
60
0
100
AcDbLine
10
32.812169
20
24.570902
30
0
11
31.605741
21
24.875185
31
0
39
0
210
0
220
0
230
1
0
LINE
5
C0
100
AcDbEntity
8
1
62
256
6
ByLayer
370
18
48
1
60
0
100
AcDbLine
10
27.785678
20
24.050203
30
0
11
27.800263
21
26.437145
31
0
39
0
210
0
220
0
230
1
0
LINE
5
C1
100
AcDbEntity
8
1
62
256
6
ByLayer
370
18
48
1
60
0
100
AcDbLine
10
27.800263
20
26.437145
30
0
11
27.400278
21
26.437145
31
0
39
0
210
0
220
0
230
1
0
LINE
5
C2
100
AcDbEntity
8
1
62
256
6
ByLayer
370
18
48
1
60
0
100
AcDbLine
10
27.385693
20
24.050189
30
0
11
27.785685
21
24.050189
31
0
39
0
210
0
220
0
230
1
0
LINE
5
C3
100
AcDbEntity
8
1
62
256
6
ByLayer
370
18
48
1
60
0
100
AcDbLine
10
27.385535
20
23.992831
30
0
11
27.785534
21
23.992831
31
0
39
0
210
0
220
0
230
1
0
LINE
5
C4
100
AcDbEntity
8
1
62
256
6
ByLayer
370
18
48
1
60
0
100
AcDbLine
10
27.385693
20
24.050189
30
0
11
27.400278
21
26.437145
31
0
39
0
210
0
220
0
230
1
0
LINE
5
C5
100
AcDbEntity
8
1
62
256
6
ByLayer
370
18
48
1
60
0
100
AcDbLine
10
27.400278
20
26.437145
30
0
11
27.400278
21
26.720716
31
0
39
0
210
0
220
0
230
1
0
LINE
5
C6
100
AcDbEntity
8
1
62
256
6
ByLayer
370
18
48
1
60
0
100
AcDbLine
10
28.205583
20
31.058606
30
0
11
30.700152
21
31.058606
31
0
39
0
210
0
220
0
230
1
0
LINE
5
C7
100
AcDbEntity
8
1
62
256
6
ByLayer
370
18
48
1
60
0
100
AcDbLine
10
26.676067
20
33.727604
30
0
11
26.943096
21
27.611393
31
0
39
0
210
0
220
0
230
1
0
LINE
5
C8
100
AcDbEntity
8
1
62
256
6
ByLayer
370
18
48
1
60
0
100
AcDbLine
10
26.9697
20
27.520117
30
0
11
27.373484
21
26.820716
31
0
39
0
210
0
220
0
230
1
0
LINE
5
C9
100
AcDbEntity
8
1
62
256
6
ByLayer
370
18
48
1
60
0
100
AcDbLine
10
27.385535
20
23.992831
30
0
11
27.385535
21
15.132169
31
0
39
0
210
0
220
0
230
1
0
LINE
5
CA
100
AcDbEntity
8
1
62
256
6
ByLayer
370
18
48
1
60
0
100
AcDbLine
10
28.205582
20
31.058608
30
0
11
28.394247
21
26.737316
31
0
39
0
210
0
220
0
230
1
0
LINE
5
CB
100
AcDbEntity
8
1
62
256
6
ByLayer
370
18
48
1
60
0
100
AcDbLine
10
28.284367
20
26.655076
30
0
11
28.27055
21
24.393869
31
0
39
0
210
0
220
0
230
1
0
LINE
5
CC
100
AcDbEntity
8
1
62
256
6
ByLayer
370
18
48
1
60
0
100
AcDbLine
10
29.211708
20
30.093578
30
0
11
30.696225
21
30.093578
31
0
39
0
210
0
220
0
230
1
0
LINE
5
CD
100
AcDbEntity
8
1
62
256
6
ByLayer
370
18
48
1
60
0
100
AcDbLine
10
33.194722
20
31.058608
30
0
11
33.006058
21
26.737316
31
0
39
0
210
0
220
0
230
1
0
LINE
5
CE
100
AcDbEntity
8
1
62
256
6
ByLayer
370
18
48
1
60
0
100
AcDbLine
10
33.600042
20
26.437145
30
0
11
34.000027
21
26.437145
31
0
39
0
210
0
220
0
230
1
0
LINE
5
CF
100
AcDbEntity
8
1
62
256
6
ByLayer
370
18
48
1
60
0
100
AcDbLine
10
34.000027
20
26.437145
30
0
11
34.000027
21
26.720716
31
0
39
0
210
0
220
0
230
1
0
LINE
5
D0
100
AcDbEntity
8
1
62
256
6
ByLayer
370
18
48
1
60
0
100
AcDbLine
10
33.115937
20
26.655076
30
0
11
33.102121
21
24.393869
31
0
39
0
210
0
220
0
230
1
0
LINE
5
D1
100
AcDbEntity
8
1
62
256
6
ByLayer
370
18
48
1
60
0
100
AcDbLine
10
33.585457
20
24.050203
30
0
11
33.600042
21
26.437145
31
0
39
0
210
0
220
0
230
1
0
LINE
5
D2
100
AcDbEntity
8
1
62
256
6
ByLayer
370
18
48
1
60
0
100
AcDbLine
10
33.985284
20
23.992831
30
0
11
33.585285
21
23.992831
31
0
39
0
210
0
220
0
230
1
0
LINE
5
D3
100
AcDbEntity
8
1
62
256
6
ByLayer
370
18
48
1
60
0
100
AcDbLine
10
34.724238
20
33.727604
30
0
11
34.457208
21
27.611393
31
0
39
0
210
0
220
0
230
1
0
LINE
5
D4
100
AcDbEntity
8
1
62
256
6
ByLayer
370
18
48
1
60
0
100
AcDbLine
10
32.830484
20
30.663371
30
0
11
32.649701
21
26.522623
31
0
39
0
210
0
220
0
230
1
0
LINE
5
D5
100
AcDbEntity
8
1
62
256
6
ByLayer
370
18
48
1
60
0
100
AcDbLine
10
34.430605
20
27.520117
30
0
11
34.026821
21
26.820716
31
0
39
0
210
0
220
0
230
1
0
LINE
5
D6
100
AcDbEntity
8
1
62
256
6
ByLayer
370
18
48
1
60
0
100
AcDbLine
10
27.475275
20
34.5625
30
0
11
33.92503
21
34.5625
31
0
39
0
210
0
220
0
230
1
0
LINE
5
D7
100
AcDbEntity
8
1
62
256
6
ByLayer
370
18
48
1
60
0
100
AcDbLine
10
32.67513
20
30.433086
30
0
11
32.830486
21
30.663371
31
0
39
0
210
0
220
0
230
1
0
LINE
5
D8
100
AcDbEntity
8
1
62
256
6
ByLayer
370
18
48
1
60
0
100
AcDbLine
10
33.194722
20
31.058606
30
0
11
30.700152
21
31.058606
31
0
39
0
210
0
220
0
230
1
0
LINE
5
D9
100
AcDbEntity
8
1
62
256
6
ByLayer
370
18
48
1
60
0
100
AcDbLine
10
33.985441
20
24.050189
30
0
11
34.000027
21
26.437145
31
0
39
0
210
0
220
0
230
1
0
LINE
5
DA
100
AcDbEntity
8
1
62
256
6
ByLayer
370
18
48
1
60
0
100
AcDbLine
10
33.985441
20
24.050189
30
0
11
33.585449
21
24.050189
31
0
39
0
210
0
220
0
230
1
0
MTEXT
5
166
100
AcDbEntity
8
SK6
62
256
6
ByLayer
370
18
48
1
60
0
100
AcDbMText
10
-64.78947
20
-23.329559
30
0
210
0
220
0
230
1
1
\W0.7643;RG123L20-2525B-050BM
40
3.5
41
0
44
1.084337
50
0
71
7
72
5
7
iso_b_vert
0
DIMENSION
5
186
100
AcDbEntity
8
SK2
62
256
6
ByLayer
370
13
48
1
60
0
100
AcDbDimension
2
DimnDraft3D2
10
-126.4
20
-12.4375
30
0
11
-126.4
21
-2.688158
31
0
70
32
71
5
72
1
41
1
210
0
220
0
230
1
3
Standard
100
AcDbAlignedDimension
13
-118.15
23
12.4375
33
0
14
-118.15
24
-12.4375
34
0
50
90
100
AcDbRotatedDimension
1001
ACAD
1000
DSTYLE
1002
{
1070
    74
1070
     0
1070
   279
1070
     0
1070
   172
1070
     1
1070
   173
1070
     1
1070
   340
1005
167
1070
   271
1070
     3
1070
   272
1070
     3
1070
    77
1070
     1
1070
    73
1070
     0
1070
   171
1070
     4
1070
   274
1070
     4
1070
   177
1070
     2
1070
   176
1070
     2
1070
   178
1070
     7
1070
    78
1070
     8
1070
    41
1041
3.0
1070
   147
1041
2.25
1070
    42
1041
1.5
1070
    44
1041
3.0
1070
   140
1041
4.5
1070
   343
1005
187
1070
   344
1005
187
1002
}
0
DIMENSION
5
19B
100
AcDbEntity
8
2
62
256
6
ByLayer
370
13
48
1
60
0
100
AcDbDimension
2
DimnDraft3D3
10
16.95
20
14.5625
30
0
11
16.95
21
21.874342
31
0
70
32
71
5
72
1
41
1
210
0
220
0
230
1
3
Standard
100
AcDbAlignedDimension
13
29.2
23
34.5625
33
0
14
20.2
24
14.5625
34
0
50
90
100
AcDbRotatedDimension
1001
ACAD
1000
DSTYLE
1002
{
1070
    74
1070
     0
1070
   279
1070
     0
1070
   172
1070
     1
1070
   173
1070
     1
1070
   340
1005
167
1070
   271
1070
     3
1070
   272
1070
     3
1070
    77
1070
     1
1070
    73
1070
     0
1070
   171
1070
     4
1070
   274
1070
     4
1070
   177
1070
     2
1070
   176
1070
     2
1070
   178
1070
     7
1070
    78
1070
     8
1070
    41
1041
3.0
1070
   147
1041
2.25
1070
    42
1041
1.5
1070
    44
1041
3.0
1070
   140
1041
4.5
1070
   343
1005
187
1070
   344
1005
187
1002
}
0
DIMENSION
5
1A9
100
AcDbEntity
8
2
62
256
6
ByLayer
370
13
48
1
60
0
100
AcDbDimension
2
DimnDraft3D4
10
53.695849
20
34.5625
30
0
11
53.695849
21
8.1375
31
0
70
32
71
5
72
1
41
1
210
0
220
0
230
1
3
Standard
100
AcDbAlignedDimension
13
1.5
23
-12.4375
33
0
14
36.2
24
34.5625
34
0
50
90
100
AcDbRotatedDimension
1001
ACAD
1000
DSTYLE
1002
{
1070
    74
1070
     0
1070
   279
1070
     0
1070
   172
1070
     1
1070
   173
1070
     1
1070
   340
1005
167
1070
   271
1070
     3
1070
   272
1070
     3
1070
    77
1070
     1
1070
    73
1070
     0
1070
   171
1070
     4
1070
   274
1070
     4
1070
   177
1070
     2
1070
   176
1070
     2
1070
   178
1070
     7
1070
    78
1070
     8
1070
    41
1041
3.0
1070
   147
1041
2.25
1070
    42
1041
1.5
1070
    44
1041
3.0
1070
   140
1041
4.5
1070
   343
1005
187
1070
   344
1005
187
1002
}
0
DIMENSION
5
1B7
100
AcDbEntity
8
SK2
62
256
6
ByLayer
370
13
48
1
60
0
100
AcDbDimension
2
DimnDraft3D5
10
34.7
20
64.3125
30
0
11
-44.782237
21
64.3125
31
0
70
32
71
5
72
1
41
1
210
0
220
0
230
1
3
Standard
100
AcDbAlignedDimension
13
-116.65
23
13.9375
33
0
14
34.7
24
36.0625
34
0
50
0
100
AcDbRotatedDimension
1001
ACAD
1000
DSTYLE
1002
{
1070
   279
1070
     0
1070
   172
1070
     1
1070
   173
1070
     1
1070
   340
1005
167
1070
   271
1070
     3
1070
   272
1070
     3
1070
    77
1070
     1
1070
    73
1070
     0
1070
   171
1070
     4
1070
   274
1070
     4
1070
   177
1070
     2
1070
   176
1070
     2
1070
   178
1070
     7
1070
    78
1070
     8
1070
    41
1041
3.0
1070
   147
1041
2.25
1070
    42
1041
1.5
1070
    44
1041
3.0
1070
   140
1041
4.5
1070
   343
1005
187
1070
   344
1005
187
1002
}
0
DIMENSION
5
1C5
100
AcDbEntity
8
2
62
256
6
ByLayer
370
13
48
1
60
0
100
AcDbDimension
2
DimnDraft3D6
10
34.7
20
44.3125
30
0
11
29.693421
21
44.3125
31
0
70
32
71
5
72
1
41
1
210
0
220
0
230
1
3
Standard
100
AcDbAlignedDimension
13
26.7
23
36.0625
33
0
14
34.7
24
36.0625
34
0
50
0
100
AcDbRotatedDimension
1001
ACAD
1000
DSTYLE
1002
{
1070
   279
1070
     0
1070
   172
1070
     1
1070
   173
1070
     1
1070
   340
1005
167
1070
   271
1070
     3
1070
   272
1070
     3
1070
    77
1070
     1
1070
    73
1070
     0
1070
   171
1070
     4
1070
   274
1070
     4
1070
   177
1070
     2
1070
   176
1070
     2
1070
   178
1070
     7
1070
    78
1070
     8
1070
    41
1041
3.0
1070
   147
1041
2.25
1070
    42
1041
1.5
1070
    44
1041
3.0
1070
   140
1041
4.5
1070
   343
1005
187
1070
   344
1005
187
1002
}
0
ENDSEC
0
SECTION
2
OBJECTS
0
DICTIONARY
5
22f
330
0
100
AcDbDictionary
280
0
281
1
3
ACAD_GROUP
350
230
3
ACAD_MLINESTYLE
350
231
0
DICTIONARY
5
230
330
0
100
AcDbDictionary
280
0
281
1
0
DICTIONARY
5
231
330
0
100
AcDbDictionary
280
0
281
1
3
Standard
350
18
0
MLINESTYLE
5
18
330
231
100
AcDbMlineStyle
2
Standard
70
0
3

62
256
51
90
52
90
71
2
49
-0.5
62
256
6
ByLayer
49
0.5
62
256
6
ByLayer
0
RASTERVARIABLES
5
21e
330

100
AcDbRasterVariables
90
0
70
1
71
1
72
1
0
ENDSEC
0
EOF
