0
SECTION
2
HEADER
9
$ACADVER
1
AC1015
9
$DWGCODEPAGE
3
ANSI_1252
9
$HANDSEED
5
1cb
9
$ANGBASE
50
0
9
$ANGDIR
70
0
9
$ATTMODE
70
1
9
$AUNITS
70
0
9
$AUPREC
70
0
9
$CECOLOR
62
256
9
$CELTSCALE
40
1
9
$CELTYPE
6
ByLayer
9
$CELWEIGHT
370
18
9
$CLAYER
8
0
9
$CMLJUST
70
0
9
$CMLSCALE
40
1
9
$CMLSTYLE
2
Standard
9
$DIMSTYLE
2
Standard
9
$TEXTSIZE
40
0.2
9
$TEXTSTYLE
7
Standard
9
$LUNITS
70
2
9
$LUPREC
70
4
9
$EXTNAMES
290
1
9
$INSUNITS
70
4
9
$LTSCALE
40
1
9
$LWDISPLAY
290
1
9
$PDMODE
70
0
9
$PDSIZE
40
0
9
$PLINEGEN
70
0
0
ENDSEC
0
SECTION
2
CLASSES
0
CLASS
1
RASTERVARIABLES
2
AcDbRasterVariables
3
ISM
90
0
280
0
281
0
0
ENDSEC
0
SECTION
2
TABLES
0
TABLE
2
VPORT
5
1c1
100
AcDbSymbolTable
0
VPORT
5
1
100
AcDbSymbolTableRecord
100
AcDbViewportTableRecord
2
*Active
70
0
10
0
20
0
11
1
21
1
12
-1
22
1
13
0
23
0
14
0.5
24
0.5
15
10
25
10
16
0
26
0
36
1
17
0
27
0
37
0
0
ENDTAB
0
TABLE
2
LTYPE
5
1c2
100
AcDbSymbolTable
0
LTYPE
5
14
100
AcDbSymbolTableRecord
100
AcDbLinetypeTableRecord
70
0
2
ByBlock
3

72
65
73
0
40
0
0
LTYPE
5
15
100
AcDbSymbolTableRecord
100
AcDbLinetypeTableRecord
70
0
2
ByLayer
3

72
65
73
0
40
0
0
LTYPE
5
16
100
AcDbSymbolTableRecord
100
AcDbLinetypeTableRecord
70
0
2
CONTINUOUS
3
Solid line
72
65
73
0
40
0
0
LTYPE
5
6A
100
AcDbSymbolTableRecord
100
AcDbLinetypeTableRecord
70
0
2
CENTER
3
____ _ ____ _ ____ _ ____
72
65
73
4
40
47.5
49
22
74
0
49
-8.5
74
0
49
8.5
74
0
49
-8.5
74
0
0
LTYPE
5
6B
100
AcDbSymbolTableRecord
100
AcDbLinetypeTableRecord
70
0
2
DASHED
3
__ __ __ __ __ __ __ __ __
72
65
73
2
40
25.72
49
12.86
74
0
49
-12.86
74
0
0
ENDTAB
0
TABLE
2
LAYER
5
1c3
100
AcDbSymbolTable
0
LAYER
5
10
100
AcDbSymbolTableRecord
100
AcDbLayerTableRecord
2
0
70
0
62
7
6
CONTINUOUS
290
1
370
-3
390
0
0
LAYER
5
6D
100
AcDbSymbolTableRecord
100
AcDbLayerTableRecord
2
2
70
0
62
7
6
CONTINUOUS
290
1
370
-3
390
0
0
LAYER
5
6F
100
AcDbSymbolTableRecord
100
AcDbLayerTableRecord
2
80
70
0
62
-6
6
CONTINUOUS
290
1
370
-3
390
0
0
LAYER
5
72
100
AcDbSymbolTableRecord
100
AcDbLayerTableRecord
2
81
70
0
62
-3
6
CONTINUOUS
290
1
370
-3
390
0
0
LAYER
5
76
100
AcDbSymbolTableRecord
100
AcDbLayerTableRecord
2
1
70
0
62
4
6
CONTINUOUS
290
1
370
-3
390
0
0
LAYER
5
1ae
100
AcDbSymbolTableRecord
100
AcDbLayerTableRecord
2
SK1
70
0
62
4
6
CONTINUOUS
290
1
370
-3
390
0
0
LAYER
5
1af
100
AcDbSymbolTableRecord
100
AcDbLayerTableRecord
2
SK6
70
0
62
5
6
CONTINUOUS
290
1
370
-3
390
0
0
LAYER
5
1b0
100
AcDbSymbolTableRecord
100
AcDbLayerTableRecord
2
SK2
70
0
62
7
6
CONTINUOUS
290
1
370
-3
390
0
0
ENDTAB
0
TABLE
2
STYLE
5
1c4
100
AcDbSymbolTable
0
STYLE
5
11
100
AcDbSymbolTableRecord
100
AcDbTextStyleTableRecord
2
Standard
3
txt
70
0
71
0
40
0
41
1
42
0
50
0
0
STYLE
5
F6
100
AcDbSymbolTableRecord
100
AcDbTextStyleTableRecord
2
iso_b_vert
3
simplex.shx
70
0
71
0
40
0
41
1
42
0
50
0
0
STYLE
5
F7
100
AcDbSymbolTableRecord
100
AcDbTextStyleTableRecord
2
DWGDirectTextStyle
3
simplex
70
0
71
0
40
0
41
1
42
0
50
0
0
ENDTAB
0
TABLE
2
DIMSTYLE
5
1c5
100
AcDbSymbolTable
100
AcDbDimStyleTable
0
DIMSTYLE
105
27
100
AcDbSymbolTableRecord
100
AcDbDimStyleTableRecord
2
Standard
70
0
3
<>
41
0.18
42
0.0625
44
0.18
140
0.18
147
0.09
73
0
74
0
77
1
271
2
275
0
278
52
280
0
340
11
0
ENDTAB
0
TABLE
2
VIEW
5
1c6
100
AcDbSymbolTable
0
ENDTAB
0
TABLE
2
UCS
5
1c7
100
AcDbSymbolTable
0
ENDTAB
0
TABLE
2
APPID
5
1c8
100
AcDbSymbolTable
0
APPID
5
12
100
AcDbSymbolTableRecord
100
AcDbRegAppTableRecord
2
ACAD
70
0
0
ENDTAB
0
TABLE
2
BLOCK_RECORD
5
1c9
100
AcDbSymbolTable
0
BLOCK_RECORD
5
1F
100
AcDbSymbolTableRecord
100
AcDbBlockTableRecord
2
*Model_Space
340
0
70
0
0
BLOCK_RECORD
5
1B
100
AcDbSymbolTableRecord
100
AcDbBlockTableRecord
2
*Paper_Space
340
0
70
0
0
BLOCK_RECORD
5
23
100
AcDbSymbolTableRecord
100
AcDbBlockTableRecord
2
*Paper_Space0
340
0
70
0
0
BLOCK_RECORD
5
F9
100
AcDbSymbolTableRecord
100
AcDbBlockTableRecord
2
DimnDraft3D11
340
0
70
0
0
BLOCK_RECORD
5
107
100
AcDbSymbolTableRecord
100
AcDbBlockTableRecord
2
DimnDraft3D2
340
0
70
0
0
BLOCK_RECORD
5
116
100
AcDbSymbolTableRecord
100
AcDbBlockTableRecord
2
_CLOSED
340
0
70
0
0
BLOCK_RECORD
5
11D
100
AcDbSymbolTableRecord
100
AcDbBlockTableRecord
2
DimnDraft3D3
340
0
70
0
0
BLOCK_RECORD
5
12B
100
AcDbSymbolTableRecord
100
AcDbBlockTableRecord
2
DimnDraft3D4
340
0
70
0
0
BLOCK_RECORD
5
139
100
AcDbSymbolTableRecord
100
AcDbBlockTableRecord
2
DimnDraft3D5
340
0
70
0
0
BLOCK_RECORD
5
147
100
AcDbSymbolTableRecord
100
AcDbBlockTableRecord
2
DimnDraft3D6
340
0
70
0
0
ENDTAB
0
ENDSEC
0
SECTION
2
BLOCKS
0
BLOCK
5
20
100
AcDbEntity
8
0
100
AcDbBlockBegin
2
*Model_Space
70
0
10
0
20
0
30
0
3
*Model_Space
0
ENDBLK
5
21
100
AcDbEntity
8
0
100
AcDbBlockEnd
0
BLOCK
5
1C
100
AcDbEntity
8
0
100
AcDbBlockBegin
2
*Paper_Space
70
0
10
0
20
0
30
0
3
*Paper_Space
0
ENDBLK
5
1D
100
AcDbEntity
8
0
100
AcDbBlockEnd
0
BLOCK
5
24
100
AcDbEntity
8
0
100
AcDbBlockBegin
2
*Paper_Space0
70
0
10
0
20
0
30
0
3
*Paper_Space0
0
ENDBLK
5
25
100
AcDbEntity
8
0
100
AcDbBlockEnd
0
BLOCK
5
FA
100
AcDbEntity
8
0
100
AcDbBlockBegin
2
DimnDraft3D11
70
0
10
0
20
0
30
0
3
DimnDraft3D11
0
LINE
5
FC
100
AcDbEntity
8
2
62
256
6
ByLayer
370
25
48
1
60
0
100
AcDbLine
10
28.65
20
24.0625
30
0
11
28.65
21
45.3125
31
0
39
0
210
0
220
0
230
1
0
LINE
5
FD
100
AcDbEntity
8
2
62
256
6
ByLayer
370
25
48
1
60
0
100
AcDbLine
10
0
20
13.9375
30
0
11
0
21
45.3125
31
0
39
0
210
0
220
0
230
1
0
LINE
5
FE
100
AcDbEntity
8
2
62
256
6
ByLayer
370
25
48
1
60
0
100
AcDbLine
10
28.65
20
42.3125
30
0
11
0
21
42.3125
31
0
39
0
210
0
220
0
230
1
0
LINE
5
FF
100
AcDbEntity
8
2
62
256
6
ByLayer
370
25
48
1
60
0
100
AcDbLine
10
28.65
20
42.3125
30
0
11
25.650001
21
41.917543
31
0
39
0
210
0
220
0
230
1
0
LINE
5
100
100
AcDbEntity
8
2
62
256
6
ByLayer
370
25
48
1
60
0
100
AcDbLine
10
28.65
20
42.3125
30
0
11
25.649999
21
42.707457
31
0
39
0
210
0
220
0
230
1
0
LINE
5
101
100
AcDbEntity
8
2
62
256
6
ByLayer
370
25
48
1
60
0
100
AcDbLine
10
25.650001
20
41.917543
30
0
11
25.649999
21
42.707457
31
0
39
0
210
0
220
0
230
1
0
LINE
5
102
100
AcDbEntity
8
2
62
256
6
ByLayer
370
25
48
1
60
0
100
AcDbLine
10
0
20
42.3125
30
0
11
2.999999
21
42.707457
31
0
39
0
210
0
220
0
230
1
0
LINE
5
103
100
AcDbEntity
8
2
62
256
6
ByLayer
370
25
48
1
60
0
100
AcDbLine
10
0
20
42.3125
30
0
11
3.000001
21
41.917543
31
0
39
0
210
0
220
0
230
1
0
LINE
5
104
100
AcDbEntity
8
2
62
256
6
ByLayer
370
25
48
1
60
0
100
AcDbLine
10
2.999999
20
42.707457
30
0
11
3.000001
21
41.917543
31
0
39
0
210
0
220
0
230
1
0
MTEXT
5
105
100
AcDbEntity
8
2
62
256
6
ByLayer
370
18
48
1
60
0
100
AcDbMText
10
10.168421
20
43.4375
30
0
210
0
220
0
230
1
1
\W0.7346;28.6
40
4.5
41
0
44
1.084337
50
0
71
7
72
5
7
iso_b_vert
0
ENDBLK
5
FB
100
AcDbEntity
8
0
100
AcDbBlockEnd
0
BLOCK
5
113
100
AcDbEntity
8
0
100
AcDbBlockBegin
2
DimnDraft3D2
70
0
10
0
20
0
30
0
3
DimnDraft3D2
0
MTEXT
5
108
100
AcDbEntity
8
SK2
62
256
6
ByLayer
370
18
48
1
60
0
100
AcDbMText
10
-133.575
20
-1.563158
30
0
210
0
220
0
230
1
1
\W0.6740;25
40
4.5
41
0
44
1.084337
50
90
71
7
72
5
7
iso_b_vert
0
LINE
5
10A
100
AcDbEntity
8
SK2
62
256
6
ByLayer
370
13
48
1
60
0
100
AcDbLine
10
-124.2
20
12.4375
30
0
11
-135.45
21
12.4375
31
0
39
0
210
0
220
0
230
1
0
LINE
5
10B
100
AcDbEntity
8
SK2
62
256
6
ByLayer
370
13
48
1
60
0
100
AcDbLine
10
-124.2
20
-12.4375
30
0
11
-135.45
21
-12.4375
31
0
39
0
210
0
220
0
230
1
0
LINE
5
10C
100
AcDbEntity
8
SK2
62
256
6
ByLayer
370
13
48
1
60
0
100
AcDbLine
10
-132.45
20
12.4375
30
0
11
-132.45
21
-12.4375
31
0
39
0
210
0
220
0
230
1
0
LINE
5
10D
100
AcDbEntity
8
SK2
62
256
6
ByLayer
370
13
48
1
60
0
100
AcDbLine
10
-132.45
20
12.4375
30
0
11
-132.055043
21
9.437501
31
0
39
0
210
0
220
0
230
1
0
LINE
5
10E
100
AcDbEntity
8
SK2
62
256
6
ByLayer
370
13
48
1
60
0
100
AcDbLine
10
-132.45
20
12.4375
30
0
11
-132.844957
21
9.437499
31
0
39
0
210
0
220
0
230
1
0
LINE
5
10F
100
AcDbEntity
8
SK2
62
256
6
ByLayer
370
13
48
1
60
0
100
AcDbLine
10
-132.055043
20
9.437501
30
0
11
-132.844957
21
9.437499
31
0
39
0
210
0
220
0
230
1
0
LINE
5
110
100
AcDbEntity
8
SK2
62
256
6
ByLayer
370
13
48
1
60
0
100
AcDbLine
10
-132.45
20
-12.4375
30
0
11
-132.844957
21
-9.437501
31
0
39
0
210
0
220
0
230
1
0
LINE
5
111
100
AcDbEntity
8
SK2
62
256
6
ByLayer
370
13
48
1
60
0
100
AcDbLine
10
-132.45
20
-12.4375
30
0
11
-132.055043
21
-9.437499
31
0
39
0
210
0
220
0
230
1
0
LINE
5
112
100
AcDbEntity
8
SK2
62
256
6
ByLayer
370
13
48
1
60
0
100
AcDbLine
10
-132.844957
20
-9.437501
30
0
11
-132.055043
21
-9.437499
31
0
39
0
210
0
220
0
230
1
0
ENDBLK
5
114
100
AcDbEntity
8
0
100
AcDbBlockEnd
0
BLOCK
5
117
100
AcDbEntity
8
0
100
AcDbBlockBegin
2
_CLOSED
70
0
10
0
20
0
30
0
3
_CLOSED
0
LINE
5
119
100
AcDbEntity
8
0
62
256
6
ByLayer
370
-2
48
1
60
0
100
AcDbLine
10
-1
20
0.166667
30
0
11
0
21
0
31
0
39
0
210
0
220
0
230
1
0
LINE
5
11A
100
AcDbEntity
8
0
62
256
6
ByLayer
370
-2
48
1
60
0
100
AcDbLine
10
0
20
0
30
0
11
-1
21
-0.166667
31
0
39
0
210
0
220
0
230
1
0
LINE
5
11B
100
AcDbEntity
8
0
62
256
6
ByLayer
370
-2
48
1
60
0
100
AcDbLine
10
-1
20
0.166667
30
0
11
-1
21
-0.166667
31
0
39
0
210
0
220
0
230
1
0
LINE
5
11C
100
AcDbEntity
8
0
62
256
6
ByLayer
370
-2
48
1
60
0
100
AcDbLine
10
0
20
0
30
0
11
-1
21
0
31
0
39
0
210
0
220
0
230
1
0
ENDBLK
5
118
100
AcDbEntity
8
0
100
AcDbBlockEnd
0
BLOCK
5
128
100
AcDbEntity
8
0
100
AcDbBlockBegin
2
DimnDraft3D3
70
0
10
0
20
0
30
0
3
DimnDraft3D3
0
MTEXT
5
11E
100
AcDbEntity
8
2
62
256
6
ByLayer
370
18
48
1
60
0
100
AcDbMText
10
41.775
20
18.680921
30
0
210
0
220
0
230
1
1
\W0.5404;8
40
4.5
41
0
44
1.084337
50
90
71
7
72
5
7
iso_b_vert
0
LINE
5
11F
100
AcDbEntity
8
2
62
256
6
ByLayer
370
13
48
1
60
0
100
AcDbLine
10
30.15
20
22.5625
30
0
11
45.9
21
22.5625
31
0
39
0
210
0
220
0
230
1
0
LINE
5
120
100
AcDbEntity
8
2
62
256
6
ByLayer
370
13
48
1
60
0
100
AcDbLine
10
24.15
20
14.5625
30
0
11
45.9
21
14.5625
31
0
39
0
210
0
220
0
230
1
0
LINE
5
121
100
AcDbEntity
8
2
62
256
6
ByLayer
370
13
48
1
60
0
100
AcDbLine
10
42.9
20
33.8125
30
0
11
42.9
21
3.3125
31
0
39
0
210
0
220
0
230
1
0
LINE
5
122
100
AcDbEntity
8
2
62
256
6
ByLayer
370
13
48
1
60
0
100
AcDbLine
10
42.9
20
22.5625
30
0
11
42.505043
21
25.562499
31
0
39
0
210
0
220
0
230
1
0
LINE
5
123
100
AcDbEntity
8
2
62
256
6
ByLayer
370
13
48
1
60
0
100
AcDbLine
10
42.9
20
22.5625
30
0
11
43.294957
21
25.562501
31
0
39
0
210
0
220
0
230
1
0
LINE
5
124
100
AcDbEntity
8
2
62
256
6
ByLayer
370
13
48
1
60
0
100
AcDbLine
10
42.505043
20
25.562499
30
0
11
43.294957
21
25.562501
31
0
39
0
210
0
220
0
230
1
0
LINE
5
125
100
AcDbEntity
8
2
62
256
6
ByLayer
370
13
48
1
60
0
100
AcDbLine
10
42.9
20
14.5625
30
0
11
43.294957
21
11.562501
31
0
39
0
210
0
220
0
230
1
0
LINE
5
126
100
AcDbEntity
8
2
62
256
6
ByLayer
370
13
48
1
60
0
100
AcDbLine
10
42.9
20
14.5625
30
0
11
42.505043
21
11.562499
31
0
39
0
210
0
220
0
230
1
0
LINE
5
127
100
AcDbEntity
8
2
62
256
6
ByLayer
370
13
48
1
60
0
100
AcDbLine
10
43.294957
20
11.562501
30
0
11
42.505043
21
11.562499
31
0
39
0
210
0
220
0
230
1
0
ENDBLK
5
129
100
AcDbEntity
8
0
100
AcDbBlockEnd
0
BLOCK
5
136
100
AcDbEntity
8
0
100
AcDbBlockBegin
2
DimnDraft3D4
70
0
10
0
20
0
30
0
3
DimnDraft3D4
0
MTEXT
5
12C
100
AcDbEntity
8
2
62
256
6
ByLayer
370
18
48
1
60
0
100
AcDbMText
10
51.775
20
3.499342
30
0
210
0
220
0
230
1
1
\W0.6740;35
40
4.5
41
0
44
1.084337
50
90
71
7
72
5
7
iso_b_vert
0
LINE
5
12D
100
AcDbEntity
8
2
62
256
6
ByLayer
370
13
48
1
60
0
100
AcDbLine
10
1.5
20
-12.4375
30
0
11
55.9
21
-12.4375
31
0
39
0
210
0
220
0
230
1
0
LINE
5
12E
100
AcDbEntity
8
2
62
256
6
ByLayer
370
13
48
1
60
0
100
AcDbLine
10
30.15
20
22.5625
30
0
11
55.9
21
22.5625
31
0
39
0
210
0
220
0
230
1
0
LINE
5
12F
100
AcDbEntity
8
2
62
256
6
ByLayer
370
13
48
1
60
0
100
AcDbLine
10
52.9
20
-12.4375
30
0
11
52.9
21
22.5625
31
0
39
0
210
0
220
0
230
1
0
LINE
5
130
100
AcDbEntity
8
2
62
256
6
ByLayer
370
13
48
1
60
0
100
AcDbLine
10
52.9
20
-12.4375
30
0
11
52.505043
21
-9.437501
31
0
39
0
210
0
220
0
230
1
0
LINE
5
131
100
AcDbEntity
8
2
62
256
6
ByLayer
370
13
48
1
60
0
100
AcDbLine
10
52.9
20
-12.4375
30
0
11
53.294957
21
-9.437499
31
0
39
0
210
0
220
0
230
1
0
LINE
5
132
100
AcDbEntity
8
2
62
256
6
ByLayer
370
13
48
1
60
0
100
AcDbLine
10
52.505043
20
-9.437501
30
0
11
53.294957
21
-9.437499
31
0
39
0
210
0
220
0
230
1
0
LINE
5
133
100
AcDbEntity
8
2
62
256
6
ByLayer
370
13
48
1
60
0
100
AcDbLine
10
52.9
20
22.5625
30
0
11
53.294957
21
19.562501
31
0
39
0
210
0
220
0
230
1
0
LINE
5
134
100
AcDbEntity
8
2
62
256
6
ByLayer
370
13
48
1
60
0
100
AcDbLine
10
52.9
20
22.5625
30
0
11
52.505043
21
19.562499
31
0
39
0
210
0
220
0
230
1
0
LINE
5
135
100
AcDbEntity
8
2
62
256
6
ByLayer
370
13
48
1
60
0
100
AcDbLine
10
53.294957
20
19.562501
30
0
11
52.505043
21
19.562499
31
0
39
0
210
0
220
0
230
1
0
ENDBLK
5
137
100
AcDbEntity
8
0
100
AcDbBlockEnd
0
BLOCK
5
144
100
AcDbEntity
8
0
100
AcDbBlockBegin
2
DimnDraft3D5
70
0
10
0
20
0
30
0
3
DimnDraft3D5
0
MTEXT
5
13A
100
AcDbEntity
8
SK2
62
256
6
ByLayer
370
18
48
1
60
0
100
AcDbMText
10
-49.707237
20
53.4375
30
0
210
0
220
0
230
1
1
\W0.6217;150
40
4.5
41
0
44
1.084337
50
0
71
7
72
5
7
iso_b_vert
0
LINE
5
13B
100
AcDbEntity
8
SK2
62
256
6
ByLayer
370
13
48
1
60
0
100
AcDbLine
10
-122.7
20
13.9375
30
0
11
-122.7
21
55.3125
31
0
39
0
210
0
220
0
230
1
0
LINE
5
13C
100
AcDbEntity
8
SK2
62
256
6
ByLayer
370
13
48
1
60
0
100
AcDbLine
10
28.65
20
24.0625
30
0
11
28.65
21
55.3125
31
0
39
0
210
0
220
0
230
1
0
LINE
5
13D
100
AcDbEntity
8
SK2
62
256
6
ByLayer
370
13
48
1
60
0
100
AcDbLine
10
-122.7
20
52.3125
30
0
11
28.65
21
52.3125
31
0
39
0
210
0
220
0
230
1
0
LINE
5
13E
100
AcDbEntity
8
SK2
62
256
6
ByLayer
370
13
48
1
60
0
100
AcDbLine
10
-122.7
20
52.3125
30
0
11
-119.700001
21
52.707457
31
0
39
0
210
0
220
0
230
1
0
LINE
5
13F
100
AcDbEntity
8
SK2
62
256
6
ByLayer
370
13
48
1
60
0
100
AcDbLine
10
-122.7
20
52.3125
30
0
11
-119.699999
21
51.917543
31
0
39
0
210
0
220
0
230
1
0
LINE
5
140
100
AcDbEntity
8
SK2
62
256
6
ByLayer
370
13
48
1
60
0
100
AcDbLine
10
-119.700001
20
52.707457
30
0
11
-119.699999
21
51.917543
31
0
39
0
210
0
220
0
230
1
0
LINE
5
141
100
AcDbEntity
8
SK2
62
256
6
ByLayer
370
13
48
1
60
0
100
AcDbLine
10
28.65
20
52.3125
30
0
11
25.650001
21
51.917543
31
0
39
0
210
0
220
0
230
1
0
LINE
5
142
100
AcDbEntity
8
SK2
62
256
6
ByLayer
370
13
48
1
60
0
100
AcDbLine
10
28.65
20
52.3125
30
0
11
25.649999
21
52.707457
31
0
39
0
210
0
220
0
230
1
0
LINE
5
143
100
AcDbEntity
8
SK2
62
256
6
ByLayer
370
13
48
1
60
0
100
AcDbLine
10
25.650001
20
51.917543
30
0
11
25.649999
21
52.707457
31
0
39
0
210
0
220
0
230
1
0
ENDBLK
5
145
100
AcDbEntity
8
0
100
AcDbBlockEnd
0
BLOCK
5
152
100
AcDbEntity
8
0
100
AcDbBlockBegin
2
DimnDraft3D6
70
0
10
0
20
0
30
0
3
DimnDraft3D6
0
MTEXT
5
148
100
AcDbEntity
8
2
62
256
6
ByLayer
370
18
48
1
60
0
100
AcDbMText
10
25.768421
20
33.4375
30
0
210
0
220
0
230
1
1
\W0.5404;6
40
4.5
41
0
44
1.084337
50
0
71
7
72
5
7
iso_b_vert
0
LINE
5
149
100
AcDbEntity
8
2
62
256
6
ByLayer
370
13
48
1
60
0
100
AcDbLine
10
22.65
20
24.0625
30
0
11
22.65
21
35.3125
31
0
39
0
210
0
220
0
230
1
0
LINE
5
14A
100
AcDbEntity
8
2
62
256
6
ByLayer
370
13
48
1
60
0
100
AcDbLine
10
28.65
20
24.0625
30
0
11
28.65
21
35.3125
31
0
39
0
210
0
220
0
230
1
0
LINE
5
14B
100
AcDbEntity
8
2
62
256
6
ByLayer
370
13
48
1
60
0
100
AcDbLine
10
11.4
20
32.3125
30
0
11
39.9
21
32.3125
31
0
39
0
210
0
220
0
230
1
0
LINE
5
14C
100
AcDbEntity
8
2
62
256
6
ByLayer
370
13
48
1
60
0
100
AcDbLine
10
22.65
20
32.3125
30
0
11
19.650001
21
31.917543
31
0
39
0
210
0
220
0
230
1
0
LINE
5
14D
100
AcDbEntity
8
2
62
256
6
ByLayer
370
13
48
1
60
0
100
AcDbLine
10
22.65
20
32.3125
30
0
11
19.649999
21
32.707457
31
0
39
0
210
0
220
0
230
1
0
LINE
5
14E
100
AcDbEntity
8
2
62
256
6
ByLayer
370
13
48
1
60
0
100
AcDbLine
10
19.650001
20
31.917543
30
0
11
19.649999
21
32.707457
31
0
39
0
210
0
220
0
230
1
0
LINE
5
14F
100
AcDbEntity
8
2
62
256
6
ByLayer
370
13
48
1
60
0
100
AcDbLine
10
28.65
20
32.3125
30
0
11
31.649999
21
32.707457
31
0
39
0
210
0
220
0
230
1
0
LINE
5
150
100
AcDbEntity
8
2
62
256
6
ByLayer
370
13
48
1
60
0
100
AcDbLine
10
28.65
20
32.3125
30
0
11
31.650001
21
31.917543
31
0
39
0
210
0
220
0
230
1
0
LINE
5
151
100
AcDbEntity
8
2
62
256
6
ByLayer
370
13
48
1
60
0
100
AcDbLine
10
31.649999
20
32.707457
30
0
11
31.650001
21
31.917543
31
0
39
0
210
0
220
0
230
1
0
ENDBLK
5
153
100
AcDbEntity
8
0
100
AcDbBlockEnd
0
ENDSEC
0
SECTION
2
ENTITIES
0
ARC
5
BB
100
AcDbEntity
8
1
62
256
6
ByLayer
370
18
48
1
60
0
100
AcDbCircle
39
0
10
21.375
20
14.6625
30
0
40
1.60000000000116
210
0
220
0
230
1
100
AcDbArc
50
270
51
346.647386
0
ARC
5
BC
100
AcDbEntity
8
1
62
256
6
ByLayer
370
18
48
1
60
0
100
AcDbCircle
39
0
10
21.375
20
14.6625
30
0
40
1.60000000000324
210
0
220
0
230
1
100
AcDbArc
50
346.647147
51
360
0
ARC
5
BF
100
AcDbEntity
8
1
62
256
6
ByLayer
370
18
48
1
60
0
100
AcDbCircle
39
0
10
14.35
20
5.4125
30
0
40
2.807
210
0
220
0
230
1
100
AcDbArc
50
90
51
149.965127
0
ARC
5
C1
100
AcDbEntity
8
1
62
256
6
ByLayer
370
18
48
1
60
0
100
AcDbCircle
39
0
10
14.35
20
5.4125
30
0
40
2.807
210
0
220
0
230
1
100
AcDbArc
50
149.965127
51
210.034873
0
ARC
5
C3
100
AcDbEntity
8
1
62
256
6
ByLayer
370
18
48
1
60
0
100
AcDbCircle
39
0
10
14.35
20
5.4125
30
0
40
2.807
210
0
220
0
230
1
100
AcDbArc
50
329.965127
51
30.034873
0
ARC
5
C4
100
AcDbEntity
8
1
62
256
6
ByLayer
370
18
48
1
60
0
100
AcDbCircle
39
0
10
14.35
20
5.4125
30
0
40
2.0135
210
0
220
0
230
1
100
AcDbArc
50
358.140164
51
1.859836
0
ARC
5
C5
100
AcDbEntity
8
1
62
256
6
ByLayer
370
18
48
1
60
0
100
AcDbCircle
39
0
10
14.35
20
5.4125
30
0
40
2.807
210
0
220
0
230
1
100
AcDbArc
50
210.034873
51
270
0
ARC
5
C6
100
AcDbEntity
8
1
62
256
6
ByLayer
370
18
48
1
60
0
100
AcDbCircle
39
0
10
14.35
20
5.4125
30
0
40
2.807
210
0
220
0
230
1
100
AcDbArc
50
30.034873
51
90
0
ARC
5
C7
100
AcDbEntity
8
1
62
256
6
ByLayer
370
18
48
1
60
0
100
AcDbCircle
39
0
10
14.35
20
5.4125
30
0
40
2.0135
210
0
220
0
230
1
100
AcDbArc
50
178.140164
51
181.859836
0
ARC
5
C8
100
AcDbEntity
8
1
62
256
6
ByLayer
370
18
48
1
60
0
100
AcDbCircle
39
0
10
14.35
20
5.4125
30
0
40
2.807
210
0
220
0
230
1
100
AcDbArc
50
270
51
329.965127
0
ARC
5
CA
100
AcDbEntity
8
1
62
256
6
ByLayer
370
18
48
1
60
0
100
AcDbCircle
39
0
10
-28.266874
20
-2.0375
30
0
40
0.4
210
0
220
0
230
-1
100
AcDbArc
50
176.667001
51
261.643804
0
ARC
5
CB
100
AcDbEntity
8
1
62
256
6
ByLayer
370
18
48
1
60
0
100
AcDbCircle
39
0
10
28.266874
20
22.1625
30
0
40
0.4
210
0
220
0
230
1
100
AcDbArc
50
356.667001
51
90
0
ARC
5
CC
100
AcDbEntity
8
1
62
256
6
ByLayer
370
18
48
1
60
0
100
AcDbCircle
39
0
10
-23.033126
20
22.1625
30
0
40
0.4
210
0
220
0
230
-1
100
AcDbArc
50
356.667001
51
90
0
CIRCLE
5
BD
100
AcDbEntity
8
1
62
256
6
ByLayer
370
18
48
1
60
0
100
AcDbCircle
10
21.5
20
-8.9375
30
0
40
1.65000000000001
39
0
210
0
220
0
230
1
0
CIRCLE
5
BE
100
AcDbEntity
8
1
62
256
6
ByLayer
370
18
48
1
60
0
100
AcDbCircle
10
-14.35
20
5.4125
30
0
40
6.14999999999999
39
0
210
0
220
0
230
-1
0
CIRCLE
5
C0
100
AcDbEntity
8
1
62
256
6
ByLayer
370
18
48
1
60
0
100
AcDbCircle
10
14.35
20
5.4125
30
0
40
5.13
39
0
210
0
220
0
230
1
0
CIRCLE
5
C2
100
AcDbEntity
8
1
62
256
6
ByLayer
370
18
48
1
60
0
100
AcDbCircle
10
-14.35
20
5.4125
30
0
40
3
39
0
210
0
220
0
230
-1
0
CIRCLE
5
C9
100
AcDbEntity
8
1
62
256
6
ByLayer
370
18
48
1
60
0
100
AcDbCircle
10
-14.35
20
5.4125
30
0
40
5.93
39
0
210
0
220
0
230
-1
0
ELLIPSE
5
CD
100
AcDbEntity
8
1
62
256
6
ByLayer
370
18
48
1
60
0
100
AcDbEllipse
10
28.008749
20
15.607131
30
0
11
-6.36981415804523E-11
21
0.433147584198748
31
0
210
0
220
0
230
1
40
0.230868
41
2.9670400766035
42
3.14159265358979
0
ELLIPSE
5
CE
100
AcDbEntity
8
1
62
256
6
ByLayer
370
18
48
1
60
0
100
AcDbEllipse
10
23.291251
20
15.607131
30
0
11
-6.36984400236775E-11
21
-0.433147584198748
31
0
210
0
220
0
230
1
40
0.230868
41
0
42
0.174552576986291
0
ELLIPSE
5
CF
100
AcDbEntity
8
1
62
256
6
ByLayer
370
18
48
1
60
0
100
AcDbEllipse
10
24.982701
20
16.898987
30
0
11
5.07412188852767E-16
21
0.433147587294837
31
0
210
0
220
0
230
1
40
0.230868
41
-2.96705972839031
42
-2.47750918237046
0
ELLIPSE
5
D0
100
AcDbEntity
8
1
62
256
6
ByLayer
370
18
48
1
60
0
100
AcDbEllipse
10
26.317299
20
16.898987
30
0
11
5.07412188852767E-16
21
0.433147587294837
31
0
210
0
220
0
230
1
40
0.230868
41
2.47750918237046
42
2.96705972839031
0
POINT
5
6C
100
AcDbEntity
8
2
62
256
6
ByLayer
370
18
48
1
60
0
100
AcDbPoint
10
25.65
20
22.5625
30
0
39
0
210
0
220
0
230
1
50
360
0
POINT
5
6E
100
AcDbEntity
8
80
62
256
6
ByLayer
370
18
48
1
60
0
100
AcDbPoint
10
0
20
0
30
0
39
0
210
0
220
0
230
1
50
360
0
POINT
5
70
100
AcDbEntity
8
2
62
256
6
ByLayer
370
18
48
1
60
0
100
AcDbPoint
10
28.65
20
22.5625
30
0
39
0
210
0
220
0
230
1
50
360
0
POINT
5
71
100
AcDbEntity
8
81
62
256
6
ByLayer
370
18
48
1
60
0
100
AcDbPoint
10
28.65
20
22.5625
30
0
39
0
210
0
220
0
230
1
50
360
0
SPLINE
5
D1
100
AcDbEntity
8
1
62
256
6
ByLayer
370
18
48
1
60
0
100
AcDbSpline
70
4
71
3
72
14
73
10
40
0
40
0
40
0
40
0
40
0.318825335331778
40
0.318825335331778
40
0.641378913106291
40
0.641378913106291
40
0.963672388223204
40
0.963672388223204
40
1
40
1
40
1
40
1
41
1
10
25.1857814543471
20
14.6820868846333
30
0
41
1
10
25.1801032024204
20
14.6692930140296
30
0
41
1
10
25.1716863027052
20
14.6571194073754
30
0
41
1
10
25.1506114179243
20
14.635861036339
30
0
41
1
10
25.1376123888931
20
14.6265216197213
30
0
41
1
10
25.1089766737561
20
14.612105342532
30
0
41
1
10
25.0929465339062
20
14.6068262529388
30
0
41
1
10
25.0746511419237
20
14.6035810594181
30
0
41
1
10
25.0727660023983
20
14.6032776400412
30
0
41
1
10
25.0708747878793
20
14.6030040733832
30
0
0
SPLINE
5
D2
100
AcDbEntity
8
1
62
256
6
ByLayer
370
18
48
1
60
0
100
AcDbSpline
70
4
71
3
72
10
73
6
40
0
40
0
40
0
40
0
40
0.0696265156703655
40
0.0696265156703655
40
1
40
1
40
1
40
1
41
1
10
22.9317475396173
20
14.2929907336809
30
0
41
1
10
22.9813876613403
20
14.3002159974586
30
0
41
1
10
23.0310288230643
20
14.3074364676965
30
0
41
1
10
23.744003750665
20
14.4110862876942
30
0
41
1
10
24.4074410099631
20
14.5070375081886
30
0
41
1
10
25.0708747878793
20
14.6030040733832
30
0
0
SPLINE
5
D3
100
AcDbEntity
8
1
62
256
6
ByLayer
370
18
48
1
60
0
100
AcDbSpline
70
4
71
3
72
14
73
10
40
0
40
0
40
0
40
0
40
0.273335586308355
40
0.273335586308355
40
0.549864884753837
40
0.549864884753837
40
0.826242595228866
40
0.826242595228866
40
1
40
1
40
1
40
1
41
1
10
25.2340461068822
20
14.7908156668964
30
0
41
1
10
25.2397218697634
20
14.8036000042653
30
0
41
1
10
25.2481344671604
20
14.8157642576505
30
0
41
1
10
25.2691974924646
20
14.8370054552683
30
0
41
1
10
25.2821884838199
20
14.846336751431
30
0
41
1
10
25.3108080111581
20
14.8607441671546
30
0
41
1
10
25.326830006648
20
14.8660213092882
30
0
41
1
10
25.3536457275076
20
14.8707833172109
30
0
41
1
10
25.3643528161223
20
14.8717231349939
30
0
41
1
10
25.3749999999982
20
14.871723134994
30
0
0
SPLINE
5
D4
100
AcDbEntity
8
1
62
256
6
ByLayer
370
18
48
1
60
0
100
AcDbSpline
70
4
71
3
72
8
73
4
40
0
40
0
40
0
40
0
40
1
40
1
40
1
40
1
41
1
10
26.0659538931179
20
14.7908156668964
30
0
41
1
10
26.0820441243477
20
14.7545733240275
30
0
41
1
10
26.0981326893237
20
14.7183304974701
30
0
41
1
10
26.1142185456529
20
14.6820868846333
30
0
0
SPLINE
5
D5
100
AcDbEntity
8
1
62
256
6
ByLayer
370
18
48
1
60
0
100
AcDbSpline
70
4
71
3
72
8
73
4
40
0
40
0
40
0
40
0
40
1
40
1
40
1
40
1
41
1
10
25.1857814543471
20
14.6820868846333
30
0
41
1
10
25.2018673176659
20
14.7183305132186
30
0
41
1
10
25.217955881651
20
14.754573337539
30
0
41
1
10
25.2340461068822
20
14.7908156668964
30
0
0
SPLINE
5
D6
100
AcDbEntity
8
1
62
256
6
ByLayer
370
18
48
1
60
0
100
AcDbSpline
70
4
71
3
72
10
73
6
40
0
40
0
40
0
40
0
40
0.538183461857508
40
0.538183461857508
40
1
40
1
40
1
40
1
41
1
10
26.2291252121208
20
14.6030040733832
30
0
41
1
10
26.605134179614
20
14.5486138835951
30
0
41
1
10
26.9811390798678
20
14.4942047975816
30
0
41
1
10
27.6797704935594
20
14.3929950652549
30
0
41
1
10
28.0024029849354
20
14.3462218772883
30
0
41
1
10
28.325
20
14.2992850269737
30
0
0
SPLINE
5
D7
100
AcDbEntity
8
1
62
256
6
ByLayer
370
18
48
1
60
0
100
AcDbSpline
70
4
71
3
72
14
73
10
40
0
40
0
40
0
40
0
40
0.275104320463798
40
0.275104320463798
40
0.551285892222264
40
0.551285892222264
40
0.827540816328999
40
0.827540816328999
40
1
40
1
40
1
40
1
41
1
10
25.925
20
14.8717231349798
30
0
41
1
10
25.9417141719496
20
14.8717231349798
30
0
41
1
10
25.9586570737924
20
14.8693686319537
30
0
41
1
10
25.9902773389956
20
14.8603207623995
30
0
41
1
10
26.0053813158535
20
14.8534852714478
30
0
41
1
10
26.0316198763753
20
14.8363400953992
30
0
41
1
10
26.0431150508633
20
14.8257933134876
30
0
41
1
10
26.0576511046951
20
14.8068144629828
30
0
41
1
10
26.0623423627459
20
14.7989504363819
30
0
41
1
10
26.0659538931179
20
14.7908156668964
30
0
0
SPLINE
5
D8
100
AcDbEntity
8
1
62
256
6
ByLayer
370
18
48
1
60
0
100
AcDbSpline
70
4
71
3
72
14
73
10
40
0
40
0
40
0
40
0
40
0.320648283141951
40
0.320648283141951
40
0.642556656086383
40
0.642556656086383
40
0.964767987588737
40
0.964767987588737
40
1
40
1
40
1
40
1
41
1
10
26.2291252121208
20
14.6030040733832
30
0
41
1
10
26.2126667461056
20
14.6053848120559
30
0
41
1
10
26.1964832803433
20
14.6101180403311
30
0
41
1
10
26.1672679758392
20
14.623533197459
30
0
41
1
10
26.1538463180373
20
14.6324156352974
30
0
41
1
10
26.1316362965518
20
14.6530403761797
30
0
41
1
10
26.1225460828018
20
14.6650693737501
30
0
41
1
10
26.1155239002213
20
14.6792287638988
30
0
41
1
10
26.1148548956176
20
14.6806531019807
30
0
41
1
10
26.1142185456528
20
14.6820868846332
30
0
0
SPLINE
5
D9
100
AcDbEntity
8
1
62
256
6
ByLayer
370
18
48
1
60
0
100
AcDbSpline
70
4
71
3
72
18
73
14
40
0
40
0
40
0
40
0
40
0.0157923844671072
40
0.0157923844671072
40
0.238811095461892
40
0.238811095461892
40
0.4618925522511
40
0.4618925522511
40
0.697221985203082
40
0.697221985203082
40
0.954485725072596
40
0.954485725072596
40
1
40
1
40
1
40
1
41
1
10
14.3499999999999
20
2.60549999999995
30
0
41
1
10
14.3464730096042
20
2.60549999999995
30
0
41
1
10
14.3429457593785
20
2.60553863924042
30
0
41
1
10
14.2902320617184
20
2.60669361826268
30
0
41
1
10
14.2406001967535
20
2.61554678582337
30
0
41
1
10
14.1484717102424
20
2.64686055907399
30
0
41
1
10
14.1047865104682
20
2.66969239646903
30
0
41
1
10
14.0260365031901
20
2.7267947244228
30
0
41
1
10
13.9905591865772
20
2.76229930132226
30
0
41
1
10
13.9306097965799
20
2.84321303597463
30
0
41
1
10
13.9066723275177
20
2.89021690075009
30
0
41
1
10
13.8881117339851
20
2.94697206899181
30
0
41
1
10
13.8855473924984
20
2.95563236380846
30
0
41
1
10
13.8832332205244
20
2.9643316724034
30
0
0
SPLINE
5
DA
100
AcDbEntity
8
1
62
256
6
ByLayer
370
18
48
1
60
0
100
AcDbSpline
70
4
71
3
72
12
73
8
40
0
40
0
40
0
40
0
40
0.455353062346809
40
0.455353062346809
40
0.827333545905724
40
0.827333545905724
40
1
40
1
40
1
40
1
41
1
10
11.9977970005681
20
6.23293187163012
30
0
41
1
10
12.0830288936759
20
6.14832787316547
30
0
41
1
10
12.1577281806254
20
6.04740784593116
30
0
41
1
10
12.2617358000774
20
5.84179317452734
30
0
41
1
10
12.2977816418946
20
5.73873170351476
30
0
41
1
10
12.3281708432747
20
5.58125860275331
30
0
41
1
10
12.3346282332608
20
5.52963974960497
30
0
41
1
10
12.3375606880437
20
5.47784726997742
30
0
0
SPLINE
5
DB
100
AcDbEntity
8
1
62
256
6
ByLayer
370
18
48
1
60
0
100
AcDbSpline
70
4
71
3
72
16
73
12
40
0
40
0
40
0
40
0
40
0.191930281182739
40
0.191930281182739
40
0.488707775608026
40
0.488707775608026
40
0.756688906725736
40
0.756688906725736
40
0.994950483060348
40
0.994950483060348
40
1
40
1
40
1
40
1
41
1
10
11.9977970005652
20
6.23293187162682
30
0
41
1
10
11.9710214643373
20
6.25951015521659
30
0
41
1
10
11.9469247874563
20
6.28972378361996
30
0
41
1
10
11.8954314204745
20
6.3734482684759
30
0
41
1
10
11.8726387319834
20
6.4323143864776
30
0
41
1
10
11.8524886700382
20
6.54946561846893
30
0
41
1
10
11.8526841067729
20
6.60908034869365
30
0
41
1
10
11.8734651759509
20
6.71768198350969
30
0
41
1
10
11.8921409914944
20
6.76866200997415
30
0
41
1
10
11.9187875582715
20
6.81551023611084
30
0
41
1
10
11.919352734855
20
6.81649578458706
30
0
41
1
10
11.9199213772817
20
6.81747931921018
30
0
0
SPLINE
5
DC
100
AcDbEntity
8
1
62
256
6
ByLayer
370
18
48
1
60
0
100
AcDbSpline
70
4
71
3
72
18
73
14
40
0
40
0
40
0
40
0
40
0.0173285944903327
40
0.0173285944903327
40
0.239841647765373
40
0.239841647765373
40
0.462510527753949
40
0.462510527753949
40
0.697478079776751
40
0.697478079776751
40
0.95439220234841
40
0.95439220234841
40
1
40
1
40
1
40
1
41
1
10
11.9199213772817
20
4.00752068078975
30
0
41
1
10
11.91798070293
20
4.01087730760349
30
0
41
1
10
11.9160802821221
20
4.01425760618608
30
0
41
1
10
11.8906332592298
20
4.06082424807974
30
0
41
1
10
11.8735628407803
20
4.10824494326957
30
0
41
1
10
11.8547609531242
20
4.20370168370815
30
0
41
1
10
11.8527648587477
20
4.25295286274465
30
0
41
1
10
11.8629866118793
20
4.34970120981669
30
0
41
1
10
11.8760730914401
20
4.39816982818732
30
0
41
1
10
11.9163294536159
20
4.49051298492367
30
0
41
1
10
11.9451516213949
20
4.53471764470666
30
0
41
1
10
11.9851348030685
20
4.57914196762445
30
0
41
1
10
11.9913860729219
20
4.58570442937219
30
0
41
1
10
11.9977970005681
20
4.59206812836982
30
0
0
SPLINE
5
DD
100
AcDbEntity
8
1
62
256
6
ByLayer
370
18
48
1
60
0
100
AcDbSpline
70
4
71
3
72
18
73
14
40
0
40
0
40
0
40
0
40
0.181612675763434
40
0.181612675763434
40
0.360704962161441
40
0.360704962161441
40
0.541858957768575
40
0.541858957768575
40
0.695330353238802
40
0.695330353238802
40
0.891708592214991
40
0.891708592214991
40
1
40
1
40
1
40
1
41
1
10
14.8167667794752
20
2.9643316724034
30
0
41
1
10
14.84316537333
20
3.06356782122461
30
0
41
1
10
14.8836157753468
20
3.16185999741444
30
0
41
1
10
14.9919947765957
20
3.34564601643299
30
0
41
1
10
15.0610858438142
20
3.43333901470314
30
0
41
1
10
15.2249292154153
20
3.58714331940035
30
0
41
1
10
15.3228271976652
20
3.65512401824535
30
0
41
1
10
15.5139334587058
20
3.74860342666531
30
0
41
1
10
15.6078204891179
20
3.78023345322251
30
0
41
1
10
15.8187995200451
20
3.82372848042019
30
0
41
1
10
15.9385309194923
20
3.82872858458035
30
0
41
1
10
16.1146112708122
20
3.81068862428933
30
0
41
1
10
16.1762400013983
20
3.79914926125406
30
0
41
1
10
16.2358011562703
20
3.78303585934631
30
0
0
SPLINE
5
DE
100
AcDbEntity
8
1
62
256
6
ByLayer
370
18
48
1
60
0
100
AcDbSpline
70
4
71
3
72
18
73
14
40
0
40
0
40
0
40
0
40
0.181666908878575
40
0.181666908878575
40
0.360750617017818
40
0.360750617017818
40
0.541895453074698
40
0.541895453074698
40
0.695365105948638
40
0.695365105948638
40
0.891753383060554
40
0.891753383060554
40
1
40
1
40
1
40
1
41
1
10
16.2358011562701
20
7.04196414065433
30
0
41
1
10
16.1366484671723
20
7.01513982650027
30
0
41
1
10
16.0312756755241
20
7.00096024593515
30
0
41
1
10
15.8178933346767
20
7.00281395310353
30
0
41
1
10
15.7073993968489
20
7.01874262300365
30
0
41
1
10
15.4922541831346
20
7.08361400515474
30
0
41
1
10
15.3844106004873
20
7.13434413957171
30
0
41
1
10
15.2078436255826
20
7.25300412179092
30
0
41
1
10
15.133473357607
20
7.31845422462322
30
0
41
1
10
14.9902247488766
20
7.47934033730437
30
0
41
1
10
14.9259704993083
20
7.58049807468674
30
0
41
1
10
14.8534717551391
20
7.74195116030253
30
0
41
1
10
14.8326236268417
20
7.80106013506108
30
0
41
1
10
14.8167667794746
20
7.86066832759639
30
0
0
SPLINE
5
DF
100
AcDbEntity
8
1
62
256
6
ByLayer
370
18
48
1
60
0
100
AcDbSpline
70
4
71
3
72
14
73
10
40
0
40
0
40
0
40
0
40
0.222411655270663
40
0.222411655270663
40
0.515858824453686
40
0.515858824453686
40
0.780847480391331
40
0.780847480391331
40
1
40
1
40
1
40
1
41
1
10
12.46419884373
20
3.78303585934413
30
0
41
1
10
12.4220984987036
20
3.77164622492009
30
0
41
1
10
12.3775208528568
20
3.76579564354961
30
0
41
1
10
12.2734775128697
20
3.76697802898784
30
0
41
1
10
12.2120206515667
20
3.77892053886674
30
0
41
1
10
12.1029872110551
20
3.82364844496843
30
0
41
1
10
12.0530145077153
20
3.855090444784
30
0
41
1
10
11.9752539436448
20
3.92684984498476
30
0
41
1
10
11.9441728549133
20
3.96557486951974
30
0
41
1
10
11.9199213772817
20
4.00752068078975
30
0
0
SPLINE
5
E0
100
AcDbEntity
8
1
62
256
6
ByLayer
370
18
48
1
60
0
100
AcDbSpline
70
4
71
3
72
14
73
10
40
0
40
0
40
0
40
0
40
0.219116464512353
40
0.219116464512353
40
0.512971212475588
40
0.512971212475588
40
0.778318620253407
40
0.778318620253407
40
1
40
1
40
1
40
1
41
1
10
16.2358011562696
20
7.04196414065601
30
0
41
1
10
16.2772802266617
20
7.05318569828742
30
0
41
1
10
16.3211569919017
20
7.05903137643688
30
0
41
1
10
16.4245700582765
20
7.0582856818418
30
0
41
1
10
16.4861281818992
20
7.04657916499312
30
0
41
1
10
16.5954305674516
20
7.00222808006379
30
0
41
1
10
16.6455690842404
20
6.9709392425724
30
0
41
1
10
16.7240231322849
20
6.89904237532792
30
0
41
1
10
16.75554852466
20
6.85990703760342
30
0
41
1
10
16.780078622718
20
6.81747931921018
30
0
0
SPLINE
5
E1
100
AcDbEntity
8
1
62
256
6
ByLayer
370
18
48
1
60
0
100
AcDbSpline
70
4
71
3
72
12
73
8
40
0
40
0
40
0
40
0
40
0.368706056538494
40
0.368706056538494
40
0.737980850952356
40
0.737980850952356
40
1
40
1
40
1
40
1
41
1
10
12.3375606880437
20
5.34715273002249
30
0
41
1
10
12.3313810944147
20
5.23800987843941
30
0
41
1
10
12.3090732069272
20
5.12914825590568
30
0
41
1
10
12.2392126889779
20
4.92999036871572
30
0
41
1
10
12.1909460256158
20
4.83692722242634
30
0
41
1
10
12.0930049666666
20
4.69548905760621
30
0
41
1
10
12.0472547020967
20
4.64116148006738
30
0
41
1
10
11.9977970005681
20
4.59206812836979
30
0
0
SPLINE
5
E2
100
AcDbEntity
8
1
62
256
6
ByLayer
370
18
48
1
60
0
100
AcDbSpline
70
4
71
3
72
14
73
10
40
0
40
0
40
0
40
0
40
0.2201700379591
40
0.2201700379591
40
0.513894544314541
40
0.513894544314541
40
0.779127126142502
40
0.779127126142502
40
1
40
1
40
1
40
1
41
1
10
14.8167667794769
20
2.96433167240301
30
0
41
1
10
14.8056672194857
20
2.922606814132
30
0
41
1
10
14.7886559514448
20
2.88150108159351
30
0
41
1
10
14.7360280644163
20
2.79224245971429
30
0
41
1
10
14.6950327446087
20
2.74487543405638
30
0
41
1
10
14.6018667893727
20
2.67258365220937
30
0
41
1
10
14.5496677430621
20
2.64490899809383
30
0
41
1
10
14.4483054575269
20
2.61314633608828
30
0
41
1
10
14.3988305749587
20
2.60549999999995
30
0
41
1
10
14.3499999999999
20
2.60549999999995
30
0
0
SPLINE
5
E3
100
AcDbEntity
8
1
62
256
6
ByLayer
370
18
48
1
60
0
100
AcDbSpline
70
4
71
3
72
18
73
14
40
0
40
0
40
0
40
0
40
0.0150229386922508
40
0.0150229386922508
40
0.237604440562224
40
0.237604440562224
40
0.460204731428098
40
0.460204731428098
40
0.694992075280028
40
0.694992075280028
40
0.951641525778768
40
0.951641525778768
40
1
40
1
40
1
40
1
41
1
10
16.780078622718
20
6.81747931921018
30
0
41
1
10
16.7817615942787
20
6.81456841998443
30
0
41
1
10
16.7834142774076
20
6.8116397490837
30
0
41
1
10
16.8087692760005
20
6.76559206826636
30
0
41
1
10
16.8259974141088
20
6.71820390746319
30
0
41
1
10
16.8450960858193
20
6.62278515642177
30
0
41
1
10
16.8472443400598
20
6.57353995133968
30
0
41
1
10
16.8373217764368
20
6.47677929247513
30
0
41
1
10
16.8243922232512
20
6.42828745515035
30
0
41
1
10
16.7844502710445
20
6.33586243531738
30
0
41
1
10
16.7557916634703
20
6.29159141129665
30
0
41
1
10
16.7156161608077
20
6.24664772247581
30
0
41
1
10
16.7089992246003
20
6.23967802970279
30
0
41
1
10
16.7022029994316
20
6.23293187163009
30
0
0
SPLINE
5
E4
100
AcDbEntity
8
1
62
256
6
ByLayer
370
18
48
1
60
0
100
AcDbSpline
70
4
71
3
72
12
73
8
40
0
40
0
40
0
40
0
40
0.455353062347104
40
0.455353062347104
40
0.827333545906266
40
0.827333545906266
40
1
40
1
40
1
40
1
41
1
10
16.7022029994316
20
4.59206812836979
30
0
41
1
10
16.6169711063238
20
4.67667212683446
30
0
41
1
10
16.5422718193743
20
4.77759215406874
30
0
41
1
10
16.4382641999222
20
4.98320682547259
30
0
41
1
10
16.4022183581051
20
5.08626829648514
30
0
41
1
10
16.371829156725
20
5.24374139724662
30
0
41
1
10
16.3653717667388
20
5.29536025039494
30
0
41
1
10
16.362439311956
20
5.34715273002249
30
0
0
SPLINE
5
E5
100
AcDbEntity
8
1
62
256
6
ByLayer
370
18
48
1
60
0
100
AcDbSpline
70
4
71
3
72
16
73
12
40
0
40
0
40
0
40
0
40
0.218557773056347
40
0.218557773056347
40
0.441067473679256
40
0.441067473679256
40
0.674801337484699
40
0.674801337484699
40
0.929688497508485
40
0.929688497508485
40
1
40
1
40
1
40
1
41
1
10
16.780078622718
20
4.00752068078975
30
0
41
1
10
16.7559455888971
20
3.96577973215975
30
0
41
1
10
16.7250527149333
20
3.92722937044843
30
0
41
1
10
16.6543152640529
20
3.86175760272482
30
0
41
1
10
16.6134276553377
20
3.83420463464196
30
0
41
1
10
16.5258503446473
20
3.79222274849903
30
0
41
1
10
16.4778941267025
20
3.7779539696445
30
0
41
1
10
16.3786459740658
20
3.76374041878668
30
0
41
1
10
16.3262093904104
20
3.76497292025917
30
0
41
1
10
16.2628470541121
20
3.77634087127319
30
0
41
1
10
16.2492131529495
20
3.77940743922264
30
0
41
1
10
16.2358011562701
20
3.78303585934555
30
0
0
SPLINE
5
E6
100
AcDbEntity
8
1
62
256
6
ByLayer
370
18
48
1
60
0
100
AcDbSpline
70
4
71
3
72
16
73
12
40
0
40
0
40
0
40
0
40
0.21862073263723
40
0.21862073263723
40
0.441132096326309
40
0.441132096326309
40
0.674870839126927
40
0.674870839126927
40
0.929765351321931
40
0.929765351321931
40
1
40
1
40
1
40
1
41
1
10
11.9199213772817
20
6.81747931921018
30
0
41
1
10
11.9440613583092
20
6.85923228385931
30
0
41
1
10
11.9749652609369
20
6.89779289412101
30
0
41
1
10
12.0457183219904
20
6.96326774515944
30
0
41
1
10
12.0866082715035
20
6.99081711895016
30
0
41
1
10
12.1741895959299
20
7.0327916326037
30
0
41
1
10
12.2221475197233
20
7.04705631980909
30
0
41
1
10
12.3213982636593
20
7.06126119779788
30
0
41
1
10
12.3738356388484
20
7.06002385148042
30
0
41
1
10
12.4371826459674
20
7.04865244901166
30
0
41
1
10
12.4508014492004
20
7.04558861037847
30
0
41
1
10
12.4641988437296
20
7.04196414065436
30
0
0
SPLINE
5
E7
100
AcDbEntity
8
1
62
256
6
ByLayer
370
18
48
1
60
0
100
AcDbSpline
70
4
71
3
72
12
73
8
40
0
40
0
40
0
40
0
40
0.368706056448695
40
0.368706056448695
40
0.737980850847994
40
0.737980850847994
40
1
40
1
40
1
40
1
41
1
10
16.362439311956
20
5.47784726997742
30
0
41
1
10
16.3686189055835
20
5.586990121534
30
0
41
1
10
16.3909267930614
20
5.69585174404128
30
0
41
1
10
16.4607873109884
20
5.8950096312106
30
0
41
1
10
16.5090539743428
20
5.98807277750123
30
0
41
1
10
16.6069950332968
20
6.12951094235055
30
0
41
1
10
16.6527452978834
20
6.18383851991311
30
0
41
1
10
16.7022029994316
20
6.23293187163012
30
0
0
SPLINE
5
E8
100
AcDbEntity
8
1
62
256
6
ByLayer
370
18
48
1
60
0
100
AcDbSpline
70
4
71
3
72
16
73
12
40
0
40
0
40
0
40
0
40
0.191836824669049
40
0.191836824669049
40
0.488625600663329
40
0.488625600663329
40
0.756617127620188
40
0.756617127620188
40
0.99488562644998
40
0.99488562644998
40
1
40
1
40
1
40
1
41
1
10
16.7022029994345
20
4.59206812837309
30
0
41
1
10
16.7289655572959
20
4.5655027275395
30
0
41
1
10
16.7530517894596
20
4.53530563709478
30
0
41
1
10
16.8045455835095
20
4.45160245119482
30
0
41
1
10
16.8273454613304
20
4.39273756016857
30
0
41
1
10
16.8475087167515
20
4.27558565055514
30
0
41
1
10
16.8473195131244
20
4.21596924093851
30
0
41
1
10
16.8265486102035
20
4.10736274709535
30
0
41
1
10
16.8078772017482
20
4.05637964553532
30
0
41
1
10
16.7812269493293
20
4.00951506340888
30
0
41
1
10
16.7806545636872
20
4.00851683910903
30
0
41
1
10
16.780078622718
20
4.00752068078975
30
0
0
SPLINE
5
E9
100
AcDbEntity
8
1
62
256
6
ByLayer
370
18
48
1
60
0
100
AcDbSpline
70
4
71
3
72
14
73
10
40
0
40
0
40
0
40
0
40
0.220792708734969
40
0.220792708734969
40
0.514440208322322
40
0.514440208322322
40
0.779604980836363
40
0.779604980836363
40
1
40
1
40
1
40
1
41
1
10
13.8832332205228
20
7.86066832759687
30
0
41
1
10
13.8943640459225
20
7.90251071707951
30
0
41
1
10
13.9114407543236
20
7.94373156897492
30
0
41
1
10
13.9641996246415
20
8.03305205926148
30
0
41
1
10
14.0052239912513
20
8.08038021288908
30
0
41
1
10
14.0984261881923
20
8.15259237023142
30
0
41
1
10
14.15063462289
20
8.18022541378002
30
0
41
1
10
14.2519088779038
20
8.21188757569035
30
0
41
1
10
14.3012746101241
20
8.21949999999995
30
0
41
1
10
14.3499999999999
20
8.21949999999995
30
0
0
SPLINE
5
EA
100
AcDbEntity
8
1
62
256
6
ByLayer
370
18
48
1
60
0
100
AcDbSpline
70
4
71
3
72
18
73
14
40
0
40
0
40
0
40
0
40
0.181347322288274
40
0.181347322288274
40
0.360491893295297
40
0.360491893295297
40
0.541701215502888
40
0.541701215502888
40
0.695189055143497
40
0.695189055143497
40
0.89152626545883
40
0.89152626545883
40
1
40
1
40
1
40
1
41
1
10
12.4641988437295
20
3.78303585934557
30
0
41
1
10
12.5631778335095
20
3.80981318168213
30
0
41
1
10
12.6683526563044
20
3.82398999892584
30
0
41
1
10
12.8815634124242
20
3.82224287813628
30
0
41
1
10
12.9920917073036
20
3.8063614825796
30
0
41
1
10
13.2073243078437
20
3.74156255186639
30
0
41
1
10
13.3152243274796
20
3.69085653161053
30
0
41
1
10
13.4918758315761
20
3.57222237022396
30
0
41
1
10
13.5662794422928
20
3.50678327831932
30
0
41
1
10
13.7095683332406
20
3.34594310858307
30
0
41
1
10
13.7738422271741
20
3.2448244174428
30
0
41
1
10
13.8464418767042
20
3.08329355141805
30
0
41
1
10
13.8673436078639
20
3.02406303443894
30
0
41
1
10
13.8832332205251
20
2.96433167240355
30
0
0
SPLINE
5
EB
100
AcDbEntity
8
1
62
256
6
ByLayer
370
18
48
1
60
0
100
AcDbSpline
70
4
71
3
72
18
73
14
40
0
40
0
40
0
40
0
40
0.181752771450187
40
0.181752771450187
40
0.360818406833423
40
0.360818406833423
40
0.541944163041261
40
0.541944163041261
40
0.695407615755985
40
0.695407615755985
40
0.891808268956473
40
0.891808268956473
40
1
40
1
40
1
40
1
41
1
10
13.8832332205244
20
7.8606683275965
30
0
41
1
10
13.8568143498754
20
7.76135595536027
30
0
41
1
10
13.8163215393519
20
7.66298804678306
30
0
41
1
10
13.7078644062601
20
7.47916032013791
30
0
41
1
10
13.6387629402267
20
7.39149072916746
30
0
41
1
10
13.4749112530844
20
7.23773547728158
30
0
41
1
10
13.3770165049069
20
7.16978148262089
30
0
41
1
10
13.1859189844751
20
7.07633981208485
30
0
41
1
10
13.0920350840379
20
7.04472485397071
30
0
41
1
10
12.8810474443437
20
7.00125520435398
30
0
41
1
10
12.7613055341863
20
6.99627113264415
30
0
41
1
10
12.5852768627444
20
7.0143323112012
30
0
41
1
10
12.5237060408919
20
7.02586533621735
30
0
41
1
10
12.4641988437293
20
7.04196414065362
30
0
0
SPLINE
5
EC
100
AcDbEntity
8
1
62
256
6
ByLayer
370
18
48
1
60
0
100
AcDbSpline
70
4
71
3
72
18
73
14
40
0
40
0
40
0
40
0
40
0.0162289153285378
40
0.0162289153285378
40
0.239234459040957
40
0.239234459040957
40
0.462328698874893
40
0.462328698874893
40
0.697692042263413
40
0.697692042263413
40
0.955005672045983
40
0.955005672045983
40
1
40
1
40
1
40
1
41
1
10
14.3499999999999
20
8.21949999999995
30
0
41
1
10
14.3536242766894
20
8.21949999999995
30
0
41
1
10
14.3572488353029
20
8.21945919936124
30
0
41
1
10
14.4100561366261
20
8.21827024359712
30
0
41
1
10
14.4596784109303
20
8.20938819618419
30
0
41
1
10
14.5517850503579
20
8.17802227881322
30
0
41
1
10
14.5954568409306
20
8.15516498505562
30
0
41
1
10
14.6741765483863
20
8.09801487893009
30
0
41
1
10
14.7096352317557
20
8.06248682706894
30
0
41
1
10
14.7695415102291
20
7.98152940017221
30
0
41
1
10
14.7934526634121
20
7.93450505354625
30
0
41
1
10
14.8119466966159
20
7.87783049166663
30
0
41
1
10
14.8144789819862
20
7.86926849067143
30
0
41
1
10
14.8167667794752
20
7.8606683275965
30
0
0
SPLINE
5
ED
100
AcDbEntity
8
1
62
256
6
ByLayer
370
18
48
1
60
0
100
AcDbSpline
70
4
71
2
72
6
73
3
40
0
40
0
40
0
40
1
40
1
40
1
41
1
10
26.0777346738575
20
17.7327887043921
30
0
41
1
10
26.1009625305676
20
17.3820527839449
30
0
41
1
10
26.1330853518301
20
17.0448668305907
30
0
0
SPLINE
5
EE
100
AcDbEntity
8
1
62
256
6
ByLayer
370
18
48
1
60
0
100
AcDbSpline
70
4
71
2
72
6
73
3
40
0
40
0
40
0
40
1
40
1
40
1
41
1
10
26.1330853518221
20
17.0448668306203
30
0
41
1
10
26.1431766319907
20
16.9394907517282
30
0
41
1
10
26.163887568156
20
16.8690261768005
30
0
0
SPLINE
5
EF
100
AcDbEntity
8
1
62
256
6
ByLayer
370
18
48
1
60
0
100
AcDbSpline
70
4
71
2
72
10
73
7
40
0
40
0
40
0
40
0.5
40
0.5
40
0.75
40
0.75
40
1
40
1
40
1
41
1
10
25.222267476262
20
17.7328211835004
30
0
41
1
10
25.2375343736815
20
17.9630090492968
30
0
41
1
10
25.273741643263
20
18.1438994958523
30
0
41
1
10
25.2970238717702
20
18.2602168199743
30
0
41
1
10
25.3269810514918
20
18.3440407125726
30
0
41
1
10
25.3781228301936
20
18.4871417322623
30
0
41
1
10
25.4392644130281
20
18.5124902265207
30
0
0
SPLINE
5
F0
100
AcDbEntity
8
1
62
256
6
ByLayer
370
18
48
1
60
0
100
AcDbSpline
70
4
71
2
72
6
73
3
40
0
40
0
40
0
40
1
40
1
40
1
41
1
10
25.439264412942
20
18.5124902266708
30
0
41
1
10
25.5344087349086
20
18.5509919085573
30
0
41
1
10
25.6299999993024
20
18.5511043049807
30
0
0
SPLINE
5
F1
100
AcDbEntity
8
1
62
256
6
ByLayer
370
18
48
1
60
0
100
AcDbSpline
70
4
71
3
72
8
73
4
40
0
40
0
40
0
40
0
40
1
40
1
40
1
40
1
41
1
10
25.8607355870581
20
18.51249022667
30
0
41
1
10
25.7971570582712
20
18.5253615861066
30
0
41
1
10
25.7335785294844
20
18.5382329455433
30
0
41
1
10
25.6700000006977
20
18.55110430498
30
0
0
SPLINE
5
F2
100
AcDbEntity
8
1
62
256
6
ByLayer
370
18
48
1
60
0
100
AcDbSpline
70
4
71
3
72
11
73
7
40
0
40
0
40
0
40
0
40
0.50193848868467
40
0.752534241960596
40
0.90562517099346
40
1
40
1
40
1
40
1
41
1
10
26.0777325237381
20
17.7328211835
30
0
41
1
10
26.0657895888958
20
17.8711304670973
30
0
41
1
10
26.0478840733377
20
18.0784914769309
30
0
41
1
10
25.9840304592085
20
18.317623575888
30
0
41
1
10
25.9356811930592
20
18.4512853803522
30
0
41
1
10
25.8814264558369
20
18.4955928857408
30
0
41
1
10
25.860735586972
20
18.51249022652
30
0
0
SPLINE
5
F3
100
AcDbEntity
8
1
62
256
6
ByLayer
370
18
48
1
60
0
100
AcDbSpline
70
4
71
3
72
8
73
4
40
0
40
0
40
0
40
0
40
1
40
1
40
1
40
1
41
1
10
25.2222653261451
20
17.7327887043916
30
0
41
1
10
25.2038151001534
20
17.5034814131244
30
0
41
1
10
25.1853648741617
20
17.2741741218572
30
0
41
1
10
25.16691464817
20
17.04486683059
30
0
0
SPLINE
5
F4
100
AcDbEntity
8
1
62
256
6
ByLayer
370
18
48
1
60
0
100
AcDbSpline
70
4
71
3
72
8
73
4
40
0
40
0
40
0
40
0
40
1
40
1
40
1
40
1
41
1
10
25.1669146481781
20
17.04486683062
30
0
41
1
10
25.1566472427335
20
16.9862532793466
30
0
41
1
10
25.1463798372888
20
16.9276397280733
30
0
41
1
10
25.1361124318441
20
16.8690261768
30
0
0
INSERT
5
106
100
AcDbEntity
8
2
62
256
6
ByLayer
370
25
48
1
60
0
100
AcDbBlockReference
2
DimnDraft3D11
10
0
20
0
30
0
41
1
42
1
43
1
50
0
210
0
220
0
230
1
0
LINE
5
73
100
AcDbEntity
8
80
62
256
6
ByLayer
370
18
48
1
60
0
100
AcDbLine
10
0
20
0
30
0
11
-5
21
0
31
0
39
0
210
0
220
0
230
1
0
LINE
5
74
100
AcDbEntity
8
81
62
256
6
ByLayer
370
18
48
1
60
0
100
AcDbLine
10
28.65
20
22.5625
30
0
11
33.65
21
22.5625
31
0
39
0
210
0
220
0
230
1
0
LINE
5
75
100
AcDbEntity
8
1
62
256
6
ByLayer
370
18
48
1
60
0
100
AcDbLine
10
0.5
20
-12.439682
30
0
11
0
21
-12.4375
31
0
39
0
210
0
220
0
230
1
0
LINE
5
77
100
AcDbEntity
8
1
62
256
6
ByLayer
370
18
48
1
60
0
100
AcDbLine
10
28.325
20
6.632086
30
0
11
28.325
21
14.299285
31
0
39
0
210
0
220
0
230
1
0
LINE
5
78
100
AcDbEntity
8
1
62
256
6
ByLayer
370
18
48
1
60
0
100
AcDbLine
10
0
20
-12.4375
30
0
11
0
21
12.4375
31
0
39
0
210
0
220
0
230
1
0
LINE
5
79
100
AcDbEntity
8
1
62
256
6
ByLayer
370
18
48
1
60
0
100
AcDbLine
10
0.5
20
-12.439682
30
0
11
2.301958
21
-12.469025
31
0
39
0
210
0
220
0
230
1
0
LINE
5
7A
100
AcDbEntity
8
1
62
256
6
ByLayer
370
18
48
1
60
0
100
AcDbLine
10
0.5
20
12.9375
30
0
11
0.5
21
-12.439682
31
0
39
0
210
0
220
0
230
1
0
LINE
5
7B
100
AcDbEntity
8
1
62
256
6
ByLayer
370
18
48
1
60
0
100
AcDbLine
10
25.375
20
14.871723
30
0
11
25.925
21
14.871723
31
0
39
0
210
0
220
0
230
1
0
LINE
5
7C
100
AcDbEntity
8
1
62
256
6
ByLayer
370
18
48
1
60
0
100
AcDbLine
10
0.533494
20
13.0625
30
0
11
0.5
21
12.9375
31
0
39
0
210
0
220
0
230
1
0
LINE
5
7D
100
AcDbEntity
8
1
62
256
6
ByLayer
370
18
48
1
60
0
100
AcDbLine
10
21.375
20
6.632086
30
0
11
21.375
21
13.0625
31
0
39
0
210
0
220
0
230
1
0
LINE
5
7E
100
AcDbEntity
8
1
62
256
6
ByLayer
370
18
48
1
60
0
100
AcDbLine
10
0.533494
20
13.0625
30
0
11
2.301958
21
13.0625
31
0
39
0
210
0
220
0
230
1
0
LINE
5
7F
100
AcDbEntity
8
1
62
256
6
ByLayer
370
18
48
1
60
0
100
AcDbLine
10
24.793475
20
-12.469025
30
0
11
28.325
21
-8.9375
31
0
39
0
210
0
220
0
230
1
0
LINE
5
80
100
AcDbEntity
8
1
62
256
6
ByLayer
370
18
48
1
60
0
100
AcDbLine
10
2.301958
20
-12.469025
30
0
11
24.793475
21
-12.469025
31
0
39
0
210
0
220
0
230
1
0
LINE
5
81
100
AcDbEntity
8
1
62
256
6
ByLayer
370
18
48
1
60
0
100
AcDbLine
10
2.301958
20
13.0625
30
0
11
2.301958
21
-12.469025
31
0
39
0
210
0
220
0
230
1
0
LINE
5
82
100
AcDbEntity
8
1
62
256
6
ByLayer
370
18
48
1
60
0
100
AcDbLine
10
28.325
20
14.29907
30
0
11
28.325
21
16.73987
31
0
39
0
210
0
220
0
230
1
0
LINE
5
83
100
AcDbEntity
8
1
62
256
6
ByLayer
370
18
48
1
60
0
100
AcDbLine
10
28.325
20
6.632086
30
0
11
21.375
21
6.632086
31
0
39
0
210
0
220
0
230
1
0
LINE
5
84
100
AcDbEntity
8
1
62
256
6
ByLayer
370
18
48
1
60
0
100
AcDbLine
10
2.301958
20
13.0625
30
0
11
21.375
21
13.0625
31
0
39
0
210
0
220
0
230
1
0
LINE
5
85
100
AcDbEntity
8
1
62
256
6
ByLayer
370
18
48
1
60
0
100
AcDbLine
10
28.325
20
6.632086
30
0
11
28.325
21
-8.9375
31
0
39
0
210
0
220
0
230
1
0
LINE
5
86
100
AcDbEntity
8
1
62
256
6
ByLayer
370
18
48
1
60
0
100
AcDbLine
10
22.975
20
16.740059
30
0
11
22.975
21
14.6625
31
0
39
0
210
0
220
0
230
1
0
LINE
5
87
100
AcDbEntity
8
1
62
256
6
ByLayer
370
18
48
1
60
0
100
AcDbLine
10
0.5
20
12.9375
30
0
11
0
21
12.4375
31
0
39
0
210
0
220
0
230
1
0
LINE
5
88
100
AcDbEntity
8
SK1
62
256
6
ByLayer
370
18
48
1
60
0
100
AcDbLine
10
-122.7
20
12.4375
30
0
11
-122.7
21
-12.4375
31
0
39
0
210
0
220
0
230
1
0
LINE
5
8A
100
AcDbEntity
8
SK1
62
256
6
ByLayer
370
18
48
1
60
0
100
AcDbLine
10
-122.7
20
-12.4375
30
0
11
0
21
-12.4375
31
0
39
0
210
0
220
0
230
1
0
LINE
5
8B
100
AcDbEntity
8
SK1
62
256
6
ByLayer
370
18
48
1
60
0
100
AcDbLine
10
0
20
12.4375
30
0
11
0
21
-12.4375
31
0
39
0
210
0
220
0
230
1
0
LINE
5
8C
100
AcDbEntity
8
SK1
62
256
6
ByLayer
370
18
48
1
60
0
100
AcDbLine
10
0
20
12.4375
30
0
11
-122.7
21
12.4375
31
0
39
0
210
0
220
0
230
1
0
LINE
5
8D
100
AcDbEntity
8
1
62
256
6
ByLayer
370
18
48
1
60
0
100
AcDbLine
10
28.482909
20
3.094989
30
0
11
28.325
21
3.384933
31
0
39
0
210
0
220
0
230
1
0
LINE
5
8E
100
AcDbEntity
8
1
62
256
6
ByLayer
370
18
48
1
60
0
100
AcDbLine
10
28.571078
20
0.419427
30
0
11
28.324977
21
0.419427
31
0
39
0
210
0
220
0
230
1
0
LINE
5
8F
100
AcDbEntity
8
1
62
256
6
ByLayer
370
18
48
1
60
0
100
AcDbLine
10
27.991384
20
15.180568
30
0
11
27.991384
21
14.347603
31
0
39
0
210
0
220
0
230
1
0
LINE
5
90
100
AcDbEntity
8
1
62
256
6
ByLayer
370
18
48
1
60
0
100
AcDbLine
10
28.008749
20
15.173984
30
0
11
28.008749
21
14.345125
31
0
39
0
210
0
220
0
230
1
0
LINE
5
91
100
AcDbEntity
8
1
62
256
6
ByLayer
370
18
48
1
60
0
100
AcDbLine
10
23.291251
20
15.173984
30
0
11
23.291251
21
14.345125
31
0
39
0
210
0
220
0
230
1
0
LINE
5
92
100
AcDbEntity
8
1
62
256
6
ByLayer
370
18
48
1
60
0
100
AcDbLine
10
23.308616
20
15.180568
30
0
11
23.308616
21
14.347603
31
0
39
0
210
0
220
0
230
1
0
LINE
5
93
100
AcDbEntity
8
1
62
256
6
ByLayer
370
18
48
1
60
0
100
AcDbLine
10
28.25
20
15.173984
30
0
11
28.25
21
14.310143
31
0
39
0
210
0
220
0
230
1
0
LINE
5
94
100
AcDbEntity
8
1
62
256
6
ByLayer
370
18
48
1
60
0
100
AcDbLine
10
23.05
20
15.173984
30
0
11
23.05
21
14.310143
31
0
39
0
210
0
220
0
230
1
0
LINE
5
95
100
AcDbEntity
8
1
62
256
6
ByLayer
370
18
48
1
60
0
100
AcDbLine
10
25.000066
20
16.47242
30
0
11
25.000066
21
14.592711
31
0
39
0
210
0
220
0
230
1
0
LINE
5
96
100
AcDbEntity
8
1
62
256
6
ByLayer
370
18
48
1
60
0
100
AcDbLine
10
26.299934
20
16.47242
30
0
11
26.299934
21
14.592711
31
0
39
0
210
0
220
0
230
1
0
LINE
5
97
100
AcDbEntity
8
1
62
256
6
ByLayer
370
18
48
1
60
0
100
AcDbLine
10
26.255665
20
16.557891
30
0
11
26.255665
21
14.599125
31
0
39
0
210
0
220
0
230
1
0
LINE
5
98
100
AcDbEntity
8
1
62
256
6
ByLayer
370
18
48
1
60
0
100
AcDbLine
10
25.044335
20
16.557891
30
0
11
25.044335
21
14.599125
31
0
39
0
210
0
220
0
230
1
0
LINE
5
99
100
AcDbEntity
8
1
62
256
6
ByLayer
370
18
48
1
60
0
100
AcDbLine
10
26.163888
20
14.628722
30
0
11
26.163888
21
16.869026
31
0
39
0
210
0
220
0
230
1
0
LINE
5
9A
100
AcDbEntity
8
1
62
256
6
ByLayer
370
18
48
1
60
0
100
AcDbLine
10
25.136112
20
14.628509
30
0
11
25.136112
21
16.869026
31
0
39
0
210
0
220
0
230
1
0
LINE
5
9B
100
AcDbEntity
8
1
62
256
6
ByLayer
370
18
48
1
60
0
100
AcDbLine
10
26.133085
20
17.044867
30
0
11
26.133085
21
14.655479
31
0
39
0
210
0
220
0
230
1
0
LINE
5
9C
100
AcDbEntity
8
1
62
256
6
ByLayer
370
18
48
1
60
0
100
AcDbLine
10
25.166915
20
17.044867
30
0
11
25.166915
21
14.654715
31
0
39
0
210
0
220
0
230
1
0
LINE
5
9D
100
AcDbEntity
8
1
62
256
6
ByLayer
370
18
48
1
60
0
100
AcDbLine
10
26.077733
20
17.732787
30
0
11
26.077733
21
14.764266
31
0
39
0
210
0
220
0
230
1
0
LINE
5
9E
100
AcDbEntity
8
1
62
256
6
ByLayer
370
18
48
1
60
0
100
AcDbLine
10
25.222267
20
17.732787
30
0
11
25.222267
21
14.764266
31
0
39
0
210
0
220
0
230
1
0
LINE
5
9F
100
AcDbEntity
8
1
62
256
6
ByLayer
370
18
48
1
60
0
100
AcDbLine
10
25.439264
20
14.871601
30
0
11
25.439264
21
18.51249
31
0
39
0
210
0
220
0
230
1
0
LINE
5
A0
100
AcDbEntity
8
1
62
256
6
ByLayer
370
18
48
1
60
0
100
AcDbLine
10
25.860736
20
14.871601
30
0
11
25.860736
21
18.51249
31
0
39
0
210
0
220
0
230
1
0
LINE
5
A1
100
AcDbEntity
8
1
62
256
6
ByLayer
370
18
48
1
60
0
100
AcDbLine
10
25.63
20
14.871692
30
0
11
25.63
21
18.551104
31
0
39
0
210
0
220
0
230
1
0
LINE
5
A2
100
AcDbEntity
8
1
62
256
6
ByLayer
370
18
48
1
60
0
100
AcDbLine
10
25.67
20
14.871692
30
0
11
25.67
21
18.551104
31
0
39
0
210
0
220
0
230
1
0
LINE
5
A3
100
AcDbEntity
8
1
62
256
6
ByLayer
370
18
48
1
60
0
100
AcDbLine
10
28.324923
20
-0.006182
30
0
11
28.549253
21
-0.006182
31
0
39
0
210
0
220
0
230
1
0
LINE
5
A4
100
AcDbEntity
8
1
62
256
6
ByLayer
370
18
48
1
60
0
100
AcDbLine
10
28.25
20
16.602355
30
0
11
28.25
21
15.173984
31
0
39
0
210
0
220
0
230
1
0
LINE
5
A5
100
AcDbEntity
8
1
62
256
6
ByLayer
370
18
48
1
60
0
100
AcDbLine
10
28.008749
20
15.173984
30
0
11
28.25
21
15.173984
31
0
39
0
210
0
220
0
230
1
0
LINE
5
A6
100
AcDbEntity
8
1
62
256
6
ByLayer
370
18
48
1
60
0
100
AcDbLine
10
28.482909
20
17.030011
30
0
11
28.571078
21
19.705573
31
0
39
0
210
0
220
0
230
1
0
LINE
5
A7
100
AcDbEntity
8
1
62
256
6
ByLayer
370
18
48
1
60
0
100
AcDbLine
10
26.163888
20
16.869026
30
0
11
26.255665
21
16.557891
31
0
39
0
210
0
220
0
230
1
0
LINE
5
A8
100
AcDbEntity
8
1
62
256
6
ByLayer
370
18
48
1
60
0
100
AcDbLine
10
26.299934
20
16.47242
30
0
11
27.991382
21
15.180566
31
0
39
0
210
0
220
0
230
1
0
LINE
5
A9
100
AcDbEntity
8
1
62
256
6
ByLayer
370
18
48
1
60
0
100
AcDbLine
10
28.482909
20
17.030011
30
0
11
28.25
21
16.602355
31
0
39
0
210
0
220
0
230
1
0
LINE
5
AA
100
AcDbEntity
8
1
62
256
6
ByLayer
370
18
48
1
60
0
100
AcDbLine
10
28.666197
20
22.139244
30
0
11
28.549253
21
20.131182
31
0
39
0
210
0
220
0
230
1
0
LINE
5
AB
100
AcDbEntity
8
1
62
256
6
ByLayer
370
18
48
1
60
0
100
AcDbLine
10
28.549253
20
20.131182
30
0
11
28.571078
21
19.705573
31
0
39
0
210
0
220
0
230
1
0
LINE
5
AC
100
AcDbEntity
8
1
62
256
6
ByLayer
370
18
48
1
60
0
100
AcDbLine
10
23.291251
20
15.173984
30
0
11
23.05
21
15.173984
31
0
39
0
210
0
220
0
230
1
0
LINE
5
AD
100
AcDbEntity
8
1
62
256
6
ByLayer
370
18
48
1
60
0
100
AcDbLine
10
23.033126
20
22.5625
30
0
11
28.266874
21
22.5625
31
0
39
0
210
0
220
0
230
1
0
LINE
5
AE
100
AcDbEntity
8
1
62
256
6
ByLayer
370
18
48
1
60
0
100
AcDbLine
10
25.63
20
18.551104
30
0
11
25.67
21
18.551104
31
0
39
0
210
0
220
0
230
1
0
LINE
5
AF
100
AcDbEntity
8
1
62
256
6
ByLayer
370
18
48
1
60
0
100
AcDbLine
10
28.571078
20
19.705573
30
0
11
22.728922
21
19.705573
31
0
39
0
210
0
220
0
230
1
0
LINE
5
B0
100
AcDbEntity
8
1
62
256
6
ByLayer
370
18
48
1
60
0
100
AcDbLine
10
22.817091
20
17.030011
30
0
11
23.05
21
16.602355
31
0
39
0
210
0
220
0
230
1
0
LINE
5
B1
100
AcDbEntity
8
1
62
256
6
ByLayer
370
18
48
1
60
0
100
AcDbLine
10
23.05
20
16.602355
30
0
11
23.05
21
15.173984
31
0
39
0
210
0
220
0
230
1
0
LINE
5
B2
100
AcDbEntity
8
1
62
256
6
ByLayer
370
18
48
1
60
0
100
AcDbLine
10
22.750747
20
20.131182
30
0
11
22.728922
21
19.705573
31
0
39
0
210
0
220
0
230
1
0
LINE
5
B3
100
AcDbEntity
8
1
62
256
6
ByLayer
370
18
48
1
60
0
100
AcDbLine
10
22.750747
20
20.131182
30
0
11
28.549253
21
20.131182
31
0
39
0
210
0
220
0
230
1
0
LINE
5
B4
100
AcDbEntity
8
1
62
256
6
ByLayer
370
18
48
1
60
0
100
AcDbLine
10
22.633803
20
22.139244
30
0
11
22.750747
21
20.131182
31
0
39
0
210
0
220
0
230
1
0
LINE
5
B5
100
AcDbEntity
8
1
62
256
6
ByLayer
370
18
48
1
60
0
100
AcDbLine
10
22.817091
20
17.030011
30
0
11
22.728922
21
19.705573
31
0
39
0
210
0
220
0
230
1
0
LINE
5
B6
100
AcDbEntity
8
1
62
256
6
ByLayer
370
18
48
1
60
0
100
AcDbLine
10
25.136112
20
16.869026
30
0
11
25.044335
21
16.557891
31
0
39
0
210
0
220
0
230
1
0
LINE
5
B7
100
AcDbEntity
8
1
62
256
6
ByLayer
370
18
48
1
60
0
100
AcDbLine
10
28.549253
20
-0.006182
30
0
11
28.571078
21
0.419427
31
0
39
0
210
0
220
0
230
1
0
LINE
5
B8
100
AcDbEntity
8
1
62
256
6
ByLayer
370
18
48
1
60
0
100
AcDbLine
10
28.666197
20
-2.014244
30
0
11
28.549253
21
-0.006182
31
0
39
0
210
0
220
0
230
1
0
LINE
5
B9
100
AcDbEntity
8
1
62
256
6
ByLayer
370
18
48
1
60
0
100
AcDbLine
10
28.482909
20
3.094989
30
0
11
28.571078
21
0.419427
31
0
39
0
210
0
220
0
230
1
0
LINE
5
BA
100
AcDbEntity
8
1
62
256
6
ByLayer
370
18
48
1
60
0
100
AcDbLine
10
25.000066
20
16.47242
30
0
11
23.308618
21
15.180566
31
0
39
0
210
0
220
0
230
1
0
MTEXT
5
F5
100
AcDbEntity
8
SK6
62
256
6
ByLayer
370
18
48
1
60
0
100
AcDbMText
10
-76.141563
20
-23.32825
30
0
210
0
220
0
230
1
1
\W0.7579;RG123K08-2525CM
40
3.5
41
0
44
1.084337
50
0
71
7
72
5
7
iso_b_vert
0
DIMENSION
5
115
100
AcDbEntity
8
SK2
62
256
6
ByLayer
370
13
48
1
60
0
100
AcDbDimension
2
DimnDraft3D2
10
-132.45
20
-12.4375
30
0
11
-132.45
21
-2.688158
31
0
70
32
71
5
72
1
41
1
210
0
220
0
230
1
3
Standard
100
AcDbAlignedDimension
13
-124.2
23
12.4375
33
0
14
-124.2
24
-12.4375
34
0
50
90
100
AcDbRotatedDimension
1001
ACAD
1000
DSTYLE
1002
{
1070
    74
1070
     0
1070
   279
1070
     0
1070
   172
1070
     1
1070
   173
1070
     1
1070
   340
1005
F6
1070
   271
1070
     3
1070
   272
1070
     3
1070
    77
1070
     1
1070
    73
1070
     0
1070
   171
1070
     4
1070
   274
1070
     4
1070
   177
1070
     2
1070
   176
1070
     2
1070
   178
1070
     7
1070
    78
1070
     8
1070
    41
1041
3.0
1070
   147
1041
2.25
1070
    42
1041
1.5
1070
    44
1041
3.0
1070
   140
1041
4.5
1070
   343
1005
116
1070
   344
1005
116
1002
}
0
DIMENSION
5
12A
100
AcDbEntity
8
2
62
256
6
ByLayer
370
13
48
1
60
0
100
AcDbDimension
2
DimnDraft3D3
10
42.9
20
14.5625
30
0
11
42.9
21
17.555921
31
0
70
32
71
5
72
1
41
1
210
0
220
0
230
1
3
Standard
100
AcDbAlignedDimension
13
30.15
23
22.5625
33
0
14
24.15
24
14.5625
34
0
50
90
100
AcDbRotatedDimension
1001
ACAD
1000
DSTYLE
1002
{
1070
    74
1070
     0
1070
   279
1070
     0
1070
   172
1070
     1
1070
   173
1070
     1
1070
   340
1005
F6
1070
   271
1070
     3
1070
   272
1070
     3
1070
    77
1070
     1
1070
    73
1070
     0
1070
   171
1070
     4
1070
   274
1070
     4
1070
   177
1070
     2
1070
   176
1070
     2
1070
   178
1070
     7
1070
    78
1070
     8
1070
    41
1041
3.0
1070
   147
1041
2.25
1070
    42
1041
1.5
1070
    44
1041
3.0
1070
   140
1041
4.5
1070
   343
1005
116
1070
   344
1005
116
1002
}
0
DIMENSION
5
138
100
AcDbEntity
8
2
62
256
6
ByLayer
370
13
48
1
60
0
100
AcDbDimension
2
DimnDraft3D4
10
52.9
20
22.5625
30
0
11
52.9
21
2.374342
31
0
70
32
71
5
72
1
41
1
210
0
220
0
230
1
3
Standard
100
AcDbAlignedDimension
13
1.5
23
-12.4375
33
0
14
30.15
24
22.5625
34
0
50
90
100
AcDbRotatedDimension
1001
ACAD
1000
DSTYLE
1002
{
1070
    74
1070
     0
1070
   279
1070
     0
1070
   172
1070
     1
1070
   173
1070
     1
1070
   340
1005
F6
1070
   271
1070
     3
1070
   272
1070
     3
1070
    77
1070
     1
1070
    73
1070
     0
1070
   171
1070
     4
1070
   274
1070
     4
1070
   177
1070
     2
1070
   176
1070
     2
1070
   178
1070
     7
1070
    78
1070
     8
1070
    41
1041
3.0
1070
   147
1041
2.25
1070
    42
1041
1.5
1070
    44
1041
3.0
1070
   140
1041
4.5
1070
   343
1005
116
1070
   344
1005
116
1002
}
0
DIMENSION
5
146
100
AcDbEntity
8
SK2
62
256
6
ByLayer
370
13
48
1
60
0
100
AcDbDimension
2
DimnDraft3D5
10
28.65
20
52.3125
30
0
11
-50.832237
21
52.3125
31
0
70
32
71
5
72
1
41
1
210
0
220
0
230
1
3
Standard
100
AcDbAlignedDimension
13
-122.7
23
13.9375
33
0
14
28.65
24
24.0625
34
0
50
0
100
AcDbRotatedDimension
1001
ACAD
1000
DSTYLE
1002
{
1070
   279
1070
     0
1070
   172
1070
     1
1070
   173
1070
     1
1070
   340
1005
F6
1070
   271
1070
     3
1070
   272
1070
     3
1070
    77
1070
     1
1070
    73
1070
     0
1070
   171
1070
     4
1070
   274
1070
     4
1070
   177
1070
     2
1070
   176
1070
     2
1070
   178
1070
     7
1070
    78
1070
     8
1070
    41
1041
3.0
1070
   147
1041
2.25
1070
    42
1041
1.5
1070
    44
1041
3.0
1070
   140
1041
4.5
1070
   343
1005
116
1070
   344
1005
116
1002
}
0
DIMENSION
5
154
100
AcDbEntity
8
2
62
256
6
ByLayer
370
13
48
1
60
0
100
AcDbDimension
2
DimnDraft3D6
10
28.65
20
32.3125
30
0
11
24.643421
21
32.3125
31
0
70
32
71
5
72
1
41
1
210
0
220
0
230
1
3
Standard
100
AcDbAlignedDimension
13
22.65
23
24.0625
33
0
14
28.65
24
24.0625
34
0
50
0
100
AcDbRotatedDimension
1001
ACAD
1000
DSTYLE
1002
{
1070
   279
1070
     0
1070
   172
1070
     1
1070
   173
1070
     1
1070
   340
1005
F6
1070
   271
1070
     3
1070
   272
1070
     3
1070
    77
1070
     1
1070
    73
1070
     0
1070
   171
1070
     4
1070
   274
1070
     4
1070
   177
1070
     2
1070
   176
1070
     2
1070
   178
1070
     7
1070
    78
1070
     8
1070
    41
1041
3.0
1070
   147
1041
2.25
1070
    42
1041
1.5
1070
    44
1041
3.0
1070
   140
1041
4.5
1070
   343
1005
116
1070
   344
1005
116
1002
}
0
ENDSEC
0
SECTION
2
OBJECTS
0
DICTIONARY
5
1be
330
0
100
AcDbDictionary
280
0
281
1
3
ACAD_GROUP
350
1bf
3
ACAD_MLINESTYLE
350
1c0
0
DICTIONARY
5
1bf
330
0
100
AcDbDictionary
280
0
281
1
0
DICTIONARY
5
1c0
330
0
100
AcDbDictionary
280
0
281
1
3
Standard
350
18
0
MLINESTYLE
5
18
330
1c0
100
AcDbMlineStyle
2
Standard
70
0
3

62
256
51
90
52
90
71
2
49
-0.5
62
256
6
ByLayer
49
0.5
62
256
6
ByLayer
0
RASTERVARIABLES
5
1ad
330

100
AcDbRasterVariables
90
0
70
1
71
1
72
1
0
ENDSEC
0
EOF
