0
SECTION
2
HEADER
9
$ACADVER
1
AC1015
9
$DWGCODEPAGE
3
ANSI_1252
9
$HANDSEED
5
1d5
9
$ANGBASE
50
0
9
$ANGDIR
70
0
9
$ATTMODE
70
1
9
$AUNITS
70
0
9
$AUPREC
70
0
9
$CECOLOR
62
256
9
$CELTSCALE
40
1
9
$CELTYPE
6
ByLayer
9
$CELWEIGHT
370
18
9
$CLAYER
8
0
9
$CMLJUST
70
0
9
$CMLSCALE
40
1
9
$CMLSTYLE
2
Standard
9
$DIMSTYLE
2
Standard
9
$TEXTSIZE
40
0.2
9
$TEXTSTYLE
7
Standard
9
$LUNITS
70
2
9
$LUPREC
70
4
9
$EXTNAMES
290
1
9
$INSUNITS
70
4
9
$LTSCALE
40
1
9
$LWDISPLAY
290
1
9
$PDMODE
70
0
9
$PDSIZE
40
0
9
$PLINEGEN
70
0
0
ENDSEC
0
SECTION
2
CLASSES
0
CLASS
1
RASTERVARIABLES
2
AcDbRasterVariables
3
ISM
90
0
280
0
281
0
0
ENDSEC
0
SECTION
2
TABLES
0
TABLE
2
VPORT
5
1cb
100
AcDbSymbolTable
0
VPORT
5
1
100
AcDbSymbolTableRecord
100
AcDbViewportTableRecord
2
*Active
70
0
10
0
20
0
11
1
21
1
12
-1
22
1
13
0
23
0
14
0.5
24
0.5
15
10
25
10
16
0
26
0
36
1
17
0
27
0
37
0
0
ENDTAB
0
TABLE
2
LTYPE
5
1cc
100
AcDbSymbolTable
0
LTYPE
5
14
100
AcDbSymbolTableRecord
100
AcDbLinetypeTableRecord
70
0
2
ByBlock
3

72
65
73
0
40
0
0
LTYPE
5
15
100
AcDbSymbolTableRecord
100
AcDbLinetypeTableRecord
70
0
2
ByLayer
3

72
65
73
0
40
0
0
LTYPE
5
16
100
AcDbSymbolTableRecord
100
AcDbLinetypeTableRecord
70
0
2
CONTINUOUS
3
Solid line
72
65
73
0
40
0
0
LTYPE
5
6A
100
AcDbSymbolTableRecord
100
AcDbLinetypeTableRecord
70
0
2
CENTER
3
____ _ ____ _ ____ _ ____
72
65
73
4
40
47.5
49
22
74
0
49
-8.5
74
0
49
8.5
74
0
49
-8.5
74
0
0
LTYPE
5
6B
100
AcDbSymbolTableRecord
100
AcDbLinetypeTableRecord
70
0
2
DASHED
3
__ __ __ __ __ __ __ __ __
72
65
73
2
40
25.72
49
12.86
74
0
49
-12.86
74
0
0
ENDTAB
0
TABLE
2
LAYER
5
1cd
100
AcDbSymbolTable
0
LAYER
5
10
100
AcDbSymbolTableRecord
100
AcDbLayerTableRecord
2
0
70
0
62
7
6
CONTINUOUS
290
1
370
-3
390
0
0
LAYER
5
6D
100
AcDbSymbolTableRecord
100
AcDbLayerTableRecord
2
80
70
0
62
-6
6
CONTINUOUS
290
1
370
-3
390
0
0
LAYER
5
6F
100
AcDbSymbolTableRecord
100
AcDbLayerTableRecord
2
2
70
0
62
7
6
CONTINUOUS
290
1
370
-3
390
0
0
LAYER
5
71
100
AcDbSymbolTableRecord
100
AcDbLayerTableRecord
2
81
70
0
62
-3
6
CONTINUOUS
290
1
370
-3
390
0
0
LAYER
5
75
100
AcDbSymbolTableRecord
100
AcDbLayerTableRecord
2
1
70
0
62
4
6
CONTINUOUS
290
1
370
-3
390
0
0
LAYER
5
1b8
100
AcDbSymbolTableRecord
100
AcDbLayerTableRecord
2
SK1
70
0
62
4
6
CONTINUOUS
290
1
370
-3
390
0
0
LAYER
5
1b9
100
AcDbSymbolTableRecord
100
AcDbLayerTableRecord
2
SK6
70
0
62
5
6
CONTINUOUS
290
1
370
-3
390
0
0
LAYER
5
1ba
100
AcDbSymbolTableRecord
100
AcDbLayerTableRecord
2
SK2
70
0
62
7
6
CONTINUOUS
290
1
370
-3
390
0
0
ENDTAB
0
TABLE
2
STYLE
5
1ce
100
AcDbSymbolTable
0
STYLE
5
11
100
AcDbSymbolTableRecord
100
AcDbTextStyleTableRecord
2
Standard
3
txt
70
0
71
0
40
0
41
1
42
0
50
0
0
STYLE
5
100
100
AcDbSymbolTableRecord
100
AcDbTextStyleTableRecord
2
iso_b_vert
3
simplex.shx
70
0
71
0
40
0
41
1
42
0
50
0
0
STYLE
5
101
100
AcDbSymbolTableRecord
100
AcDbTextStyleTableRecord
2
DWGDirectTextStyle
3
simplex
70
0
71
0
40
0
41
1
42
0
50
0
0
ENDTAB
0
TABLE
2
DIMSTYLE
5
1cf
100
AcDbSymbolTable
100
AcDbDimStyleTable
0
DIMSTYLE
105
27
100
AcDbSymbolTableRecord
100
AcDbDimStyleTableRecord
2
Standard
70
0
3
<>
41
0.18
42
0.0625
44
0.18
140
0.18
147
0.09
73
0
74
0
77
1
271
2
275
0
278
52
280
0
340
11
0
ENDTAB
0
TABLE
2
VIEW
5
1d0
100
AcDbSymbolTable
0
ENDTAB
0
TABLE
2
UCS
5
1d1
100
AcDbSymbolTable
0
ENDTAB
0
TABLE
2
APPID
5
1d2
100
AcDbSymbolTable
0
APPID
5
12
100
AcDbSymbolTableRecord
100
AcDbRegAppTableRecord
2
ACAD
70
0
0
ENDTAB
0
TABLE
2
BLOCK_RECORD
5
1d3
100
AcDbSymbolTable
0
BLOCK_RECORD
5
1F
100
AcDbSymbolTableRecord
100
AcDbBlockTableRecord
2
*Model_Space
340
0
70
0
0
BLOCK_RECORD
5
1B
100
AcDbSymbolTableRecord
100
AcDbBlockTableRecord
2
*Paper_Space
340
0
70
0
0
BLOCK_RECORD
5
23
100
AcDbSymbolTableRecord
100
AcDbBlockTableRecord
2
*Paper_Space0
340
0
70
0
0
BLOCK_RECORD
5
103
100
AcDbSymbolTableRecord
100
AcDbBlockTableRecord
2
DimnDraft3D11
340
0
70
0
0
BLOCK_RECORD
5
111
100
AcDbSymbolTableRecord
100
AcDbBlockTableRecord
2
DimnDraft3D2
340
0
70
0
0
BLOCK_RECORD
5
120
100
AcDbSymbolTableRecord
100
AcDbBlockTableRecord
2
_CLOSED
340
0
70
0
0
BLOCK_RECORD
5
127
100
AcDbSymbolTableRecord
100
AcDbBlockTableRecord
2
DimnDraft3D3
340
0
70
0
0
BLOCK_RECORD
5
135
100
AcDbSymbolTableRecord
100
AcDbBlockTableRecord
2
DimnDraft3D4
340
0
70
0
0
BLOCK_RECORD
5
143
100
AcDbSymbolTableRecord
100
AcDbBlockTableRecord
2
DimnDraft3D5
340
0
70
0
0
BLOCK_RECORD
5
151
100
AcDbSymbolTableRecord
100
AcDbBlockTableRecord
2
DimnDraft3D6
340
0
70
0
0
ENDTAB
0
ENDSEC
0
SECTION
2
BLOCKS
0
BLOCK
5
20
100
AcDbEntity
8
0
100
AcDbBlockBegin
2
*Model_Space
70
0
10
0
20
0
30
0
3
*Model_Space
0
ENDBLK
5
21
100
AcDbEntity
8
0
100
AcDbBlockEnd
0
BLOCK
5
1C
100
AcDbEntity
8
0
100
AcDbBlockBegin
2
*Paper_Space
70
0
10
0
20
0
30
0
3
*Paper_Space
0
ENDBLK
5
1D
100
AcDbEntity
8
0
100
AcDbBlockEnd
0
BLOCK
5
24
100
AcDbEntity
8
0
100
AcDbBlockBegin
2
*Paper_Space0
70
0
10
0
20
0
30
0
3
*Paper_Space0
0
ENDBLK
5
25
100
AcDbEntity
8
0
100
AcDbBlockEnd
0
BLOCK
5
104
100
AcDbEntity
8
0
100
AcDbBlockBegin
2
DimnDraft3D11
70
0
10
0
20
0
30
0
3
DimnDraft3D11
0
LINE
5
106
100
AcDbEntity
8
2
62
256
6
ByLayer
370
25
48
1
60
0
100
AcDbLine
10
25.9
20
29.0625
30
0
11
25.9
21
50.3125
31
0
39
0
210
0
220
0
230
1
0
LINE
5
107
100
AcDbEntity
8
2
62
256
6
ByLayer
370
25
48
1
60
0
100
AcDbLine
10
0
20
13.9375
30
0
11
0
21
50.3125
31
0
39
0
210
0
220
0
230
1
0
LINE
5
108
100
AcDbEntity
8
2
62
256
6
ByLayer
370
25
48
1
60
0
100
AcDbLine
10
25.9
20
47.3125
30
0
11
0
21
47.3125
31
0
39
0
210
0
220
0
230
1
0
LINE
5
109
100
AcDbEntity
8
2
62
256
6
ByLayer
370
25
48
1
60
0
100
AcDbLine
10
25.9
20
47.3125
30
0
11
22.900001
21
46.917543
31
0
39
0
210
0
220
0
230
1
0
LINE
5
10A
100
AcDbEntity
8
2
62
256
6
ByLayer
370
25
48
1
60
0
100
AcDbLine
10
25.9
20
47.3125
30
0
11
22.899999
21
47.707457
31
0
39
0
210
0
220
0
230
1
0
LINE
5
10B
100
AcDbEntity
8
2
62
256
6
ByLayer
370
25
48
1
60
0
100
AcDbLine
10
22.900001
20
46.917543
30
0
11
22.899999
21
47.707457
31
0
39
0
210
0
220
0
230
1
0
LINE
5
10C
100
AcDbEntity
8
2
62
256
6
ByLayer
370
25
48
1
60
0
100
AcDbLine
10
0
20
47.3125
30
0
11
2.999999
21
47.707457
31
0
39
0
210
0
220
0
230
1
0
LINE
5
10D
100
AcDbEntity
8
2
62
256
6
ByLayer
370
25
48
1
60
0
100
AcDbLine
10
0
20
47.3125
30
0
11
3.000001
21
46.917543
31
0
39
0
210
0
220
0
230
1
0
LINE
5
10E
100
AcDbEntity
8
2
62
256
6
ByLayer
370
25
48
1
60
0
100
AcDbLine
10
2.999999
20
47.707457
30
0
11
3.000001
21
46.917543
31
0
39
0
210
0
220
0
230
1
0
MTEXT
5
10F
100
AcDbEntity
8
2
62
256
6
ByLayer
370
18
48
1
60
0
100
AcDbMText
10
8.793421
20
48.4375
30
0
210
0
220
0
230
1
1
\W0.7457;25.9
40
4.5
41
0
44
1.084337
50
0
71
7
72
5
7
iso_b_vert
0
ENDBLK
5
105
100
AcDbEntity
8
0
100
AcDbBlockEnd
0
BLOCK
5
11D
100
AcDbEntity
8
0
100
AcDbBlockBegin
2
DimnDraft3D2
70
0
10
0
20
0
30
0
3
DimnDraft3D2
0
MTEXT
5
112
100
AcDbEntity
8
SK2
62
256
6
ByLayer
370
18
48
1
60
0
100
AcDbMText
10
-136.325
20
-1.563158
30
0
210
0
220
0
230
1
1
\W0.6740;25
40
4.5
41
0
44
1.084337
50
90
71
7
72
5
7
iso_b_vert
0
LINE
5
114
100
AcDbEntity
8
SK2
62
256
6
ByLayer
370
13
48
1
60
0
100
AcDbLine
10
-126.95
20
12.4375
30
0
11
-138.2
21
12.4375
31
0
39
0
210
0
220
0
230
1
0
LINE
5
115
100
AcDbEntity
8
SK2
62
256
6
ByLayer
370
13
48
1
60
0
100
AcDbLine
10
-126.95
20
-12.4375
30
0
11
-138.2
21
-12.4375
31
0
39
0
210
0
220
0
230
1
0
LINE
5
116
100
AcDbEntity
8
SK2
62
256
6
ByLayer
370
13
48
1
60
0
100
AcDbLine
10
-135.2
20
12.4375
30
0
11
-135.2
21
-12.4375
31
0
39
0
210
0
220
0
230
1
0
LINE
5
117
100
AcDbEntity
8
SK2
62
256
6
ByLayer
370
13
48
1
60
0
100
AcDbLine
10
-135.2
20
12.4375
30
0
11
-134.805043
21
9.437501
31
0
39
0
210
0
220
0
230
1
0
LINE
5
118
100
AcDbEntity
8
SK2
62
256
6
ByLayer
370
13
48
1
60
0
100
AcDbLine
10
-135.2
20
12.4375
30
0
11
-135.594957
21
9.437499
31
0
39
0
210
0
220
0
230
1
0
LINE
5
119
100
AcDbEntity
8
SK2
62
256
6
ByLayer
370
13
48
1
60
0
100
AcDbLine
10
-134.805043
20
9.437501
30
0
11
-135.594957
21
9.437499
31
0
39
0
210
0
220
0
230
1
0
LINE
5
11A
100
AcDbEntity
8
SK2
62
256
6
ByLayer
370
13
48
1
60
0
100
AcDbLine
10
-135.2
20
-12.4375
30
0
11
-135.594957
21
-9.437501
31
0
39
0
210
0
220
0
230
1
0
LINE
5
11B
100
AcDbEntity
8
SK2
62
256
6
ByLayer
370
13
48
1
60
0
100
AcDbLine
10
-135.2
20
-12.4375
30
0
11
-134.805043
21
-9.437499
31
0
39
0
210
0
220
0
230
1
0
LINE
5
11C
100
AcDbEntity
8
SK2
62
256
6
ByLayer
370
13
48
1
60
0
100
AcDbLine
10
-135.594957
20
-9.437501
30
0
11
-134.805043
21
-9.437499
31
0
39
0
210
0
220
0
230
1
0
ENDBLK
5
11E
100
AcDbEntity
8
0
100
AcDbBlockEnd
0
BLOCK
5
121
100
AcDbEntity
8
0
100
AcDbBlockBegin
2
_CLOSED
70
0
10
0
20
0
30
0
3
_CLOSED
0
LINE
5
123
100
AcDbEntity
8
0
62
256
6
ByLayer
370
-2
48
1
60
0
100
AcDbLine
10
-1
20
0.166667
30
0
11
0
21
0
31
0
39
0
210
0
220
0
230
1
0
LINE
5
124
100
AcDbEntity
8
0
62
256
6
ByLayer
370
-2
48
1
60
0
100
AcDbLine
10
0
20
0
30
0
11
-1
21
-0.166667
31
0
39
0
210
0
220
0
230
1
0
LINE
5
125
100
AcDbEntity
8
0
62
256
6
ByLayer
370
-2
48
1
60
0
100
AcDbLine
10
-1
20
0.166667
30
0
11
-1
21
-0.166667
31
0
39
0
210
0
220
0
230
1
0
LINE
5
126
100
AcDbEntity
8
0
62
256
6
ByLayer
370
-2
48
1
60
0
100
AcDbLine
10
0
20
0
30
0
11
-1
21
0
31
0
39
0
210
0
220
0
230
1
0
ENDBLK
5
122
100
AcDbEntity
8
0
100
AcDbBlockEnd
0
BLOCK
5
132
100
AcDbEntity
8
0
100
AcDbBlockBegin
2
DimnDraft3D3
70
0
10
0
20
0
30
0
3
DimnDraft3D3
0
MTEXT
5
128
100
AcDbEntity
8
2
62
256
6
ByLayer
370
18
48
1
60
0
100
AcDbMText
10
11.025
20
20.061842
30
0
210
0
220
0
230
1
1
\W0.5321;13
40
4.5
41
0
44
1.084337
50
90
71
7
72
5
7
iso_b_vert
0
LINE
5
129
100
AcDbEntity
8
2
62
256
6
ByLayer
370
13
48
1
60
0
100
AcDbLine
10
22.4
20
27.5625
30
0
11
9.15
21
27.5625
31
0
39
0
210
0
220
0
230
1
0
LINE
5
12A
100
AcDbEntity
8
2
62
256
6
ByLayer
370
13
48
1
60
0
100
AcDbLine
10
15.4
20
14.5625
30
0
11
9.15
21
14.5625
31
0
39
0
210
0
220
0
230
1
0
LINE
5
12B
100
AcDbEntity
8
2
62
256
6
ByLayer
370
13
48
1
60
0
100
AcDbLine
10
12.15
20
38.8125
30
0
11
12.15
21
3.3125
31
0
39
0
210
0
220
0
230
1
0
LINE
5
12C
100
AcDbEntity
8
2
62
256
6
ByLayer
370
13
48
1
60
0
100
AcDbLine
10
12.15
20
27.5625
30
0
11
11.755043
21
30.562499
31
0
39
0
210
0
220
0
230
1
0
LINE
5
12D
100
AcDbEntity
8
2
62
256
6
ByLayer
370
13
48
1
60
0
100
AcDbLine
10
12.15
20
27.5625
30
0
11
12.544957
21
30.562501
31
0
39
0
210
0
220
0
230
1
0
LINE
5
12E
100
AcDbEntity
8
2
62
256
6
ByLayer
370
13
48
1
60
0
100
AcDbLine
10
11.755043
20
30.562499
30
0
11
12.544957
21
30.562501
31
0
39
0
210
0
220
0
230
1
0
LINE
5
12F
100
AcDbEntity
8
2
62
256
6
ByLayer
370
13
48
1
60
0
100
AcDbLine
10
12.15
20
14.5625
30
0
11
12.544957
21
11.562501
31
0
39
0
210
0
220
0
230
1
0
LINE
5
130
100
AcDbEntity
8
2
62
256
6
ByLayer
370
13
48
1
60
0
100
AcDbLine
10
12.15
20
14.5625
30
0
11
11.755043
21
11.562499
31
0
39
0
210
0
220
0
230
1
0
LINE
5
131
100
AcDbEntity
8
2
62
256
6
ByLayer
370
13
48
1
60
0
100
AcDbLine
10
12.544957
20
11.562501
30
0
11
11.755043
21
11.562499
31
0
39
0
210
0
220
0
230
1
0
ENDBLK
5
133
100
AcDbEntity
8
0
100
AcDbBlockEnd
0
BLOCK
5
140
100
AcDbEntity
8
0
100
AcDbBlockBegin
2
DimnDraft3D4
70
0
10
0
20
0
30
0
3
DimnDraft3D4
0
MTEXT
5
136
100
AcDbEntity
8
2
62
256
6
ByLayer
370
18
48
1
60
0
100
AcDbMText
10
47.552823
20
5.7625
30
0
210
0
220
0
230
1
1
\W0.7361;40
40
4.5
41
0
44
1.084337
50
90
71
7
72
5
7
iso_b_vert
0
LINE
5
137
100
AcDbEntity
8
2
62
256
6
ByLayer
370
13
48
1
60
0
100
AcDbLine
10
1.5
20
-12.4375
30
0
11
51.677823
21
-12.4375
31
0
39
0
210
0
220
0
230
1
0
LINE
5
138
100
AcDbEntity
8
2
62
256
6
ByLayer
370
13
48
1
60
0
100
AcDbLine
10
27.4
20
27.5625
30
0
11
51.677823
21
27.5625
31
0
39
0
210
0
220
0
230
1
0
LINE
5
139
100
AcDbEntity
8
2
62
256
6
ByLayer
370
13
48
1
60
0
100
AcDbLine
10
48.677823
20
-12.4375
30
0
11
48.677823
21
27.5625
31
0
39
0
210
0
220
0
230
1
0
LINE
5
13A
100
AcDbEntity
8
2
62
256
6
ByLayer
370
13
48
1
60
0
100
AcDbLine
10
48.677823
20
-12.4375
30
0
11
48.282865
21
-9.437501
31
0
39
0
210
0
220
0
230
1
0
LINE
5
13B
100
AcDbEntity
8
2
62
256
6
ByLayer
370
13
48
1
60
0
100
AcDbLine
10
48.677823
20
-12.4375
30
0
11
49.07278
21
-9.437499
31
0
39
0
210
0
220
0
230
1
0
LINE
5
13C
100
AcDbEntity
8
2
62
256
6
ByLayer
370
13
48
1
60
0
100
AcDbLine
10
48.282865
20
-9.437501
30
0
11
49.07278
21
-9.437499
31
0
39
0
210
0
220
0
230
1
0
LINE
5
13D
100
AcDbEntity
8
2
62
256
6
ByLayer
370
13
48
1
60
0
100
AcDbLine
10
48.677823
20
27.5625
30
0
11
49.07278
21
24.562501
31
0
39
0
210
0
220
0
230
1
0
LINE
5
13E
100
AcDbEntity
8
2
62
256
6
ByLayer
370
13
48
1
60
0
100
AcDbLine
10
48.677823
20
27.5625
30
0
11
48.282865
21
24.562499
31
0
39
0
210
0
220
0
230
1
0
LINE
5
13F
100
AcDbEntity
8
2
62
256
6
ByLayer
370
13
48
1
60
0
100
AcDbLine
10
49.07278
20
24.562501
30
0
11
48.282865
21
24.562499
31
0
39
0
210
0
220
0
230
1
0
ENDBLK
5
141
100
AcDbEntity
8
0
100
AcDbBlockEnd
0
BLOCK
5
14E
100
AcDbEntity
8
0
100
AcDbBlockBegin
2
DimnDraft3D5
70
0
10
0
20
0
30
0
3
DimnDraft3D5
0
MTEXT
5
144
100
AcDbEntity
8
SK2
62
256
6
ByLayer
370
18
48
1
60
0
100
AcDbMText
10
-52.457237
20
58.4375
30
0
210
0
220
0
230
1
1
\W0.6217;150
40
4.5
41
0
44
1.084337
50
0
71
7
72
5
7
iso_b_vert
0
LINE
5
145
100
AcDbEntity
8
SK2
62
256
6
ByLayer
370
13
48
1
60
0
100
AcDbLine
10
-125.45
20
13.9375
30
0
11
-125.45
21
60.3125
31
0
39
0
210
0
220
0
230
1
0
LINE
5
146
100
AcDbEntity
8
SK2
62
256
6
ByLayer
370
13
48
1
60
0
100
AcDbLine
10
25.9
20
29.0625
30
0
11
25.9
21
60.3125
31
0
39
0
210
0
220
0
230
1
0
LINE
5
147
100
AcDbEntity
8
SK2
62
256
6
ByLayer
370
13
48
1
60
0
100
AcDbLine
10
-125.45
20
57.3125
30
0
11
25.9
21
57.3125
31
0
39
0
210
0
220
0
230
1
0
LINE
5
148
100
AcDbEntity
8
SK2
62
256
6
ByLayer
370
13
48
1
60
0
100
AcDbLine
10
-125.45
20
57.3125
30
0
11
-122.450001
21
57.707457
31
0
39
0
210
0
220
0
230
1
0
LINE
5
149
100
AcDbEntity
8
SK2
62
256
6
ByLayer
370
13
48
1
60
0
100
AcDbLine
10
-125.45
20
57.3125
30
0
11
-122.449999
21
56.917543
31
0
39
0
210
0
220
0
230
1
0
LINE
5
14A
100
AcDbEntity
8
SK2
62
256
6
ByLayer
370
13
48
1
60
0
100
AcDbLine
10
-122.450001
20
57.707457
30
0
11
-122.449999
21
56.917543
31
0
39
0
210
0
220
0
230
1
0
LINE
5
14B
100
AcDbEntity
8
SK2
62
256
6
ByLayer
370
13
48
1
60
0
100
AcDbLine
10
25.9
20
57.3125
30
0
11
22.900001
21
56.917543
31
0
39
0
210
0
220
0
230
1
0
LINE
5
14C
100
AcDbEntity
8
SK2
62
256
6
ByLayer
370
13
48
1
60
0
100
AcDbLine
10
25.9
20
57.3125
30
0
11
22.899999
21
57.707457
31
0
39
0
210
0
220
0
230
1
0
LINE
5
14D
100
AcDbEntity
8
SK2
62
256
6
ByLayer
370
13
48
1
60
0
100
AcDbLine
10
22.900001
20
56.917543
30
0
11
22.899999
21
57.707457
31
0
39
0
210
0
220
0
230
1
0
ENDBLK
5
14F
100
AcDbEntity
8
0
100
AcDbBlockEnd
0
BLOCK
5
15C
100
AcDbEntity
8
0
100
AcDbBlockBegin
2
DimnDraft3D6
70
0
10
0
20
0
30
0
3
DimnDraft3D6
0
MTEXT
5
152
100
AcDbEntity
8
2
62
256
6
ByLayer
370
18
48
1
60
0
100
AcDbMText
10
31.525
20
38.4375
30
0
210
0
220
0
230
1
1
\W0.6380;4
40
4.5
41
0
44
1.084337
50
0
71
7
72
5
7
iso_b_vert
0
LINE
5
153
100
AcDbEntity
8
2
62
256
6
ByLayer
370
13
48
1
60
0
100
AcDbLine
10
21.9
20
29.0625
30
0
11
21.9
21
40.3125
31
0
39
0
210
0
220
0
230
1
0
LINE
5
154
100
AcDbEntity
8
2
62
256
6
ByLayer
370
13
48
1
60
0
100
AcDbLine
10
25.9
20
29.0625
30
0
11
25.9
21
40.3125
31
0
39
0
210
0
220
0
230
1
0
LINE
5
155
100
AcDbEntity
8
2
62
256
6
ByLayer
370
13
48
1
60
0
100
AcDbLine
10
32.886842
20
37.3125
30
0
11
10.65
21
37.3125
31
0
39
0
210
0
220
0
230
1
0
LINE
5
156
100
AcDbEntity
8
2
62
256
6
ByLayer
370
13
48
1
60
0
100
AcDbLine
10
21.9
20
37.3125
30
0
11
18.900001
21
36.917543
31
0
39
0
210
0
220
0
230
1
0
LINE
5
157
100
AcDbEntity
8
2
62
256
6
ByLayer
370
13
48
1
60
0
100
AcDbLine
10
21.9
20
37.3125
30
0
11
18.899999
21
37.707457
31
0
39
0
210
0
220
0
230
1
0
LINE
5
158
100
AcDbEntity
8
2
62
256
6
ByLayer
370
13
48
1
60
0
100
AcDbLine
10
18.900001
20
36.917543
30
0
11
18.899999
21
37.707457
31
0
39
0
210
0
220
0
230
1
0
LINE
5
159
100
AcDbEntity
8
2
62
256
6
ByLayer
370
13
48
1
60
0
100
AcDbLine
10
25.9
20
37.3125
30
0
11
28.899999
21
37.707457
31
0
39
0
210
0
220
0
230
1
0
LINE
5
15A
100
AcDbEntity
8
2
62
256
6
ByLayer
370
13
48
1
60
0
100
AcDbLine
10
25.9
20
37.3125
30
0
11
28.900001
21
36.917543
31
0
39
0
210
0
220
0
230
1
0
LINE
5
15B
100
AcDbEntity
8
2
62
256
6
ByLayer
370
13
48
1
60
0
100
AcDbLine
10
28.899999
20
37.707457
30
0
11
28.900001
21
36.917543
31
0
39
0
210
0
220
0
230
1
0
ENDBLK
5
15D
100
AcDbEntity
8
0
100
AcDbBlockEnd
0
ENDSEC
0
SECTION
2
ENTITIES
0
ARC
5
BC
100
AcDbEntity
8
1
62
256
6
ByLayer
370
18
48
1
60
0
100
AcDbCircle
39
0
10
13.35
20
5.4125
30
0
40
2.807
210
0
220
0
230
1
100
AcDbArc
50
270
51
329.965127
0
ARC
5
BD
100
AcDbEntity
8
1
62
256
6
ByLayer
370
18
48
1
60
0
100
AcDbCircle
39
0
10
13.35
20
5.4125
30
0
40
2.0135
210
0
220
0
230
1
100
AcDbArc
50
178.140164
51
181.859836
0
ARC
5
BE
100
AcDbEntity
8
1
62
256
6
ByLayer
370
18
48
1
60
0
100
AcDbCircle
39
0
10
13.35
20
5.4125
30
0
40
2.807
210
0
220
0
230
1
100
AcDbArc
50
329.965127
51
30.034873
0
ARC
5
C0
100
AcDbEntity
8
1
62
256
6
ByLayer
370
18
48
1
60
0
100
AcDbCircle
39
0
10
13.35
20
5.4125
30
0
40
2.807
210
0
220
0
230
1
100
AcDbArc
50
90
51
149.965127
0
ARC
5
C1
100
AcDbEntity
8
1
62
256
6
ByLayer
370
18
48
1
60
0
100
AcDbCircle
39
0
10
13.35
20
5.4125
30
0
40
2.807
210
0
220
0
230
1
100
AcDbArc
50
210.034873
51
270
0
ARC
5
C2
100
AcDbEntity
8
1
62
256
6
ByLayer
370
18
48
1
60
0
100
AcDbCircle
39
0
10
13.35
20
5.4125
30
0
40
2.807
210
0
220
0
230
1
100
AcDbArc
50
30.034873
51
90
0
ARC
5
C5
100
AcDbEntity
8
1
62
256
6
ByLayer
370
18
48
1
60
0
100
AcDbCircle
39
0
10
13.35
20
5.4125
30
0
40
2.0135
210
0
220
0
230
1
100
AcDbArc
50
358.140164
51
1.859836
0
ARC
5
C6
100
AcDbEntity
8
1
62
256
6
ByLayer
370
18
48
1
60
0
100
AcDbCircle
39
0
10
13.35
20
5.4125
30
0
40
2.807
210
0
220
0
230
1
100
AcDbArc
50
149.965127
51
210.034873
0
CIRCLE
5
BA
100
AcDbEntity
8
1
62
256
6
ByLayer
370
18
48
1
60
0
100
AcDbCircle
10
20.5
20
-8.9375
30
0
40
1.65000000000001
39
0
210
0
220
0
230
1
0
CIRCLE
5
BB
100
AcDbEntity
8
1
62
256
6
ByLayer
370
18
48
1
60
0
100
AcDbCircle
10
-13.35
20
5.4125
30
0
40
6.15000000000002
39
0
210
0
220
0
230
-1
0
CIRCLE
5
BF
100
AcDbEntity
8
1
62
256
6
ByLayer
370
18
48
1
60
0
100
AcDbCircle
10
13.35
20
5.4125
30
0
40
5.13
39
0
210
0
220
0
230
1
0
CIRCLE
5
C3
100
AcDbEntity
8
1
62
256
6
ByLayer
370
18
48
1
60
0
100
AcDbCircle
10
-13.35
20
5.4125
30
0
40
3
39
0
210
0
220
0
230
-1
0
CIRCLE
5
C4
100
AcDbEntity
8
1
62
256
6
ByLayer
370
18
48
1
60
0
100
AcDbCircle
10
-13.35
20
5.4125
30
0
40
5.93
39
0
210
0
220
0
230
-1
0
ELLIPSE
5
C7
100
AcDbEntity
8
1
62
256
6
ByLayer
370
18
48
1
60
0
100
AcDbEllipse
10
45.9
20
21.697168
30
0
11
3.96084823059637E-14
21
33.8114040697918
31
0
210
0
220
0
230
1
40
0.700208
41
1.63645709759119
42
1.78038344054126
0
ELLIPSE
5
C8
100
AcDbEntity
8
1
62
256
6
ByLayer
370
18
48
1
60
0
100
AcDbEllipse
10
52.1
20
31.778744
30
0
11
-26.5250000000663
21
6.21455998100337E-14
31
0
210
0
220
0
230
1
40
0.57735
41
0.347570417981342
42
0.841632797016735
0
ELLIPSE
5
C9
100
AcDbEntity
8
1
62
256
6
ByLayer
370
18
48
1
60
0
100
AcDbEllipse
10
22.176431
20
19.074056
30
0
11
-46.6291463385677
21
0.573609652744394
31
0
210
0
220
0
230
1
40
0.017566
41
-1.61272184458886
42
-1.60091758264796
0
ELLIPSE
5
CA
100
AcDbEntity
8
1
62
256
6
ByLayer
370
18
48
1
60
0
100
AcDbEllipse
10
52.07988
20
273.839439
30
0
11
-3.91963582363269
21
-798.622672202486
31
0
210
0
220
0
230
1
40
0.032823
41
-1.24786732352016
42
-1.24400559258891
0
ELLIPSE
5
CB
100
AcDbEntity
8
1
62
256
6
ByLayer
370
18
48
1
60
0
100
AcDbEllipse
10
45.016887
20
-164.474792
30
0
11
-3.35630774403175
21
2047.21617749155
31
0
210
0
220
0
230
1
40
0.011012
41
1.48100274151592
42
1.48316335200516
0
ELLIPSE
5
CC
100
AcDbEntity
8
1
62
256
6
ByLayer
370
18
48
1
60
0
100
AcDbEllipse
10
52.1
20
21.697168
30
0
11
4.43765572471554E-14
21
37.8816258779979
31
0
210
0
220
0
230
1
40
0.700208
41
1.63131230458474
42
1.88112569710997
0
ELLIPSE
5
CD
100
AcDbEntity
8
1
62
256
6
ByLayer
370
18
48
1
60
0
100
AcDbEllipse
10
22.511108
20
19.997018
30
0
11
-0.0716302081379655
21
-0.0716301783143298
31
0
210
0
220
0
230
1
40
0.974157
41
0.772308401152385
42
0.94684132821545
0
ELLIPSE
5
CE
100
AcDbEntity
8
1
62
256
6
ByLayer
370
18
48
1
60
0
100
AcDbEllipse
10
23.205513
20
20.11894
30
0
11
-0.0716301942408323
21
-0.0716301944642329
31
0
210
0
220
0
230
1
40
0.974157
41
0.946841126793891
42
1.43639167242909
0
ELLIPSE
5
CF
100
AcDbEntity
8
1
62
256
6
ByLayer
370
18
48
1
60
0
100
AcDbEllipse
10
22.307676
20
27.159496
30
0
11
-0.254221272812517
21
0.315269550100688
31
0
210
0
220
0
230
1
40
0.987456
41
0.752872975887586
42
0.929767460979581
0
ELLIPSE
5
D0
100
AcDbEntity
8
1
62
256
6
ByLayer
370
18
48
1
60
0
100
AcDbEllipse
10
25.493695
20
27.159496
30
0
11
-0.254221474384846
21
-0.315269399391232
31
0
210
0
220
0
230
1
40
0.987456
41
2.2118258151402
42
2.38872029745195
0
ELLIPSE
5
D1
100
AcDbEntity
8
1
62
256
6
ByLayer
370
18
48
1
60
0
100
AcDbEllipse
10
25.496058
20
27.1625
30
0
11
4.6858133692651E-16
21
0.4
31
0
210
0
220
0
230
1
40
0.999657
41
-1.43180798534428
42
-0.00648902743985612
0
ELLIPSE
5
D2
100
AcDbEntity
8
1
62
256
6
ByLayer
370
18
48
1
60
0
100
AcDbEllipse
10
22.305313
20
27.1625
30
0
11
4.6858133692651E-16
21
0.4
31
0
210
0
220
0
230
1
40
0.999657
41
0.00648902743985612
42
1.4318079853444
0
ELLIPSE
5
D3
100
AcDbEntity
8
1
62
256
6
ByLayer
370
18
48
1
60
0
100
AcDbEllipse
10
25.227675
20
19.997018
30
0
11
-0.071630198802482
21
-0.071630189047687
31
0
210
0
220
0
230
1
40
0.974157
41
0.597775336680252
42
0.772308262452145
0
ELLIPSE
5
D4
100
AcDbEntity
8
1
62
256
6
ByLayer
370
18
48
1
60
0
100
AcDbEllipse
10
24.539653
20
20.11894
30
0
11
-0.0716301945207367
21
-0.0716301941054232
31
0
210
0
220
0
230
1
40
0.974157
41
0.108224716842687
42
0.597775262648625
0
POINT
5
6C
100
AcDbEntity
8
80
62
256
6
ByLayer
370
18
48
1
60
0
100
AcDbPoint
10
0
20
0
30
0
39
0
210
0
220
0
230
1
50
360
0
POINT
5
6E
100
AcDbEntity
8
2
62
256
6
ByLayer
370
18
48
1
60
0
100
AcDbPoint
10
25.9
20
27.5625
30
0
39
0
210
0
220
0
230
1
50
360
0
POINT
5
70
100
AcDbEntity
8
81
62
256
6
ByLayer
370
18
48
1
60
0
100
AcDbPoint
10
25.9
20
27.5625
30
0
39
0
210
0
220
0
230
1
50
360
0
SPLINE
5
D5
100
AcDbEntity
8
1
62
256
6
ByLayer
370
18
48
1
60
0
100
AcDbSpline
70
4
71
3
72
18
73
14
40
0
40
0
40
0
40
0
40
0.107870683692366
40
0.107870683692366
40
0.280344842523192
40
0.280344842523192
40
0.438506106987476
40
0.438506106987476
40
0.606161078561033
40
0.606161078561033
40
0.848993392523616
40
0.848993392523616
40
1
40
1
40
1
40
1
41
1
10
21.3587940340126
20
13.0624999999999
30
0
41
1
10
21.4561077861057
20
13.0624999999999
30
0
41
1
10
21.5540350161944
20
13.0709983625272
30
0
41
1
10
21.8007588175498
20
13.1158886070153
30
0
41
1
10
21.9486099433566
20
13.1673068292313
30
0
41
1
10
22.197475397512
20
13.302313175061
30
0
41
1
10
22.3045329916812
20
13.384409958169
30
0
41
1
10
22.4875079798218
20
13.5738508128729
30
0
41
1
10
22.5635308077828
20
13.6844466343173
30
0
41
1
10
22.7019898531923
20
13.9660374874994
30
0
41
1
10
22.7462013246707
20
14.1465383481624
30
0
41
1
10
22.7650077158174
20
14.4377433195837
30
0
41
1
10
22.7597012217775
20
14.5509203496744
30
0
41
1
10
22.7430823553101
20
14.6624999999999
30
0
0
SPLINE
5
D6
100
AcDbEntity
8
1
62
256
6
ByLayer
370
18
48
1
60
0
100
AcDbSpline
70
4
71
3
72
14
73
10
40
0
40
0
40
0
40
0
40
0.27496301451878
40
0.27496301451878
40
0.597001462775052
40
0.597001462775052
40
0.919692067072834
40
0.919692067072834
40
1
40
1
40
1
40
1
41
1
10
24.4401029018713
20
19.5955027915874
30
0
41
1
10
24.4260148916083
20
19.5977396096597
30
0
41
1
10
24.4121848639859
20
19.6016907744275
30
0
41
1
10
24.3845428612296
20
19.613460103764
30
0
41
1
10
24.3707660067206
20
19.6220013900638
30
0
41
1
10
24.3477188831818
20
19.6420735193733
30
0
41
1
10
24.3381399012506
20
19.6538868676351
30
0
41
1
10
24.3295845480572
20
19.6696681677379
30
0
41
1
10
24.3280249642853
20
19.6729074287461
30
0
41
1
10
24.326636327999
20
19.6761919088119
30
0
0
SPLINE
5
D7
100
AcDbEntity
8
1
62
256
6
ByLayer
370
18
48
1
60
0
100
AcDbSpline
70
4
71
3
72
14
73
10
40
0
40
0
40
0
40
0
40
0.237362100471903
40
0.237362100471903
40
0.559659205099974
40
0.559659205099974
40
0.881809437108891
40
0.881809437108891
40
1
40
1
40
1
40
1
41
1
10
23.3981044320886
20
19.6883789605645
30
0
41
1
10
23.3936982983455
20
19.6789068638832
30
0
41
1
10
23.3878060967322
20
19.6698164659921
30
0
41
1
10
23.3710486146206
20
19.6502685720363
30
0
41
1
10
23.3588969378675
20
19.6402253223581
30
0
41
1
10
23.3316012982884
20
19.6242270900835
30
0
41
1
10
23.3160822951846
20
19.6180497040654
30
0
41
1
10
23.2939925414417
20
19.6127752662061
30
0
41
1
10
23.2878895100854
20
19.6116508444716
30
0
41
1
10
23.2817367172829
20
19.6108434136079
30
0
0
SPLINE
5
D8
100
AcDbEntity
8
1
62
256
6
ByLayer
370
18
48
1
60
0
100
AcDbSpline
70
4
71
3
72
10
73
6
40
0
40
0
40
0
40
0
40
0.718040070376348
40
0.718040070376348
40
1
40
1
40
1
40
1
41
1
10
25.6235548887769
20
19.4061230742934
30
0
41
1
10
25.3404195757856
20
19.4519498349627
30
0
41
1
10
25.057165391008
20
19.4972838850883
30
0
41
1
10
24.662618467882
20
19.5601464686379
30
0
41
1
10
24.5513637033704
20
19.5778374032972
30
0
41
1
10
24.4401029018713
20
19.5955027915874
30
0
0
SPLINE
5
D9
100
AcDbEntity
8
1
62
256
6
ByLayer
370
18
48
1
60
0
100
AcDbSpline
70
4
71
3
72
16
73
12
40
0
40
0
40
0
40
0
40
0.213901699186208
40
0.213901699186208
40
0.427848546333768
40
0.427848546333768
40
0.642308255261495
40
0.642308255261495
40
0.857604028973358
40
0.857604028973358
40
1
40
1
40
1
40
1
41
1
10
22.2662379939379
20
14.6624999999999
30
0
41
1
10
22.2663580340274
20
14.4838634157462
30
0
41
1
10
22.2359245247531
20
14.3027985234544
30
0
41
1
10
22.1191139602613
20
13.9657574135084
30
0
41
1
10
22.0311258749863
20
13.8051476568076
30
0
41
1
10
21.8104310463753
20
13.5258219901433
30
0
41
1
10
21.6745929250256
20
13.4033631721578
30
0
41
1
10
21.3740818459361
20
13.2128015929421
30
0
41
1
10
21.2051637052583
20
13.1422830357134
30
0
41
1
10
20.9164465351639
20
13.075994315654
30
0
41
1
10
20.7974049302576
20
13.0624999999999
30
0
41
1
10
20.6790675135117
20
13.0624999999999
30
0
0
SPLINE
5
DA
100
AcDbEntity
8
1
62
256
6
ByLayer
370
18
48
1
60
0
100
AcDbSpline
70
4
71
3
72
14
73
10
40
0
40
0
40
0
40
0
40
0.0253446153339689
40
0.0253446153339689
40
0.384577187435162
40
0.384577187435162
40
0.741888790911899
40
0.741888790911899
40
1
40
1
40
1
40
1
41
1
10
22.2758237504653
20
19.4765134793227
30
0
41
1
10
22.2756110473038
20
19.4741282949266
30
0
41
1
10
22.2754008730597
20
19.4717039054732
30
0
41
1
10
22.2722873491275
20
19.4347691572465
30
0
41
1
10
22.2698579159534
20
19.3920823376687
30
0
41
1
10
22.2661760269949
20
19.2976025582093
30
0
41
1
10
22.2648621889898
20
19.2445500984848
30
0
41
1
10
22.263565251235
20
19.150305178227
30
0
41
1
10
22.2633037400154
20
19.10914576022
30
0
41
1
10
22.2633301763804
20
19.0683488383678
30
0
0
SPLINE
5
DB
100
AcDbEntity
8
1
62
256
6
ByLayer
370
18
48
1
60
0
100
AcDbSpline
70
4
71
3
72
8
73
4
40
0
40
0
40
0
40
0
40
1
40
1
40
1
40
1
41
1
10
25.9957589144211
20
17.5125
30
0
41
1
10
25.9957589144211
20
17.5414059733985
30
0
41
1
10
25.99566902804
20
17.5703163811244
30
0
41
1
10
25.9954894327522
20
17.5992046113225
30
0
0
SPLINE
5
DC
100
AcDbEntity
8
1
62
256
6
ByLayer
370
18
48
1
60
0
100
AcDbSpline
70
4
71
3
72
14
73
10
40
0
40
0
40
0
40
0
40
0.21774321757863
40
0.21774321757863
40
0.493847959812707
40
0.493847959812707
40
0.769878054521873
40
0.769878054521873
40
1
40
1
40
1
40
1
41
1
10
23.590818660033
20
19.8754916483145
30
0
41
1
10
23.5775757884824
20
19.8756615659621
30
0
41
1
10
23.5641902463723
20
19.8743707661526
30
0
41
1
10
23.5350963011463
20
19.8682834137906
30
0
41
1
10
23.5193276826048
20
19.8625338372198
30
0
41
1
10
23.4913932258451
20
19.8472941900907
30
0
41
1
10
23.4788412563418
20
19.8375949892537
30
0
41
1
10
23.4602919879053
20
19.8174354369263
30
0
41
1
10
23.4533659028419
20
19.8071713075628
30
0
41
1
10
23.4483667208881
20
19.7964252584657
30
0
0
SPLINE
5
DD
100
AcDbEntity
8
1
62
256
6
ByLayer
370
18
48
1
60
0
100
AcDbSpline
70
4
71
3
72
8
73
4
40
0
40
0
40
0
40
0
40
1
40
1
40
1
40
1
41
1
10
23.2817367172795
20
19.6108434136205
30
0
41
1
10
23.009219126817
20
19.5750809362406
30
0
41
1
10
22.7367070955737
20
19.5392899860127
30
0
41
1
10
22.4642068796025
20
19.5034387816275
30
0
0
SPLINE
5
DE
100
AcDbEntity
8
1
62
256
6
ByLayer
370
18
48
1
60
0
100
AcDbSpline
70
4
71
2
72
6
73
3
40
0
40
0
40
0
40
1
40
1
40
1
41
0.499999991748639
10
22.2760171163705
20
19.4786797933061
30
0
41
0.500000008251361
10
22.2759203417213
20
19.4775966223983
30
0
41
0.499999991748639
10
22.2758237504653
20
19.4765134793228
30
0
0
SPLINE
5
DF
100
AcDbEntity
8
1
62
256
6
ByLayer
370
18
48
1
60
0
100
AcDbSpline
70
4
71
3
72
8
73
4
40
0
40
0
40
0
40
0
40
1
40
1
40
1
40
1
41
1
10
23.4483667208881
20
19.7964252584657
30
0
41
1
10
23.4316120265811
20
19.7604100125133
30
0
41
1
10
23.4148578271157
20
19.7243946120839
30
0
41
1
10
23.3981044320886
20
19.6883789605645
30
0
0
SPLINE
5
E0
100
AcDbEntity
8
1
62
256
6
ByLayer
370
18
48
1
60
0
100
AcDbSpline
70
4
71
3
72
16
73
12
40
0
40
0
40
0
40
0
40
0.0061810267383105
40
0.0061810267383105
40
0.28310593945305
40
0.28310593945305
40
0.559976711943719
40
0.559976711943719
40
0.836612868335654
40
0.836612868335654
40
1
40
1
40
1
40
1
41
1
10
24.2803613023583
20
19.7856060473345
30
0
41
1
10
24.2802365743234
20
19.7859008706409
30
0
41
1
10
24.2801104781886
20
19.7861953079567
30
0
41
1
10
24.274350029595
20
19.7994842633465
30
0
41
1
10
24.2659005150402
20
19.8118619697343
30
0
41
1
10
24.2447676851378
20
19.8333284532452
30
0
41
1
10
24.2317932888434
20
19.8427141306691
30
0
41
1
10
24.2031872319501
20
19.8572258615927
30
0
41
1
10
24.1871627779553
20
19.8625557057364
30
0
41
1
10
24.1609520677129
20
19.867283500223
30
0
41
1
10
24.1508975115728
20
19.8682461649347
30
0
41
1
10
24.1408767414218
20
19.8683768210988
30
0
0
SPLINE
5
E1
100
AcDbEntity
8
1
62
256
6
ByLayer
370
18
48
1
60
0
100
AcDbSpline
70
4
71
3
72
8
73
4
40
0
40
0
40
0
40
0
40
1
40
1
40
1
40
1
41
1
10
24.326636327999
20
19.6761919088119
30
0
41
1
10
24.311216118175
20
19.712664649928
30
0
41
1
10
24.2957904034847
20
19.7491358294465
30
0
41
1
10
24.2803613023583
20
19.7856060473345
30
0
0
SPLINE
5
E2
100
AcDbEntity
8
1
62
256
6
ByLayer
370
18
48
1
60
0
100
AcDbSpline
70
4
71
3
72
16
73
12
40
0
40
0
40
0
40
0
40
0.218557773056347
40
0.218557773056347
40
0.441067473679256
40
0.441067473679256
40
0.674801337484699
40
0.674801337484699
40
0.929688497508485
40
0.929688497508485
40
1
40
1
40
1
40
1
41
1
10
15.780078622718
20
4.00752068078972
30
0
41
1
10
15.7559455888971
20
3.96577973215972
30
0
41
1
10
15.7250527149333
20
3.9272293704484
30
0
41
1
10
15.6543152640529
20
3.86175760272479
30
0
41
1
10
15.6134276553377
20
3.83420463464194
30
0
41
1
10
15.5258503446474
20
3.792222748499
30
0
41
1
10
15.4778941267025
20
3.77795396964447
30
0
41
1
10
15.3786459740658
20
3.76374041878668
30
0
41
1
10
15.3262093904104
20
3.76497292025914
30
0
41
1
10
15.2628470541121
20
3.77634087127316
30
0
41
1
10
15.2492131529495
20
3.77940743922261
30
0
41
1
10
15.2358011562701
20
3.78303585934552
30
0
0
SPLINE
5
E3
100
AcDbEntity
8
1
62
256
6
ByLayer
370
18
48
1
60
0
100
AcDbSpline
70
4
71
3
72
18
73
14
40
0
40
0
40
0
40
0
40
0.0162289153285378
40
0.0162289153285378
40
0.239234459040957
40
0.239234459040957
40
0.462328698874893
40
0.462328698874893
40
0.697692042263413
40
0.697692042263413
40
0.955005672045983
40
0.955005672045983
40
1
40
1
40
1
40
1
41
1
10
13.3499999999998
20
8.21949999999993
30
0
41
1
10
13.3536242766894
20
8.21949999999993
30
0
41
1
10
13.3572488353029
20
8.21945919936118
30
0
41
1
10
13.4100561366261
20
8.21827024359709
30
0
41
1
10
13.4596784109304
20
8.20938819618416
30
0
41
1
10
13.5517850503578
20
8.17802227881319
30
0
41
1
10
13.5954568409307
20
8.15516498505559
30
0
41
1
10
13.6741765483863
20
8.09801487893006
30
0
41
1
10
13.7096352317557
20
8.06248682706891
30
0
41
1
10
13.7695415102291
20
7.98152940017218
30
0
41
1
10
13.7934526634121
20
7.93450505354622
30
0
41
1
10
13.8119466966158
20
7.8778304916666
30
0
41
1
10
13.8144789819862
20
7.8692684906714
30
0
41
1
10
13.8167667794753
20
7.86066832759647
30
0
0
SPLINE
5
E4
100
AcDbEntity
8
1
62
256
6
ByLayer
370
18
48
1
60
0
100
AcDbSpline
70
4
71
3
72
12
73
8
40
0
40
0
40
0
40
0
40
0.368706056538494
40
0.368706056538494
40
0.737980850952356
40
0.737980850952356
40
1
40
1
40
1
40
1
41
1
10
11.3375606880437
20
5.34715273002249
30
0
41
1
10
11.3313810944146
20
5.23800987843939
30
0
41
1
10
11.3090732069272
20
5.12914825590565
30
0
41
1
10
11.2392126889779
20
4.92999036871569
30
0
41
1
10
11.1909460256158
20
4.83692722242631
30
0
41
1
10
11.0930049666665
20
4.69548905760618
30
0
41
1
10
11.0472547020967
20
4.64116148006732
30
0
41
1
10
10.9977970005681
20
4.59206812836976
30
0
0
SPLINE
5
E5
100
AcDbEntity
8
1
62
256
6
ByLayer
370
18
48
1
60
0
100
AcDbSpline
70
4
71
3
72
16
73
12
40
0
40
0
40
0
40
0
40
0.218620732637231
40
0.218620732637231
40
0.44113209632631
40
0.44113209632631
40
0.674870839126928
40
0.674870839126928
40
0.929765351321932
40
0.929765351321932
40
1
40
1
40
1
40
1
41
1
10
10.9199213772817
20
6.81747931921015
30
0
41
1
10
10.9440613583092
20
6.85923228385929
30
0
41
1
10
10.9749652609369
20
6.89779289412098
30
0
41
1
10
11.0457183219904
20
6.96326774515941
30
0
41
1
10
11.0866082715035
20
6.99081711895013
30
0
41
1
10
11.17418959593
20
7.03279163260368
30
0
41
1
10
11.2221475197233
20
7.04705631980906
30
0
41
1
10
11.3213982636594
20
7.06126119779785
30
0
41
1
10
11.3738356388484
20
7.06002385148039
30
0
41
1
10
11.4371826459673
20
7.04865244901163
30
0
41
1
10
11.4508014492003
20
7.04558861037845
30
0
41
1
10
11.4641988437296
20
7.04196414065433
30
0
0
SPLINE
5
E6
100
AcDbEntity
8
1
62
256
6
ByLayer
370
18
48
1
60
0
100
AcDbSpline
70
4
71
3
72
18
73
14
40
0
40
0
40
0
40
0
40
0.0173285944903327
40
0.0173285944903327
40
0.239841647765373
40
0.239841647765373
40
0.462510527753949
40
0.462510527753949
40
0.697478079776751
40
0.697478079776751
40
0.95439220234841
40
0.95439220234841
40
1
40
1
40
1
40
1
41
1
10
10.9199213772817
20
4.00752068078972
30
0
41
1
10
10.9179807029301
20
4.01087730760347
30
0
41
1
10
10.9160802821221
20
4.01425760618605
30
0
41
1
10
10.8906332592299
20
4.06082424807971
30
0
41
1
10
10.8735628407804
20
4.10824494326954
30
0
41
1
10
10.8547609531242
20
4.20370168370812
30
0
41
1
10
10.8527648587478
20
4.25295286274462
30
0
41
1
10
10.8629866118793
20
4.34970120981666
30
0
41
1
10
10.8760730914401
20
4.39816982818729
30
0
41
1
10
10.9163294536159
20
4.49051298492364
30
0
41
1
10
10.945151621395
20
4.53471764470663
30
0
41
1
10
10.9851348030685
20
4.57914196762442
30
0
41
1
10
10.9913860729219
20
4.58570442937216
30
0
41
1
10
10.9977970005681
20
4.59206812836979
30
0
0
SPLINE
5
E7
100
AcDbEntity
8
1
62
256
6
ByLayer
370
18
48
1
60
0
100
AcDbSpline
70
4
71
3
72
12
73
8
40
0
40
0
40
0
40
0
40
0.455353062346809
40
0.455353062346809
40
0.827333545905724
40
0.827333545905724
40
1
40
1
40
1
40
1
41
1
10
10.9977970005681
20
6.23293187163009
30
0
41
1
10
11.083028893676
20
6.14832787316544
30
0
41
1
10
11.1577281806254
20
6.04740784593113
30
0
41
1
10
11.2617358000774
20
5.84179317452728
30
0
41
1
10
11.2977816418946
20
5.73873170351473
30
0
41
1
10
11.3281708432747
20
5.58125860275325
30
0
41
1
10
11.3346282332609
20
5.52963974960497
30
0
41
1
10
11.3375606880437
20
5.47784726997739
30
0
0
SPLINE
5
E8
100
AcDbEntity
8
1
62
256
6
ByLayer
370
18
48
1
60
0
100
AcDbSpline
70
4
71
3
72
14
73
10
40
0
40
0
40
0
40
0
40
0.220792708734969
40
0.220792708734969
40
0.514440208322322
40
0.514440208322322
40
0.779604980836363
40
0.779604980836363
40
1
40
1
40
1
40
1
41
1
10
12.8832332205228
20
7.86066832759684
30
0
41
1
10
12.8943640459225
20
7.90251071707948
30
0
41
1
10
12.9114407543235
20
7.9437315689749
30
0
41
1
10
12.9641996246415
20
8.03305205926145
30
0
41
1
10
13.0052239912513
20
8.08038021288905
30
0
41
1
10
13.0984261881924
20
8.15259237023139
30
0
41
1
10
13.1506346228899
20
8.18022541377999
30
0
41
1
10
13.2519088779037
20
8.21188757569033
30
0
41
1
10
13.3012746101242
20
8.21949999999993
30
0
41
1
10
13.3499999999998
20
8.21949999999993
30
0
0
SPLINE
5
E9
100
AcDbEntity
8
1
62
256
6
ByLayer
370
18
48
1
60
0
100
AcDbSpline
70
4
71
3
72
12
73
8
40
0
40
0
40
0
40
0
40
0.368706056448695
40
0.368706056448695
40
0.737980850847994
40
0.737980850847994
40
1
40
1
40
1
40
1
41
1
10
15.362439311956
20
5.47784726997739
30
0
41
1
10
15.3686189055835
20
5.58699012153397
30
0
41
1
10
15.3909267930614
20
5.69585174404125
30
0
41
1
10
15.4607873109884
20
5.89500963121057
30
0
41
1
10
15.5090539743428
20
5.9880727775012
30
0
41
1
10
15.6069950332968
20
6.12951094235052
30
0
41
1
10
15.6527452978834
20
6.18383851991308
30
0
41
1
10
15.7022029994316
20
6.23293187163009
30
0
0
SPLINE
5
EA
100
AcDbEntity
8
1
62
256
6
ByLayer
370
18
48
1
60
0
100
AcDbSpline
70
4
71
3
72
18
73
14
40
0
40
0
40
0
40
0
40
0.181666908878575
40
0.181666908878575
40
0.360750617017818
40
0.360750617017818
40
0.541895453074698
40
0.541895453074698
40
0.695365105948638
40
0.695365105948638
40
0.891753383060554
40
0.891753383060554
40
1
40
1
40
1
40
1
41
1
10
15.2358011562701
20
7.0419641406543
30
0
41
1
10
15.1366484671723
20
7.01513982650025
30
0
41
1
10
15.0312756755241
20
7.00096024593512
30
0
41
1
10
14.8178933346768
20
7.0028139531035
30
0
41
1
10
14.7073993968488
20
7.01874262300365
30
0
41
1
10
14.4922541831346
20
7.08361400515471
30
0
41
1
10
14.3844106004873
20
7.13434413957168
30
0
41
1
10
14.2078436255827
20
7.25300412179089
30
0
41
1
10
14.1334733576071
20
7.3184542246232
30
0
41
1
10
13.9902247488766
20
7.47934033730431
30
0
41
1
10
13.9259704993083
20
7.58049807468672
30
0
41
1
10
13.8534717551391
20
7.74195116030251
30
0
41
1
10
13.8326236268417
20
7.80106013506105
30
0
41
1
10
13.8167667794746
20
7.86066832759636
30
0
0
SPLINE
5
EB
100
AcDbEntity
8
1
62
256
6
ByLayer
370
18
48
1
60
0
100
AcDbSpline
70
4
71
3
72
14
73
10
40
0
40
0
40
0
40
0
40
0.222411655270663
40
0.222411655270663
40
0.515858824453686
40
0.515858824453686
40
0.780847480391331
40
0.780847480391331
40
1
40
1
40
1
40
1
41
1
10
11.46419884373
20
3.7830358593441
30
0
41
1
10
11.4220984987036
20
3.77164622492006
30
0
41
1
10
11.3775208528567
20
3.76579564354958
30
0
41
1
10
11.2734775128697
20
3.76697802898781
30
0
41
1
10
11.2120206515666
20
3.77892053886671
30
0
41
1
10
11.1029872110551
20
3.8236484449684
30
0
41
1
10
11.0530145077153
20
3.85509044478397
30
0
41
1
10
10.9752539436448
20
3.92684984498473
30
0
41
1
10
10.9441728549133
20
3.96557486951971
30
0
41
1
10
10.9199213772817
20
4.00752068078972
30
0
0
SPLINE
5
EC
100
AcDbEntity
8
1
62
256
6
ByLayer
370
18
48
1
60
0
100
AcDbSpline
70
4
71
3
72
18
73
14
40
0
40
0
40
0
40
0
40
0.181347322288274
40
0.181347322288274
40
0.360491893295297
40
0.360491893295297
40
0.541701215502888
40
0.541701215502888
40
0.695189055143497
40
0.695189055143497
40
0.89152626545883
40
0.89152626545883
40
1
40
1
40
1
40
1
41
1
10
11.4641988437296
20
3.78303585934555
30
0
41
1
10
11.5631778335095
20
3.8098131816821
30
0
41
1
10
11.6683526563044
20
3.82398999892581
30
0
41
1
10
11.8815634124242
20
3.82224287813628
30
0
41
1
10
11.9920917073036
20
3.80636148257957
30
0
41
1
10
12.2073243078437
20
3.74156255186637
30
0
41
1
10
12.3152243274796
20
3.69085653161051
30
0
41
1
10
12.4918758315761
20
3.57222237022393
30
0
41
1
10
12.5662794422929
20
3.50678327831926
30
0
41
1
10
12.7095683332406
20
3.34594310858304
30
0
41
1
10
12.7738422271741
20
3.24482441744274
30
0
41
1
10
12.8464418767042
20
3.08329355141802
30
0
41
1
10
12.8673436078638
20
3.02406303443891
30
0
41
1
10
12.8832332205251
20
2.96433167240352
30
0
0
SPLINE
5
ED
100
AcDbEntity
8
1
62
256
6
ByLayer
370
18
48
1
60
0
100
AcDbSpline
70
4
71
3
72
16
73
12
40
0
40
0
40
0
40
0
40
0.191836824669049
40
0.191836824669049
40
0.488625600663329
40
0.488625600663329
40
0.756617127620188
40
0.756617127620188
40
0.99488562644998
40
0.99488562644998
40
1
40
1
40
1
40
1
41
1
10
15.7022029994345
20
4.59206812837306
30
0
41
1
10
15.7289655572959
20
4.56550272753947
30
0
41
1
10
15.7530517894595
20
4.53530563709475
30
0
41
1
10
15.8045455835095
20
4.45160245119479
30
0
41
1
10
15.8273454613303
20
4.39273756016854
30
0
41
1
10
15.8475087167514
20
4.27558565055512
30
0
41
1
10
15.8473195131245
20
4.21596924093845
30
0
41
1
10
15.8265486102035
20
4.10736274709532
30
0
41
1
10
15.8078772017482
20
4.05637964553529
30
0
41
1
10
15.7812269493293
20
4.00951506340886
30
0
41
1
10
15.7806545636872
20
4.00851683910901
30
0
41
1
10
15.780078622718
20
4.00752068078972
30
0
0
SPLINE
5
EE
100
AcDbEntity
8
1
62
256
6
ByLayer
370
18
48
1
60
0
100
AcDbSpline
70
4
71
3
72
14
73
10
40
0
40
0
40
0
40
0
40
0.219116464512353
40
0.219116464512353
40
0.512971212475588
40
0.512971212475588
40
0.778318620253407
40
0.778318620253407
40
1
40
1
40
1
40
1
41
1
10
15.2358011562696
20
7.04196414065598
30
0
41
1
10
15.2772802266617
20
7.05318569828736
30
0
41
1
10
15.3211569919016
20
7.05903137643685
30
0
41
1
10
15.4245700582765
20
7.05828568184177
30
0
41
1
10
15.4861281818992
20
7.04657916499312
30
0
41
1
10
15.5954305674516
20
7.00222808006376
30
0
41
1
10
15.6455690842404
20
6.97093924257237
30
0
41
1
10
15.7240231322848
20
6.89904237532789
30
0
41
1
10
15.75554852466
20
6.85990703760339
30
0
41
1
10
15.780078622718
20
6.81747931921015
30
0
0
SPLINE
5
EF
100
AcDbEntity
8
1
62
256
6
ByLayer
370
18
48
1
60
0
100
AcDbSpline
70
4
71
3
72
18
73
14
40
0
40
0
40
0
40
0
40
0.181752771450187
40
0.181752771450187
40
0.360818406833423
40
0.360818406833423
40
0.541944163041261
40
0.541944163041261
40
0.695407615755985
40
0.695407615755985
40
0.891808268956473
40
0.891808268956473
40
1
40
1
40
1
40
1
41
1
10
12.8832332205244
20
7.86066832759647
30
0
41
1
10
12.8568143498754
20
7.76135595536024
30
0
41
1
10
12.8163215393519
20
7.66298804678303
30
0
41
1
10
12.7078644062601
20
7.47916032013788
30
0
41
1
10
12.6387629402267
20
7.39149072916743
30
0
41
1
10
12.4749112530845
20
7.23773547728152
30
0
41
1
10
12.3770165049069
20
7.16978148262086
30
0
41
1
10
12.185918984475
20
7.07633981208483
30
0
41
1
10
12.0920350840379
20
7.04472485397068
30
0
41
1
10
11.8810474443437
20
7.00125520435395
30
0
41
1
10
11.7613055341863
20
6.99627113264413
30
0
41
1
10
11.5852768627443
20
7.01433231120117
30
0
41
1
10
11.5237060408919
20
7.02586533621732
30
0
41
1
10
11.4641988437293
20
7.04196414065359
30
0
0
SPLINE
5
F0
100
AcDbEntity
8
1
62
256
6
ByLayer
370
18
48
1
60
0
100
AcDbSpline
70
4
71
3
72
14
73
10
40
0
40
0
40
0
40
0
40
0.2201700379591
40
0.2201700379591
40
0.513894544314541
40
0.513894544314541
40
0.779127126142502
40
0.779127126142502
40
1
40
1
40
1
40
1
41
1
10
13.8167667794769
20
2.96433167240298
30
0
41
1
10
13.8056672194856
20
2.92260681413197
30
0
41
1
10
13.7886559514447
20
2.88150108159348
30
0
41
1
10
13.7360280644163
20
2.79224245971426
30
0
41
1
10
13.6950327446087
20
2.74487543405635
30
0
41
1
10
13.6018667893726
20
2.67258365220934
30
0
41
1
10
13.549667743062
20
2.6449089980938
30
0
41
1
10
13.4483054575269
20
2.61314633608825
30
0
41
1
10
13.3988305749587
20
2.60549999999992
30
0
41
1
10
13.3499999999998
20
2.60549999999992
30
0
0
SPLINE
5
F1
100
AcDbEntity
8
1
62
256
6
ByLayer
370
18
48
1
60
0
100
AcDbSpline
70
4
71
3
72
16
73
12
40
0
40
0
40
0
40
0
40
0.191930281182739
40
0.191930281182739
40
0.488707775608026
40
0.488707775608026
40
0.756688906725736
40
0.756688906725736
40
0.994950483060348
40
0.994950483060348
40
1
40
1
40
1
40
1
41
1
10
10.9977970005652
20
6.23293187162679
30
0
41
1
10
10.9710214643373
20
6.25951015521656
30
0
41
1
10
10.9469247874563
20
6.28972378361993
30
0
41
1
10
10.8954314204746
20
6.37344826847587
30
0
41
1
10
10.8726387319834
20
6.43231438647757
30
0
41
1
10
10.8524886700382
20
6.5494656184689
30
0
41
1
10
10.8526841067728
20
6.60908034869365
30
0
41
1
10
10.8734651759509
20
6.71768198350966
30
0
41
1
10
10.8921409914944
20
6.76866200997412
30
0
41
1
10
10.9187875582715
20
6.81551023611081
30
0
41
1
10
10.9193527348549
20
6.81649578458703
30
0
41
1
10
10.9199213772817
20
6.81747931921015
30
0
0
SPLINE
5
F2
100
AcDbEntity
8
1
62
256
6
ByLayer
370
18
48
1
60
0
100
AcDbSpline
70
4
71
3
72
18
73
14
40
0
40
0
40
0
40
0
40
0.0157923844671072
40
0.0157923844671072
40
0.238811095461892
40
0.238811095461892
40
0.4618925522511
40
0.4618925522511
40
0.697221985203082
40
0.697221985203082
40
0.954485725072596
40
0.954485725072596
40
1
40
1
40
1
40
1
41
1
10
13.3499999999998
20
2.60549999999992
30
0
41
1
10
13.3464730096041
20
2.60549999999992
30
0
41
1
10
13.3429457593785
20
2.60553863924039
30
0
41
1
10
13.2902320617184
20
2.60669361826265
30
0
41
1
10
13.2406001967535
20
2.61554678582334
30
0
41
1
10
13.1484717102424
20
2.64686055907396
30
0
41
1
10
13.1047865104682
20
2.669692396469
30
0
41
1
10
13.0260365031902
20
2.72679472442277
30
0
41
1
10
12.9905591865772
20
2.76229930132223
30
0
41
1
10
12.9306097965798
20
2.8432130359746
30
0
41
1
10
12.9066723275177
20
2.89021690075006
30
0
41
1
10
12.8881117339851
20
2.94697206899178
30
0
41
1
10
12.8855473924985
20
2.95563236380843
30
0
41
1
10
12.8832332205244
20
2.96433167240337
30
0
0
SPLINE
5
F3
100
AcDbEntity
8
1
62
256
6
ByLayer
370
18
48
1
60
0
100
AcDbSpline
70
4
71
3
72
18
73
14
40
0
40
0
40
0
40
0
40
0.0150229386922508
40
0.0150229386922508
40
0.237604440562224
40
0.237604440562224
40
0.460204731428098
40
0.460204731428098
40
0.694992075280028
40
0.694992075280028
40
0.951641525778768
40
0.951641525778768
40
1
40
1
40
1
40
1
41
1
10
15.780078622718
20
6.81747931921015
30
0
41
1
10
15.7817615942787
20
6.8145684199844
30
0
41
1
10
15.7834142774076
20
6.81163974908367
30
0
41
1
10
15.8087692760005
20
6.76559206826633
30
0
41
1
10
15.8259974141088
20
6.71820390746316
30
0
41
1
10
15.8450960858193
20
6.62278515642174
30
0
41
1
10
15.8472443400599
20
6.57353995133965
30
0
41
1
10
15.8373217764368
20
6.4767792924751
30
0
41
1
10
15.8243922232512
20
6.42828745515033
30
0
41
1
10
15.7844502710446
20
6.33586243531735
30
0
41
1
10
15.7557916634703
20
6.29159141129662
30
0
41
1
10
15.7156161608076
20
6.24664772247579
30
0
41
1
10
15.7089992246003
20
6.23967802970276
30
0
41
1
10
15.7022029994316
20
6.23293187163006
30
0
0
SPLINE
5
F4
100
AcDbEntity
8
1
62
256
6
ByLayer
370
18
48
1
60
0
100
AcDbSpline
70
4
71
3
72
18
73
14
40
0
40
0
40
0
40
0
40
0.181612675763434
40
0.181612675763434
40
0.360704962161441
40
0.360704962161441
40
0.541858957768575
40
0.541858957768575
40
0.695330353238802
40
0.695330353238802
40
0.891708592214991
40
0.891708592214991
40
1
40
1
40
1
40
1
41
1
10
13.8167667794753
20
2.96433167240337
30
0
41
1
10
13.84316537333
20
3.06356782122455
30
0
41
1
10
13.8836157753468
20
3.16185999741441
30
0
41
1
10
13.9919947765957
20
3.34564601643297
30
0
41
1
10
14.0610858438143
20
3.43333901470311
30
0
41
1
10
14.2249292154154
20
3.58714331940033
30
0
41
1
10
14.3228271976652
20
3.65512401824532
30
0
41
1
10
14.5139334587058
20
3.74860342666528
30
0
41
1
10
14.6078204891179
20
3.78023345322248
30
0
41
1
10
14.8187995200451
20
3.82372848042016
30
0
41
1
10
14.9385309194924
20
3.82872858458032
30
0
41
1
10
15.1146112708122
20
3.8106886242893
30
0
41
1
10
15.1762400013983
20
3.79914926125403
30
0
41
1
10
15.2358011562704
20
3.78303585934629
30
0
0
SPLINE
5
F5
100
AcDbEntity
8
1
62
256
6
ByLayer
370
18
48
1
60
0
100
AcDbSpline
70
4
71
3
72
12
73
8
40
0
40
0
40
0
40
0
40
0.455353062347104
40
0.455353062347104
40
0.827333545906266
40
0.827333545906266
40
1
40
1
40
1
40
1
41
1
10
15.7022029994316
20
4.59206812836976
30
0
41
1
10
15.6169711063237
20
4.6766721268344
30
0
41
1
10
15.5422718193743
20
4.77759215406874
30
0
41
1
10
15.4382641999223
20
4.98320682547256
30
0
41
1
10
15.4022183581051
20
5.08626829648512
30
0
41
1
10
15.371829156725
20
5.24374139724659
30
0
41
1
10
15.3653717667388
20
5.29536025039491
30
0
41
1
10
15.362439311956
20
5.34715273002246
30
0
0
SPLINE
5
F6
100
AcDbEntity
8
1
62
256
6
ByLayer
370
18
48
1
60
0
100
AcDbSpline
70
4
71
2
72
10
73
7
40
0
40
0
40
0
40
0.5
40
0.5
40
0.75
40
0.75
40
1
40
1
40
1
41
1
10
23.4500360792476
20
20.3114454154435
30
0
41
1
10
23.4712934862531
20
20.3790392416659
30
0
41
1
10
23.5242478514179
20
20.426735482769
30
0
41
1
10
23.5530996964189
20
20.4527224727208
30
0
41
1
10
23.5893783139627
20
20.4693593747304
30
0
41
1
10
23.6285548755001
20
20.4873252361523
30
0
41
1
10
23.6716705277393
20
20.491446197083
30
0
0
SPLINE
5
F7
100
AcDbEntity
8
1
62
256
6
ByLayer
370
18
48
1
60
0
100
AcDbSpline
70
4
71
2
72
6
73
3
40
0
40
0
40
0
40
1
40
1
40
1
41
1
10
23.6716705276544
20
20.4914461971205
30
0
41
1
10
23.7670896783835
20
20.5003374892931
30
0
41
1
10
23.8625741149678
20
20.5003609595315
30
0
0
SPLINE
5
F8
100
AcDbEntity
8
1
62
256
6
ByLayer
370
18
48
1
60
0
100
AcDbSpline
70
4
71
3
72
16
73
12
40
0
40
0
40
0
40
0
40
0.1124539714732
40
0.1124539714732
40
0.349349415487255
40
0.349349415487255
40
0.58575728542422
40
0.58575728542422
40
0.821802326372343
40
0.821802326372343
40
1
40
1
40
1
40
1
41
1
10
25.8920650950632
20
27.2179165131715
30
0
41
1
10
25.889140585563
20
27.2390314102597
30
0
41
1
10
25.8845052720975
20
27.259980601897
30
0
41
1
10
25.8651109671779
20
27.3231309287871
30
0
41
1
10
25.8443945749377
20
27.3642348675617
30
0
41
1
10
25.7912681030635
20
27.4361941604504
30
0
41
1
10
25.7581484187928
20
27.4680626757888
30
0
41
1
10
25.6842940896143
20
27.5183164621204
30
0
41
1
10
25.6425546236753
20
27.5374144561962
30
0
41
1
10
25.5666798798145
20
27.5576830450328
30
0
41
1
10
25.5325384985577
20
27.5622725130548
30
0
41
1
10
25.4986477844734
20
27.5624916231626
30
0
0
SPLINE
5
F9
100
AcDbEntity
8
1
62
256
6
ByLayer
370
18
48
1
60
0
100
AcDbSpline
70
4
71
2
72
6
73
3
40
0
40
0
40
0
40
1
40
1
40
1
41
1
10
24.3052079801817
20
20.311445415452
30
0
41
1
10
24.3263319465026
20
20.2304467190156
30
0
41
1
10
24.3563842399455
20
20.1526186384125
30
0
0
SPLINE
5
FA
100
AcDbEntity
8
1
62
256
6
ByLayer
370
18
48
1
60
0
100
AcDbSpline
70
4
71
2
72
6
73
3
40
0
40
0
40
0
40
1
40
1
40
1
41
1
10
24.3563842399385
20
20.1526186384115
30
0
41
1
10
24.3659140037078
20
20.128319759419
30
0
41
1
10
24.3861132213632
20
20.1120226247505
30
0
0
SPLINE
5
FB
100
AcDbEntity
8
1
62
256
6
ByLayer
370
18
48
1
60
0
100
AcDbSpline
70
4
71
3
72
9
73
5
40
0
40
0
40
0
40
0
40
0.508287091434068
40
1
40
1
40
1
40
1
41
1
10
24.3052079802176
20
20.31144541544
30
0
41
1
10
24.2893039567764
20
20.3539754634341
30
0
41
1
10
24.2580145069572
20
20.4376487431826
30
0
41
1
10
24.1473918583423
20
20.473712957408
30
0
41
1
10
24.0929972740386
20
20.49144619708
30
0
0
SPLINE
5
FC
100
AcDbEntity
8
1
62
256
6
ByLayer
370
18
48
1
60
0
100
AcDbSpline
70
4
71
3
72
8
73
4
40
0
40
0
40
0
40
0
40
1
40
1
40
1
40
1
41
1
10
24.0929972741255
20
20.49144619712
30
0
41
1
10
24.0295183192042
20
20.49441778459
30
0
41
1
10
23.9660393642829
20
20.49738937206
30
0
41
1
10
23.9025604093616
20
20.50036095953
30
0
0
SPLINE
5
FD
100
AcDbEntity
8
1
62
256
6
ByLayer
370
18
48
1
60
0
100
AcDbSpline
70
4
71
3
72
8
73
4
40
0
40
0
40
0
40
0
40
1
40
1
40
1
40
1
41
1
10
23.3905446188621
20
20.15261863841
30
0
41
1
10
23.3799265052197
20
20.1390866338566
30
0
41
1
10
23.3693083915773
20
20.1255546293033
30
0
41
1
10
23.3586902779349
20
20.11202262475
30
0
0
SPLINE
5
FE
100
AcDbEntity
8
1
62
256
6
ByLayer
370
18
48
1
60
0
100
AcDbSpline
70
4
71
3
72
8
73
4
40
0
40
0
40
0
40
0
40
1
40
1
40
1
40
1
41
1
10
23.4500360792838
20
20.31144541545
30
0
41
1
10
23.4302055924743
20
20.2585031564366
30
0
41
1
10
23.4103751056647
20
20.2055608974233
30
0
41
1
10
23.3905446188551
20
20.15261863841
30
0
0
INSERT
5
110
100
AcDbEntity
8
2
62
256
6
ByLayer
370
25
48
1
60
0
100
AcDbBlockReference
2
DimnDraft3D11
10
0
20
0
30
0
41
1
42
1
43
1
50
0
210
0
220
0
230
1
0
LINE
5
72
100
AcDbEntity
8
80
62
256
6
ByLayer
370
18
48
1
60
0
100
AcDbLine
10
0
20
0
30
0
11
-5
21
0
31
0
39
0
210
0
220
0
230
1
0
LINE
5
73
100
AcDbEntity
8
81
62
256
6
ByLayer
370
18
48
1
60
0
100
AcDbLine
10
25.9
20
27.5625
30
0
11
30.9
21
27.5625
31
0
39
0
210
0
220
0
230
1
0
LINE
5
74
100
AcDbEntity
8
1
62
256
6
ByLayer
370
18
48
1
60
0
100
AcDbLine
10
20.625
20
13.0625
30
0
11
2.569908
21
13.0625
31
0
39
0
210
0
220
0
230
1
0
LINE
5
76
100
AcDbEntity
8
1
62
256
6
ByLayer
370
18
48
1
60
0
100
AcDbLine
10
22.464207
20
19.503439
30
0
11
22.276017
21
19.47868
31
0
39
0
210
0
220
0
230
1
0
LINE
5
77
100
AcDbEntity
8
1
62
256
6
ByLayer
370
18
48
1
60
0
100
AcDbLine
10
0.5
20
-12.439682
30
0
11
0
21
-12.4375
31
0
39
0
210
0
220
0
230
1
0
LINE
5
78
100
AcDbEntity
8
1
62
256
6
ByLayer
370
18
48
1
60
0
100
AcDbLine
10
22.743082
20
14.6625
30
0
11
22.266238
21
14.6625
31
0
39
0
210
0
220
0
230
1
0
LINE
5
79
100
AcDbEntity
8
1
62
256
6
ByLayer
370
18
48
1
60
0
100
AcDbLine
10
20.625
20
10.129169
30
0
11
20.625
21
13.0625
31
0
39
0
210
0
220
0
230
1
0
LINE
5
7A
100
AcDbEntity
8
1
62
256
6
ByLayer
370
18
48
1
60
0
100
AcDbLine
10
25.995759
20
17.5125
30
0
11
25.737334
21
17.5125
31
0
39
0
210
0
220
0
230
1
0
LINE
5
7B
100
AcDbEntity
8
1
62
256
6
ByLayer
370
18
48
1
60
0
100
AcDbLine
10
2.569908
20
13.0625
30
0
11
0.533494
21
13.0625
31
0
39
0
210
0
220
0
230
1
0
LINE
5
7C
100
AcDbEntity
8
1
62
256
6
ByLayer
370
18
48
1
60
0
100
AcDbLine
10
25.730768
20
17.597639
30
0
11
25.995489
21
17.599205
31
0
39
0
210
0
220
0
230
1
0
LINE
5
7D
100
AcDbEntity
8
1
62
256
6
ByLayer
370
18
48
1
60
0
100
AcDbLine
10
22.039111
20
-12.473389
30
0
11
26.842019
21
-7.670481
31
0
39
0
210
0
220
0
230
1
0
LINE
5
7E
100
AcDbEntity
8
1
62
256
6
ByLayer
370
18
48
1
60
0
100
AcDbLine
10
25.869721
20
26.5625
30
0
11
25.977524
21
26.5625
31
0
39
0
210
0
220
0
230
1
0
LINE
5
7F
100
AcDbEntity
8
1
62
256
6
ByLayer
370
18
48
1
60
0
100
AcDbLine
10
0.5
20
12.9375
30
0
11
0
21
12.4375
31
0
39
0
210
0
220
0
230
1
0
LINE
5
80
100
AcDbEntity
8
1
62
256
6
ByLayer
370
18
48
1
60
0
100
AcDbLine
10
20.625
20
13.0625
30
0
11
21.358794
21
13.0625
31
0
39
0
210
0
220
0
230
1
0
LINE
5
81
100
AcDbEntity
8
1
62
256
6
ByLayer
370
18
48
1
60
0
100
AcDbLine
10
26.842019
20
10.129169
30
0
11
26.842019
21
-7.670481
31
0
39
0
210
0
220
0
230
1
0
LINE
5
82
100
AcDbEntity
8
1
62
256
6
ByLayer
370
18
48
1
60
0
100
AcDbLine
10
26.842019
20
10.129169
30
0
11
20.625
21
10.129169
31
0
39
0
210
0
220
0
230
1
0
LINE
5
83
100
AcDbEntity
8
1
62
256
6
ByLayer
370
18
48
1
60
0
100
AcDbLine
10
0.5
20
12.9375
30
0
11
0.5
21
-12.439682
31
0
39
0
210
0
220
0
230
1
0
LINE
5
84
100
AcDbEntity
8
1
62
256
6
ByLayer
370
18
48
1
60
0
100
AcDbLine
10
2.569908
20
13.0625
30
0
11
2.569908
21
-12.473389
31
0
39
0
210
0
220
0
230
1
0
LINE
5
85
100
AcDbEntity
8
1
62
256
6
ByLayer
370
18
48
1
60
0
100
AcDbLine
10
25.995759
20
14.976662
30
0
11
25.995759
21
17.5125
31
0
39
0
210
0
220
0
230
1
0
LINE
5
86
100
AcDbEntity
8
1
62
256
6
ByLayer
370
18
48
1
60
0
100
AcDbLine
10
27.161114
20
26.5625
30
0
11
25.977524
21
26.5625
31
0
39
0
210
0
220
0
230
1
0
LINE
5
87
100
AcDbEntity
8
1
62
256
6
ByLayer
370
18
48
1
60
0
100
AcDbLine
10
26.842097
20
-7.670403
30
0
11
34.427823
21
-0.084677
31
0
39
0
210
0
220
0
230
1
0
LINE
5
88
100
AcDbEntity
8
1
62
256
6
ByLayer
370
18
48
1
60
0
100
AcDbLine
10
2.569908
20
-12.473389
30
0
11
22.039111
21
-12.473389
31
0
39
0
210
0
220
0
230
1
0
LINE
5
89
100
AcDbEntity
8
1
62
256
6
ByLayer
370
18
48
1
60
0
100
AcDbLine
10
0.533494
20
13.0625
30
0
11
0.5
21
12.9375
31
0
39
0
210
0
220
0
230
1
0
LINE
5
8A
100
AcDbEntity
8
1
62
256
6
ByLayer
370
18
48
1
60
0
100
AcDbLine
10
34.427823
20
20.358444
30
0
11
34.427823
21
-0.084677
31
0
39
0
210
0
220
0
230
1
0
LINE
5
8B
100
AcDbEntity
8
1
62
256
6
ByLayer
370
18
48
1
60
0
100
AcDbLine
10
0.5
20
-12.439682
30
0
11
2.569908
21
-12.473389
31
0
39
0
210
0
220
0
230
1
0
LINE
5
8C
100
AcDbEntity
8
1
62
256
6
ByLayer
370
18
48
1
60
0
100
AcDbLine
10
25.617813
20
20.521052
30
0
11
25.977524
21
20.522117
31
0
39
0
210
0
220
0
230
1
0
LINE
5
8D
100
AcDbEntity
8
1
62
256
6
ByLayer
370
18
48
1
60
0
100
AcDbLine
10
25.977524
20
20.522117
30
0
11
25.977524
21
26.5625
31
0
39
0
210
0
220
0
230
1
0
LINE
5
8E
100
AcDbEntity
8
1
62
256
6
ByLayer
370
18
48
1
60
0
100
AcDbLine
10
0
20
-12.4375
30
0
11
0
21
12.4375
31
0
39
0
210
0
220
0
230
1
0
LINE
5
8F
100
AcDbEntity
8
SK1
62
256
6
ByLayer
370
18
48
1
60
0
100
AcDbLine
10
-125.45
20
12.4375
30
0
11
-125.45
21
-12.4375
31
0
39
0
210
0
220
0
230
1
0
LINE
5
91
100
AcDbEntity
8
SK1
62
256
6
ByLayer
370
18
48
1
60
0
100
AcDbLine
10
0
20
12.4375
30
0
11
-125.45
21
12.4375
31
0
39
0
210
0
220
0
230
1
0
LINE
5
92
100
AcDbEntity
8
SK1
62
256
6
ByLayer
370
18
48
1
60
0
100
AcDbLine
10
-125.45
20
-12.4375
30
0
11
0
21
-12.4375
31
0
39
0
210
0
220
0
230
1
0
LINE
5
93
100
AcDbEntity
8
SK1
62
256
6
ByLayer
370
18
48
1
60
0
100
AcDbLine
10
0
20
12.4375
30
0
11
0
21
-12.4375
31
0
39
0
210
0
220
0
230
1
0
LINE
5
94
100
AcDbEntity
8
1
62
256
6
ByLayer
370
18
48
1
60
0
100
AcDbLine
10
25.466225
20
19.431243
30
0
11
25.466225
21
19.897018
31
0
39
0
210
0
220
0
230
1
0
LINE
5
95
100
AcDbEntity
8
1
62
256
6
ByLayer
370
18
48
1
60
0
100
AcDbLine
10
25.617815
20
23.352802
30
0
11
25.617815
21
19.406852
31
0
39
0
210
0
220
0
230
1
0
LINE
5
96
100
AcDbEntity
8
1
62
256
6
ByLayer
370
18
48
1
60
0
100
AcDbLine
10
25.225057
20
19.469919
30
0
11
25.225057
21
19.897018
31
0
39
0
210
0
220
0
230
1
0
LINE
5
97
100
AcDbEntity
8
1
62
256
6
ByLayer
370
18
48
1
60
0
100
AcDbLine
10
25.207738
20
19.472815
30
0
11
25.207738
21
19.898537
31
0
39
0
210
0
220
0
230
1
0
LINE
5
98
100
AcDbEntity
8
1
62
256
6
ByLayer
370
18
48
1
60
0
100
AcDbLine
10
24.519716
20
19.582764
30
0
11
24.519716
21
20.020459
31
0
39
0
210
0
220
0
230
1
0
LINE
5
99
100
AcDbEntity
8
1
62
256
6
ByLayer
370
18
48
1
60
0
100
AcDbLine
10
22.525889
20
19.511503
30
0
11
22.525889
21
19.898537
31
0
39
0
210
0
220
0
230
1
0
LINE
5
9A
100
AcDbEntity
8
1
62
256
6
ByLayer
370
18
48
1
60
0
100
AcDbLine
10
22.50849
20
19.509199
30
0
11
22.50849
21
19.897018
31
0
39
0
210
0
220
0
230
1
0
LINE
5
9B
100
AcDbEntity
8
1
62
256
6
ByLayer
370
18
48
1
60
0
100
AcDbLine
10
22.267322
20
19.317329
30
0
11
22.267322
21
19.897018
31
0
39
0
210
0
220
0
230
1
0
LINE
5
9C
100
AcDbEntity
8
1
62
256
6
ByLayer
370
18
48
1
60
0
100
AcDbLine
10
23.220294
20
19.602751
30
0
11
23.220294
21
20.020459
31
0
39
0
210
0
220
0
230
1
0
LINE
5
9D
100
AcDbEntity
8
1
62
256
6
ByLayer
370
18
48
1
60
0
100
AcDbLine
10
24.475979
20
19.58971
30
0
11
24.475979
21
20.040191
31
0
39
0
210
0
220
0
230
1
0
LINE
5
9E
100
AcDbEntity
8
1
62
256
6
ByLayer
370
18
48
1
60
0
100
AcDbLine
10
24.386113
20
19.615355
30
0
11
24.386113
21
20.112023
31
0
39
0
210
0
220
0
230
1
0
LINE
5
9F
100
AcDbEntity
8
1
62
256
6
ByLayer
370
18
48
1
60
0
100
AcDbLine
10
23.265064
20
19.608532
30
0
11
23.265064
21
20.040191
31
0
39
0
210
0
220
0
230
1
0
LINE
5
A0
100
AcDbEntity
8
1
62
256
6
ByLayer
370
18
48
1
60
0
100
AcDbLine
10
23.35869
20
19.643285
30
0
11
23.35869
21
20.112023
31
0
39
0
210
0
220
0
230
1
0
LINE
5
A1
100
AcDbEntity
8
1
62
256
6
ByLayer
370
18
48
1
60
0
100
AcDbLine
10
24.356384
20
20.152619
30
0
11
24.356384
21
19.635494
31
0
39
0
210
0
220
0
230
1
0
LINE
5
A2
100
AcDbEntity
8
1
62
256
6
ByLayer
370
18
48
1
60
0
100
AcDbLine
10
23.390545
20
20.152619
30
0
11
23.390545
21
19.676693
31
0
39
0
210
0
220
0
230
1
0
LINE
5
A3
100
AcDbEntity
8
1
62
256
6
ByLayer
370
18
48
1
60
0
100
AcDbLine
10
24.305208
20
19.726844
30
0
11
24.305208
21
20.311445
31
0
39
0
210
0
220
0
230
1
0
LINE
5
A4
100
AcDbEntity
8
1
62
256
6
ByLayer
370
18
48
1
60
0
100
AcDbLine
10
23.450036
20
19.798853
30
0
11
23.450036
21
20.311445
31
0
39
0
210
0
220
0
230
1
0
LINE
5
A5
100
AcDbEntity
8
1
62
256
6
ByLayer
370
18
48
1
60
0
100
AcDbLine
10
24.092997
20
19.868984
30
0
11
24.092997
21
20.491446
31
0
39
0
210
0
220
0
230
1
0
LINE
5
A6
100
AcDbEntity
8
1
62
256
6
ByLayer
370
18
48
1
60
0
100
AcDbLine
10
23.671671
20
19.874413
30
0
11
23.671671
21
20.491446
31
0
39
0
210
0
220
0
230
1
0
LINE
5
A7
100
AcDbEntity
8
1
62
256
6
ByLayer
370
18
48
1
60
0
100
AcDbLine
10
23.90256
20
19.871438
30
0
11
23.90256
21
20.500361
31
0
39
0
210
0
220
0
230
1
0
LINE
5
A8
100
AcDbEntity
8
1
62
256
6
ByLayer
370
18
48
1
60
0
100
AcDbLine
10
23.862574
20
19.871948
30
0
11
23.862574
21
20.500361
31
0
39
0
210
0
220
0
230
1
0
LINE
5
A9
100
AcDbEntity
8
1
62
256
6
ByLayer
370
18
48
1
60
0
100
AcDbLine
10
23.90256
20
20.500361
30
0
11
23.862574
21
20.500361
31
0
39
0
210
0
220
0
230
1
0
LINE
5
AA
100
AcDbEntity
8
1
62
256
6
ByLayer
370
18
48
1
60
0
100
AcDbLine
10
25.738796
20
23.5625
30
0
11
25.500137
21
23.14899
31
0
39
0
210
0
220
0
230
1
0
LINE
5
AB
100
AcDbEntity
8
1
62
256
6
ByLayer
370
18
48
1
60
0
100
AcDbLine
10
25.500137
20
21.1925
30
0
11
25.500137
21
23.14899
31
0
39
0
210
0
220
0
230
1
0
LINE
5
AC
100
AcDbEntity
8
1
62
256
6
ByLayer
370
18
48
1
60
0
100
AcDbLine
10
22.267322
20
19.897018
30
0
11
22.50849
21
19.897018
31
0
39
0
210
0
220
0
230
1
0
LINE
5
AD
100
AcDbEntity
8
1
62
256
6
ByLayer
370
18
48
1
60
0
100
AcDbLine
10
22.525889
20
19.898537
30
0
11
23.220294
21
20.020459
31
0
39
0
210
0
220
0
230
1
0
LINE
5
AE
100
AcDbEntity
8
1
62
256
6
ByLayer
370
18
48
1
60
0
100
AcDbLine
10
23.265064
20
20.040191
30
0
11
23.35869
21
20.112023
31
0
39
0
210
0
220
0
230
1
0
LINE
5
AF
100
AcDbEntity
8
1
62
256
6
ByLayer
370
18
48
1
60
0
100
AcDbLine
10
25.500137
20
21.1925
30
0
11
25.466225
21
19.897018
31
0
39
0
210
0
220
0
230
1
0
LINE
5
B0
100
AcDbEntity
8
1
62
256
6
ByLayer
370
18
48
1
60
0
100
AcDbLine
10
22.267322
20
19.897018
30
0
11
22.301234
21
21.1925
31
0
39
0
210
0
220
0
230
1
0
LINE
5
B1
100
AcDbEntity
8
1
62
256
6
ByLayer
370
18
48
1
60
0
100
AcDbLine
10
25.500137
20
21.1925
30
0
11
22.301234
21
21.1925
31
0
39
0
210
0
220
0
230
1
0
LINE
5
B2
100
AcDbEntity
8
1
62
256
6
ByLayer
370
18
48
1
60
0
100
AcDbLine
10
22.301234
20
21.1925
30
0
11
22.301234
21
23.14899
31
0
39
0
210
0
220
0
230
1
0
LINE
5
B3
100
AcDbEntity
8
1
62
256
6
ByLayer
370
18
48
1
60
0
100
AcDbLine
10
25.498653
20
27.5625
30
0
11
22.302718
21
27.5625
31
0
39
0
210
0
220
0
230
1
0
LINE
5
B4
100
AcDbEntity
8
1
62
256
6
ByLayer
370
18
48
1
60
0
100
AcDbLine
10
21.906133
20
27.146836
30
0
11
22.062575
21
23.5625
31
0
39
0
210
0
220
0
230
1
0
LINE
5
B5
100
AcDbEntity
8
1
62
256
6
ByLayer
370
18
48
1
60
0
100
AcDbLine
10
22.062575
20
23.5625
30
0
11
22.301234
21
23.14899
31
0
39
0
210
0
220
0
230
1
0
LINE
5
B6
100
AcDbEntity
8
1
62
256
6
ByLayer
370
18
48
1
60
0
100
AcDbLine
10
25.895237
20
27.146836
30
0
11
25.738796
21
23.5625
31
0
39
0
210
0
220
0
230
1
0
LINE
5
B7
100
AcDbEntity
8
1
62
256
6
ByLayer
370
18
48
1
60
0
100
AcDbLine
10
25.466225
20
19.897018
30
0
11
25.225057
21
19.897018
31
0
39
0
210
0
220
0
230
1
0
LINE
5
B8
100
AcDbEntity
8
1
62
256
6
ByLayer
370
18
48
1
60
0
100
AcDbLine
10
24.475979
20
20.040191
30
0
11
24.386113
21
20.112023
31
0
39
0
210
0
220
0
230
1
0
LINE
5
B9
100
AcDbEntity
8
1
62
256
6
ByLayer
370
18
48
1
60
0
100
AcDbLine
10
25.207738
20
19.898537
30
0
11
24.519716
21
20.020459
31
0
39
0
210
0
220
0
230
1
0
MTEXT
5
FF
100
AcDbEntity
8
SK6
62
256
6
ByLayer
370
18
48
1
60
0
100
AcDbMText
10
-74.636089
20
-23.319141
30
0
210
0
220
0
230
1
1
\W0.7536;RG123H13-2525B-040BM
40
3.5
41
0
44
1.084337
50
0
71
7
72
5
7
iso_b_vert
0
DIMENSION
5
11F
100
AcDbEntity
8
SK2
62
256
6
ByLayer
370
13
48
1
60
0
100
AcDbDimension
2
DimnDraft3D2
10
-135.2
20
-12.4375
30
0
11
-135.2
21
-2.688158
31
0
70
32
71
5
72
1
41
1
210
0
220
0
230
1
3
Standard
100
AcDbAlignedDimension
13
-126.95
23
12.4375
33
0
14
-126.95
24
-12.4375
34
0
50
90
100
AcDbRotatedDimension
1001
ACAD
1000
DSTYLE
1002
{
1070
    74
1070
     0
1070
   279
1070
     0
1070
   172
1070
     1
1070
   173
1070
     1
1070
   340
1005
100
1070
   271
1070
     3
1070
   272
1070
     3
1070
    77
1070
     1
1070
    73
1070
     0
1070
   171
1070
     4
1070
   274
1070
     4
1070
   177
1070
     2
1070
   176
1070
     2
1070
   178
1070
     7
1070
    78
1070
     8
1070
    41
1041
3.0
1070
   147
1041
2.25
1070
    42
1041
1.5
1070
    44
1041
3.0
1070
   140
1041
4.5
1070
   343
1005
120
1070
   344
1005
120
1002
}
0
DIMENSION
5
134
100
AcDbEntity
8
2
62
256
6
ByLayer
370
13
48
1
60
0
100
AcDbDimension
2
DimnDraft3D3
10
12.15
20
14.5625
30
0
11
12.15
21
18.936842
31
0
70
32
71
5
72
1
41
1
210
0
220
0
230
1
3
Standard
100
AcDbAlignedDimension
13
22.4
23
27.5625
33
0
14
15.4
24
14.5625
34
0
50
90
100
AcDbRotatedDimension
1001
ACAD
1000
DSTYLE
1002
{
1070
    74
1070
     0
1070
   279
1070
     0
1070
   172
1070
     1
1070
   173
1070
     1
1070
   340
1005
100
1070
   271
1070
     3
1070
   272
1070
     3
1070
    77
1070
     1
1070
    73
1070
     0
1070
   171
1070
     4
1070
   274
1070
     4
1070
   177
1070
     2
1070
   176
1070
     2
1070
   178
1070
     7
1070
    78
1070
     8
1070
    41
1041
3.0
1070
   147
1041
2.25
1070
    42
1041
1.5
1070
    44
1041
3.0
1070
   140
1041
4.5
1070
   343
1005
120
1070
   344
1005
120
1002
}
0
DIMENSION
5
142
100
AcDbEntity
8
2
62
256
6
ByLayer
370
13
48
1
60
0
100
AcDbDimension
2
DimnDraft3D4
10
48.677823
20
27.5625
30
0
11
48.677823
21
4.6375
31
0
70
32
71
5
72
1
41
1
210
0
220
0
230
1
3
Standard
100
AcDbAlignedDimension
13
1.5
23
-12.4375
33
0
14
27.4
24
27.5625
34
0
50
90
100
AcDbRotatedDimension
1001
ACAD
1000
DSTYLE
1002
{
1070
    74
1070
     0
1070
   279
1070
     0
1070
   172
1070
     1
1070
   173
1070
     1
1070
   340
1005
100
1070
   271
1070
     3
1070
   272
1070
     3
1070
    77
1070
     1
1070
    73
1070
     0
1070
   171
1070
     4
1070
   274
1070
     4
1070
   177
1070
     2
1070
   176
1070
     2
1070
   178
1070
     7
1070
    78
1070
     8
1070
    41
1041
3.0
1070
   147
1041
2.25
1070
    42
1041
1.5
1070
    44
1041
3.0
1070
   140
1041
4.5
1070
   343
1005
120
1070
   344
1005
120
1002
}
0
DIMENSION
5
150
100
AcDbEntity
8
SK2
62
256
6
ByLayer
370
13
48
1
60
0
100
AcDbDimension
2
DimnDraft3D5
10
25.9
20
57.3125
30
0
11
-53.582237
21
57.3125
31
0
70
32
71
5
72
1
41
1
210
0
220
0
230
1
3
Standard
100
AcDbAlignedDimension
13
-125.45
23
13.9375
33
0
14
25.9
24
29.0625
34
0
50
0
100
AcDbRotatedDimension
1001
ACAD
1000
DSTYLE
1002
{
1070
   279
1070
     0
1070
   172
1070
     1
1070
   173
1070
     1
1070
   340
1005
100
1070
   271
1070
     3
1070
   272
1070
     3
1070
    77
1070
     1
1070
    73
1070
     0
1070
   171
1070
     4
1070
   274
1070
     4
1070
   177
1070
     2
1070
   176
1070
     2
1070
   178
1070
     7
1070
    78
1070
     8
1070
    41
1041
3.0
1070
   147
1041
2.25
1070
    42
1041
1.5
1070
    44
1041
3.0
1070
   140
1041
4.5
1070
   343
1005
120
1070
   344
1005
120
1002
}
0
DIMENSION
5
15E
100
AcDbEntity
8
2
62
256
6
ByLayer
370
13
48
1
60
0
100
AcDbDimension
2
DimnDraft3D6
10
25.9
20
37.3125
30
0
11
30.4
21
37.3125
31
0
70
32
71
5
72
1
41
1
210
0
220
0
230
1
3
Standard
100
AcDbAlignedDimension
13
21.9
23
29.0625
33
0
14
25.9
24
29.0625
34
0
50
0
100
AcDbRotatedDimension
1001
ACAD
1000
DSTYLE
1002
{
1070
   279
1070
     0
1070
   172
1070
     1
1070
   173
1070
     1
1070
   340
1005
100
1070
   271
1070
     3
1070
   272
1070
     3
1070
    77
1070
     1
1070
    73
1070
     0
1070
   171
1070
     4
1070
   274
1070
     4
1070
   177
1070
     2
1070
   176
1070
     2
1070
   178
1070
     7
1070
    78
1070
     8
1070
    41
1041
3.0
1070
   147
1041
2.25
1070
    42
1041
1.5
1070
    44
1041
3.0
1070
   140
1041
4.5
1070
   343
1005
120
1070
   344
1005
120
1002
}
0
ENDSEC
0
SECTION
2
OBJECTS
0
DICTIONARY
5
1c8
330
0
100
AcDbDictionary
280
0
281
1
3
ACAD_GROUP
350
1c9
3
ACAD_MLINESTYLE
350
1ca
0
DICTIONARY
5
1c9
330
0
100
AcDbDictionary
280
0
281
1
0
DICTIONARY
5
1ca
330
0
100
AcDbDictionary
280
0
281
1
3
Standard
350
18
0
MLINESTYLE
5
18
330
1ca
100
AcDbMlineStyle
2
Standard
70
0
3

62
256
51
90
52
90
71
2
49
-0.5
62
256
6
ByLayer
49
0.5
62
256
6
ByLayer
0
RASTERVARIABLES
5
1b7
330

100
AcDbRasterVariables
90
0
70
1
71
1
72
1
0
ENDSEC
0
EOF
