0
SECTION
2
HEADER
9
$ACADVER
1
AC1015
9
$DWGCODEPAGE
3
ANSI_1252
9
$HANDSEED
5
1e9
9
$ANGBASE
50
0
9
$ANGDIR
70
0
9
$ATTMODE
70
1
9
$AUNITS
70
0
9
$AUPREC
70
0
9
$CECOLOR
62
256
9
$CELTSCALE
40
1
9
$CELTYPE
6
ByLayer
9
$CELWEIGHT
370
18
9
$CLAYER
8
0
9
$CMLJUST
70
0
9
$CMLSCALE
40
1
9
$CMLSTYLE
2
Standard
9
$DIMSTYLE
2
Standard
9
$TEXTSIZE
40
0.2
9
$TEXTSTYLE
7
Standard
9
$LUNITS
70
2
9
$LUPREC
70
4
9
$EXTNAMES
290
1
9
$INSUNITS
70
4
9
$LTSCALE
40
1
9
$LWDISPLAY
290
1
9
$PDMODE
70
0
9
$PDSIZE
40
0
9
$PLINEGEN
70
0
0
ENDSEC
0
SECTION
2
CLASSES
0
CLASS
1
RASTERVARIABLES
2
AcDbRasterVariables
3
ISM
90
0
280
0
281
0
0
ENDSEC
0
SECTION
2
TABLES
0
TABLE
2
VPORT
5
1df
100
AcDbSymbolTable
0
VPORT
5
1
100
AcDbSymbolTableRecord
100
AcDbViewportTableRecord
2
*Active
70
0
10
0
20
0
11
1
21
1
12
-1
22
1
13
0
23
0
14
0.5
24
0.5
15
10
25
10
16
0
26
0
36
1
17
0
27
0
37
0
0
ENDTAB
0
TABLE
2
LTYPE
5
1e0
100
AcDbSymbolTable
0
LTYPE
5
14
100
AcDbSymbolTableRecord
100
AcDbLinetypeTableRecord
70
0
2
ByBlock
3

72
65
73
0
40
0
0
LTYPE
5
15
100
AcDbSymbolTableRecord
100
AcDbLinetypeTableRecord
70
0
2
ByLayer
3

72
65
73
0
40
0
0
LTYPE
5
16
100
AcDbSymbolTableRecord
100
AcDbLinetypeTableRecord
70
0
2
CONTINUOUS
3
Solid line
72
65
73
0
40
0
0
LTYPE
5
6A
100
AcDbSymbolTableRecord
100
AcDbLinetypeTableRecord
70
0
2
CENTER
3
____ _ ____ _ ____ _ ____
72
65
73
4
40
47.5
49
22
74
0
49
-8.5
74
0
49
8.5
74
0
49
-8.5
74
0
0
LTYPE
5
6B
100
AcDbSymbolTableRecord
100
AcDbLinetypeTableRecord
70
0
2
DASHED
3
__ __ __ __ __ __ __ __ __
72
65
73
2
40
25.72
49
12.86
74
0
49
-12.86
74
0
0
ENDTAB
0
TABLE
2
LAYER
5
1e1
100
AcDbSymbolTable
0
LAYER
5
10
100
AcDbSymbolTableRecord
100
AcDbLayerTableRecord
2
0
70
0
62
7
6
CONTINUOUS
290
1
370
-3
390
0
0
LAYER
5
6D
100
AcDbSymbolTableRecord
100
AcDbLayerTableRecord
2
80
70
0
62
-6
6
CONTINUOUS
290
1
370
-3
390
0
0
LAYER
5
6F
100
AcDbSymbolTableRecord
100
AcDbLayerTableRecord
2
2
70
0
62
7
6
CONTINUOUS
290
1
370
-3
390
0
0
LAYER
5
71
100
AcDbSymbolTableRecord
100
AcDbLayerTableRecord
2
81
70
0
62
-3
6
CONTINUOUS
290
1
370
-3
390
0
0
LAYER
5
74
100
AcDbSymbolTableRecord
100
AcDbLayerTableRecord
2
1
70
0
62
4
6
CONTINUOUS
290
1
370
-3
390
0
0
LAYER
5
1cc
100
AcDbSymbolTableRecord
100
AcDbLayerTableRecord
2
SK1
70
0
62
4
6
CONTINUOUS
290
1
370
-3
390
0
0
LAYER
5
1cd
100
AcDbSymbolTableRecord
100
AcDbLayerTableRecord
2
SK6
70
0
62
5
6
CONTINUOUS
290
1
370
-3
390
0
0
LAYER
5
1ce
100
AcDbSymbolTableRecord
100
AcDbLayerTableRecord
2
SK2
70
0
62
7
6
CONTINUOUS
290
1
370
-3
390
0
0
ENDTAB
0
TABLE
2
STYLE
5
1e2
100
AcDbSymbolTable
0
STYLE
5
11
100
AcDbSymbolTableRecord
100
AcDbTextStyleTableRecord
2
Standard
3
txt
70
0
71
0
40
0
41
1
42
0
50
0
0
STYLE
5
114
100
AcDbSymbolTableRecord
100
AcDbTextStyleTableRecord
2
iso_b_vert
3
simplex.shx
70
0
71
0
40
0
41
1
42
0
50
0
0
STYLE
5
115
100
AcDbSymbolTableRecord
100
AcDbTextStyleTableRecord
2
DWGDirectTextStyle
3
simplex
70
0
71
0
40
0
41
1
42
0
50
0
0
ENDTAB
0
TABLE
2
DIMSTYLE
5
1e3
100
AcDbSymbolTable
100
AcDbDimStyleTable
0
DIMSTYLE
105
27
100
AcDbSymbolTableRecord
100
AcDbDimStyleTableRecord
2
Standard
70
0
3
<>
41
0.18
42
0.0625
44
0.18
140
0.18
147
0.09
73
0
74
0
77
1
271
2
275
0
278
52
280
0
340
11
0
ENDTAB
0
TABLE
2
VIEW
5
1e4
100
AcDbSymbolTable
0
ENDTAB
0
TABLE
2
UCS
5
1e5
100
AcDbSymbolTable
0
ENDTAB
0
TABLE
2
APPID
5
1e6
100
AcDbSymbolTable
0
APPID
5
12
100
AcDbSymbolTableRecord
100
AcDbRegAppTableRecord
2
ACAD
70
0
0
ENDTAB
0
TABLE
2
BLOCK_RECORD
5
1e7
100
AcDbSymbolTable
0
BLOCK_RECORD
5
1F
100
AcDbSymbolTableRecord
100
AcDbBlockTableRecord
2
*Model_Space
340
0
70
0
0
BLOCK_RECORD
5
1B
100
AcDbSymbolTableRecord
100
AcDbBlockTableRecord
2
*Paper_Space
340
0
70
0
0
BLOCK_RECORD
5
23
100
AcDbSymbolTableRecord
100
AcDbBlockTableRecord
2
*Paper_Space0
340
0
70
0
0
BLOCK_RECORD
5
117
100
AcDbSymbolTableRecord
100
AcDbBlockTableRecord
2
DimnDraft3D1
340
0
70
0
0
BLOCK_RECORD
5
125
100
AcDbSymbolTableRecord
100
AcDbBlockTableRecord
2
_CLOSED
340
0
70
0
0
BLOCK_RECORD
5
12C
100
AcDbSymbolTableRecord
100
AcDbBlockTableRecord
2
DimnDraft3D2
340
0
70
0
0
BLOCK_RECORD
5
13A
100
AcDbSymbolTableRecord
100
AcDbBlockTableRecord
2
DimnDraft3D3
340
0
70
0
0
BLOCK_RECORD
5
149
100
AcDbSymbolTableRecord
100
AcDbBlockTableRecord
2
DimnDraft3D4
340
0
70
0
0
BLOCK_RECORD
5
157
100
AcDbSymbolTableRecord
100
AcDbBlockTableRecord
2
DimnDraft3D5
340
0
70
0
0
BLOCK_RECORD
5
165
100
AcDbSymbolTableRecord
100
AcDbBlockTableRecord
2
DimnDraft3D6
340
0
70
0
0
ENDTAB
0
ENDSEC
0
SECTION
2
BLOCKS
0
BLOCK
5
20
100
AcDbEntity
8
0
100
AcDbBlockBegin
2
*Model_Space
70
0
10
0
20
0
30
0
3
*Model_Space
0
ENDBLK
5
21
100
AcDbEntity
8
0
100
AcDbBlockEnd
0
BLOCK
5
1C
100
AcDbEntity
8
0
100
AcDbBlockBegin
2
*Paper_Space
70
0
10
0
20
0
30
0
3
*Paper_Space
0
ENDBLK
5
1D
100
AcDbEntity
8
0
100
AcDbBlockEnd
0
BLOCK
5
24
100
AcDbEntity
8
0
100
AcDbBlockBegin
2
*Paper_Space0
70
0
10
0
20
0
30
0
3
*Paper_Space0
0
ENDBLK
5
25
100
AcDbEntity
8
0
100
AcDbBlockEnd
0
BLOCK
5
122
100
AcDbEntity
8
0
100
AcDbBlockBegin
2
DimnDraft3D1
70
0
10
0
20
0
30
0
3
DimnDraft3D1
0
MTEXT
5
118
100
AcDbEntity
8
2
62
256
6
ByLayer
370
18
48
1
60
0
100
AcDbMText
10
50.825
20
19.1875
30
0
210
0
220
0
230
1
1
\W0.5404;3
40
4.5
41
0
44
1.084337
50
90
71
7
72
5
7
iso_b_vert
0
LINE
5
119
100
AcDbEntity
8
2
62
256
6
ByLayer
370
13
48
1
60
0
100
AcDbLine
10
39.2
20
10.5625
30
0
11
54.95
21
10.5625
31
0
39
0
210
0
220
0
230
1
0
LINE
5
11A
100
AcDbEntity
8
2
62
256
6
ByLayer
370
13
48
1
60
0
100
AcDbLine
10
39.2
20
13.5625
30
0
11
54.95
21
13.5625
31
0
39
0
210
0
220
0
230
1
0
LINE
5
11B
100
AcDbEntity
8
2
62
256
6
ByLayer
370
13
48
1
60
0
100
AcDbLine
10
51.95
20
20.075658
30
0
11
51.95
21
-0.6875
31
0
39
0
210
0
220
0
230
1
0
LINE
5
11C
100
AcDbEntity
8
2
62
256
6
ByLayer
370
13
48
1
60
0
100
AcDbLine
10
51.95
20
10.5625
30
0
11
52.344957
21
7.562501
31
0
39
0
210
0
220
0
230
1
0
LINE
5
11D
100
AcDbEntity
8
2
62
256
6
ByLayer
370
13
48
1
60
0
100
AcDbLine
10
51.95
20
10.5625
30
0
11
51.555043
21
7.562499
31
0
39
0
210
0
220
0
230
1
0
LINE
5
11E
100
AcDbEntity
8
2
62
256
6
ByLayer
370
13
48
1
60
0
100
AcDbLine
10
52.344957
20
7.562501
30
0
11
51.555043
21
7.562499
31
0
39
0
210
0
220
0
230
1
0
LINE
5
11F
100
AcDbEntity
8
2
62
256
6
ByLayer
370
13
48
1
60
0
100
AcDbLine
10
51.95
20
13.5625
30
0
11
51.555043
21
16.562499
31
0
39
0
210
0
220
0
230
1
0
LINE
5
120
100
AcDbEntity
8
2
62
256
6
ByLayer
370
13
48
1
60
0
100
AcDbLine
10
51.95
20
13.5625
30
0
11
52.344957
21
16.562501
31
0
39
0
210
0
220
0
230
1
0
LINE
5
121
100
AcDbEntity
8
2
62
256
6
ByLayer
370
13
48
1
60
0
100
AcDbLine
10
51.555043
20
16.562499
30
0
11
52.344957
21
16.562501
31
0
39
0
210
0
220
0
230
1
0
ENDBLK
5
123
100
AcDbEntity
8
0
100
AcDbBlockEnd
0
BLOCK
5
126
100
AcDbEntity
8
0
100
AcDbBlockBegin
2
_CLOSED
70
0
10
0
20
0
30
0
3
_CLOSED
0
LINE
5
128
100
AcDbEntity
8
0
62
256
6
ByLayer
370
-2
48
1
60
0
100
AcDbLine
10
-1
20
0.166667
30
0
11
0
21
0
31
0
39
0
210
0
220
0
230
1
0
LINE
5
129
100
AcDbEntity
8
0
62
256
6
ByLayer
370
-2
48
1
60
0
100
AcDbLine
10
0
20
0
30
0
11
-1
21
-0.166667
31
0
39
0
210
0
220
0
230
1
0
LINE
5
12A
100
AcDbEntity
8
0
62
256
6
ByLayer
370
-2
48
1
60
0
100
AcDbLine
10
-1
20
0.166667
30
0
11
-1
21
-0.166667
31
0
39
0
210
0
220
0
230
1
0
LINE
5
12B
100
AcDbEntity
8
0
62
256
6
ByLayer
370
-2
48
1
60
0
100
AcDbLine
10
0
20
0
30
0
11
-1
21
0
31
0
39
0
210
0
220
0
230
1
0
ENDBLK
5
127
100
AcDbEntity
8
0
100
AcDbBlockEnd
0
BLOCK
5
137
100
AcDbEntity
8
0
100
AcDbBlockBegin
2
DimnDraft3D2
70
0
10
0
20
0
30
0
3
DimnDraft3D2
0
MTEXT
5
12D
100
AcDbEntity
8
2
62
256
6
ByLayer
370
18
48
1
60
0
100
AcDbMText
10
60.825
20
-1.000658
30
0
210
0
220
0
230
1
1
\W0.6740;26
40
4.5
41
0
44
1.084337
50
90
71
7
72
5
7
iso_b_vert
0
LINE
5
12E
100
AcDbEntity
8
2
62
256
6
ByLayer
370
13
48
1
60
0
100
AcDbLine
10
39.2
20
13.5625
30
0
11
64.95
21
13.5625
31
0
39
0
210
0
220
0
230
1
0
LINE
5
12F
100
AcDbEntity
8
2
62
256
6
ByLayer
370
13
48
1
60
0
100
AcDbLine
10
-3.5
20
-12.4375
30
0
11
64.95
21
-12.4375
31
0
39
0
210
0
220
0
230
1
0
LINE
5
130
100
AcDbEntity
8
2
62
256
6
ByLayer
370
13
48
1
60
0
100
AcDbLine
10
61.95
20
13.5625
30
0
11
61.95
21
-12.4375
31
0
39
0
210
0
220
0
230
1
0
LINE
5
131
100
AcDbEntity
8
2
62
256
6
ByLayer
370
13
48
1
60
0
100
AcDbLine
10
61.95
20
13.5625
30
0
11
62.344957
21
10.562501
31
0
39
0
210
0
220
0
230
1
0
LINE
5
132
100
AcDbEntity
8
2
62
256
6
ByLayer
370
13
48
1
60
0
100
AcDbLine
10
61.95
20
13.5625
30
0
11
61.555043
21
10.562499
31
0
39
0
210
0
220
0
230
1
0
LINE
5
133
100
AcDbEntity
8
2
62
256
6
ByLayer
370
13
48
1
60
0
100
AcDbLine
10
62.344957
20
10.562501
30
0
11
61.555043
21
10.562499
31
0
39
0
210
0
220
0
230
1
0
LINE
5
134
100
AcDbEntity
8
2
62
256
6
ByLayer
370
13
48
1
60
0
100
AcDbLine
10
61.95
20
-12.4375
30
0
11
61.555043
21
-9.437501
31
0
39
0
210
0
220
0
230
1
0
LINE
5
135
100
AcDbEntity
8
2
62
256
6
ByLayer
370
13
48
1
60
0
100
AcDbLine
10
61.95
20
-12.4375
30
0
11
62.344957
21
-9.437499
31
0
39
0
210
0
220
0
230
1
0
LINE
5
136
100
AcDbEntity
8
2
62
256
6
ByLayer
370
13
48
1
60
0
100
AcDbLine
10
61.555043
20
-9.437501
30
0
11
62.344957
21
-9.437499
31
0
39
0
210
0
220
0
230
1
0
ENDBLK
5
138
100
AcDbEntity
8
0
100
AcDbBlockEnd
0
BLOCK
5
146
100
AcDbEntity
8
0
100
AcDbBlockBegin
2
DimnDraft3D3
70
0
10
0
20
0
30
0
3
DimnDraft3D3
0
MTEXT
5
13B
100
AcDbEntity
8
SK2
62
256
6
ByLayer
370
18
48
1
60
0
100
AcDbMText
10
-124.525
20
-1.563158
30
0
210
0
220
0
230
1
1
\W0.6740;25
40
4.5
41
0
44
1.084337
50
90
71
7
72
5
7
iso_b_vert
0
LINE
5
13D
100
AcDbEntity
8
SK2
62
256
6
ByLayer
370
13
48
1
60
0
100
AcDbLine
10
-115.15
20
12.4375
30
0
11
-126.4
21
12.4375
31
0
39
0
210
0
220
0
230
1
0
LINE
5
13E
100
AcDbEntity
8
SK2
62
256
6
ByLayer
370
13
48
1
60
0
100
AcDbLine
10
-115.15
20
-12.4375
30
0
11
-126.4
21
-12.4375
31
0
39
0
210
0
220
0
230
1
0
LINE
5
13F
100
AcDbEntity
8
SK2
62
256
6
ByLayer
370
13
48
1
60
0
100
AcDbLine
10
-123.4
20
12.4375
30
0
11
-123.4
21
-12.4375
31
0
39
0
210
0
220
0
230
1
0
LINE
5
140
100
AcDbEntity
8
SK2
62
256
6
ByLayer
370
13
48
1
60
0
100
AcDbLine
10
-123.4
20
12.4375
30
0
11
-123.005043
21
9.437501
31
0
39
0
210
0
220
0
230
1
0
LINE
5
141
100
AcDbEntity
8
SK2
62
256
6
ByLayer
370
13
48
1
60
0
100
AcDbLine
10
-123.4
20
12.4375
30
0
11
-123.794957
21
9.437499
31
0
39
0
210
0
220
0
230
1
0
LINE
5
142
100
AcDbEntity
8
SK2
62
256
6
ByLayer
370
13
48
1
60
0
100
AcDbLine
10
-123.005043
20
9.437501
30
0
11
-123.794957
21
9.437499
31
0
39
0
210
0
220
0
230
1
0
LINE
5
143
100
AcDbEntity
8
SK2
62
256
6
ByLayer
370
13
48
1
60
0
100
AcDbLine
10
-123.4
20
-12.4375
30
0
11
-123.794957
21
-9.437501
31
0
39
0
210
0
220
0
230
1
0
LINE
5
144
100
AcDbEntity
8
SK2
62
256
6
ByLayer
370
13
48
1
60
0
100
AcDbLine
10
-123.4
20
-12.4375
30
0
11
-123.005043
21
-9.437499
31
0
39
0
210
0
220
0
230
1
0
LINE
5
145
100
AcDbEntity
8
SK2
62
256
6
ByLayer
370
13
48
1
60
0
100
AcDbLine
10
-123.794957
20
-9.437501
30
0
11
-123.005043
21
-9.437499
31
0
39
0
210
0
220
0
230
1
0
ENDBLK
5
147
100
AcDbEntity
8
0
100
AcDbBlockEnd
0
BLOCK
5
154
100
AcDbEntity
8
0
100
AcDbBlockBegin
2
DimnDraft3D4
70
0
10
0
20
0
30
0
3
DimnDraft3D4
0
MTEXT
5
14A
100
AcDbEntity
8
2
62
256
6
ByLayer
370
18
48
1
60
0
100
AcDbMText
10
14.693421
20
27.77951
30
0
210
0
220
0
230
1
1
\W0.7346;37.7
40
4.5
41
0
44
1.084337
50
0
71
7
72
5
7
iso_b_vert
0
LINE
5
14B
100
AcDbEntity
8
2
62
256
6
ByLayer
370
13
48
1
60
0
100
AcDbLine
10
37.7
20
15.0625
30
0
11
37.7
21
29.65451
31
0
39
0
210
0
220
0
230
1
0
LINE
5
14C
100
AcDbEntity
8
2
62
256
6
ByLayer
370
13
48
1
60
0
100
AcDbLine
10
0
20
13.9375
30
0
11
0
21
29.65451
31
0
39
0
210
0
220
0
230
1
0
LINE
5
14D
100
AcDbEntity
8
2
62
256
6
ByLayer
370
13
48
1
60
0
100
AcDbLine
10
37.7
20
26.65451
30
0
11
0
21
26.65451
31
0
39
0
210
0
220
0
230
1
0
LINE
5
14E
100
AcDbEntity
8
2
62
256
6
ByLayer
370
13
48
1
60
0
100
AcDbLine
10
37.7
20
26.65451
30
0
11
34.700001
21
26.259552
31
0
39
0
210
0
220
0
230
1
0
LINE
5
14F
100
AcDbEntity
8
2
62
256
6
ByLayer
370
13
48
1
60
0
100
AcDbLine
10
37.7
20
26.65451
30
0
11
34.699999
21
27.049467
31
0
39
0
210
0
220
0
230
1
0
LINE
5
150
100
AcDbEntity
8
2
62
256
6
ByLayer
370
13
48
1
60
0
100
AcDbLine
10
34.700001
20
26.259552
30
0
11
34.699999
21
27.049467
31
0
39
0
210
0
220
0
230
1
0
LINE
5
151
100
AcDbEntity
8
2
62
256
6
ByLayer
370
13
48
1
60
0
100
AcDbLine
10
0
20
26.65451
30
0
11
2.999999
21
27.049467
31
0
39
0
210
0
220
0
230
1
0
LINE
5
152
100
AcDbEntity
8
2
62
256
6
ByLayer
370
13
48
1
60
0
100
AcDbLine
10
0
20
26.65451
30
0
11
3.000001
21
26.259552
31
0
39
0
210
0
220
0
230
1
0
LINE
5
153
100
AcDbEntity
8
2
62
256
6
ByLayer
370
13
48
1
60
0
100
AcDbLine
10
2.999999
20
27.049467
30
0
11
3.000001
21
26.259552
31
0
39
0
210
0
220
0
230
1
0
ENDBLK
5
155
100
AcDbEntity
8
0
100
AcDbBlockEnd
0
BLOCK
5
162
100
AcDbEntity
8
0
100
AcDbBlockBegin
2
DimnDraft3D5
70
0
10
0
20
0
30
0
3
DimnDraft3D5
0
MTEXT
5
158
100
AcDbEntity
8
SK2
62
256
6
ByLayer
370
18
48
1
60
0
100
AcDbMText
10
-40.657237
20
37.77951
30
0
210
0
220
0
230
1
1
\W0.6217;150
40
4.5
41
0
44
1.084337
50
0
71
7
72
5
7
iso_b_vert
0
LINE
5
159
100
AcDbEntity
8
SK2
62
256
6
ByLayer
370
13
48
1
60
0
100
AcDbLine
10
37.7
20
15.0625
30
0
11
37.7
21
39.65451
31
0
39
0
210
0
220
0
230
1
0
LINE
5
15A
100
AcDbEntity
8
SK2
62
256
6
ByLayer
370
13
48
1
60
0
100
AcDbLine
10
-113.65
20
13.9375
30
0
11
-113.65
21
39.65451
31
0
39
0
210
0
220
0
230
1
0
LINE
5
15B
100
AcDbEntity
8
SK2
62
256
6
ByLayer
370
13
48
1
60
0
100
AcDbLine
10
37.7
20
36.65451
30
0
11
-113.65
21
36.65451
31
0
39
0
210
0
220
0
230
1
0
LINE
5
15C
100
AcDbEntity
8
SK2
62
256
6
ByLayer
370
13
48
1
60
0
100
AcDbLine
10
37.7
20
36.65451
30
0
11
34.700001
21
36.259552
31
0
39
0
210
0
220
0
230
1
0
LINE
5
15D
100
AcDbEntity
8
SK2
62
256
6
ByLayer
370
13
48
1
60
0
100
AcDbLine
10
37.7
20
36.65451
30
0
11
34.699999
21
37.049467
31
0
39
0
210
0
220
0
230
1
0
LINE
5
15E
100
AcDbEntity
8
SK2
62
256
6
ByLayer
370
13
48
1
60
0
100
AcDbLine
10
34.700001
20
36.259552
30
0
11
34.699999
21
37.049467
31
0
39
0
210
0
220
0
230
1
0
LINE
5
15F
100
AcDbEntity
8
SK2
62
256
6
ByLayer
370
13
48
1
60
0
100
AcDbLine
10
-113.65
20
36.65451
30
0
11
-110.650001
21
37.049467
31
0
39
0
210
0
220
0
230
1
0
LINE
5
160
100
AcDbEntity
8
SK2
62
256
6
ByLayer
370
13
48
1
60
0
100
AcDbLine
10
-113.65
20
36.65451
30
0
11
-110.649999
21
36.259552
31
0
39
0
210
0
220
0
230
1
0
LINE
5
161
100
AcDbEntity
8
SK2
62
256
6
ByLayer
370
13
48
1
60
0
100
AcDbLine
10
-110.650001
20
37.049467
30
0
11
-110.649999
21
36.259552
31
0
39
0
210
0
220
0
230
1
0
ENDBLK
5
163
100
AcDbEntity
8
0
100
AcDbBlockEnd
0
BLOCK
5
170
100
AcDbEntity
8
0
100
AcDbBlockBegin
2
DimnDraft3D6
70
0
10
0
20
0
30
0
3
DimnDraft3D6
0
MTEXT
5
166
100
AcDbEntity
8
2
62
256
6
ByLayer
370
18
48
1
60
0
100
AcDbMText
10
29.199342
20
-25.5625
30
0
210
0
220
0
230
1
1
\W0.5321;15
40
4.5
41
0
44
1.084337
50
0
71
7
72
5
7
iso_b_vert
0
LINE
5
167
100
AcDbEntity
8
2
62
256
6
ByLayer
370
13
48
1
60
0
100
AcDbLine
10
22.7
20
8.0625
30
0
11
22.7
21
-29.6875
31
0
39
0
210
0
220
0
230
1
0
LINE
5
168
100
AcDbEntity
8
2
62
256
6
ByLayer
370
13
48
1
60
0
100
AcDbLine
10
37.7
20
9.0625
30
0
11
37.7
21
-29.6875
31
0
39
0
210
0
220
0
230
1
0
LINE
5
169
100
AcDbEntity
8
2
62
256
6
ByLayer
370
13
48
1
60
0
100
AcDbLine
10
22.7
20
-26.6875
30
0
11
37.7
21
-26.6875
31
0
39
0
210
0
220
0
230
1
0
LINE
5
16A
100
AcDbEntity
8
2
62
256
6
ByLayer
370
13
48
1
60
0
100
AcDbLine
10
22.7
20
-26.6875
30
0
11
25.699999
21
-26.292543
31
0
39
0
210
0
220
0
230
1
0
LINE
5
16B
100
AcDbEntity
8
2
62
256
6
ByLayer
370
13
48
1
60
0
100
AcDbLine
10
22.7
20
-26.6875
30
0
11
25.700001
21
-27.082457
31
0
39
0
210
0
220
0
230
1
0
LINE
5
16C
100
AcDbEntity
8
2
62
256
6
ByLayer
370
13
48
1
60
0
100
AcDbLine
10
25.699999
20
-26.292543
30
0
11
25.700001
21
-27.082457
31
0
39
0
210
0
220
0
230
1
0
LINE
5
16D
100
AcDbEntity
8
2
62
256
6
ByLayer
370
13
48
1
60
0
100
AcDbLine
10
37.7
20
-26.6875
30
0
11
34.700001
21
-27.082457
31
0
39
0
210
0
220
0
230
1
0
LINE
5
16E
100
AcDbEntity
8
2
62
256
6
ByLayer
370
13
48
1
60
0
100
AcDbLine
10
37.7
20
-26.6875
30
0
11
34.699999
21
-26.292543
31
0
39
0
210
0
220
0
230
1
0
LINE
5
16F
100
AcDbEntity
8
2
62
256
6
ByLayer
370
13
48
1
60
0
100
AcDbLine
10
34.700001
20
-27.082457
30
0
11
34.699999
21
-26.292543
31
0
39
0
210
0
220
0
230
1
0
ENDBLK
5
171
100
AcDbEntity
8
0
100
AcDbBlockEnd
0
ENDSEC
0
SECTION
2
ENTITIES
0
ARC
5
B6
100
AcDbEntity
8
1
62
256
6
ByLayer
370
18
48
1
60
0
100
AcDbCircle
39
0
10
-22.8
20
9.1625
30
0
40
1.6
210
0
220
0
230
-1
100
AcDbArc
50
0
51
90
0
ARC
5
B8
100
AcDbEntity
8
1
62
256
6
ByLayer
370
18
48
1
60
0
100
AcDbCircle
39
0
10
-13.553808
20
8.147763
30
0
40
0.501259405157916
210
0
220
0
230
-1
100
AcDbArc
50
352.925818
51
127.074182
0
ARC
5
B9
100
AcDbEntity
8
1
62
256
6
ByLayer
370
18
48
1
60
0
100
AcDbCircle
39
0
10
-16.992384
20
6.1625
30
0
40
0.501259405157916
210
0
220
0
230
-1
100
AcDbArc
50
98.054217
51
247.074182
0
ARC
5
BA
100
AcDbEntity
8
1
62
256
6
ByLayer
370
18
48
1
60
0
100
AcDbCircle
39
0
10
-17.429045
20
7.738115
30
0
40
1.13980641809794
210
0
220
0
230
-1
100
AcDbArc
50
288.752695
51
17.772659
0
ARC
5
BB
100
AcDbEntity
8
1
62
256
6
ByLayer
370
18
48
1
60
0
100
AcDbCircle
39
0
10
-12.407616
20
6.1625
30
0
40
0.501259405157916
210
0
220
0
230
-1
100
AcDbArc
50
278.054217
51
81.945783
0
ARC
5
BC
100
AcDbEntity
8
1
62
256
6
ByLayer
370
18
48
1
60
0
100
AcDbCircle
39
0
10
-14.7
20
3.01127
30
0
40
1.13980641809794
210
0
220
0
230
-1
100
AcDbArc
50
48.752695
51
131.247305
0
ARC
5
BD
100
AcDbEntity
8
1
62
256
6
ByLayer
370
18
48
1
60
0
100
AcDbCircle
39
0
10
-11.970955
20
4.586885
30
0
40
1.13980641809794
210
0
220
0
230
-1
100
AcDbArc
50
108.752695
51
191.247305
0
ARC
5
BE
100
AcDbEntity
8
1
62
256
6
ByLayer
370
18
48
1
60
0
100
AcDbCircle
39
0
10
-17.429045
20
4.586885
30
0
40
1.13980641809794
210
0
220
0
230
-1
100
AcDbArc
50
342.227341
51
77.772659
0
ARC
5
BF
100
AcDbEntity
8
1
62
256
6
ByLayer
370
18
48
1
60
0
100
AcDbCircle
39
0
10
-15.846192
20
8.147763
30
0
40
0.501259405157916
210
0
220
0
230
-1
100
AcDbArc
50
52.925818
51
187.074182
0
ARC
5
C0
100
AcDbEntity
8
1
62
256
6
ByLayer
370
18
48
1
60
0
100
AcDbCircle
39
0
10
-15.846192
20
4.177237
30
0
40
0.501259405157916
210
0
220
0
230
-1
100
AcDbArc
50
172.925818
51
321.945783
0
ARC
5
C1
100
AcDbEntity
8
1
62
256
6
ByLayer
370
18
48
1
60
0
100
AcDbCircle
39
0
10
-11.970955
20
7.738115
30
0
40
1.13980641809794
210
0
220
0
230
-1
100
AcDbArc
50
162.227341
51
251.247305
0
ARC
5
C4
100
AcDbEntity
8
1
62
256
6
ByLayer
370
18
48
1
60
0
100
AcDbCircle
39
0
10
-14.7
20
9.31373
30
0
40
1.13980641809794
210
0
220
0
230
-1
100
AcDbArc
50
222.227341
51
317.772659
0
ARC
5
C5
100
AcDbEntity
8
1
62
256
6
ByLayer
370
18
48
1
60
0
100
AcDbCircle
39
0
10
-13.553808
20
4.177237
30
0
40
0.501259405157916
210
0
220
0
230
-1
100
AcDbArc
50
218.054217
51
21.945783
0
CIRCLE
5
B7
100
AcDbEntity
8
1
62
256
6
ByLayer
370
18
48
1
60
0
100
AcDbCircle
10
-14.7
20
6.1625
30
0
40
5.5
39
0
210
0
220
0
230
-1
0
CIRCLE
5
C2
100
AcDbEntity
8
1
62
256
6
ByLayer
370
18
48
1
60
0
100
AcDbCircle
10
-14.7
20
6.1625
30
0
40
5.0038
39
0
210
0
220
0
230
-1
0
CIRCLE
5
C3
100
AcDbEntity
8
1
62
256
6
ByLayer
370
18
48
1
60
0
100
AcDbCircle
10
14.7
20
6.1625
30
0
40
4.4958
39
0
210
0
220
0
230
1
0
CIRCLE
5
C6
100
AcDbEntity
8
1
62
256
6
ByLayer
370
18
48
1
60
0
100
AcDbCircle
10
-14.7
20
6.1625
30
0
40
3.0330983114651
39
0
210
0
220
0
230
-1
0
ELLIPSE
5
C7
100
AcDbEntity
8
1
62
256
6
ByLayer
370
18
48
1
60
0
100
AcDbEllipse
10
28.65
20
12.428711
30
0
11
2.5121897989056E-15
21
2.14450691987299
31
0
210
0
220
0
230
1
40
0.466308
41
-1.17181951327414
42
-1.14734903612252
0
ELLIPSE
5
C8
100
AcDbEntity
8
1
62
256
6
ByLayer
370
18
48
1
60
0
100
AcDbEllipse
10
41.58173
20
60.7625
30
0
11
5.57611790930843E-14
21
47.5999999990009
31
0
210
0
220
0
230
1
40
0.57735
41
2.71391929610636
42
2.96670673413482
0
ELLIPSE
5
C9
100
AcDbEntity
8
1
62
256
6
ByLayer
370
18
48
1
60
0
100
AcDbEllipse
10
32.659999
20
12.470976
30
0
11
-2.29580877528722E-07
21
0.499999448047856
31
0
210
0
220
0
230
1
40
0.493095
41
-1.1778772774931
42
-1.13446457686423
0
ELLIPSE
5
CA
100
AcDbEntity
8
1
62
256
6
ByLayer
370
18
48
1
60
0
100
AcDbEllipse
10
33.960304
20
60.7625
30
0
11
-67.9798451178471
21
1.59270433546889E-13
31
0
210
0
220
0
230
1
40
0.700208
41
1.39126197541056
42
1.55314324368107
0
ELLIPSE
5
CB
100
AcDbEntity
8
1
62
256
6
ByLayer
370
18
48
1
60
0
100
AcDbEllipse
10
33.960304
20
45.5625
30
0
11
-49.6995506353184
21
1.16441409406721E-13
31
0
210
0
220
0
230
1
40
0.700208
41
1.34430954331992
42
1.54520691534721
0
ELLIPSE
5
CC
100
AcDbEntity
8
1
62
256
6
ByLayer
370
18
48
1
60
0
100
AcDbEllipse
10
32.659999
20
11.654024
30
0
11
-2.29580878983449E-07
21
-0.499999448047856
31
0
210
0
220
0
230
1
40
0.493095
41
1.13446457686423
42
1.1778772774931
0
ELLIPSE
5
CD
100
AcDbEntity
8
1
62
256
6
ByLayer
370
18
48
1
60
0
100
AcDbEllipse
10
83.890204
20
45.490493
30
0
11
-119.063444737442
21
-16.3689261013083
31
0
210
0
220
0
230
1
40
0.257243
41
1.0872897652931
42
1.08924022641884
0
ELLIPSE
5
CE
100
AcDbEntity
8
1
62
256
6
ByLayer
370
18
48
1
60
0
100
AcDbEllipse
10
49.6279
20
45.562553
30
0
11
-19.0351702347363
21
-34.373061390697
31
0
210
0
220
0
230
1
40
0.28551
41
0.166063657126444
42
0.182401591765329
0
POINT
5
6C
100
AcDbEntity
8
80
62
256
6
ByLayer
370
18
48
1
60
0
100
AcDbPoint
10
0
20
0
30
0
39
0
210
0
220
0
230
1
50
360
0
POINT
5
6E
100
AcDbEntity
8
2
62
256
6
ByLayer
370
18
48
1
60
0
100
AcDbPoint
10
37.7
20
13.5625
30
0
39
0
210
0
220
0
230
1
50
360
0
POINT
5
70
100
AcDbEntity
8
81
62
256
6
ByLayer
370
18
48
1
60
0
100
AcDbPoint
10
37.7
20
13.5625
30
0
39
0
210
0
220
0
230
1
50
360
0
SPLINE
5
CF
100
AcDbEntity
8
1
62
256
6
ByLayer
370
18
48
1
60
0
100
AcDbSpline
70
4
71
2
72
6
73
3
40
0
40
0
40
0
40
1
40
1
40
1
41
0.500000356454916
10
32.2673155644524
20
10.7634280098004
30
0
41
0.499999643545084
10
31.5634556927087
20
10.7635174311684
30
0
41
0.500000356454916
10
30.8593693808756
20
10.7636154688817
30
0
0
SPLINE
5
D0
100
AcDbEntity
8
1
62
256
6
ByLayer
370
18
48
1
60
0
100
AcDbSpline
70
4
71
3
72
10
73
6
40
0
40
0
40
0
40
0
40
0.982573356259349
40
0.982573356259349
40
1
40
1
40
1
40
1
41
1
10
28.5599999999986
20
10.7671324468328
30
0
41
1
10
28.6998976883347
20
10.7671324468328
30
0
41
1
10
28.8417245610611
20
10.7667158897549
30
0
41
1
10
28.976109226555
20
10.7660421688236
30
0
41
1
10
28.9784805326449
20
10.76603019544
30
0
41
1
10
28.9808492708904
20
10.7660181513543
30
0
0
SPLINE
5
D1
100
AcDbEntity
8
1
62
256
6
ByLayer
370
18
48
1
60
0
100
AcDbSpline
70
4
71
3
72
10
73
6
40
0
40
0
40
0
40
0
40
0.668290521608936
40
0.668290521608936
40
1
40
1
40
1
40
1
41
1
10
22.8
20
11.6512461010675
30
0
41
1
10
22.5800070797624
20
11.6867433281912
30
0
41
1
10
22.3505341286802
20
11.6774878905711
30
0
41
1
10
22.0267035195129
20
11.5804803204633
30
0
41
1
10
21.9204006877195
20
11.5336191715861
30
0
41
1
10
21.8210455474115
20
11.4717577712763
30
0
0
SPLINE
5
D2
100
AcDbEntity
8
1
62
256
6
ByLayer
370
18
48
1
60
0
100
AcDbSpline
70
4
71
3
72
14
73
10
40
0
40
0
40
0
40
0
40
0.221241008283212
40
0.221241008283212
40
0.516551594359859
40
0.516551594359859
40
0.81102511286072
40
0.81102511286072
40
1
40
1
40
1
40
1
41
1
10
29.561677848856
20
13.3099009176789
30
0
41
1
10
29.5271188253728
20
13.3159492100906
30
0
41
1
10
29.4824576623896
20
13.3218878719617
30
0
41
1
10
29.3595307286705
20
13.3346643115301
30
0
41
1
10
29.2731263413999
20
13.3413042422603
30
0
41
1
10
29.0825758471114
20
13.3517444168946
30
0
41
1
10
28.9758398096507
20
13.3556881574217
30
0
41
1
10
28.7955583944151
20
13.3593198427241
30
0
41
1
10
28.7225646829479
20
13.3600523505378
30
0
41
1
10
28.65
20
13.3600523505378
30
0
0
SPLINE
5
D3
100
AcDbEntity
8
1
62
256
6
ByLayer
370
18
48
1
60
0
100
AcDbSpline
70
4
71
3
72
8
73
4
40
0
40
0
40
0
40
0
40
1
40
1
40
1
40
1
41
1
10
29.135
20
10.7661144122523
30
0
41
1
10
29.0835675615265
20
10.7661144122523
30
0
41
1
10
29.0320863370531
20
10.7660818344107
30
0
41
1
10
28.9808492708904
20
10.7660181513543
30
0
0
SPLINE
5
D4
100
AcDbEntity
8
1
62
256
6
ByLayer
370
18
48
1
60
0
100
AcDbSpline
70
4
71
3
72
12
73
8
40
0
40
0
40
0
40
0
40
0.260114084091005
40
0.260114084091005
40
0.642272259991514
40
0.642272259991514
40
1
40
1
40
1
40
1
41
1
10
21.2
20
10.1688565028973
30
0
41
1
10
21.2
20
10.2979494886106
30
0
41
1
10
21.2149546428678
20
10.4278826418013
30
0
41
1
10
21.2873908306495
20
10.737951496697
30
0
41
1
10
21.3629676400854
20
10.9175118454889
30
0
41
1
10
21.5609249456637
20
11.2259680731535
30
0
41
1
10
21.682495955618
20
11.3613039555214
30
0
41
1
10
21.8210455474115
20
11.4717577712763
30
0
0
SPLINE
5
D5
100
AcDbEntity
8
1
62
256
6
ByLayer
370
18
48
1
60
0
100
AcDbSpline
70
4
71
3
72
10
73
6
40
0
40
0
40
0
40
0
40
0.596955318591499
40
0.596955318591499
40
1
40
1
40
1
40
1
41
1
10
30.8593693803683
20
10.7636154688817
30
0
41
1
10
30.7044940865551
20
10.7643063907208
30
0
41
1
10
30.5345368827024
20
10.7651155794824
30
0
41
1
10
30.2425538835212
20
10.7659274078802
30
0
41
1
10
30.1209610774586
20
10.7661144122523
30
0
41
1
10
30
20
10.7661144122523
30
0
0
SPLINE
5
D6
100
AcDbEntity
8
1
62
256
6
ByLayer
370
18
48
1
60
0
100
AcDbSpline
70
4
71
3
72
8
73
4
40
0
40
0
40
0
40
0
40
1
40
1
40
1
40
1
41
1
10
28.4
20
13.3600523505378
30
0
41
1
10
28.3103881935328
20
13.3600523505378
30
0
41
1
10
28.2197843961887
20
13.3589132267587
30
0
41
1
10
28.1330433316631
20
13.3567450690708
30
0
0
SPLINE
5
D7
100
AcDbEntity
8
1
62
256
6
ByLayer
370
18
48
1
60
0
100
AcDbSpline
70
4
71
3
72
12
73
8
40
0
40
0
40
0
40
0
40
0.325143788332554
40
0.325143788332554
40
0.665365898219362
40
0.665365898219362
40
1
40
1
40
1
40
1
41
1
10
27.0538545276248
20
10.7625001479147
30
0
41
1
10
27.1271508232348
20
10.7625077237921
30
0
41
1
10
27.2197033271842
20
10.7630669903844
30
0
41
1
10
27.4342679219698
20
10.7645212786928
30
0
41
1
10
27.5604725626901
20
10.7654318638649
30
0
41
1
10
27.8228603035167
20
10.7667301549908
30
0
41
1
10
27.9623496565091
20
10.7671324468328
30
0
41
1
10
28.1
20
10.7671324468328
30
0
0
SPLINE
5
D8
100
AcDbEntity
8
1
62
256
6
ByLayer
370
18
48
1
60
0
100
AcDbSpline
70
4
71
5
72
12
73
6
40
0
40
0
40
0
40
0
40
0
40
0
40
1
40
1
40
1
40
1
40
1
40
1
41
1
10
32.8433616362344
20
11.2625006299876
30
0
41
1
10
32.8529450792846
20
11.2625005097061
30
0
41
1
10
32.8623481293264
20
11.2625004004332
30
0
41
1
10
32.8715521761006
20
11.2625003081399
30
0
41
1
10
32.8805393242575
20
11.2625002334382
30
0
41
1
10
32.889292636232
20
11.262500168729
30
0
0
SPLINE
5
D9
100
AcDbEntity
8
1
62
256
6
ByLayer
370
18
48
1
60
0
100
AcDbSpline
70
4
71
5
72
12
73
6
40
0
40
0
40
0
40
0
40
0
40
0
40
1
40
1
40
1
40
1
40
1
40
1
41
1
10
32.8976366251772
20
11.9859885854433
30
0
41
1
10
32.9046428766164
20
11.9909499785122
30
0
41
1
10
32.9110469094669
20
11.9959618513913
30
0
41
1
10
32.9168254009443
20
12.00100756189
30
0
41
1
10
32.9219592440665
20
12.0060700680739
30
0
41
1
10
32.926434283278
20
12.0111321998101
30
0
0
SPLINE
5
DA
100
AcDbEntity
8
1
62
256
6
ByLayer
370
18
48
1
60
0
100
AcDbSpline
70
4
71
5
72
12
73
6
40
0
40
0
40
0
40
0
40
0
40
0
40
1
40
1
40
1
40
1
40
1
40
1
41
1
10
32.8976366251772
20
12.1390114145567
30
0
41
1
10
32.9046428766164
20
12.1340500214877
30
0
41
1
10
32.9110469094669
20
12.1290381486086
30
0
41
1
10
32.9168254009443
20
12.12399243811
30
0
41
1
10
32.9219592440665
20
12.118929931926
30
0
41
1
10
32.926434283278
20
12.1138678001899
30
0
0
SPLINE
5
DB
100
AcDbEntity
8
1
62
256
6
ByLayer
370
18
48
1
60
0
100
AcDbSpline
70
4
71
5
72
12
73
6
40
0
40
0
40
0
40
0
40
0
40
0
40
1
40
1
40
1
40
1
40
1
40
1
41
1
10
32.8433616362344
20
12.8624993700123
30
0
41
1
10
32.8529450792846
20
12.8624994902938
30
0
41
1
10
32.8623481293264
20
12.8624995995667
30
0
41
1
10
32.8715521761006
20
12.8624996918601
30
0
41
1
10
32.8805393242575
20
12.8624997665617
30
0
41
1
10
32.889292636232
20
12.862499831271
30
0
0
SPLINE
5
DC
100
AcDbEntity
8
1
62
256
6
ByLayer
370
18
48
1
60
0
100
AcDbSpline
70
4
71
3
72
8
73
4
40
0
40
0
40
0
40
0
40
1
40
1
40
1
40
1
41
1
10
32.7934322692496
20
11.0500000000102
30
0
41
1
10
32.8329337297425
20
11.0500000000066
30
0
41
1
10
32.8702712064214
20
11.0500000000031
30
0
41
1
10
32.9030022692496
20
11.0499999999999
30
0
0
SPLINE
5
DD
100
AcDbEntity
8
1
62
256
6
ByLayer
370
18
48
1
60
0
100
AcDbSpline
70
4
71
2
72
6
73
3
40
0
40
0
40
0
40
1
40
1
40
1
41
1
10
32.793695269364
20
13.0749999999912
30
0
41
1
10
32.8519562034234
20
13.0749999999913
30
0
41
1
10
32.903002269364
20
13.0749999999912
30
0
0
SPLINE
5
DE
100
AcDbEntity
8
1
62
256
6
ByLayer
370
18
48
1
60
0
100
AcDbSpline
70
4
71
5
72
12
73
6
40
0
40
0
40
0
40
0
40
0
40
0
40
1
40
1
40
1
40
1
40
1
40
1
41
1
10
32.896860470683
20
12.0625
30
0
41
1
10
32.9030978810845
20
12.0625
30
0
41
1
10
32.9088591344144
20
12.0625
30
0
41
1
10
32.9141279312087
20
12.0625
30
0
41
1
10
32.9188905926885
20
12.0625
30
0
41
1
10
32.923136470683
20
12.0625
30
0
0
SPLINE
5
DF
100
AcDbEntity
8
1
62
256
6
ByLayer
370
18
48
1
60
0
100
AcDbSpline
70
4
71
5
72
12
73
6
40
0
40
0
40
0
40
0
40
0
40
0
40
1
40
1
40
1
40
1
40
1
40
1
41
1
10
32.923136470682
20
12.0625010413245
30
0
41
1
10
32.923134969364
20
12.0729884106786
30
0
41
1
10
32.923470255954
20
12.0834937253254
30
0
41
1
10
32.924136355618
20
12.0938196658364
30
0
41
1
10
32.925116951141
20
12.1038964730072
30
0
41
1
10
32.926436304464
20
12.1138654625735
30
0
0
SPLINE
5
E0
100
AcDbEntity
8
1
62
256
6
ByLayer
370
18
48
1
60
0
100
AcDbSpline
70
4
71
11
72
24
73
12
40
0
40
0
40
0
40
0
40
0
40
0
40
0
40
0
40
0
40
0
40
0
40
0
40
1
40
1
40
1
40
1
40
1
40
1
40
1
40
1
40
1
40
1
40
1
40
1
41
1
10
37.69999988733
20
13.2875
30
0
41
1
10
37.69999988733
20
13.33033990012
30
0
41
1
10
37.69327061116
20
13.37317979718
30
0
41
1
10
37.67981206049
20
13.4148452224
30
0
41
1
10
37.65985484116
20
13.45416167778
30
0
41
1
10
37.63386017336
20
13.49000644516
30
0
41
1
10
37.60250633309
20
13.52136028574
30
0
41
1
10
37.56666156589
20
13.54735495443
30
0
41
1
10
37.52734510661
20
13.56731217296
30
0
41
1
10
37.48567968697
20
13.58077072432
30
0
41
1
10
37.44283978715
20
13.5875
30
0
41
1
10
37.39999988733
20
13.5875
30
0
0
SPLINE
5
E1
100
AcDbEntity
8
1
62
256
6
ByLayer
370
18
48
1
60
0
100
AcDbSpline
70
4
71
11
72
24
73
12
40
0
40
0
40
0
40
0
40
0
40
0
40
0
40
0
40
0
40
0
40
0
40
0
40
1
40
1
40
1
40
1
40
1
40
1
40
1
40
1
40
1
40
1
40
1
40
1
41
1
10
37.39999988733
20
13.5875
30
0
41
1
10
37.3910749082
20
13.5875
30
0
41
1
10
37.38214992908
20
13.58746105743
30
0
41
1
10
37.37322513875
20
13.58738317229
30
0
41
1
10
37.36430072601
20
13.58726634562
30
0
41
1
10
37.35537687967
20
13.58711057947
30
0
41
1
10
37.3464537885
20
13.58691587693
30
0
41
1
10
37.33753164126
20
13.58668224212
30
0
41
1
10
37.32861062668
20
13.58640968018
30
0
41
1
10
37.31969093348
20
13.58609819731
30
0
41
1
10
37.3107727503
20
13.58574780069
30
0
41
1
10
37.30185626577
20
13.58535849857
30
0
0
SPLINE
5
E2
100
AcDbEntity
8
1
62
256
6
ByLayer
370
18
48
1
60
0
100
AcDbSpline
70
4
71
3
72
8
73
4
40
0
40
0
40
0
40
0
40
1
40
1
40
1
40
1
41
1
10
34.537996754622
20
13.1036422714611
30
0
41
1
10
34.5144482321776
20
13.0900297921623
30
0
41
1
10
34.4882684173095
20
13.081094192338
30
0
41
1
10
34.461361752507
20
13.0772134444533
30
0
0
SPLINE
5
E3
100
AcDbEntity
8
1
62
256
6
ByLayer
370
18
48
1
60
0
100
AcDbSpline
70
4
71
9
72
20
73
10
40
0
40
0
40
0
40
0
40
0
40
0
40
0
40
0
40
0
40
0
40
1
40
1
40
1
40
1
40
1
40
1
40
1
40
1
40
1
40
1
41
1
10
33.115924361252
20
12.484059912745
30
0
41
1
10
33.1229178850691
20
12.484059912745
30
0
41
1
10
33.1328457831864
20
12.484059912745
30
0
41
1
10
33.1455216521634
20
12.484059912745
30
0
41
1
10
33.160654799373
20
12.484059912745
30
0
41
1
10
33.1778595304038
20
12.484059912745
30
0
41
1
10
33.1966721865408
20
12.484059912745
30
0
41
1
10
33.2165748687358
20
12.484059912745
30
0
41
1
10
33.237022564532
20
12.484059912745
30
0
41
1
10
33.257470260264
20
12.484059912745
30
0
0
SPLINE
5
E4
100
AcDbEntity
8
1
62
256
6
ByLayer
370
18
48
1
60
0
100
AcDbSpline
70
4
71
5
72
12
73
6
40
0
40
0
40
0
40
0
40
0
40
0
40
1
40
1
40
1
40
1
40
1
40
1
41
1
10
33.25747148696
20
12.48406128821
30
0
41
1
10
33.257471386853
20
12.510350156017
30
0
41
1
10
33.257471188248
20
12.536640515971
30
0
41
1
10
33.257470980229
20
12.561258465421
30
0
41
1
10
33.257470897318
20
12.582549805439
30
0
41
1
10
33.257470008061
20
12.599449067024
30
0
0
SPLINE
5
E5
100
AcDbEntity
8
1
62
256
6
ByLayer
370
18
48
1
60
0
100
AcDbSpline
70
4
71
5
72
12
73
6
40
0
40
0
40
0
40
0
40
0
40
0
40
1
40
1
40
1
40
1
40
1
40
1
41
1
10
33.14460824257
20
12.859642042303
30
0
41
1
10
33.140860744939
20
12.86828058573
30
0
41
1
10
33.1366481773674
20
12.87684570067
30
0
41
1
10
33.1319674201208
20
12.885323064521
30
0
41
1
10
33.1268173926973
20
12.893696803044
30
0
41
1
10
33.1211997645859
20
12.901950216318
30
0
0
SPLINE
5
E6
100
AcDbEntity
8
1
62
256
6
ByLayer
370
18
48
1
60
0
100
AcDbSpline
70
4
71
5
72
12
73
6
40
0
40
0
40
0
40
0
40
0
40
0
40
1
40
1
40
1
40
1
40
1
40
1
41
1
10
33.1211998642341
20
12.901950064352
30
0
41
1
10
33.085154681846
20
12.891812458676
30
0
41
1
10
33.049098352383
20
12.871852455566
30
0
41
1
10
33.01821379269
20
12.84341242481
30
0
41
1
10
32.997442746516
20
12.811043104844
30
0
41
1
10
32.988008808277
20
12.779301366773
30
0
0
SPLINE
5
E7
100
AcDbEntity
8
1
62
256
6
ByLayer
370
18
48
1
60
0
100
AcDbSpline
70
4
71
5
72
12
73
6
40
0
40
0
40
0
40
0
40
0
40
0
40
1
40
1
40
1
40
1
40
1
40
1
41
1
10
32.944799577582
20
12.879627084048
30
0
41
1
10
32.930791490826
20
12.9151619588704
30
0
41
1
10
32.9180761788811
20
12.9531990235307
30
0
41
1
10
32.9080667656494
20
12.9929106995998
30
0
41
1
10
32.9030690116696
20
13.0337337959706
30
0
41
1
10
32.9029503818705
20
13.0749996713899
30
0
0
SPLINE
5
E8
100
AcDbEntity
8
1
62
256
6
ByLayer
370
18
48
1
60
0
100
AcDbSpline
70
4
71
5
72
12
73
6
40
0
40
0
40
0
40
0
40
0
40
0
40
1
40
1
40
1
40
1
40
1
40
1
41
1
10
32.995301943315
20
13.07499999999
30
0
41
1
10
32.975432995027
20
13.07499999999
30
0
41
1
10
32.955563848575
20
13.07499999999
30
0
41
1
10
32.936415511039
20
13.07499999999
30
0
41
1
10
32.918706193297
20
13.07499999999
30
0
41
1
10
32.903004135212
20
13.07499999999
30
0
0
SPLINE
5
E9
100
AcDbEntity
8
1
62
256
6
ByLayer
370
18
48
1
60
0
100
AcDbSpline
70
4
71
5
72
12
73
6
40
0
40
0
40
0
40
0
40
0
40
0
40
1
40
1
40
1
40
1
40
1
40
1
41
1
10
33.055080960055
20
12.957785590595
30
0
41
1
10
33.029326919372
20
12.947158314376
30
0
41
1
10
33.003570637966
20
12.933010385902
30
0
41
1
10
32.979755209001
20
12.916132388443
30
0
41
1
10
32.959792096428
20
12.897878942211
30
0
41
1
10
32.944796787958
20
12.879627084048
30
0
0
SPLINE
5
EA
100
AcDbEntity
8
1
62
256
6
ByLayer
370
18
48
1
60
0
100
AcDbSpline
70
4
71
5
72
12
73
6
40
0
40
0
40
0
40
0
40
0
40
0
40
1
40
1
40
1
40
1
40
1
40
1
41
1
10
32.952477299911
20
11.2803377162072
30
0
41
1
10
32.9413865199798
20
11.2765229360587
30
0
41
1
10
32.9294440245056
20
11.2728364231662
30
0
41
1
10
32.9167229037695
20
11.2692742715352
30
0
41
1
10
32.9033080417164
20
11.2658310420028
30
0
41
1
10
32.889294768184
20
11.2625
30
0
0
SPLINE
5
EB
100
AcDbEntity
8
1
62
256
6
ByLayer
370
18
48
1
60
0
100
AcDbSpline
70
4
71
5
72
12
73
6
40
0
40
0
40
0
40
0
40
0
40
0
40
1
40
1
40
1
40
1
40
1
40
1
41
1
10
32.988008637976
20
11.345698286624
30
0
41
1
10
32.981691101165
20
11.333988279443
30
0
41
1
10
32.974919858073
20
11.321435402301
30
0
41
1
10
32.96768290764
20
11.30832551711
30
0
41
1
10
32.960171696246
20
11.29469684208
30
0
41
1
10
32.952440133762
20
11.280811363228
30
0
0
SPLINE
5
EC
100
AcDbEntity
8
1
62
256
6
ByLayer
370
18
48
1
60
0
100
AcDbSpline
70
4
71
5
72
12
73
6
40
0
40
0
40
0
40
0
40
0
40
0
40
1
40
1
40
1
40
1
40
1
40
1
41
1
10
33.0661326672516
20
11.177010427273
30
0
41
1
10
33.0780713376305
20
11.186587441139
30
0
41
1
10
33.0896850826996
20
11.196069783302
30
0
41
1
10
33.1008360249107
20
11.205377170597
30
0
41
1
10
33.1113850343538
20
11.214397585199
30
0
41
1
10
33.1211997576958
20
11.223049846501
30
0
0
SPLINE
5
ED
100
AcDbEntity
8
1
62
256
6
ByLayer
370
18
48
1
60
0
100
AcDbSpline
70
4
71
5
72
12
73
6
40
0
40
0
40
0
40
0
40
0
40
0
40
1
40
1
40
1
40
1
40
1
40
1
41
1
10
33.1211998642341
20
11.223049935648
30
0
41
1
10
33.085154681846
20
11.233187541324
30
0
41
1
10
33.049098352383
20
11.253147544434
30
0
41
1
10
33.01821379269
20
11.28158757519
30
0
41
1
10
32.997442746516
20
11.313956895156
30
0
41
1
10
32.988008808277
20
11.345698633227
30
0
0
SPLINE
5
EE
100
AcDbEntity
8
1
62
256
6
ByLayer
370
18
48
1
60
0
100
AcDbSpline
70
4
71
5
72
12
73
6
40
0
40
0
40
0
40
0
40
0
40
0
40
1
40
1
40
1
40
1
40
1
40
1
41
1
10
33.25747148696
20
11.64093871179
30
0
41
1
10
33.257471386853
20
11.614649843983
30
0
41
1
10
33.257471188248
20
11.588359484029
30
0
41
1
10
33.257470980229
20
11.563741534579
30
0
41
1
10
33.257470897318
20
11.542450194561
30
0
41
1
10
33.257470008061
20
11.525550932976
30
0
0
SPLINE
5
EF
100
AcDbEntity
8
1
62
256
6
ByLayer
370
18
48
1
60
0
100
AcDbSpline
70
4
71
3
72
8
73
4
40
0
40
0
40
0
40
0
40
1
40
1
40
1
40
1
41
1
10
34.43036929816
20
11.0499999999999
30
0
41
1
10
34.44075298653
20
11.0499999999999
30
0
41
1
10
34.4511366749
20
11.0499999999999
30
0
41
1
10
34.46152036327
20
11.0499999999999
30
0
0
SPLINE
5
F0
100
AcDbEntity
8
1
62
256
6
ByLayer
370
18
48
1
60
0
100
AcDbSpline
70
4
71
3
72
8
73
4
40
0
40
0
40
0
40
0
40
1
40
1
40
1
40
1
41
1
10
34.537996754622
20
11.0213577285389
30
0
41
1
10
34.5144482321776
20
11.0349702078376
30
0
41
1
10
34.4882684173095
20
11.043905807662
30
0
41
1
10
34.461361752507
20
11.0477865555467
30
0
0
SPLINE
5
F1
100
AcDbEntity
8
1
62
256
6
ByLayer
370
18
48
1
60
0
100
AcDbSpline
70
4
71
11
72
24
73
12
40
0
40
0
40
0
40
0
40
0
40
0
40
0
40
0
40
0
40
0
40
0
40
0
40
1
40
1
40
1
40
1
40
1
40
1
40
1
40
1
40
1
40
1
40
1
40
1
41
1
10
37.39999988733
20
10.5375
30
0
41
1
10
37.3910749082
20
10.5375
30
0
41
1
10
37.38214992908
20
10.53753894257
30
0
41
1
10
37.37322513875
20
10.53761682771
30
0
41
1
10
37.36430072601
20
10.53773365438
30
0
41
1
10
37.35537687967
20
10.53788942053
30
0
41
1
10
37.3464537885
20
10.53808412307
30
0
41
1
10
37.33753164126
20
10.53831775788
30
0
41
1
10
37.32861062668
20
10.53859031982
30
0
41
1
10
37.31969093348
20
10.53890180269
30
0
41
1
10
37.3107727503
20
10.53925219931
30
0
41
1
10
37.30185626577
20
10.53964150143
30
0
0
SPLINE
5
F2
100
AcDbEntity
8
1
62
256
6
ByLayer
370
18
48
1
60
0
100
AcDbSpline
70
4
71
11
72
24
73
12
40
0
40
0
40
0
40
0
40
0
40
0
40
0
40
0
40
0
40
0
40
0
40
0
40
1
40
1
40
1
40
1
40
1
40
1
40
1
40
1
40
1
40
1
40
1
40
1
41
1
10
37.69999988733
20
10.8375
30
0
41
1
10
37.69999988733
20
10.79466009988
30
0
41
1
10
37.69327061116
20
10.75182020282
30
0
41
1
10
37.67981206049
20
10.7101547776
30
0
41
1
10
37.65985484116
20
10.67083832222
30
0
41
1
10
37.63386017336
20
10.63499355484
30
0
41
1
10
37.60250633309
20
10.60363971426
30
0
41
1
10
37.56666156589
20
10.57764504557
30
0
41
1
10
37.52734510661
20
10.55768782704
30
0
41
1
10
37.48567968697
20
10.54422927568
30
0
41
1
10
37.44283978715
20
10.5375
30
0
41
1
10
37.39999988733
20
10.5375
30
0
0
SPLINE
5
F3
100
AcDbEntity
8
1
62
256
6
ByLayer
370
18
48
1
60
0
100
AcDbSpline
70
4
71
5
72
12
73
6
40
0
40
0
40
0
40
0
40
0
40
0
40
1
40
1
40
1
40
1
40
1
40
1
41
1
10
32.995301943315
20
11.05000000001
30
0
41
1
10
32.975432995027
20
11.05000000001
30
0
41
1
10
32.955563848575
20
11.05000000001
30
0
41
1
10
32.936415511039
20
11.05000000001
30
0
41
1
10
32.918706193297
20
11.05000000001
30
0
41
1
10
32.903004135212
20
11.05000000001
30
0
0
SPLINE
5
F4
100
AcDbEntity
8
1
62
256
6
ByLayer
370
18
48
1
60
0
100
AcDbSpline
70
4
71
5
72
12
73
6
40
0
40
0
40
0
40
0
40
0
40
0
40
1
40
1
40
1
40
1
40
1
40
1
41
1
10
32.944799577582
20
11.245372915952
30
0
41
1
10
32.930791490826
20
11.2098380411295
30
0
41
1
10
32.9180761788811
20
11.1718009764693
30
0
41
1
10
32.9080667656494
20
11.1320893004002
30
0
41
1
10
32.9030690116696
20
11.0912662040293
30
0
41
1
10
32.9029503818705
20
11.0500003286101
30
0
0
SPLINE
5
F5
100
AcDbEntity
8
1
62
256
6
ByLayer
370
18
48
1
60
0
100
AcDbSpline
70
4
71
5
72
12
73
6
40
0
40
0
40
0
40
0
40
0
40
0
40
1
40
1
40
1
40
1
40
1
40
1
41
1
10
32.995301943315
20
11.04999997406
30
0
41
1
10
32.995250882146
20
11.075564067778
30
0
41
1
10
33.003297498276
20
11.10131009739
30
0
41
1
10
33.018334676767
20
11.124827428254
30
0
41
1
10
33.035893052333
20
11.146810414494
30
0
41
1
10
33.055080960055
20
11.167214409405
30
0
0
SPLINE
5
F6
100
AcDbEntity
8
1
62
256
6
ByLayer
370
18
48
1
60
0
100
AcDbSpline
70
4
71
5
72
12
73
6
40
0
40
0
40
0
40
0
40
0
40
0
40
1
40
1
40
1
40
1
40
1
40
1
41
1
10
33.055080960055
20
11.167214409405
30
0
41
1
10
33.029326919372
20
11.177841685624
30
0
41
1
10
33.003570637966
20
11.191989614098
30
0
41
1
10
32.979755209001
20
11.208867611557
30
0
41
1
10
32.959792096428
20
11.227121057789
30
0
41
1
10
32.944796787958
20
11.245372915952
30
0
0
SPLINE
5
F7
100
AcDbEntity
8
1
62
256
6
ByLayer
370
18
48
1
60
0
100
AcDbSpline
70
4
71
5
72
38
73
32
40
0
40
0
40
0
40
0
40
0
40
0
40
0.0221475375781468
40
0.0221475375781468
40
0.0221475375781468
40
0.0535671069669454
40
0.0535671069669454
40
0.0535671069669454
40
0.104713989400951
40
0.104713989400951
40
0.104713989400951
40
0.196759232162136
40
0.196759232162136
40
0.196759232162136
40
0.330292230798065
40
0.330292230798065
40
0.460995814030154
40
0.460995814030154
40
0.460995814030154
40
0.608071346912534
40
0.608071346912534
40
0.608071346912534
40
0.790251889712737
40
0.790251889712737
40
0.790251889712737
40
0.909415419143965
40
0.909415419143965
40
0.909415419143965
40
1
40
1
40
1
40
1
40
1
40
1
41
1
10
33.0550900271486
20
11.167209905084
30
0
41
1
10
33.0550362334862
20
11.167261396929
30
0
41
1
10
33.0550834273421
20
11.1673272020399
30
0
41
1
10
33.0550920970526
20
11.167332305039
30
0
41
1
10
33.0552677703205
20
11.167416339739
30
0
41
1
10
33.0553836182085
20
11.167482352689
30
0
41
1
10
33.0554429569132
20
11.16757128953
30
0
41
1
10
33.0556169556205
20
11.167739380644
30
0
41
1
10
33.0557906720854
20
11.167915710809
30
0
41
1
10
33.0559028399383
20
11.168017951734
30
0
41
1
10
33.0562123500661
20
11.168312524273
30
0
41
1
10
33.0565179100447
20
11.16860829805
30
0
41
1
10
33.056716087744
20
11.168797713329
30
0
41
1
10
33.0572041896733
20
11.169258680503
30
0
41
1
10
33.0576939478007
20
11.169717655969
30
0
41
1
10
33.058270186983
20
11.170253067788
30
0
41
1
10
33.058849796607
20
11.170784296229
30
0
41
1
10
33.0594341379228
20
11.171310836058
30
0
41
1
10
33.0600493018061
20
11.171862992598
30
0
41
1
10
33.0606695336266
20
11.17240988224
30
0
41
1
10
33.0609987478545
20
11.172698399169
30
0
41
1
10
33.0617370625372
20
11.173342522709
30
0
41
1
10
33.0624814858179
20
11.173979856944
30
0
41
1
10
33.062892588587
20
11.174332681881
30
0
41
1
10
33.0635773315938
20
11.174911339639
30
0
41
1
10
33.064264059999
20
11.175487075451
30
0
41
1
10
33.0645355626366
20
11.175714361527
30
0
41
1
10
33.0650170301333
20
11.176111640532
30
0
41
1
10
33.0655014666465
20
11.176505020423
30
0
41
1
10
33.0657114417168
20
11.17667460324
30
0
41
1
10
33.0659223262188
20
11.176843643904
30
0
41
1
10
33.0661322902518
20
11.177010563924
30
0
0
SPLINE
5
F8
100
AcDbEntity
8
1
62
256
6
ByLayer
370
18
48
1
60
0
100
AcDbSpline
70
4
71
5
72
12
73
6
40
0
40
0
40
0
40
0
40
0
40
0
40
1
40
1
40
1
40
1
40
1
40
1
41
1
10
33.0661326672516
20
11.177010427273
30
0
41
1
10
33.0382086649258
20
11.1912917590604
30
0
41
1
10
33.010279000036
20
11.2106009935443
30
0
41
1
10
32.9851301187892
20
11.2335403240281
30
0
41
1
10
32.9654704881524
20
11.2576389062444
30
0
41
1
10
32.9525528653357
20
11.280610736475
30
0
0
SPLINE
5
F9
100
AcDbEntity
8
1
62
256
6
ByLayer
370
18
48
1
60
0
100
AcDbSpline
70
4
71
5
72
12
73
6
40
0
40
0
40
0
40
0
40
0
40
0
40
1
40
1
40
1
40
1
40
1
40
1
41
1
10
32.952502255347
20
11.280277802791
30
0
41
1
10
32.951166365054
20
11.27311135715
30
0
41
1
10
32.949342905477
20
11.266360289283
30
0
41
1
10
32.947491585901
20
11.259230106838
30
0
41
1
10
32.945333587746
20
11.252646553416
30
0
41
1
10
32.944805703311
20
11.245371311763
30
0
0
SPLINE
5
FA
100
AcDbEntity
8
1
62
256
6
ByLayer
370
18
48
1
60
0
100
AcDbSpline
70
4
71
5
72
12
73
6
40
0
40
0
40
0
40
0
40
0
40
0
40
1
40
1
40
1
40
1
40
1
40
1
41
1
10
33.144608236661
20
12.859641986822
30
0
41
1
10
33.1054679164946
20
12.852626208444
30
0
41
1
10
33.0663128536089
20
12.835137404504
30
0
41
1
10
33.033155607553
20
12.808114202277
30
0
41
1
10
33.011690943061
20
12.776198190478
30
0
41
1
10
33.003072586834
20
12.744290701146
30
0
0
SPLINE
5
FB
100
AcDbEntity
8
1
62
256
6
ByLayer
370
18
48
1
60
0
100
AcDbSpline
70
4
71
5
72
12
73
6
40
0
40
0
40
0
40
0
40
0
40
0
40
1
40
1
40
1
40
1
40
1
40
1
41
1
10
33.1159243625043
20
12.484059804314
30
0
41
1
10
33.1245304829252
20
12.515971946432
30
0
41
1
10
33.145998072348
20
12.547906134705
30
0
41
1
10
33.1791511318913
20
12.574932761572
30
0
41
1
10
33.2183241688776
20
12.592433272878
30
0
41
1
10
33.257470258893
20
12.599449058255
30
0
0
SPLINE
5
FC
100
AcDbEntity
8
1
62
256
6
ByLayer
370
18
48
1
60
0
100
AcDbSpline
70
4
71
5
72
12
73
6
40
0
40
0
40
0
40
0
40
0
40
0
40
1
40
1
40
1
40
1
40
1
40
1
41
1
10
33.003068556809
20
12.744304128482
30
0
41
1
10
33.000703879477
20
12.751465584375
30
0
41
1
10
32.998017960404
20
12.758553435443
30
0
41
1
10
32.995008839723
20
12.765562159592
30
0
41
1
10
32.991676702845
20
12.772487192848
30
0
41
1
10
32.988023911103
20
12.779324860281
30
0
0
SPLINE
5
FD
100
AcDbEntity
8
1
62
256
6
ByLayer
370
18
48
1
60
0
100
AcDbSpline
70
4
71
5
72
12
73
6
40
0
40
0
40
0
40
0
40
0
40
0
40
1
40
1
40
1
40
1
40
1
40
1
41
1
10
32.988008637976
20
12.779301713376
30
0
41
1
10
32.981691101165
20
12.791011720557
30
0
41
1
10
32.974919858073
20
12.803564597699
30
0
41
1
10
32.96768290764
20
12.81667448289
30
0
41
1
10
32.960171696246
20
12.83030315792
30
0
41
1
10
32.952440133762
20
12.844188636772
30
0
0
SPLINE
5
FE
100
AcDbEntity
8
1
62
256
6
ByLayer
370
18
48
1
60
0
100
AcDbSpline
70
4
71
5
72
12
73
6
40
0
40
0
40
0
40
0
40
0
40
0
40
1
40
1
40
1
40
1
40
1
40
1
41
1
10
32.952477299911
20
12.8446622837928
30
0
41
1
10
32.9413865199798
20
12.8484770639412
30
0
41
1
10
32.9294440245056
20
12.8521635768338
30
0
41
1
10
32.9167229037695
20
12.8557257284647
30
0
41
1
10
32.9033080417164
20
12.8591689579971
30
0
41
1
10
32.889294768184
20
12.8625
30
0
0
SPLINE
5
FF
100
AcDbEntity
8
1
62
256
6
ByLayer
370
18
48
1
60
0
100
AcDbSpline
70
4
71
5
72
12
73
6
40
0
40
0
40
0
40
0
40
0
40
0
40
1
40
1
40
1
40
1
40
1
40
1
41
1
10
32.952502255347
20
12.844722197209
30
0
41
1
10
32.951166365054
20
12.85188864285
30
0
41
1
10
32.949342905477
20
12.858639710717
30
0
41
1
10
32.947491585901
20
12.865769893162
30
0
41
1
10
32.945333587746
20
12.872353446584
30
0
41
1
10
32.944805703311
20
12.879628688237
30
0
0
SPLINE
5
100
100
AcDbEntity
8
1
62
256
6
ByLayer
370
18
48
1
60
0
100
AcDbSpline
70
4
71
5
72
12
73
6
40
0
40
0
40
0
40
0
40
0
40
0
40
1
40
1
40
1
40
1
40
1
40
1
41
1
10
32.9447956917021
20
12.87966607757
30
0
41
1
10
32.9347588733156
20
12.8762004797675
30
0
41
1
10
32.9241526434081
20
12.8727462615753
30
0
41
1
10
32.9130126914549
20
12.8693100383902
30
0
41
1
10
32.9013787277078
20
12.8658958259415
30
0
41
1
10
32.889294362364
20
12.862499999998
30
0
0
SPLINE
5
101
100
AcDbEntity
8
1
62
256
6
ByLayer
370
18
48
1
60
0
100
AcDbSpline
70
4
71
5
72
12
73
6
40
0
40
0
40
0
40
0
40
0
40
0
40
1
40
1
40
1
40
1
40
1
40
1
41
1
10
33.0661326672516
20
12.947989572727
30
0
41
1
10
33.0382086649258
20
12.9337082409395
30
0
41
1
10
33.010279000036
20
12.9143990064557
30
0
41
1
10
32.9851301187892
20
12.8914596759719
30
0
41
1
10
32.9654704881524
20
12.8673610937556
30
0
41
1
10
32.9525528653357
20
12.8443892635249
30
0
0
SPLINE
5
102
100
AcDbEntity
8
1
62
256
6
ByLayer
370
18
48
1
60
0
100
AcDbSpline
70
4
71
3
72
9
73
5
40
0
40
0
40
0
40
0
40
0.559307564775152
40
1
40
1
40
1
40
1
41
1
10
34.18548501162
20
12.48406128821
30
0
41
1
10
34.1998419563197
20
12.5148214971719
30
0
41
1
10
34.225511097243
20
12.5698184450038
30
0
41
1
10
34.2777593551958
20
12.5903611181454
30
0
41
1
10
34.3007847672293
20
12.5994141187982
30
0
0
SPLINE
5
103
100
AcDbEntity
8
1
62
256
6
ByLayer
370
18
48
1
60
0
100
AcDbSpline
70
4
71
11
72
24
73
12
40
0
40
0
40
0
40
0
40
0
40
0
40
0
40
0
40
0
40
0
40
0
40
0
40
1
40
1
40
1
40
1
40
1
40
1
40
1
40
1
40
1
40
1
40
1
40
1
41
1
10
35.07398463521
20
12.901950560635
30
0
41
1
10
35.1034256203
20
12.913470187646
30
0
41
1
10
35.1307107804
20
12.926187856859
30
0
41
1
10
35.15559100055
20
12.940006094634
30
0
41
1
10
35.17783996401
20
12.954814754545
30
0
41
1
10
35.19725754457
20
12.970492344171
30
0
41
1
10
35.21367278077
20
12.986907580452
30
0
41
1
10
35.22694635033
20
13.003921140997
30
0
41
1
10
35.23697247513
20
13.021387569165
30
0
41
1
10
35.24368020756
20
13.0391572839
30
0
41
1
10
35.24703407381
20
13.057078641931
30
0
41
1
10
35.24703407385
20
13.07499999998
30
0
0
SPLINE
5
104
100
AcDbEntity
8
1
62
256
6
ByLayer
370
18
48
1
60
0
100
AcDbSpline
70
4
71
3
72
9
73
5
40
0
40
0
40
0
40
0
40
0.492047922981871
40
1
40
1
40
1
40
1
41
1
10
32.995301943315
20
13.075
30
0
41
1
10
33.000099924146
20
13.0523229029325
30
0
41
1
10
33.0098509679101
20
13.0062357313212
30
0
41
1
10
33.0398452845958
20
12.9741071091873
30
0
41
1
10
33.055080960055
20
12.9577873088427
30
0
0
SPLINE
5
105
100
AcDbEntity
8
1
62
256
6
ByLayer
370
18
48
1
60
0
100
AcDbSpline
70
4
71
5
72
38
73
32
40
0
40
0
40
0
40
0
40
0
40
0
40
0.0221475375781468
40
0.0221475375781468
40
0.0221475375781468
40
0.0535671069669454
40
0.0535671069669454
40
0.0535671069669454
40
0.104713989400951
40
0.104713989400951
40
0.104713989400951
40
0.196759232162136
40
0.196759232162136
40
0.196759232162136
40
0.330292230798065
40
0.330292230798065
40
0.460995814030154
40
0.460995814030154
40
0.460995814030154
40
0.608071346912534
40
0.608071346912534
40
0.608071346912534
40
0.790251889712737
40
0.790251889712737
40
0.790251889712737
40
0.909415419143965
40
0.909415419143965
40
0.909415419143965
40
1
40
1
40
1
40
1
40
1
40
1
41
1
10
33.0550900271486
20
12.957790094916
30
0
41
1
10
33.0550362334862
20
12.957738603071
30
0
41
1
10
33.0550834273421
20
12.95767279796
30
0
41
1
10
33.0550920970526
20
12.9576676949609
30
0
41
1
10
33.0552677703205
20
12.957583660261
30
0
41
1
10
33.0553836182085
20
12.957517647311
30
0
41
1
10
33.0554429569132
20
12.95742871047
30
0
41
1
10
33.0556169556205
20
12.957260619356
30
0
41
1
10
33.0557906720854
20
12.957084289191
30
0
41
1
10
33.0559028399383
20
12.956982048266
30
0
41
1
10
33.0562123500661
20
12.956687475727
30
0
41
1
10
33.0565179100447
20
12.95639170195
30
0
41
1
10
33.056716087744
20
12.956202286671
30
0
41
1
10
33.0572041896733
20
12.955741319497
30
0
41
1
10
33.0576939478007
20
12.955282344031
30
0
41
1
10
33.058270186983
20
12.954746932212
30
0
41
1
10
33.058849796607
20
12.954215703771
30
0
41
1
10
33.0594341379228
20
12.953689163942
30
0
41
1
10
33.0600493018061
20
12.953137007402
30
0
41
1
10
33.0606695336266
20
12.95259011776
30
0
41
1
10
33.0609987478545
20
12.952301600831
30
0
41
1
10
33.0617370625372
20
12.951657477291
30
0
41
1
10
33.0624814858179
20
12.951020143056
30
0
41
1
10
33.062892588587
20
12.950667318119
30
0
41
1
10
33.0635773315938
20
12.950088660361
30
0
41
1
10
33.064264059999
20
12.949512924549
30
0
41
1
10
33.0645355626366
20
12.949285638473
30
0
41
1
10
33.0650170301333
20
12.948888359468
30
0
41
1
10
33.0655014666465
20
12.948494979577
30
0
41
1
10
33.0657114417168
20
12.94832539676
30
0
41
1
10
33.0659223262188
20
12.948156356096
30
0
41
1
10
33.0661322902518
20
12.947989436076
30
0
0
SPLINE
5
106
100
AcDbEntity
8
1
62
256
6
ByLayer
370
18
48
1
60
0
100
AcDbSpline
70
4
71
5
72
12
73
6
40
0
40
0
40
0
40
0
40
0
40
0
40
1
40
1
40
1
40
1
40
1
40
1
41
1
10
33.0661326672516
20
12.947989572727
30
0
41
1
10
33.0780713376305
20
12.938412558861
30
0
41
1
10
33.0896850826996
20
12.928930216698
30
0
41
1
10
33.1008360249107
20
12.919622829403
30
0
41
1
10
33.1113850343538
20
12.910602414801
30
0
41
1
10
33.1211997576958
20
12.901950153499
30
0
0
SPLINE
5
107
100
AcDbEntity
8
1
62
256
6
ByLayer
370
18
48
1
60
0
100
AcDbSpline
70
4
71
3
72
8
73
4
40
0
40
0
40
0
40
0
40
1
40
1
40
1
40
1
41
1
10
34.430369298142
20
13.0749999833628
30
0
41
1
10
34.4406831369307
20
13.074988857781
30
0
41
1
10
34.4509968854273
20
13.0757247713119
30
0
41
1
10
34.4612068134552
20
13.077187136749
30
0
0
SPLINE
5
108
100
AcDbEntity
8
1
62
256
6
ByLayer
370
18
48
1
60
0
100
AcDbSpline
70
4
71
3
72
8
73
4
40
0
40
0
40
0
40
0
40
1
40
1
40
1
40
1
41
1
10
35.1726130680603
20
13.4700383467221
30
0
41
1
10
35.2000005702068
20
13.4858880938184
30
0
41
1
10
35.2312439799255
20
13.4949917036401
30
0
41
1
10
35.26285866792
20
13.49633392904
30
0
0
SPLINE
5
109
100
AcDbEntity
8
1
62
256
6
ByLayer
370
18
48
1
60
0
100
AcDbSpline
70
4
71
11
72
24
73
12
40
0
40
0
40
0
40
0
40
0
40
0
40
0
40
0
40
0
40
0
40
0
40
0
40
1
40
1
40
1
40
1
40
1
40
1
40
1
40
1
40
1
40
1
40
1
40
1
41
1
10
35.07398463521
20
11.223049439365
30
0
41
1
10
35.1034256203
20
11.211529812354
30
0
41
1
10
35.1307107804
20
11.198812143141
30
0
41
1
10
35.15559100055
20
11.184993905366
30
0
41
1
10
35.17783996401
20
11.170185245455
30
0
41
1
10
35.19725754457
20
11.154507655829
30
0
41
1
10
35.21367278077
20
11.138092419548
30
0
41
1
10
35.22694635033
20
11.121078859003
30
0
41
1
10
35.23697247513
20
11.103612430835
30
0
41
1
10
35.24368020756
20
11.0858427161
30
0
41
1
10
35.24703407381
20
11.067921358069
30
0
41
1
10
35.24703407385
20
11.05000000002
30
0
0
SPLINE
5
10A
100
AcDbEntity
8
1
62
256
6
ByLayer
370
18
48
1
60
0
100
AcDbSpline
70
4
71
2
72
8
73
5
40
0
40
0
40
0
40
0.5
40
0.5
40
1
40
1
40
1
41
1
10
34.1854850116198
20
11.64093871179
30
0
41
1
10
34.1857679736567
20
11.6013124110678
30
0
41
1
10
34.2269909542428
20
11.5670653497879
30
0
41
1
10
34.2554783756433
20
11.5433986849193
30
0
41
1
10
34.3007847672299
20
11.5255858816232
30
0
0
SPLINE
5
10B
100
AcDbEntity
8
1
62
256
6
ByLayer
370
18
48
1
60
0
100
AcDbSpline
70
4
71
3
72
8
73
4
40
0
40
0
40
0
40
0
40
1
40
1
40
1
40
1
41
1
10
35.1726130680603
20
10.6549616532779
30
0
41
1
10
35.2000005702068
20
10.6391119061815
30
0
41
1
10
35.2312439799255
20
10.6300082963598
30
0
41
1
10
35.26285866792
20
10.62866607096
30
0
0
SPLINE
5
10C
100
AcDbEntity
8
1
62
256
6
ByLayer
370
18
48
1
60
0
100
AcDbSpline
70
4
71
5
72
12
73
6
40
0
40
0
40
0
40
0
40
0
40
0
40
1
40
1
40
1
40
1
40
1
40
1
41
1
10
33.1159243625043
20
11.640940195686
30
0
41
1
10
33.1245304829252
20
11.609028053568
30
0
41
1
10
33.145998072348
20
11.577093865295
30
0
41
1
10
33.1791511318913
20
11.550067238428
30
0
41
1
10
33.2183241688776
20
11.532566727122
30
0
41
1
10
33.257470258893
20
11.525550941745
30
0
0
SPLINE
5
10D
100
AcDbEntity
8
1
62
256
6
ByLayer
370
18
48
1
60
0
100
AcDbSpline
70
4
71
5
72
12
73
6
40
0
40
0
40
0
40
0
40
0
40
0
40
1
40
1
40
1
40
1
40
1
40
1
41
1
10
33.144608236661
20
11.265358013178
30
0
41
1
10
33.1054679164946
20
11.272373791556
30
0
41
1
10
33.0663128536089
20
11.289862595496
30
0
41
1
10
33.033155607553
20
11.316885797723
30
0
41
1
10
33.011690943061
20
11.348801809522
30
0
41
1
10
33.003072586834
20
11.380709298854
30
0
0
SPLINE
5
10E
100
AcDbEntity
8
1
62
256
6
ByLayer
370
18
48
1
60
0
100
AcDbSpline
70
4
71
5
72
12
73
6
40
0
40
0
40
0
40
0
40
0
40
0
40
1
40
1
40
1
40
1
40
1
40
1
41
1
10
33.003068556809
20
11.380695871518
30
0
41
1
10
33.000703879477
20
11.373534415625
30
0
41
1
10
32.998017960404
20
11.366446564557
30
0
41
1
10
32.995008839723
20
11.359437840408
30
0
41
1
10
32.991676702845
20
11.352512807152
30
0
41
1
10
32.988023911103
20
11.345675139719
30
0
0
SPLINE
5
10F
100
AcDbEntity
8
1
62
256
6
ByLayer
370
18
48
1
60
0
100
AcDbSpline
70
4
71
5
72
12
73
6
40
0
40
0
40
0
40
0
40
0
40
0
40
1
40
1
40
1
40
1
40
1
40
1
41
1
10
33.14460824257
20
11.265357957697
30
0
41
1
10
33.140860744939
20
11.25671941427
30
0
41
1
10
33.1366481773674
20
11.24815429933
30
0
41
1
10
33.1319674201208
20
11.239676935479
30
0
41
1
10
33.1268173926973
20
11.231303196956
30
0
41
1
10
33.1211997645859
20
11.223049783682
30
0
0
SPLINE
5
110
100
AcDbEntity
8
1
62
256
6
ByLayer
370
18
48
1
60
0
100
AcDbSpline
70
4
71
5
72
12
73
6
40
0
40
0
40
0
40
0
40
0
40
0
40
1
40
1
40
1
40
1
40
1
40
1
41
1
10
32.9447956917021
20
11.2453339224299
30
0
41
1
10
32.9347588733156
20
11.2487995202325
30
0
41
1
10
32.9241526434081
20
11.2522537384247
30
0
41
1
10
32.9130126914549
20
11.2556899616097
30
0
41
1
10
32.9013787277078
20
11.2591041740585
30
0
41
1
10
32.889294362364
20
11.262500000002
30
0
0
SPLINE
5
111
100
AcDbEntity
8
1
62
256
6
ByLayer
370
18
48
1
60
0
100
AcDbSpline
70
4
71
5
72
12
73
6
40
0
40
0
40
0
40
0
40
0
40
0
40
1
40
1
40
1
40
1
40
1
40
1
41
1
10
32.923136470682
20
12.0624989586755
30
0
41
1
10
32.923134969364
20
12.0520115893214
30
0
41
1
10
32.923470255954
20
12.0415062746746
30
0
41
1
10
32.924136355618
20
12.0311803341636
30
0
41
1
10
32.925116951141
20
12.0211035269928
30
0
41
1
10
32.926436304464
20
12.0111345374265
30
0
0
SPLINE
5
112
100
AcDbEntity
8
1
62
256
6
ByLayer
370
18
48
1
60
0
100
AcDbSpline
70
4
71
9
72
20
73
10
40
0
40
0
40
0
40
0
40
0
40
0
40
0
40
0
40
0
40
0
40
1
40
1
40
1
40
1
40
1
40
1
40
1
40
1
40
1
40
1
41
1
10
33.115924361252
20
11.640940087255
30
0
41
1
10
33.1229178850691
20
11.640940087255
30
0
41
1
10
33.1328457831864
20
11.640940087255
30
0
41
1
10
33.1455216521634
20
11.640940087255
30
0
41
1
10
33.160654799373
20
11.640940087255
30
0
41
1
10
33.1778595304038
20
11.640940087255
30
0
41
1
10
33.1966721865408
20
11.640940087255
30
0
41
1
10
33.2165748687358
20
11.640940087255
30
0
41
1
10
33.237022564532
20
11.640940087255
30
0
41
1
10
33.257470260264
20
11.640940087255
30
0
0
LINE
5
72
100
AcDbEntity
8
80
62
256
6
ByLayer
370
18
48
1
60
0
100
AcDbLine
10
0
20
0
30
0
11
-5
21
0
31
0
39
0
210
0
220
0
230
1
0
LINE
5
73
100
AcDbEntity
8
1
62
256
6
ByLayer
370
18
48
1
60
0
100
AcDbLine
10
22.8
20
10.7625
30
0
11
27.056075
21
10.7625
31
0
39
0
210
0
220
0
230
1
0
LINE
5
75
100
AcDbEntity
8
81
62
256
6
ByLayer
370
18
48
1
60
0
100
AcDbLine
10
37.7
20
13.5625
30
0
11
42.7
21
13.5625
31
0
39
0
210
0
220
0
230
1
0
LINE
5
76
100
AcDbEntity
8
1
62
256
6
ByLayer
370
18
48
1
60
0
100
AcDbLine
10
0
20
12.4375
30
0
11
0
21
-12.4375
31
0
39
0
210
0
220
0
230
1
0
LINE
5
77
100
AcDbEntity
8
1
62
256
6
ByLayer
370
18
48
1
60
0
100
AcDbLine
10
32.760312
20
13.169917
30
0
11
32.78662
21
13.10339
31
0
39
0
210
0
220
0
230
1
0
LINE
5
78
100
AcDbEntity
8
1
62
256
6
ByLayer
370
18
48
1
60
0
100
AcDbLine
10
28.65
20
13.360052
30
0
11
28.4
21
13.360052
31
0
39
0
210
0
220
0
230
1
0
LINE
5
79
100
AcDbEntity
8
1
62
256
6
ByLayer
370
18
48
1
60
0
100
AcDbLine
10
32.68866
20
10.773893
30
0
11
32.78662
21
11.02161
31
0
39
0
210
0
220
0
230
1
0
LINE
5
7A
100
AcDbEntity
8
1
62
256
6
ByLayer
370
18
48
1
60
0
100
AcDbLine
10
11
20
12.4375
30
0
11
11.5
21
12.9375
31
0
39
0
210
0
220
0
230
1
0
LINE
5
7B
100
AcDbEntity
8
1
62
256
6
ByLayer
370
18
48
1
60
0
100
AcDbLine
10
11.76529
20
13.927577
30
0
11
11.5
21
12.9375
31
0
39
0
210
0
220
0
230
1
0
LINE
5
7C
100
AcDbEntity
8
1
62
256
6
ByLayer
370
18
48
1
60
0
100
AcDbLine
10
28.65
20
13.360052
30
0
11
28.65
21
13.307916
31
0
39
0
210
0
220
0
230
1
0
LINE
5
7D
100
AcDbEntity
8
1
62
256
6
ByLayer
370
18
48
1
60
0
100
AcDbLine
10
21.821046
20
13.927577
30
0
11
11.76529
21
13.927577
31
0
39
0
210
0
220
0
230
1
0
LINE
5
7E
100
AcDbEntity
8
1
62
256
6
ByLayer
370
18
48
1
60
0
100
AcDbLine
10
32.78662
20
11.02161
30
0
11
32.883447
21
11.442715
31
0
39
0
210
0
220
0
230
1
0
LINE
5
7F
100
AcDbEntity
8
1
62
256
6
ByLayer
370
18
48
1
60
0
100
AcDbLine
10
30
20
10.766114
30
0
11
29.135
21
10.766114
31
0
39
0
210
0
220
0
230
1
0
LINE
5
80
100
AcDbEntity
8
1
62
256
6
ByLayer
370
18
48
1
60
0
100
AcDbLine
10
32.78662
20
13.10339
30
0
11
32.883447
21
12.682285
31
0
39
0
210
0
220
0
230
1
0
LINE
5
81
100
AcDbEntity
8
1
62
256
6
ByLayer
370
18
48
1
60
0
100
AcDbLine
10
22.8
20
10.7625
30
0
11
22.8
21
11.651246
31
0
39
0
210
0
220
0
230
1
0
LINE
5
82
100
AcDbEntity
8
1
62
256
6
ByLayer
370
18
48
1
60
0
100
AcDbLine
10
32.78662
20
11.02161
30
0
11
32.78662
21
13.10339
31
0
39
0
210
0
220
0
230
1
0
LINE
5
83
100
AcDbEntity
8
1
62
256
6
ByLayer
370
18
48
1
60
0
100
AcDbLine
10
28.1
20
10.767132
30
0
11
28.56
21
10.767132
31
0
39
0
210
0
220
0
230
1
0
LINE
5
84
100
AcDbEntity
8
1
62
256
6
ByLayer
370
18
48
1
60
0
100
AcDbLine
10
21.2
20
10.168857
30
0
11
21.2
21
0.6625
31
0
39
0
210
0
220
0
230
1
0
LINE
5
85
100
AcDbEntity
8
1
62
256
6
ByLayer
370
18
48
1
60
0
100
AcDbLine
10
0
20
12.4375
30
0
11
0.5
21
12.4375
31
0
39
0
210
0
220
0
230
1
0
LINE
5
86
100
AcDbEntity
8
1
62
256
6
ByLayer
370
18
48
1
60
0
100
AcDbLine
10
2.677087
20
-12.475134
30
0
11
9.067916
21
-12.475134
31
0
39
0
210
0
220
0
230
1
0
LINE
5
87
100
AcDbEntity
8
1
62
256
6
ByLayer
370
18
48
1
60
0
100
AcDbLine
10
12.709035
20
17.44968
30
0
11
30.183491
21
17.44968
31
0
39
0
210
0
220
0
230
1
0
LINE
5
88
100
AcDbEntity
8
1
62
256
6
ByLayer
370
18
48
1
60
0
100
AcDbLine
10
2.677087
20
12.4375
30
0
11
0.5
21
12.4375
31
0
39
0
210
0
220
0
230
1
0
LINE
5
89
100
AcDbEntity
8
1
62
256
6
ByLayer
370
18
48
1
60
0
100
AcDbLine
10
2.677087
20
12.4375
30
0
11
2.677087
21
-12.475134
31
0
39
0
210
0
220
0
230
1
0
LINE
5
8A
100
AcDbEntity
8
1
62
256
6
ByLayer
370
18
48
1
60
0
100
AcDbLine
10
0.5
20
12.4375
30
0
11
0.5
21
-12.439682
31
0
39
0
210
0
220
0
230
1
0
LINE
5
8B
100
AcDbEntity
8
1
62
256
6
ByLayer
370
18
48
1
60
0
100
AcDbLine
10
32.887758
20
12.66242
30
0
11
32.887758
21
11.46258
31
0
39
0
210
0
220
0
230
1
0
LINE
5
8C
100
AcDbEntity
8
1
62
256
6
ByLayer
370
18
48
1
60
0
100
AcDbLine
10
9.067916
20
-12.475134
30
0
11
21.2
21
0.6625
31
0
39
0
210
0
220
0
230
1
0
LINE
5
8D
100
AcDbEntity
8
1
62
256
6
ByLayer
370
18
48
1
60
0
100
AcDbLine
10
28.4
20
13.360052
30
0
11
28.4
21
13.321987
31
0
39
0
210
0
220
0
230
1
0
LINE
5
8E
100
AcDbEntity
8
1
62
256
6
ByLayer
370
18
48
1
60
0
100
AcDbLine
10
0.5
20
-12.439682
30
0
11
2.677087
21
-12.475134
31
0
39
0
210
0
220
0
230
1
0
LINE
5
8F
100
AcDbEntity
8
1
62
256
6
ByLayer
370
18
48
1
60
0
100
AcDbLine
10
0.5
20
-12.439682
30
0
11
0
21
-12.4375
31
0
39
0
210
0
220
0
230
1
0
LINE
5
90
100
AcDbEntity
8
1
62
256
6
ByLayer
370
18
48
1
60
0
100
AcDbLine
10
29.561678
20
13.309901
30
0
11
34.89519
21
13.309901
31
0
39
0
210
0
220
0
230
1
0
LINE
5
91
100
AcDbEntity
8
1
62
256
6
ByLayer
370
18
48
1
60
0
100
AcDbLine
10
21.821046
20
11.471758
30
0
11
21.821046
21
13.927577
31
0
39
0
210
0
220
0
230
1
0
LINE
5
92
100
AcDbEntity
8
1
62
256
6
ByLayer
370
18
48
1
60
0
100
AcDbLine
10
36.8
20
13.563447
30
0
11
36.8
21
13.888572
31
0
39
0
210
0
220
0
230
1
0
LINE
5
93
100
AcDbEntity
8
1
62
256
6
ByLayer
370
18
48
1
60
0
100
AcDbLine
10
11
20
12.4375
30
0
11
2.677087
21
12.4375
31
0
39
0
210
0
220
0
230
1
0
LINE
5
94
100
AcDbEntity
8
1
62
256
6
ByLayer
370
18
48
1
60
0
100
AcDbLine
10
11.765302
20
13.927622
30
0
11
12.709035
21
17.44968
31
0
39
0
210
0
220
0
230
1
0
LINE
5
95
100
AcDbEntity
8
1
62
256
6
ByLayer
370
18
48
1
60
0
100
AcDbLine
10
34.648906
20
10.957282
30
0
11
32.761248
21
10.957282
31
0
39
0
210
0
220
0
230
1
0
LINE
5
96
100
AcDbEntity
8
SK1
62
256
6
ByLayer
370
18
48
1
60
0
100
AcDbLine
10
0
20
12.4375
30
0
11
0
21
-12.4375
31
0
39
0
210
0
220
0
230
1
0
LINE
5
98
100
AcDbEntity
8
SK1
62
256
6
ByLayer
370
18
48
1
60
0
100
AcDbLine
10
0
20
12.4375
30
0
11
-113.65
21
12.4375
31
0
39
0
210
0
220
0
230
1
0
LINE
5
99
100
AcDbEntity
8
SK1
62
256
6
ByLayer
370
18
48
1
60
0
100
AcDbLine
10
-113.65
20
12.4375
30
0
11
-113.65
21
-12.4375
31
0
39
0
210
0
220
0
230
1
0
LINE
5
9A
100
AcDbEntity
8
SK1
62
256
6
ByLayer
370
18
48
1
60
0
100
AcDbLine
10
-113.65
20
-12.4375
30
0
11
0
21
-12.4375
31
0
39
0
210
0
220
0
230
1
0
LINE
5
9B
100
AcDbEntity
8
1
62
256
6
ByLayer
370
18
48
1
60
0
100
AcDbLine
10
35.073985
20
12.901951
30
0
11
34.300785
21
12.599414
31
0
39
0
210
0
220
0
230
1
0
LINE
5
9C
100
AcDbEntity
8
1
62
256
6
ByLayer
370
18
48
1
60
0
100
AcDbLine
10
34.46152
20
13.075
30
0
11
35.247034
21
13.075
31
0
39
0
210
0
220
0
230
1
0
LINE
5
9D
100
AcDbEntity
8
1
62
256
6
ByLayer
370
18
48
1
60
0
100
AcDbLine
10
37.301856
20
13.585358
30
0
11
35.262859
21
13.496334
31
0
39
0
210
0
220
0
230
1
0
LINE
5
9E
100
AcDbEntity
8
1
62
256
6
ByLayer
370
18
48
1
60
0
100
AcDbLine
10
33.144608
20
12.859642
30
0
11
33.257471
21
12.599448
31
0
39
0
210
0
220
0
230
1
0
LINE
5
9F
100
AcDbEntity
8
1
62
256
6
ByLayer
370
18
48
1
60
0
100
AcDbLine
10
33.25747
20
12.599449
30
0
11
34.300785
21
12.599449
31
0
39
0
210
0
220
0
230
1
0
LINE
5
A0
100
AcDbEntity
8
1
62
256
6
ByLayer
370
18
48
1
60
0
100
AcDbLine
10
33.25747
20
11.525551
30
0
11
34.300785
21
11.525551
31
0
39
0
210
0
220
0
230
1
0
LINE
5
A1
100
AcDbEntity
8
1
62
256
6
ByLayer
370
18
48
1
60
0
100
AcDbLine
10
32.995302
20
11.05
30
0
11
34.430369
21
11.05
31
0
39
0
210
0
220
0
230
1
0
LINE
5
A2
100
AcDbEntity
8
1
62
256
6
ByLayer
370
18
48
1
60
0
100
AcDbLine
10
34.46152
20
11.05
30
0
11
35.247034
21
11.05
31
0
39
0
210
0
220
0
230
1
0
LINE
5
A3
100
AcDbEntity
8
1
62
256
6
ByLayer
370
18
48
1
60
0
100
AcDbLine
10
37.301856
20
10.539642
30
0
11
35.262859
21
10.628666
31
0
39
0
210
0
220
0
230
1
0
LINE
5
A4
100
AcDbEntity
8
1
62
256
6
ByLayer
370
18
48
1
60
0
100
AcDbLine
10
33.003062
20
12.744254
30
0
11
33.115924
21
12.48406
31
0
39
0
210
0
220
0
230
1
0
LINE
5
A5
100
AcDbEntity
8
1
62
256
6
ByLayer
370
18
48
1
60
0
100
AcDbLine
10
33.257471
20
12.484061
30
0
11
34.185485
21
12.484061
31
0
39
0
210
0
220
0
230
1
0
LINE
5
A6
100
AcDbEntity
8
1
62
256
6
ByLayer
370
18
48
1
60
0
100
AcDbLine
10
33.1212
20
12.901951
30
0
11
35.073985
21
12.901951
31
0
39
0
210
0
220
0
230
1
0
LINE
5
A7
100
AcDbEntity
8
1
62
256
6
ByLayer
370
18
48
1
60
0
100
AcDbLine
10
34.537997
20
13.103642
30
0
11
35.172613
21
13.470038
31
0
39
0
210
0
220
0
230
1
0
LINE
5
A8
100
AcDbEntity
8
1
62
256
6
ByLayer
370
18
48
1
60
0
100
AcDbLine
10
32.995302
20
13.075
30
0
11
34.430369
21
13.075
31
0
39
0
210
0
220
0
230
1
0
LINE
5
A9
100
AcDbEntity
8
1
62
256
6
ByLayer
370
18
48
1
60
0
100
AcDbLine
10
32.926436
20
12.113866
30
0
11
33.003064
21
12.744265
31
0
39
0
210
0
220
0
230
1
0
LINE
5
AA
100
AcDbEntity
8
1
62
256
6
ByLayer
370
18
48
1
60
0
100
AcDbLine
10
33.257471
20
11.640939
30
0
11
34.185485
21
11.640939
31
0
39
0
210
0
220
0
230
1
0
LINE
5
AB
100
AcDbEntity
8
1
62
256
6
ByLayer
370
18
48
1
60
0
100
AcDbLine
10
34.185485
20
11.640939
30
0
11
34.185485
21
12.484061
31
0
39
0
210
0
220
0
230
1
0
LINE
5
AC
100
AcDbEntity
8
1
62
256
6
ByLayer
370
18
48
1
60
0
100
AcDbLine
10
33.25747
20
12.484061
30
0
11
33.25747
21
11.640939
31
0
39
0
210
0
220
0
230
1
0
LINE
5
AD
100
AcDbEntity
8
1
62
256
6
ByLayer
370
18
48
1
60
0
100
AcDbLine
10
35.247034
20
11.05
30
0
11
35.247034
21
13.075
31
0
39
0
210
0
220
0
230
1
0
LINE
5
AE
100
AcDbEntity
8
1
62
256
6
ByLayer
370
18
48
1
60
0
100
AcDbLine
10
34.537997
20
11.021358
30
0
11
35.172613
21
10.654962
31
0
39
0
210
0
220
0
230
1
0
LINE
5
AF
100
AcDbEntity
8
1
62
256
6
ByLayer
370
18
48
1
60
0
100
AcDbLine
10
37.7
20
13.2875
30
0
11
37.7
21
10.8375
31
0
39
0
210
0
220
0
230
1
0
LINE
5
B0
100
AcDbEntity
8
1
62
256
6
ByLayer
370
18
48
1
60
0
100
AcDbLine
10
33.1212
20
11.223049
30
0
11
35.073985
21
11.223049
31
0
39
0
210
0
220
0
230
1
0
LINE
5
B1
100
AcDbEntity
8
1
62
256
6
ByLayer
370
18
48
1
60
0
100
AcDbLine
10
35.073985
20
11.223049
30
0
11
34.300785
21
11.525586
31
0
39
0
210
0
220
0
230
1
0
LINE
5
B2
100
AcDbEntity
8
1
62
256
6
ByLayer
370
18
48
1
60
0
100
AcDbLine
10
33.115924
20
12.484064
30
0
11
33.115924
21
11.640936
31
0
39
0
210
0
220
0
230
1
0
LINE
5
B3
100
AcDbEntity
8
1
62
256
6
ByLayer
370
18
48
1
60
0
100
AcDbLine
10
33.144608
20
11.265358
30
0
11
33.257471
21
11.525552
31
0
39
0
210
0
220
0
230
1
0
LINE
5
B4
100
AcDbEntity
8
1
62
256
6
ByLayer
370
18
48
1
60
0
100
AcDbLine
10
32.926436
20
12.011134
30
0
11
33.003064
21
11.380735
31
0
39
0
210
0
220
0
230
1
0
LINE
5
B5
100
AcDbEntity
8
1
62
256
6
ByLayer
370
18
48
1
60
0
100
AcDbLine
10
33.003062
20
11.380746
30
0
11
33.115924
21
11.64094
31
0
39
0
210
0
220
0
230
1
0
MTEXT
5
113
100
AcDbEntity
8
SK6
62
256
6
ByLayer
370
18
48
1
60
0
100
AcDbMText
10
-67.099987
20
-21.387727
30
0
210
0
220
0
230
1
1
\W0.7426;RF151.37-2525-064B25
40
3.5
41
0
44
1.084337
50
0
71
7
72
5
7
iso_b_vert
0
DIMENSION
5
124
100
AcDbEntity
8
2
62
256
6
ByLayer
370
13
48
1
60
0
100
AcDbDimension
2
DimnDraft3D1
10
51.95
20
13.5625
30
0
11
51.95
21
18.0625
31
0
70
32
71
5
72
1
41
1
210
0
220
0
230
1
3
Standard
100
AcDbAlignedDimension
13
39.2
23
10.5625
33
0
14
39.2
24
13.5625
34
0
50
90
100
AcDbRotatedDimension
1001
ACAD
1000
DSTYLE
1002
{
1070
    74
1070
     0
1070
   279
1070
     0
1070
   172
1070
     1
1070
   173
1070
     1
1070
   340
1005
114
1070
   271
1070
     3
1070
   272
1070
     3
1070
    77
1070
     1
1070
    73
1070
     0
1070
   171
1070
     4
1070
   274
1070
     4
1070
   177
1070
     2
1070
   176
1070
     2
1070
   178
1070
     7
1070
    78
1070
     8
1070
    41
1041
3.0
1070
   147
1041
2.25
1070
    42
1041
1.5
1070
    44
1041
3.0
1070
   140
1041
4.5
1070
   343
1005
125
1070
   344
1005
125
1002
}
0
DIMENSION
5
139
100
AcDbEntity
8
2
62
256
6
ByLayer
370
13
48
1
60
0
100
AcDbDimension
2
DimnDraft3D2
10
61.95
20
-12.4375
30
0
11
61.95
21
-2.125658
31
0
70
32
71
5
72
1
41
1
210
0
220
0
230
1
3
Standard
100
AcDbAlignedDimension
13
39.2
23
13.5625
33
0
14
-3.5
24
-12.4375
34
0
50
90
100
AcDbRotatedDimension
1001
ACAD
1000
DSTYLE
1002
{
1070
    74
1070
     0
1070
   279
1070
     0
1070
   172
1070
     1
1070
   173
1070
     1
1070
   340
1005
114
1070
   271
1070
     3
1070
   272
1070
     3
1070
    77
1070
     1
1070
    73
1070
     0
1070
   171
1070
     4
1070
   274
1070
     4
1070
   177
1070
     2
1070
   176
1070
     2
1070
   178
1070
     7
1070
    78
1070
     8
1070
    41
1041
3.0
1070
   147
1041
2.25
1070
    42
1041
1.5
1070
    44
1041
3.0
1070
   140
1041
4.5
1070
   343
1005
125
1070
   344
1005
125
1002
}
0
DIMENSION
5
148
100
AcDbEntity
8
SK2
62
256
6
ByLayer
370
13
48
1
60
0
100
AcDbDimension
2
DimnDraft3D3
10
-123.4
20
-12.4375
30
0
11
-123.4
21
-2.688158
31
0
70
32
71
5
72
1
41
1
210
0
220
0
230
1
3
Standard
100
AcDbAlignedDimension
13
-115.15
23
12.4375
33
0
14
-115.15
24
-12.4375
34
0
50
90
100
AcDbRotatedDimension
1001
ACAD
1000
DSTYLE
1002
{
1070
    74
1070
     0
1070
   279
1070
     0
1070
   172
1070
     1
1070
   173
1070
     1
1070
   340
1005
114
1070
   271
1070
     3
1070
   272
1070
     3
1070
    77
1070
     1
1070
    73
1070
     0
1070
   171
1070
     4
1070
   274
1070
     4
1070
   177
1070
     2
1070
   176
1070
     2
1070
   178
1070
     7
1070
    78
1070
     8
1070
    41
1041
3.0
1070
   147
1041
2.25
1070
    42
1041
1.5
1070
    44
1041
3.0
1070
   140
1041
4.5
1070
   343
1005
125
1070
   344
1005
125
1002
}
0
DIMENSION
5
156
100
AcDbEntity
8
2
62
256
6
ByLayer
370
13
48
1
60
0
100
AcDbDimension
2
DimnDraft3D4
10
0
20
26.65451
30
0
11
13.568421
21
26.65451
31
0
70
32
71
5
72
1
41
1
210
0
220
0
230
1
3
Standard
100
AcDbAlignedDimension
13
37.7
23
15.0625
33
0
14
0
24
13.9375
34
0
50
0
100
AcDbRotatedDimension
1001
ACAD
1000
DSTYLE
1002
{
1070
   279
1070
     0
1070
   172
1070
     1
1070
   173
1070
     1
1070
   340
1005
114
1070
   271
1070
     3
1070
   272
1070
     3
1070
    77
1070
     1
1070
    73
1070
     0
1070
   171
1070
     4
1070
   274
1070
     4
1070
   177
1070
     2
1070
   176
1070
     2
1070
   178
1070
     7
1070
    78
1070
     8
1070
    41
1041
3.0
1070
   147
1041
2.25
1070
    42
1041
1.5
1070
    44
1041
3.0
1070
   140
1041
4.5
1070
   343
1005
125
1070
   344
1005
125
1002
}
0
DIMENSION
5
164
100
AcDbEntity
8
SK2
62
256
6
ByLayer
370
13
48
1
60
0
100
AcDbDimension
2
DimnDraft3D5
10
-113.65
20
36.65451
30
0
11
-41.782237
21
36.65451
31
0
70
32
71
5
72
1
41
1
210
0
220
0
230
1
3
Standard
100
AcDbAlignedDimension
13
37.7
23
15.0625
33
0
14
-113.65
24
13.9375
34
0
50
0
100
AcDbRotatedDimension
1001
ACAD
1000
DSTYLE
1002
{
1070
   279
1070
     0
1070
   172
1070
     1
1070
   173
1070
     1
1070
   340
1005
114
1070
   271
1070
     3
1070
   272
1070
     3
1070
    77
1070
     1
1070
    73
1070
     0
1070
   171
1070
     4
1070
   274
1070
     4
1070
   177
1070
     2
1070
   176
1070
     2
1070
   178
1070
     7
1070
    78
1070
     8
1070
    41
1041
3.0
1070
   147
1041
2.25
1070
    42
1041
1.5
1070
    44
1041
3.0
1070
   140
1041
4.5
1070
   343
1005
125
1070
   344
1005
125
1002
}
0
DIMENSION
5
172
100
AcDbEntity
8
2
62
256
6
ByLayer
370
13
48
1
60
0
100
AcDbDimension
2
DimnDraft3D6
10
37.7
20
-26.6875
30
0
11
28.074342
21
-26.6875
31
0
70
32
71
5
72
1
41
1
210
0
220
0
230
1
3
Standard
100
AcDbAlignedDimension
13
22.7
23
8.0625
33
0
14
37.7
24
9.0625
34
0
50
0
100
AcDbRotatedDimension
1001
ACAD
1000
DSTYLE
1002
{
1070
   279
1070
     0
1070
   172
1070
     1
1070
   173
1070
     1
1070
   340
1005
114
1070
   271
1070
     3
1070
   272
1070
     3
1070
    77
1070
     1
1070
    73
1070
     0
1070
   171
1070
     4
1070
   274
1070
     4
1070
   177
1070
     2
1070
   176
1070
     2
1070
   178
1070
     7
1070
    78
1070
     8
1070
    41
1041
3.0
1070
   147
1041
2.25
1070
    42
1041
1.5
1070
    44
1041
3.0
1070
   140
1041
4.5
1070
   343
1005
125
1070
   344
1005
125
1002
}
0
ENDSEC
0
SECTION
2
OBJECTS
0
DICTIONARY
5
1dc
330
0
100
AcDbDictionary
280
0
281
1
3
ACAD_GROUP
350
1dd
3
ACAD_MLINESTYLE
350
1de
0
DICTIONARY
5
1dd
330
0
100
AcDbDictionary
280
0
281
1
0
DICTIONARY
5
1de
330
0
100
AcDbDictionary
280
0
281
1
3
Standard
350
18
0
MLINESTYLE
5
18
330
1de
100
AcDbMlineStyle
2
Standard
70
0
3

62
256
51
90
52
90
71
2
49
-0.5
62
256
6
ByLayer
49
0.5
62
256
6
ByLayer
0
RASTERVARIABLES
5
1cb
330

100
AcDbRasterVariables
90
0
70
1
71
1
72
1
0
ENDSEC
0
EOF
