0
SECTION
2
HEADER
9
$ACADVER
1
AC1015
9
$DWGCODEPAGE
3
ANSI_1252
9
$HANDSEED
5
204
9
$ANGBASE
50
0
9
$ANGDIR
70
0
9
$ATTMODE
70
1
9
$AUNITS
70
0
9
$AUPREC
70
0
9
$CECOLOR
62
256
9
$CELTSCALE
40
1
9
$CELTYPE
6
ByLayer
9
$CELWEIGHT
370
18
9
$CLAYER
8
0
9
$CMLJUST
70
0
9
$CMLSCALE
40
1
9
$CMLSTYLE
2
Standard
9
$DIMSTYLE
2
Standard
9
$TEXTSIZE
40
0.2
9
$TEXTSTYLE
7
Standard
9
$LUNITS
70
2
9
$LUPREC
70
4
9
$EXTNAMES
290
1
9
$INSUNITS
70
4
9
$LTSCALE
40
1
9
$LWDISPLAY
290
1
9
$PDMODE
70
0
9
$PDSIZE
40
0
9
$PLINEGEN
70
0
0
ENDSEC
0
SECTION
2
CLASSES
0
CLASS
1
RASTERVARIABLES
2
AcDbRasterVariables
3
ISM
90
0
280
0
281
0
0
ENDSEC
0
SECTION
2
TABLES
0
TABLE
2
VPORT
5
1fa
100
AcDbSymbolTable
0
VPORT
5
1
100
AcDbSymbolTableRecord
100
AcDbViewportTableRecord
2
*Active
70
0
10
0
20
0
11
1
21
1
12
-1
22
1
13
0
23
0
14
0.5
24
0.5
15
10
25
10
16
0
26
0
36
1
17
0
27
0
37
0
0
ENDTAB
0
TABLE
2
LTYPE
5
1fb
100
AcDbSymbolTable
0
LTYPE
5
14
100
AcDbSymbolTableRecord
100
AcDbLinetypeTableRecord
70
0
2
ByBlock
3

72
65
73
0
40
0
0
LTYPE
5
15
100
AcDbSymbolTableRecord
100
AcDbLinetypeTableRecord
70
0
2
ByLayer
3

72
65
73
0
40
0
0
LTYPE
5
16
100
AcDbSymbolTableRecord
100
AcDbLinetypeTableRecord
70
0
2
CONTINUOUS
3
Solid line
72
65
73
0
40
0
0
LTYPE
5
6A
100
AcDbSymbolTableRecord
100
AcDbLinetypeTableRecord
70
0
2
CENTER
3
____ _ ____ _ ____ _ ____
72
65
73
4
40
47.5
49
22
74
0
49
-8.5
74
0
49
8.5
74
0
49
-8.5
74
0
0
LTYPE
5
6B
100
AcDbSymbolTableRecord
100
AcDbLinetypeTableRecord
70
0
2
DASHED
3
__ __ __ __ __ __ __ __ __
72
65
73
2
40
25.72
49
12.86
74
0
49
-12.86
74
0
0
ENDTAB
0
TABLE
2
LAYER
5
1fc
100
AcDbSymbolTable
0
LAYER
5
10
100
AcDbSymbolTableRecord
100
AcDbLayerTableRecord
2
0
70
0
62
7
6
CONTINUOUS
290
1
370
-3
390
0
0
LAYER
5
6D
100
AcDbSymbolTableRecord
100
AcDbLayerTableRecord
2
2
70
0
62
7
6
CONTINUOUS
290
1
370
-3
390
0
0
LAYER
5
6F
100
AcDbSymbolTableRecord
100
AcDbLayerTableRecord
2
80
70
0
62
-6
6
CONTINUOUS
290
1
370
-3
390
0
0
LAYER
5
71
100
AcDbSymbolTableRecord
100
AcDbLayerTableRecord
2
81
70
0
62
-3
6
CONTINUOUS
290
1
370
-3
390
0
0
LAYER
5
74
100
AcDbSymbolTableRecord
100
AcDbLayerTableRecord
2
1
70
0
62
4
6
CONTINUOUS
290
1
370
-3
390
0
0
LAYER
5
1e7
100
AcDbSymbolTableRecord
100
AcDbLayerTableRecord
2
SK1
70
0
62
4
6
CONTINUOUS
290
1
370
-3
390
0
0
LAYER
5
1e8
100
AcDbSymbolTableRecord
100
AcDbLayerTableRecord
2
SK6
70
0
62
5
6
CONTINUOUS
290
1
370
-3
390
0
0
LAYER
5
1e9
100
AcDbSymbolTableRecord
100
AcDbLayerTableRecord
2
SK2
70
0
62
7
6
CONTINUOUS
290
1
370
-3
390
0
0
ENDTAB
0
TABLE
2
STYLE
5
1fd
100
AcDbSymbolTable
0
STYLE
5
11
100
AcDbSymbolTableRecord
100
AcDbTextStyleTableRecord
2
Standard
3
txt
70
0
71
0
40
0
41
1
42
0
50
0
0
STYLE
5
121
100
AcDbSymbolTableRecord
100
AcDbTextStyleTableRecord
2
iso_b_vert
3
simplex.shx
70
0
71
0
40
0
41
1
42
0
50
0
0
STYLE
5
122
100
AcDbSymbolTableRecord
100
AcDbTextStyleTableRecord
2
DWGDirectTextStyle
3
simplex
70
0
71
0
40
0
41
1
42
0
50
0
0
ENDTAB
0
TABLE
2
DIMSTYLE
5
1fe
100
AcDbSymbolTable
100
AcDbDimStyleTable
0
DIMSTYLE
105
27
100
AcDbSymbolTableRecord
100
AcDbDimStyleTableRecord
2
Standard
70
0
3
<>
41
0.18
42
0.0625
44
0.18
140
0.18
147
0.09
73
0
74
0
77
1
271
2
275
0
278
52
280
0
340
11
0
ENDTAB
0
TABLE
2
VIEW
5
1ff
100
AcDbSymbolTable
0
ENDTAB
0
TABLE
2
UCS
5
200
100
AcDbSymbolTable
0
ENDTAB
0
TABLE
2
APPID
5
201
100
AcDbSymbolTable
0
APPID
5
12
100
AcDbSymbolTableRecord
100
AcDbRegAppTableRecord
2
ACAD
70
0
0
ENDTAB
0
TABLE
2
BLOCK_RECORD
5
202
100
AcDbSymbolTable
0
BLOCK_RECORD
5
1F
100
AcDbSymbolTableRecord
100
AcDbBlockTableRecord
2
*Model_Space
340
0
70
0
0
BLOCK_RECORD
5
1B
100
AcDbSymbolTableRecord
100
AcDbBlockTableRecord
2
*Paper_Space
340
0
70
0
0
BLOCK_RECORD
5
23
100
AcDbSymbolTableRecord
100
AcDbBlockTableRecord
2
*Paper_Space0
340
0
70
0
0
BLOCK_RECORD
5
124
100
AcDbSymbolTableRecord
100
AcDbBlockTableRecord
2
DimnDraft3D1
340
0
70
0
0
BLOCK_RECORD
5
132
100
AcDbSymbolTableRecord
100
AcDbBlockTableRecord
2
_CLOSED
340
0
70
0
0
BLOCK_RECORD
5
139
100
AcDbSymbolTableRecord
100
AcDbBlockTableRecord
2
DimnDraft3D2
340
0
70
0
0
BLOCK_RECORD
5
147
100
AcDbSymbolTableRecord
100
AcDbBlockTableRecord
2
DimnDraft3D3
340
0
70
0
0
BLOCK_RECORD
5
156
100
AcDbSymbolTableRecord
100
AcDbBlockTableRecord
2
DimnDraft3D4
340
0
70
0
0
BLOCK_RECORD
5
164
100
AcDbSymbolTableRecord
100
AcDbBlockTableRecord
2
DimnDraft3D5
340
0
70
0
0
BLOCK_RECORD
5
172
100
AcDbSymbolTableRecord
100
AcDbBlockTableRecord
2
DimnDraft3D6
340
0
70
0
0
BLOCK_RECORD
5
180
100
AcDbSymbolTableRecord
100
AcDbBlockTableRecord
2
DimnDraft3D7
340
0
70
0
0
ENDTAB
0
ENDSEC
0
SECTION
2
BLOCKS
0
BLOCK
5
20
100
AcDbEntity
8
0
100
AcDbBlockBegin
2
*Model_Space
70
0
10
0
20
0
30
0
3
*Model_Space
0
ENDBLK
5
21
100
AcDbEntity
8
0
100
AcDbBlockEnd
0
BLOCK
5
1C
100
AcDbEntity
8
0
100
AcDbBlockBegin
2
*Paper_Space
70
0
10
0
20
0
30
0
3
*Paper_Space
0
ENDBLK
5
1D
100
AcDbEntity
8
0
100
AcDbBlockEnd
0
BLOCK
5
24
100
AcDbEntity
8
0
100
AcDbBlockBegin
2
*Paper_Space0
70
0
10
0
20
0
30
0
3
*Paper_Space0
0
ENDBLK
5
25
100
AcDbEntity
8
0
100
AcDbBlockEnd
0
BLOCK
5
12F
100
AcDbEntity
8
0
100
AcDbBlockBegin
2
DimnDraft3D1
70
0
10
0
20
0
30
0
3
DimnDraft3D1
0
MTEXT
5
125
100
AcDbEntity
8
2
62
256
6
ByLayer
370
18
48
1
60
0
100
AcDbMText
10
57.825
20
19.1875
30
0
210
0
220
0
230
1
1
\W0.6380;4
40
4.5
41
0
44
1.084337
50
90
71
7
72
5
7
iso_b_vert
0
LINE
5
126
100
AcDbEntity
8
2
62
256
6
ByLayer
370
13
48
1
60
0
100
AcDbLine
10
46.2
20
9.5625
30
0
11
61.95
21
9.5625
31
0
39
0
210
0
220
0
230
1
0
LINE
5
127
100
AcDbEntity
8
2
62
256
6
ByLayer
370
13
48
1
60
0
100
AcDbLine
10
46.2
20
13.5625
30
0
11
61.95
21
13.5625
31
0
39
0
210
0
220
0
230
1
0
LINE
5
128
100
AcDbEntity
8
2
62
256
6
ByLayer
370
13
48
1
60
0
100
AcDbLine
10
58.95
20
20.549342
30
0
11
58.95
21
-1.6875
31
0
39
0
210
0
220
0
230
1
0
LINE
5
129
100
AcDbEntity
8
2
62
256
6
ByLayer
370
13
48
1
60
0
100
AcDbLine
10
58.95
20
9.5625
30
0
11
59.344957
21
6.562501
31
0
39
0
210
0
220
0
230
1
0
LINE
5
12A
100
AcDbEntity
8
2
62
256
6
ByLayer
370
13
48
1
60
0
100
AcDbLine
10
58.95
20
9.5625
30
0
11
58.555043
21
6.562499
31
0
39
0
210
0
220
0
230
1
0
LINE
5
12B
100
AcDbEntity
8
2
62
256
6
ByLayer
370
13
48
1
60
0
100
AcDbLine
10
59.344957
20
6.562501
30
0
11
58.555043
21
6.562499
31
0
39
0
210
0
220
0
230
1
0
LINE
5
12C
100
AcDbEntity
8
2
62
256
6
ByLayer
370
13
48
1
60
0
100
AcDbLine
10
58.95
20
13.5625
30
0
11
58.555043
21
16.562499
31
0
39
0
210
0
220
0
230
1
0
LINE
5
12D
100
AcDbEntity
8
2
62
256
6
ByLayer
370
13
48
1
60
0
100
AcDbLine
10
58.95
20
13.5625
30
0
11
59.344957
21
16.562501
31
0
39
0
210
0
220
0
230
1
0
LINE
5
12E
100
AcDbEntity
8
2
62
256
6
ByLayer
370
13
48
1
60
0
100
AcDbLine
10
58.555043
20
16.562499
30
0
11
59.344957
21
16.562501
31
0
39
0
210
0
220
0
230
1
0
ENDBLK
5
130
100
AcDbEntity
8
0
100
AcDbBlockEnd
0
BLOCK
5
133
100
AcDbEntity
8
0
100
AcDbBlockBegin
2
_CLOSED
70
0
10
0
20
0
30
0
3
_CLOSED
0
LINE
5
135
100
AcDbEntity
8
0
62
256
6
ByLayer
370
-2
48
1
60
0
100
AcDbLine
10
-1
20
0.166667
30
0
11
0
21
0
31
0
39
0
210
0
220
0
230
1
0
LINE
5
136
100
AcDbEntity
8
0
62
256
6
ByLayer
370
-2
48
1
60
0
100
AcDbLine
10
0
20
0
30
0
11
-1
21
-0.166667
31
0
39
0
210
0
220
0
230
1
0
LINE
5
137
100
AcDbEntity
8
0
62
256
6
ByLayer
370
-2
48
1
60
0
100
AcDbLine
10
-1
20
0.166667
30
0
11
-1
21
-0.166667
31
0
39
0
210
0
220
0
230
1
0
LINE
5
138
100
AcDbEntity
8
0
62
256
6
ByLayer
370
-2
48
1
60
0
100
AcDbLine
10
0
20
0
30
0
11
-1
21
0
31
0
39
0
210
0
220
0
230
1
0
ENDBLK
5
134
100
AcDbEntity
8
0
100
AcDbBlockEnd
0
BLOCK
5
144
100
AcDbEntity
8
0
100
AcDbBlockBegin
2
DimnDraft3D2
70
0
10
0
20
0
30
0
3
DimnDraft3D2
0
MTEXT
5
13A
100
AcDbEntity
8
2
62
256
6
ByLayer
370
18
48
1
60
0
100
AcDbMText
10
67.825
20
-1.000658
30
0
210
0
220
0
230
1
1
\W0.6740;26
40
4.5
41
0
44
1.084337
50
90
71
7
72
5
7
iso_b_vert
0
LINE
5
13B
100
AcDbEntity
8
2
62
256
6
ByLayer
370
13
48
1
60
0
100
AcDbLine
10
46.2
20
13.5625
30
0
11
71.95
21
13.5625
31
0
39
0
210
0
220
0
230
1
0
LINE
5
13C
100
AcDbEntity
8
2
62
256
6
ByLayer
370
13
48
1
60
0
100
AcDbLine
10
-3.5
20
-12.4375
30
0
11
71.95
21
-12.4375
31
0
39
0
210
0
220
0
230
1
0
LINE
5
13D
100
AcDbEntity
8
2
62
256
6
ByLayer
370
13
48
1
60
0
100
AcDbLine
10
68.95
20
13.5625
30
0
11
68.95
21
-12.4375
31
0
39
0
210
0
220
0
230
1
0
LINE
5
13E
100
AcDbEntity
8
2
62
256
6
ByLayer
370
13
48
1
60
0
100
AcDbLine
10
68.95
20
13.5625
30
0
11
69.344957
21
10.562501
31
0
39
0
210
0
220
0
230
1
0
LINE
5
13F
100
AcDbEntity
8
2
62
256
6
ByLayer
370
13
48
1
60
0
100
AcDbLine
10
68.95
20
13.5625
30
0
11
68.555043
21
10.562499
31
0
39
0
210
0
220
0
230
1
0
LINE
5
140
100
AcDbEntity
8
2
62
256
6
ByLayer
370
13
48
1
60
0
100
AcDbLine
10
69.344957
20
10.562501
30
0
11
68.555043
21
10.562499
31
0
39
0
210
0
220
0
230
1
0
LINE
5
141
100
AcDbEntity
8
2
62
256
6
ByLayer
370
13
48
1
60
0
100
AcDbLine
10
68.95
20
-12.4375
30
0
11
68.555043
21
-9.437501
31
0
39
0
210
0
220
0
230
1
0
LINE
5
142
100
AcDbEntity
8
2
62
256
6
ByLayer
370
13
48
1
60
0
100
AcDbLine
10
68.95
20
-12.4375
30
0
11
69.344957
21
-9.437499
31
0
39
0
210
0
220
0
230
1
0
LINE
5
143
100
AcDbEntity
8
2
62
256
6
ByLayer
370
13
48
1
60
0
100
AcDbLine
10
68.555043
20
-9.437501
30
0
11
69.344957
21
-9.437499
31
0
39
0
210
0
220
0
230
1
0
ENDBLK
5
145
100
AcDbEntity
8
0
100
AcDbBlockEnd
0
BLOCK
5
153
100
AcDbEntity
8
0
100
AcDbBlockBegin
2
DimnDraft3D3
70
0
10
0
20
0
30
0
3
DimnDraft3D3
0
MTEXT
5
148
100
AcDbEntity
8
SK2
62
256
6
ByLayer
370
18
48
1
60
0
100
AcDbMText
10
-117.525
20
-1.563158
30
0
210
0
220
0
230
1
1
\W0.6740;25
40
4.5
41
0
44
1.084337
50
90
71
7
72
5
7
iso_b_vert
0
LINE
5
14A
100
AcDbEntity
8
SK2
62
256
6
ByLayer
370
13
48
1
60
0
100
AcDbLine
10
-108.15
20
12.4375
30
0
11
-119.4
21
12.4375
31
0
39
0
210
0
220
0
230
1
0
LINE
5
14B
100
AcDbEntity
8
SK2
62
256
6
ByLayer
370
13
48
1
60
0
100
AcDbLine
10
-108.15
20
-12.4375
30
0
11
-119.4
21
-12.4375
31
0
39
0
210
0
220
0
230
1
0
LINE
5
14C
100
AcDbEntity
8
SK2
62
256
6
ByLayer
370
13
48
1
60
0
100
AcDbLine
10
-116.4
20
12.4375
30
0
11
-116.4
21
-12.4375
31
0
39
0
210
0
220
0
230
1
0
LINE
5
14D
100
AcDbEntity
8
SK2
62
256
6
ByLayer
370
13
48
1
60
0
100
AcDbLine
10
-116.4
20
12.4375
30
0
11
-116.005043
21
9.437501
31
0
39
0
210
0
220
0
230
1
0
LINE
5
14E
100
AcDbEntity
8
SK2
62
256
6
ByLayer
370
13
48
1
60
0
100
AcDbLine
10
-116.4
20
12.4375
30
0
11
-116.794957
21
9.437499
31
0
39
0
210
0
220
0
230
1
0
LINE
5
14F
100
AcDbEntity
8
SK2
62
256
6
ByLayer
370
13
48
1
60
0
100
AcDbLine
10
-116.005043
20
9.437501
30
0
11
-116.794957
21
9.437499
31
0
39
0
210
0
220
0
230
1
0
LINE
5
150
100
AcDbEntity
8
SK2
62
256
6
ByLayer
370
13
48
1
60
0
100
AcDbLine
10
-116.4
20
-12.4375
30
0
11
-116.794957
21
-9.437501
31
0
39
0
210
0
220
0
230
1
0
LINE
5
151
100
AcDbEntity
8
SK2
62
256
6
ByLayer
370
13
48
1
60
0
100
AcDbLine
10
-116.4
20
-12.4375
30
0
11
-116.005043
21
-9.437499
31
0
39
0
210
0
220
0
230
1
0
LINE
5
152
100
AcDbEntity
8
SK2
62
256
6
ByLayer
370
13
48
1
60
0
100
AcDbLine
10
-116.794957
20
-9.437501
30
0
11
-116.005043
21
-9.437499
31
0
39
0
210
0
220
0
230
1
0
ENDBLK
5
154
100
AcDbEntity
8
0
100
AcDbBlockEnd
0
BLOCK
5
161
100
AcDbEntity
8
0
100
AcDbBlockBegin
2
DimnDraft3D4
70
0
10
0
20
0
30
0
3
DimnDraft3D4
0
MTEXT
5
157
100
AcDbEntity
8
2
62
256
6
ByLayer
370
18
48
1
60
0
100
AcDbMText
10
17.719737
20
33.316596
30
0
210
0
220
0
230
1
1
\W0.7983;44.7
40
4.5
41
0
44
1.084337
50
0
71
7
72
5
7
iso_b_vert
0
LINE
5
158
100
AcDbEntity
8
2
62
256
6
ByLayer
370
13
48
1
60
0
100
AcDbLine
10
44.7
20
15.0625
30
0
11
44.7
21
35.191596
31
0
39
0
210
0
220
0
230
1
0
LINE
5
159
100
AcDbEntity
8
2
62
256
6
ByLayer
370
13
48
1
60
0
100
AcDbLine
10
0
20
13.9375
30
0
11
0
21
35.191596
31
0
39
0
210
0
220
0
230
1
0
LINE
5
15A
100
AcDbEntity
8
2
62
256
6
ByLayer
370
13
48
1
60
0
100
AcDbLine
10
44.7
20
32.191596
30
0
11
0
21
32.191596
31
0
39
0
210
0
220
0
230
1
0
LINE
5
15B
100
AcDbEntity
8
2
62
256
6
ByLayer
370
13
48
1
60
0
100
AcDbLine
10
44.7
20
32.191596
30
0
11
41.700001
21
31.796639
31
0
39
0
210
0
220
0
230
1
0
LINE
5
15C
100
AcDbEntity
8
2
62
256
6
ByLayer
370
13
48
1
60
0
100
AcDbLine
10
44.7
20
32.191596
30
0
11
41.699999
21
32.586554
31
0
39
0
210
0
220
0
230
1
0
LINE
5
15D
100
AcDbEntity
8
2
62
256
6
ByLayer
370
13
48
1
60
0
100
AcDbLine
10
41.700001
20
31.796639
30
0
11
41.699999
21
32.586554
31
0
39
0
210
0
220
0
230
1
0
LINE
5
15E
100
AcDbEntity
8
2
62
256
6
ByLayer
370
13
48
1
60
0
100
AcDbLine
10
0
20
32.191596
30
0
11
2.999999
21
32.586554
31
0
39
0
210
0
220
0
230
1
0
LINE
5
15F
100
AcDbEntity
8
2
62
256
6
ByLayer
370
13
48
1
60
0
100
AcDbLine
10
0
20
32.191596
30
0
11
3.000001
21
31.796639
31
0
39
0
210
0
220
0
230
1
0
LINE
5
160
100
AcDbEntity
8
2
62
256
6
ByLayer
370
13
48
1
60
0
100
AcDbLine
10
2.999999
20
32.586554
30
0
11
3.000001
21
31.796639
31
0
39
0
210
0
220
0
230
1
0
ENDBLK
5
162
100
AcDbEntity
8
0
100
AcDbBlockEnd
0
BLOCK
5
16F
100
AcDbEntity
8
0
100
AcDbBlockBegin
2
DimnDraft3D5
70
0
10
0
20
0
30
0
3
DimnDraft3D5
0
MTEXT
5
165
100
AcDbEntity
8
SK2
62
256
6
ByLayer
370
18
48
1
60
0
100
AcDbMText
10
-33.657237
20
43.316596
30
0
210
0
220
0
230
1
1
\W0.6217;150
40
4.5
41
0
44
1.084337
50
0
71
7
72
5
7
iso_b_vert
0
LINE
5
166
100
AcDbEntity
8
SK2
62
256
6
ByLayer
370
13
48
1
60
0
100
AcDbLine
10
44.7
20
15.0625
30
0
11
44.7
21
45.191596
31
0
39
0
210
0
220
0
230
1
0
LINE
5
167
100
AcDbEntity
8
SK2
62
256
6
ByLayer
370
13
48
1
60
0
100
AcDbLine
10
-106.65
20
13.9375
30
0
11
-106.65
21
45.191596
31
0
39
0
210
0
220
0
230
1
0
LINE
5
168
100
AcDbEntity
8
SK2
62
256
6
ByLayer
370
13
48
1
60
0
100
AcDbLine
10
44.7
20
42.191596
30
0
11
-106.65
21
42.191596
31
0
39
0
210
0
220
0
230
1
0
LINE
5
169
100
AcDbEntity
8
SK2
62
256
6
ByLayer
370
13
48
1
60
0
100
AcDbLine
10
44.7
20
42.191596
30
0
11
41.700001
21
41.796639
31
0
39
0
210
0
220
0
230
1
0
LINE
5
16A
100
AcDbEntity
8
SK2
62
256
6
ByLayer
370
13
48
1
60
0
100
AcDbLine
10
44.7
20
42.191596
30
0
11
41.699999
21
42.586554
31
0
39
0
210
0
220
0
230
1
0
LINE
5
16B
100
AcDbEntity
8
SK2
62
256
6
ByLayer
370
13
48
1
60
0
100
AcDbLine
10
41.700001
20
41.796639
30
0
11
41.699999
21
42.586554
31
0
39
0
210
0
220
0
230
1
0
LINE
5
16C
100
AcDbEntity
8
SK2
62
256
6
ByLayer
370
13
48
1
60
0
100
AcDbLine
10
-106.65
20
42.191596
30
0
11
-103.650001
21
42.586554
31
0
39
0
210
0
220
0
230
1
0
LINE
5
16D
100
AcDbEntity
8
SK2
62
256
6
ByLayer
370
13
48
1
60
0
100
AcDbLine
10
-106.65
20
42.191596
30
0
11
-103.649999
21
41.796639
31
0
39
0
210
0
220
0
230
1
0
LINE
5
16E
100
AcDbEntity
8
SK2
62
256
6
ByLayer
370
13
48
1
60
0
100
AcDbLine
10
-103.650001
20
42.586554
30
0
11
-103.649999
21
41.796639
31
0
39
0
210
0
220
0
230
1
0
ENDBLK
5
170
100
AcDbEntity
8
0
100
AcDbBlockEnd
0
BLOCK
5
17D
100
AcDbEntity
8
0
100
AcDbBlockBegin
2
DimnDraft3D6
70
0
10
0
20
0
30
0
3
DimnDraft3D6
0
MTEXT
5
173
100
AcDbEntity
8
2
62
256
6
ByLayer
370
18
48
1
60
0
100
AcDbMText
10
50.325
20
-25.5625
30
0
210
0
220
0
230
1
1
\W0.7121;8.7
40
4.5
41
0
44
1.084337
50
0
71
7
72
5
7
iso_b_vert
0
LINE
5
174
100
AcDbEntity
8
2
62
256
6
ByLayer
370
13
48
1
60
0
100
AcDbLine
10
36
20
7.0625
30
0
11
36
21
-29.6875
31
0
39
0
210
0
220
0
230
1
0
LINE
5
175
100
AcDbEntity
8
2
62
256
6
ByLayer
370
13
48
1
60
0
100
AcDbLine
10
44.7
20
8.0625
30
0
11
44.7
21
-29.6875
31
0
39
0
210
0
220
0
230
1
0
LINE
5
176
100
AcDbEntity
8
2
62
256
6
ByLayer
370
13
48
1
60
0
100
AcDbLine
10
36
20
-26.6875
30
0
11
56.4
21
-26.6875
31
0
39
0
210
0
220
0
230
1
0
LINE
5
177
100
AcDbEntity
8
2
62
256
6
ByLayer
370
13
48
1
60
0
100
AcDbLine
10
36
20
-26.6875
30
0
11
38.999999
21
-26.292543
31
0
39
0
210
0
220
0
230
1
0
LINE
5
178
100
AcDbEntity
8
2
62
256
6
ByLayer
370
13
48
1
60
0
100
AcDbLine
10
36
20
-26.6875
30
0
11
39.000001
21
-27.082457
31
0
39
0
210
0
220
0
230
1
0
LINE
5
179
100
AcDbEntity
8
2
62
256
6
ByLayer
370
13
48
1
60
0
100
AcDbLine
10
38.999999
20
-26.292543
30
0
11
39.000001
21
-27.082457
31
0
39
0
210
0
220
0
230
1
0
LINE
5
17A
100
AcDbEntity
8
2
62
256
6
ByLayer
370
13
48
1
60
0
100
AcDbLine
10
44.7
20
-26.6875
30
0
11
41.700001
21
-27.082457
31
0
39
0
210
0
220
0
230
1
0
LINE
5
17B
100
AcDbEntity
8
2
62
256
6
ByLayer
370
13
48
1
60
0
100
AcDbLine
10
44.7
20
-26.6875
30
0
11
41.699999
21
-26.292543
31
0
39
0
210
0
220
0
230
1
0
LINE
5
17C
100
AcDbEntity
8
2
62
256
6
ByLayer
370
13
48
1
60
0
100
AcDbLine
10
41.700001
20
-27.082457
30
0
11
41.699999
21
-26.292543
31
0
39
0
210
0
220
0
230
1
0
ENDBLK
5
17E
100
AcDbEntity
8
0
100
AcDbBlockEnd
0
BLOCK
5
18B
100
AcDbEntity
8
0
100
AcDbBlockBegin
2
DimnDraft3D7
70
0
10
0
20
0
30
0
3
DimnDraft3D7
0
MTEXT
5
181
100
AcDbEntity
8
2
62
256
6
ByLayer
370
18
48
1
60
0
100
AcDbMText
10
30.543421
20
-35.5625
30
0
210
0
220
0
230
1
1
\W0.7346;20.0
40
4.5
41
0
44
1.084337
50
0
71
7
72
5
7
iso_b_vert
0
LINE
5
182
100
AcDbEntity
8
2
62
256
6
ByLayer
370
13
48
1
60
0
100
AcDbLine
10
24.7
20
-13.9375
30
0
11
24.7
21
-39.6875
31
0
39
0
210
0
220
0
230
1
0
LINE
5
183
100
AcDbEntity
8
2
62
256
6
ByLayer
370
13
48
1
60
0
100
AcDbLine
10
44.7
20
8.0625
30
0
11
44.7
21
-39.6875
31
0
39
0
210
0
220
0
230
1
0
LINE
5
184
100
AcDbEntity
8
2
62
256
6
ByLayer
370
13
48
1
60
0
100
AcDbLine
10
24.7
20
-36.6875
30
0
11
44.7
21
-36.6875
31
0
39
0
210
0
220
0
230
1
0
LINE
5
185
100
AcDbEntity
8
2
62
256
6
ByLayer
370
13
48
1
60
0
100
AcDbLine
10
24.7
20
-36.6875
30
0
11
27.699999
21
-36.292543
31
0
39
0
210
0
220
0
230
1
0
LINE
5
186
100
AcDbEntity
8
2
62
256
6
ByLayer
370
13
48
1
60
0
100
AcDbLine
10
24.7
20
-36.6875
30
0
11
27.700001
21
-37.082457
31
0
39
0
210
0
220
0
230
1
0
LINE
5
187
100
AcDbEntity
8
2
62
256
6
ByLayer
370
13
48
1
60
0
100
AcDbLine
10
27.699999
20
-36.292543
30
0
11
27.700001
21
-37.082457
31
0
39
0
210
0
220
0
230
1
0
LINE
5
188
100
AcDbEntity
8
2
62
256
6
ByLayer
370
13
48
1
60
0
100
AcDbLine
10
44.7
20
-36.6875
30
0
11
41.700001
21
-37.082457
31
0
39
0
210
0
220
0
230
1
0
LINE
5
189
100
AcDbEntity
8
2
62
256
6
ByLayer
370
13
48
1
60
0
100
AcDbLine
10
44.7
20
-36.6875
30
0
11
41.699999
21
-36.292543
31
0
39
0
210
0
220
0
230
1
0
LINE
5
18A
100
AcDbEntity
8
2
62
256
6
ByLayer
370
13
48
1
60
0
100
AcDbLine
10
41.700001
20
-37.082457
30
0
11
41.699999
21
-36.292543
31
0
39
0
210
0
220
0
230
1
0
ENDBLK
5
18C
100
AcDbEntity
8
0
100
AcDbBlockEnd
0
ENDSEC
0
SECTION
2
ENTITIES
0
ARC
5
BC
100
AcDbEntity
8
1
62
256
6
ByLayer
370
18
48
1
60
0
100
AcDbCircle
39
0
10
-24.8
20
6.1625
30
0
40
1.6
210
0
220
0
230
-1
100
AcDbArc
50
0
51
90
0
ARC
5
BD
100
AcDbEntity
8
1
62
256
6
ByLayer
370
18
48
1
60
0
100
AcDbCircle
39
0
10
-36
20
3.7625
30
0
40
6
210
0
220
0
230
-1
100
AcDbArc
50
41.810315
51
71.330907
0
ARC
5
BF
100
AcDbEntity
8
1
62
256
6
ByLayer
370
18
48
1
60
0
100
AcDbCircle
39
0
10
-19.429045
20
7.738115
30
0
40
1.13980641809794
210
0
220
0
230
-1
100
AcDbArc
50
288.752695
51
17.772659
0
ARC
5
C0
100
AcDbEntity
8
1
62
256
6
ByLayer
370
18
48
1
60
0
100
AcDbCircle
39
0
10
-14.407616
20
6.1625
30
0
40
0.501259405157916
210
0
220
0
230
-1
100
AcDbArc
50
278.054217
51
81.945783
0
ARC
5
C1
100
AcDbEntity
8
1
62
256
6
ByLayer
370
18
48
1
60
0
100
AcDbCircle
39
0
10
-15.553808
20
8.147763
30
0
40
0.501259405157916
210
0
220
0
230
-1
100
AcDbArc
50
352.925818
51
127.074182
0
ARC
5
C3
100
AcDbEntity
8
1
62
256
6
ByLayer
370
18
48
1
60
0
100
AcDbCircle
39
0
10
-16.7
20
3.01127
30
0
40
1.13980641809794
210
0
220
0
230
-1
100
AcDbArc
50
48.752695
51
131.247305
0
ARC
5
C4
100
AcDbEntity
8
1
62
256
6
ByLayer
370
18
48
1
60
0
100
AcDbCircle
39
0
10
-18.992384
20
6.1625
30
0
40
0.501259405157916
210
0
220
0
230
-1
100
AcDbArc
50
98.054217
51
247.074182
0
ARC
5
C5
100
AcDbEntity
8
1
62
256
6
ByLayer
370
18
48
1
60
0
100
AcDbCircle
39
0
10
-13.970955
20
7.738115
30
0
40
1.13980641809794
210
0
220
0
230
-1
100
AcDbArc
50
162.227341
51
251.247305
0
ARC
5
C6
100
AcDbEntity
8
1
62
256
6
ByLayer
370
18
48
1
60
0
100
AcDbCircle
39
0
10
-17.846192
20
4.177237
30
0
40
0.501259405157916
210
0
220
0
230
-1
100
AcDbArc
50
172.925818
51
321.945783
0
ARC
5
C7
100
AcDbEntity
8
1
62
256
6
ByLayer
370
18
48
1
60
0
100
AcDbCircle
39
0
10
-16.7
20
9.31373
30
0
40
1.13980641809794
210
0
220
0
230
-1
100
AcDbArc
50
222.227341
51
317.772659
0
ARC
5
C8
100
AcDbEntity
8
1
62
256
6
ByLayer
370
18
48
1
60
0
100
AcDbCircle
39
0
10
-13.970955
20
4.586885
30
0
40
1.13980641809794
210
0
220
0
230
-1
100
AcDbArc
50
108.752695
51
191.247305
0
ARC
5
C9
100
AcDbEntity
8
1
62
256
6
ByLayer
370
18
48
1
60
0
100
AcDbCircle
39
0
10
-15.553808
20
4.177237
30
0
40
0.501259405157916
210
0
220
0
230
-1
100
AcDbArc
50
218.054217
51
21.945783
0
ARC
5
CA
100
AcDbEntity
8
1
62
256
6
ByLayer
370
18
48
1
60
0
100
AcDbCircle
39
0
10
-17.846192
20
8.147763
30
0
40
0.501259405157916
210
0
220
0
230
-1
100
AcDbArc
50
52.925818
51
187.074182
0
ARC
5
CC
100
AcDbEntity
8
1
62
256
6
ByLayer
370
18
48
1
60
0
100
AcDbCircle
39
0
10
-19.429045
20
4.586885
30
0
40
1.13980641809794
210
0
220
0
230
-1
100
AcDbArc
50
342.227341
51
77.772659
0
CIRCLE
5
BE
100
AcDbEntity
8
1
62
256
6
ByLayer
370
18
48
1
60
0
100
AcDbCircle
10
-16.7
20
6.1625
30
0
40
5.5
39
0
210
0
220
0
230
-1
0
CIRCLE
5
C2
100
AcDbEntity
8
1
62
256
6
ByLayer
370
18
48
1
60
0
100
AcDbCircle
10
16.7
20
6.1625
30
0
40
4.4958
39
0
210
0
220
0
230
1
0
CIRCLE
5
CB
100
AcDbEntity
8
1
62
256
6
ByLayer
370
18
48
1
60
0
100
AcDbCircle
10
-16.7
20
6.1625
30
0
40
3.0330983114651
39
0
210
0
220
0
230
-1
0
CIRCLE
5
CD
100
AcDbEntity
8
1
62
256
6
ByLayer
370
18
48
1
60
0
100
AcDbCircle
10
-16.7
20
6.1625
30
0
40
5.0038
39
0
210
0
220
0
230
-1
0
ELLIPSE
5
CE
100
AcDbEntity
8
1
62
256
6
ByLayer
370
18
48
1
60
0
100
AcDbEllipse
10
35.65
20
12.002919
30
0
11
2.51218979965535E-15
21
2.14450692051301
31
0
210
0
220
0
230
1
40
0.466308
41
-0.861974336411754
42
-0.764901898216128
0
ELLIPSE
5
CF
100
AcDbEntity
8
1
62
256
6
ByLayer
370
18
48
1
60
0
100
AcDbEllipse
10
40.960304
20
29.5625
30
0
11
-31.1336265504821
21
7.2943181761978E-14
31
0
210
0
220
0
230
1
40
0.700208
41
1.0942471198272
42
1.26299262129667
0
ELLIPSE
5
D0
100
AcDbEntity
8
1
62
256
6
ByLayer
370
18
48
1
60
0
100
AcDbEllipse
10
48.593162
20
34.7625
30
0
11
2.53033921940271E-14
21
21.5999999999962
31
0
210
0
220
0
230
1
40
0.57735
41
2.17780395958876
42
2.74708701074248
0
ELLIPSE
5
D1
100
AcDbEntity
8
1
62
256
6
ByLayer
370
18
48
1
60
0
100
AcDbEllipse
10
40.960304
20
29.5625
30
0
11
-28.2773305304577
21
6.62511467233735E-14
31
0
210
0
220
0
230
1
40
0.700208
41
1.39446775706239
42
1.51946929572665
0
ELLIPSE
5
D2
100
AcDbEntity
8
1
62
256
6
ByLayer
370
18
48
1
60
0
100
AcDbEllipse
10
40.960304
20
34.7625
30
0
11
-30.8479969455502
21
7.22739782512541E-14
31
0
210
0
220
0
230
1
40
0.700208
41
1.08946125791959
42
1.52570000833574
0
ELLIPSE
5
D3
100
AcDbEntity
8
1
62
256
6
ByLayer
370
18
48
1
60
0
100
AcDbEllipse
10
39.632474
20
12.120976
30
0
11
-8.41821227874414E-08
21
-0.50000020890764
31
0
210
0
220
0
230
1
40
0.493963
41
1.91986240483627
42
2.00712883560158
0
ELLIPSE
5
D4
100
AcDbEntity
8
1
62
256
6
ByLayer
370
18
48
1
60
0
100
AcDbEllipse
10
39.632474
20
11.004024
30
0
11
-8.27568528010216E-08
21
0.500000205357447
31
0
210
0
220
0
230
1
40
0.493963
41
-2.00712883230492
42
-1.9198624009977
0
ELLIPSE
5
D5
100
AcDbEntity
8
1
62
256
6
ByLayer
370
18
48
1
60
0
100
AcDbEllipse
10
48.952323
20
29.562514
30
0
11
-10.830347287406
21
-19.5570700029407
31
0
210
0
220
0
230
1
40
0.28551
41
0.181782946652065
42
0.208139289575512
0
POINT
5
6C
100
AcDbEntity
8
2
62
256
6
ByLayer
370
18
48
1
60
0
100
AcDbPoint
10
44.7
20
13.5625
30
0
39
0
210
0
220
0
230
1
50
360
0
POINT
5
6E
100
AcDbEntity
8
80
62
256
6
ByLayer
370
18
48
1
60
0
100
AcDbPoint
10
0
20
0
30
0
39
0
210
0
220
0
230
1
50
360
0
POINT
5
70
100
AcDbEntity
8
81
62
256
6
ByLayer
370
18
48
1
60
0
100
AcDbPoint
10
44.7
20
13.5625
30
0
39
0
210
0
220
0
230
1
50
360
0
SPLINE
5
D6
100
AcDbEntity
8
1
62
256
6
ByLayer
370
18
48
1
60
0
100
AcDbSpline
70
4
71
2
72
6
73
3
40
0
40
0
40
0
40
1
40
1
40
1
41
0.500000043666251
10
39.3098766458181
20
9.76867267390165
30
0
41
0.499999956333749
10
39.2738721747784
20
9.76838402685004
30
0
41
0.500000043666251
10
39.2378870558489
20
9.76810887562194
30
0
0
SPLINE
5
D7
100
AcDbEntity
8
1
62
256
6
ByLayer
370
18
48
1
60
0
100
AcDbSpline
70
4
71
3
72
12
73
8
40
0
40
0
40
0
40
0
40
0.350284573630892
40
0.350284573630892
40
0.700056316330694
40
0.700056316330694
40
1
40
1
40
1
40
1
41
1
10
35.1
20
9.70217494141278
30
0
41
1
10
34.9580721884048
20
9.68063395205886
30
0
41
1
10
34.8151637981343
20
9.65272582892712
30
0
41
1
10
34.5509281856074
20
9.5910253412691
30
0
41
1
10
34.4258770513882
20
9.55648371815278
30
0
41
1
10
34.223833444362
20
9.49522965011431
30
0
41
1
10
34.140293546395
20
9.467511070744
30
0
41
1
10
34.0714019929053
20
9.44409301960698
30
0
0
SPLINE
5
D8
100
AcDbEntity
8
1
62
256
6
ByLayer
370
18
48
1
60
0
100
AcDbSpline
70
4
71
3
72
10
73
6
40
0
40
0
40
0
40
0
40
0.729905394017374
40
0.729905394017374
40
1
40
1
40
1
40
1
41
1
10
37.8271487422835
20
9.7687035026897
30
0
41
1
10
37.6398927412097
20
9.77086349206292
30
0
41
1
10
37.4364769787293
20
9.77279719642485
30
0
41
1
10
37.1548679713622
20
9.77390662934695
30
0
41
1
10
37.0773678554784
20
9.77406335627057
30
0
41
1
10
37
20
9.77406335627057
30
0
0
SPLINE
5
D9
100
AcDbEntity
8
1
62
256
6
ByLayer
370
18
48
1
60
0
100
AcDbSpline
70
4
71
3
72
12
73
8
40
0
40
0
40
0
40
0
40
0.289580386742346
40
0.289580386742346
40
0.733731790157175
40
0.733731790157175
40
1
40
1
40
1
40
1
41
1
10
36.3424662263339
20
13.5500743322505
30
0
41
1
10
36.2897228528884
20
13.5597958074712
30
0
41
1
10
36.2309517881951
20
13.5686574857525
30
0
41
1
10
36.0721469396182
20
13.5877654964705
30
0
41
1
10
35.9643175042555
20
13.5964491480358
30
0
41
1
10
35.7870346833385
20
13.6040051500476
30
0
41
1
10
35.7183328147186
20
13.6054658033078
30
0
41
1
10
35.65
20
13.6054658033078
30
0
0
SPLINE
5
DA
100
AcDbEntity
8
1
62
256
6
ByLayer
370
18
48
1
60
0
100
AcDbSpline
70
4
71
3
72
10
73
6
40
0
40
0
40
0
40
0
40
0.210519708182317
40
0.210519708182317
40
1
40
1
40
1
40
1
41
1
10
35.3938127228845
20
9.73937267916497
30
0
41
1
10
35.4347639578465
20
9.74392927168049
30
0
41
1
10
35.4761847480245
20
9.74809074133518
30
0
41
1
10
35.6743424251133
20
9.76575669796671
30
0
41
1
10
35.8370853562954
20
9.77352949905782
30
0
41
1
10
36.0000000000156
20
9.77390671878456
30
0
0
SPLINE
5
DB
100
AcDbEntity
8
1
62
256
6
ByLayer
370
18
48
1
60
0
100
AcDbSpline
70
4
71
3
72
10
73
6
40
0
40
0
40
0
40
0
40
0.813220015842215
40
0.813220015842215
40
1
40
1
40
1
40
1
41
1
10
35.4
20
13.6054658033078
30
0
41
1
10
35.289672927857
20
13.6054658033078
30
0
41
1
10
35.177826521524
20
13.601576077698
30
0
41
1
10
35.0498556050142
20
13.5926102644238
30
0
41
1
10
35.0262080493507
20
13.5907462902827
30
0
41
1
10
35.0029165578494
20
13.5887088779904
30
0
0
SPLINE
5
DC
100
AcDbEntity
8
1
62
256
6
ByLayer
370
18
48
1
60
0
100
AcDbSpline
70
4
71
2
72
6
73
3
40
0
40
0
40
0
40
1
40
1
40
1
41
0.500000087498586
10
39.2378870558485
20
9.76810887562191
30
0
41
0.499999912501414
10
38.5327074649932
20
9.76839870224441
30
0
41
0.500000087498586
10
37.8271487422827
20
9.76870350268983
30
0
0
SPLINE
5
DD
100
AcDbEntity
8
1
62
256
6
ByLayer
370
18
48
1
60
0
100
AcDbSpline
70
4
71
3
72
10
73
6
40
0
40
0
40
0
40
0
40
0.5
40
0.5
40
1
40
1
40
1
40
1
41
1
10
35.3938127228845
20
9.739372679165
30
0
41
1
10
35.3445847229049
20
9.7343716254328
30
0
41
1
10
35.2953910077388
20
9.72875711385237
30
0
41
1
10
35.1974443952338
20
9.71635238768931
30
0
41
1
10
35.1486390664192
20
9.70955709999149
30
0
41
1
10
35.1
20
9.70217494141281
30
0
0
SPLINE
5
DE
100
AcDbEntity
8
1
62
256
6
ByLayer
370
18
48
1
60
0
100
AcDbSpline
70
4
71
3
72
8
73
4
40
0
40
0
40
0
40
0
40
1
40
1
40
1
40
1
41
1
10
36.135
20
9.77406335627057
30
0
41
1
10
36.089973889564
20
9.77406335627057
30
0
41
1
10
36.0449216889986
20
9.7740107324372
30
0
41
1
10
36.0000000000158
20
9.77390671878396
30
0
0
SPLINE
5
DF
100
AcDbEntity
8
1
62
256
6
ByLayer
370
18
48
1
60
0
100
AcDbSpline
70
4
71
3
72
16
73
12
40
0
40
0
40
0
40
0
40
0.184021961837301
40
0.184021961837301
40
0.432547866292038
40
0.432547866292038
40
0.671865254019967
40
0.671865254019967
40
0.886779285691999
40
0.886779285691999
40
1
40
1
40
1
40
1
41
1
10
23.2
20
8.4068860878489
30
0
41
1
10
23.2
20
8.56946463428824
30
0
41
1
10
23.2204983979869
20
8.73330257767284
30
0
41
1
10
23.3149056844823
20
9.10305159643795
30
0
41
1
10
23.4068080607259
20
9.309308619169
30
0
41
1
10
23.6501606295805
20
9.66346625071699
30
0
41
1
10
23.8034479116007
20
9.81869581322491
30
0
41
1
10
24.1355454879648
20
10.0417652798582
30
0
41
1
10
24.3155243285599
20
10.119940180211
30
0
41
1
10
24.5988081119369
20
10.1806251483933
30
0
41
1
10
24.6996757585832
20
10.1913874867755
30
0
41
1
10
24.8
20
10.1913874867755
30
0
0
SPLINE
5
E0
100
AcDbEntity
8
1
62
256
6
ByLayer
370
18
48
1
60
0
100
AcDbSpline
70
4
71
3
72
10
73
6
40
0
40
0
40
0
40
0
40
0.5
40
0.5
40
1
40
1
40
1
40
1
41
1
10
36
20
10.0695117689126
30
0
41
1
10
35.2158824765543
20
10.1673400813628
30
0
41
1
10
34.4373876494392
20
10.139772206098
30
0
41
1
10
32.8954835774731
20
9.74820098154029
30
0
41
1
10
32.1534350136508
20
9.38172147386771
30
0
41
1
10
31.5278640450004
20
8.78707229095033
30
0
0
SPLINE
5
E1
100
AcDbEntity
8
1
62
256
6
ByLayer
370
18
48
1
60
0
100
AcDbSpline
70
4
71
5
72
12
73
6
40
0
40
0
40
0
40
0
40
0
40
0
40
1
40
1
40
1
40
1
40
1
40
1
41
1
10
39.954527240934
20
10.4118068208699
30
0
41
1
10
39.936894283342
20
10.4250490550299
30
0
41
1
10
39.919239602171
20
10.4394625856799
30
0
41
1
10
39.902158134363
20
10.4548365808199
30
0
41
1
10
39.885877796262
20
10.4704701973999
30
0
41
1
10
39.871018466978
20
10.4861948665899
30
0
0
SPLINE
5
E2
100
AcDbEntity
8
1
62
256
6
ByLayer
370
18
48
1
60
0
100
AcDbSpline
70
4
71
5
72
12
73
6
40
0
40
0
40
0
40
0
40
0
40
0
40
1
40
1
40
1
40
1
40
1
40
1
41
1
10
39.8710179066313
20
10.4861939755116
30
0
41
1
10
39.8531153713104
20
10.4537773800843
30
0
41
1
10
39.8356658397792
20
10.4200710234345
30
0
41
1
10
39.8195058794957
20
10.3863034388695
30
0
41
1
10
39.803545678802
20
10.3449382503798
30
0
41
1
10
39.8039143744172
20
10.2999905976945
30
0
0
SPLINE
5
E3
100
AcDbEntity
8
1
62
256
6
ByLayer
370
18
48
1
60
0
100
AcDbSpline
70
4
71
9
72
20
73
10
40
0
40
0
40
0
40
0
40
0
40
0
40
0
40
0
40
0
40
0
40
1
40
1
40
1
40
1
40
1
40
1
40
1
40
1
40
1
40
1
41
1
10
40.1696582454547
20
10.2998958765404
30
0
41
1
10
40.1685258993539
20
10.2999189894014
30
0
41
1
10
40.1673934943535
20
10.2999392166947
30
0
41
1
10
40.1662610388575
20
10.2999565582488
30
0
41
1
10
40.16512854127
20
10.2999710139208
30
0
41
1
10
40.1639960099959
20
10.2999825835962
30
0
41
1
10
40.1628634534402
20
10.2999912671894
30
0
41
1
10
40.1617308800084
20
10.299997064643
30
0
41
1
10
40.1605982981059
20
10.2999999759284
30
0
41
1
10
40.1594657161382
20
10.3000000010455
30
0
0
SPLINE
5
E4
100
AcDbEntity
8
1
62
256
6
ByLayer
370
18
48
1
60
0
100
AcDbSpline
70
4
71
11
72
24
73
12
40
0
40
0
40
0
40
0
40
0
40
0
40
0
40
0
40
0
40
0
40
0
40
0
40
1
40
1
40
1
40
1
40
1
40
1
40
1
40
1
40
1
40
1
40
1
40
1
41
1
10
41.448635457765
20
9.65913510195995
30
0
41
1
10
41.439917117345
20
9.65951575291993
30
0
41
1
10
41.431217046855
20
9.66031485417994
30
0
41
1
10
41.422557562045
20
9.66153143140994
30
0
41
1
10
41.413960920215
20
9.66316317143995
30
0
41
1
10
41.405449228385
20
9.66520642624994
30
0
41
1
10
41.397044351875
20
9.66765622434994
30
0
41
1
10
41.388767823785
20
9.67050628938995
30
0
41
1
10
41.380640756315
20
9.67374906609993
30
0
41
1
10
41.372683754435
20
9.67737575307993
30
0
41
1
10
41.364916832615
20
9.68137634238994
30
0
41
1
10
41.357359335265
20
9.68573966553996
30
0
0
SPLINE
5
E5
100
AcDbEntity
8
1
62
256
6
ByLayer
370
18
48
1
60
0
100
AcDbSpline
70
4
71
9
72
20
73
10
40
0
40
0
40
0
40
0
40
0
40
0
40
0
40
0
40
0
40
0
40
1
40
1
40
1
40
1
40
1
40
1
40
1
40
1
40
1
40
1
41
1
10
40.1040950455308
20
12.1764918532079
30
0
41
1
10
40.1133804679319
20
12.1764918532079
30
0
41
1
10
40.1265621466555
20
12.1764918532079
30
0
41
1
10
40.1433925822593
20
12.1764918532079
30
0
41
1
10
40.1634858007243
20
12.1764918532079
30
0
41
1
10
40.1863296796692
20
12.1764918532079
30
0
41
1
10
40.2113085688049
20
12.1764918532079
30
0
41
1
10
40.2377348077263
20
12.1764918532079
30
0
41
1
10
40.264884714655
20
12.1764918532079
30
0
41
1
10
40.29203462323
20
12.1764918532079
30
0
0
SPLINE
5
E6
100
AcDbEntity
8
1
62
256
6
ByLayer
370
18
48
1
60
0
100
AcDbSpline
70
4
71
5
72
12
73
6
40
0
40
0
40
0
40
0
40
0
40
0
40
1
40
1
40
1
40
1
40
1
40
1
41
1
10
40.292035237246
20
12.1764918532079
30
0
41
1
10
40.292035353459
20
12.2113981198549
30
0
41
1
10
40.292034961532
20
12.2463062259519
30
0
41
1
10
40.292034778041
20
12.278993558121
30
0
41
1
10
40.29203470145
20
12.3072634653209
30
0
41
1
10
40.292034624267
20
12.3297007414559
30
0
0
SPLINE
5
E7
100
AcDbEntity
8
1
62
256
6
ByLayer
370
18
48
1
60
0
100
AcDbSpline
70
4
71
5
72
12
73
6
40
0
40
0
40
0
40
0
40
0
40
0
40
1
40
1
40
1
40
1
40
1
40
1
41
1
10
40.1040952322569
20
10.9485077709599
30
0
41
1
10
40.1155218445425
20
10.906136040581
30
0
41
1
10
40.1440255561667
20
10.8637350844849
30
0
41
1
10
40.1880449925155
20
10.827850245118
30
0
41
1
10
40.2400576740716
20
10.804613880644
30
0
41
1
10
40.292034473802
20
10.7952988646589
30
0
0
SPLINE
5
E8
100
AcDbEntity
8
1
62
256
6
ByLayer
370
18
48
1
60
0
100
AcDbSpline
70
4
71
3
72
9
73
5
40
0
40
0
40
0
40
0
40
0.524705012072442
40
1
40
1
40
1
40
1
41
1
10
39.9545105736158
20
12.7132735414956
30
0
41
1
10
39.9951524735682
20
12.6948096876974
30
0
41
1
10
40.0726091378221
20
12.6596206703
30
0
41
1
10
40.1340779006208
20
12.6163416384808
30
0
41
1
10
40.1632936954932
20
12.5957713315747
30
0
0
SPLINE
5
E9
100
AcDbEntity
8
1
62
256
6
ByLayer
370
18
48
1
60
0
100
AcDbSpline
70
4
71
1
72
4
73
2
40
0
40
0
40
1
40
1
41
1
10
40.159465713829
20
12.8251041212099
30
0
41
1
10
39.8486490442
20
12.8251041212099
30
0
0
SPLINE
5
EA
100
AcDbEntity
8
1
62
256
6
ByLayer
370
18
48
1
60
0
100
AcDbSpline
70
4
71
5
72
12
73
6
40
0
40
0
40
0
40
0
40
0
40
0
40
1
40
1
40
1
40
1
40
1
40
1
41
1
10
39.8715504987508
20
12.5875339999107
30
0
41
1
10
39.9009743533866
20
12.5598052550467
30
0
41
1
10
39.9277373338555
20
12.5272310239363
30
0
41
1
10
39.9522182041632
20
12.4929173638279
30
0
41
1
10
39.9752831761999
20
12.459195656012
30
0
41
1
10
39.994447736896
20
12.4273608405639
30
0
0
SPLINE
5
EB
100
AcDbEntity
8
1
62
256
6
ByLayer
370
18
48
1
60
0
100
AcDbSpline
70
4
71
5
72
12
73
6
40
0
40
0
40
0
40
0
40
0
40
0
40
1
40
1
40
1
40
1
40
1
40
1
41
1
10
39.9944581144545
20
12.427395039048
30
0
41
1
10
40.0071669421419
20
12.4692615594708
30
0
41
1
10
40.0337014162722
20
12.5123406599628
30
0
41
1
10
40.0724452415019
20
12.5508630825564
30
0
41
1
10
40.1175155253896
20
12.5789860731672
30
0
41
1
10
40.1626790306576
20
12.5946657972042
30
0
0
SPLINE
5
EC
100
AcDbEntity
8
1
62
256
6
ByLayer
370
18
48
1
60
0
100
AcDbSpline
70
4
71
5
72
15
73
9
40
0
40
0
40
0
40
0
40
0
40
0
40
0.590893213830289
40
0.590893213830289
40
0.590893213830289
40
1
40
1
40
1
40
1
40
1
40
1
41
1
10
41.442998789295
20
12.5951863408099
30
0
41
1
10
41.479305256355
20
12.6094158227699
30
0
41
1
10
41.516189162795
20
12.6265042267299
30
0
41
1
10
41.551048405485
20
12.64655361971
30
0
41
1
10
41.607511788755
20
12.6862584311699
30
0
41
1
10
41.650799268455
20
12.7419472261799
30
0
41
1
10
41.664564626345
20
12.76716865224
30
0
41
1
10
41.672615052965
20
12.7949370046399
30
0
41
1
10
41.672614852875
20
12.8251041212099
30
0
0
SPLINE
5
ED
100
AcDbEntity
8
1
62
256
6
ByLayer
370
18
48
1
60
0
100
AcDbSpline
70
4
71
1
72
4
73
2
40
0
40
0
40
1
40
1
41
1
10
40.169658245501
20
12.8251041212099
30
0
41
1
10
40.159465713829
20
12.8251041212099
30
0
0
SPLINE
5
EE
100
AcDbEntity
8
1
62
256
6
ByLayer
370
18
48
1
60
0
100
AcDbSpline
70
4
71
5
72
12
73
6
40
0
40
0
40
0
40
0
40
0
40
0
40
1
40
1
40
1
40
1
40
1
40
1
41
1
10
39.724713135958
20
12.8249999981699
30
0
41
1
10
39.7406891961583
20
12.8249999981699
30
0
41
1
10
39.756663648961
20
12.8249999981703
30
0
41
1
10
39.7725718341451
20
12.824999998171
30
0
41
1
10
39.7883455656979
20
12.8249999981718
30
0
41
1
10
39.8039160314035
20
12.8249999981729
30
0
0
SPLINE
5
EF
100
AcDbEntity
8
1
62
256
6
ByLayer
370
18
48
1
60
0
100
AcDbSpline
70
4
71
5
72
12
73
6
40
0
40
0
40
0
40
0
40
0
40
0
40
1
40
1
40
1
40
1
40
1
40
1
41
1
10
39.9544768187388
20
12.7132278306607
30
0
41
1
10
39.9261568567981
20
12.7326910120233
30
0
41
1
10
39.898605721366
20
12.7529317674057
30
0
41
1
10
39.8731571279387
20
12.7731956606545
30
0
41
1
10
39.8480602610778
20
12.798030253223
30
0
41
1
10
39.848649071261
20
12.8250167338699
30
0
0
SPLINE
5
F0
100
AcDbEntity
8
1
62
256
6
ByLayer
370
18
48
1
60
0
100
AcDbSpline
70
4
71
5
72
12
73
6
40
0
40
0
40
0
40
0
40
0
40
0
40
1
40
1
40
1
40
1
40
1
40
1
41
1
10
39.848649071261
20
12.8249999981799
30
0
41
1
10
39.839626047543
20
12.8249999981799
30
0
41
1
10
39.830602935457
20
12.8249999981799
30
0
41
1
10
39.821617977602
20
12.8249999981699
30
0
41
1
10
39.812709416284
20
12.8249999981699
30
0
41
1
10
39.803914529465
20
12.8249999981699
30
0
0
SPLINE
5
F1
100
AcDbEntity
8
1
62
256
6
ByLayer
370
18
48
1
60
0
100
AcDbSpline
70
4
71
3
72
8
73
4
40
0
40
0
40
0
40
0
40
1
40
1
40
1
40
1
41
1
10
39.8714989093527
20
12.5874627694497
30
0
41
1
10
39.8455244317543
20
12.5918935083199
30
0
41
1
10
39.8195499541559
20
12.5963242471901
30
0
41
1
10
39.7935754765575
20
12.6007549860603
30
0
0
SPLINE
5
F2
100
AcDbEntity
8
1
62
256
6
ByLayer
370
18
48
1
60
0
100
AcDbSpline
70
4
71
5
72
12
73
6
40
0
40
0
40
0
40
0
40
0
40
0
40
1
40
1
40
1
40
1
40
1
40
1
41
1
10
39.861876744291
20
11.6605685396586
30
0
41
1
10
39.8789372024363
20
11.6516787332233
30
0
41
1
10
39.8941031118682
20
11.6424540654362
30
0
41
1
10
39.9071703525719
20
11.6330006185012
30
0
41
1
10
39.9179801779679
20
11.6234326335011
30
0
41
1
10
39.926436842137
20
11.613865920882
30
0
0
SPLINE
5
F3
100
AcDbEntity
8
1
62
256
6
ByLayer
370
18
48
1
60
0
100
AcDbSpline
70
4
71
3
72
8
73
4
40
0
40
0
40
0
40
0
40
1
40
1
40
1
40
1
41
1
10
39.99451468776
20
12.4274005370249
30
0
41
1
10
40.004972568242
20
12.4104286130051
30
0
41
1
10
40.0130068939949
20
12.3922225228605
30
0
41
1
10
40.0187676747625
20
12.3733549498834
30
0
0
SPLINE
5
F4
100
AcDbEntity
8
1
62
256
6
ByLayer
370
18
48
1
60
0
100
AcDbSpline
70
4
71
5
72
12
73
6
40
0
40
0
40
0
40
0
40
0
40
0
40
1
40
1
40
1
40
1
40
1
40
1
41
1
10
40.018759179749
20
12.3732833404059
30
0
41
1
10
40.030188576064
20
12.4156525237827
30
0
41
1
10
40.0586917253314
20
12.4580507626963
30
0
41
1
10
40.1027077601827
20
12.4939343317852
30
0
41
1
10
40.1547165284201
20
12.5171725255408
30
0
41
1
10
40.2066910200621
20
12.5264922778467
30
0
0
SPLINE
5
F5
100
AcDbEntity
8
1
62
256
6
ByLayer
370
18
48
1
60
0
100
AcDbSpline
70
4
71
3
72
8
73
4
40
0
40
0
40
0
40
0
40
1
40
1
40
1
40
1
41
1
10
39.8715361908495
20
12.5875363739982
30
0
41
1
10
39.8935171365626
20
12.6286614358938
30
0
41
1
10
39.9239620782012
20
12.6747492887144
30
0
41
1
10
39.9544334647004
20
12.7132763297986
30
0
0
SPLINE
5
F6
100
AcDbEntity
8
1
62
256
6
ByLayer
370
18
48
1
60
0
100
AcDbSpline
70
4
71
5
72
12
73
6
40
0
40
0
40
0
40
0
40
0
40
0
40
1
40
1
40
1
40
1
40
1
40
1
41
1
10
39.954527240934
20
12.71319317915
30
0
41
1
10
39.936894283342
20
12.69995094499
30
0
41
1
10
39.919239602171
20
12.6855374143399
30
0
41
1
10
39.902158134363
20
12.6701634191999
30
0
41
1
10
39.885877796262
20
12.6545298026199
30
0
41
1
10
39.871018466978
20
12.6388051334299
30
0
0
SPLINE
5
F7
100
AcDbEntity
8
1
62
256
6
ByLayer
370
18
48
1
60
0
100
AcDbSpline
70
4
71
5
72
12
73
6
40
0
40
0
40
0
40
0
40
0
40
0
40
1
40
1
40
1
40
1
40
1
40
1
41
1
10
39.871019565953
20
12.6388033522899
30
0
41
1
10
39.8705500036852
20
12.6284248094138
30
0
41
1
10
39.8703617673526
20
12.6180462226167
30
0
41
1
10
39.8704575052283
20
12.6077259562109
30
0
41
1
10
39.8708366775776
20
12.5975223699386
30
0
41
1
10
39.8714955743364
20
12.5874918688416
30
0
0
SPLINE
5
F8
100
AcDbEntity
8
1
62
256
6
ByLayer
370
18
48
1
60
0
100
AcDbSpline
70
4
71
1
72
4
73
2
40
0
40
0
40
1
40
1
41
1
10
41.4429987884909
20
12.5951706217553
30
0
41
1
10
40.1622677176976
20
12.5952090727587
30
0
0
SPLINE
5
F9
100
AcDbEntity
8
1
62
256
6
ByLayer
370
18
48
1
60
0
100
AcDbSpline
70
4
71
2
72
6
73
3
40
0
40
0
40
0
40
1
40
1
40
1
41
1
10
40.1641951347802
20
12.5952273024146
30
0
41
1
10
40.1905810726917
20
12.5630178386859
30
0
41
1
10
40.2067078563494
20
12.5264776609112
30
0
0
SPLINE
5
FA
100
AcDbEntity
8
1
62
256
6
ByLayer
370
18
48
1
60
0
100
AcDbSpline
70
4
71
1
72
4
73
2
40
0
40
0
40
1
40
1
41
1
10
40.2066759994222
20
12.5264633016172
30
0
41
1
10
40.2920342082524
20
12.3296988016575
30
0
0
SPLINE
5
FB
100
AcDbEntity
8
1
62
256
6
ByLayer
370
18
48
1
60
0
100
AcDbSpline
70
4
71
1
72
4
73
2
40
0
40
0
40
1
40
1
41
1
10
40.2920345677255
20
12.3296978196447
30
0
41
1
10
40.7642928178305
20
12.3296736614808
30
0
0
SPLINE
5
FC
100
AcDbEntity
8
1
62
256
6
ByLayer
370
18
48
1
60
0
100
AcDbSpline
70
4
71
5
72
12
73
6
40
0
40
0
40
0
40
0
40
0
40
0
40
1
40
1
40
1
40
1
40
1
40
1
41
1
10
40.1696583634624
20
12.8251041255799
30
0
41
1
10
40.219966832063
20
12.8261310822799
30
0
41
1
10
40.270146230243
20
12.8334862593599
30
0
41
1
10
40.31913461406
20
12.8471499280799
30
0
41
1
10
40.365876999488
20
12.8668278353099
30
0
41
1
10
40.409454532001
20
12.89198723344
30
0
0
SPLINE
5
FD
100
AcDbEntity
8
1
62
256
6
ByLayer
370
18
48
1
60
0
100
AcDbSpline
70
4
71
5
72
12
73
6
40
0
40
0
40
0
40
0
40
0
40
0
40
1
40
1
40
1
40
1
40
1
40
1
41
1
10
39.861876744291
20
11.4644314603613
30
0
41
1
10
39.8789372024363
20
11.4733212667966
30
0
41
1
10
39.8941031118682
20
11.4825459345837
30
0
41
1
10
39.9071703525719
20
11.4919993815186
30
0
41
1
10
39.9179801779678
20
11.5015673665188
30
0
41
1
10
39.926436842137
20
11.5111340791379
30
0
0
SPLINE
5
FE
100
AcDbEntity
8
1
62
256
6
ByLayer
370
18
48
1
60
0
100
AcDbSpline
70
4
71
5
72
12
73
6
40
0
40
0
40
0
40
0
40
0
40
0
40
1
40
1
40
1
40
1
40
1
40
1
41
1
10
39.8710179066313
20
12.6388060245083
30
0
41
1
10
39.8531153713104
20
12.6712226199356
30
0
41
1
10
39.8356658397792
20
12.7049289765854
30
0
41
1
10
39.8195058794957
20
12.7386965611504
30
0
41
1
10
39.803545678802
20
12.7800617496401
30
0
41
1
10
39.8039143744172
20
12.8250094023253
30
0
0
SPLINE
5
FF
100
AcDbEntity
8
1
62
256
6
ByLayer
370
18
48
1
60
0
100
AcDbSpline
70
4
71
5
72
12
73
6
40
0
40
0
40
0
40
0
40
0
40
0
40
1
40
1
40
1
40
1
40
1
40
1
41
1
10
39.92313859731
20
11.5625010413345
30
0
41
1
10
39.923137113425
20
11.5729884106885
30
0
41
1
10
39.923472402754
20
11.5834937253353
30
0
41
1
10
39.924138490398
20
11.5938196658464
30
0
41
1
10
39.925119059739
20
11.6038964730172
30
0
41
1
10
39.926438371891
20
11.6138654625834
30
0
0
SPLINE
5
100
100
AcDbEntity
8
1
62
256
6
ByLayer
370
18
48
1
60
0
100
AcDbSpline
70
4
71
5
72
12
73
6
40
0
40
0
40
0
40
0
40
0
40
0
40
1
40
1
40
1
40
1
40
1
40
1
41
1
10
39.8968312788889
20
11.5625008280972
30
0
41
1
10
39.9030765219452
20
11.5625008703026
30
0
41
1
10
39.9088447386853
20
11.5625009128327
30
0
41
1
10
39.9141195775142
20
11.5625009555847
30
0
41
1
10
39.9188873172233
20
11.5625009984538
30
0
41
1
10
39.923137278888
20
11.5625010413345
30
0
0
SPLINE
5
101
100
AcDbEntity
8
1
62
256
6
ByLayer
370
18
48
1
60
0
100
AcDbSpline
70
4
71
9
72
20
73
10
40
0
40
0
40
0
40
0
40
0
40
0
40
0
40
0
40
0
40
0
40
1
40
1
40
1
40
1
40
1
40
1
40
1
40
1
40
1
40
1
41
1
10
40.1040950455308
20
10.9485081468119
30
0
41
1
10
40.1133804679319
20
10.9485081468119
30
0
41
1
10
40.1265621466555
20
10.9485081468119
30
0
41
1
10
40.1433925822593
20
10.9485081468119
30
0
41
1
10
40.1634858007243
20
10.9485081468119
30
0
41
1
10
40.1863296796692
20
10.9485081468119
30
0
41
1
10
40.2113085688049
20
10.9485081468119
30
0
41
1
10
40.2377348077263
20
10.9485081468119
30
0
41
1
10
40.264884714655
20
10.9485081468119
30
0
41
1
10
40.29203462323
20
10.9485081468119
30
0
0
SPLINE
5
102
100
AcDbEntity
8
1
62
256
6
ByLayer
370
18
48
1
60
0
100
AcDbSpline
70
4
71
3
72
8
73
4
40
0
40
0
40
0
40
0
40
1
40
1
40
1
40
1
41
1
10
39.8710193020158
20
12.6388032604645
30
0
41
1
10
39.8449167623419
20
12.63366096549
30
0
41
1
10
39.8173505579353
20
12.6286286500305
30
0
41
1
10
39.7891393494824
20
12.623653876169
30
0
0
SPLINE
5
103
100
AcDbEntity
8
1
62
256
6
ByLayer
370
18
48
1
60
0
100
AcDbSpline
70
4
71
5
72
12
73
6
40
0
40
0
40
0
40
0
40
0
40
0
40
1
40
1
40
1
40
1
40
1
40
1
41
1
10
40.1040952322569
20
12.17649222906
30
0
41
1
10
40.1155218445425
20
12.218863959439
30
0
41
1
10
40.1440255561667
20
12.2612649155349
30
0
41
1
10
40.1880449925155
20
12.2971497549019
30
0
41
1
10
40.2400576740716
20
12.3203861193759
30
0
41
1
10
40.292034473802
20
12.3297011353609
30
0
0
SPLINE
5
104
100
AcDbEntity
8
1
62
256
6
ByLayer
370
18
48
1
60
0
100
AcDbSpline
70
4
71
3
72
9
73
5
40
0
40
0
40
0
40
0
40
0.483279051500082
40
1
40
1
40
1
40
1
41
1
10
40.6110831217959
20
12.1766281014174
30
0
41
1
10
40.6261806153013
20
12.2127464704358
30
0
41
1
10
40.6574203172056
20
12.2874825238737
30
0
41
1
10
40.7278831809605
20
12.3153177150629
30
0
41
1
10
40.764292818754
20
12.3297007414559
30
0
0
SPLINE
5
105
100
AcDbEntity
8
1
62
256
6
ByLayer
370
18
48
1
60
0
100
AcDbSpline
70
4
71
5
72
12
73
6
40
0
40
0
40
0
40
0
40
0
40
0
40
1
40
1
40
1
40
1
40
1
40
1
41
1
10
39.871497638529
20
10.5375360283699
30
0
41
1
10
39.8566688075427
20
10.533778301402
30
0
41
1
10
39.8414179624262
20
10.53028834666
30
0
41
1
10
39.8258313089744
20
10.5270799683012
30
0
41
1
10
39.8099929588014
20
10.5241621906135
30
0
41
1
10
39.7939771006566
20
10.5215391639432
30
0
0
SPLINE
5
106
100
AcDbEntity
8
1
62
256
6
ByLayer
370
18
48
1
60
0
100
AcDbSpline
70
4
71
5
72
12
73
6
40
0
40
0
40
0
40
0
40
0
40
0
40
1
40
1
40
1
40
1
40
1
40
1
41
1
10
39.871019565953
20
10.4861966477299
30
0
41
1
10
39.8705500036852
20
10.4965751906061
30
0
41
1
10
39.8703617673526
20
10.5069537774032
30
0
41
1
10
39.8704575052283
20
10.517274043809
30
0
41
1
10
39.8708366775776
20
10.5274776300813
30
0
41
1
10
39.8714955743364
20
10.5375081311782
30
0
0
SPLINE
5
107
100
AcDbEntity
8
1
62
256
6
ByLayer
370
18
48
1
60
0
100
AcDbSpline
70
4
71
5
72
12
73
6
40
0
40
0
40
0
40
0
40
0
40
0
40
1
40
1
40
1
40
1
40
1
40
1
41
1
10
40.0187448892352
20
10.7517163543075
30
0
41
1
10
40.0301744690082
20
10.7093468286049
30
0
41
1
10
40.0586791218313
20
10.6669491045957
30
0
41
1
10
40.1026970955462
20
10.6310674572095
30
0
41
1
10
40.1547070615626
20
10.6078330313303
30
0
41
1
10
40.206681149502
20
10.5985185013409
30
0
0
SPLINE
5
108
100
AcDbEntity
8
1
62
256
6
ByLayer
370
18
48
1
60
0
100
AcDbSpline
70
4
71
5
72
12
73
6
40
0
40
0
40
0
40
0
40
0
40
0
40
1
40
1
40
1
40
1
40
1
40
1
41
1
10
40.2066761485454
20
10.5985193976383
30
0
41
1
10
40.2237468134055
20
10.6378754703023
30
0
41
1
10
40.2408174782654
20
10.6772315429653
30
0
41
1
10
40.2578881431254
20
10.7165876156293
30
0
41
1
10
40.2749588079854
20
10.7559436882933
30
0
41
1
10
40.2920294728454
20
10.7952997609563
30
0
0
SPLINE
5
109
100
AcDbEntity
8
1
62
256
6
ByLayer
370
18
48
1
60
0
100
AcDbSpline
70
4
71
5
72
12
73
6
40
0
40
0
40
0
40
0
40
0
40
0
40
1
40
1
40
1
40
1
40
1
40
1
41
1
10
40.292035237246
20
10.9485081468119
30
0
41
1
10
40.292035353459
20
10.913601880165
30
0
41
1
10
40.292034961532
20
10.8786937740679
30
0
41
1
10
40.292034778041
20
10.8460064418989
30
0
41
1
10
40.29203470145
20
10.817736534699
30
0
41
1
10
40.292034624267
20
10.7952992585639
30
0
0
SPLINE
5
10A
100
AcDbEntity
8
1
62
256
6
ByLayer
370
18
48
1
60
0
100
AcDbSpline
70
4
71
3
72
8
73
4
40
0
40
0
40
0
40
0
40
1
40
1
40
1
40
1
41
1
10
40.2920345677255
20
10.7953004658063
30
0
41
1
10
40.4494539844272
20
10.7953037934162
30
0
41
1
10
40.6068734011288
20
10.7953071211801
30
0
41
1
10
40.7642928178305
20
10.7953104490978
30
0
0
SPLINE
5
10B
100
AcDbEntity
8
1
62
256
6
ByLayer
370
18
48
1
60
0
100
AcDbSpline
70
4
71
5
72
12
73
6
40
0
40
0
40
0
40
0
40
0
40
0
40
1
40
1
40
1
40
1
40
1
40
1
41
1
10
39.724713135958
20
10.30000000185
30
0
41
1
10
39.7406891961583
20
10.30000000185
30
0
41
1
10
39.756663648961
20
10.3000000018496
30
0
41
1
10
39.7725718341451
20
10.3000000018489
30
0
41
1
10
39.7883455656979
20
10.300000001848
30
0
41
1
10
39.8039160314035
20
10.300000001847
30
0
0
SPLINE
5
10C
100
AcDbEntity
8
1
62
256
6
ByLayer
370
18
48
1
60
0
100
AcDbSpline
70
4
71
3
72
8
73
4
40
0
40
0
40
0
40
0
40
1
40
1
40
1
40
1
41
1
10
39.8710209473241
20
10.4861635972525
30
0
41
1
10
39.8449843196708
20
10.4911712679464
30
0
41
1
10
39.8174595505277
20
10.4961789386404
30
0
41
1
10
39.7892959494608
20
10.5011866093342
30
0
0
SPLINE
5
10D
100
AcDbEntity
8
1
62
256
6
ByLayer
370
18
48
1
60
0
100
AcDbSpline
70
4
71
5
72
12
73
6
40
0
40
0
40
0
40
0
40
0
40
0
40
1
40
1
40
1
40
1
40
1
40
1
41
1
10
39.92313859731
20
11.5624989586854
30
0
41
1
10
39.923137113425
20
11.5520115893313
30
0
41
1
10
39.923472402754
20
11.5415062746845
30
0
41
1
10
39.924138490398
20
11.5311803341735
30
0
41
1
10
39.925119059739
20
11.5211035270027
30
0
41
1
10
39.926438371891
20
11.5111345374364
30
0
0
SPLINE
5
10E
100
AcDbEntity
8
1
62
256
6
ByLayer
370
18
48
1
60
0
100
AcDbSpline
70
4
71
11
72
24
73
12
40
0
40
0
40
0
40
0
40
0
40
0
40
0
40
0
40
0
40
0
40
0
40
0
40
1
40
1
40
1
40
1
40
1
40
1
40
1
40
1
40
1
40
1
40
1
40
1
41
1
10
44.699997548185
20
13.1875000000099
30
0
41
1
10
44.699997548185
20
13.2446198668299
30
0
41
1
10
44.691025179955
20
13.3017397295899
30
0
41
1
10
44.673080445735
20
13.3572936298799
30
0
41
1
10
44.646470819965
20
13.4097155703799
30
0
41
1
10
44.611811262895
20
13.4575085935599
30
0
41
1
10
44.570006142525
20
13.4993137143299
30
0
41
1
10
44.522213119595
20
13.53397327259
30
0
41
1
10
44.469791173885
20
13.5605828972899
30
0
41
1
10
44.414237281035
20
13.5785276324399
30
0
41
1
10
44.357117414615
20
13.5875000000099
30
0
41
1
10
44.299997548185
20
13.5875000000099
30
0
0
SPLINE
5
10F
100
AcDbEntity
8
1
62
256
6
ByLayer
370
18
48
1
60
0
100
AcDbSpline
70
4
71
11
72
24
73
12
40
0
40
0
40
0
40
0
40
0
40
0
40
0
40
0
40
0
40
0
40
0
40
0
40
1
40
1
40
1
40
1
40
1
40
1
40
1
40
1
40
1
40
1
40
1
40
1
41
1
10
44.299997548185
20
13.5875
30
0
41
1
10
44.288098566871
20
13.5875
30
0
41
1
10
44.2761995855571
20
13.5874480852264
30
0
41
1
10
44.2643008559103
20
13.5873442556694
30
0
41
1
10
44.2524026296077
20
13.5871885127184
30
0
41
1
10
44.2405051582964
20
13.5869808590926
30
0
41
1
10
44.2286086936238
20
13.5867212989404
30
0
41
1
10
44.2167134872168
20
13.5864098377302
30
0
41
1
10
44.2048197906525
20
13.5860464823197
30
0
41
1
10
44.1929278554683
20
13.585631240966
30
0
41
1
10
44.1810379331612
20
13.585164123256
30
0
41
1
10
44.1691502751486
20
13.584645140176
30
0
0
SPLINE
5
110
100
AcDbEntity
8
1
62
256
6
ByLayer
370
18
48
1
60
0
100
AcDbSpline
70
4
71
11
72
24
73
12
40
0
40
0
40
0
40
0
40
0
40
0
40
0
40
0
40
0
40
0
40
0
40
0
40
1
40
1
40
1
40
1
40
1
40
1
40
1
40
1
40
1
40
1
40
1
40
1
41
1
10
41.448635457765
20
13.4658648980599
30
0
41
1
10
41.439917117345
20
13.4654842470999
30
0
41
1
10
41.431217046855
20
13.4646851458399
30
0
41
1
10
41.422557562045
20
13.4634685686099
30
0
41
1
10
41.413960920215
20
13.4618368285799
30
0
41
1
10
41.405449228385
20
13.4597935737699
30
0
41
1
10
41.397044351875
20
13.4573437756699
30
0
41
1
10
41.388767823785
20
13.45449371063
30
0
41
1
10
41.380640756315
20
13.4512509339199
30
0
41
1
10
41.372683754435
20
13.4476242469399
30
0
41
1
10
41.364916832615
20
13.44362365763
30
0
41
1
10
41.357359335265
20
13.4392603344799
30
0
0
SPLINE
5
111
100
AcDbEntity
8
1
62
256
6
ByLayer
370
18
48
1
60
0
100
AcDbSpline
70
4
71
11
72
24
73
12
40
0
40
0
40
0
40
0
40
0
40
0
40
0
40
0
40
0
40
0
40
0
40
0
40
1
40
1
40
1
40
1
40
1
40
1
40
1
40
1
40
1
40
1
40
1
40
1
41
1
10
44.299997548185
20
9.53750000001995
30
0
41
1
10
44.288098566871
20
9.53750000001995
30
0
41
1
10
44.2761995855571
20
9.53755191479345
30
0
41
1
10
44.2643008559103
20
9.53765574435047
30
0
41
1
10
44.2524026296077
20
9.53781148730147
30
0
41
1
10
44.2405051582964
20
9.53801914092733
30
0
41
1
10
44.2286086936238
20
9.53827870107943
30
0
41
1
10
44.2167134872168
20
9.53859016228964
30
0
41
1
10
44.2048197906525
20
9.53895351770021
30
0
41
1
10
44.1929278554683
20
9.5393687590539
30
0
41
1
10
44.1810379331612
20
9.53983587676387
30
0
41
1
10
44.1691502751486
20
9.54035485984386
30
0
0
SPLINE
5
112
100
AcDbEntity
8
1
62
256
6
ByLayer
370
18
48
1
60
0
100
AcDbSpline
70
4
71
11
72
24
73
12
40
0
40
0
40
0
40
0
40
0
40
0
40
0
40
0
40
0
40
0
40
0
40
0
40
1
40
1
40
1
40
1
40
1
40
1
40
1
40
1
40
1
40
1
40
1
40
1
41
1
10
44.699997548185
20
9.93750000000995
30
0
41
1
10
44.699997548185
20
9.88038013318993
30
0
41
1
10
44.691025179955
20
9.82326027042993
30
0
41
1
10
44.673080445735
20
9.76770637013993
30
0
41
1
10
44.646470819965
20
9.71528442963992
30
0
41
1
10
44.611811262895
20
9.66749140645993
30
0
41
1
10
44.570006142525
20
9.62568628568994
30
0
41
1
10
44.522213119595
20
9.59102672742995
30
0
41
1
10
44.469791173885
20
9.56441710272995
30
0
41
1
10
44.414237281035
20
9.54647236757992
30
0
41
1
10
44.357117414615
20
9.53750000000994
30
0
41
1
10
44.299997548185
20
9.53750000000994
30
0
0
SPLINE
5
113
100
AcDbEntity
8
1
62
256
6
ByLayer
370
18
48
1
60
0
100
AcDbSpline
70
4
71
5
72
12
73
6
40
0
40
0
40
0
40
0
40
0
40
0
40
1
40
1
40
1
40
1
40
1
40
1
41
1
10
40.1696583634624
20
10.2998958744399
30
0
41
1
10
40.219966832063
20
10.29886891774
30
0
41
1
10
40.270146230243
20
10.2915137406599
30
0
41
1
10
40.31913461406
20
10.2778500719399
30
0
41
1
10
40.365876999488
20
10.25817216471
30
0
41
1
10
40.409454532001
20
10.23301276658
30
0
0
SPLINE
5
114
100
AcDbEntity
8
1
62
256
6
ByLayer
370
18
48
1
60
0
100
AcDbSpline
70
4
71
2
72
8
73
5
40
0
40
0
40
0
40
0.5
40
0.5
40
1
40
1
40
1
41
1
10
40.6110831217962
20
10.948371898438
30
0
41
1
10
40.6114450357067
20
10.8961766027806
30
0
41
1
10
40.6655365107734
20
10.8509684052505
30
0
41
1
10
40.7036810107495
20
10.8190882598584
30
0
41
1
10
40.7642928187541
20
10.7952992585639
30
0
0
SPLINE
5
115
100
AcDbEntity
8
1
62
256
6
ByLayer
370
18
48
1
60
0
100
AcDbSpline
70
4
71
5
72
15
73
9
40
0
40
0
40
0
40
0
40
0
40
0
40
0.590893213830289
40
0.590893213830289
40
0.590893213830289
40
1
40
1
40
1
40
1
40
1
40
1
41
1
10
41.442998789295
20
10.5298136592099
30
0
41
1
10
41.479305256355
20
10.5155841772499
30
0
41
1
10
41.516189162795
20
10.4984957732899
30
0
41
1
10
41.551048405485
20
10.47844638031
30
0
41
1
10
41.607511788755
20
10.4387415688499
30
0
41
1
10
41.650799268455
20
10.3830527738399
30
0
41
1
10
41.664564626345
20
10.3578313477799
30
0
41
1
10
41.672615052965
20
10.3300629953799
30
0
41
1
10
41.672614852875
20
10.2998958788099
30
0
0
SPLINE
5
116
100
AcDbEntity
8
1
62
256
6
ByLayer
370
18
48
1
60
0
100
AcDbSpline
70
4
71
3
72
10
73
6
40
0
40
0
40
0
40
0
40
0.240222257204671
40
0.488202588130171
40
1
40
1
40
1
40
1
41
1
10
39.8715434608345
20
10.537470357955
30
0
41
1
10
39.8835369865321
20
10.5496877689843
30
0
41
1
10
39.9079113736287
20
10.5745171572109
30
0
41
1
10
39.9511091572923
20
10.63014995137
30
0
41
1
10
39.9770107713618
20
10.6704748136269
30
0
41
1
10
39.9944584778387
20
10.6976382312617
30
0
0
SPLINE
5
117
100
AcDbEntity
8
1
62
256
6
ByLayer
370
18
48
1
60
0
100
AcDbSpline
70
4
71
3
72
8
73
4
40
0
40
0
40
0
40
0
40
1
40
1
40
1
40
1
41
1
10
39.9945125441346
20
10.697599647616
30
0
41
1
10
40.0047517419672
20
10.7149730400444
30
0
41
1
10
40.0129125834292
20
10.7329780147519
30
0
41
1
10
40.0187560032638
20
10.7516450637362
30
0
0
SPLINE
5
118
100
AcDbEntity
8
1
62
256
6
ByLayer
370
18
48
1
60
0
100
AcDbSpline
70
4
71
5
72
12
73
6
40
0
40
0
40
0
40
0
40
0
40
0
40
1
40
1
40
1
40
1
40
1
40
1
41
1
10
39.99451468776
20
10.6975994629949
30
0
41
1
10
40.0072051343861
20
10.6557228999973
30
0
41
1
10
40.033722134638
20
10.6126320905555
30
0
41
1
10
40.0724512993814
20
10.5740968882617
30
0
41
1
10
40.1175137117288
20
10.5459609113905
30
0
41
1
10
40.1626783452376
20
10.5302711686921
30
0
0
SPLINE
5
119
100
AcDbEntity
8
1
62
256
6
ByLayer
370
18
48
1
60
0
100
AcDbSpline
70
4
71
5
72
12
73
6
40
0
40
0
40
0
40
0
40
0
40
0
40
1
40
1
40
1
40
1
40
1
40
1
41
1
10
40.1641951359474
20
10.5297498811999
30
0
41
1
10
40.1750119496434
20
10.5429211012599
30
0
41
1
10
40.1846644302929
20
10.5564535596099
30
0
41
1
10
40.193142438818
20
10.5702763230609
30
0
41
1
10
40.2004684222769
20
10.5843166075399
30
0
41
1
10
40.2067078572515
20
10.5985047036139
30
0
0
SPLINE
5
11A
100
AcDbEntity
8
1
62
256
6
ByLayer
370
18
48
1
60
0
100
AcDbSpline
70
4
71
1
72
4
73
2
40
0
40
0
40
1
40
1
41
1
10
41.442998789295
20
10.5298136592099
30
0
41
1
10
40.1622677165347
20
10.5298136592099
30
0
0
SPLINE
5
11B
100
AcDbEntity
8
1
62
256
6
ByLayer
370
18
48
1
60
0
100
AcDbSpline
70
4
71
5
72
12
73
6
40
0
40
0
40
0
40
0
40
0
40
0
40
1
40
1
40
1
40
1
40
1
40
1
41
1
10
39.848649071261
20
10.3000000018399
30
0
41
1
10
39.839626047543
20
10.3000000018399
30
0
41
1
10
39.830602935457
20
10.3000000018399
30
0
41
1
10
39.821617977602
20
10.30000000185
30
0
41
1
10
39.812709416284
20
10.30000000185
30
0
41
1
10
39.803914529465
20
10.30000000185
30
0
0
SPLINE
5
11C
100
AcDbEntity
8
1
62
256
6
ByLayer
370
18
48
1
60
0
100
AcDbSpline
70
4
71
1
72
4
73
2
40
0
40
0
40
1
40
1
41
1
10
40.159465713829
20
10.3000000018193
30
0
41
1
10
39.8486490442
20
10.3000000018444
30
0
0
SPLINE
5
11D
100
AcDbEntity
8
1
62
256
6
ByLayer
370
18
48
1
60
0
100
AcDbSpline
70
4
71
3
72
10
73
6
40
0
40
0
40
0
40
0
40
0.51677851725421
40
0.759344487887863
40
1
40
1
40
1
40
1
41
1
10
39.9545057588168
20
10.4117459591575
30
0
41
1
10
39.9328874514533
20
10.3960478423492
30
0
41
1
10
39.9011219233096
20
10.37298132919
30
0
41
1
10
39.8597113567247
20
10.3377076962202
30
0
41
1
10
39.8523267678757
20
10.3125248887005
30
0
41
1
10
39.848649071261
20
10.29998326616
30
0
0
SPLINE
5
11E
100
AcDbEntity
8
1
62
256
6
ByLayer
370
18
48
1
60
0
100
AcDbSpline
70
4
71
5
72
12
73
6
40
0
40
0
40
0
40
0
40
0
40
0
40
1
40
1
40
1
40
1
40
1
40
1
41
1
10
39.871543293808
20
10.5374592104199
30
0
41
1
10
39.8846712889492
20
10.5128525457858
30
0
41
1
10
39.9002820783203
20
10.4867064184236
30
0
41
1
10
39.9177210387504
20
10.4602497936619
30
0
41
1
10
39.9360773712488
20
10.4348659641723
30
0
41
1
10
39.9544336725393
20
10.4117119695849
30
0
0
SPLINE
5
11F
100
AcDbEntity
8
1
62
256
6
ByLayer
370
18
48
1
60
0
100
AcDbSpline
70
4
71
5
72
12
73
6
40
0
40
0
40
0
40
0
40
0
40
0
40
1
40
1
40
1
40
1
40
1
40
1
41
1
10
39.9545105712831
20
10.4117186907864
30
0
41
1
10
40.0030913336422
20
10.4316175420037
30
0
41
1
10
40.048425692887
20
10.4549042953435
30
0
41
1
10
40.0905727888691
20
10.4797354171988
30
0
41
1
10
40.1301819434052
20
10.5047683377633
30
0
41
1
10
40.1632792576026
20
10.5292474112289
30
0
0
LINE
5
72
100
AcDbEntity
8
80
62
256
6
ByLayer
370
18
48
1
60
0
100
AcDbLine
10
0
20
0
30
0
11
-5
21
0
31
0
39
0
210
0
220
0
230
1
0
LINE
5
73
100
AcDbEntity
8
1
62
256
6
ByLayer
370
18
48
1
60
0
100
AcDbLine
10
24.8
20
7.7625
30
0
11
31.527864
21
7.7625
31
0
39
0
210
0
220
0
230
1
0
LINE
5
75
100
AcDbEntity
8
81
62
256
6
ByLayer
370
18
48
1
60
0
100
AcDbLine
10
44.7
20
13.5625
30
0
11
49.7
21
13.5625
31
0
39
0
210
0
220
0
230
1
0
LINE
5
76
100
AcDbEntity
8
1
62
256
6
ByLayer
370
18
48
1
60
0
100
AcDbLine
10
39.786114
20
12.637061
30
0
11
39.856315
21
12.332285
31
0
39
0
210
0
220
0
230
1
0
LINE
5
77
100
AcDbEntity
8
1
62
256
6
ByLayer
370
18
48
1
60
0
100
AcDbLine
10
43.8
20
13.568535
30
0
11
43.8
21
14.821668
31
0
39
0
210
0
220
0
230
1
0
LINE
5
78
100
AcDbEntity
8
1
62
256
6
ByLayer
370
18
48
1
60
0
100
AcDbLine
10
11
20
12.4375
30
0
11
3.079011
21
12.4375
31
0
39
0
210
0
220
0
230
1
0
LINE
5
79
100
AcDbEntity
8
1
62
256
6
ByLayer
370
18
48
1
60
0
100
AcDbLine
10
11
20
12.4375
30
0
11
11.5
21
12.9375
31
0
39
0
210
0
220
0
230
1
0
LINE
5
7A
100
AcDbEntity
8
1
62
256
6
ByLayer
370
18
48
1
60
0
100
AcDbLine
10
35.4
20
13.605466
30
0
11
35.4
21
13.516277
31
0
39
0
210
0
220
0
230
1
0
LINE
5
7B
100
AcDbEntity
8
1
62
256
6
ByLayer
370
18
48
1
60
0
100
AcDbLine
10
39.864561
20
12.291986
30
0
11
39.887725
21
12.163147
31
0
39
0
210
0
220
0
230
1
0
LINE
5
7C
100
AcDbEntity
8
1
62
256
6
ByLayer
370
18
48
1
60
0
100
AcDbLine
10
39.786114
20
10.487939
30
0
11
39.786114
21
12.637061
31
0
39
0
210
0
220
0
230
1
0
LINE
5
7D
100
AcDbEntity
8
1
62
256
6
ByLayer
370
18
48
1
60
0
100
AcDbLine
10
24.8
20
7.7625
30
0
11
24.8
21
10.191387
31
0
39
0
210
0
220
0
230
1
0
LINE
5
7E
100
AcDbEntity
8
1
62
256
6
ByLayer
370
18
48
1
60
0
100
AcDbLine
10
39.569644
20
13.18446
30
0
11
39.786114
21
12.637061
31
0
39
0
210
0
220
0
230
1
0
LINE
5
7F
100
AcDbEntity
8
1
62
256
6
ByLayer
370
18
48
1
60
0
100
AcDbLine
10
23.2
20
8.406886
30
0
11
23.2
21
0.6625
31
0
39
0
210
0
220
0
230
1
0
LINE
5
80
100
AcDbEntity
8
1
62
256
6
ByLayer
370
18
48
1
60
0
100
AcDbLine
10
0.5
20
12.4375
30
0
11
0.5
21
-12.439682
31
0
39
0
210
0
220
0
230
1
0
LINE
5
81
100
AcDbEntity
8
1
62
256
6
ByLayer
370
18
48
1
60
0
100
AcDbLine
10
12.217901
20
15.616743
30
0
11
11.5
21
12.9375
31
0
39
0
210
0
220
0
230
1
0
LINE
5
82
100
AcDbEntity
8
1
62
256
6
ByLayer
370
18
48
1
60
0
100
AcDbLine
10
39.509549
20
9.788575
30
0
11
39.786114
21
10.487939
31
0
39
0
210
0
220
0
230
1
0
LINE
5
83
100
AcDbEntity
8
1
62
256
6
ByLayer
370
18
48
1
60
0
100
AcDbLine
10
39.864561
20
10.833014
30
0
11
39.887725
21
10.961853
31
0
39
0
210
0
220
0
230
1
0
LINE
5
84
100
AcDbEntity
8
1
62
256
6
ByLayer
370
18
48
1
60
0
100
AcDbLine
10
36.342466
20
13.550074
30
0
11
43.377251
21
13.550074
31
0
39
0
210
0
220
0
230
1
0
LINE
5
85
100
AcDbEntity
8
1
62
256
6
ByLayer
370
18
48
1
60
0
100
AcDbLine
10
0.5
20
-12.439682
30
0
11
0
21
-12.4375
31
0
39
0
210
0
220
0
230
1
0
LINE
5
86
100
AcDbEntity
8
1
62
256
6
ByLayer
370
18
48
1
60
0
100
AcDbLine
10
3.079011
20
12.4375
30
0
11
0.5
21
12.4375
31
0
39
0
210
0
220
0
230
1
0
LINE
5
87
100
AcDbEntity
8
1
62
256
6
ByLayer
370
18
48
1
60
0
100
AcDbLine
10
35.65
20
13.605466
30
0
11
35.65
21
13.48491
31
0
39
0
210
0
220
0
230
1
0
LINE
5
88
100
AcDbEntity
8
1
62
256
6
ByLayer
370
18
48
1
60
0
100
AcDbLine
10
3.079011
20
-12.481679
30
0
11
10.055821
21
-12.481679
31
0
39
0
210
0
220
0
230
1
0
LINE
5
89
100
AcDbEntity
8
1
62
256
6
ByLayer
370
18
48
1
60
0
100
AcDbLine
10
39.786114
20
10.487939
30
0
11
39.856315
21
10.792715
31
0
39
0
210
0
220
0
230
1
0
LINE
5
8A
100
AcDbEntity
8
1
62
256
6
ByLayer
370
18
48
1
60
0
100
AcDbLine
10
0
20
12.4375
30
0
11
0.5
21
12.4375
31
0
39
0
210
0
220
0
230
1
0
LINE
5
8B
100
AcDbEntity
8
1
62
256
6
ByLayer
370
18
48
1
60
0
100
AcDbLine
10
39.887725
20
12.163147
30
0
11
39.887725
21
10.961853
31
0
39
0
210
0
220
0
230
1
0
LINE
5
8C
100
AcDbEntity
8
1
62
256
6
ByLayer
370
18
48
1
60
0
100
AcDbLine
10
26.678824
20
10.191387
30
0
11
26.678824
21
15.616743
31
0
39
0
210
0
220
0
230
1
0
LINE
5
8D
100
AcDbEntity
8
1
62
256
6
ByLayer
370
18
48
1
60
0
100
AcDbLine
10
12.217914
20
15.616791
30
0
11
14.046615
21
22.441596
31
0
39
0
210
0
220
0
230
1
0
LINE
5
8E
100
AcDbEntity
8
1
62
256
6
ByLayer
370
18
48
1
60
0
100
AcDbLine
10
35.65
20
13.605466
30
0
11
35.4
21
13.605466
31
0
39
0
210
0
220
0
230
1
0
LINE
5
8F
100
AcDbEntity
8
1
62
256
6
ByLayer
370
18
48
1
60
0
100
AcDbLine
10
14.046615
20
22.441596
30
0
11
38.350191
21
22.441596
31
0
39
0
210
0
220
0
230
1
0
LINE
5
90
100
AcDbEntity
8
1
62
256
6
ByLayer
370
18
48
1
60
0
100
AcDbLine
10
31.527864
20
7.7625
30
0
11
31.527864
21
8.787072
31
0
39
0
210
0
220
0
230
1
0
LINE
5
91
100
AcDbEntity
8
1
62
256
6
ByLayer
370
18
48
1
60
0
100
AcDbLine
10
37
20
9.774063
30
0
11
36.135
21
9.774063
31
0
39
0
210
0
220
0
230
1
0
LINE
5
92
100
AcDbEntity
8
1
62
256
6
ByLayer
370
18
48
1
60
0
100
AcDbLine
10
26.678824
20
15.616743
30
0
11
12.217901
21
15.616743
31
0
39
0
210
0
220
0
230
1
0
LINE
5
93
100
AcDbEntity
8
1
62
256
6
ByLayer
370
18
48
1
60
0
100
AcDbLine
10
0
20
12.4375
30
0
11
0
21
-12.4375
31
0
39
0
210
0
220
0
230
1
0
LINE
5
94
100
AcDbEntity
8
1
62
256
6
ByLayer
370
18
48
1
60
0
100
AcDbLine
10
0.5
20
-12.439682
30
0
11
3.079011
21
-12.481679
31
0
39
0
210
0
220
0
230
1
0
LINE
5
95
100
AcDbEntity
8
1
62
256
6
ByLayer
370
18
48
1
60
0
100
AcDbLine
10
3.079011
20
12.4375
30
0
11
3.079011
21
-12.481679
31
0
39
0
210
0
220
0
230
1
0
LINE
5
96
100
AcDbEntity
8
1
62
256
6
ByLayer
370
18
48
1
60
0
100
AcDbLine
10
10.055821
20
-12.481679
30
0
11
23.2
21
0.6625
31
0
39
0
210
0
220
0
230
1
0
LINE
5
97
100
AcDbEntity
8
1
62
256
6
ByLayer
370
18
48
1
60
0
100
AcDbLine
10
26.678824
20
10.191387
30
0
11
24.8
21
10.191387
31
0
39
0
210
0
220
0
230
1
0
LINE
5
98
100
AcDbEntity
8
1
62
256
6
ByLayer
370
18
48
1
60
0
100
AcDbLine
10
40.582407
20
10.133143
30
0
11
39.645862
21
10.133143
31
0
39
0
210
0
220
0
230
1
0
LINE
5
99
100
AcDbEntity
8
1
62
256
6
ByLayer
370
18
48
1
60
0
100
AcDbLine
10
36
20
9.773907
30
0
11
36
21
10.069512
31
0
39
0
210
0
220
0
230
1
0
LINE
5
9A
100
AcDbEntity
8
SK1
62
256
6
ByLayer
370
18
48
1
60
0
100
AcDbLine
10
0
20
12.4375
30
0
11
-106.65
21
12.4375
31
0
39
0
210
0
220
0
230
1
0
LINE
5
9C
100
AcDbEntity
8
SK1
62
256
6
ByLayer
370
18
48
1
60
0
100
AcDbLine
10
-106.65
20
-12.4375
30
0
11
0
21
-12.4375
31
0
39
0
210
0
220
0
230
1
0
LINE
5
9D
100
AcDbEntity
8
SK1
62
256
6
ByLayer
370
18
48
1
60
0
100
AcDbLine
10
-106.65
20
12.4375
30
0
11
-106.65
21
-12.4375
31
0
39
0
210
0
220
0
230
1
0
LINE
5
9E
100
AcDbEntity
8
SK1
62
256
6
ByLayer
370
18
48
1
60
0
100
AcDbLine
10
0
20
12.4375
30
0
11
0
21
-12.4375
31
0
39
0
210
0
220
0
230
1
0
LINE
5
9F
100
AcDbEntity
8
1
62
256
6
ByLayer
370
18
48
1
60
0
100
AcDbLine
10
44.16915
20
9.540355
30
0
11
42.500471
21
9.613211
31
0
39
0
210
0
220
0
230
1
0
LINE
5
A0
100
AcDbEntity
8
1
62
256
6
ByLayer
370
18
48
1
60
0
100
AcDbLine
10
42.500471
20
9.613211
30
0
11
41.712429
21
9.647618
31
0
39
0
210
0
220
0
230
1
0
LINE
5
A1
100
AcDbEntity
8
1
62
256
6
ByLayer
370
18
48
1
60
0
100
AcDbLine
10
41.712429
20
9.647618
30
0
11
41.448635
21
9.659135
31
0
39
0
210
0
220
0
230
1
0
LINE
5
A2
100
AcDbEntity
8
1
62
256
6
ByLayer
370
18
48
1
60
0
100
AcDbLine
10
40.611084
20
10.948372
30
0
11
40.611084
21
12.176628
31
0
39
0
210
0
220
0
230
1
0
LINE
5
A3
100
AcDbEntity
8
1
62
256
6
ByLayer
370
18
48
1
60
0
100
AcDbLine
10
40.292035
20
11.5625
30
0
11
40.292035
21
10.948506
31
0
39
0
210
0
220
0
230
1
0
LINE
5
A4
100
AcDbEntity
8
1
62
256
6
ByLayer
370
18
48
1
60
0
100
AcDbLine
10
40.292035
20
10.948508
30
0
11
40.611083
21
10.948508
31
0
39
0
210
0
220
0
230
1
0
LINE
5
A5
100
AcDbEntity
8
1
62
256
6
ByLayer
370
18
48
1
60
0
100
AcDbLine
10
41.672615
20
12.825104
30
0
11
40.169658
21
12.825104
31
0
39
0
210
0
220
0
230
1
0
LINE
5
A6
100
AcDbEntity
8
1
62
256
6
ByLayer
370
18
48
1
60
0
100
AcDbLine
10
39.711764
20
12.825
30
0
11
39.724713
21
12.825
31
0
39
0
210
0
220
0
230
1
0
LINE
5
A7
100
AcDbEntity
8
1
62
256
6
ByLayer
370
18
48
1
60
0
100
AcDbLine
10
39.926437
20
11.613866
30
0
11
40.018747
21
12.373284
31
0
39
0
210
0
220
0
230
1
0
LINE
5
A8
100
AcDbEntity
8
1
62
256
6
ByLayer
370
18
48
1
60
0
100
AcDbLine
10
39.724713
20
12.792328
30
0
11
39.724713
21
12.825
31
0
39
0
210
0
220
0
230
1
0
LINE
5
A9
100
AcDbEntity
8
1
62
256
6
ByLayer
370
18
48
1
60
0
100
AcDbLine
10
40.104094
20
11.5625
30
0
11
40.104095
21
12.176492
31
0
39
0
210
0
220
0
230
1
0
LINE
5
AA
100
AcDbEntity
8
1
62
256
6
ByLayer
370
18
48
1
60
0
100
AcDbLine
10
40.292035
20
11.5625
30
0
11
40.292035
21
12.176494
31
0
39
0
210
0
220
0
230
1
0
LINE
5
AB
100
AcDbEntity
8
1
62
256
6
ByLayer
370
18
48
1
60
0
100
AcDbLine
10
40.104094
20
11.5625
30
0
11
40.104095
21
10.948508
31
0
39
0
210
0
220
0
230
1
0
LINE
5
AC
100
AcDbEntity
8
1
62
256
6
ByLayer
370
18
48
1
60
0
100
AcDbLine
10
40.018743
20
12.373274
30
0
11
40.104097
21
12.176488
31
0
39
0
210
0
220
0
230
1
0
LINE
5
AD
100
AcDbEntity
8
1
62
256
6
ByLayer
370
18
48
1
60
0
100
AcDbLine
10
40.292035
20
12.176492
30
0
11
40.611083
21
12.176492
31
0
39
0
210
0
220
0
230
1
0
LINE
5
AE
100
AcDbEntity
8
1
62
256
6
ByLayer
370
18
48
1
60
0
100
AcDbLine
10
39.711764
20
10.3
30
0
11
39.724713
21
10.3
31
0
39
0
210
0
220
0
230
1
0
LINE
5
AF
100
AcDbEntity
8
1
62
256
6
ByLayer
370
18
48
1
60
0
100
AcDbLine
10
39.724713
20
10.332672
30
0
11
39.724713
21
10.3
31
0
39
0
210
0
220
0
230
1
0
LINE
5
B0
100
AcDbEntity
8
1
62
256
6
ByLayer
370
18
48
1
60
0
100
AcDbLine
10
40.018743
20
10.751726
30
0
11
40.104097
21
10.948512
31
0
39
0
210
0
220
0
230
1
0
LINE
5
B1
100
AcDbEntity
8
1
62
256
6
ByLayer
370
18
48
1
60
0
100
AcDbLine
10
39.926437
20
11.511134
30
0
11
40.018747
21
10.751716
31
0
39
0
210
0
220
0
230
1
0
LINE
5
B2
100
AcDbEntity
8
1
62
256
6
ByLayer
370
18
48
1
60
0
100
AcDbLine
10
40.409455
20
12.891987
30
0
11
41.357359
21
13.43926
31
0
39
0
210
0
220
0
230
1
0
LINE
5
B3
100
AcDbEntity
8
1
62
256
6
ByLayer
370
18
48
1
60
0
100
AcDbLine
10
44.16915
20
13.584645
30
0
11
42.500471
21
13.511789
31
0
39
0
210
0
220
0
230
1
0
LINE
5
B4
100
AcDbEntity
8
1
62
256
6
ByLayer
370
18
48
1
60
0
100
AcDbLine
10
42.500471
20
13.511789
30
0
11
41.712429
21
13.477382
31
0
39
0
210
0
220
0
230
1
0
LINE
5
B5
100
AcDbEntity
8
1
62
256
6
ByLayer
370
18
48
1
60
0
100
AcDbLine
10
41.712429
20
13.477382
30
0
11
41.448635
21
13.465865
31
0
39
0
210
0
220
0
230
1
0
LINE
5
B6
100
AcDbEntity
8
1
62
256
6
ByLayer
370
18
48
1
60
0
100
AcDbLine
10
41.443004
20
12.595162
30
0
11
40.764298
21
12.329676
31
0
39
0
210
0
220
0
230
1
0
LINE
5
B7
100
AcDbEntity
8
1
62
256
6
ByLayer
370
18
48
1
60
0
100
AcDbLine
10
41.672615
20
10.299896
30
0
11
40.169658
21
10.299896
31
0
39
0
210
0
220
0
230
1
0
LINE
5
B8
100
AcDbEntity
8
1
62
256
6
ByLayer
370
18
48
1
60
0
100
AcDbLine
10
40.409455
20
10.233013
30
0
11
41.357359
21
9.68574
31
0
39
0
210
0
220
0
230
1
0
LINE
5
B9
100
AcDbEntity
8
1
62
256
6
ByLayer
370
18
48
1
60
0
100
AcDbLine
10
44.700002
20
9.9375
30
0
11
44.700002
21
13.1875
31
0
39
0
210
0
220
0
230
1
0
LINE
5
BA
100
AcDbEntity
8
1
62
256
6
ByLayer
370
18
48
1
60
0
100
AcDbLine
10
41.672615
20
12.825104
30
0
11
41.672615
21
10.299896
31
0
39
0
210
0
220
0
230
1
0
LINE
5
BB
100
AcDbEntity
8
1
62
256
6
ByLayer
370
18
48
1
60
0
100
AcDbLine
10
41.443004
20
10.529838
30
0
11
40.764298
21
10.795324
31
0
39
0
210
0
220
0
230
1
0
MTEXT
5
120
100
AcDbEntity
8
SK6
62
256
6
ByLayer
370
18
48
1
60
0
100
AcDbMText
10
-60.099999
20
-18.895041
30
0
210
0
220
0
230
1
1
\W0.7377;RF151.37-2525-032B30
40
3.5
41
0
44
1.084337
50
0
71
7
72
5
7
iso_b_vert
0
DIMENSION
5
131
100
AcDbEntity
8
2
62
256
6
ByLayer
370
13
48
1
60
0
100
AcDbDimension
2
DimnDraft3D1
10
58.95
20
13.5625
30
0
11
58.95
21
18.0625
31
0
70
32
71
5
72
1
41
1
210
0
220
0
230
1
3
Standard
100
AcDbAlignedDimension
13
46.2
23
9.5625
33
0
14
46.2
24
13.5625
34
0
50
90
100
AcDbRotatedDimension
1001
ACAD
1000
DSTYLE
1002
{
1070
    74
1070
     0
1070
   279
1070
     0
1070
   172
1070
     1
1070
   173
1070
     1
1070
   340
1005
121
1070
   271
1070
     3
1070
   272
1070
     3
1070
    77
1070
     1
1070
    73
1070
     0
1070
   171
1070
     4
1070
   274
1070
     4
1070
   177
1070
     2
1070
   176
1070
     2
1070
   178
1070
     7
1070
    78
1070
     8
1070
    41
1041
3.0
1070
   147
1041
2.25
1070
    42
1041
1.5
1070
    44
1041
3.0
1070
   140
1041
4.5
1070
   343
1005
132
1070
   344
1005
132
1002
}
0
DIMENSION
5
146
100
AcDbEntity
8
2
62
256
6
ByLayer
370
13
48
1
60
0
100
AcDbDimension
2
DimnDraft3D2
10
68.95
20
-12.4375
30
0
11
68.95
21
-2.125658
31
0
70
32
71
5
72
1
41
1
210
0
220
0
230
1
3
Standard
100
AcDbAlignedDimension
13
46.2
23
13.5625
33
0
14
-3.5
24
-12.4375
34
0
50
90
100
AcDbRotatedDimension
1001
ACAD
1000
DSTYLE
1002
{
1070
    74
1070
     0
1070
   279
1070
     0
1070
   172
1070
     1
1070
   173
1070
     1
1070
   340
1005
121
1070
   271
1070
     3
1070
   272
1070
     3
1070
    77
1070
     1
1070
    73
1070
     0
1070
   171
1070
     4
1070
   274
1070
     4
1070
   177
1070
     2
1070
   176
1070
     2
1070
   178
1070
     7
1070
    78
1070
     8
1070
    41
1041
3.0
1070
   147
1041
2.25
1070
    42
1041
1.5
1070
    44
1041
3.0
1070
   140
1041
4.5
1070
   343
1005
132
1070
   344
1005
132
1002
}
0
DIMENSION
5
155
100
AcDbEntity
8
SK2
62
256
6
ByLayer
370
13
48
1
60
0
100
AcDbDimension
2
DimnDraft3D3
10
-116.4
20
-12.4375
30
0
11
-116.4
21
-2.688158
31
0
70
32
71
5
72
1
41
1
210
0
220
0
230
1
3
Standard
100
AcDbAlignedDimension
13
-108.15
23
12.4375
33
0
14
-108.15
24
-12.4375
34
0
50
90
100
AcDbRotatedDimension
1001
ACAD
1000
DSTYLE
1002
{
1070
    74
1070
     0
1070
   279
1070
     0
1070
   172
1070
     1
1070
   173
1070
     1
1070
   340
1005
121
1070
   271
1070
     3
1070
   272
1070
     3
1070
    77
1070
     1
1070
    73
1070
     0
1070
   171
1070
     4
1070
   274
1070
     4
1070
   177
1070
     2
1070
   176
1070
     2
1070
   178
1070
     7
1070
    78
1070
     8
1070
    41
1041
3.0
1070
   147
1041
2.25
1070
    42
1041
1.5
1070
    44
1041
3.0
1070
   140
1041
4.5
1070
   343
1005
132
1070
   344
1005
132
1002
}
0
DIMENSION
5
163
100
AcDbEntity
8
2
62
256
6
ByLayer
370
13
48
1
60
0
100
AcDbDimension
2
DimnDraft3D4
10
0
20
32.191596
30
0
11
16.594737
21
32.191596
31
0
70
32
71
5
72
1
41
1
210
0
220
0
230
1
3
Standard
100
AcDbAlignedDimension
13
44.7
23
15.0625
33
0
14
0
24
13.9375
34
0
50
0
100
AcDbRotatedDimension
1001
ACAD
1000
DSTYLE
1002
{
1070
   279
1070
     0
1070
   172
1070
     1
1070
   173
1070
     1
1070
   340
1005
121
1070
   271
1070
     3
1070
   272
1070
     3
1070
    77
1070
     1
1070
    73
1070
     0
1070
   171
1070
     4
1070
   274
1070
     4
1070
   177
1070
     2
1070
   176
1070
     2
1070
   178
1070
     7
1070
    78
1070
     8
1070
    41
1041
3.0
1070
   147
1041
2.25
1070
    42
1041
1.5
1070
    44
1041
3.0
1070
   140
1041
4.5
1070
   343
1005
132
1070
   344
1005
132
1002
}
0
DIMENSION
5
171
100
AcDbEntity
8
SK2
62
256
6
ByLayer
370
13
48
1
60
0
100
AcDbDimension
2
DimnDraft3D5
10
-106.65
20
42.191596
30
0
11
-34.782237
21
42.191596
31
0
70
32
71
5
72
1
41
1
210
0
220
0
230
1
3
Standard
100
AcDbAlignedDimension
13
44.7
23
15.0625
33
0
14
-106.65
24
13.9375
34
0
50
0
100
AcDbRotatedDimension
1001
ACAD
1000
DSTYLE
1002
{
1070
   279
1070
     0
1070
   172
1070
     1
1070
   173
1070
     1
1070
   340
1005
121
1070
   271
1070
     3
1070
   272
1070
     3
1070
    77
1070
     1
1070
    73
1070
     0
1070
   171
1070
     4
1070
   274
1070
     4
1070
   177
1070
     2
1070
   176
1070
     2
1070
   178
1070
     7
1070
    78
1070
     8
1070
    41
1041
3.0
1070
   147
1041
2.25
1070
    42
1041
1.5
1070
    44
1041
3.0
1070
   140
1041
4.5
1070
   343
1005
132
1070
   344
1005
132
1002
}
0
DIMENSION
5
17F
100
AcDbEntity
8
2
62
256
6
ByLayer
370
13
48
1
60
0
100
AcDbDimension
2
DimnDraft3D6
10
44.7
20
-26.6875
30
0
11
49.2
21
-26.6875
31
0
70
32
71
5
72
1
41
1
210
0
220
0
230
1
3
Standard
100
AcDbAlignedDimension
13
36
23
7.0625
33
0
14
44.7
24
8.0625
34
0
50
0
100
AcDbRotatedDimension
1001
ACAD
1000
DSTYLE
1002
{
1070
   279
1070
     0
1070
   172
1070
     1
1070
   173
1070
     1
1070
   340
1005
121
1070
   271
1070
     3
1070
   272
1070
     3
1070
    77
1070
     1
1070
    73
1070
     0
1070
   171
1070
     4
1070
   274
1070
     4
1070
   177
1070
     2
1070
   176
1070
     2
1070
   178
1070
     7
1070
    78
1070
     8
1070
    41
1041
3.0
1070
   147
1041
2.25
1070
    42
1041
1.5
1070
    44
1041
3.0
1070
   140
1041
4.5
1070
   343
1005
132
1070
   344
1005
132
1002
}
0
DIMENSION
5
18D
100
AcDbEntity
8
2
62
256
6
ByLayer
370
13
48
1
60
0
100
AcDbDimension
2
DimnDraft3D7
10
44.7
20
-36.6875
30
0
11
29.418421
21
-36.6875
31
0
70
32
71
5
72
1
41
1
210
0
220
0
230
1
3
Standard
100
AcDbAlignedDimension
13
24.7
23
-13.9375
33
0
14
44.7
24
8.0625
34
0
50
0
100
AcDbRotatedDimension
1001
ACAD
1000
DSTYLE
1002
{
1070
   279
1070
     0
1070
   172
1070
     1
1070
   173
1070
     1
1070
   340
1005
121
1070
   271
1070
     3
1070
   272
1070
     3
1070
    77
1070
     1
1070
    73
1070
     0
1070
   171
1070
     4
1070
   274
1070
     4
1070
   177
1070
     2
1070
   176
1070
     2
1070
   178
1070
     7
1070
    78
1070
     8
1070
    41
1041
3.0
1070
   147
1041
2.25
1070
    42
1041
1.5
1070
    44
1041
3.0
1070
   140
1041
4.5
1070
   343
1005
132
1070
   344
1005
132
1002
}
0
ENDSEC
0
SECTION
2
OBJECTS
0
DICTIONARY
5
1f7
330
0
100
AcDbDictionary
280
0
281
1
3
ACAD_GROUP
350
1f8
3
ACAD_MLINESTYLE
350
1f9
0
DICTIONARY
5
1f8
330
0
100
AcDbDictionary
280
0
281
1
0
DICTIONARY
5
1f9
330
0
100
AcDbDictionary
280
0
281
1
3
Standard
350
18
0
MLINESTYLE
5
18
330
1f9
100
AcDbMlineStyle
2
Standard
70
0
3

62
256
51
90
52
90
71
2
49
-0.5
62
256
6
ByLayer
49
0.5
62
256
6
ByLayer
0
RASTERVARIABLES
5
1e6
330

100
AcDbRasterVariables
90
0
70
1
71
1
72
1
0
ENDSEC
0
EOF
