0
SECTION
2
HEADER
9
$ACADVER
1
AC1015
9
$DWGCODEPAGE
3
ANSI_1252
9
$HANDSEED
5
1ff
9
$ANGBASE
50
0
9
$ANGDIR
70
0
9
$ATTMODE
70
1
9
$AUNITS
70
0
9
$AUPREC
70
0
9
$CECOLOR
62
256
9
$CELTSCALE
40
1
9
$CELTYPE
6
ByLayer
9
$CELWEIGHT
370
18
9
$CLAYER
8
0
9
$CMLJUST
70
0
9
$CMLSCALE
40
1
9
$CMLSTYLE
2
Standard
9
$DIMSTYLE
2
Standard
9
$TEXTSIZE
40
0.2
9
$TEXTSTYLE
7
Standard
9
$LUNITS
70
2
9
$LUPREC
70
4
9
$EXTNAMES
290
1
9
$INSUNITS
70
4
9
$LTSCALE
40
1
9
$LWDISPLAY
290
1
9
$PDMODE
70
0
9
$PDSIZE
40
0
9
$PLINEGEN
70
0
0
ENDSEC
0
SECTION
2
CLASSES
0
CLASS
1
RASTERVARIABLES
2
AcDbRasterVariables
3
ISM
90
0
280
0
281
0
0
ENDSEC
0
SECTION
2
TABLES
0
TABLE
2
VPORT
5
1f5
100
AcDbSymbolTable
0
VPORT
5
1
100
AcDbSymbolTableRecord
100
AcDbViewportTableRecord
2
*Active
70
0
10
0
20
0
11
1
21
1
12
-1
22
1
13
0
23
0
14
0.5
24
0.5
15
10
25
10
16
0
26
0
36
1
17
0
27
0
37
0
0
ENDTAB
0
TABLE
2
LTYPE
5
1f6
100
AcDbSymbolTable
0
LTYPE
5
14
100
AcDbSymbolTableRecord
100
AcDbLinetypeTableRecord
70
0
2
ByBlock
3

72
65
73
0
40
0
0
LTYPE
5
15
100
AcDbSymbolTableRecord
100
AcDbLinetypeTableRecord
70
0
2
ByLayer
3

72
65
73
0
40
0
0
LTYPE
5
16
100
AcDbSymbolTableRecord
100
AcDbLinetypeTableRecord
70
0
2
CONTINUOUS
3
Solid line
72
65
73
0
40
0
0
LTYPE
5
6A
100
AcDbSymbolTableRecord
100
AcDbLinetypeTableRecord
70
0
2
CENTER
3
____ _ ____ _ ____ _ ____
72
65
73
4
40
47.5
49
22
74
0
49
-8.5
74
0
49
8.5
74
0
49
-8.5
74
0
0
LTYPE
5
6B
100
AcDbSymbolTableRecord
100
AcDbLinetypeTableRecord
70
0
2
DASHED
3
__ __ __ __ __ __ __ __ __
72
65
73
2
40
25.72
49
12.86
74
0
49
-12.86
74
0
0
ENDTAB
0
TABLE
2
LAYER
5
1f7
100
AcDbSymbolTable
0
LAYER
5
10
100
AcDbSymbolTableRecord
100
AcDbLayerTableRecord
2
0
70
0
62
7
6
CONTINUOUS
290
1
370
-3
390
0
0
LAYER
5
6D
100
AcDbSymbolTableRecord
100
AcDbLayerTableRecord
2
2
70
0
62
7
6
CONTINUOUS
290
1
370
-3
390
0
0
LAYER
5
6F
100
AcDbSymbolTableRecord
100
AcDbLayerTableRecord
2
80
70
0
62
-6
6
CONTINUOUS
290
1
370
-3
390
0
0
LAYER
5
71
100
AcDbSymbolTableRecord
100
AcDbLayerTableRecord
2
81
70
0
62
-3
6
CONTINUOUS
290
1
370
-3
390
0
0
LAYER
5
74
100
AcDbSymbolTableRecord
100
AcDbLayerTableRecord
2
1
70
0
62
4
6
CONTINUOUS
290
1
370
-3
390
0
0
LAYER
5
1e2
100
AcDbSymbolTableRecord
100
AcDbLayerTableRecord
2
SK1
70
0
62
4
6
CONTINUOUS
290
1
370
-3
390
0
0
LAYER
5
1e3
100
AcDbSymbolTableRecord
100
AcDbLayerTableRecord
2
SK6
70
0
62
5
6
CONTINUOUS
290
1
370
-3
390
0
0
LAYER
5
1e4
100
AcDbSymbolTableRecord
100
AcDbLayerTableRecord
2
SK2
70
0
62
7
6
CONTINUOUS
290
1
370
-3
390
0
0
ENDTAB
0
TABLE
2
STYLE
5
1f8
100
AcDbSymbolTable
0
STYLE
5
11
100
AcDbSymbolTableRecord
100
AcDbTextStyleTableRecord
2
Standard
3
txt
70
0
71
0
40
0
41
1
42
0
50
0
0
STYLE
5
11C
100
AcDbSymbolTableRecord
100
AcDbTextStyleTableRecord
2
iso_b_vert
3
simplex.shx
70
0
71
0
40
0
41
1
42
0
50
0
0
STYLE
5
11D
100
AcDbSymbolTableRecord
100
AcDbTextStyleTableRecord
2
DWGDirectTextStyle
3
simplex
70
0
71
0
40
0
41
1
42
0
50
0
0
ENDTAB
0
TABLE
2
DIMSTYLE
5
1f9
100
AcDbSymbolTable
100
AcDbDimStyleTable
0
DIMSTYLE
105
27
100
AcDbSymbolTableRecord
100
AcDbDimStyleTableRecord
2
Standard
70
0
3
<>
41
0.18
42
0.0625
44
0.18
140
0.18
147
0.09
73
0
74
0
77
1
271
2
275
0
278
52
280
0
340
11
0
ENDTAB
0
TABLE
2
VIEW
5
1fa
100
AcDbSymbolTable
0
ENDTAB
0
TABLE
2
UCS
5
1fb
100
AcDbSymbolTable
0
ENDTAB
0
TABLE
2
APPID
5
1fc
100
AcDbSymbolTable
0
APPID
5
12
100
AcDbSymbolTableRecord
100
AcDbRegAppTableRecord
2
ACAD
70
0
0
ENDTAB
0
TABLE
2
BLOCK_RECORD
5
1fd
100
AcDbSymbolTable
0
BLOCK_RECORD
5
1F
100
AcDbSymbolTableRecord
100
AcDbBlockTableRecord
2
*Model_Space
340
0
70
0
0
BLOCK_RECORD
5
1B
100
AcDbSymbolTableRecord
100
AcDbBlockTableRecord
2
*Paper_Space
340
0
70
0
0
BLOCK_RECORD
5
23
100
AcDbSymbolTableRecord
100
AcDbBlockTableRecord
2
*Paper_Space0
340
0
70
0
0
BLOCK_RECORD
5
11F
100
AcDbSymbolTableRecord
100
AcDbBlockTableRecord
2
DimnDraft3D1
340
0
70
0
0
BLOCK_RECORD
5
12D
100
AcDbSymbolTableRecord
100
AcDbBlockTableRecord
2
_CLOSED
340
0
70
0
0
BLOCK_RECORD
5
134
100
AcDbSymbolTableRecord
100
AcDbBlockTableRecord
2
DimnDraft3D2
340
0
70
0
0
BLOCK_RECORD
5
142
100
AcDbSymbolTableRecord
100
AcDbBlockTableRecord
2
DimnDraft3D3
340
0
70
0
0
BLOCK_RECORD
5
151
100
AcDbSymbolTableRecord
100
AcDbBlockTableRecord
2
DimnDraft3D4
340
0
70
0
0
BLOCK_RECORD
5
15F
100
AcDbSymbolTableRecord
100
AcDbBlockTableRecord
2
DimnDraft3D5
340
0
70
0
0
BLOCK_RECORD
5
16D
100
AcDbSymbolTableRecord
100
AcDbBlockTableRecord
2
DimnDraft3D6
340
0
70
0
0
BLOCK_RECORD
5
17B
100
AcDbSymbolTableRecord
100
AcDbBlockTableRecord
2
DimnDraft3D7
340
0
70
0
0
ENDTAB
0
ENDSEC
0
SECTION
2
BLOCKS
0
BLOCK
5
20
100
AcDbEntity
8
0
100
AcDbBlockBegin
2
*Model_Space
70
0
10
0
20
0
30
0
3
*Model_Space
0
ENDBLK
5
21
100
AcDbEntity
8
0
100
AcDbBlockEnd
0
BLOCK
5
1C
100
AcDbEntity
8
0
100
AcDbBlockBegin
2
*Paper_Space
70
0
10
0
20
0
30
0
3
*Paper_Space
0
ENDBLK
5
1D
100
AcDbEntity
8
0
100
AcDbBlockEnd
0
BLOCK
5
24
100
AcDbEntity
8
0
100
AcDbBlockBegin
2
*Paper_Space0
70
0
10
0
20
0
30
0
3
*Paper_Space0
0
ENDBLK
5
25
100
AcDbEntity
8
0
100
AcDbBlockEnd
0
BLOCK
5
12A
100
AcDbEntity
8
0
100
AcDbBlockBegin
2
DimnDraft3D1
70
0
10
0
20
0
30
0
3
DimnDraft3D1
0
MTEXT
5
120
100
AcDbEntity
8
2
62
256
6
ByLayer
370
18
48
1
60
0
100
AcDbMText
10
50.825
20
19.1875
30
0
210
0
220
0
230
1
1
\W0.5404;3
40
4.5
41
0
44
1.084337
50
90
71
7
72
5
7
iso_b_vert
0
LINE
5
121
100
AcDbEntity
8
2
62
256
6
ByLayer
370
13
48
1
60
0
100
AcDbLine
10
39.2
20
10.5625
30
0
11
54.95
21
10.5625
31
0
39
0
210
0
220
0
230
1
0
LINE
5
122
100
AcDbEntity
8
2
62
256
6
ByLayer
370
13
48
1
60
0
100
AcDbLine
10
39.2
20
13.5625
30
0
11
54.95
21
13.5625
31
0
39
0
210
0
220
0
230
1
0
LINE
5
123
100
AcDbEntity
8
2
62
256
6
ByLayer
370
13
48
1
60
0
100
AcDbLine
10
51.95
20
20.075658
30
0
11
51.95
21
-0.6875
31
0
39
0
210
0
220
0
230
1
0
LINE
5
124
100
AcDbEntity
8
2
62
256
6
ByLayer
370
13
48
1
60
0
100
AcDbLine
10
51.95
20
10.5625
30
0
11
52.344957
21
7.562501
31
0
39
0
210
0
220
0
230
1
0
LINE
5
125
100
AcDbEntity
8
2
62
256
6
ByLayer
370
13
48
1
60
0
100
AcDbLine
10
51.95
20
10.5625
30
0
11
51.555043
21
7.562499
31
0
39
0
210
0
220
0
230
1
0
LINE
5
126
100
AcDbEntity
8
2
62
256
6
ByLayer
370
13
48
1
60
0
100
AcDbLine
10
52.344957
20
7.562501
30
0
11
51.555043
21
7.562499
31
0
39
0
210
0
220
0
230
1
0
LINE
5
127
100
AcDbEntity
8
2
62
256
6
ByLayer
370
13
48
1
60
0
100
AcDbLine
10
51.95
20
13.5625
30
0
11
51.555043
21
16.562499
31
0
39
0
210
0
220
0
230
1
0
LINE
5
128
100
AcDbEntity
8
2
62
256
6
ByLayer
370
13
48
1
60
0
100
AcDbLine
10
51.95
20
13.5625
30
0
11
52.344957
21
16.562501
31
0
39
0
210
0
220
0
230
1
0
LINE
5
129
100
AcDbEntity
8
2
62
256
6
ByLayer
370
13
48
1
60
0
100
AcDbLine
10
51.555043
20
16.562499
30
0
11
52.344957
21
16.562501
31
0
39
0
210
0
220
0
230
1
0
ENDBLK
5
12B
100
AcDbEntity
8
0
100
AcDbBlockEnd
0
BLOCK
5
12E
100
AcDbEntity
8
0
100
AcDbBlockBegin
2
_CLOSED
70
0
10
0
20
0
30
0
3
_CLOSED
0
LINE
5
130
100
AcDbEntity
8
0
62
256
6
ByLayer
370
-2
48
1
60
0
100
AcDbLine
10
-1
20
0.166667
30
0
11
0
21
0
31
0
39
0
210
0
220
0
230
1
0
LINE
5
131
100
AcDbEntity
8
0
62
256
6
ByLayer
370
-2
48
1
60
0
100
AcDbLine
10
0
20
0
30
0
11
-1
21
-0.166667
31
0
39
0
210
0
220
0
230
1
0
LINE
5
132
100
AcDbEntity
8
0
62
256
6
ByLayer
370
-2
48
1
60
0
100
AcDbLine
10
-1
20
0.166667
30
0
11
-1
21
-0.166667
31
0
39
0
210
0
220
0
230
1
0
LINE
5
133
100
AcDbEntity
8
0
62
256
6
ByLayer
370
-2
48
1
60
0
100
AcDbLine
10
0
20
0
30
0
11
-1
21
0
31
0
39
0
210
0
220
0
230
1
0
ENDBLK
5
12F
100
AcDbEntity
8
0
100
AcDbBlockEnd
0
BLOCK
5
13F
100
AcDbEntity
8
0
100
AcDbBlockBegin
2
DimnDraft3D2
70
0
10
0
20
0
30
0
3
DimnDraft3D2
0
MTEXT
5
135
100
AcDbEntity
8
2
62
256
6
ByLayer
370
18
48
1
60
0
100
AcDbMText
10
60.825
20
-1.000658
30
0
210
0
220
0
230
1
1
\W0.6740;26
40
4.5
41
0
44
1.084337
50
90
71
7
72
5
7
iso_b_vert
0
LINE
5
136
100
AcDbEntity
8
2
62
256
6
ByLayer
370
13
48
1
60
0
100
AcDbLine
10
39.2
20
13.5625
30
0
11
64.95
21
13.5625
31
0
39
0
210
0
220
0
230
1
0
LINE
5
137
100
AcDbEntity
8
2
62
256
6
ByLayer
370
13
48
1
60
0
100
AcDbLine
10
-3.5
20
-12.4375
30
0
11
64.95
21
-12.4375
31
0
39
0
210
0
220
0
230
1
0
LINE
5
138
100
AcDbEntity
8
2
62
256
6
ByLayer
370
13
48
1
60
0
100
AcDbLine
10
61.95
20
13.5625
30
0
11
61.95
21
-12.4375
31
0
39
0
210
0
220
0
230
1
0
LINE
5
139
100
AcDbEntity
8
2
62
256
6
ByLayer
370
13
48
1
60
0
100
AcDbLine
10
61.95
20
13.5625
30
0
11
62.344957
21
10.562501
31
0
39
0
210
0
220
0
230
1
0
LINE
5
13A
100
AcDbEntity
8
2
62
256
6
ByLayer
370
13
48
1
60
0
100
AcDbLine
10
61.95
20
13.5625
30
0
11
61.555043
21
10.562499
31
0
39
0
210
0
220
0
230
1
0
LINE
5
13B
100
AcDbEntity
8
2
62
256
6
ByLayer
370
13
48
1
60
0
100
AcDbLine
10
62.344957
20
10.562501
30
0
11
61.555043
21
10.562499
31
0
39
0
210
0
220
0
230
1
0
LINE
5
13C
100
AcDbEntity
8
2
62
256
6
ByLayer
370
13
48
1
60
0
100
AcDbLine
10
61.95
20
-12.4375
30
0
11
61.555043
21
-9.437501
31
0
39
0
210
0
220
0
230
1
0
LINE
5
13D
100
AcDbEntity
8
2
62
256
6
ByLayer
370
13
48
1
60
0
100
AcDbLine
10
61.95
20
-12.4375
30
0
11
62.344957
21
-9.437499
31
0
39
0
210
0
220
0
230
1
0
LINE
5
13E
100
AcDbEntity
8
2
62
256
6
ByLayer
370
13
48
1
60
0
100
AcDbLine
10
61.555043
20
-9.437501
30
0
11
62.344957
21
-9.437499
31
0
39
0
210
0
220
0
230
1
0
ENDBLK
5
140
100
AcDbEntity
8
0
100
AcDbBlockEnd
0
BLOCK
5
14E
100
AcDbEntity
8
0
100
AcDbBlockBegin
2
DimnDraft3D3
70
0
10
0
20
0
30
0
3
DimnDraft3D3
0
MTEXT
5
143
100
AcDbEntity
8
SK2
62
256
6
ByLayer
370
18
48
1
60
0
100
AcDbMText
10
-124.525
20
-1.563158
30
0
210
0
220
0
230
1
1
\W0.6740;25
40
4.5
41
0
44
1.084337
50
90
71
7
72
5
7
iso_b_vert
0
LINE
5
145
100
AcDbEntity
8
SK2
62
256
6
ByLayer
370
13
48
1
60
0
100
AcDbLine
10
-115.15
20
12.4375
30
0
11
-126.4
21
12.4375
31
0
39
0
210
0
220
0
230
1
0
LINE
5
146
100
AcDbEntity
8
SK2
62
256
6
ByLayer
370
13
48
1
60
0
100
AcDbLine
10
-115.15
20
-12.4375
30
0
11
-126.4
21
-12.4375
31
0
39
0
210
0
220
0
230
1
0
LINE
5
147
100
AcDbEntity
8
SK2
62
256
6
ByLayer
370
13
48
1
60
0
100
AcDbLine
10
-123.4
20
12.4375
30
0
11
-123.4
21
-12.4375
31
0
39
0
210
0
220
0
230
1
0
LINE
5
148
100
AcDbEntity
8
SK2
62
256
6
ByLayer
370
13
48
1
60
0
100
AcDbLine
10
-123.4
20
12.4375
30
0
11
-123.005043
21
9.437501
31
0
39
0
210
0
220
0
230
1
0
LINE
5
149
100
AcDbEntity
8
SK2
62
256
6
ByLayer
370
13
48
1
60
0
100
AcDbLine
10
-123.4
20
12.4375
30
0
11
-123.794957
21
9.437499
31
0
39
0
210
0
220
0
230
1
0
LINE
5
14A
100
AcDbEntity
8
SK2
62
256
6
ByLayer
370
13
48
1
60
0
100
AcDbLine
10
-123.005043
20
9.437501
30
0
11
-123.794957
21
9.437499
31
0
39
0
210
0
220
0
230
1
0
LINE
5
14B
100
AcDbEntity
8
SK2
62
256
6
ByLayer
370
13
48
1
60
0
100
AcDbLine
10
-123.4
20
-12.4375
30
0
11
-123.794957
21
-9.437501
31
0
39
0
210
0
220
0
230
1
0
LINE
5
14C
100
AcDbEntity
8
SK2
62
256
6
ByLayer
370
13
48
1
60
0
100
AcDbLine
10
-123.4
20
-12.4375
30
0
11
-123.005043
21
-9.437499
31
0
39
0
210
0
220
0
230
1
0
LINE
5
14D
100
AcDbEntity
8
SK2
62
256
6
ByLayer
370
13
48
1
60
0
100
AcDbLine
10
-123.794957
20
-9.437501
30
0
11
-123.005043
21
-9.437499
31
0
39
0
210
0
220
0
230
1
0
ENDBLK
5
14F
100
AcDbEntity
8
0
100
AcDbBlockEnd
0
BLOCK
5
15C
100
AcDbEntity
8
0
100
AcDbBlockBegin
2
DimnDraft3D4
70
0
10
0
20
0
30
0
3
DimnDraft3D4
0
MTEXT
5
152
100
AcDbEntity
8
2
62
256
6
ByLayer
370
18
48
1
60
0
100
AcDbMText
10
14.693421
20
32.431698
30
0
210
0
220
0
230
1
1
\W0.7346;37.7
40
4.5
41
0
44
1.084337
50
0
71
7
72
5
7
iso_b_vert
0
LINE
5
153
100
AcDbEntity
8
2
62
256
6
ByLayer
370
13
48
1
60
0
100
AcDbLine
10
37.7
20
15.0625
30
0
11
37.7
21
34.306698
31
0
39
0
210
0
220
0
230
1
0
LINE
5
154
100
AcDbEntity
8
2
62
256
6
ByLayer
370
13
48
1
60
0
100
AcDbLine
10
0
20
13.9375
30
0
11
0
21
34.306698
31
0
39
0
210
0
220
0
230
1
0
LINE
5
155
100
AcDbEntity
8
2
62
256
6
ByLayer
370
13
48
1
60
0
100
AcDbLine
10
37.7
20
31.306698
30
0
11
0
21
31.306698
31
0
39
0
210
0
220
0
230
1
0
LINE
5
156
100
AcDbEntity
8
2
62
256
6
ByLayer
370
13
48
1
60
0
100
AcDbLine
10
37.7
20
31.306698
30
0
11
34.700001
21
30.911741
31
0
39
0
210
0
220
0
230
1
0
LINE
5
157
100
AcDbEntity
8
2
62
256
6
ByLayer
370
13
48
1
60
0
100
AcDbLine
10
37.7
20
31.306698
30
0
11
34.699999
21
31.701656
31
0
39
0
210
0
220
0
230
1
0
LINE
5
158
100
AcDbEntity
8
2
62
256
6
ByLayer
370
13
48
1
60
0
100
AcDbLine
10
34.700001
20
30.911741
30
0
11
34.699999
21
31.701656
31
0
39
0
210
0
220
0
230
1
0
LINE
5
159
100
AcDbEntity
8
2
62
256
6
ByLayer
370
13
48
1
60
0
100
AcDbLine
10
0
20
31.306698
30
0
11
2.999999
21
31.701656
31
0
39
0
210
0
220
0
230
1
0
LINE
5
15A
100
AcDbEntity
8
2
62
256
6
ByLayer
370
13
48
1
60
0
100
AcDbLine
10
0
20
31.306698
30
0
11
3.000001
21
30.911741
31
0
39
0
210
0
220
0
230
1
0
LINE
5
15B
100
AcDbEntity
8
2
62
256
6
ByLayer
370
13
48
1
60
0
100
AcDbLine
10
2.999999
20
31.701656
30
0
11
3.000001
21
30.911741
31
0
39
0
210
0
220
0
230
1
0
ENDBLK
5
15D
100
AcDbEntity
8
0
100
AcDbBlockEnd
0
BLOCK
5
16A
100
AcDbEntity
8
0
100
AcDbBlockBegin
2
DimnDraft3D5
70
0
10
0
20
0
30
0
3
DimnDraft3D5
0
MTEXT
5
160
100
AcDbEntity
8
SK2
62
256
6
ByLayer
370
18
48
1
60
0
100
AcDbMText
10
-40.657237
20
42.431698
30
0
210
0
220
0
230
1
1
\W0.6217;150
40
4.5
41
0
44
1.084337
50
0
71
7
72
5
7
iso_b_vert
0
LINE
5
161
100
AcDbEntity
8
SK2
62
256
6
ByLayer
370
13
48
1
60
0
100
AcDbLine
10
37.7
20
15.0625
30
0
11
37.7
21
44.306698
31
0
39
0
210
0
220
0
230
1
0
LINE
5
162
100
AcDbEntity
8
SK2
62
256
6
ByLayer
370
13
48
1
60
0
100
AcDbLine
10
-113.65
20
13.9375
30
0
11
-113.65
21
44.306698
31
0
39
0
210
0
220
0
230
1
0
LINE
5
163
100
AcDbEntity
8
SK2
62
256
6
ByLayer
370
13
48
1
60
0
100
AcDbLine
10
37.7
20
41.306698
30
0
11
-113.65
21
41.306698
31
0
39
0
210
0
220
0
230
1
0
LINE
5
164
100
AcDbEntity
8
SK2
62
256
6
ByLayer
370
13
48
1
60
0
100
AcDbLine
10
37.7
20
41.306698
30
0
11
34.700001
21
40.911741
31
0
39
0
210
0
220
0
230
1
0
LINE
5
165
100
AcDbEntity
8
SK2
62
256
6
ByLayer
370
13
48
1
60
0
100
AcDbLine
10
37.7
20
41.306698
30
0
11
34.699999
21
41.701656
31
0
39
0
210
0
220
0
230
1
0
LINE
5
166
100
AcDbEntity
8
SK2
62
256
6
ByLayer
370
13
48
1
60
0
100
AcDbLine
10
34.700001
20
40.911741
30
0
11
34.699999
21
41.701656
31
0
39
0
210
0
220
0
230
1
0
LINE
5
167
100
AcDbEntity
8
SK2
62
256
6
ByLayer
370
13
48
1
60
0
100
AcDbLine
10
-113.65
20
41.306698
30
0
11
-110.650001
21
41.701656
31
0
39
0
210
0
220
0
230
1
0
LINE
5
168
100
AcDbEntity
8
SK2
62
256
6
ByLayer
370
13
48
1
60
0
100
AcDbLine
10
-113.65
20
41.306698
30
0
11
-110.649999
21
40.911741
31
0
39
0
210
0
220
0
230
1
0
LINE
5
169
100
AcDbEntity
8
SK2
62
256
6
ByLayer
370
13
48
1
60
0
100
AcDbLine
10
-110.650001
20
41.701656
30
0
11
-110.649999
21
40.911741
31
0
39
0
210
0
220
0
230
1
0
ENDBLK
5
16B
100
AcDbEntity
8
0
100
AcDbBlockEnd
0
BLOCK
5
178
100
AcDbEntity
8
0
100
AcDbBlockBegin
2
DimnDraft3D6
70
0
10
0
20
0
30
0
3
DimnDraft3D6
0
MTEXT
5
16E
100
AcDbEntity
8
2
62
256
6
ByLayer
370
18
48
1
60
0
100
AcDbMText
10
43.325
20
-25.5625
30
0
210
0
220
0
230
1
1
\W0.7121;8.7
40
4.5
41
0
44
1.084337
50
0
71
7
72
5
7
iso_b_vert
0
LINE
5
16F
100
AcDbEntity
8
2
62
256
6
ByLayer
370
13
48
1
60
0
100
AcDbLine
10
29
20
8.0625
30
0
11
29
21
-29.6875
31
0
39
0
210
0
220
0
230
1
0
LINE
5
170
100
AcDbEntity
8
2
62
256
6
ByLayer
370
13
48
1
60
0
100
AcDbLine
10
37.7
20
9.0625
30
0
11
37.7
21
-29.6875
31
0
39
0
210
0
220
0
230
1
0
LINE
5
171
100
AcDbEntity
8
2
62
256
6
ByLayer
370
13
48
1
60
0
100
AcDbLine
10
29
20
-26.6875
30
0
11
49.4
21
-26.6875
31
0
39
0
210
0
220
0
230
1
0
LINE
5
172
100
AcDbEntity
8
2
62
256
6
ByLayer
370
13
48
1
60
0
100
AcDbLine
10
29
20
-26.6875
30
0
11
31.999999
21
-26.292543
31
0
39
0
210
0
220
0
230
1
0
LINE
5
173
100
AcDbEntity
8
2
62
256
6
ByLayer
370
13
48
1
60
0
100
AcDbLine
10
29
20
-26.6875
30
0
11
32.000001
21
-27.082457
31
0
39
0
210
0
220
0
230
1
0
LINE
5
174
100
AcDbEntity
8
2
62
256
6
ByLayer
370
13
48
1
60
0
100
AcDbLine
10
31.999999
20
-26.292543
30
0
11
32.000001
21
-27.082457
31
0
39
0
210
0
220
0
230
1
0
LINE
5
175
100
AcDbEntity
8
2
62
256
6
ByLayer
370
13
48
1
60
0
100
AcDbLine
10
37.7
20
-26.6875
30
0
11
34.700001
21
-27.082457
31
0
39
0
210
0
220
0
230
1
0
LINE
5
176
100
AcDbEntity
8
2
62
256
6
ByLayer
370
13
48
1
60
0
100
AcDbLine
10
37.7
20
-26.6875
30
0
11
34.699999
21
-26.292543
31
0
39
0
210
0
220
0
230
1
0
LINE
5
177
100
AcDbEntity
8
2
62
256
6
ByLayer
370
13
48
1
60
0
100
AcDbLine
10
34.700001
20
-27.082457
30
0
11
34.699999
21
-26.292543
31
0
39
0
210
0
220
0
230
1
0
ENDBLK
5
179
100
AcDbEntity
8
0
100
AcDbBlockEnd
0
BLOCK
5
186
100
AcDbEntity
8
0
100
AcDbBlockBegin
2
DimnDraft3D7
70
0
10
0
20
0
30
0
3
DimnDraft3D7
0
MTEXT
5
17C
100
AcDbEntity
8
2
62
256
6
ByLayer
370
18
48
1
60
0
100
AcDbMText
10
26.605921
20
-35.5625
30
0
210
0
220
0
230
1
1
\W0.6563;15.0
40
4.5
41
0
44
1.084337
50
0
71
7
72
5
7
iso_b_vert
0
LINE
5
17D
100
AcDbEntity
8
2
62
256
6
ByLayer
370
13
48
1
60
0
100
AcDbLine
10
22.7
20
-13.9375
30
0
11
22.7
21
-39.6875
31
0
39
0
210
0
220
0
230
1
0
LINE
5
17E
100
AcDbEntity
8
2
62
256
6
ByLayer
370
13
48
1
60
0
100
AcDbLine
10
37.7
20
9.0625
30
0
11
37.7
21
-39.6875
31
0
39
0
210
0
220
0
230
1
0
LINE
5
17F
100
AcDbEntity
8
2
62
256
6
ByLayer
370
13
48
1
60
0
100
AcDbLine
10
11.45
20
-36.6875
30
0
11
48.95
21
-36.6875
31
0
39
0
210
0
220
0
230
1
0
LINE
5
180
100
AcDbEntity
8
2
62
256
6
ByLayer
370
13
48
1
60
0
100
AcDbLine
10
22.7
20
-36.6875
30
0
11
19.700001
21
-37.082457
31
0
39
0
210
0
220
0
230
1
0
LINE
5
181
100
AcDbEntity
8
2
62
256
6
ByLayer
370
13
48
1
60
0
100
AcDbLine
10
22.7
20
-36.6875
30
0
11
19.699999
21
-36.292543
31
0
39
0
210
0
220
0
230
1
0
LINE
5
182
100
AcDbEntity
8
2
62
256
6
ByLayer
370
13
48
1
60
0
100
AcDbLine
10
19.700001
20
-37.082457
30
0
11
19.699999
21
-36.292543
31
0
39
0
210
0
220
0
230
1
0
LINE
5
183
100
AcDbEntity
8
2
62
256
6
ByLayer
370
13
48
1
60
0
100
AcDbLine
10
37.7
20
-36.6875
30
0
11
40.699999
21
-36.292543
31
0
39
0
210
0
220
0
230
1
0
LINE
5
184
100
AcDbEntity
8
2
62
256
6
ByLayer
370
13
48
1
60
0
100
AcDbLine
10
37.7
20
-36.6875
30
0
11
40.700001
21
-37.082457
31
0
39
0
210
0
220
0
230
1
0
LINE
5
185
100
AcDbEntity
8
2
62
256
6
ByLayer
370
13
48
1
60
0
100
AcDbLine
10
40.699999
20
-36.292543
30
0
11
40.700001
21
-37.082457
31
0
39
0
210
0
220
0
230
1
0
ENDBLK
5
187
100
AcDbEntity
8
0
100
AcDbBlockEnd
0
ENDSEC
0
SECTION
2
ENTITIES
0
ARC
5
B9
100
AcDbEntity
8
1
62
256
6
ByLayer
370
18
48
1
60
0
100
AcDbCircle
39
0
10
-22.8
20
7.1625
30
0
40
1.6
210
0
220
0
230
-1
100
AcDbArc
50
0
51
90
0
ARC
5
BA
100
AcDbEntity
8
1
62
256
6
ByLayer
370
18
48
1
60
0
100
AcDbCircle
39
0
10
-29
20
4.7625
30
0
40
6
210
0
220
0
230
-1
100
AcDbArc
50
41.810315
51
71.631009
0
ARC
5
BC
100
AcDbEntity
8
1
62
256
6
ByLayer
370
18
48
1
60
0
100
AcDbCircle
39
0
10
-17.429045
20
4.586885
30
0
40
1.13980641809794
210
0
220
0
230
-1
100
AcDbArc
50
342.227341
51
77.772659
0
ARC
5
BE
100
AcDbEntity
8
1
62
256
6
ByLayer
370
18
48
1
60
0
100
AcDbCircle
39
0
10
-14.7
20
3.01127
30
0
40
1.13980641809794
210
0
220
0
230
-1
100
AcDbArc
50
48.752695
51
131.247305
0
ARC
5
BF
100
AcDbEntity
8
1
62
256
6
ByLayer
370
18
48
1
60
0
100
AcDbCircle
39
0
10
-14.7
20
9.31373
30
0
40
1.13980641809794
210
0
220
0
230
-1
100
AcDbArc
50
222.227341
51
317.772659
0
ARC
5
C1
100
AcDbEntity
8
1
62
256
6
ByLayer
370
18
48
1
60
0
100
AcDbCircle
39
0
10
-15.846192
20
8.147763
30
0
40
0.501259405157916
210
0
220
0
230
-1
100
AcDbArc
50
52.925818
51
187.074182
0
ARC
5
C2
100
AcDbEntity
8
1
62
256
6
ByLayer
370
18
48
1
60
0
100
AcDbCircle
39
0
10
-13.553808
20
8.147763
30
0
40
0.501259405157916
210
0
220
0
230
-1
100
AcDbArc
50
352.925818
51
127.074182
0
ARC
5
C3
100
AcDbEntity
8
1
62
256
6
ByLayer
370
18
48
1
60
0
100
AcDbCircle
39
0
10
-15.846192
20
4.177237
30
0
40
0.501259405157916
210
0
220
0
230
-1
100
AcDbArc
50
172.925818
51
321.945783
0
ARC
5
C4
100
AcDbEntity
8
1
62
256
6
ByLayer
370
18
48
1
60
0
100
AcDbCircle
39
0
10
-11.970955
20
4.586885
30
0
40
1.13980641809794
210
0
220
0
230
-1
100
AcDbArc
50
108.752695
51
191.247305
0
ARC
5
C5
100
AcDbEntity
8
1
62
256
6
ByLayer
370
18
48
1
60
0
100
AcDbCircle
39
0
10
-16.992384
20
6.1625
30
0
40
0.501259405157916
210
0
220
0
230
-1
100
AcDbArc
50
98.054217
51
247.074182
0
ARC
5
C6
100
AcDbEntity
8
1
62
256
6
ByLayer
370
18
48
1
60
0
100
AcDbCircle
39
0
10
-11.970955
20
7.738115
30
0
40
1.13980641809794
210
0
220
0
230
-1
100
AcDbArc
50
162.227341
51
251.247305
0
ARC
5
C7
100
AcDbEntity
8
1
62
256
6
ByLayer
370
18
48
1
60
0
100
AcDbCircle
39
0
10
-12.407616
20
6.1625
30
0
40
0.501259405157916
210
0
220
0
230
-1
100
AcDbArc
50
278.054217
51
81.945783
0
ARC
5
C8
100
AcDbEntity
8
1
62
256
6
ByLayer
370
18
48
1
60
0
100
AcDbCircle
39
0
10
-17.429045
20
7.738115
30
0
40
1.13980641809794
210
0
220
0
230
-1
100
AcDbArc
50
288.752695
51
17.772659
0
ARC
5
C9
100
AcDbEntity
8
1
62
256
6
ByLayer
370
18
48
1
60
0
100
AcDbCircle
39
0
10
-13.553808
20
4.177237
30
0
40
0.501259405157916
210
0
220
0
230
-1
100
AcDbArc
50
218.054217
51
21.945783
0
CIRCLE
5
BB
100
AcDbEntity
8
1
62
256
6
ByLayer
370
18
48
1
60
0
100
AcDbCircle
10
-14.7
20
6.1625
30
0
40
5.5
39
0
210
0
220
0
230
-1
0
CIRCLE
5
BD
100
AcDbEntity
8
1
62
256
6
ByLayer
370
18
48
1
60
0
100
AcDbCircle
10
-14.7
20
6.1625
30
0
40
5.0038
39
0
210
0
220
0
230
-1
0
CIRCLE
5
C0
100
AcDbEntity
8
1
62
256
6
ByLayer
370
18
48
1
60
0
100
AcDbCircle
10
-14.7
20
6.1625
30
0
40
3.0330983114651
39
0
210
0
220
0
230
-1
0
CIRCLE
5
CA
100
AcDbEntity
8
1
62
256
6
ByLayer
370
18
48
1
60
0
100
AcDbCircle
10
14.7
20
6.1625
30
0
40
4.4958
39
0
210
0
220
0
230
1
0
ELLIPSE
5
CB
100
AcDbEntity
8
1
62
256
6
ByLayer
370
18
48
1
60
0
100
AcDbEllipse
10
33.922917
20
28.2625
30
0
11
-21.5650349017787
21
5.05248644257116E-14
31
0
210
0
220
0
230
1
40
0.700208
41
0.97288920965138
42
1.5160478362074
0
ELLIPSE
5
CC
100
AcDbEntity
8
1
62
256
6
ByLayer
370
18
48
1
60
0
100
AcDbEllipse
10
28.65
20
12.487038
30
0
11
2.53225186069585E-15
21
2.16163270804189
31
0
210
0
220
0
230
1
40
0.462613
41
-1.09465681524524
42
-0.992334306289601
0
ELLIPSE
5
CD
100
AcDbEntity
8
1
62
256
6
ByLayer
370
18
48
1
60
0
100
AcDbEllipse
10
33.922917
20
25.5625
30
0
11
-21.1365904992232
21
4.95210591709709E-14
31
0
210
0
220
0
230
1
40
0.700208
41
1.33572773968788
42
1.51320584174774
0
ELLIPSE
5
CE
100
AcDbEntity
8
1
62
256
6
ByLayer
370
18
48
1
60
0
100
AcDbEllipse
10
39.626056
20
25.5625
30
0
11
-8.03519722268312
21
-14.6108794568277
31
0
210
0
220
0
230
1
40
0.293513
41
0.178338893523285
42
0.217626228630166
0
ELLIPSE
5
CF
100
AcDbEntity
8
1
62
256
6
ByLayer
370
18
48
1
60
0
100
AcDbEllipse
10
32.659998
20
12.449768
30
0
11
-0.00891386088732426
21
-0.500092218116145
31
0
210
0
220
0
230
1
40
0.492682
41
1.99987847200844
42
2.04329111715029
0
ELLIPSE
5
D0
100
AcDbEntity
8
1
62
256
6
ByLayer
370
18
48
1
60
0
100
AcDbEllipse
10
32.659999
20
11.63294
30
0
11
-0.00891398081251212
21
-0.500091467018874
31
0
210
0
220
0
230
1
40
0.492682
41
1.1706268169966
42
1.21403951848622
0
ELLIPSE
5
D1
100
AcDbEntity
8
1
62
256
6
ByLayer
370
18
48
1
60
0
100
AcDbEllipse
10
53.171094
20
25.563509
30
0
11
-50.7019284953704
21
-6.74226341233476
31
0
210
0
220
0
230
1
40
0.259875
41
1.11156530211799
42
1.116134434882
0
ELLIPSE
5
D2
100
AcDbEntity
8
1
62
256
6
ByLayer
370
18
48
1
60
0
100
AcDbEllipse
10
41.58173
20
28.2625
30
0
11
1.76889454689684E-14
21
15.0999999999937
31
0
210
0
220
0
230
1
40
0.57735
41
2.03095784186069
42
2.56103528909722
0
ELLIPSE
5
D3
100
AcDbEntity
8
1
62
256
6
ByLayer
370
18
48
1
60
0
100
AcDbEllipse
10
33.922917
20
25.5625
30
0
11
-23.9928865162285
21
5.62130942025019E-14
31
0
210
0
220
0
230
1
40
0.700208
41
1.08875115220338
42
1.16845194621006
0
POINT
5
6C
100
AcDbEntity
8
2
62
256
6
ByLayer
370
18
48
1
60
0
100
AcDbPoint
10
37.7
20
13.5625
30
0
39
0
210
0
220
0
230
1
50
360
0
POINT
5
6E
100
AcDbEntity
8
80
62
256
6
ByLayer
370
18
48
1
60
0
100
AcDbPoint
10
0
20
0
30
0
39
0
210
0
220
0
230
1
50
360
0
POINT
5
70
100
AcDbEntity
8
81
62
256
6
ByLayer
370
18
48
1
60
0
100
AcDbPoint
10
37.7
20
13.5625
30
0
39
0
210
0
220
0
230
1
50
360
0
SPLINE
5
D4
100
AcDbEntity
8
1
62
256
6
ByLayer
370
18
48
1
60
0
100
AcDbSpline
70
4
71
3
72
12
73
8
40
0
40
0
40
0
40
0
40
0.380826305274119
40
0.380826305274119
40
0.820033284140439
40
0.820033284140439
40
1
40
1
40
1
40
1
41
1
10
21.2
20
9.24349267724901
30
0
41
1
10
21.2
20
9.44154750130281
30
0
41
1
10
21.2293725795584
20
9.64170682446496
30
0
41
1
10
21.3524728374248
20
10.0494961897818
30
0
41
1
10
21.4575131607748
20
10.2599497327323
30
0
41
1
10
21.6525925730527
20
10.5157915847229
30
0
41
1
10
21.7155255654897
20
10.5861962218397
30
0
41
1
10
21.7836586182121
20
10.6506971201479
30
0
0
SPLINE
5
D5
100
AcDbEntity
8
1
62
256
6
ByLayer
370
18
48
1
60
0
100
AcDbSpline
70
4
71
3
72
12
73
8
40
0
40
0
40
0
40
0
40
0.362933846618044
40
0.362933846618044
40
0.72526374518229
40
0.72526374518229
40
1
40
1
40
1
40
1
41
1
10
28.1
20
10.7036418057039
30
0
41
1
10
27.9582544867557
20
10.682110504939
30
0
41
1
10
27.8156305851599
20
10.6540457916081
30
0
41
1
10
27.5521138199015
20
10.5919647123387
30
0
41
1
10
27.427503594469
20
10.5572076268164
30
0
41
1
10
27.2367650433486
20
10.4990707452505
30
0
41
1
10
27.1620540947399
20
10.4745155316399
30
0
41
1
10
27.0981991831487
20
10.4531192013543
30
0
0
SPLINE
5
D6
100
AcDbEntity
8
1
62
256
6
ByLayer
370
18
48
1
60
0
100
AcDbSpline
70
4
71
3
72
8
73
4
40
0
40
0
40
0
40
0
40
1
40
1
40
1
40
1
41
1
10
28.9925640213729
20
10.7690935670016
30
0
41
1
10
28.9950423238802
20
10.7691025055385
30
0
41
1
10
28.9975209926841
20
10.7691097781827
30
0
41
1
10
29
20
10.7691153830361
30
0
0
SPLINE
5
D7
100
AcDbEntity
8
1
62
256
6
ByLayer
370
18
48
1
60
0
100
AcDbSpline
70
4
71
3
72
8
73
4
40
0
40
0
40
0
40
0
40
1
40
1
40
1
40
1
41
1
10
29.135
20
10.7692686451722
30
0
41
1
10
29.0899679360271
20
10.7692686451722
30
0
41
1
10
29.0449038366677
20
10.7692169073127
30
0
41
1
10
29
20
10.7691153830361
30
0
0
SPLINE
5
D8
100
AcDbEntity
8
1
62
256
6
ByLayer
370
18
48
1
60
0
100
AcDbSpline
70
4
71
3
72
8
73
4
40
0
40
0
40
0
40
0
40
1
40
1
40
1
40
1
41
1
10
28.56
20
10.7554339281566
30
0
41
1
10
28.4061141437394
20
10.7441046227214
30
0
41
1
10
28.2525519782673
20
10.7268146204984
30
0
41
1
10
28.1
20
10.7036418057039
30
0
0
SPLINE
5
D9
100
AcDbEntity
8
1
62
256
6
ByLayer
370
18
48
1
60
0
100
AcDbSpline
70
4
71
3
72
10
73
6
40
0
40
0
40
0
40
0
40
0.648210318747717
40
0.648210318747717
40
1
40
1
40
1
40
1
41
1
10
22.8
20
10.6768826909365
30
0
41
1
10
22.5872548507044
20
10.7548235278382
30
0
41
1
10
22.3583670404328
20
10.7931091978878
30
0
41
1
10
22.0162331760864
20
10.7485076587504
30
0
41
1
10
21.8949378429786
20
10.7116290820551
30
0
41
1
10
21.7836586182121
20
10.6506971201479
30
0
0
SPLINE
5
DA
100
AcDbEntity
8
1
62
256
6
ByLayer
370
18
48
1
60
0
100
AcDbSpline
70
4
71
3
72
10
73
6
40
0
40
0
40
0
40
0
40
0.596552846426133
40
0.596552846426133
40
1
40
1
40
1
40
1
41
1
10
30.8587385878978
20
10.7642485486627
30
0
41
1
10
30.7037825880496
20
10.7655600695227
30
0
41
1
10
30.5340077675891
20
10.7672129282642
30
0
41
1
10
30.2423612225891
20
10.7688799541382
30
0
41
1
10
30.1208716477765
20
10.7692686451722
30
0
41
1
10
30
20
10.7692686451722
30
0
0
SPLINE
5
DB
100
AcDbEntity
8
1
62
256
6
ByLayer
370
18
48
1
60
0
100
AcDbSpline
70
4
71
3
72
10
73
6
40
0
40
0
40
0
40
0
40
0.694525283715537
40
0.694525283715537
40
1
40
1
40
1
40
1
41
1
10
28.4
20
13.7962748789245
30
0
41
1
10
28.2909450717183
20
13.7962748789245
30
0
41
1
10
28.1803895455207
20
13.7907687516124
30
0
41
1
10
28.0323178669244
20
13.7759519289564
30
0
41
1
10
27.988024114998
20
13.7704512376963
30
0
41
1
10
27.9453272366234
20
13.7641333847655
30
0
0
SPLINE
5
DC
100
AcDbEntity
8
1
62
256
6
ByLayer
370
18
48
1
60
0
100
AcDbSpline
70
4
71
3
72
14
73
10
40
0
40
0
40
0
40
0
40
0.113730663146757
40
0.113730663146757
40
0.46558224667599
40
0.46558224667599
40
0.808497238266881
40
0.808497238266881
40
1
40
1
40
1
40
1
41
1
10
29.4873045099002
20
13.6688825834339
30
0
41
1
10
29.466974215929
20
13.6771185257052
30
0
41
1
10
29.4448524006386
20
13.6851795874314
30
0
41
1
10
29.3482349982273
20
13.7168974323884
30
0
41
1
10
29.2583522889906
20
13.7386573430166
30
0
41
1
10
29.0618997132502
20
13.7720375238251
30
0
41
1
10
28.9529729946937
20
13.7843306313712
30
0
41
1
10
28.778648835353
20
13.7944123740178
30
0
41
1
10
28.7141667565703
20
13.7962748789245
30
0
41
1
10
28.65
20
13.7962748789245
30
0
0
SPLINE
5
DD
100
AcDbEntity
8
1
62
256
6
ByLayer
370
18
48
1
60
0
100
AcDbSpline
70
4
71
3
72
8
73
4
40
0
40
0
40
0
40
0
40
1
40
1
40
1
40
1
41
1
10
28.9925640213738
20
10.7690935670014
30
0
41
1
10
28.8551073226609
20
10.7704384834853
30
0
41
1
10
28.70613000918
20
10.7661922366033
30
0
41
1
10
28.56
20
10.7554339281565
30
0
0
SPLINE
5
DE
100
AcDbEntity
8
1
62
256
6
ByLayer
370
18
48
1
60
0
100
AcDbSpline
70
4
71
2
72
6
73
3
40
0
40
0
40
0
40
1
40
1
40
1
41
0.500000125092313
10
32.2676259342996
20
10.7638957582865
30
0
41
0.499999874907687
10
31.5634291790851
20
10.7640622269112
30
0
41
0.500000125092313
10
30.8587385882725
20
10.7642485486626
30
0
0
SPLINE
5
DF
100
AcDbEntity
8
1
62
256
6
ByLayer
370
18
48
1
60
0
100
AcDbSpline
70
4
71
3
72
10
73
6
40
0
40
0
40
0
40
0
40
0.5
40
0.5
40
1
40
1
40
1
40
1
41
1
10
29
20
11.1695241385057
30
0
41
1
10
28.2253739131218
20
11.2994266567926
30
0
41
1
10
27.4520426240261
20
11.3155093807266
30
0
41
1
10
25.9092172628426
20
11.0103625032925
30
0
41
1
10
25.1573825831819
20
10.6813755513507
30
0
41
1
10
24.5278640450003
20
10.1040552825303
30
0
0
SPLINE
5
E0
100
AcDbEntity
8
1
62
256
6
ByLayer
370
18
48
1
60
0
100
AcDbSpline
70
4
71
5
72
12
73
6
40
0
40
0
40
0
40
0
40
0
40
0
40
1
40
1
40
1
40
1
40
1
40
1
41
1
10
32.995301943315
20
11.0503826602358
30
0
41
1
10
32.975432995027
20
11.0503826591285
30
0
41
1
10
32.955563848575
20
11.050439825363
30
0
41
1
10
32.936415511039
20
11.0505542033649
30
0
41
1
10
32.918706193297
20
11.050721503039
30
0
41
1
10
32.903004135212
20
11.0509339788946
30
0
0
SPLINE
5
E1
100
AcDbEntity
8
1
62
256
6
ByLayer
370
18
48
1
60
0
100
AcDbSpline
70
4
71
5
72
12
73
6
40
0
40
0
40
0
40
0
40
0
40
0
40
1
40
1
40
1
40
1
40
1
40
1
41
1
10
33.1159243625043
20
11.6343235015147
30
0
41
1
10
33.1245304829252
20
11.6020035559532
30
0
41
1
10
33.145998072348
20
11.5697429441256
30
0
41
1
10
33.1791511318913
20
11.542535239726
30
0
41
1
10
33.2183241688776
20
11.5250299434766
30
0
41
1
10
33.257470258893
20
11.5181611474785
30
0
0
SPLINE
5
E2
100
AcDbEntity
8
1
62
256
6
ByLayer
370
18
48
1
60
0
100
AcDbSpline
70
4
71
5
72
12
73
6
40
0
40
0
40
0
40
0
40
0
40
0
40
1
40
1
40
1
40
1
40
1
40
1
41
1
10
33.144608236661
20
11.2634195919685
30
0
41
1
10
33.1054679164946
20
11.2702884173858
30
0
41
1
10
33.0663128536089
20
11.287781951317
30
0
41
1
10
33.033155607553
20
11.3149861540297
30
0
41
1
10
33.011690943061
20
11.3472283449604
30
0
41
1
10
33.003072586834
20
11.3795434925947
30
0
0
SPLINE
5
E3
100
AcDbEntity
8
1
62
256
6
ByLayer
370
18
48
1
60
0
100
AcDbSpline
70
4
71
5
72
12
73
6
40
0
40
0
40
0
40
0
40
0
40
0
40
1
40
1
40
1
40
1
40
1
40
1
41
1
10
33.003068556809
20
11.3795302602801
30
0
41
1
10
33.000703879477
20
11.3724832814979
30
0
41
1
10
32.998017960404
20
11.3655092843184
30
0
41
1
10
32.995008839723
20
11.3586134673664
30
0
41
1
10
32.991676702845
20
11.3518000651578
30
0
41
1
10
32.988023911103
20
11.3450724229826
30
0
0
SPLINE
5
E4
100
AcDbEntity
8
1
62
256
6
ByLayer
370
18
48
1
60
0
100
AcDbSpline
70
4
71
5
72
12
73
6
40
0
40
0
40
0
40
0
40
0
40
0
40
1
40
1
40
1
40
1
40
1
40
1
41
1
10
33.14460824257
20
11.2634195383717
30
0
41
1
10
33.140860744939
20
11.2549619834257
30
0
41
1
10
33.1366481773674
20
11.2465763185464
30
0
41
1
10
33.1319674201208
20
11.2382765662591
30
0
41
1
10
33.1268173926973
20
11.2300782682172
30
0
41
1
10
33.1211997645859
20
11.2219977744572
30
0
0
SPLINE
5
E5
100
AcDbEntity
8
1
62
256
6
ByLayer
370
18
48
1
60
0
100
AcDbSpline
70
4
71
5
72
12
73
6
40
0
40
0
40
0
40
0
40
0
40
0
40
1
40
1
40
1
40
1
40
1
40
1
41
1
10
32.8976371916055
20
11.9894292144047
30
0
41
1
10
32.9046432908097
20
11.9941962423429
30
0
41
1
10
32.9110471897684
20
11.999007492992
30
0
41
1
10
32.9168255669652
20
12.0038469778225
30
0
41
1
10
32.9219593164246
20
12.0086983546132
30
0
41
1
10
32.926434283278
20
12.0135451905751
30
0
0
SPLINE
5
E6
100
AcDbEntity
8
1
62
256
6
ByLayer
370
18
48
1
60
0
100
AcDbSpline
70
4
71
11
72
24
73
12
40
0
40
0
40
0
40
0
40
0
40
0
40
0
40
0
40
0
40
0
40
0
40
0
40
1
40
1
40
1
40
1
40
1
40
1
40
1
40
1
40
1
40
1
40
1
40
1
41
1
10
35.07398463521
20
11.2219974373543
30
0
41
1
10
35.1034256203
20
11.2107191611916
30
0
41
1
10
35.1307107804
20
11.1982254807794
30
0
41
1
10
35.15559100055
20
11.184611827567
30
0
41
1
10
35.17783996401
20
11.1699864893958
30
0
41
1
10
35.19725754457
20
11.1544693115177
30
0
41
1
10
35.21367278077
20
11.1381901656805
30
0
41
1
10
35.22694635033
20
11.1212872192245
30
0
41
1
10
35.23697247513
20
11.1039050457945
30
0
41
1
10
35.24368020756
20
11.0861926262793
30
0
41
1
10
35.24703407381
20
11.0683012921613
30
0
41
1
10
35.24703407385
20
11.0503826636222
30
0
0
SPLINE
5
E7
100
AcDbEntity
8
1
62
256
6
ByLayer
370
18
48
1
60
0
100
AcDbSpline
70
4
71
2
72
8
73
5
40
0
40
0
40
0
40
0.5
40
0.5
40
1
40
1
40
1
41
1
10
34.1854850116198
20
11.6325922837788
30
0
41
1
10
34.1857679736567
20
11.5929743211332
30
0
41
1
10
34.2269909542428
20
11.5590679563269
30
0
41
1
10
34.2554783756433
20
11.5356367320761
30
0
41
1
10
34.3007847672299
20
11.5181953538142
30
0
0
SPLINE
5
E8
100
AcDbEntity
8
1
62
256
6
ByLayer
370
18
48
1
60
0
100
AcDbSpline
70
4
71
3
72
8
73
4
40
0
40
0
40
0
40
0
40
1
40
1
40
1
40
1
41
1
10
35.1726130680603
20
10.6554044831354
30
0
41
1
10
35.2000005702068
20
10.6395571500323
30
0
41
1
10
35.2312439799255
20
10.6304549267345
30
0
41
1
10
35.26285866792
20
10.6291129057621
30
0
0
SPLINE
5
E9
100
AcDbEntity
8
1
62
256
6
ByLayer
370
18
48
1
60
0
100
AcDbSpline
70
4
71
5
72
12
73
6
40
0
40
0
40
0
40
0
40
0
40
0
40
1
40
1
40
1
40
1
40
1
40
1
41
1
10
33.144608236661
20
12.8574607484412
30
0
41
1
10
33.1054679164946
20
12.8503001541765
30
0
41
1
10
33.0663128536089
20
12.8328214074869
30
0
41
1
10
33.033155607553
20
12.8059874372747
30
0
41
1
10
33.011690943061
20
12.7744073265338
30
0
41
1
10
33.003072586834
20
12.7429172148345
30
0
0
SPLINE
5
EA
100
AcDbEntity
8
1
62
256
6
ByLayer
370
18
48
1
60
0
100
AcDbSpline
70
4
71
5
72
12
73
6
40
0
40
0
40
0
40
0
40
0
40
0
40
1
40
1
40
1
40
1
40
1
40
1
41
1
10
33.1159243625043
20
12.4773146989426
30
0
41
1
10
33.1245304829252
20
12.5088093168695
30
0
41
1
10
33.145998072348
20
12.5404073541248
30
0
41
1
10
33.1791511318913
20
12.5672446708868
30
0
41
1
10
33.2183241688776
20
12.5847350664242
30
0
41
1
10
33.257470258893
20
12.5918957041039
30
0
0
SPLINE
5
EB
100
AcDbEntity
8
1
62
256
6
ByLayer
370
18
48
1
60
0
100
AcDbSpline
70
4
71
5
72
12
73
6
40
0
40
0
40
0
40
0
40
0
40
0
40
1
40
1
40
1
40
1
40
1
40
1
41
1
10
33.003068556809
20
12.7429308331018
30
0
41
1
10
33.000703879477
20
12.7502045846567
30
0
41
1
10
32.998017960404
20
12.7574041305851
30
0
41
1
10
32.995008839723
20
12.7645236270058
30
0
41
1
10
32.991676702845
20
12.771558181877
30
0
41
1
10
32.988023911103
20
12.7785037917481
30
0
0
SPLINE
5
EC
100
AcDbEntity
8
1
62
256
6
ByLayer
370
18
48
1
60
0
100
AcDbSpline
70
4
71
5
72
12
73
6
40
0
40
0
40
0
40
0
40
0
40
0
40
1
40
1
40
1
40
1
40
1
40
1
41
1
10
32.988008637976
20
12.778481197664
30
0
41
1
10
32.981691101165
20
12.7903780378584
30
0
41
1
10
32.974919858073
20
12.803094444358
30
0
41
1
10
32.96768290764
20
12.8163500177026
30
0
41
1
10
32.960171696246
20
12.8301041134796
30
0
41
1
10
32.952440133762
20
12.8440979682749
30
0
0
SPLINE
5
ED
100
AcDbEntity
8
1
62
256
6
ByLayer
370
18
48
1
60
0
100
AcDbSpline
70
4
71
5
72
12
73
6
40
0
40
0
40
0
40
0
40
0
40
0
40
1
40
1
40
1
40
1
40
1
40
1
41
1
10
32.952477299911
20
12.8445691531721
30
0
41
1
10
32.9413865199798
20
12.8485971715431
30
0
41
1
10
32.9294440245056
20
12.8524842410606
30
0
41
1
10
32.9167229037695
20
12.856232966547
30
0
41
1
10
32.9033080417164
20
12.8598476734774
30
0
41
1
10
32.889294768184
20
12.8633342485448
30
0
0
SPLINE
5
EE
100
AcDbEntity
8
1
62
256
6
ByLayer
370
18
48
1
60
0
100
AcDbSpline
70
4
71
5
72
12
73
6
40
0
40
0
40
0
40
0
40
0
40
0
40
1
40
1
40
1
40
1
40
1
40
1
41
1
10
32.8976370760565
20
12.1424280203053
30
0
41
1
10
32.904643206316
20
12.1372739110326
30
0
41
1
10
32.911047132588
20
12.1320630845605
30
0
41
1
10
32.9168255330976
20
12.1268128302511
30
0
41
1
10
32.9219593016638
20
12.1215408830865
30
0
41
1
10
32.926434283278
20
12.1162651438254
30
0
0
SPLINE
5
EF
100
AcDbEntity
8
1
62
256
6
ByLayer
370
18
48
1
60
0
100
AcDbSpline
70
4
71
5
72
12
73
6
40
0
40
0
40
0
40
0
40
0
40
0
40
1
40
1
40
1
40
1
40
1
40
1
41
1
10
32.8968600696763
20
12.0660432532402
30
0
41
1
10
32.9030975847691
20
12.0658559058217
30
0
41
1
10
32.9088589311741
20
12.0656637298634
30
0
41
1
10
32.9141278087311
20
12.065467218502
30
0
41
1
10
32.9188905380946
20
12.0652668929775
30
0
41
1
10
32.923136470683
20
12.0650632976233
30
0
0
SPLINE
5
F0
100
AcDbEntity
8
1
62
256
6
ByLayer
370
18
48
1
60
0
100
AcDbSpline
70
4
71
5
72
12
73
6
40
0
40
0
40
0
40
0
40
0
40
0
40
1
40
1
40
1
40
1
40
1
40
1
41
1
10
32.923136470682
20
12.0650643387892
30
0
41
1
10
32.923134969364
20
12.0755501828545
30
0
41
1
10
32.923470255954
20
12.086037820468
30
0
41
1
10
32.924136355618
20
12.0963302487477
30
0
41
1
10
32.925116951141
20
12.1063585015258
30
0
41
1
10
32.926436304464
20
12.1162627096527
30
0
0
SPLINE
5
F1
100
AcDbEntity
8
1
62
256
6
ByLayer
370
18
48
1
60
0
100
AcDbSpline
70
4
71
11
72
24
73
12
40
0
40
0
40
0
40
0
40
0
40
0
40
0
40
0
40
0
40
0
40
0
40
0
40
1
40
1
40
1
40
1
40
1
40
1
40
1
40
1
40
1
40
1
40
1
40
1
41
1
10
37.69999988733
20
13.2875418815163
30
0
41
1
10
37.69999988733
20
13.330375256912
30
0
41
1
10
37.69327061116
20
13.3732086292482
30
0
41
1
10
37.67981206049
20
13.4148677086221
30
0
41
1
10
37.65985484116
20
13.4541781759156
30
0
41
1
10
37.63386017336
20
13.4900174839638
30
0
41
1
10
37.60250633309
20
13.5213665492021
30
0
41
1
10
37.56666156589
20
13.5473572587781
30
0
41
1
10
37.52734510661
20
13.5673114377271
30
0
41
1
10
37.48567968697
20
13.5807679392845
30
0
41
1
10
37.44283978715
20
13.5874961900632
30
0
41
1
10
37.39999988733
20
13.5874961900632
30
0
0
SPLINE
5
F2
100
AcDbEntity
8
1
62
256
6
ByLayer
370
18
48
1
60
0
100
AcDbSpline
70
4
71
11
72
24
73
12
40
0
40
0
40
0
40
0
40
0
40
0
40
0
40
0
40
0
40
0
40
0
40
0
40
1
40
1
40
1
40
1
40
1
40
1
40
1
40
1
40
1
40
1
40
1
40
1
41
1
10
37.39999988733
20
13.5874961900632
30
0
41
1
10
37.3910749082
20
13.5874961900632
30
0
41
1
10
37.38214992908
20
13.5874572534244
30
0
41
1
10
37.37322513875
20
13.5873793801467
30
0
41
1
10
37.36430072601
20
13.5872625712699
30
0
41
1
10
37.35537687967
20
13.5871068288439
30
0
41
1
10
37.3464537885
20
13.586912155958
30
0
41
1
10
37.33753164126
20
13.5866785567317
30
0
41
1
10
37.32861062668
20
13.5864060363042
30
0
41
1
10
37.31969093348
20
13.5860946008746
30
0
41
1
10
37.3107727503
20
13.5857442576217
30
0
41
1
10
37.30185626577
20
13.5853550147943
30
0
0
SPLINE
5
F3
100
AcDbEntity
8
1
62
256
6
ByLayer
370
18
48
1
60
0
100
AcDbSpline
70
4
71
3
72
8
73
4
40
0
40
0
40
0
40
0
40
1
40
1
40
1
40
1
41
1
10
34.537996754622
20
13.1037121554
30
0
41
1
10
34.5144482321776
20
13.0901017493478
30
0
41
1
10
34.4882684173095
20
13.0811675104586
30
0
41
1
10
34.461361752507
20
13.0772873536306
30
0
0
SPLINE
5
F4
100
AcDbEntity
8
1
62
256
6
ByLayer
370
18
48
1
60
0
100
AcDbSpline
70
4
71
5
72
12
73
6
40
0
40
0
40
0
40
0
40
0
40
0
40
1
40
1
40
1
40
1
40
1
40
1
41
1
10
32.9447956917021
20
11.2455715031293
30
0
41
1
10
32.9347588733156
20
11.2492248561869
30
0
41
1
10
32.9241526434081
20
11.2528576445842
30
0
41
1
10
32.9130126914549
20
11.2564625721845
30
0
41
1
10
32.9013787277078
20
11.2600349972567
30
0
41
1
10
32.889294362364
20
11.2635779766697
30
0
0
SPLINE
5
F5
100
AcDbEntity
8
1
62
256
6
ByLayer
370
18
48
1
60
0
100
AcDbSpline
70
4
71
5
72
12
73
6
40
0
40
0
40
0
40
0
40
0
40
0
40
1
40
1
40
1
40
1
40
1
40
1
41
1
10
32.944799577582
20
11.2456104181471
30
0
41
1
10
32.930791490826
20
11.2103436593202
30
0
41
1
10
32.9180761788811
20
11.1725127012746
30
0
41
1
10
32.9080667656494
20
11.1329422278687
30
0
41
1
10
32.9030690116696
20
11.0921930220198
30
0
41
1
10
32.9029503818705
20
11.0509350315435
30
0
0
SPLINE
5
F6
100
AcDbEntity
8
1
62
256
6
ByLayer
370
18
48
1
60
0
100
AcDbSpline
70
4
71
5
72
12
73
6
40
0
40
0
40
0
40
0
40
0
40
0
40
1
40
1
40
1
40
1
40
1
40
1
41
1
10
32.995301943315
20
11.0503826342898
30
0
41
1
10
32.995250882146
20
11.0759430790097
30
0
41
1
10
33.003297498276
20
11.1016207247617
30
0
41
1
10
33.018334676767
20
11.1250104667569
30
0
41
1
10
33.035893052333
20
11.1468222053848
30
0
41
1
10
33.055080960055
20
11.1670070293149
30
0
0
SPLINE
5
F7
100
AcDbEntity
8
1
62
256
6
ByLayer
370
18
48
1
60
0
100
AcDbSpline
70
4
71
5
72
12
73
6
40
0
40
0
40
0
40
0
40
0
40
0
40
1
40
1
40
1
40
1
40
1
40
1
41
1
10
33.055080960055
20
11.1670070293149
30
0
41
1
10
33.029326919372
20
11.1775201311631
30
0
41
1
10
33.003570637966
20
11.191654533987
30
0
41
1
10
32.979755209001
20
11.208628591443
30
0
41
1
10
32.959792096428
20
11.2270799741603
30
0
41
1
10
32.944796787958
20
11.2456103728682
30
0
0
SPLINE
5
F8
100
AcDbEntity
8
1
62
256
6
ByLayer
370
18
48
1
60
0
100
AcDbSpline
70
4
71
5
72
38
73
32
40
0
40
0
40
0
40
0
40
0
40
0
40
0.0221475375781468
40
0.0221475375781468
40
0.0221475375781468
40
0.0535671069669454
40
0.0535671069669454
40
0.0535671069669454
40
0.104713989400951
40
0.104713989400951
40
0.104713989400951
40
0.196759232162136
40
0.196759232162136
40
0.196759232162136
40
0.330292230798065
40
0.330292230798065
40
0.460995814030154
40
0.460995814030154
40
0.460995814030154
40
0.608071346912534
40
0.608071346912534
40
0.608071346912534
40
0.790251889712737
40
0.790251889712737
40
0.790251889712737
40
0.909415419143965
40
0.909415419143965
40
0.909415419143965
40
1
40
1
40
1
40
1
40
1
40
1
41
1
10
33.0550900271486
20
11.1670025057863
30
0
41
1
10
33.0550362334862
20
11.1670534443495
30
0
41
1
10
33.0550834171253
20
11.1671185290385
30
0
41
1
10
33.0550921078346
20
11.1671235953689
30
0
41
1
10
33.0552677703205
20
11.1672067200009
30
0
41
1
10
33.0553836182085
20
11.1672720215289
30
0
41
1
10
33.0554429569132
20
11.1673599995538
30
0
41
1
10
33.0556169556205
20
11.1675262758333
30
0
41
1
10
33.0557906720854
20
11.1677006978768
30
0
41
1
10
33.0559028399383
20
11.1678018304403
30
0
41
1
10
33.0562123500661
20
11.1680932054791
30
0
41
1
10
33.0565179100447
20
11.1683857548769
30
0
41
1
10
33.056716087744
20
11.1685730996526
30
0
41
1
10
33.0572041896733
20
11.1690290142944
30
0
41
1
10
33.0576939478007
20
11.1694829257173
30
0
41
1
10
33.058270186983
20
11.1700124073507
30
0
41
1
10
33.058849796607
20
11.1705377064687
30
0
41
1
10
33.0594341379228
20
11.1710583249962
30
0
41
1
10
33.0600493018061
20
11.171604249042
30
0
41
1
10
33.0606695336266
20
11.1721449169517
30
0
41
1
10
33.0609987478545
20
11.172430138066
30
0
41
1
10
33.0617370625372
20
11.1730668731121
30
0
41
1
10
33.0624814858179
20
11.17369682974
30
0
41
1
10
33.062892588587
20
11.1740455499042
30
0
41
1
10
33.0635773315938
20
11.1746174417633
30
0
41
1
10
33.064264059999
20
11.1751863905425
30
0
41
1
10
33.0645355626366
20
11.1754109885061
30
0
41
1
10
33.0650170301333
20
11.175803553767
30
0
41
1
10
33.0655014666465
20
11.1761922399359
30
0
41
1
10
33.0657114417168
20
11.1763597944558
30
0
41
1
10
33.0659223262188
20
11.1765268083783
30
0
41
1
10
33.0661322902518
20
11.1766917223777
30
0
0
SPLINE
5
F9
100
AcDbEntity
8
1
62
256
6
ByLayer
370
18
48
1
60
0
100
AcDbSpline
70
4
71
5
72
12
73
6
40
0
40
0
40
0
40
0
40
0
40
0
40
1
40
1
40
1
40
1
40
1
40
1
41
1
10
33.0661326672516
20
11.176691589509
30
0
41
1
10
33.0382086649258
20
11.1908012914031
30
0
41
1
10
33.010279000036
20
11.2100670952883
30
0
41
1
10
32.9851301187892
20
11.2331090167701
30
0
41
1
10
32.9654704881524
20
11.2574451545744
30
0
41
1
10
32.9525528653357
20
11.2807552189501
30
0
0
SPLINE
5
FA
100
AcDbEntity
8
1
62
256
6
ByLayer
370
18
48
1
60
0
100
AcDbSpline
70
4
71
5
72
12
73
6
40
0
40
0
40
0
40
0
40
0
40
0
40
1
40
1
40
1
40
1
40
1
40
1
41
1
10
32.952502255347
20
11.2804222230979
30
0
41
1
10
32.951166365054
20
11.2732604713083
30
0
41
1
10
32.949342905477
20
11.2665296075008
30
0
41
1
10
32.947491585901
20
11.2594262330821
30
0
41
1
10
32.945333587746
20
11.2528732562555
30
0
41
1
10
32.944805703311
20
11.2456086959715
30
0
0
SPLINE
5
FB
100
AcDbEntity
8
1
62
256
6
ByLayer
370
18
48
1
60
0
100
AcDbSpline
70
4
71
9
72
20
73
10
40
0
40
0
40
0
40
0
40
0
40
0
40
0
40
0
40
0
40
0
40
1
40
1
40
1
40
1
40
1
40
1
40
1
40
1
40
1
40
1
41
1
10
33.115924361252
20
12.4773148075691
30
0
41
1
10
33.1229178850691
20
12.4769794674547
30
0
41
1
10
33.1328457831864
20
12.4766627669678
30
0
41
1
10
33.1455216521634
20
12.4763736441985
30
0
41
1
10
33.160654799373
20
12.4761203749912
30
0
41
1
10
33.1778595304038
20
12.4759101278944
30
0
41
1
10
33.1966721865408
20
12.4757485690117
30
0
41
1
10
33.2165748687358
20
12.4756395718606
30
0
41
1
10
33.237022564532
20
12.4755850732907
30
0
41
1
10
33.257470260264
20
12.4755850732907
30
0
0
SPLINE
5
FC
100
AcDbEntity
8
1
62
256
6
ByLayer
370
18
48
1
60
0
100
AcDbSpline
70
4
71
5
72
12
73
6
40
0
40
0
40
0
40
0
40
0
40
0
40
1
40
1
40
1
40
1
40
1
40
1
41
1
10
33.25747148696
20
12.4755864485466
30
0
41
1
10
33.257471386853
20
12.501871319777
30
0
41
1
10
33.257471188248
20
12.5282577399726
30
0
41
1
10
33.257470980229
20
12.553072291948
30
0
41
1
10
33.257470897318
20
12.5746475638599
30
0
41
1
10
33.257470008061
20
12.5918957112082
30
0
0
SPLINE
5
FD
100
AcDbEntity
8
1
62
256
6
ByLayer
370
18
48
1
60
0
100
AcDbSpline
70
4
71
5
72
12
73
6
40
0
40
0
40
0
40
0
40
0
40
0
40
1
40
1
40
1
40
1
40
1
40
1
41
1
10
33.14460824257
20
12.8574608057896
30
0
41
1
10
33.140860744939
20
12.8662777063136
30
0
41
1
10
33.1366481773674
20
12.8750196622972
30
0
41
1
10
33.1319674201208
20
12.8836720554247
30
0
41
1
10
33.1268173926973
20
12.892218683707
30
0
41
1
10
33.1211997645859
20
12.9006425024254
30
0
0
SPLINE
5
FE
100
AcDbEntity
8
1
62
256
6
ByLayer
370
18
48
1
60
0
100
AcDbSpline
70
4
71
5
72
12
73
6
40
0
40
0
40
0
40
0
40
0
40
0
40
1
40
1
40
1
40
1
40
1
40
1
41
1
10
33.1211998642341
20
12.9006423473218
30
0
41
1
10
33.085154681846
20
12.8902954615834
30
0
41
1
10
33.049098352383
20
12.8702714092843
30
0
41
1
10
33.01821379269
20
12.8419443496841
30
0
41
1
10
32.997442746516
20
12.8098469466214
30
0
41
1
10
32.988008808277
20
12.7784808456805
30
0
0
SPLINE
5
FF
100
AcDbEntity
8
1
62
256
6
ByLayer
370
18
48
1
60
0
100
AcDbSpline
70
4
71
5
72
12
73
6
40
0
40
0
40
0
40
0
40
0
40
0
40
1
40
1
40
1
40
1
40
1
40
1
41
1
10
32.944799577582
20
12.8796156814176
30
0
41
1
10
32.930791490826
20
12.9154078479684
30
0
41
1
10
32.9180761788811
20
12.953639432785
30
0
41
1
10
32.9080667656494
20
12.9934802149561
30
0
41
1
10
32.9030690116696
20
13.0343647667383
30
0
41
1
10
32.9029503818705
20
13.0756259571151
30
0
0
SPLINE
5
100
100
AcDbEntity
8
1
62
256
6
ByLayer
370
18
48
1
60
0
100
AcDbSpline
70
4
71
5
72
12
73
6
40
0
40
0
40
0
40
0
40
0
40
0
40
1
40
1
40
1
40
1
40
1
40
1
41
1
10
32.840418213988
20
12.8638331963966
30
0
41
1
10
32.8506354821845
20
12.8637474496517
30
0
41
1
10
32.8606534313659
20
12.8636544691037
30
0
41
1
10
32.8704497119415
20
12.8635544332126
30
0
41
1
10
32.8800028623849
20
12.8634475591937
30
0
41
1
10
32.889292636232
20
12.8633341066652
30
0
0
SPLINE
5
101
100
AcDbEntity
8
1
62
256
6
ByLayer
370
18
48
1
60
0
100
AcDbSpline
70
4
71
5
72
12
73
6
40
0
40
0
40
0
40
0
40
0
40
0
40
1
40
1
40
1
40
1
40
1
40
1
41
1
10
32.952502255347
20
12.8446283450571
30
0
41
1
10
32.951166365054
20
12.8517973015807
30
0
41
1
10
32.949342905477
20
12.8585665170665
30
0
41
1
10
32.947491585901
20
12.8657213356152
30
0
41
1
10
32.945333587746
20
12.8723334602184
30
0
41
1
10
32.944805703311
20
12.8796171671314
30
0
0
SPLINE
5
102
100
AcDbEntity
8
1
62
256
6
ByLayer
370
18
48
1
60
0
100
AcDbSpline
70
4
71
5
72
12
73
6
40
0
40
0
40
0
40
0
40
0
40
0
40
1
40
1
40
1
40
1
40
1
40
1
41
1
10
32.9447956917021
20
12.879654741566
30
0
41
1
10
32.9347588733156
20
12.8763779546733
30
0
41
1
10
32.9241526434081
20
12.8731033588745
30
0
41
1
10
32.9130126914549
20
12.8698368868115
30
0
41
1
10
32.9013787277078
20
12.8665819269885
30
0
41
1
10
32.889294362364
20
12.8633342889159
30
0
0
SPLINE
5
103
100
AcDbEntity
8
1
62
256
6
ByLayer
370
18
48
1
60
0
100
AcDbSpline
70
4
71
5
72
12
73
6
40
0
40
0
40
0
40
0
40
0
40
0
40
1
40
1
40
1
40
1
40
1
40
1
41
1
10
33.0661326672516
20
12.9474010062612
30
0
41
1
10
33.0382086649258
20
12.9329523948124
30
0
41
1
10
33.010279000036
20
12.9136056115098
30
0
41
1
10
32.9851301187892
20
12.8907758595663
30
0
41
1
10
32.9654704881524
20
12.8669221735996
30
0
41
1
10
32.9525528653357
20
12.844295574956
30
0
0
SPLINE
5
104
100
AcDbEntity
8
1
62
256
6
ByLayer
370
18
48
1
60
0
100
AcDbSpline
70
4
71
3
72
9
73
5
40
0
40
0
40
0
40
0
40
0.559307564775152
40
1
40
1
40
1
40
1
41
1
10
34.18548501162
20
12.4755864485466
30
0
41
1
10
34.1998419563197
20
12.5064587591818
30
0
41
1
10
34.225511097243
20
12.5616561364023
30
0
41
1
10
34.2777593551958
20
12.5826209895525
30
0
41
1
10
34.3007847672293
20
12.5918600417414
30
0
0
SPLINE
5
105
100
AcDbEntity
8
1
62
256
6
ByLayer
370
18
48
1
60
0
100
AcDbSpline
70
4
71
11
72
24
73
12
40
0
40
0
40
0
40
0
40
0
40
0
40
0
40
0
40
0
40
0
40
0
40
0
40
1
40
1
40
1
40
1
40
1
40
1
40
1
40
1
40
1
40
1
40
1
40
1
41
1
10
35.07398463521
20
12.9006428538516
30
0
41
1
10
35.1034256203
20
12.9124003227209
30
0
41
1
10
35.1307107804
20
12.9253381068095
30
0
41
1
10
35.15559100055
20
12.939356719978
30
0
41
1
10
35.17783996401
20
12.9543441907676
30
0
41
1
10
35.19725754457
20
12.9701774165958
30
0
41
1
10
35.21367278077
20
12.9867237430806
30
0
41
1
10
35.22694635033
20
13.0038427352192
30
0
41
1
10
35.23697247513
20
13.0213880976819
30
0
41
1
10
35.24368020756
20
13.0392096948095
30
0
41
1
10
35.24703407381
20
13.0571556177342
30
0
41
1
10
35.24703407385
20
13.0750742462739
30
0
0
SPLINE
5
106
100
AcDbEntity
8
1
62
256
6
ByLayer
370
18
48
1
60
0
100
AcDbSpline
70
4
71
3
72
9
73
5
40
0
40
0
40
0
40
0
40
0.49204792298188
40
1
40
1
40
1
40
1
41
1
10
32.995301943315
20
13.0750742462956
30
0
41
1
10
33.0000999241461
20
13.0523644671587
30
0
41
1
10
33.0098509679101
20
13.0062108750467
30
0
41
1
10
33.0398452845958
20
12.9737803294277
30
0
41
1
10
33.055080960055
20
12.9573071664218
30
0
0
SPLINE
5
107
100
AcDbEntity
8
1
62
256
6
ByLayer
370
18
48
1
60
0
100
AcDbSpline
70
4
71
5
72
38
73
32
40
0
40
0
40
0
40
0
40
0
40
0
40
0.0221475375781468
40
0.0221475375781468
40
0.0221475375781468
40
0.0535671069669454
40
0.0535671069669454
40
0.0535671069669454
40
0.104713989400951
40
0.104713989400951
40
0.104713989400951
40
0.196759232162136
40
0.196759232162136
40
0.196759232162136
40
0.330292230798065
40
0.330292230798065
40
0.460995814030154
40
0.460995814030154
40
0.460995814030154
40
0.608071346912534
40
0.608071346912534
40
0.608071346912534
40
0.790251889712737
40
0.790251889712737
40
0.790251889712737
40
0.909415419143965
40
0.909415419143965
40
0.909415419143965
40
1
40
1
40
1
40
1
40
1
40
1
41
1
10
33.0550900271486
20
12.9573099815825
30
0
41
1
10
33.0550362334862
20
12.9572579521406
30
0
41
1
10
33.0550834372847
20
12.9571914469165
30
0
41
1
10
33.0550920865103
20
12.9571863085205
30
0
41
1
10
33.0552677703205
20
12.9571013893691
30
0
41
1
10
33.0553836182085
20
12.9570346851053
30
0
41
1
10
33.0554429569132
20
12.9569448165393
30
0
41
1
10
33.0556169556205
20
12.9567749617929
30
0
41
1
10
33.0557906720854
20
12.9565967772183
30
0
41
1
10
33.0559028399383
20
12.9564934590754
30
0
41
1
10
33.0562123500661
20
12.9561957787658
30
0
41
1
10
33.0565179100447
20
12.9558968707052
30
0
41
1
10
33.056716087744
20
12.9557054426205
30
0
41
1
10
33.0572041896733
20
12.9552395633294
30
0
41
1
10
33.0576939478007
20
12.9547756636287
30
0
41
1
10
33.058270186983
20
12.9542344847158
30
0
41
1
10
33.058849796607
20
12.9536974887691
30
0
41
1
10
33.0594341379228
20
12.9531651880278
30
0
41
1
10
33.0600493018061
20
12.9526069671858
30
0
41
1
10
33.0606695336266
20
12.9520540223994
30
0
41
1
10
33.0609987478545
20
12.9517622975407
30
0
41
1
10
33.0617370625372
20
12.9511109817131
30
0
41
1
10
33.0624814858179
20
12.9504664640092
30
0
41
1
10
33.062892588587
20
12.9501096417732
30
0
41
1
10
33.0635773315938
20
12.9495243943811
30
0
41
1
10
33.064264059999
20
12.9489420469109
30
0
41
1
10
33.0645355626366
20
12.9487121419561
30
0
41
1
10
33.0650170301333
20
12.9483102702221
30
0
41
1
10
33.0655014666465
20
12.9479123164363
30
0
41
1
10
33.0657114417168
20
12.9477407569787
30
0
41
1
10
33.0659223262188
20
12.9475697410647
30
0
41
1
10
33.0661322902518
20
12.9474008658695
30
0
0
SPLINE
5
108
100
AcDbEntity
8
1
62
256
6
ByLayer
370
18
48
1
60
0
100
AcDbSpline
70
4
71
5
72
12
73
6
40
0
40
0
40
0
40
0
40
0
40
0
40
1
40
1
40
1
40
1
40
1
40
1
41
1
10
33.0661326672516
20
12.9474010062612
30
0
41
1
10
33.0780713376305
20
12.9377118121115
30
0
41
1
10
33.0896850826996
20
12.9281027228652
30
0
41
1
10
33.1008360249107
20
12.9186528974676
30
0
41
1
10
33.1113850343538
20
12.9094732909431
30
0
41
1
10
33.1211997576958
20
12.9006424422973
30
0
0
SPLINE
5
109
100
AcDbEntity
8
1
62
256
6
ByLayer
370
18
48
1
60
0
100
AcDbSpline
70
4
71
11
72
24
73
12
40
0
40
0
40
0
40
0
40
0
40
0
40
0
40
0
40
0
40
0
40
0
40
0
40
1
40
1
40
1
40
1
40
1
40
1
40
1
40
1
40
1
40
1
40
1
40
1
41
1
10
37.39999988733
20
10.5379607198362
30
0
41
1
10
37.3910749082
20
10.5379607198362
30
0
41
1
10
37.38214992908
20
10.5379996564751
30
0
41
1
10
37.37322513875
20
10.5380775297528
30
0
41
1
10
37.36430072601
20
10.5381943386296
30
0
41
1
10
37.35537687967
20
10.5383500810556
30
0
41
1
10
37.3464537885
20
10.5385447539415
30
0
41
1
10
37.33753164126
20
10.5387783531677
30
0
41
1
10
37.32861062668
20
10.5390508735952
30
0
41
1
10
37.31969093348
20
10.5393623090249
30
0
41
1
10
37.3107727503
20
10.5397126522778
30
0
41
1
10
37.30185626577
20
10.5401018951052
30
0
0
SPLINE
5
10A
100
AcDbEntity
8
1
62
256
6
ByLayer
370
18
48
1
60
0
100
AcDbSpline
70
4
71
11
72
24
73
12
40
0
40
0
40
0
40
0
40
0
40
0
40
0
40
0
40
0
40
0
40
0
40
0
40
1
40
1
40
1
40
1
40
1
40
1
40
1
40
1
40
1
40
1
40
1
40
1
41
1
10
37.69999988733
20
10.8379150283832
30
0
41
1
10
37.69999988733
20
10.7950816529875
30
0
41
1
10
37.69327061116
20
10.7522482806513
30
0
41
1
10
37.67981206049
20
10.7105892012773
30
0
41
1
10
37.65985484116
20
10.6712787339839
30
0
41
1
10
37.63386017336
20
10.6354394259356
30
0
41
1
10
37.60250633309
20
10.6040903606974
30
0
41
1
10
37.56666156589
20
10.5780996511214
30
0
41
1
10
37.52734510661
20
10.5581454721724
30
0
41
1
10
37.48567968697
20
10.544688970615
30
0
41
1
10
37.44283978715
20
10.5379607198362
30
0
41
1
10
37.39999988733
20
10.5379607198362
30
0
0
SPLINE
5
10B
100
AcDbEntity
8
1
62
256
6
ByLayer
370
18
48
1
60
0
100
AcDbSpline
70
4
71
3
72
8
73
4
40
0
40
0
40
0
40
0
40
1
40
1
40
1
40
1
41
1
10
32.7968470391377
20
11.051912082915
30
0
41
1
10
32.8350851377555
20
11.0516946018004
30
0
41
1
10
32.8712158801168
20
11.0513641204609
30
0
41
1
10
32.9030022692496
20
11.050934000998
30
0
0
SPLINE
5
10C
100
AcDbEntity
8
1
62
256
6
ByLayer
370
18
48
1
60
0
100
AcDbSpline
70
4
71
5
72
12
73
6
40
0
40
0
40
0
40
0
40
0
40
0
40
1
40
1
40
1
40
1
40
1
40
1
41
1
10
32.952477299911
20
11.2804828397952
30
0
41
1
10
32.9413865199798
20
11.2768824598882
30
0
41
1
10
32.9294440245056
20
11.2733976265681
30
0
41
1
10
32.9167229037695
20
11.2700231338586
30
0
41
1
10
32.9033080417164
20
11.2667524305652
30
0
41
1
10
32.889294768184
20
11.2635779362946
30
0
0
SPLINE
5
10D
100
AcDbEntity
8
1
62
256
6
ByLayer
370
18
48
1
60
0
100
AcDbSpline
70
4
71
5
72
12
73
6
40
0
40
0
40
0
40
0
40
0
40
0
40
1
40
1
40
1
40
1
40
1
40
1
41
1
10
32.988008637976
20
11.3450961156577
30
0
41
1
10
32.981691101165
20
11.3335765084717
30
0
41
1
10
32.974919858073
20
11.3211909844154
30
0
41
1
10
32.96768290764
20
11.3082307807759
30
0
41
1
10
32.960171696246
20
11.2947316779193
30
0
41
1
10
32.952440133762
20
11.2809588046621
30
0
0
SPLINE
5
10E
100
AcDbEntity
8
1
62
256
6
ByLayer
370
18
48
1
60
0
100
AcDbSpline
70
4
71
5
72
12
73
6
40
0
40
0
40
0
40
0
40
0
40
0
40
1
40
1
40
1
40
1
40
1
40
1
41
1
10
33.0661326672516
20
11.176691589509
30
0
41
1
10
33.0780713376305
20
11.1861535058401
30
0
41
1
10
33.0896850826996
20
11.1955062125065
30
0
41
1
10
33.1008360249107
20
11.2046683265786
30
0
41
1
10
33.1113850343538
20
11.2135268015524
30
0
41
1
10
33.1211997576958
20
11.221997839948
30
0
0
SPLINE
5
10F
100
AcDbEntity
8
1
62
256
6
ByLayer
370
18
48
1
60
0
100
AcDbSpline
70
4
71
5
72
12
73
6
40
0
40
0
40
0
40
0
40
0
40
0
40
1
40
1
40
1
40
1
40
1
40
1
41
1
10
33.1211998642341
20
11.2219979232393
30
0
41
1
10
33.085154681846
20
11.2319231608401
30
0
41
1
10
33.049098352383
20
11.2518130347507
30
0
41
1
10
33.01821379269
20
11.2803573735536
30
0
41
1
10
32.997442746516
20
11.3129887504144
30
0
41
1
10
32.988008808277
20
11.3450964567747
30
0
0
SPLINE
5
110
100
AcDbEntity
8
1
62
256
6
ByLayer
370
18
48
1
60
0
100
AcDbSpline
70
4
71
5
72
12
73
6
40
0
40
0
40
0
40
0
40
0
40
0
40
1
40
1
40
1
40
1
40
1
40
1
41
1
10
33.25747148696
20
11.6325922837788
30
0
41
1
10
33.257471386853
20
11.606307427239
30
0
41
1
10
33.257471188248
20
11.5801211358249
30
0
41
1
10
33.257470980229
20
11.5557072877661
30
0
41
1
10
33.257470897318
20
11.5347063651904
30
0
41
1
10
33.257470008061
20
11.5181611370475
30
0
0
SPLINE
5
111
100
AcDbEntity
8
1
62
256
6
ByLayer
370
18
48
1
60
0
100
AcDbSpline
70
4
71
3
72
8
73
4
40
0
40
0
40
0
40
0
40
1
40
1
40
1
40
1
41
1
10
34.43036929816
20
11.0503826636039
30
0
41
1
10
34.44075298653
20
11.0503826636039
30
0
41
1
10
34.4511366749
20
11.0503826636039
30
0
41
1
10
34.46152036327
20
11.0503826636039
30
0
0
SPLINE
5
112
100
AcDbEntity
8
1
62
256
6
ByLayer
370
18
48
1
60
0
100
AcDbSpline
70
4
71
3
72
8
73
4
40
0
40
0
40
0
40
0
40
1
40
1
40
1
40
1
41
1
10
34.537996754622
20
11.0217447544994
30
0
41
1
10
34.5144482321776
20
11.0353551605517
30
0
41
1
10
34.4882684173095
20
11.0442893994409
30
0
41
1
10
34.461361752507
20
11.0481695562689
30
0
0
SPLINE
5
113
100
AcDbEntity
8
1
62
256
6
ByLayer
370
18
48
1
60
0
100
AcDbSpline
70
4
71
3
72
8
73
4
40
0
40
0
40
0
40
0
40
1
40
1
40
1
40
1
41
1
10
35.1726130680603
20
13.4700524267641
30
0
41
1
10
35.2000005702068
20
13.4858997598672
30
0
41
1
10
35.2312439799255
20
13.495001983165
30
0
41
1
10
35.26285866792
20
13.4963440041374
30
0
0
SPLINE
5
114
100
AcDbEntity
8
1
62
256
6
ByLayer
370
18
48
1
60
0
100
AcDbSpline
70
4
71
2
72
6
73
3
40
0
40
0
40
0
40
1
40
1
40
1
41
1
10
32.7873452672636
20
13.076664227769
30
0
41
1
10
32.8491837094089
20
13.076349380285
30
0
41
1
10
32.903002269364
20
13.0756255836836
30
0
0
SPLINE
5
115
100
AcDbEntity
8
1
62
256
6
ByLayer
370
18
48
1
60
0
100
AcDbSpline
70
4
71
5
72
12
73
6
40
0
40
0
40
0
40
0
40
0
40
0
40
1
40
1
40
1
40
1
40
1
40
1
41
1
10
32.995301943315
20
13.0750742429075
30
0
41
1
10
32.975432995027
20
13.0750742418002
30
0
41
1
10
32.955563848575
20
13.0751314080347
30
0
41
1
10
32.936415511039
20
13.0752457860366
30
0
41
1
10
32.918706193297
20
13.0754130857107
30
0
41
1
10
32.903004135212
20
13.0756255615663
30
0
0
SPLINE
5
116
100
AcDbEntity
8
1
62
256
6
ByLayer
370
18
48
1
60
0
100
AcDbSpline
70
4
71
5
72
12
73
6
40
0
40
0
40
0
40
0
40
0
40
0
40
1
40
1
40
1
40
1
40
1
40
1
41
1
10
33.055080960055
20
12.9573054978412
30
0
41
1
10
33.029326919372
20
12.9465672844227
30
0
41
1
10
33.003570637966
20
12.9324101398946
30
0
41
1
10
32.979755209001
20
12.9156333436341
30
0
41
1
10
32.959792096428
20
12.897583394064
30
0
41
1
10
32.944796787958
20
12.8796156361388
30
0
0
SPLINE
5
117
100
AcDbEntity
8
1
62
256
6
ByLayer
370
18
48
1
60
0
100
AcDbSpline
70
4
71
3
72
8
73
4
40
0
40
0
40
0
40
0
40
1
40
1
40
1
40
1
41
1
10
34.430369298142
20
13.0750742296601
30
0
41
1
10
34.4406831369307
20
13.0750636509898
30
0
41
1
10
34.4509968854273
20
13.0757999976545
30
0
41
1
10
34.4612068134552
20
13.0772626855832
30
0
0
SPLINE
5
118
100
AcDbEntity
8
1
62
256
6
ByLayer
370
18
48
1
60
0
100
AcDbSpline
70
4
71
5
72
12
73
6
40
0
40
0
40
0
40
0
40
0
40
0
40
1
40
1
40
1
40
1
40
1
40
1
41
1
10
32.84620700906
20
11.2640283375891
30
0
41
1
10
32.8551793317409
20
11.2639492238064
30
0
41
1
10
32.8639891624234
20
11.2638644995844
30
0
41
1
10
32.8726210912989
20
11.2637743041437
30
0
41
1
10
32.881060279185
20
11.2636787922124
30
0
41
1
10
32.889292636232
20
11.2635781318216
30
0
0
SPLINE
5
119
100
AcDbEntity
8
1
62
256
6
ByLayer
370
18
48
1
60
0
100
AcDbSpline
70
4
71
9
72
20
73
10
40
0
40
0
40
0
40
0
40
0
40
0
40
0
40
0
40
0
40
0
40
1
40
1
40
1
40
1
40
1
40
1
40
1
40
1
40
1
40
1
41
1
10
33.115924361252
20
11.6343233933123
30
0
41
1
10
33.1229178850691
20
11.6339880531978
30
0
41
1
10
33.1328457831864
20
11.633671352711
30
0
41
1
10
33.1455216521634
20
11.6333822299417
30
0
41
1
10
33.160654799373
20
11.6331289607344
30
0
41
1
10
33.1778595304038
20
11.6329187136375
30
0
41
1
10
33.1966721865408
20
11.6327571547548
30
0
41
1
10
33.2165748687358
20
11.6326481576038
30
0
41
1
10
33.237022564532
20
11.6325936590339
30
0
41
1
10
33.257470260264
20
11.6325936590339
30
0
0
SPLINE
5
11A
100
AcDbEntity
8
1
62
256
6
ByLayer
370
18
48
1
60
0
100
AcDbSpline
70
4
71
5
72
12
73
6
40
0
40
0
40
0
40
0
40
0
40
0
40
1
40
1
40
1
40
1
40
1
40
1
41
1
10
32.923136470682
20
12.0650622564574
30
0
41
1
10
32.923134969364
20
12.0545765563688
30
0
41
1
10
32.923470255954
20
12.0440567647093
30
0
41
1
10
32.924136355618
20
12.0337004573485
30
0
41
1
10
32.925116951141
20
12.0235781652781
30
0
41
1
10
32.926436304464
20
12.0135474309232
30
0
0
LINE
5
72
100
AcDbEntity
8
80
62
256
6
ByLayer
370
18
48
1
60
0
100
AcDbLine
10
0
20
0
30
0
11
-5
21
0
31
0
39
0
210
0
220
0
230
1
0
LINE
5
73
100
AcDbEntity
8
1
62
256
6
ByLayer
370
18
48
1
60
0
100
AcDbLine
10
22.8
20
8.7625
30
0
11
24.527864
21
8.7625
31
0
39
0
210
0
220
0
230
1
0
LINE
5
75
100
AcDbEntity
8
81
62
256
6
ByLayer
370
18
48
1
60
0
100
AcDbLine
10
37.7
20
13.5625
30
0
11
42.7
21
13.5625
31
0
39
0
210
0
220
0
230
1
0
LINE
5
76
100
AcDbEntity
8
1
62
256
6
ByLayer
370
18
48
1
60
0
100
AcDbLine
10
9.067916
20
-12.475134
30
0
11
21.2
21
0.6625
31
0
39
0
210
0
220
0
230
1
0
LINE
5
77
100
AcDbEntity
8
1
62
256
6
ByLayer
370
18
48
1
60
0
100
AcDbLine
10
28.65
20
13.796275
30
0
11
28.4
21
13.796275
31
0
39
0
210
0
220
0
230
1
0
LINE
5
78
100
AcDbEntity
8
1
62
256
6
ByLayer
370
18
48
1
60
0
100
AcDbLine
10
2.677087
20
12.4375
30
0
11
2.677087
21
-12.475134
31
0
39
0
210
0
220
0
230
1
0
LINE
5
79
100
AcDbEntity
8
1
62
256
6
ByLayer
370
18
48
1
60
0
100
AcDbLine
10
36.8
20
13.668883
30
0
11
36.8
21
15.636528
31
0
39
0
210
0
220
0
230
1
0
LINE
5
7A
100
AcDbEntity
8
1
62
256
6
ByLayer
370
18
48
1
60
0
100
AcDbLine
10
11
20
12.4375
30
0
11
2.677087
21
12.4375
31
0
39
0
210
0
220
0
230
1
0
LINE
5
7B
100
AcDbEntity
8
1
62
256
6
ByLayer
370
18
48
1
60
0
100
AcDbLine
10
12.262212
20
15.782115
30
0
11
11.5
21
12.9375
31
0
39
0
210
0
220
0
230
1
0
LINE
5
7C
100
AcDbEntity
8
1
62
256
6
ByLayer
370
18
48
1
60
0
100
AcDbLine
10
0.5
20
-12.439682
30
0
11
2.677087
21
-12.475134
31
0
39
0
210
0
220
0
230
1
0
LINE
5
7D
100
AcDbEntity
8
1
62
256
6
ByLayer
370
18
48
1
60
0
100
AcDbLine
10
29.487305
20
13.668883
30
0
11
36.8
21
13.668883
31
0
39
0
210
0
220
0
230
1
0
LINE
5
7E
100
AcDbEntity
8
1
62
256
6
ByLayer
370
18
48
1
60
0
100
AcDbLine
10
30
20
10.769269
30
0
11
29.135
21
10.769269
31
0
39
0
210
0
220
0
230
1
0
LINE
5
7F
100
AcDbEntity
8
1
62
256
6
ByLayer
370
18
48
1
60
0
100
AcDbLine
10
0
20
12.4375
30
0
11
0
21
-12.4375
31
0
39
0
210
0
220
0
230
1
0
LINE
5
80
100
AcDbEntity
8
1
62
256
6
ByLayer
370
18
48
1
60
0
100
AcDbLine
10
22.8
20
8.7625
30
0
11
22.8
21
10.676883
31
0
39
0
210
0
220
0
230
1
0
LINE
5
81
100
AcDbEntity
8
1
62
256
6
ByLayer
370
18
48
1
60
0
100
AcDbLine
10
21.2
20
9.243493
30
0
11
21.2
21
0.6625
31
0
39
0
210
0
220
0
230
1
0
LINE
5
82
100
AcDbEntity
8
1
62
256
6
ByLayer
370
18
48
1
60
0
100
AcDbLine
10
21.783659
20
15.782115
30
0
11
12.262212
21
15.782115
31
0
39
0
210
0
220
0
230
1
0
LINE
5
83
100
AcDbEntity
8
1
62
256
6
ByLayer
370
18
48
1
60
0
100
AcDbLine
10
36.8
20
13.563435
30
0
11
36.8
21
13.668883
31
0
39
0
210
0
220
0
230
1
0
LINE
5
84
100
AcDbEntity
8
1
62
256
6
ByLayer
370
18
48
1
60
0
100
AcDbLine
10
2.677087
20
-12.475134
30
0
11
9.067916
21
-12.475134
31
0
39
0
210
0
220
0
230
1
0
LINE
5
85
100
AcDbEntity
8
1
62
256
6
ByLayer
370
18
48
1
60
0
100
AcDbLine
10
12.262217
20
15.782133
30
0
11
13.809507
21
21.556698
31
0
39
0
210
0
220
0
230
1
0
LINE
5
86
100
AcDbEntity
8
1
62
256
6
ByLayer
370
18
48
1
60
0
100
AcDbLine
10
32.779016
20
10.974166
30
0
11
32.883447
21
11.434072
31
0
39
0
210
0
220
0
230
1
0
LINE
5
87
100
AcDbEntity
8
1
62
256
6
ByLayer
370
18
48
1
60
0
100
AcDbLine
10
21.783659
20
10.650697
30
0
11
21.783659
21
15.782115
31
0
39
0
210
0
220
0
230
1
0
LINE
5
88
100
AcDbEntity
8
1
62
256
6
ByLayer
370
18
48
1
60
0
100
AcDbLine
10
24.527864
20
8.7625
30
0
11
24.527864
21
10.104055
31
0
39
0
210
0
220
0
230
1
0
LINE
5
89
100
AcDbEntity
8
1
62
256
6
ByLayer
370
18
48
1
60
0
100
AcDbLine
10
28.4
20
13.796275
30
0
11
28.4
21
13.666097
31
0
39
0
210
0
220
0
230
1
0
LINE
5
8A
100
AcDbEntity
8
1
62
256
6
ByLayer
370
18
48
1
60
0
100
AcDbLine
10
32.706323
20
10.787037
30
0
11
32.779016
21
10.974166
31
0
39
0
210
0
220
0
230
1
0
LINE
5
8B
100
AcDbEntity
8
1
62
256
6
ByLayer
370
18
48
1
60
0
100
AcDbLine
10
0.5
20
12.4375
30
0
11
0.5
21
-12.439682
31
0
39
0
210
0
220
0
230
1
0
LINE
5
8C
100
AcDbEntity
8
1
62
256
6
ByLayer
370
18
48
1
60
0
100
AcDbLine
10
29
20
10.769115
30
0
11
29
21
11.169524
31
0
39
0
210
0
220
0
230
1
0
LINE
5
8D
100
AcDbEntity
8
1
62
256
6
ByLayer
370
18
48
1
60
0
100
AcDbLine
10
0.5
20
-12.439682
30
0
11
0
21
-12.4375
31
0
39
0
210
0
220
0
230
1
0
LINE
5
8E
100
AcDbEntity
8
1
62
256
6
ByLayer
370
18
48
1
60
0
100
AcDbLine
10
32.793675
20
13.058831
30
0
11
32.883447
21
12.673454
31
0
39
0
210
0
220
0
230
1
0
LINE
5
8F
100
AcDbEntity
8
1
62
256
6
ByLayer
370
18
48
1
60
0
100
AcDbLine
10
32.779016
20
10.974166
30
0
11
32.793675
21
13.058831
31
0
39
0
210
0
220
0
230
1
0
LINE
5
90
100
AcDbEntity
8
1
62
256
6
ByLayer
370
18
48
1
60
0
100
AcDbLine
10
13.809507
20
21.556698
30
0
11
33.77058
21
21.556698
31
0
39
0
210
0
220
0
230
1
0
LINE
5
91
100
AcDbEntity
8
1
62
256
6
ByLayer
370
18
48
1
60
0
100
AcDbLine
10
2.677087
20
12.4375
30
0
11
0.5
21
12.4375
31
0
39
0
210
0
220
0
230
1
0
LINE
5
92
100
AcDbEntity
8
1
62
256
6
ByLayer
370
18
48
1
60
0
100
AcDbLine
10
0
20
12.4375
30
0
11
0.5
21
12.4375
31
0
39
0
210
0
220
0
230
1
0
LINE
5
93
100
AcDbEntity
8
1
62
256
6
ByLayer
370
18
48
1
60
0
100
AcDbLine
10
11
20
12.4375
30
0
11
11.5
21
12.9375
31
0
39
0
210
0
220
0
230
1
0
LINE
5
94
100
AcDbEntity
8
1
62
256
6
ByLayer
370
18
48
1
60
0
100
AcDbLine
10
28.65
20
13.796275
30
0
11
28.65
21
13.62083
31
0
39
0
210
0
220
0
230
1
0
LINE
5
95
100
AcDbEntity
8
1
62
256
6
ByLayer
370
18
48
1
60
0
100
AcDbLine
10
32.742853
20
13.185125
30
0
11
32.793675
21
13.058831
31
0
39
0
210
0
220
0
230
1
0
LINE
5
96
100
AcDbEntity
8
1
62
256
6
ByLayer
370
18
48
1
60
0
100
AcDbLine
10
32.887758
20
12.65383
30
0
11
32.887758
21
11.454174
31
0
39
0
210
0
220
0
230
1
0
LINE
5
97
100
AcDbEntity
8
SK1
62
256
6
ByLayer
370
18
48
1
60
0
100
AcDbLine
10
0
20
12.4375
30
0
11
0
21
-12.4375
31
0
39
0
210
0
220
0
230
1
0
LINE
5
99
100
AcDbEntity
8
SK1
62
256
6
ByLayer
370
18
48
1
60
0
100
AcDbLine
10
-113.65
20
12.4375
30
0
11
-113.65
21
-12.4375
31
0
39
0
210
0
220
0
230
1
0
LINE
5
9A
100
AcDbEntity
8
SK1
62
256
6
ByLayer
370
18
48
1
60
0
100
AcDbLine
10
0
20
12.4375
30
0
11
-113.65
21
12.4375
31
0
39
0
210
0
220
0
230
1
0
LINE
5
9B
100
AcDbEntity
8
SK1
62
256
6
ByLayer
370
18
48
1
60
0
100
AcDbLine
10
-113.65
20
-12.4375
30
0
11
0
21
-12.4375
31
0
39
0
210
0
220
0
230
1
0
LINE
5
9C
100
AcDbEntity
8
1
62
256
6
ByLayer
370
18
48
1
60
0
100
AcDbLine
10
32.762357
20
13.136402
30
0
11
34.594507
21
13.136402
31
0
39
0
210
0
220
0
230
1
0
LINE
5
9D
100
AcDbEntity
8
1
62
256
6
ByLayer
370
18
48
1
60
0
100
AcDbLine
10
32.995302
20
13.075074
30
0
11
34.430369
21
13.075074
31
0
39
0
210
0
220
0
230
1
0
LINE
5
9E
100
AcDbEntity
8
1
62
256
6
ByLayer
370
18
48
1
60
0
100
AcDbLine
10
34.430356
20
13.075074
30
0
11
34.474966
21
13.077679
31
0
39
0
210
0
220
0
230
1
0
LINE
5
9F
100
AcDbEntity
8
1
62
256
6
ByLayer
370
18
48
1
60
0
100
AcDbLine
10
33.1212
20
11.221997
30
0
11
35.073985
21
11.221997
31
0
39
0
210
0
220
0
230
1
0
LINE
5
A0
100
AcDbEntity
8
1
62
256
6
ByLayer
370
18
48
1
60
0
100
AcDbLine
10
35.073985
20
11.221997
30
0
11
34.300785
21
11.518195
31
0
39
0
210
0
220
0
230
1
0
LINE
5
A1
100
AcDbEntity
8
1
62
256
6
ByLayer
370
18
48
1
60
0
100
AcDbLine
10
33.257471
20
11.632592
30
0
11
34.185485
21
11.632592
31
0
39
0
210
0
220
0
230
1
0
LINE
5
A2
100
AcDbEntity
8
1
62
256
6
ByLayer
370
18
48
1
60
0
100
AcDbLine
10
34.185485
20
11.632592
30
0
11
34.185485
21
12.475586
31
0
39
0
210
0
220
0
230
1
0
LINE
5
A3
100
AcDbEntity
8
1
62
256
6
ByLayer
370
18
48
1
60
0
100
AcDbLine
10
33.25747
20
12.475586
30
0
11
33.25747
21
11.632593
31
0
39
0
210
0
220
0
230
1
0
LINE
5
A4
100
AcDbEntity
8
1
62
256
6
ByLayer
370
18
48
1
60
0
100
AcDbLine
10
35.247034
20
11.050383
30
0
11
35.247034
21
13.075074
31
0
39
0
210
0
220
0
230
1
0
LINE
5
A5
100
AcDbEntity
8
1
62
256
6
ByLayer
370
18
48
1
60
0
100
AcDbLine
10
34.537997
20
11.021745
30
0
11
35.172613
21
10.655405
31
0
39
0
210
0
220
0
230
1
0
LINE
5
A6
100
AcDbEntity
8
1
62
256
6
ByLayer
370
18
48
1
60
0
100
AcDbLine
10
37.7
20
13.287542
30
0
11
37.7
21
10.837915
31
0
39
0
210
0
220
0
230
1
0
LINE
5
A7
100
AcDbEntity
8
1
62
256
6
ByLayer
370
18
48
1
60
0
100
AcDbLine
10
33.003062
20
12.742881
30
0
11
33.115924
21
12.477315
31
0
39
0
210
0
220
0
230
1
0
LINE
5
A8
100
AcDbEntity
8
1
62
256
6
ByLayer
370
18
48
1
60
0
100
AcDbLine
10
32.926436
20
12.116263
30
0
11
33.003064
21
12.742892
31
0
39
0
210
0
220
0
230
1
0
LINE
5
A9
100
AcDbEntity
8
1
62
256
6
ByLayer
370
18
48
1
60
0
100
AcDbLine
10
35.073985
20
12.900643
30
0
11
34.300785
21
12.59186
31
0
39
0
210
0
220
0
230
1
0
LINE
5
AA
100
AcDbEntity
8
1
62
256
6
ByLayer
370
18
48
1
60
0
100
AcDbLine
10
34.46152
20
13.075074
30
0
11
35.247034
21
13.075074
31
0
39
0
210
0
220
0
230
1
0
LINE
5
AB
100
AcDbEntity
8
1
62
256
6
ByLayer
370
18
48
1
60
0
100
AcDbLine
10
37.301856
20
13.585355
30
0
11
35.262859
21
13.496344
31
0
39
0
210
0
220
0
230
1
0
LINE
5
AC
100
AcDbEntity
8
1
62
256
6
ByLayer
370
18
48
1
60
0
100
AcDbLine
10
33.144608
20
12.857461
30
0
11
33.257471
21
12.591895
31
0
39
0
210
0
220
0
230
1
0
LINE
5
AD
100
AcDbEntity
8
1
62
256
6
ByLayer
370
18
48
1
60
0
100
AcDbLine
10
33.25747
20
12.591896
30
0
11
34.300785
21
12.591896
31
0
39
0
210
0
220
0
230
1
0
LINE
5
AE
100
AcDbEntity
8
1
62
256
6
ByLayer
370
18
48
1
60
0
100
AcDbLine
10
33.257471
20
12.475586
30
0
11
34.185485
21
12.475586
31
0
39
0
210
0
220
0
230
1
0
LINE
5
AF
100
AcDbEntity
8
1
62
256
6
ByLayer
370
18
48
1
60
0
100
AcDbLine
10
33.1212
20
12.900643
30
0
11
35.073985
21
12.900643
31
0
39
0
210
0
220
0
230
1
0
LINE
5
B0
100
AcDbEntity
8
1
62
256
6
ByLayer
370
18
48
1
60
0
100
AcDbLine
10
37.301856
20
10.540102
30
0
11
35.262859
21
10.629113
31
0
39
0
210
0
220
0
230
1
0
LINE
5
B1
100
AcDbEntity
8
1
62
256
6
ByLayer
370
18
48
1
60
0
100
AcDbLine
10
33.25747
20
11.518161
30
0
11
34.300785
21
11.518161
31
0
39
0
210
0
220
0
230
1
0
LINE
5
B2
100
AcDbEntity
8
1
62
256
6
ByLayer
370
18
48
1
60
0
100
AcDbLine
10
32.995302
20
11.050383
30
0
11
34.430369
21
11.050383
31
0
39
0
210
0
220
0
230
1
0
LINE
5
B3
100
AcDbEntity
8
1
62
256
6
ByLayer
370
18
48
1
60
0
100
AcDbLine
10
34.46152
20
11.050383
30
0
11
35.247034
21
11.050383
31
0
39
0
210
0
220
0
230
1
0
LINE
5
B4
100
AcDbEntity
8
1
62
256
6
ByLayer
370
18
48
1
60
0
100
AcDbLine
10
34.537997
20
13.103712
30
0
11
35.172613
21
13.470052
31
0
39
0
210
0
220
0
230
1
0
LINE
5
B5
100
AcDbEntity
8
1
62
256
6
ByLayer
370
18
48
1
60
0
100
AcDbLine
10
33.003062
20
11.379581
30
0
11
33.115924
21
11.634323
31
0
39
0
210
0
220
0
230
1
0
LINE
5
B6
100
AcDbEntity
8
1
62
256
6
ByLayer
370
18
48
1
60
0
100
AcDbLine
10
33.115924
20
12.477319
30
0
11
33.115924
21
11.634319
31
0
39
0
210
0
220
0
230
1
0
LINE
5
B7
100
AcDbEntity
8
1
62
256
6
ByLayer
370
18
48
1
60
0
100
AcDbLine
10
33.144608
20
11.26342
30
0
11
33.257471
21
11.518162
31
0
39
0
210
0
220
0
230
1
0
LINE
5
B8
100
AcDbEntity
8
1
62
256
6
ByLayer
370
18
48
1
60
0
100
AcDbLine
10
32.926436
20
12.013547
30
0
11
33.003064
21
11.37957
31
0
39
0
210
0
220
0
230
1
0
MTEXT
5
11B
100
AcDbEntity
8
SK6
62
256
6
ByLayer
370
18
48
1
60
0
100
AcDbMText
10
-67.099987
20
-19.334218
30
0
210
0
220
0
230
1
1
\W0.7426;RF151.37-2525-024B25
40
3.5
41
0
44
1.084337
50
0
71
7
72
5
7
iso_b_vert
0
DIMENSION
5
12C
100
AcDbEntity
8
2
62
256
6
ByLayer
370
13
48
1
60
0
100
AcDbDimension
2
DimnDraft3D1
10
51.95
20
13.5625
30
0
11
51.95
21
18.0625
31
0
70
32
71
5
72
1
41
1
210
0
220
0
230
1
3
Standard
100
AcDbAlignedDimension
13
39.2
23
10.5625
33
0
14
39.2
24
13.5625
34
0
50
90
100
AcDbRotatedDimension
1001
ACAD
1000
DSTYLE
1002
{
1070
    74
1070
     0
1070
   279
1070
     0
1070
   172
1070
     1
1070
   173
1070
     1
1070
   340
1005
11C
1070
   271
1070
     3
1070
   272
1070
     3
1070
    77
1070
     1
1070
    73
1070
     0
1070
   171
1070
     4
1070
   274
1070
     4
1070
   177
1070
     2
1070
   176
1070
     2
1070
   178
1070
     7
1070
    78
1070
     8
1070
    41
1041
3.0
1070
   147
1041
2.25
1070
    42
1041
1.5
1070
    44
1041
3.0
1070
   140
1041
4.5
1070
   343
1005
12D
1070
   344
1005
12D
1002
}
0
DIMENSION
5
141
100
AcDbEntity
8
2
62
256
6
ByLayer
370
13
48
1
60
0
100
AcDbDimension
2
DimnDraft3D2
10
61.95
20
-12.4375
30
0
11
61.95
21
-2.125658
31
0
70
32
71
5
72
1
41
1
210
0
220
0
230
1
3
Standard
100
AcDbAlignedDimension
13
39.2
23
13.5625
33
0
14
-3.5
24
-12.4375
34
0
50
90
100
AcDbRotatedDimension
1001
ACAD
1000
DSTYLE
1002
{
1070
    74
1070
     0
1070
   279
1070
     0
1070
   172
1070
     1
1070
   173
1070
     1
1070
   340
1005
11C
1070
   271
1070
     3
1070
   272
1070
     3
1070
    77
1070
     1
1070
    73
1070
     0
1070
   171
1070
     4
1070
   274
1070
     4
1070
   177
1070
     2
1070
   176
1070
     2
1070
   178
1070
     7
1070
    78
1070
     8
1070
    41
1041
3.0
1070
   147
1041
2.25
1070
    42
1041
1.5
1070
    44
1041
3.0
1070
   140
1041
4.5
1070
   343
1005
12D
1070
   344
1005
12D
1002
}
0
DIMENSION
5
150
100
AcDbEntity
8
SK2
62
256
6
ByLayer
370
13
48
1
60
0
100
AcDbDimension
2
DimnDraft3D3
10
-123.4
20
-12.4375
30
0
11
-123.4
21
-2.688158
31
0
70
32
71
5
72
1
41
1
210
0
220
0
230
1
3
Standard
100
AcDbAlignedDimension
13
-115.15
23
12.4375
33
0
14
-115.15
24
-12.4375
34
0
50
90
100
AcDbRotatedDimension
1001
ACAD
1000
DSTYLE
1002
{
1070
    74
1070
     0
1070
   279
1070
     0
1070
   172
1070
     1
1070
   173
1070
     1
1070
   340
1005
11C
1070
   271
1070
     3
1070
   272
1070
     3
1070
    77
1070
     1
1070
    73
1070
     0
1070
   171
1070
     4
1070
   274
1070
     4
1070
   177
1070
     2
1070
   176
1070
     2
1070
   178
1070
     7
1070
    78
1070
     8
1070
    41
1041
3.0
1070
   147
1041
2.25
1070
    42
1041
1.5
1070
    44
1041
3.0
1070
   140
1041
4.5
1070
   343
1005
12D
1070
   344
1005
12D
1002
}
0
DIMENSION
5
15E
100
AcDbEntity
8
2
62
256
6
ByLayer
370
13
48
1
60
0
100
AcDbDimension
2
DimnDraft3D4
10
0
20
31.306698
30
0
11
13.568421
21
31.306698
31
0
70
32
71
5
72
1
41
1
210
0
220
0
230
1
3
Standard
100
AcDbAlignedDimension
13
37.7
23
15.0625
33
0
14
0
24
13.9375
34
0
50
0
100
AcDbRotatedDimension
1001
ACAD
1000
DSTYLE
1002
{
1070
   279
1070
     0
1070
   172
1070
     1
1070
   173
1070
     1
1070
   340
1005
11C
1070
   271
1070
     3
1070
   272
1070
     3
1070
    77
1070
     1
1070
    73
1070
     0
1070
   171
1070
     4
1070
   274
1070
     4
1070
   177
1070
     2
1070
   176
1070
     2
1070
   178
1070
     7
1070
    78
1070
     8
1070
    41
1041
3.0
1070
   147
1041
2.25
1070
    42
1041
1.5
1070
    44
1041
3.0
1070
   140
1041
4.5
1070
   343
1005
12D
1070
   344
1005
12D
1002
}
0
DIMENSION
5
16C
100
AcDbEntity
8
SK2
62
256
6
ByLayer
370
13
48
1
60
0
100
AcDbDimension
2
DimnDraft3D5
10
-113.65
20
41.306698
30
0
11
-41.782237
21
41.306698
31
0
70
32
71
5
72
1
41
1
210
0
220
0
230
1
3
Standard
100
AcDbAlignedDimension
13
37.7
23
15.0625
33
0
14
-113.65
24
13.9375
34
0
50
0
100
AcDbRotatedDimension
1001
ACAD
1000
DSTYLE
1002
{
1070
   279
1070
     0
1070
   172
1070
     1
1070
   173
1070
     1
1070
   340
1005
11C
1070
   271
1070
     3
1070
   272
1070
     3
1070
    77
1070
     1
1070
    73
1070
     0
1070
   171
1070
     4
1070
   274
1070
     4
1070
   177
1070
     2
1070
   176
1070
     2
1070
   178
1070
     7
1070
    78
1070
     8
1070
    41
1041
3.0
1070
   147
1041
2.25
1070
    42
1041
1.5
1070
    44
1041
3.0
1070
   140
1041
4.5
1070
   343
1005
12D
1070
   344
1005
12D
1002
}
0
DIMENSION
5
17A
100
AcDbEntity
8
2
62
256
6
ByLayer
370
13
48
1
60
0
100
AcDbDimension
2
DimnDraft3D6
10
37.7
20
-26.6875
30
0
11
42.2
21
-26.6875
31
0
70
32
71
5
72
1
41
1
210
0
220
0
230
1
3
Standard
100
AcDbAlignedDimension
13
29
23
8.0625
33
0
14
37.7
24
9.0625
34
0
50
0
100
AcDbRotatedDimension
1001
ACAD
1000
DSTYLE
1002
{
1070
   279
1070
     0
1070
   172
1070
     1
1070
   173
1070
     1
1070
   340
1005
11C
1070
   271
1070
     3
1070
   272
1070
     3
1070
    77
1070
     1
1070
    73
1070
     0
1070
   171
1070
     4
1070
   274
1070
     4
1070
   177
1070
     2
1070
   176
1070
     2
1070
   178
1070
     7
1070
    78
1070
     8
1070
    41
1041
3.0
1070
   147
1041
2.25
1070
    42
1041
1.5
1070
    44
1041
3.0
1070
   140
1041
4.5
1070
   343
1005
12D
1070
   344
1005
12D
1002
}
0
DIMENSION
5
188
100
AcDbEntity
8
2
62
256
6
ByLayer
370
13
48
1
60
0
100
AcDbDimension
2
DimnDraft3D7
10
37.7
20
-36.6875
30
0
11
25.480921
21
-36.6875
31
0
70
32
71
5
72
1
41
1
210
0
220
0
230
1
3
Standard
100
AcDbAlignedDimension
13
22.7
23
-13.9375
33
0
14
37.7
24
9.0625
34
0
50
0
100
AcDbRotatedDimension
1001
ACAD
1000
DSTYLE
1002
{
1070
   279
1070
     0
1070
   172
1070
     1
1070
   173
1070
     1
1070
   340
1005
11C
1070
   271
1070
     3
1070
   272
1070
     3
1070
    77
1070
     1
1070
    73
1070
     0
1070
   171
1070
     4
1070
   274
1070
     4
1070
   177
1070
     2
1070
   176
1070
     2
1070
   178
1070
     7
1070
    78
1070
     8
1070
    41
1041
3.0
1070
   147
1041
2.25
1070
    42
1041
1.5
1070
    44
1041
3.0
1070
   140
1041
4.5
1070
   343
1005
12D
1070
   344
1005
12D
1002
}
0
ENDSEC
0
SECTION
2
OBJECTS
0
DICTIONARY
5
1f2
330
0
100
AcDbDictionary
280
0
281
1
3
ACAD_GROUP
350
1f3
3
ACAD_MLINESTYLE
350
1f4
0
DICTIONARY
5
1f3
330
0
100
AcDbDictionary
280
0
281
1
0
DICTIONARY
5
1f4
330
0
100
AcDbDictionary
280
0
281
1
3
Standard
350
18
0
MLINESTYLE
5
18
330
1f4
100
AcDbMlineStyle
2
Standard
70
0
3

62
256
51
90
52
90
71
2
49
-0.5
62
256
6
ByLayer
49
0.5
62
256
6
ByLayer
0
RASTERVARIABLES
5
1e1
330

100
AcDbRasterVariables
90
0
70
1
71
1
72
1
0
ENDSEC
0
EOF
