0
SECTION
2
HEADER
9
$ACADVER
1
AC1015
9
$DWGCODEPAGE
3
ANSI_1252
9
$HANDSEED
5
1ff
9
$ANGBASE
50
0
9
$ANGDIR
70
0
9
$ATTMODE
70
1
9
$AUNITS
70
0
9
$AUPREC
70
0
9
$CECOLOR
62
256
9
$CELTSCALE
40
1
9
$CELTYPE
6
ByLayer
9
$CELWEIGHT
370
18
9
$CLAYER
8
0
9
$CMLJUST
70
0
9
$CMLSCALE
40
1
9
$CMLSTYLE
2
Standard
9
$DIMSTYLE
2
Standard
9
$TEXTSIZE
40
0.2
9
$TEXTSTYLE
7
Standard
9
$LUNITS
70
2
9
$LUPREC
70
4
9
$EXTNAMES
290
1
9
$INSUNITS
70
4
9
$LTSCALE
40
1
9
$LWDISPLAY
290
1
9
$PDMODE
70
0
9
$PDSIZE
40
0
9
$PLINEGEN
70
0
0
ENDSEC
0
SECTION
2
CLASSES
0
CLASS
1
RASTERVARIABLES
2
AcDbRasterVariables
3
ISM
90
0
280
0
281
0
0
ENDSEC
0
SECTION
2
TABLES
0
TABLE
2
VPORT
5
1f5
100
AcDbSymbolTable
0
VPORT
5
1
100
AcDbSymbolTableRecord
100
AcDbViewportTableRecord
2
*Active
70
0
10
0
20
0
11
1
21
1
12
-1
22
1
13
0
23
0
14
0.5
24
0.5
15
10
25
10
16
0
26
0
36
1
17
0
27
0
37
0
0
ENDTAB
0
TABLE
2
LTYPE
5
1f6
100
AcDbSymbolTable
0
LTYPE
5
14
100
AcDbSymbolTableRecord
100
AcDbLinetypeTableRecord
70
0
2
ByBlock
3

72
65
73
0
40
0
0
LTYPE
5
15
100
AcDbSymbolTableRecord
100
AcDbLinetypeTableRecord
70
0
2
ByLayer
3

72
65
73
0
40
0
0
LTYPE
5
16
100
AcDbSymbolTableRecord
100
AcDbLinetypeTableRecord
70
0
2
CONTINUOUS
3
Solid line
72
65
73
0
40
0
0
LTYPE
5
6A
100
AcDbSymbolTableRecord
100
AcDbLinetypeTableRecord
70
0
2
CENTER
3
____ _ ____ _ ____ _ ____
72
65
73
4
40
47.5
49
22
74
0
49
-8.5
74
0
49
8.5
74
0
49
-8.5
74
0
0
LTYPE
5
6B
100
AcDbSymbolTableRecord
100
AcDbLinetypeTableRecord
70
0
2
DASHED
3
__ __ __ __ __ __ __ __ __
72
65
73
2
40
25.72
49
12.86
74
0
49
-12.86
74
0
0
ENDTAB
0
TABLE
2
LAYER
5
1f7
100
AcDbSymbolTable
0
LAYER
5
10
100
AcDbSymbolTableRecord
100
AcDbLayerTableRecord
2
0
70
0
62
7
6
CONTINUOUS
290
1
370
-3
390
0
0
LAYER
5
6D
100
AcDbSymbolTableRecord
100
AcDbLayerTableRecord
2
2
70
0
62
7
6
CONTINUOUS
290
1
370
-3
390
0
0
LAYER
5
6F
100
AcDbSymbolTableRecord
100
AcDbLayerTableRecord
2
80
70
0
62
-6
6
CONTINUOUS
290
1
370
-3
390
0
0
LAYER
5
71
100
AcDbSymbolTableRecord
100
AcDbLayerTableRecord
2
81
70
0
62
-3
6
CONTINUOUS
290
1
370
-3
390
0
0
LAYER
5
74
100
AcDbSymbolTableRecord
100
AcDbLayerTableRecord
2
1
70
0
62
4
6
CONTINUOUS
290
1
370
-3
390
0
0
LAYER
5
1e2
100
AcDbSymbolTableRecord
100
AcDbLayerTableRecord
2
SK1
70
0
62
4
6
CONTINUOUS
290
1
370
-3
390
0
0
LAYER
5
1e3
100
AcDbSymbolTableRecord
100
AcDbLayerTableRecord
2
SK6
70
0
62
5
6
CONTINUOUS
290
1
370
-3
390
0
0
LAYER
5
1e4
100
AcDbSymbolTableRecord
100
AcDbLayerTableRecord
2
SK2
70
0
62
7
6
CONTINUOUS
290
1
370
-3
390
0
0
ENDTAB
0
TABLE
2
STYLE
5
1f8
100
AcDbSymbolTable
0
STYLE
5
11
100
AcDbSymbolTableRecord
100
AcDbTextStyleTableRecord
2
Standard
3
txt
70
0
71
0
40
0
41
1
42
0
50
0
0
STYLE
5
11C
100
AcDbSymbolTableRecord
100
AcDbTextStyleTableRecord
2
iso_b_vert
3
simplex.shx
70
0
71
0
40
0
41
1
42
0
50
0
0
STYLE
5
11D
100
AcDbSymbolTableRecord
100
AcDbTextStyleTableRecord
2
DWGDirectTextStyle
3
simplex
70
0
71
0
40
0
41
1
42
0
50
0
0
ENDTAB
0
TABLE
2
DIMSTYLE
5
1f9
100
AcDbSymbolTable
100
AcDbDimStyleTable
0
DIMSTYLE
105
27
100
AcDbSymbolTableRecord
100
AcDbDimStyleTableRecord
2
Standard
70
0
3
<>
41
0.18
42
0.0625
44
0.18
140
0.18
147
0.09
73
0
74
0
77
1
271
2
275
0
278
52
280
0
340
11
0
ENDTAB
0
TABLE
2
VIEW
5
1fa
100
AcDbSymbolTable
0
ENDTAB
0
TABLE
2
UCS
5
1fb
100
AcDbSymbolTable
0
ENDTAB
0
TABLE
2
APPID
5
1fc
100
AcDbSymbolTable
0
APPID
5
12
100
AcDbSymbolTableRecord
100
AcDbRegAppTableRecord
2
ACAD
70
0
0
ENDTAB
0
TABLE
2
BLOCK_RECORD
5
1fd
100
AcDbSymbolTable
0
BLOCK_RECORD
5
1F
100
AcDbSymbolTableRecord
100
AcDbBlockTableRecord
2
*Model_Space
340
0
70
0
0
BLOCK_RECORD
5
1B
100
AcDbSymbolTableRecord
100
AcDbBlockTableRecord
2
*Paper_Space
340
0
70
0
0
BLOCK_RECORD
5
23
100
AcDbSymbolTableRecord
100
AcDbBlockTableRecord
2
*Paper_Space0
340
0
70
0
0
BLOCK_RECORD
5
11F
100
AcDbSymbolTableRecord
100
AcDbBlockTableRecord
2
DimnDraft3D1
340
0
70
0
0
BLOCK_RECORD
5
12D
100
AcDbSymbolTableRecord
100
AcDbBlockTableRecord
2
_CLOSED
340
0
70
0
0
BLOCK_RECORD
5
134
100
AcDbSymbolTableRecord
100
AcDbBlockTableRecord
2
DimnDraft3D2
340
0
70
0
0
BLOCK_RECORD
5
142
100
AcDbSymbolTableRecord
100
AcDbBlockTableRecord
2
DimnDraft3D3
340
0
70
0
0
BLOCK_RECORD
5
151
100
AcDbSymbolTableRecord
100
AcDbBlockTableRecord
2
DimnDraft3D4
340
0
70
0
0
BLOCK_RECORD
5
15F
100
AcDbSymbolTableRecord
100
AcDbBlockTableRecord
2
DimnDraft3D5
340
0
70
0
0
BLOCK_RECORD
5
16D
100
AcDbSymbolTableRecord
100
AcDbBlockTableRecord
2
DimnDraft3D6
340
0
70
0
0
BLOCK_RECORD
5
17B
100
AcDbSymbolTableRecord
100
AcDbBlockTableRecord
2
DimnDraft3D7
340
0
70
0
0
ENDTAB
0
ENDSEC
0
SECTION
2
BLOCKS
0
BLOCK
5
20
100
AcDbEntity
8
0
100
AcDbBlockBegin
2
*Model_Space
70
0
10
0
20
0
30
0
3
*Model_Space
0
ENDBLK
5
21
100
AcDbEntity
8
0
100
AcDbBlockEnd
0
BLOCK
5
1C
100
AcDbEntity
8
0
100
AcDbBlockBegin
2
*Paper_Space
70
0
10
0
20
0
30
0
3
*Paper_Space
0
ENDBLK
5
1D
100
AcDbEntity
8
0
100
AcDbBlockEnd
0
BLOCK
5
24
100
AcDbEntity
8
0
100
AcDbBlockBegin
2
*Paper_Space0
70
0
10
0
20
0
30
0
3
*Paper_Space0
0
ENDBLK
5
25
100
AcDbEntity
8
0
100
AcDbBlockEnd
0
BLOCK
5
12A
100
AcDbEntity
8
0
100
AcDbBlockBegin
2
DimnDraft3D1
70
0
10
0
20
0
30
0
3
DimnDraft3D1
0
MTEXT
5
120
100
AcDbEntity
8
2
62
256
6
ByLayer
370
18
48
1
60
0
100
AcDbMText
10
59.825
20
10.680921
30
0
210
0
220
0
230
1
1
\W0.5404;6
40
4.5
41
0
44
1.084337
50
90
71
7
72
5
7
iso_b_vert
0
LINE
5
121
100
AcDbEntity
8
2
62
256
6
ByLayer
370
13
48
1
60
0
100
AcDbLine
10
48.2
20
7.5625
30
0
11
63.95
21
7.5625
31
0
39
0
210
0
220
0
230
1
0
LINE
5
122
100
AcDbEntity
8
2
62
256
6
ByLayer
370
13
48
1
60
0
100
AcDbLine
10
48.2
20
13.5625
30
0
11
63.95
21
13.5625
31
0
39
0
210
0
220
0
230
1
0
LINE
5
123
100
AcDbEntity
8
2
62
256
6
ByLayer
370
13
48
1
60
0
100
AcDbLine
10
60.95
20
-3.6875
30
0
11
60.95
21
24.8125
31
0
39
0
210
0
220
0
230
1
0
LINE
5
124
100
AcDbEntity
8
2
62
256
6
ByLayer
370
13
48
1
60
0
100
AcDbLine
10
60.95
20
7.5625
30
0
11
61.344957
21
4.562501
31
0
39
0
210
0
220
0
230
1
0
LINE
5
125
100
AcDbEntity
8
2
62
256
6
ByLayer
370
13
48
1
60
0
100
AcDbLine
10
60.95
20
7.5625
30
0
11
60.555043
21
4.562499
31
0
39
0
210
0
220
0
230
1
0
LINE
5
126
100
AcDbEntity
8
2
62
256
6
ByLayer
370
13
48
1
60
0
100
AcDbLine
10
61.344957
20
4.562501
30
0
11
60.555043
21
4.562499
31
0
39
0
210
0
220
0
230
1
0
LINE
5
127
100
AcDbEntity
8
2
62
256
6
ByLayer
370
13
48
1
60
0
100
AcDbLine
10
60.95
20
13.5625
30
0
11
60.555043
21
16.562499
31
0
39
0
210
0
220
0
230
1
0
LINE
5
128
100
AcDbEntity
8
2
62
256
6
ByLayer
370
13
48
1
60
0
100
AcDbLine
10
60.95
20
13.5625
30
0
11
61.344957
21
16.562501
31
0
39
0
210
0
220
0
230
1
0
LINE
5
129
100
AcDbEntity
8
2
62
256
6
ByLayer
370
13
48
1
60
0
100
AcDbLine
10
60.555043
20
16.562499
30
0
11
61.344957
21
16.562501
31
0
39
0
210
0
220
0
230
1
0
ENDBLK
5
12B
100
AcDbEntity
8
0
100
AcDbBlockEnd
0
BLOCK
5
12E
100
AcDbEntity
8
0
100
AcDbBlockBegin
2
_CLOSED
70
0
10
0
20
0
30
0
3
_CLOSED
0
LINE
5
130
100
AcDbEntity
8
0
62
256
6
ByLayer
370
-2
48
1
60
0
100
AcDbLine
10
-1
20
0.166667
30
0
11
0
21
0
31
0
39
0
210
0
220
0
230
1
0
LINE
5
131
100
AcDbEntity
8
0
62
256
6
ByLayer
370
-2
48
1
60
0
100
AcDbLine
10
0
20
0
30
0
11
-1
21
-0.166667
31
0
39
0
210
0
220
0
230
1
0
LINE
5
132
100
AcDbEntity
8
0
62
256
6
ByLayer
370
-2
48
1
60
0
100
AcDbLine
10
-1
20
0.166667
30
0
11
-1
21
-0.166667
31
0
39
0
210
0
220
0
230
1
0
LINE
5
133
100
AcDbEntity
8
0
62
256
6
ByLayer
370
-2
48
1
60
0
100
AcDbLine
10
0
20
0
30
0
11
-1
21
0
31
0
39
0
210
0
220
0
230
1
0
ENDBLK
5
12F
100
AcDbEntity
8
0
100
AcDbBlockEnd
0
BLOCK
5
13F
100
AcDbEntity
8
0
100
AcDbBlockBegin
2
DimnDraft3D2
70
0
10
0
20
0
30
0
3
DimnDraft3D2
0
MTEXT
5
135
100
AcDbEntity
8
2
62
256
6
ByLayer
370
18
48
1
60
0
100
AcDbMText
10
69.825
20
-1.000658
30
0
210
0
220
0
230
1
1
\W0.6740;26
40
4.5
41
0
44
1.084337
50
90
71
7
72
5
7
iso_b_vert
0
LINE
5
136
100
AcDbEntity
8
2
62
256
6
ByLayer
370
13
48
1
60
0
100
AcDbLine
10
48.2
20
13.5625
30
0
11
73.95
21
13.5625
31
0
39
0
210
0
220
0
230
1
0
LINE
5
137
100
AcDbEntity
8
2
62
256
6
ByLayer
370
13
48
1
60
0
100
AcDbLine
10
-3.5
20
-12.4375
30
0
11
73.95
21
-12.4375
31
0
39
0
210
0
220
0
230
1
0
LINE
5
138
100
AcDbEntity
8
2
62
256
6
ByLayer
370
13
48
1
60
0
100
AcDbLine
10
70.95
20
13.5625
30
0
11
70.95
21
-12.4375
31
0
39
0
210
0
220
0
230
1
0
LINE
5
139
100
AcDbEntity
8
2
62
256
6
ByLayer
370
13
48
1
60
0
100
AcDbLine
10
70.95
20
13.5625
30
0
11
71.344957
21
10.562501
31
0
39
0
210
0
220
0
230
1
0
LINE
5
13A
100
AcDbEntity
8
2
62
256
6
ByLayer
370
13
48
1
60
0
100
AcDbLine
10
70.95
20
13.5625
30
0
11
70.555043
21
10.562499
31
0
39
0
210
0
220
0
230
1
0
LINE
5
13B
100
AcDbEntity
8
2
62
256
6
ByLayer
370
13
48
1
60
0
100
AcDbLine
10
71.344957
20
10.562501
30
0
11
70.555043
21
10.562499
31
0
39
0
210
0
220
0
230
1
0
LINE
5
13C
100
AcDbEntity
8
2
62
256
6
ByLayer
370
13
48
1
60
0
100
AcDbLine
10
70.95
20
-12.4375
30
0
11
70.555043
21
-9.437501
31
0
39
0
210
0
220
0
230
1
0
LINE
5
13D
100
AcDbEntity
8
2
62
256
6
ByLayer
370
13
48
1
60
0
100
AcDbLine
10
70.95
20
-12.4375
30
0
11
71.344957
21
-9.437499
31
0
39
0
210
0
220
0
230
1
0
LINE
5
13E
100
AcDbEntity
8
2
62
256
6
ByLayer
370
13
48
1
60
0
100
AcDbLine
10
70.555043
20
-9.437501
30
0
11
71.344957
21
-9.437499
31
0
39
0
210
0
220
0
230
1
0
ENDBLK
5
140
100
AcDbEntity
8
0
100
AcDbBlockEnd
0
BLOCK
5
14E
100
AcDbEntity
8
0
100
AcDbBlockBegin
2
DimnDraft3D3
70
0
10
0
20
0
30
0
3
DimnDraft3D3
0
MTEXT
5
143
100
AcDbEntity
8
SK2
62
256
6
ByLayer
370
18
48
1
60
0
100
AcDbMText
10
-115.525
20
-1.563158
30
0
210
0
220
0
230
1
1
\W0.6740;25
40
4.5
41
0
44
1.084337
50
90
71
7
72
5
7
iso_b_vert
0
LINE
5
145
100
AcDbEntity
8
SK2
62
256
6
ByLayer
370
13
48
1
60
0
100
AcDbLine
10
-106.15
20
12.4375
30
0
11
-117.4
21
12.4375
31
0
39
0
210
0
220
0
230
1
0
LINE
5
146
100
AcDbEntity
8
SK2
62
256
6
ByLayer
370
13
48
1
60
0
100
AcDbLine
10
-106.15
20
-12.4375
30
0
11
-117.4
21
-12.4375
31
0
39
0
210
0
220
0
230
1
0
LINE
5
147
100
AcDbEntity
8
SK2
62
256
6
ByLayer
370
13
48
1
60
0
100
AcDbLine
10
-114.4
20
12.4375
30
0
11
-114.4
21
-12.4375
31
0
39
0
210
0
220
0
230
1
0
LINE
5
148
100
AcDbEntity
8
SK2
62
256
6
ByLayer
370
13
48
1
60
0
100
AcDbLine
10
-114.4
20
12.4375
30
0
11
-114.005043
21
9.437501
31
0
39
0
210
0
220
0
230
1
0
LINE
5
149
100
AcDbEntity
8
SK2
62
256
6
ByLayer
370
13
48
1
60
0
100
AcDbLine
10
-114.4
20
12.4375
30
0
11
-114.794957
21
9.437499
31
0
39
0
210
0
220
0
230
1
0
LINE
5
14A
100
AcDbEntity
8
SK2
62
256
6
ByLayer
370
13
48
1
60
0
100
AcDbLine
10
-114.005043
20
9.437501
30
0
11
-114.794957
21
9.437499
31
0
39
0
210
0
220
0
230
1
0
LINE
5
14B
100
AcDbEntity
8
SK2
62
256
6
ByLayer
370
13
48
1
60
0
100
AcDbLine
10
-114.4
20
-12.4375
30
0
11
-114.794957
21
-9.437501
31
0
39
0
210
0
220
0
230
1
0
LINE
5
14C
100
AcDbEntity
8
SK2
62
256
6
ByLayer
370
13
48
1
60
0
100
AcDbLine
10
-114.4
20
-12.4375
30
0
11
-114.005043
21
-9.437499
31
0
39
0
210
0
220
0
230
1
0
LINE
5
14D
100
AcDbEntity
8
SK2
62
256
6
ByLayer
370
13
48
1
60
0
100
AcDbLine
10
-114.794957
20
-9.437501
30
0
11
-114.005043
21
-9.437499
31
0
39
0
210
0
220
0
230
1
0
ENDBLK
5
14F
100
AcDbEntity
8
0
100
AcDbBlockEnd
0
BLOCK
5
15C
100
AcDbEntity
8
0
100
AcDbBlockBegin
2
DimnDraft3D4
70
0
10
0
20
0
30
0
3
DimnDraft3D4
0
MTEXT
5
152
100
AcDbEntity
8
2
62
256
6
ByLayer
370
18
48
1
60
0
100
AcDbMText
10
18.956579
20
35.9375
30
0
210
0
220
0
230
1
1
\W0.7640;46.7
40
4.5
41
0
44
1.084337
50
0
71
7
72
5
7
iso_b_vert
0
LINE
5
153
100
AcDbEntity
8
2
62
256
6
ByLayer
370
13
48
1
60
0
100
AcDbLine
10
46.7
20
15.0625
30
0
11
46.7
21
37.8125
31
0
39
0
210
0
220
0
230
1
0
LINE
5
154
100
AcDbEntity
8
2
62
256
6
ByLayer
370
13
48
1
60
0
100
AcDbLine
10
0
20
13.9375
30
0
11
0
21
37.8125
31
0
39
0
210
0
220
0
230
1
0
LINE
5
155
100
AcDbEntity
8
2
62
256
6
ByLayer
370
13
48
1
60
0
100
AcDbLine
10
46.7
20
34.8125
30
0
11
0
21
34.8125
31
0
39
0
210
0
220
0
230
1
0
LINE
5
156
100
AcDbEntity
8
2
62
256
6
ByLayer
370
13
48
1
60
0
100
AcDbLine
10
46.7
20
34.8125
30
0
11
43.700001
21
34.417543
31
0
39
0
210
0
220
0
230
1
0
LINE
5
157
100
AcDbEntity
8
2
62
256
6
ByLayer
370
13
48
1
60
0
100
AcDbLine
10
46.7
20
34.8125
30
0
11
43.699999
21
35.207457
31
0
39
0
210
0
220
0
230
1
0
LINE
5
158
100
AcDbEntity
8
2
62
256
6
ByLayer
370
13
48
1
60
0
100
AcDbLine
10
43.700001
20
34.417543
30
0
11
43.699999
21
35.207457
31
0
39
0
210
0
220
0
230
1
0
LINE
5
159
100
AcDbEntity
8
2
62
256
6
ByLayer
370
13
48
1
60
0
100
AcDbLine
10
0
20
34.8125
30
0
11
2.999999
21
35.207457
31
0
39
0
210
0
220
0
230
1
0
LINE
5
15A
100
AcDbEntity
8
2
62
256
6
ByLayer
370
13
48
1
60
0
100
AcDbLine
10
0
20
34.8125
30
0
11
3.000001
21
34.417543
31
0
39
0
210
0
220
0
230
1
0
LINE
5
15B
100
AcDbEntity
8
2
62
256
6
ByLayer
370
13
48
1
60
0
100
AcDbLine
10
2.999999
20
35.207457
30
0
11
3.000001
21
34.417543
31
0
39
0
210
0
220
0
230
1
0
ENDBLK
5
15D
100
AcDbEntity
8
0
100
AcDbBlockEnd
0
BLOCK
5
16A
100
AcDbEntity
8
0
100
AcDbBlockBegin
2
DimnDraft3D5
70
0
10
0
20
0
30
0
3
DimnDraft3D5
0
MTEXT
5
160
100
AcDbEntity
8
SK2
62
256
6
ByLayer
370
18
48
1
60
0
100
AcDbMText
10
-31.657237
20
45.9375
30
0
210
0
220
0
230
1
1
\W0.6217;150
40
4.5
41
0
44
1.084337
50
0
71
7
72
5
7
iso_b_vert
0
LINE
5
161
100
AcDbEntity
8
SK2
62
256
6
ByLayer
370
13
48
1
60
0
100
AcDbLine
10
46.7
20
15.0625
30
0
11
46.7
21
47.8125
31
0
39
0
210
0
220
0
230
1
0
LINE
5
162
100
AcDbEntity
8
SK2
62
256
6
ByLayer
370
13
48
1
60
0
100
AcDbLine
10
-104.65
20
13.9375
30
0
11
-104.65
21
47.8125
31
0
39
0
210
0
220
0
230
1
0
LINE
5
163
100
AcDbEntity
8
SK2
62
256
6
ByLayer
370
13
48
1
60
0
100
AcDbLine
10
46.7
20
44.8125
30
0
11
-104.65
21
44.8125
31
0
39
0
210
0
220
0
230
1
0
LINE
5
164
100
AcDbEntity
8
SK2
62
256
6
ByLayer
370
13
48
1
60
0
100
AcDbLine
10
46.7
20
44.8125
30
0
11
43.700001
21
44.417543
31
0
39
0
210
0
220
0
230
1
0
LINE
5
165
100
AcDbEntity
8
SK2
62
256
6
ByLayer
370
13
48
1
60
0
100
AcDbLine
10
46.7
20
44.8125
30
0
11
43.699999
21
45.207457
31
0
39
0
210
0
220
0
230
1
0
LINE
5
166
100
AcDbEntity
8
SK2
62
256
6
ByLayer
370
13
48
1
60
0
100
AcDbLine
10
43.700001
20
44.417543
30
0
11
43.699999
21
45.207457
31
0
39
0
210
0
220
0
230
1
0
LINE
5
167
100
AcDbEntity
8
SK2
62
256
6
ByLayer
370
13
48
1
60
0
100
AcDbLine
10
-104.65
20
44.8125
30
0
11
-101.650001
21
45.207457
31
0
39
0
210
0
220
0
230
1
0
LINE
5
168
100
AcDbEntity
8
SK2
62
256
6
ByLayer
370
13
48
1
60
0
100
AcDbLine
10
-104.65
20
44.8125
30
0
11
-101.649999
21
44.417543
31
0
39
0
210
0
220
0
230
1
0
LINE
5
169
100
AcDbEntity
8
SK2
62
256
6
ByLayer
370
13
48
1
60
0
100
AcDbLine
10
-101.650001
20
45.207457
30
0
11
-101.649999
21
44.417543
31
0
39
0
210
0
220
0
230
1
0
ENDBLK
5
16B
100
AcDbEntity
8
0
100
AcDbBlockEnd
0
BLOCK
5
178
100
AcDbEntity
8
0
100
AcDbBlockBegin
2
DimnDraft3D6
70
0
10
0
20
0
30
0
3
DimnDraft3D6
0
MTEXT
5
16E
100
AcDbEntity
8
2
62
256
6
ByLayer
370
18
48
1
60
0
100
AcDbMText
10
52.325
20
-25.5625
30
0
210
0
220
0
230
1
1
\W0.6563;10.7
40
4.5
41
0
44
1.084337
50
0
71
7
72
5
7
iso_b_vert
0
LINE
5
16F
100
AcDbEntity
8
2
62
256
6
ByLayer
370
13
48
1
60
0
100
AcDbLine
10
36
20
5.0625
30
0
11
36
21
-29.6875
31
0
39
0
210
0
220
0
230
1
0
LINE
5
170
100
AcDbEntity
8
2
62
256
6
ByLayer
370
13
48
1
60
0
100
AcDbLine
10
46.7
20
6.0625
30
0
11
46.7
21
-29.6875
31
0
39
0
210
0
220
0
230
1
0
LINE
5
171
100
AcDbEntity
8
2
62
256
6
ByLayer
370
13
48
1
60
0
100
AcDbLine
10
36
20
-26.6875
30
0
11
60.638158
21
-26.6875
31
0
39
0
210
0
220
0
230
1
0
LINE
5
172
100
AcDbEntity
8
2
62
256
6
ByLayer
370
13
48
1
60
0
100
AcDbLine
10
36
20
-26.6875
30
0
11
38.999999
21
-26.292543
31
0
39
0
210
0
220
0
230
1
0
LINE
5
173
100
AcDbEntity
8
2
62
256
6
ByLayer
370
13
48
1
60
0
100
AcDbLine
10
36
20
-26.6875
30
0
11
39.000001
21
-27.082457
31
0
39
0
210
0
220
0
230
1
0
LINE
5
174
100
AcDbEntity
8
2
62
256
6
ByLayer
370
13
48
1
60
0
100
AcDbLine
10
38.999999
20
-26.292543
30
0
11
39.000001
21
-27.082457
31
0
39
0
210
0
220
0
230
1
0
LINE
5
175
100
AcDbEntity
8
2
62
256
6
ByLayer
370
13
48
1
60
0
100
AcDbLine
10
46.7
20
-26.6875
30
0
11
43.700001
21
-27.082457
31
0
39
0
210
0
220
0
230
1
0
LINE
5
176
100
AcDbEntity
8
2
62
256
6
ByLayer
370
13
48
1
60
0
100
AcDbLine
10
46.7
20
-26.6875
30
0
11
43.699999
21
-26.292543
31
0
39
0
210
0
220
0
230
1
0
LINE
5
177
100
AcDbEntity
8
2
62
256
6
ByLayer
370
13
48
1
60
0
100
AcDbLine
10
43.700001
20
-27.082457
30
0
11
43.699999
21
-26.292543
31
0
39
0
210
0
220
0
230
1
0
ENDBLK
5
179
100
AcDbEntity
8
0
100
AcDbBlockEnd
0
BLOCK
5
186
100
AcDbEntity
8
0
100
AcDbBlockBegin
2
DimnDraft3D7
70
0
10
0
20
0
30
0
3
DimnDraft3D7
0
MTEXT
5
17C
100
AcDbEntity
8
2
62
256
6
ByLayer
370
18
48
1
60
0
100
AcDbMText
10
32.543421
20
-35.5625
30
0
210
0
220
0
230
1
1
\W0.7346;20.0
40
4.5
41
0
44
1.084337
50
0
71
7
72
5
7
iso_b_vert
0
LINE
5
17D
100
AcDbEntity
8
2
62
256
6
ByLayer
370
13
48
1
60
0
100
AcDbLine
10
26.7
20
-13.9375
30
0
11
26.7
21
-39.6875
31
0
39
0
210
0
220
0
230
1
0
LINE
5
17E
100
AcDbEntity
8
2
62
256
6
ByLayer
370
13
48
1
60
0
100
AcDbLine
10
46.7
20
6.0625
30
0
11
46.7
21
-39.6875
31
0
39
0
210
0
220
0
230
1
0
LINE
5
17F
100
AcDbEntity
8
2
62
256
6
ByLayer
370
13
48
1
60
0
100
AcDbLine
10
26.7
20
-36.6875
30
0
11
46.7
21
-36.6875
31
0
39
0
210
0
220
0
230
1
0
LINE
5
180
100
AcDbEntity
8
2
62
256
6
ByLayer
370
13
48
1
60
0
100
AcDbLine
10
26.7
20
-36.6875
30
0
11
29.699999
21
-36.292543
31
0
39
0
210
0
220
0
230
1
0
LINE
5
181
100
AcDbEntity
8
2
62
256
6
ByLayer
370
13
48
1
60
0
100
AcDbLine
10
26.7
20
-36.6875
30
0
11
29.700001
21
-37.082457
31
0
39
0
210
0
220
0
230
1
0
LINE
5
182
100
AcDbEntity
8
2
62
256
6
ByLayer
370
13
48
1
60
0
100
AcDbLine
10
29.699999
20
-36.292543
30
0
11
29.700001
21
-37.082457
31
0
39
0
210
0
220
0
230
1
0
LINE
5
183
100
AcDbEntity
8
2
62
256
6
ByLayer
370
13
48
1
60
0
100
AcDbLine
10
46.7
20
-36.6875
30
0
11
43.700001
21
-37.082457
31
0
39
0
210
0
220
0
230
1
0
LINE
5
184
100
AcDbEntity
8
2
62
256
6
ByLayer
370
13
48
1
60
0
100
AcDbLine
10
46.7
20
-36.6875
30
0
11
43.699999
21
-36.292543
31
0
39
0
210
0
220
0
230
1
0
LINE
5
185
100
AcDbEntity
8
2
62
256
6
ByLayer
370
13
48
1
60
0
100
AcDbLine
10
43.700001
20
-37.082457
30
0
11
43.699999
21
-36.292543
31
0
39
0
210
0
220
0
230
1
0
ENDBLK
5
187
100
AcDbEntity
8
0
100
AcDbBlockEnd
0
ENDSEC
0
SECTION
2
ENTITIES
0
ARC
5
BA
100
AcDbEntity
8
1
62
256
6
ByLayer
370
18
48
1
60
0
100
AcDbCircle
39
0
10
-26.8
20
4.1625
30
0
40
1.6
210
0
220
0
230
-1
100
AcDbArc
50
0
51
90
0
ARC
5
BB
100
AcDbEntity
8
1
62
256
6
ByLayer
370
18
48
1
60
0
100
AcDbCircle
39
0
10
-36
20
1.7625
30
0
40
6
210
0
220
0
230
-1
100
AcDbArc
50
41.810315
51
65.961091
0
ARC
5
BE
100
AcDbEntity
8
1
62
256
6
ByLayer
370
18
48
1
60
0
100
AcDbCircle
39
0
10
-19.846192
20
8.147763
30
0
40
0.501259405157916
210
0
220
0
230
-1
100
AcDbArc
50
52.925818
51
187.074182
0
ARC
5
BF
100
AcDbEntity
8
1
62
256
6
ByLayer
370
18
48
1
60
0
100
AcDbCircle
39
0
10
-15.970955
20
7.738115
30
0
40
1.13980641809794
210
0
220
0
230
-1
100
AcDbArc
50
162.227341
51
251.247305
0
ARC
5
C0
100
AcDbEntity
8
1
62
256
6
ByLayer
370
18
48
1
60
0
100
AcDbCircle
39
0
10
-15.970955
20
4.586885
30
0
40
1.13980641809794
210
0
220
0
230
-1
100
AcDbArc
50
108.752695
51
191.247305
0
ARC
5
C1
100
AcDbEntity
8
1
62
256
6
ByLayer
370
18
48
1
60
0
100
AcDbCircle
39
0
10
-16.407616
20
6.1625
30
0
40
0.501259405157916
210
0
220
0
230
-1
100
AcDbArc
50
278.054217
51
81.945783
0
ARC
5
C2
100
AcDbEntity
8
1
62
256
6
ByLayer
370
18
48
1
60
0
100
AcDbCircle
39
0
10
-21.429045
20
4.586885
30
0
40
1.13980641809794
210
0
220
0
230
-1
100
AcDbArc
50
342.227341
51
77.772659
0
ARC
5
C3
100
AcDbEntity
8
1
62
256
6
ByLayer
370
18
48
1
60
0
100
AcDbCircle
39
0
10
-19.846192
20
4.177237
30
0
40
0.501259405157916
210
0
220
0
230
-1
100
AcDbArc
50
172.925818
51
321.945783
0
ARC
5
C5
100
AcDbEntity
8
1
62
256
6
ByLayer
370
18
48
1
60
0
100
AcDbCircle
39
0
10
-18.7
20
9.31373
30
0
40
1.13980641809794
210
0
220
0
230
-1
100
AcDbArc
50
222.227341
51
317.772659
0
ARC
5
C6
100
AcDbEntity
8
1
62
256
6
ByLayer
370
18
48
1
60
0
100
AcDbCircle
39
0
10
-17.553808
20
8.147763
30
0
40
0.501259405157916
210
0
220
0
230
-1
100
AcDbArc
50
352.925818
51
127.074182
0
ARC
5
C7
100
AcDbEntity
8
1
62
256
6
ByLayer
370
18
48
1
60
0
100
AcDbCircle
39
0
10
-21.429045
20
7.738115
30
0
40
1.13980641809794
210
0
220
0
230
-1
100
AcDbArc
50
288.752695
51
17.772659
0
ARC
5
C8
100
AcDbEntity
8
1
62
256
6
ByLayer
370
18
48
1
60
0
100
AcDbCircle
39
0
10
-18.7
20
3.01127
30
0
40
1.13980641809794
210
0
220
0
230
-1
100
AcDbArc
50
48.752695
51
131.247305
0
ARC
5
CA
100
AcDbEntity
8
1
62
256
6
ByLayer
370
18
48
1
60
0
100
AcDbCircle
39
0
10
-17.553808
20
4.177237
30
0
40
0.501259405157916
210
0
220
0
230
-1
100
AcDbArc
50
218.054217
51
21.945783
0
ARC
5
CB
100
AcDbEntity
8
1
62
256
6
ByLayer
370
18
48
1
60
0
100
AcDbCircle
39
0
10
-20.992384
20
6.1625
30
0
40
0.501259405157916
210
0
220
0
230
-1
100
AcDbArc
50
98.054217
51
247.074182
0
CIRCLE
5
BC
100
AcDbEntity
8
1
62
256
6
ByLayer
370
18
48
1
60
0
100
AcDbCircle
10
-18.7
20
6.1625
30
0
40
5.5
39
0
210
0
220
0
230
-1
0
CIRCLE
5
BD
100
AcDbEntity
8
1
62
256
6
ByLayer
370
18
48
1
60
0
100
AcDbCircle
10
18.7
20
6.1625
30
0
40
4.4958
39
0
210
0
220
0
230
1
0
CIRCLE
5
C4
100
AcDbEntity
8
1
62
256
6
ByLayer
370
18
48
1
60
0
100
AcDbCircle
10
-18.7
20
6.1625
30
0
40
5.0038
39
0
210
0
220
0
230
-1
0
CIRCLE
5
C9
100
AcDbEntity
8
1
62
256
6
ByLayer
370
18
48
1
60
0
100
AcDbCircle
10
-18.7
20
6.1625
30
0
40
3.0330983114651
39
0
210
0
220
0
230
-1
0
ELLIPSE
5
CC
100
AcDbEntity
8
1
62
256
6
ByLayer
370
18
48
1
60
0
100
AcDbEllipse
10
41.880093
20
30.2625
30
0
11
-24.4213309152941
21
5.72168994490661E-14
31
0
210
0
220
0
230
1
40
0.700208
41
0.985277837417123
42
1.50414641602014
0
ELLIPSE
5
CD
100
AcDbEntity
8
1
62
256
6
ByLayer
370
18
48
1
60
0
100
AcDbEllipse
10
41.880093
20
25.0625
30
0
11
-27.5632565373908
21
6.45781379916948E-14
31
0
210
0
220
0
230
1
40
0.700208
41
1.05912259159224
42
1.18577297271952
0
ELLIPSE
5
CE
100
AcDbEntity
8
1
62
256
6
ByLayer
370
18
48
1
60
0
100
AcDbEllipse
10
40.550001
20
9.406329
30
0
11
-0.0178108772292663
21
-0.500365774925747
31
0
210
0
220
0
230
1
40
0.492317
41
1.20664081105269
42
1.29390728268871
0
ELLIPSE
5
CF
100
AcDbEntity
8
1
62
256
6
ByLayer
370
18
48
1
60
0
100
AcDbEllipse
10
48.209483
20
25.0625
30
0
11
-9.31967113644285
21
-17.0702536846125
31
0
210
0
220
0
230
1
40
0.301519
41
0.190097588284612
42
0.227518158880555
0
ELLIPSE
5
D0
100
AcDbEntity
8
1
62
256
6
ByLayer
370
18
48
1
60
0
100
AcDbEllipse
10
60.622557
20
25.053034
30
0
11
-52.9964259385094
21
-7.80738018188687
31
0
210
0
220
0
230
1
40
0.291104
41
1.12513790565203
42
1.12925598122965
0
ELLIPSE
5
D1
100
AcDbEntity
8
1
62
256
6
ByLayer
370
18
48
1
60
0
100
AcDbEllipse
10
40.550001
20
11.62193
30
0
11
-0.0178108324516165
21
-0.500365777220477
31
0
210
0
220
0
230
1
40
0.492317
41
1.99203886138729
42
2.07930533215431
0
ELLIPSE
5
D2
100
AcDbEntity
8
1
62
256
6
ByLayer
370
18
48
1
60
0
100
AcDbEllipse
10
50.864823
20
30.2625
30
0
11
2.00318521536081E-14
21
17.0999999999998
31
0
210
0
220
0
230
1
40
0.57735
41
1.87978311797582
42
2.58152252427489
0
ELLIPSE
5
D3
100
AcDbEntity
8
1
62
256
6
ByLayer
370
18
48
1
60
0
100
AcDbEllipse
10
41.880093
20
25.0625
30
0
11
-24.7069605165704
21
5.78861029512253E-14
31
0
210
0
220
0
230
1
40
0.700208
41
1.33049696515225
42
1.50643211201783
0
ELLIPSE
5
D4
100
AcDbEntity
8
1
62
256
6
ByLayer
370
18
48
1
60
0
100
AcDbEllipse
10
46.299994
20
13.18773
30
0
11
0.4
21
0
31
0
210
0
220
0
230
1
40
0.999391
41
2.2833140195242E-06
42
1.57079783782243
0
ELLIPSE
5
D5
100
AcDbEntity
8
1
62
256
6
ByLayer
370
18
48
1
60
0
100
AcDbEllipse
10
46.299994
20
10.589314
30
0
11
3
21
0
31
0
210
0
220
0
230
1
40
0.999391
41
1.57079652826494
42
1.61442941732754
0
ELLIPSE
5
D6
100
AcDbEntity
8
1
62
256
6
ByLayer
370
18
48
1
60
0
100
AcDbEllipse
10
42.558349
20
12.661585
30
0
11
-0.857762549788246
21
-0.0178301510929749
31
0
210
0
220
0
230
1
40
0.465866
41
2.25924469502789
42
3.12707891945459
0
ELLIPSE
5
D7
100
AcDbEntity
8
1
62
256
6
ByLayer
370
18
48
1
60
0
100
AcDbEllipse
10
42.558349
20
8.439156
30
0
11
-0.857762549784814
21
-0.0178301510850657
31
0
210
0
220
0
230
1
40
0.465866
41
3.13673937545157
42
-2.27861183005162
0
POINT
5
6C
100
AcDbEntity
8
2
62
256
6
ByLayer
370
18
48
1
60
0
100
AcDbPoint
10
46.7
20
13.5625
30
0
39
0
210
0
220
0
230
1
50
360
0
POINT
5
6E
100
AcDbEntity
8
80
62
256
6
ByLayer
370
18
48
1
60
0
100
AcDbPoint
10
0
20
0
30
0
39
0
210
0
220
0
230
1
50
360
0
POINT
5
70
100
AcDbEntity
8
81
62
256
6
ByLayer
370
18
48
1
60
0
100
AcDbPoint
10
46.7
20
13.5625
30
0
39
0
210
0
220
0
230
1
50
360
0
SPLINE
5
D8
100
AcDbEntity
8
1
62
256
6
ByLayer
370
18
48
1
60
0
100
AcDbSpline
70
4
71
3
72
8
73
4
40
0
40
0
40
0
40
0
40
1
40
1
40
1
40
1
41
1
10
34.99
20
7.68438820625181
30
0
41
1
10
34.8726827590131
20
7.66432466571354
30
0
41
1
10
34.7559124521971
20
7.64075390768753
30
0
41
1
10
34.64
20
7.61373937341486
30
0
0
SPLINE
5
D9
100
AcDbEntity
8
1
62
256
6
ByLayer
370
18
48
1
60
0
100
AcDbSpline
70
4
71
3
72
10
73
6
40
0
40
0
40
0
40
0
40
0.485806845181855
40
0.485806845181855
40
1
40
1
40
1
40
1
41
1
10
35.741514702589
20
14.0006184388817
30
0
41
1
10
35.6723635786142
20
14.0092360713782
30
0
41
1
10
35.6003478540893
20
14.0159812456917
30
0
41
1
10
35.4493438252838
20
14.0254914720457
30
0
41
1
10
35.3694790421184
20
14.0280041718486
30
0
41
1
10
35.29
20
14.0280041718486
30
0
0
SPLINE
5
DA
100
AcDbEntity
8
1
62
256
6
ByLayer
370
18
48
1
60
0
100
AcDbSpline
70
4
71
3
72
10
73
6
40
0
40
0
40
0
40
0
40
0.462013421813134
40
0.462013421813134
40
1
40
1
40
1
40
1
41
1
10
35.2218658035951
20
7.71886309957694
30
0
41
1
10
35.1864225850839
20
7.71437906753226
30
0
41
1
10
35.1508054491135
20
7.70951457397746
30
0
41
1
10
35.0734683002187
20
7.69815594792502
30
0
41
1
10
35.0316671344401
20
7.69151410039933
30
0
41
1
10
34.99
20
7.68438820625181
30
0
0
SPLINE
5
DB
100
AcDbEntity
8
1
62
256
6
ByLayer
370
18
48
1
60
0
100
AcDbSpline
70
4
71
3
72
10
73
6
40
0
40
0
40
0
40
0
40
0.499999999999999
40
0.499999999999999
40
1
40
1
40
1
40
1
41
1
10
36
20
8.25958483955333
30
0
41
1
10
35.22460154427
20
8.39262356953006
30
0
41
1
10
34.4507221437545
20
8.40652465732069
30
0
41
1
10
32.907334849312
20
8.09147491891224
30
0
41
1
10
32.1567709761003
20
7.75568455573895
30
0
41
1
10
31.5278640450003
20
7.17545953182165
30
0
0
SPLINE
5
DC
100
AcDbEntity
8
1
62
256
6
ByLayer
370
18
48
1
60
0
100
AcDbSpline
70
4
71
3
72
8
73
4
40
0
40
0
40
0
40
0
40
1
40
1
40
1
40
1
41
1
10
35.221865803595
20
7.71886309957711
30
0
41
1
10
35.4722485447622
20
7.75374758604195
30
0
41
1
10
35.736656533684
20
7.77334292230151
30
0
41
1
10
36.0000000000202
20
7.77372427493248
30
0
0
SPLINE
5
DD
100
AcDbEntity
8
1
62
256
6
ByLayer
370
18
48
1
60
0
100
AcDbSpline
70
4
71
3
72
8
73
4
40
0
40
0
40
0
40
0
40
1
40
1
40
1
40
1
41
1
10
36.105
20
7.7738003974693
30
0
41
1
10
36.0699929340272
20
7.7738003974693
30
0
41
1
10
36.0349788037484
20
7.77377492839452
30
0
41
1
10
36.0000000000208
20
7.77372427493026
30
0
0
SPLINE
5
DE
100
AcDbEntity
8
1
62
256
6
ByLayer
370
18
48
1
60
0
100
AcDbSpline
70
4
71
3
72
16
73
12
40
0
40
0
40
0
40
0
40
0.226360880675432
40
0.226360880675432
40
0.479657242027113
40
0.479657242027113
40
0.719269116190116
40
0.719269116190116
40
0.928851408427629
40
0.928851408427629
40
1
40
1
40
1
40
1
41
1
10
25.2
20
6.42094695311033
30
0
41
1
10
25.2
20
6.62243822980722
30
0
41
1
10
25.2307888299698
20
6.82621034528802
30
0
41
1
10
25.357751578485
20
7.23337210861655
30
0
41
1
10
25.4634527950407
20
7.44015754878541
30
0
41
1
10
25.7321215608403
20
7.78557548848201
30
0
41
1
10
25.8964781326534
20
7.93266603709893
30
0
41
1
10
26.2421759761724
20
8.13164987218181
30
0
41
1
10
26.4244056189591
20
8.19574524448407
30
0
41
1
10
26.6721766513299
20
8.22991671552779
30
0
41
1
10
26.7361623398109
20
8.23432422245355
30
0
41
1
10
26.8
20
8.23432422245355
30
0
0
SPLINE
5
DF
100
AcDbEntity
8
1
62
256
6
ByLayer
370
18
48
1
60
0
100
AcDbSpline
70
4
71
2
72
6
73
3
40
0
40
0
40
0
40
1
40
1
40
1
41
0.500000172003356
10
39.8291119366244
20
7.7670069565333
30
0
41
0.499999827996644
10
39.1492125219862
20
7.76727116335441
30
0
41
0.500000172003356
10
38.4689517286621
20
7.76755085624735
30
0
0
SPLINE
5
E0
100
AcDbEntity
8
1
62
256
6
ByLayer
370
18
48
1
60
0
100
AcDbSpline
70
4
71
3
72
8
73
4
40
0
40
0
40
0
40
0
40
1
40
1
40
1
40
1
41
1
10
35.9700190703569
20
13.7023624139038
30
0
41
1
10
35.9018514695537
20
13.8060292153515
30
0
41
1
10
35.8258982508422
20
13.9062525335581
30
0
41
1
10
35.741514702589
20
14.0006184388817
30
0
0
SPLINE
5
E1
100
AcDbEntity
8
1
62
256
6
ByLayer
370
18
48
1
60
0
100
AcDbSpline
70
4
71
3
72
10
73
6
40
0
40
0
40
0
40
0
40
0.676545218453196
40
0.676545218453196
40
1
40
1
40
1
40
1
41
1
10
35.04
20
14.0280041718486
30
0
41
1
10
34.9039636028842
20
14.0280041718486
30
0
41
1
10
34.7660556654007
20
14.0204679431216
30
0
41
1
10
34.5764514980278
20
13.9996630258334
30
0
41
1
10
34.5165098763502
20
13.9913604813855
30
0
41
1
10
34.4590005349871
20
13.9817618191204
30
0
0
SPLINE
5
E2
100
AcDbEntity
8
1
62
256
6
ByLayer
370
18
48
1
60
0
100
AcDbSpline
70
4
71
3
72
10
73
6
40
0
40
0
40
0
40
0
40
0.77908317577956
40
0.77908317577956
40
1
40
1
40
1
40
1
41
1
10
38.4689517286641
20
7.76755085624734
30
0
41
1
10
38.2203843777086
20
7.77010587316985
30
0
41
1
10
37.9519078221687
20
7.7725724531835
30
0
41
1
10
37.6054703745065
20
7.77367392341722
30
0
41
1
10
37.5276965845888
20
7.77380039746976
30
0
41
1
10
37.45
20
7.77380039746976
30
0
0
SPLINE
5
E3
100
AcDbEntity
8
1
62
256
6
ByLayer
370
18
48
1
60
0
100
AcDbSpline
70
4
71
3
72
8
73
4
40
0
40
0
40
0
40
0
40
1
40
1
40
1
40
1
41
1
10
36.105
20
14.0095619083191
30
0
41
1
10
35.9834572752746
20
14.0095619083191
30
0
41
1
10
35.8615399449269
20
14.0065390066598
30
0
41
1
10
35.741514702589
20
14.0006184388817
30
0
0
SPLINE
5
E4
100
AcDbEntity
8
1
62
256
6
ByLayer
370
18
48
1
60
0
100
AcDbSpline
70
4
71
3
72
12
73
8
40
0
40
0
40
0
40
0
40
0.414479980756417
40
0.414479980756417
40
0.827697899486439
40
0.827697899486439
40
1
40
1
40
1
40
1
41
1
10
34.64
20
7.61373937341486
30
0
41
1
10
34.4662915940361
20
7.57325492504526
30
0
41
1
10
34.2926866643807
20
7.52321802311553
30
0
41
1
10
33.973961535288
20
7.4160537046489
30
0
41
1
10
33.8242539256554
20
7.35761081185825
30
0
41
1
10
33.6396329267948
20
7.27935507883032
30
0
41
1
10
33.5880969678879
20
7.25666189753846
30
0
41
1
10
33.5399565965569
20
7.23497411428721
30
0
0
SPLINE
5
E5
100
AcDbEntity
8
1
62
256
6
ByLayer
370
18
48
1
60
0
100
AcDbSpline
70
4
71
5
72
12
73
6
40
0
40
0
40
0
40
0
40
0
40
0
40
1
40
1
40
1
40
1
40
1
40
1
41
1
10
40.7935397714169
20
12.3720375544739
30
0
41
1
10
40.7553875009449
20
12.3821938027234
30
0
41
1
10
40.7140105678409
20
12.3907960031182
30
0
41
1
10
40.6703511832433
20
12.3976954467116
30
0
41
1
10
40.6253901274157
20
12.4028528899437
30
0
41
1
10
40.5798231323299
20
12.4063008545246
30
0
0
SPLINE
5
E6
100
AcDbEntity
8
1
62
256
6
ByLayer
370
18
48
1
60
0
100
AcDbSpline
70
4
71
5
72
12
73
6
40
0
40
0
40
0
40
0
40
0
40
0
40
1
40
1
40
1
40
1
40
1
40
1
41
1
10
40.7935397714169
20
8.75860306098855
30
0
41
1
10
40.7670894491876
20
8.75271487337392
30
0
41
1
10
40.7390892206611
20
8.7474195004848
30
0
41
1
10
40.7098530499223
20
8.74275931531449
30
0
41
1
10
40.6797038111462
20
8.73875629820924
30
0
41
1
10
40.6489214581717
20
8.73541655264455
30
0
0
SPLINE
5
E7
100
AcDbEntity
8
1
62
256
6
ByLayer
370
18
48
1
60
0
100
AcDbSpline
70
4
71
5
72
12
73
6
40
0
40
0
40
0
40
0
40
0
40
0
40
1
40
1
40
1
40
1
40
1
40
1
41
1
10
40.7929769105469
20
12.4436234297631
30
0
41
1
10
40.7539968578461
20
12.4388360561457
30
0
41
1
10
40.7118775986456
20
12.4336769648885
30
0
41
1
10
40.6674181732572
20
12.4282440911626
30
0
41
1
10
40.6215010574861
20
12.4226450670051
30
0
41
1
10
40.5749369394399
20
12.4169783452876
30
0
0
SPLINE
5
E8
100
AcDbEntity
8
1
62
256
6
ByLayer
370
18
48
1
60
0
100
AcDbSpline
70
4
71
5
72
12
73
6
40
0
40
0
40
0
40
0
40
0
40
0
40
1
40
1
40
1
40
1
40
1
40
1
41
1
10
40.7929769105469
20
8.68638996931827
30
0
41
1
10
40.7648244045048
20
8.69116271259486
30
0
41
1
10
40.7350344442618
20
8.6959571365673
30
0
41
1
10
40.7039080479148
20
8.70072493783616
30
0
41
1
10
40.6717689347904
20
8.70541929912014
30
0
41
1
10
40.6389330233415
20
8.70999865594899
30
0
0
SPLINE
5
E9
100
AcDbEntity
8
1
62
256
6
ByLayer
370
18
48
1
60
0
100
AcDbSpline
70
4
71
5
72
12
73
6
40
0
40
0
40
0
40
0
40
0
40
0
40
1
40
1
40
1
40
1
40
1
40
1
41
1
10
40.5158323662179
20
8.45670076832593
30
0
41
1
10
40.5659948687806
20
8.45669997825738
30
0
41
1
10
40.6161393870577
20
8.45648651861706
30
0
41
1
10
40.6653030705793
20
8.45605469289495
30
0
41
1
10
40.7123827072714
20
8.45540999517837
30
0
41
1
10
40.7563618758044
20
8.45456815156334
30
0
0
SPLINE
5
EA
100
AcDbEntity
8
1
62
256
6
ByLayer
370
18
48
1
60
0
100
AcDbSpline
70
4
71
5
72
12
73
6
40
0
40
0
40
0
40
0
40
0
40
0
40
1
40
1
40
1
40
1
40
1
40
1
41
1
10
40.9214581111063
20
9.02646931117658
30
0
41
1
10
40.9421127031635
20
8.95354531707221
30
0
41
1
10
40.9893541563654
20
8.88005976331942
30
0
41
1
10
41.0604234955746
20
8.8167758423597
30
0
41
1
10
41.1437386661218
20
8.77400671030924
30
0
41
1
10
41.2270032797239
20
8.75439437600957
30
0
0
SPLINE
5
EB
100
AcDbEntity
8
1
62
256
6
ByLayer
370
18
48
1
60
0
100
AcDbSpline
70
4
71
5
72
12
73
6
40
0
40
0
40
0
40
0
40
0
40
0
40
1
40
1
40
1
40
1
40
1
40
1
41
1
10
41.2270032797239
20
8.75439437600957
30
0
41
1
10
41.232537325025
20
8.76330489367263
30
0
41
1
10
41.2377276021899
20
8.77228416634912
30
0
41
1
10
41.2425776669829
20
8.78132307684493
30
0
41
1
10
41.2470932857799
20
8.79041252366284
30
0
41
1
10
41.251282703598
20
8.79954353636225
30
0
0
SPLINE
5
EC
100
AcDbEntity
8
1
62
256
6
ByLayer
370
18
48
1
60
0
100
AcDbSpline
70
4
71
5
72
12
73
6
40
0
40
0
40
0
40
0
40
0
40
0
40
1
40
1
40
1
40
1
40
1
40
1
41
1
10
40.793539748545
20
8.75860228705142
30
0
41
1
10
40.8226225470019
20
8.72264134151632
30
0
41
1
10
40.8577497977619
20
8.68471198769205
30
0
41
1
10
40.897257419844
20
8.64661700285404
30
0
41
1
10
40.9390756919289
20
8.61070335905754
30
0
41
1
10
40.9808108420369
20
8.57851325557874
30
0
0
SPLINE
5
ED
100
AcDbEntity
8
1
62
256
6
ByLayer
370
18
48
1
60
0
100
AcDbSpline
70
4
71
5
72
12
73
6
40
0
40
0
40
0
40
0
40
0
40
0
40
1
40
1
40
1
40
1
40
1
40
1
41
1
10
40.9808113529099
20
8.57851325552579
30
0
41
1
10
41.0367042805335
20
8.61306105728022
30
0
41
1
10
41.0903459123533
20
8.64865716034015
30
0
41
1
10
41.1413507710282
20
8.68468345177459
30
0
41
1
10
41.1888661156011
20
8.72106672817625
30
0
41
1
10
41.2270492040543
20
8.75436110471236
30
0
0
SPLINE
5
EE
100
AcDbEntity
8
1
62
256
6
ByLayer
370
18
48
1
60
0
100
AcDbSpline
70
4
71
5
72
12
73
6
40
0
40
0
40
0
40
0
40
0
40
0
40
1
40
1
40
1
40
1
40
1
40
1
41
1
10
41.2270032797239
20
12.3642898907392
30
0
41
1
10
41.232537325025
20
12.3546055100765
30
0
41
1
10
41.2377276021899
20
12.3448464031455
30
0
41
1
10
41.2425776669829
20
12.3350224789546
30
0
41
1
10
41.2470932857799
20
12.3251436294494
30
0
41
1
10
41.251282703598
20
12.3152196041386
30
0
0
SPLINE
5
EF
100
AcDbEntity
8
1
62
256
6
ByLayer
370
18
48
1
60
0
100
AcDbSpline
70
4
71
3
72
10
73
6
40
0
40
0
40
0
40
0
40
0.218207094905861
40
0.493445211633484
40
1
40
1
40
1
40
1
41
1
10
42.0586785180529
20
11.7788306285171
30
0
41
1
10
42.0641621572138
20
11.8083731350699
30
0
41
1
10
42.0765626499082
20
11.875179433941
30
0
41
1
10
42.1718346186318
20
11.9723901533453
30
0
41
1
10
42.2600576109129
20
12.0143426490644
30
0
41
1
10
42.3172208045065
20
12.0415253434224
30
0
0
SPLINE
5
F0
100
AcDbEntity
8
1
62
256
6
ByLayer
370
18
48
1
60
0
100
AcDbSpline
70
4
71
2
72
6
73
3
40
0
40
0
40
0
40
1
40
1
40
1
41
1
10
41.6460528102373
20
12.7157128093043
30
0
41
1
10
41.5918164694105
20
12.6848106931497
30
0
41
1
10
41.531219415878
20
12.6776326269167
30
0
0
SPLINE
5
F1
100
AcDbEntity
8
1
62
256
6
ByLayer
370
18
48
1
60
0
100
AcDbSpline
70
4
71
1
72
4
73
2
40
0
40
0
40
1
40
1
41
1
10
46.1691363745247
20
13.5846328009178
30
0
41
1
10
42.9540471816943
20
13.4443455737115
30
0
0
SPLINE
5
F2
100
AcDbEntity
8
1
62
256
6
ByLayer
370
18
48
1
60
0
100
AcDbSpline
70
4
71
2
72
6
73
3
40
0
40
0
40
0
40
1
40
1
40
1
41
1
10
42.9540471816911
20
13.4443455737557
30
0
41
1
10
42.9052311315767
20
13.4419479556072
30
0
41
1
10
42.8627710594084
20
13.4177572416785
30
0
0
SPLINE
5
F3
100
AcDbEntity
8
1
62
256
6
ByLayer
370
18
48
1
60
0
100
AcDbSpline
70
4
71
3
72
8
73
4
40
0
40
0
40
0
40
0
40
1
40
1
40
1
40
1
41
1
10
43.4161216198859
20
12.6755446544168
30
0
41
1
10
42.7878211972353
20
12.6755446544168
30
0
41
1
10
42.1595207745846
20
12.6755446544169
30
0
41
1
10
41.5312203519339
20
12.6755446544169
30
0
0
SPLINE
5
F4
100
AcDbEntity
8
1
62
256
6
ByLayer
370
18
48
1
60
0
100
AcDbSpline
70
4
71
3
72
8
73
4
40
0
40
0
40
0
40
0
40
1
40
1
40
1
40
1
41
1
10
41.5312203519339
20
12.6755446544168
30
0
41
1
10
41.5194978438166
20
12.6755446544168
30
0
41
1
10
41.5077753356993
20
12.6755446544168
30
0
41
1
10
41.4960528275819
20
12.6755446544168
30
0
0
SPLINE
5
F5
100
AcDbEntity
8
1
62
256
6
ByLayer
370
18
48
1
60
0
100
AcDbSpline
70
4
71
5
72
12
73
6
40
0
40
0
40
0
40
0
40
0
40
0
40
1
40
1
40
1
40
1
40
1
40
1
41
1
10
40.9808113529099
20
12.5487215165552
30
0
41
1
10
41.0367042805335
20
12.5133619050148
30
0
41
1
10
41.0903459123533
20
12.4766137853233
30
0
41
1
10
41.1413507710282
20
12.4390193293845
30
0
41
1
10
41.1888661156011
20
12.4005120903129
30
0
41
1
10
41.2270492040543
20
12.3643260643323
30
0
0
SPLINE
5
F6
100
AcDbEntity
8
1
62
256
6
ByLayer
370
18
48
1
60
0
100
AcDbSpline
70
4
71
5
72
12
73
6
40
0
40
0
40
0
40
0
40
0
40
0
40
1
40
1
40
1
40
1
40
1
40
1
41
1
10
40.9808108420369
20
12.5487215161684
30
0
41
1
10
40.9403504047419
20
12.5304225989648
30
0
41
1
10
40.8998897610839
20
12.5100339386677
30
0
41
1
10
40.8609092422439
20
12.488223373488
30
0
41
1
10
40.8248833154849
20
12.465815909918
30
0
41
1
10
40.7929761118249
20
12.4436233294058
30
0
0
SPLINE
5
F7
100
AcDbEntity
8
1
62
256
6
ByLayer
370
18
48
1
60
0
100
AcDbSpline
70
4
71
5
72
12
73
6
40
0
40
0
40
0
40
0
40
0
40
0
40
1
40
1
40
1
40
1
40
1
40
1
41
1
10
40.793539748545
20
12.3720384761432
30
0
41
1
10
40.8226225470019
20
12.4059539553718
30
0
41
1
10
40.8577497977619
20
12.4424446055184
30
0
41
1
10
40.897257419844
20
12.4798222693976
30
0
41
1
10
40.9390756919289
20
12.5157752250451
30
0
41
1
10
40.9808108420369
20
12.5487215161684
30
0
0
SPLINE
5
F8
100
AcDbEntity
8
1
62
256
6
ByLayer
370
18
48
1
60
0
100
AcDbSpline
70
4
71
5
72
12
73
6
40
0
40
0
40
0
40
0
40
0
40
0
40
1
40
1
40
1
40
1
40
1
40
1
41
1
10
41.3652582702759
20
9.30564705326537
30
0
41
1
10
41.3652579982149
20
9.24674027633208
30
0
41
1
10
41.3652575090889
20
9.18827878679139
30
0
41
1
10
41.3652569990489
20
9.13401441245145
30
0
41
1
10
41.3652567628799
20
9.08759343409284
30
0
41
1
10
41.3652547898359
20
9.05130227918039
30
0
0
SPLINE
5
F9
100
AcDbEntity
8
1
62
256
6
ByLayer
370
18
48
1
60
0
100
AcDbSpline
70
4
71
2
72
8
73
5
40
0
40
0
40
0
40
0.5
40
0.5
40
1
40
1
40
1
41
1
10
42.0586785180528
20
9.30564705326537
30
0
41
1
10
42.0589664654775
20
9.21716582811214
30
0
41
1
10
42.1514996519711
20
9.14180545017032
30
0
41
1
10
42.2157144854158
20
9.08950795236188
30
0
41
1
10
42.3172208045059
20
9.05136732300994
30
0
0
SPLINE
5
FA
100
AcDbEntity
8
1
62
256
6
ByLayer
370
18
48
1
60
0
100
AcDbSpline
70
4
71
9
72
20
73
10
40
0
40
0
40
0
40
0
40
0
40
0
40
0
40
0
40
0
40
0
40
1
40
1
40
1
40
1
40
1
40
1
40
1
40
1
40
1
40
1
41
1
10
46.6999997703622
20
7.94092163733211
30
0
41
1
10
46.6999997703622
20
7.87115099603875
30
0
41
1
10
46.6862919888722
20
7.80138035726384
30
0
41
1
10
46.6588764132522
20
7.73468385542628
30
0
41
1
10
46.6185583864922
20
7.67413564746124
30
0
41
1
10
46.5669483904322
20
7.62255707427647
30
0
41
1
10
46.5063632552023
20
7.5822636170636
30
0
41
1
10
46.4396261133122
20
7.55486473830393
30
0
41
1
10
46.3698129410722
20
7.54116530744392
30
0
41
1
10
46.2999997712922
20
7.54116530744392
30
0
0
SPLINE
5
FB
100
AcDbEntity
8
1
62
256
6
ByLayer
370
18
48
1
60
0
100
AcDbSpline
70
4
71
9
72
20
73
10
40
0
40
0
40
0
40
0
40
0
40
0
40
0
40
0
40
0
40
0
40
1
40
1
40
1
40
1
40
1
40
1
40
1
40
1
40
1
40
1
41
1
10
46.2999997407276
20
7.54116534885014
30
0
41
1
10
46.2854553302976
20
7.54116534885014
30
0
41
1
10
46.2709109198676
20
7.541244627976
30
0
41
1
10
46.2563670039075
20
7.54140318623772
30
0
41
1
10
46.2418240768876
20
7.5416410200275
30
0
41
1
10
46.2272826332676
20
7.54195812216969
30
0
41
1
10
46.2127431674076
20
7.54235448187089
30
0
41
1
10
46.1982061736076
20
7.54283008476986
30
0
41
1
10
46.1836721460076
20
7.54338491288755
30
0
41
1
10
46.1691415786376
20
7.54401894469706
30
0
0
SPLINE
5
FC
100
AcDbEntity
8
1
62
256
6
ByLayer
370
18
48
1
60
0
100
AcDbSpline
70
4
71
1
72
4
73
2
40
0
40
0
40
1
40
1
41
1
10
41.646052810408
20
8.4129470790192
30
0
41
1
10
42.862771058595
20
7.71090179665634
30
0
0
SPLINE
5
FD
100
AcDbEntity
8
1
62
256
6
ByLayer
370
18
48
1
60
0
100
AcDbSpline
70
4
71
1
72
4
73
2
40
0
40
0
40
1
40
1
41
1
10
46.7
20
7.94092568535717
30
0
41
1
10
46.7000000003789
20
13.1877306747581
30
0
0
SPLINE
5
FE
100
AcDbEntity
8
1
62
256
6
ByLayer
370
18
48
1
60
0
100
AcDbSpline
70
4
71
1
72
4
73
2
40
0
40
0
40
1
40
1
41
1
10
43.4160615934003
20
12.6736136389321
30
0
41
1
10
43.4160615930956
20
8.45504501303157
30
0
0
SPLINE
5
FF
100
AcDbEntity
8
1
62
256
6
ByLayer
370
18
48
1
60
0
100
AcDbSpline
70
4
71
1
72
4
73
2
40
0
40
0
40
1
40
1
41
1
10
43.4161216193755
20
8.45311436595179
30
0
41
1
10
41.531220351611
20
8.45311502369032
30
0
0
SPLINE
5
100
100
AcDbEntity
8
1
62
256
6
ByLayer
370
18
48
1
60
0
100
AcDbSpline
70
4
71
5
72
12
73
6
40
0
40
0
40
0
40
0
40
0
40
0
40
1
40
1
40
1
40
1
40
1
40
1
41
1
10
40.9808090015704
20
8.5785083384537
30
0
41
1
10
40.9595278959125
20
8.55555104878852
30
0
41
1
10
40.9409599482814
20
8.53152236810831
30
0
41
1
10
40.926316870704
20
8.50625882904947
30
0
41
1
10
40.9187365189553
20
8.47968677038983
30
0
41
1
10
40.918776145217
20
8.4531163124293
30
0
0
SPLINE
5
101
100
AcDbEntity
8
1
62
256
6
ByLayer
370
18
48
1
60
0
100
AcDbSpline
70
4
71
5
72
12
73
6
40
0
40
0
40
0
40
0
40
0
40
0
40
1
40
1
40
1
40
1
40
1
40
1
41
1
10
40.7935397714169
20
8.75860306098855
30
0
41
1
10
40.792556346612
20
8.74433775637877
30
0
41
1
10
40.7920061523659
20
8.72992883905715
30
0
41
1
10
40.7918929819529
20
8.71543054524582
30
0
41
1
10
40.7922172767589
20
8.70089898031117
30
0
41
1
10
40.7929769105469
20
8.68638996931827
30
0
0
SPLINE
5
102
100
AcDbEntity
8
1
62
256
6
ByLayer
370
18
48
1
60
0
100
AcDbSpline
70
4
71
9
72
20
73
10
40
0
40
0
40
0
40
0
40
0
40
0
40
0
40
0
40
0
40
0
40
1
40
1
40
1
40
1
40
1
40
1
40
1
40
1
40
1
40
1
41
1
10
41.0478929541095
20
10.5499941532913
30
0
41
1
10
41.0635732488599
20
10.548490704366
30
0
41
1
10
41.0858327524839
20
10.5470708235165
30
0
41
1
10
41.1142535267621
20
10.545774583377
30
0
41
1
10
41.1481838049752
20
10.5446390874997
30
0
41
1
10
41.1867588153409
20
10.5436964750349
30
0
41
1
10
41.2289389810289
20
10.5429721491398
30
0
41
1
10
41.2735631120669
20
10.5424834761702
30
0
41
1
10
41.3194092270629
20
10.5422391397105
30
0
41
1
10
41.365255341915
20
10.5422391397105
30
0
0
SPLINE
5
103
100
AcDbEntity
8
1
62
256
6
ByLayer
370
18
48
1
60
0
100
AcDbSpline
70
4
71
5
72
12
73
6
40
0
40
0
40
0
40
0
40
0
40
0
40
1
40
1
40
1
40
1
40
1
40
1
41
1
10
41.365258270301
20
11.7788306285871
30
0
41
1
10
41.2827408588329
20
11.7788292014545
30
0
41
1
10
41.2001911847407
20
11.7797062772128
30
0
41
1
10
41.1280021648986
20
11.7814692601378
30
0
41
1
10
41.0761173990299
20
11.7838756860724
30
0
41
1
10
41.0478927074972
20
11.7865827658677
30
0
0
SPLINE
5
104
100
AcDbEntity
8
1
62
256
6
ByLayer
370
18
48
1
60
0
100
AcDbSpline
70
4
71
5
72
12
73
6
40
0
40
0
40
0
40
0
40
0
40
0
40
1
40
1
40
1
40
1
40
1
40
1
41
1
10
40.921451748483
20
12.0973372300346
30
0
41
1
10
40.924329667175
20
12.0900608505344
30
0
41
1
10
40.927011475986
20
12.0827014308635
30
0
41
1
10
40.9294993924819
20
12.0752663423948
30
0
41
1
10
40.931796463261
20
12.0677631052598
30
0
41
1
10
40.9339066137229
20
12.0601993243046
30
0
0
SPLINE
5
105
100
AcDbEntity
8
1
62
256
6
ByLayer
370
18
48
1
60
0
100
AcDbSpline
70
4
71
5
72
12
73
6
40
0
40
0
40
0
40
0
40
0
40
0
40
1
40
1
40
1
40
1
40
1
40
1
41
1
10
40.9339066137229
20
12.0601993243046
30
0
41
1
10
40.9532064579187
20
12.1298543259347
30
0
41
1
10
41.0013390841078
20
12.1999231319966
30
0
41
1
10
41.0756686139037
20
12.2596517878267
30
0
41
1
10
41.1634951491062
20
12.2988352071929
30
0
41
1
10
41.2512629920048
20
12.3152159256877
30
0
0
SPLINE
5
106
100
AcDbEntity
8
1
62
256
6
ByLayer
370
18
48
1
60
0
100
AcDbSpline
70
4
71
5
72
12
73
6
40
0
40
0
40
0
40
0
40
0
40
0
40
1
40
1
40
1
40
1
40
1
40
1
41
1
10
40.7935396047339
20
12.3720383049575
30
0
41
1
10
40.8229783085479
20
12.3167628103997
30
0
41
1
10
40.8508271146829
20
12.2602937083356
30
0
41
1
10
40.877117724777
20
12.203783732437
30
0
41
1
10
40.901623444192
20
12.1475088803499
30
0
41
1
10
40.9214782641769
20
12.0973596912277
30
0
0
SPLINE
5
107
100
AcDbEntity
8
1
62
256
6
ByLayer
370
18
48
1
60
0
100
AcDbSpline
70
4
71
5
72
12
73
6
40
0
40
0
40
0
40
0
40
0
40
0
40
1
40
1
40
1
40
1
40
1
40
1
41
1
10
40.9214782641769
20
12.0973596912277
30
0
41
1
10
40.942133035333
20
12.1668341853289
30
0
41
1
10
40.9893736838615
20
12.2377405874087
30
0
41
1
10
41.0604431760408
20
12.299834537343
30
0
41
1
10
41.1437599361884
20
12.3429972224514
30
0
41
1
10
41.2270275453686
20
12.3643205185338
30
0
0
SPLINE
5
108
100
AcDbEntity
8
1
62
256
6
ByLayer
370
18
48
1
60
0
100
AcDbSpline
70
4
71
5
72
12
73
6
40
0
40
0
40
0
40
0
40
0
40
0
40
1
40
1
40
1
40
1
40
1
40
1
41
1
10
40.7935397714169
20
12.3720375544739
30
0
41
1
10
40.792556346612
20
12.3860884939789
30
0
41
1
10
40.7920061523659
20
12.4003267608895
30
0
41
1
10
40.7918929819529
20
12.4146990999485
30
0
41
1
10
40.7922172767589
20
12.4291498917036
30
0
41
1
10
40.7929769105469
20
12.4436234297631
30
0
0
SPLINE
5
109
100
AcDbEntity
8
1
62
256
6
ByLayer
370
18
48
1
60
0
100
AcDbSpline
70
4
71
5
72
12
73
6
40
0
40
0
40
0
40
0
40
0
40
0
40
1
40
1
40
1
40
1
40
1
40
1
41
1
10
40.5158323662179
20
12.6791296249092
30
0
41
1
10
40.5659948687806
20
12.6791288348407
30
0
41
1
10
40.6161393870577
20
12.6789153752004
30
0
41
1
10
40.6653030705793
20
12.6784835494782
30
0
41
1
10
40.7123827072714
20
12.6778388517617
30
0
41
1
10
40.7563618758044
20
12.6769970081466
30
0
0
SPLINE
5
10A
100
AcDbEntity
8
1
62
256
6
ByLayer
370
18
48
1
60
0
100
AcDbSpline
70
4
71
5
72
12
73
6
40
0
40
0
40
0
40
0
40
0
40
0
40
1
40
1
40
1
40
1
40
1
40
1
41
1
10
41.0478927074972
20
11.7865827658677
30
0
41
1
10
41.067125459028
20
11.8560008989571
30
0
41
1
10
41.1150486358792
20
11.9260656104719
30
0
41
1
10
41.189445476231
20
11.9859681750092
30
0
41
1
10
41.2774093301789
20
12.0252053471199
30
0
41
1
10
41.3652547898359
20
12.0415960330909
30
0
0
SPLINE
5
10B
100
AcDbEntity
8
1
62
256
6
ByLayer
370
18
48
1
60
0
100
AcDbSpline
70
4
71
5
72
12
73
6
40
0
40
0
40
0
40
0
40
0
40
0
40
1
40
1
40
1
40
1
40
1
40
1
41
1
10
41.3652582702759
20
11.7788306285171
30
0
41
1
10
41.3652579982149
20
11.8377374727627
30
0
41
1
10
41.3652575090889
20
11.8970962503099
30
0
41
1
10
41.3652569990489
20
11.9531572004375
30
0
41
1
10
41.3652567628799
20
12.0021533022016
30
0
41
1
10
41.3652547898359
20
12.0415960330909
30
0
0
SPLINE
5
10C
100
AcDbEntity
8
1
62
256
6
ByLayer
370
18
48
1
60
0
100
AcDbSpline
70
4
71
5
72
12
73
6
40
0
40
0
40
0
40
0
40
0
40
0
40
1
40
1
40
1
40
1
40
1
40
1
41
1
10
40.9808090015704
20
12.5487265527847
30
0
41
1
10
40.9595278959125
20
12.5722230006572
30
0
41
1
10
40.9409599482814
20
12.596676597918
30
0
41
1
10
40.926316870704
20
12.6222459758895
30
0
41
1
10
40.9187365189553
20
12.6489741315341
30
0
41
1
10
40.918776145217
20
12.6755441124366
30
0
0
SPLINE
5
10D
100
AcDbEntity
8
1
62
256
6
ByLayer
370
18
48
1
60
0
100
AcDbSpline
70
4
71
5
72
12
73
6
40
0
40
0
40
0
40
0
40
0
40
0
40
1
40
1
40
1
40
1
40
1
40
1
41
1
10
40.918776145217
20
12.6755441124366
30
0
41
1
10
40.8848896894149
20
12.6755439845318
30
0
41
1
10
40.851003167696
20
12.6756922003689
30
0
41
1
10
40.8178275560109
20
12.6759887898806
30
0
41
1
10
40.7860728997969
20
12.6764273956904
30
0
41
1
10
40.7563620289729
20
12.6769960422118
30
0
0
SPLINE
5
10E
100
AcDbEntity
8
1
62
256
6
ByLayer
370
18
48
1
60
0
100
AcDbSpline
70
4
71
5
72
12
73
6
40
0
40
0
40
0
40
0
40
0
40
0
40
1
40
1
40
1
40
1
40
1
40
1
41
1
10
40.7929722145769
20
12.4436343977126
30
0
41
1
10
40.7804316303329
20
12.4867665427012
30
0
41
1
10
40.7694737148999
20
12.5317077270121
30
0
41
1
10
40.760819515275
20
12.5787521356761
30
0
41
1
10
40.7563384514369
20
12.6279904387396
30
0
41
1
10
40.7563620289729
20
12.6769960422118
30
0
0
SPLINE
5
10F
100
AcDbEntity
8
1
62
256
6
ByLayer
370
18
48
1
60
0
100
AcDbSpline
70
4
71
5
72
12
73
6
40
0
40
0
40
0
40
0
40
0
40
0
40
1
40
1
40
1
40
1
40
1
40
1
41
1
10
40.918776145217
20
8.4531163124293
30
0
41
1
10
40.8848896894149
20
8.45311643013477
30
0
41
1
10
40.851003167696
20
8.45326484049332
30
0
41
1
10
40.8178275560109
20
8.45356159182637
30
0
41
1
10
40.7860728997969
20
8.45400034226802
30
0
41
1
10
40.7563620289729
20
8.45456913386101
30
0
0
SPLINE
5
110
100
AcDbEntity
8
1
62
256
6
ByLayer
370
18
48
1
60
0
100
AcDbSpline
70
4
71
5
72
12
73
6
40
0
40
0
40
0
40
0
40
0
40
0
40
1
40
1
40
1
40
1
40
1
40
1
41
1
10
40.7935396047339
20
8.75860246881061
30
0
41
1
10
40.8229783085479
20
8.81348013374244
30
0
41
1
10
40.8508271146829
20
8.86920180831009
30
0
41
1
10
40.877117724777
20
8.92452245981011
30
0
41
1
10
40.901623444192
20
8.97901103688619
30
0
41
1
10
40.9214782641769
20
9.02646891411317
30
0
0
SPLINE
5
111
100
AcDbEntity
8
1
62
256
6
ByLayer
370
18
48
1
60
0
100
AcDbSpline
70
4
71
3
72
8
73
4
40
0
40
0
40
0
40
0
40
1
40
1
40
1
40
1
41
1
10
40.9214717065396
20
9.02649138894577
30
0
41
1
10
40.9262225553142
20
9.03805762580487
30
0
41
1
10
40.9303700823102
20
9.04977579175755
30
0
41
1
10
40.9338891411587
20
9.06165194169955
30
0
0
SPLINE
5
112
100
AcDbEntity
8
1
62
256
6
ByLayer
370
18
48
1
60
0
100
AcDbSpline
70
4
71
5
72
12
73
6
40
0
40
0
40
0
40
0
40
0
40
0
40
1
40
1
40
1
40
1
40
1
40
1
41
1
10
40.9338899888897
20
9.06165174588395
30
0
41
1
10
40.9531895790633
20
8.98829718852792
30
0
41
1
10
41.0013236279108
20
8.91525954684732
30
0
41
1
10
41.0756548162932
20
8.85387342152453
30
0
41
1
10
41.1634820247427
20
8.81462806965274
30
0
41
1
10
41.2512486773053
20
8.79956221699658
30
0
0
SPLINE
5
113
100
AcDbEntity
8
1
62
256
6
ByLayer
370
18
48
1
60
0
100
AcDbSpline
70
4
71
5
72
12
73
6
40
0
40
0
40
0
40
0
40
0
40
0
40
1
40
1
40
1
40
1
40
1
40
1
41
1
10
41.0478927074972
20
9.31340559992918
30
0
41
1
10
41.067125459028
20
9.24029982627334
30
0
41
1
10
41.1150486358792
20
9.16725934939993
30
0
41
1
10
41.189445476231
20
9.10568732186221
30
0
41
1
10
41.2774093301789
20
9.06638348631643
30
0
41
1
10
41.3652547898359
20
9.05130227918039
30
0
0
SPLINE
5
114
100
AcDbEntity
8
1
62
256
6
ByLayer
370
18
48
1
60
0
100
AcDbSpline
70
4
71
5
72
12
73
6
40
0
40
0
40
0
40
0
40
0
40
0
40
1
40
1
40
1
40
1
40
1
40
1
41
1
10
41.365258270301
20
9.30564705319543
30
0
41
1
10
41.2827408588329
20
9.30564846041511
30
0
41
1
10
41.2001911847407
20
9.30652817838296
30
0
41
1
10
41.1280021648986
20
9.30829335682964
30
0
41
1
10
41.0761173990299
20
9.31070047338332
30
0
41
1
10
41.0478927074972
20
9.31340559992918
30
0
0
SPLINE
5
115
100
AcDbEntity
8
1
62
256
6
ByLayer
370
18
48
1
60
0
100
AcDbSpline
70
4
71
1
72
4
73
2
40
0
40
0
40
1
40
1
41
1
10
46.1691363746949
20
7.54402654798932
30
0
41
1
10
42.9540471815531
20
7.68431486175496
30
0
0
SPLINE
5
116
100
AcDbEntity
8
1
62
256
6
ByLayer
370
18
48
1
60
0
100
AcDbSpline
70
4
71
9
72
20
73
10
40
0
40
0
40
0
40
0
40
0
40
0
40
0
40
0
40
0
40
0
40
1
40
1
40
1
40
1
40
1
40
1
40
1
40
1
40
1
40
1
41
1
10
42.9540471910429
20
7.68431490105033
30
0
41
1
10
42.9433914416129
20
7.68477985770866
30
0
41
1
10
42.9327636045629
20
7.68588372401325
30
0
41
1
10
42.9222075144029
20
7.68762458727997
30
0
41
1
10
42.9117668525529
20
7.68999703044077
30
0
41
1
10
42.9014848107228
20
7.6929921467447
30
0
41
1
10
42.8914037561429
20
7.6965975947744
30
0
41
1
10
42.8815649048928
20
7.70079769362809
30
0
41
1
10
42.8720080099629
20
7.70557355643814
30
0
41
1
10
42.8627710687529
20
7.71090325827876
30
0
0
SPLINE
5
117
100
AcDbEntity
8
1
62
256
6
ByLayer
370
18
48
1
60
0
100
AcDbSpline
70
4
71
9
72
20
73
10
40
0
40
0
40
0
40
0
40
0
40
0
40
0
40
0
40
0
40
0
40
1
40
1
40
1
40
1
40
1
40
1
40
1
40
1
40
1
40
1
41
1
10
41.6460528746634
20
8.41294790650608
30
0
41
1
10
41.6343298131892
20
8.41971209612507
30
0
41
1
10
41.6222631766684
20
8.42588155821542
30
0
41
1
10
41.6098874882192
20
8.43143637261932
30
0
41
1
10
41.5972386205234
20
8.43635895454418
30
0
41
1
10
41.5843536056151
20
8.44063416390185
30
0
41
1
10
41.5712704339179
20
8.44424939558508
30
0
41
1
10
41.5580278447953
20
8.44719464897187
30
0
41
1
10
41.5446651115318
20
8.44946257568438
30
0
41
1
10
41.5312218237057
20
8.45104850526945
30
0
0
SPLINE
5
118
100
AcDbEntity
8
1
62
256
6
ByLayer
370
18
48
1
60
0
100
AcDbSpline
70
4
71
3
72
8
73
4
40
0
40
0
40
0
40
0
40
1
40
1
40
1
40
1
41
1
10
41.5309816151419
20
8.4510817260749
30
0
41
1
10
41.519391485862
20
8.45243706555797
30
0
41
1
10
41.507722174662
20
8.45311662802288
30
0
41
1
10
41.496052827582
20
8.45311579789995
30
0
0
SPLINE
5
119
100
AcDbEntity
8
1
62
256
6
ByLayer
370
18
48
1
60
0
100
AcDbSpline
70
4
71
5
72
12
73
6
40
0
40
0
40
0
40
0
40
0
40
0
40
1
40
1
40
1
40
1
40
1
40
1
41
1
10
40.7929722145769
20
8.6863791908232
30
0
41
1
10
40.7804316303329
20
8.6438330270164
30
0
41
1
10
40.7694737148999
20
8.59935441221609
30
0
41
1
10
40.760819515275
20
8.55264338671046
30
0
41
1
10
40.7563384514369
20
8.50357526097719
30
0
41
1
10
40.7563620289729
20
8.45456913386101
30
0
0
SPLINE
5
11A
100
AcDbEntity
8
1
62
256
6
ByLayer
370
18
48
1
60
0
100
AcDbSpline
70
4
71
5
72
12
73
6
40
0
40
0
40
0
40
0
40
0
40
0
40
1
40
1
40
1
40
1
40
1
40
1
41
1
10
40.9808024929366
20
8.5785169771716
30
0
41
1
10
40.9403432787957
20
8.59639397767774
30
0
41
1
10
40.8998838771978
20
8.61685051175331
30
0
41
1
10
40.8609044220777
20
8.63923460901594
30
0
41
1
10
40.8248791971495
20
8.66269965252482
30
0
41
1
10
40.7929722145769
20
8.6863791908232
30
0
0
LINE
5
72
100
AcDbEntity
8
80
62
256
6
ByLayer
370
18
48
1
60
0
100
AcDbLine
10
0
20
0
30
0
11
-5
21
0
31
0
39
0
210
0
220
0
230
1
0
LINE
5
73
100
AcDbEntity
8
1
62
256
6
ByLayer
370
18
48
1
60
0
100
AcDbLine
10
26.8
20
5.7625
30
0
11
31.527864
21
5.7625
31
0
39
0
210
0
220
0
230
1
0
LINE
5
75
100
AcDbEntity
8
81
62
256
6
ByLayer
370
18
48
1
60
0
100
AcDbLine
10
46.7
20
13.5625
30
0
11
51.7
21
13.5625
31
0
39
0
210
0
220
0
230
1
0
LINE
5
76
100
AcDbEntity
8
1
62
256
6
ByLayer
370
18
48
1
60
0
100
AcDbLine
10
28.384095
20
8.234324
30
0
11
28.384095
21
16.010921
31
0
39
0
210
0
220
0
230
1
0
LINE
5
77
100
AcDbEntity
8
1
62
256
6
ByLayer
370
18
48
1
60
0
100
AcDbLine
10
40.688689
20
8.841036
30
0
11
40.773843
21
9.219925
31
0
39
0
210
0
220
0
230
1
0
LINE
5
78
100
AcDbEntity
8
1
62
256
6
ByLayer
370
18
48
1
60
0
100
AcDbLine
10
0.5
20
-12.439682
30
0
11
2.931639
21
-12.479279
31
0
39
0
210
0
220
0
230
1
0
LINE
5
79
100
AcDbEntity
8
1
62
256
6
ByLayer
370
18
48
1
60
0
100
AcDbLine
10
40.290947
20
7.798322
30
0
11
40.688689
21
8.841036
31
0
39
0
210
0
220
0
230
1
0
LINE
5
7A
100
AcDbEntity
8
1
62
256
6
ByLayer
370
18
48
1
60
0
100
AcDbLine
10
0
20
12.4375
30
0
11
0.5
21
12.4375
31
0
39
0
210
0
220
0
230
1
0
LINE
5
7B
100
AcDbEntity
8
1
62
256
6
ByLayer
370
18
48
1
60
0
100
AcDbLine
10
40.253619
20
13.200467
30
0
11
40.733681
21
12.027693
31
0
39
0
210
0
220
0
230
1
0
LINE
5
7C
100
AcDbEntity
8
1
62
256
6
ByLayer
370
18
48
1
60
0
100
AcDbLine
10
35.04
20
14.028004
30
0
11
35.04
21
13.846896
31
0
39
0
210
0
220
0
230
1
0
LINE
5
7D
100
AcDbEntity
8
1
62
256
6
ByLayer
370
18
48
1
60
0
100
AcDbLine
10
12.058221
20
-12.479279
30
0
11
25.2
21
0.6625
31
0
39
0
210
0
220
0
230
1
0
LINE
5
7E
100
AcDbEntity
8
1
62
256
6
ByLayer
370
18
48
1
60
0
100
AcDbLine
10
36
20
7.773724
30
0
11
36
21
8.259585
31
0
39
0
210
0
220
0
230
1
0
LINE
5
7F
100
AcDbEntity
8
1
62
256
6
ByLayer
370
18
48
1
60
0
100
AcDbLine
10
14.748884
20
25.0625
30
0
11
41.459683
21
25.0625
31
0
39
0
210
0
220
0
230
1
0
LINE
5
80
100
AcDbEntity
8
1
62
256
6
ByLayer
370
18
48
1
60
0
100
AcDbLine
10
40.688689
20
8.841036
30
0
11
40.733681
21
12.027693
31
0
39
0
210
0
220
0
230
1
0
LINE
5
81
100
AcDbEntity
8
1
62
256
6
ByLayer
370
18
48
1
60
0
100
AcDbLine
10
28.384095
20
8.234324
30
0
11
26.8
21
8.234324
31
0
39
0
210
0
220
0
230
1
0
LINE
5
82
100
AcDbEntity
8
1
62
256
6
ByLayer
370
18
48
1
60
0
100
AcDbLine
10
26.8
20
5.7625
30
0
11
26.8
21
8.234324
31
0
39
0
210
0
220
0
230
1
0
LINE
5
83
100
AcDbEntity
8
1
62
256
6
ByLayer
370
18
48
1
60
0
100
AcDbLine
10
28.384095
20
16.010921
30
0
11
12.323521
21
16.010921
31
0
39
0
210
0
220
0
230
1
0
LINE
5
84
100
AcDbEntity
8
1
62
256
6
ByLayer
370
18
48
1
60
0
100
AcDbLine
10
40.782088
20
9.261112
30
0
11
40.814342
21
9.443969
31
0
39
0
210
0
220
0
230
1
0
LINE
5
85
100
AcDbEntity
8
1
62
256
6
ByLayer
370
18
48
1
60
0
100
AcDbLine
10
11
20
12.4375
30
0
11
11.5
21
12.9375
31
0
39
0
210
0
220
0
230
1
0
LINE
5
86
100
AcDbEntity
8
1
62
256
6
ByLayer
370
18
48
1
60
0
100
AcDbLine
10
31.527864
20
5.7625
30
0
11
31.527864
21
7.17546
31
0
39
0
210
0
220
0
230
1
0
LINE
5
87
100
AcDbEntity
8
1
62
256
6
ByLayer
370
18
48
1
60
0
100
AcDbLine
10
40.782088
20
11.818525
30
0
11
40.814342
21
11.642808
31
0
39
0
210
0
220
0
230
1
0
LINE
5
88
100
AcDbEntity
8
1
62
256
6
ByLayer
370
18
48
1
60
0
100
AcDbLine
10
45.62
20
14.009562
30
0
11
45.62
21
15.775075
31
0
39
0
210
0
220
0
230
1
0
LINE
5
89
100
AcDbEntity
8
1
62
256
6
ByLayer
370
18
48
1
60
0
100
AcDbLine
10
35.29
20
14.028004
30
0
11
35.29
21
13.796808
31
0
39
0
210
0
220
0
230
1
0
LINE
5
8A
100
AcDbEntity
8
1
62
256
6
ByLayer
370
18
48
1
60
0
100
AcDbLine
10
11
20
12.4375
30
0
11
2.931639
21
12.4375
31
0
39
0
210
0
220
0
230
1
0
LINE
5
8B
100
AcDbEntity
8
1
62
256
6
ByLayer
370
18
48
1
60
0
100
AcDbLine
10
0
20
12.4375
30
0
11
0
21
-12.4375
31
0
39
0
210
0
220
0
230
1
0
LINE
5
8C
100
AcDbEntity
8
1
62
256
6
ByLayer
370
18
48
1
60
0
100
AcDbLine
10
45.62
20
13.560643
30
0
11
45.62
21
14.009562
31
0
39
0
210
0
220
0
230
1
0
LINE
5
8D
100
AcDbEntity
8
1
62
256
6
ByLayer
370
18
48
1
60
0
100
AcDbLine
10
35.29
20
14.028004
30
0
11
35.04
21
14.028004
31
0
39
0
210
0
220
0
230
1
0
LINE
5
8E
100
AcDbEntity
8
1
62
256
6
ByLayer
370
18
48
1
60
0
100
AcDbLine
10
40.814342
20
11.642808
30
0
11
40.814342
21
9.443969
31
0
39
0
210
0
220
0
230
1
0
LINE
5
8F
100
AcDbEntity
8
1
62
256
6
ByLayer
370
18
48
1
60
0
100
AcDbLine
10
12.323563
20
16.011079
30
0
11
14.748884
21
25.0625
31
0
39
0
210
0
220
0
230
1
0
LINE
5
90
100
AcDbEntity
8
1
62
256
6
ByLayer
370
18
48
1
60
0
100
AcDbLine
10
36.105
20
14.009562
30
0
11
45.62
21
14.009562
31
0
39
0
210
0
220
0
230
1
0
LINE
5
91
100
AcDbEntity
8
1
62
256
6
ByLayer
370
18
48
1
60
0
100
AcDbLine
10
40.733681
20
12.027693
30
0
11
40.773843
21
11.857887
31
0
39
0
210
0
220
0
230
1
0
LINE
5
92
100
AcDbEntity
8
1
62
256
6
ByLayer
370
18
48
1
60
0
100
AcDbLine
10
0.5
20
-12.439682
30
0
11
0
21
-12.4375
31
0
39
0
210
0
220
0
230
1
0
LINE
5
93
100
AcDbEntity
8
1
62
256
6
ByLayer
370
18
48
1
60
0
100
AcDbLine
10
0.5
20
12.4375
30
0
11
0.5
21
-12.439682
31
0
39
0
210
0
220
0
230
1
0
LINE
5
94
100
AcDbEntity
8
1
62
256
6
ByLayer
370
18
48
1
60
0
100
AcDbLine
10
37.45
20
7.7738
30
0
11
36.105
21
7.7738
31
0
39
0
210
0
220
0
230
1
0
LINE
5
95
100
AcDbEntity
8
1
62
256
6
ByLayer
370
18
48
1
60
0
100
AcDbLine
10
2.931639
20
-12.479279
30
0
11
12.058221
21
-12.479279
31
0
39
0
210
0
220
0
230
1
0
LINE
5
96
100
AcDbEntity
8
1
62
256
6
ByLayer
370
18
48
1
60
0
100
AcDbLine
10
12.323521
20
16.010921
30
0
11
11.5
21
12.9375
31
0
39
0
210
0
220
0
230
1
0
LINE
5
97
100
AcDbEntity
8
1
62
256
6
ByLayer
370
18
48
1
60
0
100
AcDbLine
10
25.2
20
6.420947
30
0
11
25.2
21
0.6625
31
0
39
0
210
0
220
0
230
1
0
LINE
5
98
100
AcDbEntity
8
1
62
256
6
ByLayer
370
18
48
1
60
0
100
AcDbLine
10
2.931639
20
12.4375
30
0
11
2.931639
21
-12.479279
31
0
39
0
210
0
220
0
230
1
0
LINE
5
99
100
AcDbEntity
8
1
62
256
6
ByLayer
370
18
48
1
60
0
100
AcDbLine
10
36.105
20
13.647511
30
0
11
36.105
21
14.009562
31
0
39
0
210
0
220
0
230
1
0
LINE
5
9A
100
AcDbEntity
8
1
62
256
6
ByLayer
370
18
48
1
60
0
100
AcDbLine
10
2.931639
20
12.4375
30
0
11
0.5
21
12.4375
31
0
39
0
210
0
220
0
230
1
0
LINE
5
9B
100
AcDbEntity
8
SK1
62
256
6
ByLayer
370
18
48
1
60
0
100
AcDbLine
10
-104.65
20
-12.4375
30
0
11
0
21
-12.4375
31
0
39
0
210
0
220
0
230
1
0
LINE
5
9D
100
AcDbEntity
8
SK1
62
256
6
ByLayer
370
18
48
1
60
0
100
AcDbLine
10
-104.65
20
12.4375
30
0
11
-104.65
21
-12.4375
31
0
39
0
210
0
220
0
230
1
0
LINE
5
9E
100
AcDbEntity
8
SK1
62
256
6
ByLayer
370
18
48
1
60
0
100
AcDbLine
10
0
20
12.4375
30
0
11
0
21
-12.4375
31
0
39
0
210
0
220
0
230
1
0
LINE
5
9F
100
AcDbEntity
8
SK1
62
256
6
ByLayer
370
18
48
1
60
0
100
AcDbLine
10
0
20
12.4375
30
0
11
-104.65
21
12.4375
31
0
39
0
210
0
220
0
230
1
0
LINE
5
A0
100
AcDbEntity
8
1
62
256
6
ByLayer
370
18
48
1
60
0
100
AcDbLine
10
40.814344
20
10.041597
30
0
11
40.933889
21
9.061657
31
0
39
0
210
0
220
0
230
1
0
LINE
5
A1
100
AcDbEntity
8
1
62
256
6
ByLayer
370
18
48
1
60
0
100
AcDbLine
10
40.814344
20
11.103179
30
0
11
40.933889
21
12.060194
31
0
39
0
210
0
220
0
230
1
0
LINE
5
A2
100
AcDbEntity
8
1
62
256
6
ByLayer
370
18
48
1
60
0
100
AcDbLine
10
41.496053
20
12.675545
30
0
11
41.530649
21
12.679584
31
0
39
0
210
0
220
0
230
1
0
LINE
5
A3
100
AcDbEntity
8
1
62
256
6
ByLayer
370
18
48
1
60
0
100
AcDbLine
10
40.401072
20
12.84
30
0
11
41.861366
21
12.84
31
0
39
0
210
0
220
0
230
1
0
LINE
5
A4
100
AcDbEntity
8
1
62
256
6
ByLayer
370
18
48
1
60
0
100
AcDbLine
10
40.515832
20
12.67913
30
0
11
40.467008
21
12.67913
31
0
39
0
210
0
220
0
230
1
0
LINE
5
A5
100
AcDbEntity
8
1
62
256
6
ByLayer
370
18
48
1
60
0
100
AcDbLine
10
40.515832
20
12.559889
30
0
11
40.515832
21
12.67913
31
0
39
0
210
0
220
0
230
1
0
LINE
5
A6
100
AcDbEntity
8
1
62
256
6
ByLayer
370
18
48
1
60
0
100
AcDbLine
10
41.365255
20
12.041596
30
0
11
42.317221
21
12.041596
31
0
39
0
210
0
220
0
230
1
0
LINE
5
A7
100
AcDbEntity
8
1
62
256
6
ByLayer
370
18
48
1
60
0
100
AcDbLine
10
42.317221
20
12.041525
30
0
11
43.109734
21
12.364327
31
0
39
0
210
0
220
0
230
1
0
LINE
5
A8
100
AcDbEntity
8
1
62
256
6
ByLayer
370
18
48
1
60
0
100
AcDbLine
10
43.109734
20
12.364327
30
0
11
41.227032
21
12.364327
31
0
39
0
210
0
220
0
230
1
0
LINE
5
A9
100
AcDbEntity
8
1
62
256
6
ByLayer
370
18
48
1
60
0
100
AcDbLine
10
41.251246
20
12.315206
30
0
11
41.365256
21
12.041595
31
0
39
0
210
0
220
0
230
1
0
LINE
5
AA
100
AcDbEntity
8
1
62
256
6
ByLayer
370
18
48
1
60
0
100
AcDbLine
10
41.365257
20
11.778831
30
0
11
42.058679
21
11.778831
31
0
39
0
210
0
220
0
230
1
0
LINE
5
AB
100
AcDbEntity
8
1
62
256
6
ByLayer
370
18
48
1
60
0
100
AcDbLine
10
41.496053
20
12.675545
30
0
11
40.918776
21
12.675545
31
0
39
0
210
0
220
0
230
1
0
LINE
5
AC
100
AcDbEntity
8
1
62
256
6
ByLayer
370
18
48
1
60
0
100
AcDbLine
10
41.365255
20
9.051302
30
0
11
42.317221
21
9.051302
31
0
39
0
210
0
220
0
230
1
0
LINE
5
AD
100
AcDbEntity
8
1
62
256
6
ByLayer
370
18
48
1
60
0
100
AcDbLine
10
42.317221
20
9.051367
30
0
11
43.109734
21
8.75436
31
0
39
0
210
0
220
0
230
1
0
LINE
5
AE
100
AcDbEntity
8
1
62
256
6
ByLayer
370
18
48
1
60
0
100
AcDbLine
10
43.109734
20
8.75436
30
0
11
41.227032
21
8.75436
31
0
39
0
210
0
220
0
230
1
0
LINE
5
AF
100
AcDbEntity
8
1
62
256
6
ByLayer
370
18
48
1
60
0
100
AcDbLine
10
41.047893
20
10.549994
30
0
11
41.047893
21
11.786583
31
0
39
0
210
0
220
0
230
1
0
LINE
5
B0
100
AcDbEntity
8
1
62
256
6
ByLayer
370
18
48
1
60
0
100
AcDbLine
10
41.365255
20
10.542239
30
0
11
41.365255
21
11.77883
31
0
39
0
210
0
220
0
230
1
0
LINE
5
B1
100
AcDbEntity
8
1
62
256
6
ByLayer
370
18
48
1
60
0
100
AcDbLine
10
40.933886
20
12.060186
30
0
11
41.047893
21
11.786583
31
0
39
0
210
0
220
0
230
1
0
LINE
5
B2
100
AcDbEntity
8
1
62
256
6
ByLayer
370
18
48
1
60
0
100
AcDbLine
10
41.646053
20
12.715713
30
0
11
42.862771
21
13.417757
31
0
39
0
210
0
220
0
230
1
0
LINE
5
B3
100
AcDbEntity
8
1
62
256
6
ByLayer
370
18
48
1
60
0
100
AcDbLine
10
40.933886
20
9.061665
30
0
11
41.047893
21
9.313406
31
0
39
0
210
0
220
0
230
1
0
LINE
5
B4
100
AcDbEntity
8
1
62
256
6
ByLayer
370
18
48
1
60
0
100
AcDbLine
10
41.047893
20
10.549994
30
0
11
41.047893
21
9.313406
31
0
39
0
210
0
220
0
230
1
0
LINE
5
B5
100
AcDbEntity
8
1
62
256
6
ByLayer
370
18
48
1
60
0
100
AcDbLine
10
41.496053
20
8.453116
30
0
11
40.918776
21
8.453116
31
0
39
0
210
0
220
0
230
1
0
LINE
5
B6
100
AcDbEntity
8
1
62
256
6
ByLayer
370
18
48
1
60
0
100
AcDbLine
10
41.251246
20
8.799556
30
0
11
41.365256
21
9.051303
31
0
39
0
210
0
220
0
230
1
0
LINE
5
B7
100
AcDbEntity
8
1
62
256
6
ByLayer
370
18
48
1
60
0
100
AcDbLine
10
41.365255
20
10.542239
30
0
11
41.365255
21
9.305648
31
0
39
0
210
0
220
0
230
1
0
LINE
5
B8
100
AcDbEntity
8
1
62
256
6
ByLayer
370
18
48
1
60
0
100
AcDbLine
10
41.365257
20
9.305647
30
0
11
42.058679
21
9.305647
31
0
39
0
210
0
220
0
230
1
0
LINE
5
B9
100
AcDbEntity
8
1
62
256
6
ByLayer
370
18
48
1
60
0
100
AcDbLine
10
42.058679
20
9.305647
30
0
11
42.058679
21
11.778831
31
0
39
0
210
0
220
0
230
1
0
MTEXT
5
11B
100
AcDbEntity
8
SK6
62
256
6
ByLayer
370
18
48
1
60
0
100
AcDbMText
10
-58.097475
20
-17.58339
30
0
210
0
220
0
230
1
1
\W0.7377;RF151.37-2525-023B50
40
3.5
41
0
44
1.084337
50
0
71
7
72
5
7
iso_b_vert
0
DIMENSION
5
12C
100
AcDbEntity
8
2
62
256
6
ByLayer
370
13
48
1
60
0
100
AcDbDimension
2
DimnDraft3D1
10
60.95
20
13.5625
30
0
11
60.95
21
9.555921
31
0
70
32
71
5
72
1
41
1
210
0
220
0
230
1
3
Standard
100
AcDbAlignedDimension
13
48.2
23
7.5625
33
0
14
48.2
24
13.5625
34
0
50
90
100
AcDbRotatedDimension
1001
ACAD
1000
DSTYLE
1002
{
1070
    74
1070
     0
1070
   279
1070
     0
1070
   172
1070
     1
1070
   173
1070
     1
1070
   340
1005
11C
1070
   271
1070
     3
1070
   272
1070
     3
1070
    77
1070
     1
1070
    73
1070
     0
1070
   171
1070
     4
1070
   274
1070
     4
1070
   177
1070
     2
1070
   176
1070
     2
1070
   178
1070
     7
1070
    78
1070
     8
1070
    41
1041
3.0
1070
   147
1041
2.25
1070
    42
1041
1.5
1070
    44
1041
3.0
1070
   140
1041
4.5
1070
   343
1005
12D
1070
   344
1005
12D
1002
}
0
DIMENSION
5
141
100
AcDbEntity
8
2
62
256
6
ByLayer
370
13
48
1
60
0
100
AcDbDimension
2
DimnDraft3D2
10
70.95
20
-12.4375
30
0
11
70.95
21
-2.125658
31
0
70
32
71
5
72
1
41
1
210
0
220
0
230
1
3
Standard
100
AcDbAlignedDimension
13
48.2
23
13.5625
33
0
14
-3.5
24
-12.4375
34
0
50
90
100
AcDbRotatedDimension
1001
ACAD
1000
DSTYLE
1002
{
1070
    74
1070
     0
1070
   279
1070
     0
1070
   172
1070
     1
1070
   173
1070
     1
1070
   340
1005
11C
1070
   271
1070
     3
1070
   272
1070
     3
1070
    77
1070
     1
1070
    73
1070
     0
1070
   171
1070
     4
1070
   274
1070
     4
1070
   177
1070
     2
1070
   176
1070
     2
1070
   178
1070
     7
1070
    78
1070
     8
1070
    41
1041
3.0
1070
   147
1041
2.25
1070
    42
1041
1.5
1070
    44
1041
3.0
1070
   140
1041
4.5
1070
   343
1005
12D
1070
   344
1005
12D
1002
}
0
DIMENSION
5
150
100
AcDbEntity
8
SK2
62
256
6
ByLayer
370
13
48
1
60
0
100
AcDbDimension
2
DimnDraft3D3
10
-114.4
20
-12.4375
30
0
11
-114.4
21
-2.688158
31
0
70
32
71
5
72
1
41
1
210
0
220
0
230
1
3
Standard
100
AcDbAlignedDimension
13
-106.15
23
12.4375
33
0
14
-106.15
24
-12.4375
34
0
50
90
100
AcDbRotatedDimension
1001
ACAD
1000
DSTYLE
1002
{
1070
    74
1070
     0
1070
   279
1070
     0
1070
   172
1070
     1
1070
   173
1070
     1
1070
   340
1005
11C
1070
   271
1070
     3
1070
   272
1070
     3
1070
    77
1070
     1
1070
    73
1070
     0
1070
   171
1070
     4
1070
   274
1070
     4
1070
   177
1070
     2
1070
   176
1070
     2
1070
   178
1070
     7
1070
    78
1070
     8
1070
    41
1041
3.0
1070
   147
1041
2.25
1070
    42
1041
1.5
1070
    44
1041
3.0
1070
   140
1041
4.5
1070
   343
1005
12D
1070
   344
1005
12D
1002
}
0
DIMENSION
5
15E
100
AcDbEntity
8
2
62
256
6
ByLayer
370
13
48
1
60
0
100
AcDbDimension
2
DimnDraft3D4
10
0
20
34.8125
30
0
11
17.831579
21
34.8125
31
0
70
32
71
5
72
1
41
1
210
0
220
0
230
1
3
Standard
100
AcDbAlignedDimension
13
46.7
23
15.0625
33
0
14
0
24
13.9375
34
0
50
0
100
AcDbRotatedDimension
1001
ACAD
1000
DSTYLE
1002
{
1070
   279
1070
     0
1070
   172
1070
     1
1070
   173
1070
     1
1070
   340
1005
11C
1070
   271
1070
     3
1070
   272
1070
     3
1070
    77
1070
     1
1070
    73
1070
     0
1070
   171
1070
     4
1070
   274
1070
     4
1070
   177
1070
     2
1070
   176
1070
     2
1070
   178
1070
     7
1070
    78
1070
     8
1070
    41
1041
3.0
1070
   147
1041
2.25
1070
    42
1041
1.5
1070
    44
1041
3.0
1070
   140
1041
4.5
1070
   343
1005
12D
1070
   344
1005
12D
1002
}
0
DIMENSION
5
16C
100
AcDbEntity
8
SK2
62
256
6
ByLayer
370
13
48
1
60
0
100
AcDbDimension
2
DimnDraft3D5
10
-104.65
20
44.8125
30
0
11
-32.782237
21
44.8125
31
0
70
32
71
5
72
1
41
1
210
0
220
0
230
1
3
Standard
100
AcDbAlignedDimension
13
46.7
23
15.0625
33
0
14
-104.65
24
13.9375
34
0
50
0
100
AcDbRotatedDimension
1001
ACAD
1000
DSTYLE
1002
{
1070
   279
1070
     0
1070
   172
1070
     1
1070
   173
1070
     1
1070
   340
1005
11C
1070
   271
1070
     3
1070
   272
1070
     3
1070
    77
1070
     1
1070
    73
1070
     0
1070
   171
1070
     4
1070
   274
1070
     4
1070
   177
1070
     2
1070
   176
1070
     2
1070
   178
1070
     7
1070
    78
1070
     8
1070
    41
1041
3.0
1070
   147
1041
2.25
1070
    42
1041
1.5
1070
    44
1041
3.0
1070
   140
1041
4.5
1070
   343
1005
12D
1070
   344
1005
12D
1002
}
0
DIMENSION
5
17A
100
AcDbEntity
8
2
62
256
6
ByLayer
370
13
48
1
60
0
100
AcDbDimension
2
DimnDraft3D6
10
46.7
20
-26.6875
30
0
11
51.2
21
-26.6875
31
0
70
32
71
5
72
1
41
1
210
0
220
0
230
1
3
Standard
100
AcDbAlignedDimension
13
36
23
5.0625
33
0
14
46.7
24
6.0625
34
0
50
0
100
AcDbRotatedDimension
1001
ACAD
1000
DSTYLE
1002
{
1070
   279
1070
     0
1070
   172
1070
     1
1070
   173
1070
     1
1070
   340
1005
11C
1070
   271
1070
     3
1070
   272
1070
     3
1070
    77
1070
     1
1070
    73
1070
     0
1070
   171
1070
     4
1070
   274
1070
     4
1070
   177
1070
     2
1070
   176
1070
     2
1070
   178
1070
     7
1070
    78
1070
     8
1070
    41
1041
3.0
1070
   147
1041
2.25
1070
    42
1041
1.5
1070
    44
1041
3.0
1070
   140
1041
4.5
1070
   343
1005
12D
1070
   344
1005
12D
1002
}
0
DIMENSION
5
188
100
AcDbEntity
8
2
62
256
6
ByLayer
370
13
48
1
60
0
100
AcDbDimension
2
DimnDraft3D7
10
46.7
20
-36.6875
30
0
11
31.418421
21
-36.6875
31
0
70
32
71
5
72
1
41
1
210
0
220
0
230
1
3
Standard
100
AcDbAlignedDimension
13
26.7
23
-13.9375
33
0
14
46.7
24
6.0625
34
0
50
0
100
AcDbRotatedDimension
1001
ACAD
1000
DSTYLE
1002
{
1070
   279
1070
     0
1070
   172
1070
     1
1070
   173
1070
     1
1070
   340
1005
11C
1070
   271
1070
     3
1070
   272
1070
     3
1070
    77
1070
     1
1070
    73
1070
     0
1070
   171
1070
     4
1070
   274
1070
     4
1070
   177
1070
     2
1070
   176
1070
     2
1070
   178
1070
     7
1070
    78
1070
     8
1070
    41
1041
3.0
1070
   147
1041
2.25
1070
    42
1041
1.5
1070
    44
1041
3.0
1070
   140
1041
4.5
1070
   343
1005
12D
1070
   344
1005
12D
1002
}
0
ENDSEC
0
SECTION
2
OBJECTS
0
DICTIONARY
5
1f2
330
0
100
AcDbDictionary
280
0
281
1
3
ACAD_GROUP
350
1f3
3
ACAD_MLINESTYLE
350
1f4
0
DICTIONARY
5
1f3
330
0
100
AcDbDictionary
280
0
281
1
0
DICTIONARY
5
1f4
330
0
100
AcDbDictionary
280
0
281
1
3
Standard
350
18
0
MLINESTYLE
5
18
330
1f4
100
AcDbMlineStyle
2
Standard
70
0
3

62
256
51
90
52
90
71
2
49
-0.5
62
256
6
ByLayer
49
0.5
62
256
6
ByLayer
0
RASTERVARIABLES
5
1e1
330

100
AcDbRasterVariables
90
0
70
1
71
1
72
1
0
ENDSEC
0
EOF
