0
SECTION
2
HEADER
9
$ACADVER
1
AC1015
9
$DWGCODEPAGE
3
ANSI_1252
9
$HANDSEED
5
1d0
9
$ANGBASE
50
0
9
$ANGDIR
70
0
9
$ATTMODE
70
1
9
$AUNITS
70
0
9
$AUPREC
70
0
9
$CECOLOR
62
256
9
$CELTSCALE
40
1
9
$CELTYPE
6
ByLayer
9
$CELWEIGHT
370
18
9
$CLAYER
8
0
9
$CMLJUST
70
0
9
$CMLSCALE
40
1
9
$CMLSTYLE
2
Standard
9
$DIMSTYLE
2
Standard
9
$TEXTSIZE
40
0.2
9
$TEXTSTYLE
7
Standard
9
$LUNITS
70
2
9
$LUPREC
70
4
9
$EXTNAMES
290
1
9
$INSUNITS
70
4
9
$LTSCALE
40
1
9
$LWDISPLAY
290
1
9
$PDMODE
70
0
9
$PDSIZE
40
0
9
$PLINEGEN
70
0
0
ENDSEC
0
SECTION
2
CLASSES
0
CLASS
1
RASTERVARIABLES
2
AcDbRasterVariables
3
ISM
90
0
280
0
281
0
0
ENDSEC
0
SECTION
2
TABLES
0
TABLE
2
VPORT
5
1c6
100
AcDbSymbolTable
0
VPORT
5
1
100
AcDbSymbolTableRecord
100
AcDbViewportTableRecord
2
*Active
70
0
10
0
20
0
11
1
21
1
12
-1
22
1
13
0
23
0
14
0.5
24
0.5
15
10
25
10
16
0
26
0
36
1
17
0
27
0
37
0
0
ENDTAB
0
TABLE
2
LTYPE
5
1c7
100
AcDbSymbolTable
0
LTYPE
5
14
100
AcDbSymbolTableRecord
100
AcDbLinetypeTableRecord
70
0
2
ByBlock
3

72
65
73
0
40
0
0
LTYPE
5
15
100
AcDbSymbolTableRecord
100
AcDbLinetypeTableRecord
70
0
2
ByLayer
3

72
65
73
0
40
0
0
LTYPE
5
16
100
AcDbSymbolTableRecord
100
AcDbLinetypeTableRecord
70
0
2
CONTINUOUS
3
Solid line
72
65
73
0
40
0
0
LTYPE
5
6A
100
AcDbSymbolTableRecord
100
AcDbLinetypeTableRecord
70
0
2
CENTER
3
____ _ ____ _ ____ _ ____
72
65
73
4
40
47.5
49
22
74
0
49
-8.5
74
0
49
8.5
74
0
49
-8.5
74
0
0
LTYPE
5
6B
100
AcDbSymbolTableRecord
100
AcDbLinetypeTableRecord
70
0
2
DASHED
3
__ __ __ __ __ __ __ __ __
72
65
73
2
40
25.72
49
12.86
74
0
49
-12.86
74
0
0
ENDTAB
0
TABLE
2
LAYER
5
1c8
100
AcDbSymbolTable
0
LAYER
5
10
100
AcDbSymbolTableRecord
100
AcDbLayerTableRecord
2
0
70
0
62
7
6
CONTINUOUS
290
1
370
-3
390
0
0
LAYER
5
6D
100
AcDbSymbolTableRecord
100
AcDbLayerTableRecord
2
81
70
0
62
-3
6
CONTINUOUS
290
1
370
-3
390
0
0
LAYER
5
6F
100
AcDbSymbolTableRecord
100
AcDbLayerTableRecord
2
80
70
0
62
-6
6
CONTINUOUS
290
1
370
-3
390
0
0
LAYER
5
71
100
AcDbSymbolTableRecord
100
AcDbLayerTableRecord
2
1
70
0
62
4
6
CONTINUOUS
290
1
370
-3
390
0
0
LAYER
5
147
100
AcDbSymbolTableRecord
100
AcDbLayerTableRecord
2
2
70
0
62
7
6
CONTINUOUS
290
1
370
-3
390
0
0
LAYER
5
1b3
100
AcDbSymbolTableRecord
100
AcDbLayerTableRecord
2
SK1
70
0
62
4
6
CONTINUOUS
290
1
370
-3
390
0
0
LAYER
5
1b4
100
AcDbSymbolTableRecord
100
AcDbLayerTableRecord
2
SK6
70
0
62
5
6
CONTINUOUS
290
1
370
-3
390
0
0
LAYER
5
1b5
100
AcDbSymbolTableRecord
100
AcDbLayerTableRecord
2
SK2
70
0
62
7
6
CONTINUOUS
290
1
370
-3
390
0
0
ENDTAB
0
TABLE
2
STYLE
5
1c9
100
AcDbSymbolTable
0
STYLE
5
11
100
AcDbSymbolTableRecord
100
AcDbTextStyleTableRecord
2
Standard
3
txt
70
0
71
0
40
0
41
1
42
0
50
0
0
STYLE
5
137
100
AcDbSymbolTableRecord
100
AcDbTextStyleTableRecord
2
iso_b_vert
3
simplex.shx
70
0
71
0
40
0
41
1
42
0
50
0
0
STYLE
5
138
100
AcDbSymbolTableRecord
100
AcDbTextStyleTableRecord
2
DWGDirectTextStyle
3
simplex
70
0
71
0
40
0
41
1
42
0
50
0
0
ENDTAB
0
TABLE
2
DIMSTYLE
5
1ca
100
AcDbSymbolTable
100
AcDbDimStyleTable
0
DIMSTYLE
105
27
100
AcDbSymbolTableRecord
100
AcDbDimStyleTableRecord
2
Standard
70
0
3
<>
41
0.18
42
0.0625
44
0.18
140
0.18
147
0.09
73
0
74
0
77
1
271
2
275
0
278
52
280
0
340
11
0
ENDTAB
0
TABLE
2
VIEW
5
1cb
100
AcDbSymbolTable
0
ENDTAB
0
TABLE
2
UCS
5
1cc
100
AcDbSymbolTable
0
ENDTAB
0
TABLE
2
APPID
5
1cd
100
AcDbSymbolTable
0
APPID
5
12
100
AcDbSymbolTableRecord
100
AcDbRegAppTableRecord
2
ACAD
70
0
0
ENDTAB
0
TABLE
2
BLOCK_RECORD
5
1ce
100
AcDbSymbolTable
0
BLOCK_RECORD
5
1F
100
AcDbSymbolTableRecord
100
AcDbBlockTableRecord
2
*Model_Space
340
0
70
0
0
BLOCK_RECORD
5
1B
100
AcDbSymbolTableRecord
100
AcDbBlockTableRecord
2
*Paper_Space
340
0
70
0
0
BLOCK_RECORD
5
23
100
AcDbSymbolTableRecord
100
AcDbBlockTableRecord
2
*Paper_Space0
340
0
70
0
0
BLOCK_RECORD
5
13A
100
AcDbSymbolTableRecord
100
AcDbBlockTableRecord
2
DimnDraft3D1
340
0
70
0
0
BLOCK_RECORD
5
145
100
AcDbSymbolTableRecord
100
AcDbBlockTableRecord
2
DimnDraft3D2
340
0
70
0
0
BLOCK_RECORD
5
150
100
AcDbSymbolTableRecord
100
AcDbBlockTableRecord
2
DimnDraft3D3
340
0
70
0
0
ENDTAB
0
ENDSEC
0
SECTION
2
BLOCKS
0
BLOCK
5
20
100
AcDbEntity
8
0
100
AcDbBlockBegin
2
*Model_Space
70
0
10
0
20
0
30
0
3
*Model_Space
0
ENDBLK
5
21
100
AcDbEntity
8
0
100
AcDbBlockEnd
0
BLOCK
5
1C
100
AcDbEntity
8
0
100
AcDbBlockBegin
2
*Paper_Space
70
0
10
0
20
0
30
0
3
*Paper_Space
0
ENDBLK
5
1D
100
AcDbEntity
8
0
100
AcDbBlockEnd
0
BLOCK
5
24
100
AcDbEntity
8
0
100
AcDbBlockBegin
2
*Paper_Space0
70
0
10
0
20
0
30
0
3
*Paper_Space0
0
ENDBLK
5
25
100
AcDbEntity
8
0
100
AcDbBlockEnd
0
BLOCK
5
142
100
AcDbEntity
8
0
100
AcDbBlockBegin
2
DimnDraft3D1
70
0
10
0
20
0
30
0
3
DimnDraft3D1
0
MTEXT
5
13B
100
AcDbEntity
8
SK2
62
256
6
ByLayer
370
13
48
1
60
0
100
AcDbMText
10
-32.52368
20
28.805898
30
0
210
0
220
0
230
1
1
\W0.7138;300
40
3.5
41
0
44
1.084337
50
0
71
7
72
5
7
iso_b_vert
0
LINE
5
13D
100
AcDbEntity
8
SK2
62
256
6
ByLayer
370
13
48
1
60
0
100
AcDbLine
10
-180
20
2.5
30
0
11
-180
21
29.930898
31
0
39
0
210
0
220
0
230
1
0
LINE
5
13E
100
AcDbEntity
8
SK2
62
256
6
ByLayer
370
13
48
1
60
0
100
AcDbLine
10
120.000009
20
3.12933
30
0
11
120.000009
21
29.930898
31
0
39
0
210
0
220
0
230
1
0
LINE
5
13F
100
AcDbEntity
8
SK2
62
256
6
ByLayer
370
13
48
1
60
0
100
AcDbLine
10
-180
20
27.930898
30
0
11
120.000009
21
27.930898
31
0
39
0
210
0
220
0
230
1
0
SOLID
5
140
100
AcDbEntity
8
SK2
62
256
6
ByLayer
370
13
48
1
60
0
100
AcDbTrace
10
-180
20
27.930898
30
0
11
-176.500002
21
28.391682
31
0
12
-176.499998
22
27.470115
32
0
13
-180
23
27.930898
33
0
39
0
210
0
220
0
230
1
0
SOLID
5
141
100
AcDbEntity
8
SK2
62
256
6
ByLayer
370
13
48
1
60
0
100
AcDbTrace
10
120.000009
20
27.930898
30
0
11
116.500011
21
27.470115
31
0
12
116.500008
22
28.391682
32
0
13
120.000009
23
27.930898
33
0
39
0
210
0
220
0
230
1
0
ENDBLK
5
143
100
AcDbEntity
8
0
100
AcDbBlockEnd
0
BLOCK
5
14D
100
AcDbEntity
8
0
100
AcDbBlockBegin
2
DimnDraft3D2
70
0
10
0
20
0
30
0
3
DimnDraft3D2
0
MTEXT
5
146
100
AcDbEntity
8
2
62
256
6
ByLayer
370
13
48
1
60
0
100
AcDbMText
10
134.316961
20
-1.915789
30
0
210
0
220
0
230
1
1
\W0.4657;11
40
3.5
41
0
44
1.084337
50
90
71
7
72
5
7
iso_b_vert
0
LINE
5
148
100
AcDbEntity
8
2
62
256
6
ByLayer
370
13
48
1
60
0
100
AcDbLine
10
119.157331
20
3.923861
30
0
11
137.191961
21
3.923861
31
0
39
0
210
0
220
0
230
1
0
LINE
5
149
100
AcDbEntity
8
2
62
256
6
ByLayer
370
13
48
1
60
0
100
AcDbLine
10
119.157331
20
-7.073861
30
0
11
137.191961
21
-7.073861
31
0
39
0
210
0
220
0
230
1
0
LINE
5
14A
100
AcDbEntity
8
2
62
256
6
ByLayer
370
13
48
1
60
0
100
AcDbLine
10
135.191961
20
3.923861
30
0
11
135.191961
21
-7.073861
31
0
39
0
210
0
220
0
230
1
0
SOLID
5
14B
100
AcDbEntity
8
2
62
256
6
ByLayer
370
13
48
1
60
0
100
AcDbTrace
10
135.191961
20
3.923861
30
0
11
135.652745
21
0.423863
31
0
12
134.731178
22
0.42386
32
0
13
135.191961
23
3.923861
33
0
39
0
210
0
220
0
230
1
0
SOLID
5
14C
100
AcDbEntity
8
2
62
256
6
ByLayer
370
13
48
1
60
0
100
AcDbTrace
10
135.191961
20
-7.073861
30
0
11
134.731178
21
-3.573863
31
0
12
135.652745
22
-3.57386
32
0
13
135.191961
23
-7.073861
33
0
39
0
210
0
220
0
230
1
0
ENDBLK
5
14E
100
AcDbEntity
8
0
100
AcDbBlockEnd
0
BLOCK
5
157
100
AcDbEntity
8
0
100
AcDbBlockBegin
2
DimnDraft3D3
70
0
10
0
20
0
30
0
3
DimnDraft3D3
0
MTEXT
5
151
100
AcDbEntity
8
2
62
256
6
ByLayer
370
13
48
1
60
0
100
AcDbMText
10
57.91382
20
16.614538
30
0
210
0
220
0
230
1
1
\W0.6217;120
40
3.5
41
0
44
1.084337
50
0
71
7
72
5
7
iso_b_vert
0
LINE
5
152
100
AcDbEntity
8
2
62
256
6
ByLayer
370
13
48
1
60
0
100
AcDbLine
10
120.000009
20
3.12933
30
0
11
120.000009
21
17.739538
31
0
39
0
210
0
220
0
230
1
0
LINE
5
153
100
AcDbEntity
8
2
62
256
6
ByLayer
370
13
48
1
60
0
100
AcDbLine
10
0
20
0
30
0
11
0
21
17.739538
31
0
39
0
210
0
220
0
230
1
0
LINE
5
154
100
AcDbEntity
8
2
62
256
6
ByLayer
370
13
48
1
60
0
100
AcDbLine
10
120.000009
20
15.739538
30
0
11
0
21
15.739538
31
0
39
0
210
0
220
0
230
1
0
SOLID
5
155
100
AcDbEntity
8
2
62
256
6
ByLayer
370
13
48
1
60
0
100
AcDbTrace
10
120.000009
20
15.739538
30
0
11
116.500011
21
15.278754
31
0
12
116.500008
22
16.200322
32
0
13
120.000009
23
15.739538
33
0
39
0
210
0
220
0
230
1
0
SOLID
5
156
100
AcDbEntity
8
2
62
256
6
ByLayer
370
13
48
1
60
0
100
AcDbTrace
10
0
20
15.739538
30
0
11
3.499998
21
16.200322
31
0
12
3.500002
22
15.278754
32
0
13
0
23
15.739538
33
0
39
0
210
0
220
0
230
1
0
ENDBLK
5
158
100
AcDbEntity
8
0
100
AcDbBlockEnd
0
ENDSEC
0
SECTION
2
ENTITIES
0
ARC
5
D1
100
AcDbEntity
8
1
62
256
6
ByLayer
370
18
48
1
60
0
100
AcDbCircle
39
0
10
82.6
20
-1.575
30
0
40
1.9685
210
0
220
0
230
1
100
AcDbArc
50
332.159853
51
31.778431
0
ARC
5
D2
100
AcDbEntity
8
1
62
256
6
ByLayer
370
18
48
1
60
0
100
AcDbCircle
39
0
10
90.800009
20
1.8
30
0
40
0.8
210
0
220
0
230
1
100
AcDbArc
50
90
51
118.955024
0
ARC
5
D3
100
AcDbEntity
8
1
62
256
6
ByLayer
370
18
48
1
60
0
100
AcDbCircle
39
0
10
90.800009
20
-4.95
30
0
40
0.8
210
0
220
0
230
1
100
AcDbArc
50
241.044976
51
270
0
ARC
5
D4
100
AcDbEntity
8
1
62
256
6
ByLayer
370
18
48
1
60
0
100
AcDbCircle
39
0
10
82.6
20
-1.575
30
0
40
1.416
210
0
220
0
230
1
100
AcDbArc
50
122.350564
51
181.969142
0
ARC
5
D5
100
AcDbEntity
8
1
62
256
6
ByLayer
370
18
48
1
60
0
100
AcDbCircle
39
0
10
82.6
20
-1.575
30
0
40
1.416
210
0
220
0
230
1
100
AcDbArc
50
181.969142
51
235.967415
0
ARC
5
D6
100
AcDbEntity
8
1
62
256
6
ByLayer
370
18
48
1
60
0
100
AcDbCircle
39
0
10
82.6
20
-1.575
30
0
40
1.416
210
0
220
0
230
1
100
AcDbArc
50
248.352291
51
302.350564
0
ARC
5
D7
100
AcDbEntity
8
1
62
256
6
ByLayer
370
18
48
1
60
0
100
AcDbCircle
39
0
10
82.6
20
-1.575
30
0
40
1.416
210
0
220
0
230
1
100
AcDbArc
50
1.969142
51
55.967415
0
ARC
5
D8
100
AcDbEntity
8
1
62
256
6
ByLayer
370
18
48
1
60
0
100
AcDbCircle
39
0
10
82.6
20
-1.575
30
0
40
1.416
210
0
220
0
230
1
100
AcDbArc
50
68.352291
51
122.350564
0
ARC
5
D9
100
AcDbEntity
8
1
62
256
6
ByLayer
370
18
48
1
60
0
100
AcDbCircle
39
0
10
82.6
20
-1.575
30
0
40
1.416
210
0
220
0
230
1
100
AcDbArc
50
302.350564
51
1.969142
0
ARC
5
DA
100
AcDbEntity
8
1
62
256
6
ByLayer
370
18
48
1
60
0
100
AcDbCircle
39
0
10
82.6
20
-1.575
30
0
40
1.416
210
0
220
0
230
1
100
AcDbArc
50
235.967415
51
248.352291
0
ARC
5
DB
100
AcDbEntity
8
1
62
256
6
ByLayer
370
18
48
1
60
0
100
AcDbCircle
39
0
10
82.6
20
-1.575
30
0
40
1.416
210
0
220
0
230
1
100
AcDbArc
50
55.967415
51
68.352291
0
ARC
5
DE
100
AcDbEntity
8
1
62
256
6
ByLayer
370
18
48
1
60
0
100
AcDbCircle
39
0
10
82.6
20
-1.575
30
0
40
1.9685
210
0
220
0
230
1
100
AcDbArc
50
272.541275
51
332.159853
0
ARC
5
DF
100
AcDbEntity
8
1
62
256
6
ByLayer
370
18
48
1
60
0
100
AcDbCircle
39
0
10
82.6
20
-1.575
30
0
40
1.9685
210
0
220
0
230
1
100
AcDbArc
50
211.778431
51
272.541275
0
ARC
5
E0
100
AcDbEntity
8
1
62
256
6
ByLayer
370
18
48
1
60
0
100
AcDbCircle
39
0
10
82.6
20
-1.575
30
0
40
1.9685
210
0
220
0
230
1
100
AcDbArc
50
152.159853
51
211.778431
0
ARC
5
E1
100
AcDbEntity
8
1
62
256
6
ByLayer
370
18
48
1
60
0
100
AcDbCircle
39
0
10
82.6
20
-1.575
30
0
40
1.9685
210
0
220
0
230
1
100
AcDbArc
50
92.541275
51
152.159853
0
ARC
5
E2
100
AcDbEntity
8
1
62
256
6
ByLayer
370
18
48
1
60
0
100
AcDbCircle
39
0
10
82.6
20
-1.575
30
0
40
1.9685
210
0
220
0
230
1
100
AcDbArc
50
31.778431
51
92.541275
0
ARC
5
E3
100
AcDbEntity
8
1
62
256
6
ByLayer
370
18
48
1
60
0
100
AcDbCircle
39
0
10
-111.499398
20
-1.137583
30
0
40
0.249999999985174
210
0
220
0
230
-1
100
AcDbArc
50
139.697746
51
174.648017
0
ARC
5
E4
100
AcDbEntity
8
1
62
256
6
ByLayer
370
18
48
1
60
0
100
AcDbCircle
39
0
10
-111.499398
20
-2.012417
30
0
40
0.250000000000994
210
0
220
0
230
-1
100
AcDbArc
50
185.351983
51
220.302254
0
CIRCLE
5
DC
100
AcDbEntity
8
1
62
256
6
ByLayer
370
18
48
1
60
0
100
AcDbCircle
10
-82.6
20
-1.575
30
0
40
3.95
39
0
210
0
220
0
230
-1
0
CIRCLE
5
DD
100
AcDbEntity
8
1
62
256
6
ByLayer
370
18
48
1
60
0
100
AcDbCircle
10
-82.6
20
-1.575
30
0
40
3.45
39
0
210
0
220
0
230
-1
0
ELLIPSE
5
E5
100
AcDbEntity
8
1
62
256
6
ByLayer
370
18
48
1
60
0
100
AcDbEllipse
10
111.321437
20
-0.645816
30
0
11
-0.134347257244909
21
-0.268236489819656
31
0
210
0
220
0
230
1
40
0.66654
41
0.644411399633303
42
1.89300202661147
0
ELLIPSE
5
E6
100
AcDbEntity
8
1
62
256
6
ByLayer
370
18
48
1
60
0
100
AcDbEllipse
10
111.321437
20
-2.504184
30
0
11
-0.134347257244909
21
0.268236489819656
31
0
210
0
220
0
230
1
40
0.66654
41
-1.89300202661157
42
-0.644411399633303
0
ELLIPSE
5
E7
100
AcDbEntity
8
1
62
256
6
ByLayer
370
18
48
1
60
0
100
AcDbEllipse
10
111.226734
20
-0.608889
30
0
11
-0.0826912067451
21
-0.288378508781496
31
0
210
0
220
0
230
1
40
0.693005
41
0.392321272012026
42
1.76695696280084
0
ELLIPSE
5
E8
100
AcDbEntity
8
1
62
256
6
ByLayer
370
18
48
1
60
0
100
AcDbEllipse
10
111.226734
20
-2.541111
30
0
11
-0.0826912067451
21
0.288378508781496
31
0
210
0
220
0
230
1
40
0.693005
41
-1.76695696280088
42
-0.392321272012339
0
ELLIPSE
5
E9
100
AcDbEntity
8
1
62
256
6
ByLayer
370
18
48
1
60
0
100
AcDbEllipse
10
111.168083
20
-2.416853
30
0
11
0.0539840858314888
21
0.0841767098248586
31
0
210
0
220
0
230
1
40
0.389202
41
0.640141202465574
42
1.02533474485496
0
ELLIPSE
5
EA
100
AcDbEntity
8
1
62
256
6
ByLayer
370
18
48
1
60
0
100
AcDbEllipse
10
111.168083
20
-0.733147
30
0
11
0.0539840858314888
21
-0.0841767098248586
31
0
210
0
220
0
230
1
40
0.389202
41
-1.02533474485496
42
-0.640141202464914
0
ELLIPSE
5
EB
100
AcDbEntity
8
1
62
256
6
ByLayer
370
18
48
1
60
0
100
AcDbEllipse
10
111.147309
20
-0.650952
30
0
11
0.0367035926394385
21
-0.0930206766657724
31
0
210
0
220
0
230
1
40
0.064583
41
-1.40855681753748
42
-0.986956091226544
0
ELLIPSE
5
EC
100
AcDbEntity
8
1
62
256
6
ByLayer
370
18
48
1
60
0
100
AcDbEllipse
10
111.147309
20
-2.499048
30
0
11
0.0367035926394385
21
0.0930206766657724
31
0
210
0
220
0
230
1
40
0.064583
41
0.986956091236269
42
1.40855681754064
0
ELLIPSE
5
ED
100
AcDbEntity
8
1
62
256
6
ByLayer
370
18
48
1
60
0
100
AcDbEllipse
10
47.85
20
8.146593
30
0
11
-1.02831595463042E-15
21
16.7942286338908
31
0
210
0
220
0
230
-1
40
0.267949
41
-2.53484699733482
42
-2.07725427494265
0
ELLIPSE
5
EE
100
AcDbEntity
8
1
62
256
6
ByLayer
370
18
48
1
60
0
100
AcDbEllipse
10
119.194001
20
3.123586
30
0
11
0.727926854107136
21
0.349274331748733
31
0
210
0
220
0
230
-1
40
0.990854
41
-1.1725078106636
42
0.443800739909336
0
ELLIPSE
5
EF
100
AcDbEntity
8
1
62
256
6
ByLayer
370
18
48
1
60
0
100
AcDbEllipse
10
119.194001
20
-6.273586
30
0
11
-0.727926854107137
21
0.349274331748732
31
0
210
0
220
0
230
1
40
0.990854
41
1.96908484292619
42
-2.69779191368043
0
ELLIPSE
5
F0
100
AcDbEntity
8
1
62
256
6
ByLayer
370
18
48
1
60
0
100
AcDbEllipse
10
111.075134
20
-1.137583
30
0
11
0.550000000922657
21
3.13009641694189E-10
31
0
210
0
220
0
230
-1
40
0.454545
41
-1.29154364559381
42
-1.10646593427002
0
ELLIPSE
5
F1
100
AcDbEntity
8
1
62
256
6
ByLayer
370
18
48
1
60
0
100
AcDbEllipse
10
111.075134
20
-2.012417
30
0
11
0.550000000879365
21
-2.96735191708062E-10
31
0
210
0
220
0
230
-1
40
0.454545
41
1.10646593430729
42
1.29154364564355
0
ELLIPSE
5
F2
100
AcDbEntity
8
1
62
256
6
ByLayer
370
18
48
1
60
0
100
AcDbEllipse
10
111.557499
20
0.544625
30
0
11
3.77375947089945E-08
21
-1.49999994906047
31
0
210
0
220
0
230
-1
40
0.8
41
0.279252705010967
42
0.391442170200829
0
ELLIPSE
5
F3
100
AcDbEntity
8
1
62
256
6
ByLayer
370
18
48
1
60
0
100
AcDbEllipse
10
111.557499
20
-3.694625
30
0
11
3.72426426283418E-08
21
1.49999994971197
31
0
210
0
220
0
230
-1
40
0.8
41
-0.391442169852855
42
-0.279252704688872
0
ELLIPSE
5
F4
100
AcDbEntity
8
1
62
256
6
ByLayer
370
18
48
1
60
0
100
AcDbEllipse
10
110.877681
20
-2.911162
30
0
11
0.308514787812611
21
0.451950702029955
31
0
210
0
220
0
230
-1
40
0.545515
41
-0.270696343803621
42
-0.0909464685605873
0
ELLIPSE
5
F5
100
AcDbEntity
8
1
62
256
6
ByLayer
370
18
48
1
60
0
100
AcDbEllipse
10
110.877681
20
-0.238838
30
0
11
0.308514789039947
21
-0.451950704628254
31
0
210
0
220
0
230
-1
40
0.545515
41
0.0909464678822103
42
0.270696342650444
0
ELLIPSE
5
F6
100
AcDbEntity
8
1
62
256
6
ByLayer
370
18
48
1
60
0
100
AcDbEllipse
10
111.139824
20
-0.573774
30
0
11
0.267888069853475
21
0.143174803761444
31
0
210
0
220
0
230
-1
40
0.417858
41
0.907229501347626
42
1.70770679519617
0
ELLIPSE
5
F7
100
AcDbEntity
8
1
62
256
6
ByLayer
370
18
48
1
60
0
100
AcDbEllipse
10
111.139824
20
-2.576226
30
0
11
0.26788806978094
21
-0.143174803744232
31
0
210
0
220
0
230
-1
40
0.417858
41
-1.70770679537923
42
-0.907229501344462
0
ELLIPSE
5
F8
100
AcDbEntity
8
1
62
256
6
ByLayer
370
18
48
1
60
0
100
AcDbEllipse
10
111.287266
20
-1.137583
30
0
11
0.203223363067559
21
0.511077559900025
31
0
210
0
220
0
230
-1
40
1
41
-0.0992149948082078
42
0.0858627156391235
0
ELLIPSE
5
F9
100
AcDbEntity
8
1
62
256
6
ByLayer
370
18
48
1
60
0
100
AcDbEllipse
10
109.712323
20
-1.305
30
0
11
2.0415317537311
21
0.117321319413668
31
0
210
0
220
0
230
-1
40
1
41
-0.0360055603351547
42
0.0574041635007851
0
ELLIPSE
5
FA
100
AcDbEntity
8
1
62
256
6
ByLayer
370
18
48
1
60
0
100
AcDbEllipse
10
109.712323
20
-1.845
30
0
11
2.0415349618021
21
-0.117265483396502
31
0
210
0
220
0
230
-1
40
1
41
-0.0573768134581213
42
0.0360329103757242
0
ELLIPSE
5
FB
100
AcDbEntity
8
1
62
256
6
ByLayer
370
18
48
1
60
0
100
AcDbEllipse
10
111.287266
20
-2.012417
30
0
11
0.203420395135868
21
-0.51099916847026
31
0
210
0
220
0
230
-1
40
1
41
-0.0854771631306739
42
0.0996005473465419
0
ELLIPSE
5
FC
100
AcDbEntity
8
1
62
256
6
ByLayer
370
18
48
1
60
0
100
AcDbEllipse
10
111.769631
20
-3.694625
30
0
11
0.374046184466497
21
-1.14021475015968
31
0
210
0
220
0
230
-1
40
1
41
3.1094824663845
42
-3.10385829472699
0
ELLIPSE
5
FD
100
AcDbEntity
8
1
62
256
6
ByLayer
370
18
48
1
60
0
100
AcDbEllipse
10
111.769631
20
0.544625
30
0
11
0.374609605119845
21
1.1400297601114
31
0
210
0
220
0
230
-1
40
1
41
3.10336411737093
42
-3.10997664356582
0
ELLIPSE
5
FE
100
AcDbEntity
8
1
62
256
6
ByLayer
370
18
48
1
60
0
100
AcDbEllipse
10
110.877681
20
-0.256203
30
0
11
0.287188114273576
21
-0.402608240444892
31
0
210
0
220
0
230
-1
40
0.402362
41
0.0997497802790843
42
0.279499656806951
0
ELLIPSE
5
FF
100
AcDbEntity
8
1
62
256
6
ByLayer
370
18
48
1
60
0
100
AcDbEllipse
10
110.877681
20
-2.893797
30
0
11
0.28718812044557
21
0.402608251050496
31
0
210
0
220
0
230
-1
40
0.402362
41
-0.279499652420638
42
-0.0997497781560189
0
ELLIPSE
5
100
100
AcDbEntity
8
1
62
256
6
ByLayer
370
18
48
1
60
0
100
AcDbEllipse
10
111.139824
20
-2.576226
30
0
11
0.286845969746281
21
-0.0988469401796775
31
0
210
0
220
0
230
-1
40
0.30358
41
-1.64907534264814
42
-0.848598048737197
0
ELLIPSE
5
101
100
AcDbEntity
8
1
62
256
6
ByLayer
370
18
48
1
60
0
100
AcDbEllipse
10
111.139824
20
-0.573774
30
0
11
0.286845969796143
21
0.0988469401870681
31
0
210
0
220
0
230
-1
40
0.30358
41
0.84859804875111
42
1.64907534253559
0
ELLIPSE
5
102
100
AcDbEntity
8
1
62
256
6
ByLayer
370
18
48
1
60
0
100
AcDbEllipse
10
110.628472
20
2.326247
30
0
11
0.298491522119719
21
0.0347626129576189
31
0
210
0
220
0
230
-1
40
0.11453
41
0.793758926030804
42
1.5791570893605
0
ELLIPSE
5
103
100
AcDbEntity
8
1
62
256
6
ByLayer
370
18
48
1
60
0
100
AcDbEllipse
10
110.628472
20
2.326247
30
0
11
0.299998315506829
21
0.0174248927722797
31
0
210
0
220
0
230
-1
40
0.057695
41
0.788749285105486
42
1.57414744848555
0
ELLIPSE
5
104
100
AcDbEntity
8
1
62
256
6
ByLayer
370
18
48
1
60
0
100
AcDbEllipse
10
110.428475
20
3.460487
30
0
11
0.205961185015169
21
-1.16806340986963
31
0
210
0
220
0
230
-1
40
0.252932
41
0.0150792515407529
42
0.0301584840754066
0
ELLIPSE
5
105
100
AcDbEntity
8
1
62
256
6
ByLayer
370
18
48
1
60
0
100
AcDbEllipse
10
110.628472
20
-5.476247
30
0
11
0.298491522084891
21
-0.034762612956189
31
0
210
0
220
0
230
-1
40
0.11453
41
-1.57915708943827
42
-0.793758926024362
0
ELLIPSE
5
106
100
AcDbEntity
8
1
62
256
6
ByLayer
370
18
48
1
60
0
100
AcDbEllipse
10
110.428472
20
3.460503
30
0
11
-0.202992974223942
21
1.15123036422637
31
0
210
0
220
0
230
-1
40
0.171088
41
-3.12651352309348
42
-3.11143439259698
0
ELLIPSE
5
107
100
AcDbEntity
8
1
62
256
6
ByLayer
370
18
48
1
60
0
100
AcDbEllipse
10
110.628472
20
-5.476247
30
0
11
0.299998315506829
21
-0.0174248927722798
31
0
210
0
220
0
230
-1
40
0.057695
41
-1.57414744848555
42
-0.788749285105468
0
ELLIPSE
5
108
100
AcDbEntity
8
1
62
256
6
ByLayer
370
18
48
1
60
0
100
AcDbEllipse
10
110.428472
20
-6.610503
30
0
11
0.205963903729354
21
1.16807934477348
31
0
210
0
220
0
230
-1
40
0.25293
41
-0.0301582594406632
42
-0.015079129684097
0
ELLIPSE
5
109
100
AcDbEntity
8
1
62
256
6
ByLayer
370
18
48
1
60
0
100
AcDbEllipse
10
110.428472
20
-6.610503
30
0
11
-0.202992974223942
21
-1.15123036422637
31
0
210
0
220
0
230
1
40
0.171088
41
-3.12651352309349
42
-3.11143439259698
0
POINT
5
6C
100
AcDbEntity
8
81
62
256
6
ByLayer
370
18
48
1
60
0
100
AcDbPoint
10
119.157331
20
3.923861
30
0
39
0
210
0
220
0
230
1
50
360
0
POINT
5
6E
100
AcDbEntity
8
80
62
256
6
ByLayer
370
18
48
1
60
0
100
AcDbPoint
10
0
20
0
30
0
39
0
210
0
220
0
230
1
50
360
0
SPLINE
5
10A
100
AcDbEntity
8
1
62
256
6
ByLayer
370
18
48
1
60
0
100
AcDbSpline
70
4
71
3
72
27
73
23
40
0
40
0
40
0
40
0
40
0.0569131291926511
40
0.114015107802402
40
0.171166498113458
40
0.228240597977982
40
0.285130268302759
40
0.332831030313422
40
0.380723104580998
40
0.428699517805469
40
0.476659907237679
40
0.524514930257969
40
0.572190895518198
40
0.624022619016968
40
0.676075347987242
40
0.72819124207896
40
0.780220873399243
40
0.832033142739755
40
0.873983421806398
40
0.916018020158816
40
0.958051394036611
40
1
40
1
40
1
40
1
41
1
10
81.2222769204533
20
-0.487566497004323
30
0
41
1
10
81.2148442658776
20
-0.485926446171865
30
0
41
1
10
81.1998262583853
20
-0.483162549719189
30
0
41
1
10
81.1768501640435
20
-0.480570255100291
30
0
41
1
10
81.1535564925534
20
-0.479572807709362
30
0
41
1
10
81.1300846136265
20
-0.480215021552496
30
0
41
1
10
81.1078144815136
20
-0.482418004073205
30
0
41
1
10
81.0868272583061
20
-0.485946195826944
30
0
41
1
10
81.0671567526395
20
-0.490506603411216
30
0
41
1
10
81.0476164245507
20
-0.496305197150257
30
0
41
1
10
81.0283257021036
20
-0.503332710577727
30
0
41
1
10
81.0094043439817
20
-0.511579516000738
30
0
41
1
10
80.9904054333441
20
-0.521324624933209
30
0
41
1
10
80.9714495775236
20
-0.532739358147571
30
0
41
1
10
80.9526688684135
20
-0.545899645728248
30
0
41
1
10
80.93469886337
20
-0.560421934949957
30
0
41
1
10
80.9177043242361
20
-0.576207739853519
30
0
41
1
10
80.9028264339131
20
-0.592122895190734
30
0
41
1
10
80.889931378979
20
-0.607870905831863
30
0
41
1
10
80.8787919363788
20
-0.623174573946033
30
0
41
1
10
80.8685204021386
20
-0.639115027826559
30
0
41
1
10
80.8623006873627
20
-0.650109389305019
30
0
41
1
10
80.859346069184
20
-0.655698013091071
30
0
0
SPLINE
5
10B
100
AcDbEntity
8
1
62
256
6
ByLayer
370
18
48
1
60
0
100
AcDbSpline
70
4
71
3
72
13
73
9
40
0
40
0
40
0
40
0
40
0.165986426004803
40
0.332009469906475
40
0.497995895911104
40
0.665318094081905
40
0.832677801829368
40
1
40
1
40
1
40
1
41
1
10
113.758450274381
20
2.61764705882353
30
0
41
1
10
113.777087447033
20
2.62433900974824
30
0
41
1
10
113.814148536871
20
2.63827024021968
30
0
41
1
10
113.869108197755
20
2.66081343495731
30
0
41
1
10
113.923516826778
20
2.68504023901437
30
0
41
1
10
113.977321485486
20
2.71095027746539
30
0
41
1
10
114.030472336893
20
2.73853292038915
30
0
41
1
10
114.065331814701
20
2.75796883278858
30
0
41
1
10
114.082619374788
20
2.76794919243112
30
0
0
SPLINE
5
10C
100
AcDbEntity
8
1
62
256
6
ByLayer
370
18
48
1
60
0
100
AcDbSpline
70
4
71
3
72
13
73
9
40
0
40
0
40
0
40
0
40
0.164130030765331
40
0.32839175703418
40
0.492521787798563
40
0.661633164977736
40
0.830888622820605
40
1
40
1
40
1
40
1
41
1
10
113.657075639442
20
2.6
30
0
41
1
10
113.662739185901
20
2.60000102329571
30
0
41
1
10
113.674049976117
20
2.60032186523422
30
0
41
1
10
113.690976151002
20
2.60176242995614
30
0
41
1
10
113.707960213267
20
2.60417837278546
30
0
41
1
10
113.724945676413
20
2.60760585043498
30
0
41
1
10
113.741873811484
20
2.61205871805604
30
0
41
1
10
113.752957307795
20
2.6156761159852
30
0
41
1
10
113.758450274377
20
2.61764705882232
30
0
0
SPLINE
5
10D
100
AcDbEntity
8
1
62
256
6
ByLayer
370
18
48
1
60
0
100
AcDbSpline
70
4
71
3
72
13
73
9
40
0
40
0
40
0
40
0
40
0.164130030764311
40
0.328391757034297
40
0.492521787798873
40
0.661633164977931
40
0.830888622820737
40
1
40
1
40
1
40
1
41
1
10
113.758450274381
20
-5.76764705882353
30
0
41
1
10
113.753119531926
20
-5.76573422207613
30
0
41
1
10
113.742365664863
20
-5.76221410019607
30
0
41
1
10
113.725948358248
20
-5.75785030981709
30
0
41
1
10
113.709146974061
20
-5.75438496132276
30
0
41
1
10
113.692002458155
20
-5.75187117222105
30
0
41
1
10
113.67456540297
20
-5.75034182807587
30
0
41
1
10
113.662911502382
20
-5.75000115325033
30
0
41
1
10
113.657075639445
20
-5.75
30
0
0
SPLINE
5
10E
100
AcDbEntity
8
1
62
256
6
ByLayer
370
18
48
1
60
0
100
AcDbSpline
70
4
71
3
72
13
73
9
40
0
40
0
40
0
40
0
40
0.165986426004364
40
0.332009469906349
40
0.497995895910948
40
0.665318094081582
40
0.832677801829257
40
1
40
1
40
1
40
1
41
1
10
114.082619374788
20
-5.91794919243112
30
0
41
1
10
114.065469923052
20
-5.90804855018977
30
0
41
1
10
114.03089107077
20
-5.88876367172703
30
0
41
1
10
113.978174580869
20
-5.86138244374409
30
0
41
1
10
113.924529142599
20
-5.83550960277379
30
0
41
1
10
113.869989246975
20
-5.81118531086988
30
0
41
1
10
113.814595208013
20
-5.78844073693616
30
0
41
1
10
113.777237525131
20
-5.7743929109992
30
0
41
1
10
113.758450274381
20
-5.76764705882353
30
0
0
SPLINE
5
10F
100
AcDbEntity
8
1
62
256
6
ByLayer
370
18
48
1
60
0
100
AcDbSpline
70
4
71
3
72
18
73
14
40
0
40
0
40
0
40
0
40
0.0858266124551911
40
0.171773512938953
40
0.281654336935484
40
0.391538014290151
40
0.50224901108757
40
0.612959428731166
40
0.709348891270208
40
0.805734509478479
40
0.870487424362308
40
0.93525495001311
40
1
40
1
40
1
40
1
41
1
10
111.690058676182
20
-0.975877649256535
30
0
41
1
10
111.679074882227
20
-0.975322807569773
30
0
41
1
10
111.657135935499
20
-0.973918655899244
30
0
41
1
10
111.621288133741
20
-0.970617601344356
30
0
41
1
10
111.58260515251
20
-0.965928280402885
30
0
41
1
10
111.5411291309
20
-0.959703516898401
30
0
41
1
10
111.499950479124
20
-0.95250207036894
30
0
41
1
10
111.460891226485
20
-0.944878738853131
30
0
41
1
10
111.424043503377
20
-0.937143230045663
30
0
41
1
10
111.393182799089
20
-0.930350888051215
30
0
41
1
10
111.366462977496
20
-0.924324827989
30
0
41
1
10
111.343756732628
20
-0.919143480910396
30
0
41
1
10
111.328841428274
20
-0.915743077926324
30
0
41
1
10
111.321437192487
20
-0.914052188047618
30
0
0
SPLINE
5
110
100
AcDbEntity
8
1
62
256
6
ByLayer
370
18
48
1
60
0
100
AcDbSpline
70
4
71
3
72
18
73
14
40
0
40
0
40
0
40
0
40
0.0858266124551047
40
0.171773512938874
40
0.281654336935416
40
0.391538014290094
40
0.502249011087523
40
0.612959428731129
40
0.709348891270181
40
0.805734509478461
40
0.870487424362296
40
0.935254950013104
40
1
40
1
40
1
40
1
41
1
10
111.690058676182
20
-2.17412235074146
30
0
41
1
10
111.679074882227
20
-2.17467719242923
30
0
41
1
10
111.657135935499
20
-2.17608134410122
30
0
41
1
10
111.621288133741
20
-2.17938239865548
30
0
41
1
10
111.58260515251
20
-2.18407171959716
30
0
41
1
10
111.5411291309
20
-2.19029648310159
30
0
41
1
10
111.499950479124
20
-2.19749792963106
30
0
41
1
10
111.460891226485
20
-2.20512126114687
30
0
41
1
10
111.424043503377
20
-2.21285676995434
30
0
41
1
10
111.393182799089
20
-2.21964911194879
30
0
41
1
10
111.366462977496
20
-2.225675172011
30
0
41
1
10
111.343756732628
20
-2.23085651908961
30
0
41
1
10
111.328841428274
20
-2.23425692207368
30
0
41
1
10
111.321437192487
20
-2.23594781195238
30
0
0
SPLINE
5
111
100
AcDbEntity
8
1
62
256
6
ByLayer
370
18
48
1
60
0
100
AcDbSpline
70
4
71
3
72
16
73
12
40
0
40
0
40
0
40
0
40
0.135470317428962
40
0.27092662371306
40
0.409033144350949
40
0.547121773571193
40
0.646115365217992
40
0.745104402501731
40
0.84567002074935
40
0.946232066960735
40
1
40
1
40
1
40
1
41
1
10
111.099673015153
20
-0.841914346333391
30
0
41
1
10
111.104231407877
20
-0.841611562740601
30
0
41
1
10
111.113282248042
20
-0.840754199644451
30
0
41
1
10
111.126784171235
20
-0.838723560775039
30
0
41
1
10
111.140100393947
20
-0.835858217298515
30
0
41
1
10
111.151910793682
20
-0.832459779376212
30
0
41
1
10
111.162156872739
20
-0.828781336032332
30
0
41
1
10
111.170973721037
20
-0.825038606881249
30
0
41
1
10
111.179498928541
20
-0.820788382265555
30
0
41
1
10
111.186416274571
20
-0.81676630400878
30
0
41
1
10
111.190431186768
20
-0.814144133160923
30
0
41
1
10
111.191810037738
20
-0.813207668105767
30
0
0
SPLINE
5
112
100
AcDbEntity
8
1
62
256
6
ByLayer
370
18
48
1
60
0
100
AcDbSpline
70
4
71
3
72
16
73
12
40
0
40
0
40
0
40
0
40
0.135470317428909
40
0.270926623713032
40
0.409033144350918
40
0.547121773571204
40
0.646115365218001
40
0.745104402501731
40
0.84567002074935
40
0.946232066960739
40
1
40
1
40
1
40
1
41
1
10
111.099673015153
20
-2.30808565366661
30
0
41
1
10
111.104231407877
20
-2.3083884372594
30
0
41
1
10
111.113282248043
20
-2.30924580035555
30
0
41
1
10
111.126784171235
20
-2.31127643922496
30
0
41
1
10
111.140100393946
20
-2.31414178270148
30
0
41
1
10
111.151910793682
20
-2.31754022062379
30
0
41
1
10
111.162156872739
20
-2.32121866396767
30
0
41
1
10
111.170973721037
20
-2.32496139311875
30
0
41
1
10
111.179498928541
20
-2.32921161773445
30
0
41
1
10
111.186416274572
20
-2.33323369599122
30
0
41
1
10
111.190431186768
20
-2.33585586683909
30
0
41
1
10
111.191810037738
20
-2.33679233189423
30
0
0
SPLINE
5
113
100
AcDbEntity
8
1
62
256
6
ByLayer
370
18
48
1
60
0
100
AcDbSpline
70
4
71
3
72
22
73
18
40
0
40
0
40
0
40
0
40
0.0680016168474868
40
0.136157050414957
40
0.204313936344648
40
0.27231753815816
40
0.343017590154827
40
0.413970321472048
40
0.485011020150681
40
0.555967848584004
40
0.626671349167909
40
0.697712842874397
40
0.769006403497845
40
0.840386466190506
40
0.911681763262386
40
0.982724718514952
40
1
40
1
40
1
40
1
41
1
10
111.191810037738
20
-2.33679233189423
30
0
41
1
10
111.196873372796
20
-2.34023503140487
30
0
41
1
10
111.20691409706
20
-2.34744983289024
30
0
41
1
10
111.221718400356
20
-2.35927139928583
30
0
41
1
10
111.236169714925
20
-2.37200268937132
30
0
41
1
10
111.250383893004
20
-2.38576612625439
30
0
41
1
10
111.26427743453
20
-2.40057403311973
30
0
41
1
10
111.277782182295
20
-2.41639283647198
30
0
41
1
10
111.290657093135
20
-2.43294254681241
30
0
41
1
10
111.302811433652
20
-2.45010713054088
30
0
41
1
10
111.314195001525
20
-2.46783306111303
30
0
41
1
10
111.324745680083
20
-2.48607754223863
30
0
41
1
10
111.334444943025
20
-2.50477173080664
30
0
41
1
10
111.343235232447
20
-2.52379009672385
30
0
41
1
10
111.351055663895
20
-2.5429992148709
30
0
41
1
10
111.356143253042
20
-2.55744406311561
30
0
41
1
10
111.358684812977
20
-2.5654419993632
30
0
41
1
10
111.359171739172
20
-2.5670071058555
30
0
0
SPLINE
5
114
100
AcDbEntity
8
1
62
256
6
ByLayer
370
18
48
1
60
0
100
AcDbSpline
70
4
71
3
72
22
73
18
40
0
40
0
40
0
40
0
40
0.0680016168474869
40
0.136157050414957
40
0.204313936344648
40
0.272317538158159
40
0.343017590154836
40
0.413970321472049
40
0.485011020150684
40
0.555967848584005
40
0.626671349167909
40
0.697712842874406
40
0.769006403497845
40
0.840386466190511
40
0.91168176326239
40
0.982724718514954
40
1
40
1
40
1
40
1
41
1
10
111.191810037738
20
-0.813207668105767
30
0
41
1
10
111.196873372796
20
-0.809764968595129
30
0
41
1
10
111.20691409706
20
-0.802550167109761
30
0
41
1
10
111.221718400356
20
-0.790728600714171
30
0
41
1
10
111.236169714925
20
-0.777997310628681
30
0
41
1
10
111.250383893004
20
-0.764233873745617
30
0
41
1
10
111.26427743453
20
-0.749425966880263
30
0
41
1
10
111.277782182294
20
-0.733607163528022
30
0
41
1
10
111.290657093135
20
-0.717057453187593
30
0
41
1
10
111.302811433652
20
-0.699892869459116
30
0
41
1
10
111.314195001525
20
-0.682166938886972
30
0
41
1
10
111.324745680083
20
-0.663922457761373
30
0
41
1
10
111.334444943025
20
-0.645228269193359
30
0
41
1
10
111.343235232447
20
-0.62620990327615
30
0
41
1
10
111.351055663896
20
-0.607000785129101
30
0
41
1
10
111.356143253041
20
-0.592555936884388
30
0
41
1
10
111.358684812978
20
-0.584558000636797
30
0
41
1
10
111.359171739172
20
-0.582992894144502
30
0
0
SPLINE
5
115
100
AcDbEntity
8
1
62
256
6
ByLayer
370
18
48
1
60
0
100
AcDbSpline
70
4
71
3
72
16
73
12
40
0
40
0
40
0
40
0
40
0.0506436265470952
40
0.145549532661888
40
0.240468008386636
40
0.337959901752972
40
0.435466611913668
40
0.574699658585827
40
0.713978668628636
40
0.856974420485566
40
1
40
1
40
1
40
1
41
1
10
111.168083067799
20
-0.79478086097658
30
0
41
1
10
111.167127669159
20
-0.795392973237261
30
0
41
1
10
111.164334441502
20
-0.797098879495469
30
0
41
1
10
111.159474392203
20
-0.799665129320799
30
0
41
1
10
111.153364708359
20
-0.802334703758268
30
0
41
1
10
111.146942176925
20
-0.804626006141135
30
0
41
1
10
111.139308334324
20
-0.806820262844811
30
0
41
1
10
111.130478424853
20
-0.80870773358534
30
0
41
1
10
111.120389544541
20
-0.810135818262189
30
0
41
1
10
111.110095764617
20
-0.81094193777229
30
0
41
1
10
111.103153948301
20
-0.811119901181913
30
0
41
1
10
111.099673015153
20
-0.811112129111583
30
0
0
SPLINE
5
116
100
AcDbEntity
8
1
62
256
6
ByLayer
370
18
48
1
60
0
100
AcDbSpline
70
4
71
3
72
16
73
12
40
0
40
0
40
0
40
0
40
0.0506436265471006
40
0.145549532661893
40
0.240468008386647
40
0.337959901752977
40
0.43546661191367
40
0.574699658585831
40
0.71397866862864
40
0.856974420485568
40
1
40
1
40
1
40
1
41
1
10
111.168083067799
20
-2.35521913902342
30
0
41
1
10
111.16712766916
20
-2.35460702676274
30
0
41
1
10
111.164334441502
20
-2.35290112050453
30
0
41
1
10
111.159474392203
20
-2.3503348706792
30
0
41
1
10
111.153364708359
20
-2.34766529624173
30
0
41
1
10
111.146942176925
20
-2.34537399385887
30
0
41
1
10
111.139308334324
20
-2.34317973715519
30
0
41
1
10
111.130478424853
20
-2.34129226641466
30
0
41
1
10
111.120389544541
20
-2.33986418173781
30
0
41
1
10
111.110095764617
20
-2.33905806222771
30
0
41
1
10
111.103153948301
20
-2.33888009881809
30
0
41
1
10
111.099673015153
20
-2.33888787088842
30
0
0
SPLINE
5
117
100
AcDbEntity
8
1
62
256
6
ByLayer
370
18
48
1
60
0
100
AcDbSpline
70
4
71
3
72
22
73
18
40
0
40
0
40
0
40
0
40
0.0172820105765277
40
0.0883325676025106
40
0.159635620261514
40
0.231023305934582
40
0.302324270348267
40
0.373373069723075
40
0.444069661987058
40
0.515019825634048
40
0.586053943573952
40
0.657000010615213
40
0.727693154708277
40
0.795693994999186
40
0.863848186783328
40
0.932001018515295
40
1
40
1
40
1
40
1
41
1
10
111.359171739172
20
-2.5670071058555
30
0
41
1
10
111.358517275349
20
-2.56556924537809
30
0
41
1
10
111.355120972896
20
-2.55822293049971
30
0
41
1
10
111.348496060013
20
-2.54495247495308
30
0
41
1
10
111.338644144779
20
-2.52729990682354
30
0
41
1
10
111.327854317296
20
-2.50981727481364
30
0
41
1
10
111.316200755412
20
-2.49262760085221
30
0
41
1
10
111.303754374549
20
-2.47584776368699
30
0
41
1
10
111.290540395246
20
-2.4595413983682
30
0
41
1
10
111.276624046145
20
-2.44374855049087
30
0
41
1
10
111.262059081998
20
-2.42851798343724
30
0
41
1
10
111.246947083197
20
-2.41395711414139
30
0
41
1
10
111.231556265076
20
-2.40032400524686
30
0
41
1
10
111.215956857526
20
-2.38765027382148
30
0
41
1
10
111.200229540055
20
-2.37592518829217
30
0
41
1
10
111.184245590635
20
-2.3650366166683
30
0
41
1
10
111.173487747088
20
-2.35839061538539
30
0
41
1
10
111.168083067799
20
-2.35521913902342
30
0
0
SPLINE
5
118
100
AcDbEntity
8
1
62
256
6
ByLayer
370
18
48
1
60
0
100
AcDbSpline
70
4
71
3
72
22
73
18
40
0
40
0
40
0
40
0
40
0.0172820105765265
40
0.0883325676025059
40
0.159635620261503
40
0.23102330593458
40
0.302324270348264
40
0.373373069723071
40
0.444069661987046
40
0.515019825634048
40
0.58605394357395
40
0.657000010615211
40
0.727693154708274
40
0.795693994999184
40
0.863848186783327
40
0.932001018515294
40
1
40
1
40
1
40
1
41
1
10
111.359171739172
20
-0.582992894144503
30
0
41
1
10
111.358517275349
20
-0.584430754621911
30
0
41
1
10
111.355120972896
20
-0.591777069500301
30
0
41
1
10
111.348496060013
20
-0.605047525046921
30
0
41
1
10
111.338644144779
20
-0.622700093176469
30
0
41
1
10
111.327854317296
20
-0.640182725186357
30
0
41
1
10
111.316200755411
20
-0.657372399147791
30
0
41
1
10
111.303754374549
20
-0.674152236313013
30
0
41
1
10
111.290540395246
20
-0.6904586016318
30
0
41
1
10
111.276624046145
20
-0.70625144950913
30
0
41
1
10
111.262059081998
20
-0.721482016562765
30
0
41
1
10
111.246947083197
20
-0.736042885858611
30
0
41
1
10
111.231556265076
20
-0.749675994753138
30
0
41
1
10
111.215956857526
20
-0.762349726178524
30
0
41
1
10
111.200229540055
20
-0.774074811707836
30
0
41
1
10
111.184245590635
20
-0.784963383331705
30
0
41
1
10
111.173487747088
20
-0.791609384614615
30
0
41
1
10
111.168083067799
20
-0.79478086097658
30
0
0
SPLINE
5
119
100
AcDbEntity
8
1
62
256
6
ByLayer
370
18
48
1
60
0
100
AcDbSpline
70
4
71
3
72
20
73
16
40
0
40
0
40
0
40
0
40
0.0632521131234769
40
0.126626211067005
40
0.190104300404006
40
0.253630490534866
40
0.317115717145943
40
0.380442080426801
40
0.456509157202125
40
0.532609351687739
40
0.60873638903507
40
0.684840083294186
40
0.837581681222793
40
0.990318015745061
40
1
40
1
40
1
40
1
41
1
10
111.690058676182
20
-0.975877649258539
30
0
41
1
10
111.685477149606
20
-0.970459207933956
30
0
41
1
10
111.676526528754
20
-0.959281944130092
30
0
41
1
10
111.663761709743
20
-0.941450277185247
30
0
41
1
10
111.651630114923
20
-0.92271755845765
30
0
41
1
10
111.640121729492
20
-0.903194350292123
30
0
41
1
10
111.629222755631
20
-0.883011368483691
30
0
41
1
10
111.618221602225
20
-0.860861938386861
30
0
41
1
10
111.607187819181
20
-0.836714131703275
30
0
41
1
10
111.596101494732
20
-0.810604484809927
30
0
41
1
10
111.585495951183
20
-0.784094782287729
30
0
41
1
10
111.571792480281
20
-0.74832702815719
30
0
41
1
10
111.555176150122
20
-0.70317864540884
30
0
41
1
10
111.541351875411
20
-0.665960784380555
30
0
41
1
10
111.534007486472
20
-0.646948693841109
30
0
41
1
10
111.533569226843
20
-0.645815698227967
30
0
0
SPLINE
5
11A
100
AcDbEntity
8
1
62
256
6
ByLayer
370
18
48
1
60
0
100
AcDbSpline
70
4
71
3
72
19
73
15
40
0
40
0
40
0
40
0
40
0.0096822343760379
40
0.151969273654878
40
0.294262090954102
40
0.388920113310124
40
0.48358214597947
40
0.578204459493307
40
0.64840860248091
40
0.718821455325142
40
0.789280338372212
40
0.859665854238874
40
0.929909171632986
40
1
40
1
40
1
40
1
41
1
10
111.533569226843
20
-2.50418430177203
30
0
41
1
10
111.534007501263
20
-2.50305131766857
30
0
41
1
10
111.540879096607
20
-2.48526272900178
30
0
41
1
10
111.553812088548
20
-2.45053272399936
30
0
41
1
10
111.570314774065
20
-2.4056553934868
30
0
41
1
10
111.585140652645
20
-2.3667068407705
30
0
41
1
10
111.598368761144
20
-2.33377175910894
30
0
41
1
10
111.611167001976
20
-2.30425839182841
30
0
41
1
10
111.623539700667
20
-2.27820429840093
30
0
41
1
10
111.635317406937
20
-2.25549543172023
30
0
41
1
10
111.647818198877
20
-2.23353906647434
30
0
41
1
10
111.661069046881
20
-2.21251155954466
30
0
41
1
10
111.675090994547
20
-2.19256117502838
30
0
41
1
10
111.684982443221
20
-2.18013087512335
30
0
41
1
10
111.690058676182
20
-2.17412235074146
30
0
0
SPLINE
5
11B
100
AcDbEntity
8
1
62
256
6
ByLayer
370
18
48
1
60
0
100
AcDbSpline
70
4
71
3
72
14
73
10
40
0
40
0
40
0
40
0
40
0.302663152425735
40
0.453995135440737
40
0.605327099152424
40
0.703994852968569
40
0.802662594198291
40
0.901331319361565
40
1
40
1
40
1
40
1
41
1
10
108.329446787541
20
-2.40412521212073
30
0
41
1
10
108.281254961753
20
-2.73180673011129
30
0
41
1
10
108.208644056556
20
-3.22325802912632
30
0
41
1
10
108.111276595759
20
-3.8784048222035
30
0
41
1
10
108.04631262562
20
-4.31267604089115
30
0
41
1
10
107.989502973176
20
-4.68987767501866
30
0
41
1
10
107.940937607216
20
-5.01003045202395
30
0
41
1
10
107.891980746119
20
-5.33009564712821
30
0
41
1
10
107.858933446043
20
-5.54337897511323
30
0
41
1
10
107.84231984388
20
-5.65
30
0
0
SPLINE
5
11C
100
AcDbEntity
8
1
62
256
6
ByLayer
370
18
48
1
60
0
100
AcDbSpline
70
4
71
3
72
19
73
15
40
0
40
0
40
0
40
0
40
0.0794043685058223
40
0.158808306521888
40
0.240443712241781
40
0.322078408609821
40
0.40239466328574
40
0.482710100151298
40
0.565414026538382
40
0.648116973630061
40
0.734530580934312
40
0.820943132093897
40
0.910471987882044
40
1
40
1
40
1
40
1
41
1
10
108.409828135513
20
-2.28921854565293
30
0
41
1
10
108.40659096488
20
-2.29063467894529
30
0
41
1
10
108.400235352716
20
-2.29377626268365
30
0
41
1
10
108.39094171512
20
-2.29948282862341
30
0
41
1
10
108.381991982722
20
-2.30617355878854
30
0
41
1
10
108.373500480827
20
-2.31378697963047
30
0
41
1
10
108.3656094431
20
-2.32220203169564
30
0
41
1
10
108.358287135626
20
-2.33143025388243
30
0
41
1
10
108.351574179389
20
-2.34148967924079
30
0
41
1
10
108.34545047693
20
-2.35248592143628
30
0
41
1
10
108.340081881008
20
-2.36428298587103
30
0
41
1
10
108.335497422725
20
-2.37695502468043
30
0
41
1
10
108.331866742064
20
-2.39026653135357
30
0
41
1
10
108.330135278411
20
-2.39946281831265
30
0
41
1
10
108.329446787541
20
-2.40412521212073
30
0
0
SPLINE
5
11D
100
AcDbEntity
8
1
62
256
6
ByLayer
370
18
48
1
60
0
100
AcDbSpline
70
4
71
1
72
4
73
2
40
0
40
0
40
1
40
1
41
1
10
108.520056693731
20
-2.24095389311791
30
0
41
1
10
108.409828135513
20
-2.28921854565293
30
0
0
SPLINE
5
11E
100
AcDbEntity
8
1
62
256
6
ByLayer
370
18
48
1
60
0
100
AcDbSpline
70
4
71
3
72
18
73
14
40
0
40
0
40
0
40
0
40
0.0903566708109096
40
0.181000829549934
40
0.271359002725615
40
0.362056196368692
40
0.4530416687839
40
0.543742931825953
40
0.634870560915347
40
0.726284819881982
40
0.817417789499755
40
0.908708185558376
40
1
40
1
40
1
40
1
41
1
10
108.60191080118
20
-2.1
30
0
41
1
10
108.601904241134
20
-2.1055678763139
30
0
41
1
10
108.601389827203
20
-2.11664156902694
30
0
41
1
10
108.599095730394
20
-2.1330966465714
30
0
41
1
10
108.595326335742
20
-2.14914690660838
30
0
41
1
10
108.590066546725
20
-2.16458792874736
30
0
41
1
10
108.583434568149
20
-2.17923993850955
30
0
41
1
10
108.575507104101
20
-2.1929345998321
30
0
41
1
10
108.566338199085
20
-2.20545603443445
30
0
41
1
10
108.5560828999
20
-2.21668938113917
30
0
41
1
10
108.544875985687
20
-2.22648701473055
30
0
41
1
10
108.532833405063
20
-2.23469274937611
30
0
41
1
10
108.524392159616
20
-2.23904978701054
30
0
41
1
10
108.520056693731
20
-2.24095389311791
30
0
0
SPLINE
5
11F
100
AcDbEntity
8
1
62
256
6
ByLayer
370
18
48
1
60
0
100
AcDbSpline
70
4
71
3
72
18
73
14
40
0
40
0
40
0
40
0
40
0.0915622704707736
40
0.183405275428406
40
0.274962352882977
40
0.367638651425773
40
0.460613473456617
40
0.553284291905328
40
0.645118476199113
40
0.73724996023625
40
0.829080713555916
40
0.914540466610132
40
1
40
1
40
1
40
1
41
1
10
108.520056693732
20
-0.909046106882149
30
0
41
1
10
108.524403951872
20
-0.910959442914935
30
0
41
1
10
108.532881974852
20
-0.915341042746036
30
0
41
1
10
108.544968642621
20
-0.923605550064991
30
0
41
1
10
108.556277974061
20
-0.93346528166663
30
0
41
1
10
108.566633325248
20
-0.944892805045519
30
0
41
1
10
108.575913207643
20
-0.957709725202889
30
0
41
1
10
108.58393475686
20
-0.971676276268312
30
0
41
1
10
108.590551492637
20
-0.986639955632114
30
0
41
1
10
108.595740156409
20
-1.00236410396717
30
0
41
1
10
108.599362612194
20
-1.01832140691328
30
0
41
1
10
108.60145129011
20
-1.03427688775226
30
0
41
1
10
108.60190814603
20
-1.04473633177475
30
0
41
1
10
108.60191080118
20
-1.05
30
0
0
SPLINE
5
120
100
AcDbEntity
8
1
62
256
6
ByLayer
370
18
48
1
60
0
100
AcDbSpline
70
4
71
1
72
4
73
2
40
0
40
0
40
1
40
1
41
1
10
108.409828135513
20
-0.86078145434713
30
0
41
1
10
108.520056693732
20
-0.909046106882151
30
0
0
SPLINE
5
121
100
AcDbEntity
8
1
62
256
6
ByLayer
370
18
48
1
60
0
100
AcDbSpline
70
4
71
3
72
17
73
13
40
0
40
0
40
0
40
0
40
0.105278508510979
40
0.210896288661893
40
0.31618149839539
40
0.421825770670223
40
0.5278031092463
40
0.633456370362367
40
0.740353731781502
40
0.847583972852288
40
0.954488109325787
40
1
40
1
40
1
40
1
41
1
10
108.329446787541
20
-0.745874787879281
30
0
41
1
10
108.330261898385
20
-0.751362100185455
30
0
41
1
10
108.332379037384
20
-0.762166269222639
30
0
41
1
10
108.337040611174
20
-0.777886592632218
30
0
41
1
10
108.343097721417
20
-0.792884563150594
30
0
41
1
10
108.350530286372
20
-0.806958823172527
30
0
41
1
10
108.359192354764
20
-0.819963102753063
30
0
41
1
10
108.369005844427
20
-0.831782494692701
30
0
41
1
10
108.379894550265
20
-0.842212969283066
30
0
41
1
10
108.391693501804
20
-0.851161647205418
30
0
41
1
10
108.401833814806
20
-0.85708862862313
30
0
41
1
10
108.407975218235
20
-0.859971870781747
30
0
41
1
10
108.409828135513
20
-0.86078145434713
30
0
0
SPLINE
5
122
100
AcDbEntity
8
1
62
256
6
ByLayer
370
18
48
1
60
0
100
AcDbSpline
70
4
71
3
72
14
73
10
40
0
40
0
40
0
40
0
40
0.077433510603192
40
0.154867040562232
40
0.309735523170948
40
0.482301136739549
40
0.654866795500997
40
0.827433392896384
40
1
40
1
40
1
40
1
41
1
10
107.842319843879
20
2.5
30
0
41
1
10
107.855362693093
20
2.41632678072077
30
0
41
1
10
107.881329941634
20
2.24895310401024
30
0
41
1
10
107.932740920292
20
1.91408344849212
30
0
41
1
10
107.99920909485
20
1.47619509889606
30
0
41
1
10
108.080432870386
20
0.935221876831571
30
0
41
1
10
108.163866046941
20
0.374952051384799
30
0
41
1
10
108.24684790485
20
-0.185418715300179
30
0
41
1
10
108.301954417305
20
-0.559047146008414
30
0
41
1
10
108.329446787541
20
-0.745874787879281
30
0
0
SPLINE
5
123
100
AcDbEntity
8
1
62
256
6
ByLayer
370
18
48
1
60
0
100
AcDbSpline
70
4
71
3
72
28
73
24
40
0
40
0
40
0
40
0
40
0.0518880762989873
40
0.0964485337252518
40
0.141156914929875
40
0.185919737128062
40
0.230636210029499
40
0.27520347666483
40
0.320225989350849
40
0.365382699907687
40
0.410592767263023
40
0.455764455838768
40
0.500799568504444
40
0.548647317415358
40
0.596628362765565
40
0.644664477102601
40
0.69266438273949
40
0.740527994510581
40
0.792321562441561
40
0.844252858430746
40
0.896240629461257
40
0.948190669230028
40
1
40
1
40
1
40
1
41
1
10
82.6872814860251
20
-3.54156405748637
30
0
41
1
10
82.6950993720267
20
-3.54121844807963
30
0
41
1
10
82.7095585381095
20
-3.54006234988731
30
0
41
1
10
82.7305700714772
20
-3.53696195769072
30
0
41
1
10
82.7502575632734
20
-3.53281077286151
30
0
41
1
10
82.7696345013451
20
-3.52749497262529
30
0
41
1
10
82.7885742179063
20
-3.52105822490051
30
0
41
1
10
82.8070505509056
20
-3.51350498559177
30
0
41
1
10
82.8249932119679
20
-3.50483440825521
30
0
41
1
10
82.8423675514376
20
-3.49510347557978
30
0
41
1
10
82.8590529184494
20
-3.48440820090249
30
0
41
1
10
82.8749632804966
20
-3.47283003771192
30
0
41
1
10
82.8903511570873
20
-3.46016891581673
30
0
41
1
10
82.9051121614212
20
-3.44639973603695
30
0
41
1
10
82.9191779612061
20
-3.43154207833132
30
0
41
1
10
82.9322234419077
20
-3.41595486584966
30
0
41
1
10
82.9441988156951
20
-3.39974279147385
30
0
41
1
10
82.9553680493245
20
-3.38252281980515
30
0
41
1
10
82.9656007954181
20
-3.36429060508846
30
0
41
1
10
82.9748065709227
20
-3.34507283154578
30
0
41
1
10
82.9827173093063
20
-3.32543462258417
30
0
41
1
10
82.9893197974601
20
-3.30548427152989
30
0
41
1
10
82.9928416900124
20
-3.29204449410876
30
0
41
1
10
82.9943825597191
20
-3.2852908828449
30
0
0
SPLINE
5
124
100
AcDbEntity
8
1
62
256
6
ByLayer
370
18
48
1
60
0
100
AcDbSpline
70
4
71
3
72
27
73
23
40
0
40
0
40
0
40
0
40
0.0569131291927591
40
0.114015107802397
40
0.171166498113566
40
0.228240597978089
40
0.285130268302749
40
0.332831030313526
40
0.380723104580987
40
0.428699517805456
40
0.476659907237666
40
0.524514930257955
40
0.572190895518291
40
0.624022619017063
40
0.67607534798713
40
0.728191242079041
40
0.780220873399231
40
0.832033142739742
40
0.873983421806462
40
0.916018020158879
40
0.958051394036673
40
1
40
1
40
1
40
1
41
1
10
83.9777230795467
20
-2.66243350299568
30
0
41
1
10
83.9851557341224
20
-2.66407355382813
30
0
41
1
10
84.0001737416147
20
-2.6668374502808
30
0
41
1
10
84.0231498359565
20
-2.66942974489972
30
0
41
1
10
84.0464435074466
20
-2.67042719229064
30
0
41
1
10
84.0699153863736
20
-2.66978497844751
30
0
41
1
10
84.0921855184864
20
-2.66758199592679
30
0
41
1
10
84.113172741694
20
-2.66405380417307
30
0
41
1
10
84.1328432473605
20
-2.65949339658877
30
0
41
1
10
84.1523835754493
20
-2.65369480284975
30
0
41
1
10
84.1716742978964
20
-2.64666728942227
30
0
41
1
10
84.1905956560184
20
-2.63842048399925
30
0
41
1
10
84.2095945666559
20
-2.6286753750668
30
0
41
1
10
84.2285504224765
20
-2.61726064185246
30
0
41
1
10
84.2473311315864
20
-2.60410035427168
30
0
41
1
10
84.2653011366301
20
-2.5895780650501
30
0
41
1
10
84.2822956757638
20
-2.57379226014646
30
0
41
1
10
84.2971735660868
20
-2.55787710480925
30
0
41
1
10
84.3100686210209
20
-2.54212909416816
30
0
41
1
10
84.3212080636213
20
-2.52682542605396
30
0
41
1
10
84.3314795978615
20
-2.51088497217346
30
0
41
1
10
84.3376993126372
20
-2.49989061069499
30
0
41
1
10
84.340653930816
20
-2.49430198690893
30
0
0
SPLINE
5
125
100
AcDbEntity
8
1
62
256
6
ByLayer
370
18
48
1
60
0
100
AcDbSpline
70
4
71
3
72
48
73
44
40
0
40
0
40
0
40
0
40
0.0262721738066142
40
0.052561970343553
40
0.0788503062900895
40
0.105120487026424
40
0.132036709757034
40
0.15897642480839
40
0.185913292963981
40
0.212825630100539
40
0.234294502362756
40
0.255778755968621
40
0.277261301266286
40
0.298727842314522
40
0.320768286786767
40
0.34282978259077
40
0.364889147316999
40
0.386926682946981
40
0.408433393548289
40
0.429963498873685
40
0.451492356409248
40
0.472997363609908
40
0.495326048081854
40
0.517682444044405
40
0.540039240939559
40
0.562368472814446
40
0.587800707027055
40
0.613298223871346
40
0.638836197693143
40
0.664382634053383
40
0.689899706560789
40
0.71534501300014
40
0.74039085012232
40
0.76546077054137
40
0.790533639051906
40
0.815583500077783
40
0.841348186300111
40
0.867133057390244
40
0.892920027280732
40
0.918687577703176
40
0.945788026212019
40
0.972898571200195
40
1
40
1
40
1
40
1
41
1
10
83.9777230795466
20
-2.66243350299568
30
0
41
1
10
83.9673763081377
20
-2.66014801129133
30
0
41
1
10
83.9465486501315
20
-2.65597188186642
30
0
41
1
10
83.9149101972793
20
-2.65088593161065
30
0
41
1
10
83.8829154772443
20
-2.64701180119465
30
0
41
1
10
83.8503332379752
20
-2.64435316321782
30
0
41
1
10
83.8171764926399
20
-2.64297851467438
30
0
41
1
10
83.7834655309294
20
-2.64295079306379
30
0
41
1
10
83.7495175088698
20
-2.64431098906697
30
0
41
1
10
83.7176868630696
20
-2.64690429964969
30
0
41
1
10
83.6880506670645
20
-2.65044436114428
30
0
41
1
10
83.6606546361794
20
-2.65464902031019
30
0
41
1
10
83.6332285373775
20
-2.65980625489572
30
0
41
1
10
83.6055696606269
20
-2.66598297773904
30
0
41
1
10
83.5777086361649
20
-2.67323094380011
30
0
41
1
10
83.5496874089312
20
-2.68158489798833
30
0
41
1
10
83.5218092330821
20
-2.6909808373534
30
0
41
1
10
83.494359732362
20
-2.7013353750751
30
0
41
1
10
83.4673829143026
20
-2.7126305746756
30
0
41
1
10
83.4409187908174
20
-2.72482070536676
30
0
41
1
10
83.4148150605705
20
-2.73797442039806
30
0
41
1
10
83.3888148465705
20
-2.75224946319782
30
0
41
1
10
83.3629962276529
20
-2.76768046378067
30
0
41
1
10
83.3374325507214
20
-2.78426497753079
30
0
41
1
10
83.3125151517436
20
-2.80175884670782
30
0
41
1
10
83.2871927604816
20
-2.8209597607334
30
0
41
1
10
83.2616446110112
20
-2.84199663129492
30
0
41
1
10
83.2360449283713
20
-2.86494293517379
30
0
41
1
10
83.2115138937166
20
-2.88882022250428
30
0
41
1
10
83.1881225732926
20
-2.91352023364565
30
0
41
1
10
83.1659393159041
20
-2.93893335255848
30
0
41
1
10
83.1451167305465
20
-2.96485712097682
30
0
41
1
10
83.1256407328349
20
-2.99123204736253
30
0
41
1
10
83.1074488034995
20
-3.01800057223636
30
0
41
1
10
83.0904481072781
20
-3.04523967005105
30
0
41
1
10
83.0744916606063
20
-3.0731528940791
30
0
41
1
10
83.0596149543302
20
-3.10171498914161
30
0
41
1
10
83.0458394532786
20
-3.13089781767767
30
0
41
1
10
83.0332971996141
20
-3.16038365311425
30
0
41
1
10
83.0217865190108
20
-3.1906382575068
30
0
41
1
10
83.0113713083879
20
-3.22164195461139
30
0
41
1
10
83.0021109388886
20
-3.25337296459275
30
0
41
1
10
82.996811999645
20
-3.27463333008685
30
0
41
1
10
82.9943825597191
20
-3.2852908828449
30
0
0
SPLINE
5
126
100
AcDbEntity
8
1
62
256
6
ByLayer
370
18
48
1
60
0
100
AcDbSpline
70
4
71
3
72
27
73
23
40
0
40
0
40
0
40
0
40
0.0569132885192911
40
0.114015428115733
40
0.171166979809856
40
0.228241240330857
40
0.28513106970356
40
0.332831814606585
40
0.380723871676704
40
0.428700267671933
40
0.476660639891891
40
0.524515645753941
40
0.572191593932517
40
0.62402330089599
40
0.676076013201512
40
0.728191890615183
40
0.78022150532995
40
0.832033758184888
40
0.87398388383723
40
0.916018327855253
40
0.958051547420807
40
1
40
1
40
1
40
1
41
1
10
84.2348936932943
20
-0.936442939918903
30
0
41
1
10
84.2400676384129
20
-0.930860401236655
30
0
41
1
10
84.250047435625
20
-0.919302519329355
30
0
41
1
10
84.2639040376078
20
-0.900792561636971
30
0
41
1
10
84.2765454091341
20
-0.881202031032977
30
0
41
1
10
84.2878624024581
20
-0.860628494698197
30
0
41
1
10
84.297225148848
20
-0.840302332050866
30
0
41
1
10
84.3047958171934
20
-0.82041269881239
30
0
41
1
10
84.3108100730531
20
-0.801136946029752
30
0
41
1
10
84.3156903355089
20
-0.781347278227857
30
0
41
1
10
84.3193841974537
20
-0.761151409905521
30
0
41
1
10
84.3218393961831
20
-0.740657523471357
30
0
41
1
10
84.3230412642526
20
-0.719338962371307
30
0
41
1
10
84.322781009483
20
-0.697213125885206
30
0
41
1
10
84.3209263227872
20
-0.674355564891682
30
0
41
1
10
84.3174866515521
20
-0.651508543965239
30
0
41
1
10
84.3124636286782
20
-0.628864009051044
30
0
41
1
10
84.3062585225475
20
-0.607980061134507
30
0
41
1
10
84.2991947941765
20
-0.588891214474986
30
0
41
1
10
84.2916264979591
20
-0.571541640608615
30
0
41
1
10
84.2830699200521
20
-0.554618732386126
30
0
41
1
10
84.2767309976504
20
-0.543692720732508
30
0
41
1
10
84.2734041388704
20
-0.538317388005588
30
0
0
SPLINE
5
127
100
AcDbEntity
8
1
62
256
6
ByLayer
370
18
48
1
60
0
100
AcDbSpline
70
4
71
3
72
29
73
25
40
0
40
0
40
0
40
0
40
0.0330999486327668
40
0.0661999321700671
40
0.11070920275505
40
0.155365074047495
40
0.200075226590604
40
0.244739748095798
40
0.289256297703547
40
0.334391829381116
40
0.37966115427827
40
0.424983865789496
40
0.470268490067972
40
0.515416891861137
40
0.563510310370369
40
0.611737339041546
40
0.660019624940218
40
0.708265671864839
40
0.756375085974624
40
0.805017578476224
40
0.853773441565463
40
0.90257517072103
40
0.951345416337946
40
1
40
1
40
1
40
1
41
1
10
84.340653930816
20
-2.49430198690893
30
0
41
1
10
84.3429818765775
20
-2.48989329832218
30
0
41
1
10
84.3474317672851
20
-2.48098344357658
30
0
41
1
10
84.3541973349581
20
-2.46575909386391
30
0
41
1
10
84.3607437981977
20
-2.44858321639665
30
0
41
1
10
84.3667381366123
20
-2.4294149422195
30
0
41
1
10
84.3715664068156
20
-2.40995604711075
30
0
41
1
10
84.3752078018669
20
-2.39033484504936
30
0
41
1
10
84.3776569461078
20
-2.37055220836607
30
0
41
1
10
84.3788748415193
20
-2.35066803925368
30
0
41
1
10
84.3788893537504
20
-2.33074041284694
30
0
41
1
10
84.3777242179611
20
-2.31094513084277
30
0
41
1
10
84.3754088842286
20
-2.29139648989382
30
0
41
1
10
84.3718897143843
20
-2.27175800475247
30
0
41
1
10
84.3670905050887
20
-2.25210928455127
30
0
41
1
10
84.360991338593
20
-2.23252103976863
30
0
41
1
10
84.353750837018
20
-2.21346982381507
30
0
41
1
10
84.345436405259
20
-2.1950501871555
30
0
41
1
10
84.3360628620378
20
-2.17726258264986
30
0
41
1
10
84.325650238962
20
-2.16015888470141
30
0
41
1
10
84.3142491047052
20
-2.14375872767019
30
0
41
1
10
84.301961856742
20
-2.12816516770503
30
0
41
1
10
84.2888603768295
20
-2.11343197718192
30
0
41
1
10
84.2796293860501
20
-2.1042167698222
30
0
41
1
10
84.2748903955368
20
-2.09976153659703
30
0
0
SPLINE
5
128
100
AcDbEntity
8
1
62
256
6
ByLayer
370
18
48
1
60
0
100
AcDbSpline
70
4
71
3
72
48
73
44
40
0
40
0
40
0
40
0
40
0.0262722023229412
40
0.0525620274350693
40
0.0788503919500378
40
0.10512060119333
40
0.132036854748983
40
0.158976600715707
40
0.185913499771236
40
0.212825867711757
40
0.234294734763692
40
0.255778983157756
40
0.277261523244133
40
0.298728059082735
40
0.32076849826775
40
0.342829988780398
40
0.364889348217633
40
0.3869268785637
40
0.408433583910718
40
0.429963683971027
40
0.451492536245326
40
0.472997538196969
40
0.49532621690526
40
0.517682607081824
40
0.540039398194194
40
0.562368624309852
40
0.587800857138279
40
0.613298372564704
40
0.638836344952268
40
0.664382779879418
40
0.689899850971501
40
0.715345156028384
40
0.74039099821544
40
0.765460923703986
40
0.790533797284764
40
0.815583663376591
40
0.841348354803941
40
0.867133231103244
40
0.892920206202774
40
0.918687761829953
40
0.945788148990223
40
0.972898632558196
40
1
40
1
40
1
40
1
41
1
10
84.2348936932943
20
-0.936442939918903
30
0
41
1
10
84.2276891209663
20
-0.944212980614468
30
0
41
1
10
84.2135527793366
20
-0.960068459884752
30
0
41
1
10
84.1931639463228
20
-0.984790036045098
30
0
41
1
10
84.1736403416459
20
-1.01043184075071
30
0
41
1
10
84.1548681765209
20
-1.03719522817292
30
0
41
1
10
84.1369131235122
20
-1.06510361489478
30
0
41
1
10
84.1198397392614
20
-1.09417132841233
30
0
41
1
10
84.1038437891337
20
-1.12414549552907
30
0
41
1
10
84.0899825001044
20
-1.15291668963733
30
0
41
1
10
84.0780478110402
20
-1.18027359001827
30
0
41
1
10
84.0678194335695
20
-1.2060340578241
30
0
41
1
10
84.058397614614
20
-1.23230223296946
30
0
41
1
10
84.049737557032
20
-1.25928683030697
30
0
41
1
10
84.0418994000266
20
-1.286987601055
30
0
41
1
10
84.0349343310483
20
-1.31538593258685
30
0
41
1
10
84.028940508077
20
-1.34418784452032
30
0
41
1
10
84.0239904504169
20
-1.37310476236439
30
0
41
1
10
84.0200909416178
20
-1.40208965034592
30
0
41
1
10
84.0172227668945
20
-1.43108486256385
30
0
41
1
10
84.0153681248772
20
-1.46025650766487
30
0
41
1
10
84.0145331807821
20
-1.48990596687741
30
0
41
1
10
84.0147872977415
20
-1.51998339758319
30
0
41
1
10
84.0161654622565
20
-1.55042428870044
30
0
41
1
10
84.0186549645028
20
-1.58076755995293
30
0
41
1
10
84.0224122697009
20
-1.61232355539081
30
0
41
1
10
84.0276392355968
20
-1.64500285131532
30
0
41
1
10
84.034487364203
20
-1.67869230876512
30
0
41
1
10
84.04267910416
20
-1.71193071564197
30
0
41
1
10
84.0521570043131
20
-1.74460201202426
30
0
41
1
10
84.0628610690197
20
-1.77659179626089
30
0
41
1
10
84.0746938256177
20
-1.80766602461348
30
0
41
1
10
84.0875968291997
20
-1.83780675912286
30
0
41
1
10
84.1014888054461
20
-1.86703882260677
30
0
41
1
10
84.1163892055973
20
-1.89548122954477
30
0
41
1
10
84.1323992930553
20
-1.92336372729585
30
0
41
1
10
84.1495152303718
20
-1.95064292579146
30
0
41
1
10
84.1677235998211
20
-1.97728607711183
30
0
41
1
10
84.1868170865329
20
-2.00301857993162
30
0
41
1
10
84.2070954783703
20
-2.02824995379945
30
0
41
1
10
84.2285741146453
20
-2.05291512777569
30
0
41
1
10
84.2512642312769
20
-2.07695187155783
30
0
41
1
10
84.2669250795921
20
-2.09227562919808
30
0
41
1
10
84.2748903955368
20
-2.09976153659703
30
0
0
SPLINE
5
129
100
AcDbEntity
8
1
62
256
6
ByLayer
370
18
48
1
60
0
100
AcDbSpline
70
4
71
3
72
27
73
23
40
0
40
0
40
0
40
0
40
0.0569132885191434
40
0.114015428115725
40
0.171166979809786
40
0.228241240330845
40
0.285131069703551
40
0.332831814606532
40
0.380723871676616
40
0.428700267671904
40
0.476660639891865
40
0.524515645753912
40
0.572191593932491
40
0.624023300895964
40
0.676076013201462
40
0.728191890615148
40
0.78022150532989
40
0.832033758184867
40
0.873983883837167
40
0.916018327855189
40
0.958051547420743
40
1
40
1
40
1
40
1
41
1
10
80.9651063067057
20
-2.2135570600811
30
0
41
1
10
80.9599323615873
20
-2.21913959876336
30
0
41
1
10
80.9499525643751
20
-2.2306974806707
30
0
41
1
10
80.9360959623922
20
-2.24920743836298
30
0
41
1
10
80.9234545908659
20
-2.26879796896706
30
0
41
1
10
80.9121375975418
20
-2.28937150530179
30
0
41
1
10
80.9027748511521
20
-2.30969766794912
30
0
41
1
10
80.8952041828066
20
-2.32958730118761
30
0
41
1
10
80.8891899269471
20
-2.34886305397027
30
0
41
1
10
80.8843096644911
20
-2.36865272177213
30
0
41
1
10
80.8806158025463
20
-2.38884859009448
30
0
41
1
10
80.8781606038169
20
-2.40934247652864
30
0
41
1
10
80.8769587357474
20
-2.4306610376287
30
0
41
1
10
80.8772189905173
20
-2.45278687411478
30
0
41
1
10
80.8790736772127
20
-2.47564443510833
30
0
41
1
10
80.8825133484479
20
-2.49849145603475
30
0
41
1
10
80.8875363713217
20
-2.52113599094898
30
0
41
1
10
80.8937414774526
20
-2.54201993886547
30
0
41
1
10
80.9008052058234
20
-2.56110878552503
30
0
41
1
10
80.9083735020409
20
-2.57845835939138
30
0
41
1
10
80.9169300799476
20
-2.59538126761389
30
0
41
1
10
80.92326900235
20
-2.60630727926749
30
0
41
1
10
80.9265958611297
20
-2.61168261199441
30
0
0
SPLINE
5
12A
100
AcDbEntity
8
1
62
256
6
ByLayer
370
18
48
1
60
0
100
AcDbSpline
70
4
71
3
72
29
73
25
40
0
40
0
40
0
40
0
40
0.0330999486327101
40
0.0661999321700638
40
0.110709202754864
40
0.155365074047467
40
0.200075226590545
40
0.244739748095765
40
0.289256297703516
40
0.334391829381058
40
0.379661154278222
40
0.424983865789454
40
0.470268490067933
40
0.515416891861079
40
0.563510310370336
40
0.61173733904152
40
0.660019624940192
40
0.708265671864768
40
0.756375085974555
40
0.805017578476335
40
0.853773441565384
40
0.90257517072102
40
0.951345416337865
40
1
40
1
40
1
40
1
41
1
10
80.859346069184
20
-0.655698013091071
30
0
41
1
10
80.8570181234224
20
-0.660106701677828
30
0
41
1
10
80.852568232715
20
-0.66901655642345
30
0
41
1
10
80.8458026650417
20
-0.684240906136024
30
0
41
1
10
80.8392562018026
20
-0.701416783603456
30
0
41
1
10
80.8332618633877
20
-0.720585057780429
30
0
41
1
10
80.8284335931846
20
-0.740043952889273
30
0
41
1
10
80.824792198133
20
-0.759665154950635
30
0
41
1
10
80.8223430538923
20
-0.779447791633922
30
0
41
1
10
80.821125158481
20
-0.799331960746322
30
0
41
1
10
80.8211106462495
20
-0.819259587153059
30
0
41
1
10
80.822275782039
20
-0.839054869157232
30
0
41
1
10
80.8245911157715
20
-0.858603510106169
30
0
41
1
10
80.8281102856155
20
-0.878241995247548
30
0
41
1
10
80.8329094949115
20
-0.897890715448714
30
0
41
1
10
80.839008661407
20
-0.917478960231374
30
0
41
1
10
80.8462491629821
20
-0.936530176184919
30
0
41
1
10
80.854563594741
20
-0.954949812844507
30
0
41
1
10
80.8639371379623
20
-0.972737417350187
30
0
41
1
10
80.8743497610382
20
-0.989841115298503
30
0
41
1
10
80.8857508952948
20
-1.00624127232988
30
0
41
1
10
80.8980381432581
20
-1.02183483229493
30
0
41
1
10
80.9111396231706
20
-1.03656802281811
30
0
41
1
10
80.92037061395
20
-1.04578323017781
30
0
41
1
10
80.9251096044633
20
-1.05023846340298
30
0
0
SPLINE
5
12B
100
AcDbEntity
8
1
62
256
6
ByLayer
370
18
48
1
60
0
100
AcDbSpline
70
4
71
3
72
48
73
44
40
0
40
0
40
0
40
0
40
0.0262722023229168
40
0.0525620274350688
40
0.0788503919500596
40
0.10512060119333
40
0.132036854749005
40
0.15897660071571
40
0.185913499771239
40
0.212825867711759
40
0.234294734763695
40
0.255778983157759
40
0.27726152324415
40
0.29872805908274
40
0.320768498267765
40
0.342829988780394
40
0.364889348217639
40
0.386926878563706
40
0.408433583910724
40
0.429963683971033
40
0.451492536245332
40
0.472997538196976
40
0.495326216905267
40
0.517682607081833
40
0.540039398194201
40
0.562368624309864
40
0.587800857138278
40
0.613298372564704
40
0.638836344952287
40
0.664382779879437
40
0.68989985097152
40
0.715345156028389
40
0.740390998215445
40
0.765460923704009
40
0.790533797284788
40
0.815583663376614
40
0.841348354803944
40
0.867133231103269
40
0.892920206202799
40
0.918687761829979
40
0.945788148990225
40
0.972898632558249
40
1
40
1
40
1
40
1
41
1
10
80.9651063067057
20
-2.2135570600811
30
0
41
1
10
80.9723108790337
20
-2.20578701938553
30
0
41
1
10
80.9864472206634
20
-2.18993154011522
30
0
41
1
10
81.0068360536772
20
-2.1652099639549
30
0
41
1
10
81.0263596583544
20
-2.13956815924932
30
0
41
1
10
81.045131823479
20
-2.11280477182705
30
0
41
1
10
81.0630868764878
20
-2.08489638510525
30
0
41
1
10
81.0801602607386
20
-2.05582867158765
30
0
41
1
10
81.0961562108661
20
-2.02585450447094
30
0
41
1
10
81.1100174998957
20
-1.99708331036267
30
0
41
1
10
81.1219521889598
20
-1.96972640998174
30
0
41
1
10
81.1321805664306
20
-1.94396594217588
30
0
41
1
10
81.1416023853861
20
-1.91769776703056
30
0
41
1
10
81.1502624429679
20
-1.890713169693
30
0
41
1
10
81.1581005999735
20
-1.86301239894503
30
0
41
1
10
81.1650656689516
20
-1.83461406741313
30
0
41
1
10
81.1710594919231
20
-1.80581215547969
30
0
41
1
10
81.1760095495831
20
-1.77689523763562
30
0
41
1
10
81.1799090583822
20
-1.74791034965408
30
0
41
1
10
81.1827772331055
20
-1.71891513743615
30
0
41
1
10
81.1846318751229
20
-1.68974349233513
30
0
41
1
10
81.185466819218
20
-1.66009403312259
30
0
41
1
10
81.1852127022586
20
-1.6300166024168
30
0
41
1
10
81.1838345377435
20
-1.59957571129957
30
0
41
1
10
81.1813450354971
20
-1.56923244004706
30
0
41
1
10
81.1775877302992
20
-1.53767644460921
30
0
41
1
10
81.1723607644032
20
-1.50499714868467
30
0
41
1
10
81.1655126357973
20
-1.47130769123486
30
0
41
1
10
81.15732089584
20
-1.43806928435805
30
0
41
1
10
81.147842995687
20
-1.40539798797573
30
0
41
1
10
81.1371389309801
20
-1.37340820373913
30
0
41
1
10
81.1253061743823
20
-1.34233397538651
30
0
41
1
10
81.1124031708003
20
-1.31219324087713
30
0
41
1
10
81.0985111945539
20
-1.28296117739325
30
0
41
1
10
81.0836107944027
20
-1.25451877045522
30
0
41
1
10
81.0676007069447
20
-1.22663627270417
30
0
41
1
10
81.0504847696283
20
-1.19935707420851
30
0
41
1
10
81.0322764001789
20
-1.17271392288819
30
0
41
1
10
81.013182913467
20
-1.14698142006837
30
0
41
1
10
80.9929045216297
20
-1.12175004620057
30
0
41
1
10
80.9714258853547
20
-1.09708487222426
30
0
41
1
10
80.9487357687229
20
-1.07304812844223
30
0
41
1
10
80.9330749204083
20
-1.05772437080192
30
0
41
1
10
80.9251096044633
20
-1.05023846340298
30
0
0
SPLINE
5
12C
100
AcDbEntity
8
1
62
256
6
ByLayer
370
18
48
1
60
0
100
AcDbSpline
70
4
71
3
72
29
73
25
40
0
40
0
40
0
40
0
40
0.0323692214099069
40
0.064738476955123
40
0.108264768415348
40
0.151934422888653
40
0.195657159817342
40
0.239335273486719
40
0.282868683231966
40
0.327007411296847
40
0.371276977772643
40
0.415598751832748
40
0.459883279818873
40
0.50403459377584
40
0.551065889521633
40
0.598227844691505
40
0.645443836752864
40
0.692624390168189
40
0.739671328260126
40
0.791632042973381
40
0.843736142375934
40
0.895899106100245
40
0.948022802910022
40
1
40
1
40
1
40
1
41
1
10
80.9265958611297
20
-2.61168261199441
30
0
41
1
10
80.9292217930141
20
-2.61592062753525
30
0
41
1
10
80.9346576239514
20
-2.62426571486829
30
0
41
1
10
80.9443696751683
20
-2.63780205972488
30
0
41
1
10
80.9558760584789
20
-2.65213634119271
30
0
41
1
10
80.9693804506379
20
-2.66700194451157
30
0
41
1
10
80.9837252978087
20
-2.68100858883588
30
0
41
1
10
80.9988104295383
20
-2.6940734293081
30
0
41
1
10
81.0146378128041
20
-2.70619138791196
30
0
41
1
10
81.0311754947869
20
-2.71729852604876
30
0
41
1
10
81.0483592822866
20
-2.72738951095378
30
0
41
1
10
81.0660255101274
20
-2.73639590556862
30
0
41
1
10
81.084060682556
20
-2.7442853101062
30
0
41
1
10
81.1027822066411
20
-2.75118163028976
30
0
41
1
10
81.122159944469
20
-2.75697886695473
30
0
41
1
10
81.1421429729752
20
-2.76162406563244
30
0
41
1
10
81.1622399412055
20
-2.76501308374897
30
0
41
1
10
81.1823352460501
20
-2.76715611533042
30
0
41
1
10
81.203043000959
20
-2.76809441356477
30
0
41
1
10
81.2242987189285
20
-2.76767858319158
30
0
41
1
10
81.2460246249939
20
-2.76581020940249
30
0
41
1
10
81.2674434735375
20
-2.76255018675369
30
0
41
1
10
81.2884490154477
20
-2.7579446475162
30
0
41
1
10
81.3021102010504
20
-2.75400687809294
30
0
41
1
10
81.3088540589711
20
-2.75182173242509
30
0
0
SPLINE
5
12D
100
AcDbEntity
8
1
62
256
6
ByLayer
370
18
48
1
60
0
100
AcDbSpline
70
4
71
3
72
27
73
23
40
0
40
0
40
0
40
0
40
0.0561188636416903
40
0.112423980751121
40
0.168778023828467
40
0.225056014992162
40
0.281152053189156
40
0.328219144951428
40
0.375475479188869
40
0.422815059606955
40
0.470138568605984
40
0.517357741315386
40
0.564399962324545
40
0.615497735712234
40
0.666814814816159
40
0.718193992928659
40
0.769487024931632
40
0.820564543953328
40
0.865370870860014
40
0.910284462112069
40
0.955196202736693
40
1
40
1
40
1
40
1
41
1
10
82.3560189147134
20
-3.30486718015164
30
0
41
1
10
82.3581763859236
20
-3.31221218920482
30
0
41
1
10
82.3630223179662
20
-3.32678395980391
30
0
41
1
10
82.3718845050682
20
-3.34827652149674
30
0
41
1
10
82.3823117312006
20
-3.36926809404519
30
0
41
1
10
82.3942753986165
20
-3.3896141869773
30
0
41
1
10
82.4070377336196
20
-3.4081426039174
30
0
41
1
10
82.4203517028486
20
-3.42489689414014
30
0
41
1
10
82.4339428760615
20
-3.43998980750137
30
0
41
1
10
82.4485666740405
20
-3.45436099055073
30
0
41
1
10
82.4641568924051
20
-3.4679092617662
30
0
41
1
10
82.4806468652895
20
-3.48053329785185
30
0
41
1
10
82.4984950665722
20
-3.49248577462949
30
0
41
1
10
82.5177938098138
20
-3.50357667314595
30
0
41
1
10
82.5385454888099
20
-3.51365215697019
30
0
41
1
10
82.5601075968601
20
-3.52234258349832
30
0
41
1
10
82.5823126771356
20
-3.52954926947494
30
0
41
1
10
82.6041142261277
20
-3.53495048404135
30
0
41
1
10
82.6253520271619
20
-3.53868918410149
30
0
41
1
10
82.6458941653342
20
-3.5410018620154
30
0
41
1
10
82.6665850509356
20
-3.54204180829998
30
0
41
1
10
82.680381759737
20
-3.54186643748859
30
0
41
1
10
82.6872814860251
20
-3.54156405748637
30
0
0
SPLINE
5
12E
100
AcDbEntity
8
1
62
256
6
ByLayer
370
18
48
1
60
0
100
AcDbSpline
70
4
71
3
72
23
73
19
40
0
40
0
40
0
40
0
40
0.0589027356594239
40
0.117871531659531
40
0.17684734128595
40
0.235759651498535
40
0.296661024132893
40
0.357618851795151
40
0.418583494226343
40
0.479494168151826
40
0.543759493130203
40
0.608075856016774
40
0.672397683994202
40
0.736670467171849
40
0.802478689087195
40
0.868331237342808
40
0.934187165739718
40
1
40
1
40
1
40
1
41
1
10
81.8075153596134
20
-2.74846669946412
30
0
41
1
10
81.7974480271325
20
-2.74535742591625
30
0
41
1
10
81.777264200354
20
-2.73953560536348
30
0
41
1
10
81.7468367953377
20
-2.73200836506908
30
0
41
1
10
81.7163561805475
20
-2.7256713480444
30
0
41
1
10
81.6855428392761
20
-2.72046242684242
30
0
41
1
10
81.6544464096037
20
-2.71641921226733
30
0
41
1
10
81.6231091215394
20
-2.71355568253094
30
0
41
1
10
81.5919286672352
20
-2.71189229307295
30
0
41
1
10
81.5603872948874
20
-2.71139748147158
30
0
41
1
10
81.5285287461701
20
-2.71212595827605
30
0
41
1
10
81.4963966577303
20
-2.71411850617934
30
0
41
1
10
81.4645967555406
20
-2.71733123663188
30
0
41
1
10
81.4329171372637
20
-2.72177001979645
30
0
41
1
10
81.4013891099845
20
-2.72744401477756
30
0
41
1
10
81.370043822714
20
-2.73435427239571
30
0
41
1
10
81.3391585907293
20
-2.74242904617684
30
0
41
1
10
81.3188997347368
20
-2.74856480699615
30
0
41
1
10
81.3088540589711
20
-2.75182173242509
30
0
0
SPLINE
5
12F
100
AcDbEntity
8
1
62
256
6
ByLayer
370
18
48
1
60
0
100
AcDbSpline
70
4
71
3
72
23
73
19
40
0
40
0
40
0
40
0
40
0.0668571869273505
40
0.133759609537256
40
0.200658413915018
40
0.267510663502348
40
0.336017869206553
40
0.404585137174846
40
0.473145168381244
40
0.541642496931253
40
0.598095924760023
40
0.654592942436519
40
0.711084844982025
40
0.767531292130848
40
0.825621891848393
40
0.883773487074857
40
0.941918451697712
40
1
40
1
40
1
40
1
41
1
10
82.3560189147134
20
-3.30486718015164
30
0
41
1
10
82.3529977862769
20
-3.29457319604869
30
0
41
1
10
82.3465357242123
20
-3.27406254928354
30
0
41
1
10
82.3355911917282
20
-3.24353020456998
30
0
41
1
10
82.3233861346881
20
-3.21328451004773
30
0
41
1
10
82.3098038249458
20
-3.18312112386388
30
0
41
1
10
82.2947898129931
20
-3.15308571777714
30
0
41
1
10
82.278297581856
20
-3.12322733318438
30
0
41
1
10
82.2604465529167
20
-3.0938484836881
30
0
41
1
10
82.2423598037302
20
-3.06670252133639
30
0
41
1
10
82.2242927114585
20
-3.04173103805155
30
0
41
1
10
82.2064893454893
20
-3.01885120709206
30
0
41
1
10
82.1877591100858
20
-2.99645009881257
30
0
41
1
10
82.1679214541816
20
-2.97436318868479
30
0
41
1
10
82.1469391495056
20
-2.95264995749065
30
0
41
1
10
82.1248000465123
20
-2.931374516259
30
0
41
1
10
82.1017349685586
20
-2.91079591386534
30
0
41
1
10
82.0857685498854
20
-2.8975989141427
30
0
41
1
10
82.0776395482987
20
-2.89112900526449
30
0
0
SPLINE
5
130
100
AcDbEntity
8
1
62
256
6
ByLayer
370
18
48
1
60
0
100
AcDbSpline
70
4
71
3
72
29
73
25
40
0
40
0
40
0
40
0
40
0.032369221409972
40
0.0647384769551819
40
0.108264768415098
40
0.151934422888641
40
0.195657159817239
40
0.239335273486703
40
0.282868683232041
40
0.327007411296619
40
0.371276977772718
40
0.415598751832605
40
0.459883279818942
40
0.504034593775904
40
0.551065889521469
40
0.59822784469156
40
0.6454438367528
40
0.69262439016812
40
0.739671328260165
40
0.791632042973076
40
0.843736142375956
40
0.895899106100152
40
0.948022802909922
40
1
40
1
40
1
40
1
41
1
10
84.2734041388704
20
-0.538317388005588
30
0
41
1
10
84.270778206986
20
-0.534079372464749
30
0
41
1
10
84.2653423760485
20
-0.525734285131719
30
0
41
1
10
84.2556303248319
20
-0.512197940275193
30
0
41
1
10
84.2441239415214
20
-0.497863658807146
30
0
41
1
10
84.2306195493622
20
-0.482998055488521
30
0
41
1
10
84.2162747021914
20
-0.468991411164074
30
0
41
1
10
84.2011895704617
20
-0.455926570691897
30
0
41
1
10
84.1853621871959
20
-0.443808612088116
30
0
41
1
10
84.1688245052133
20
-0.432701473951122
30
0
41
1
10
84.1516407177135
20
-0.422610489046312
30
0
41
1
10
84.1339744898727
20
-0.413604094431308
30
0
41
1
10
84.115939317444
20
-0.405714689893829
30
0
41
1
10
84.0972177933591
20
-0.398818369710259
30
0
41
1
10
84.0778400555309
20
-0.393021133045236
30
0
41
1
10
84.0578570270249
20
-0.388375934367588
30
0
41
1
10
84.0377600587946
20
-0.38498691625102
30
0
41
1
10
84.01766475395
20
-0.382843884669578
30
0
41
1
10
83.9969569990412
20
-0.381905586435229
30
0
41
1
10
83.9757012810716
20
-0.382321416808427
30
0
41
1
10
83.9539753750061
20
-0.3841897905975
30
0
41
1
10
83.9325565264625
20
-0.387449813246317
30
0
41
1
10
83.9115509845524
20
-0.392055352483805
30
0
41
1
10
83.8978897989496
20
-0.39599312190707
30
0
41
1
10
83.8911459410289
20
-0.398178267574908
30
0
0
SPLINE
5
131
100
AcDbEntity
8
1
62
256
6
ByLayer
370
18
48
1
60
0
100
AcDbSpline
70
4
71
3
72
23
73
19
40
0
40
0
40
0
40
0
40
0.0668571869273497
40
0.133759609537255
40
0.200658413915018
40
0.267510663502348
40
0.336017869206555
40
0.404585137174846
40
0.473145168381296
40
0.541642496931253
40
0.59809592476008
40
0.654592942436516
40
0.711084844982023
40
0.767531292130847
40
0.825621891848461
40
0.883773487074928
40
0.941918451697631
40
1
40
1
40
1
40
1
41
1
10
82.8439810852865
20
0.154867180151634
30
0
41
1
10
82.8470022137231
20
0.144573196048681
30
0
41
1
10
82.8534642757877
20
0.124062549283538
30
0
41
1
10
82.8644088082717
20
0.0935302045699675
30
0
41
1
10
82.8766138653118
20
0.0632845100477262
30
0
41
1
10
82.8901961750541
20
0.0331211238638733
30
0
41
1
10
82.905210187007
20
0.0030857177771342
30
0
41
1
10
82.921702418144
20
-0.0267726668156421
30
0
41
1
10
82.9395534470833
20
-0.0561515163118695
30
0
41
1
10
82.9576401962699
20
-0.0832974786636491
30
0
41
1
10
82.9757072885416
20
-0.108268961948413
30
0
41
1
10
82.9935106545107
20
-0.131148792907963
30
0
41
1
10
83.0122408899142
20
-0.153549901187423
30
0
41
1
10
83.0320785458184
20
-0.175636811315235
30
0
41
1
10
83.0530608504944
20
-0.19735004250934
30
0
41
1
10
83.0751999534877
20
-0.218625483740965
30
0
41
1
10
83.0982650314415
20
-0.239204086134718
30
0
41
1
10
83.1142314501142
20
-0.252401085857308
30
0
41
1
10
83.1223604517012
20
-0.25887099473551
30
0
0
SPLINE
5
132
100
AcDbEntity
8
1
62
256
6
ByLayer
370
18
48
1
60
0
100
AcDbSpline
70
4
71
3
72
23
73
19
40
0
40
0
40
0
40
0
40
0.0589027356515904
40
0.117871531643913
40
0.176847341262436
40
0.235759651467281
40
0.296661024093062
40
0.357618851746618
40
0.418583494169281
40
0.479494168086273
40
0.543759493072659
40
0.608075855967007
40
0.672397683952346
40
0.736670467137697
40
0.802478689061505
40
0.868331237325729
40
0.934187165731165
40
1
40
1
40
1
40
1
41
1
10
83.3924846403867
20
-0.401533300535883
30
0
41
1
10
83.4025519728662
20
-0.404642574083335
30
0
41
1
10
83.422735799642
20
-0.410464394635401
30
0
41
1
10
83.4531632046542
20
-0.417991634929029
30
0
41
1
10
83.4836438194403
20
-0.424328651953276
30
0
41
1
10
83.5144571607078
20
-0.429537573155086
30
0
41
1
10
83.5455535903757
20
-0.433580787730346
30
0
41
1
10
83.5768908784358
20
-0.436444317467212
30
0
41
1
10
83.6080713327356
20
-0.438107706925999
30
0
41
1
10
83.6396127050822
20
-0.438602518528533
30
0
41
1
10
83.671471253801
20
-0.437874041725245
30
0
41
1
10
83.7036033422451
20
-0.435881493822723
30
0
41
1
10
83.7354032444388
20
-0.432668763370669
30
0
41
1
10
83.7670828627197
20
-0.42822998020624
30
0
41
1
10
83.7986108900034
20
-0.422555985224941
30
0
41
1
10
83.8299561772781
20
-0.415645727606295
30
0
41
1
10
83.8608414092666
20
-0.407570953824328
30
0
41
1
10
83.8811002652619
20
-0.40143519300427
30
0
41
1
10
83.8911459410289
20
-0.398178267574908
30
0
0
SPLINE
5
133
100
AcDbEntity
8
1
62
256
6
ByLayer
370
18
48
1
60
0
100
AcDbSpline
70
4
71
3
72
27
73
23
40
0
40
0
40
0
40
0
40
0.0561188636415886
40
0.112423980751138
40
0.168778023828386
40
0.225056014992134
40
0.281152053189188
40
0.328219144951386
40
0.375475479188901
40
0.4228150596069
40
0.4701385686061
40
0.517357741315405
40
0.564399962324559
40
0.615497735711938
40
0.666814814816181
40
0.718193992928678
40
0.769487024931533
40
0.820564543953343
40
0.865370870860025
40
0.910284462111953
40
0.955196202736574
40
1
40
1
40
1
40
1
41
1
10
82.8439810852865
20
0.154867180151635
30
0
41
1
10
82.8418236140765
20
0.162212189204832
30
0
41
1
10
82.8369776820341
20
0.176783959803972
30
0
41
1
10
82.8281154949318
20
0.198276521496675
30
0
41
1
10
82.8176882687997
20
0.219268094045232
30
0
41
1
10
82.8057246013835
20
0.239614186977304
30
0
41
1
10
82.7929622663805
20
0.258142603917363
30
0
41
1
10
82.7796482971515
20
0.274896894140181
30
0
41
1
10
82.7660571239386
20
0.28998980750133
30
0
41
1
10
82.7514333259595
20
0.304360990550789
30
0
41
1
10
82.7358431075949
20
0.317909261766141
30
0
41
1
10
82.7193531347103
20
0.330533297851877
30
0
41
1
10
82.7015049334279
20
0.342485774629434
30
0
41
1
10
82.6822061901864
20
0.35357667314605
30
0
41
1
10
82.66145451119
20
0.36365215697014
30
0
41
1
10
82.6398924031399
20
0.372342583498323
30
0
41
1
10
82.6176873228644
20
0.379549269474966
30
0
41
1
10
82.5958857738723
20
0.384950484041344
30
0
41
1
10
82.5746479728382
20
0.388689184101489
30
0
41
1
10
82.5541058346658
20
0.391001862015404
30
0
41
1
10
82.5334149490646
20
0.392041808299979
30
0
41
1
10
82.5196182402626
20
0.391866437488583
30
0
41
1
10
82.5127185139748
20
0.391564057486367
30
0
0
SPLINE
5
134
100
AcDbEntity
8
1
62
256
6
ByLayer
370
18
48
1
60
0
100
AcDbSpline
70
4
71
3
72
48
73
44
40
0
40
0
40
0
40
0
40
0.02627217380665
40
0.0525619703435147
40
0.078850306290088
40
0.105120487026422
40
0.132036709757031
40
0.158976424808387
40
0.185913292963978
40
0.212825630100535
40
0.234294502362751
40
0.255778755968616
40
0.277261301266319
40
0.298727842314517
40
0.320768286786761
40
0.342829782590764
40
0.364889147316953
40
0.386926682946973
40
0.408433393548319
40
0.429963498873715
40
0.45149235640924
40
0.472997363609899
40
0.495326048081882
40
0.517682444044432
40
0.540039240939551
40
0.562368472814438
40
0.587800707027047
40
0.613298223871367
40
0.638836197693105
40
0.664382634053373
40
0.689899706560779
40
0.715345013000129
40
0.740390850122308
40
0.765460770541358
40
0.790533639051894
40
0.81558350007777
40
0.841348186300116
40
0.867133057390232
40
0.892920027280734
40
0.918687577703164
40
0.94578802621202
40
0.972898571200195
40
1
40
1
40
1
40
1
41
1
10
81.2222769204534
20
-0.487566497004323
30
0
41
1
10
81.2326236918623
20
-0.48985198870867
30
0
41
1
10
81.2534513498686
20
-0.494028118133564
30
0
41
1
10
81.2850898027206
20
-0.499114068389366
30
0
41
1
10
81.3170845227557
20
-0.502988198805346
30
0
41
1
10
81.3496667620249
20
-0.505646836782184
30
0
41
1
10
81.3828235073601
20
-0.507021485325614
30
0
41
1
10
81.4165344690705
20
-0.507049206936211
30
0
41
1
10
81.4504824911302
20
-0.505689010933027
30
0
41
1
10
81.4823131369304
20
-0.503095700350309
30
0
41
1
10
81.5119493329354
20
-0.499555638855727
30
0
41
1
10
81.5393453638206
20
-0.495350979689802
30
0
41
1
10
81.5667714626226
20
-0.490193745104298
30
0
41
1
10
81.5944303393731
20
-0.484017022260955
30
0
41
1
10
81.6222913638351
20
-0.47676905619989
30
0
41
1
10
81.6503125910689
20
-0.468415102011685
30
0
41
1
10
81.6781907669179
20
-0.459019162646578
30
0
41
1
10
81.7056402676379
20
-0.448664624924898
30
0
41
1
10
81.7326170856975
20
-0.437369425324409
30
0
41
1
10
81.7590812091827
20
-0.425179294633253
30
0
41
1
10
81.7851849394294
20
-0.412025579601929
30
0
41
1
10
81.8111851534296
20
-0.397750536802164
30
0
41
1
10
81.8370037723471
20
-0.382319536219343
30
0
41
1
10
81.8625674492787
20
-0.365735022469231
30
0
41
1
10
81.8874848482563
20
-0.348241153292164
30
0
41
1
10
81.9128072395184
20
-0.329040239266609
30
0
41
1
10
81.9383553889889
20
-0.308003368705053
30
0
41
1
10
81.9639550716287
20
-0.285057064826278
30
0
41
1
10
81.9884861062833
20
-0.261179777495658
30
0
41
1
10
82.0118774267075
20
-0.236479766354373
30
0
41
1
10
82.0340606840958
20
-0.211066647441516
30
0
41
1
10
82.0548832694536
20
-0.185142879023184
30
0
41
1
10
82.0743592671651
20
-0.158767952637472
30
0
41
1
10
82.0925511965004
20
-0.131999427763636
30
0
41
1
10
82.1095518927219
20
-0.104760329948954
30
0
41
1
10
82.1255083393936
20
-0.0768471059208888
30
0
41
1
10
82.1403850456699
20
-0.0482850108584234
30
0
41
1
10
82.1541605467213
20
-0.0191021823222997
30
0
41
1
10
82.166702800386
20
0.0103836531142214
30
0
41
1
10
82.1782134809891
20
0.0406382575068243
30
0
41
1
10
82.1886286916121
20
0.071641954611378
30
0
41
1
10
82.1978890611119
20
0.103372964592749
30
0
41
1
10
82.2031880003542
20
0.124633330086858
30
0
41
1
10
82.2056174402809
20
0.135290882844901
30
0
0
SPLINE
5
135
100
AcDbEntity
8
1
62
256
6
ByLayer
370
18
48
1
60
0
100
AcDbSpline
70
4
71
3
72
28
73
24
40
0
40
0
40
0
40
0
40
0.0518880762989941
40
0.0964485337248899
40
0.141156914930011
40
0.185919737127962
40
0.230636210029523
40
0.275203476664859
40
0.32022598935066
40
0.365382699907721
40
0.410592767262959
40
0.455764455838709
40
0.500799568504484
40
0.548647317415138
40
0.596628362765517
40
0.644664477102558
40
0.692664382739454
40
0.740527994510552
40
0.792321562441422
40
0.844252858430766
40
0.896240629461237
40
0.948190669230051
40
1
40
1
40
1
40
1
41
1
10
82.5127185139748
20
0.391564057486367
30
0
41
1
10
82.5049006279733
20
0.391218448079634
30
0
41
1
10
82.4904414618904
20
0.390062349887323
30
0
41
1
10
82.4694299285229
20
0.386961957690673
30
0
41
1
10
82.4497424367266
20
0.382810772861566
30
0
41
1
10
82.4303654986549
20
0.377494972625252
30
0
41
1
10
82.4114257820936
20
0.371058224900523
30
0
41
1
10
82.3929494490944
20
0.363504985591799
30
0
41
1
10
82.3750067880322
20
0.354834408255153
30
0
41
1
10
82.3576324485622
20
0.345103475579824
30
0
41
1
10
82.3409470815508
20
0.334408200902477
30
0
41
1
10
82.3250367195034
20
0.322830037711901
30
0
41
1
10
82.3096488429129
20
0.310168915816803
30
0
41
1
10
82.2948878385789
20
0.296399736036855
30
0
41
1
10
82.2808220387939
20
0.281542078331368
30
0
41
1
10
82.2677765580924
20
0.265954865849654
30
0
41
1
10
82.255801184305
20
0.249742791473844
30
0
41
1
10
82.2446319506755
20
0.232522819805181
30
0
41
1
10
82.2343992045822
20
0.214290605088394
30
0
41
1
10
82.2251934290771
20
0.195072831545836
30
0
41
1
10
82.2172826906939
20
0.175434622584147
30
0
41
1
10
82.2106802025399
20
0.155484271529907
30
0
41
1
10
82.2071583099874
20
0.142044494108768
30
0
41
1
10
82.2056174402809
20
0.135290882844901
30
0
0
LINE
5
70
100
AcDbEntity
8
1
62
256
6
ByLayer
370
18
48
1
60
0
100
AcDbLine
10
108.325526
20
-2.430665
30
0
11
111.109034
21
-2.430665
31
0
39
0
210
0
220
0
230
1
0
LINE
5
72
100
AcDbEntity
8
1
62
256
6
ByLayer
370
18
48
1
60
0
100
AcDbLine
10
111.757223
20
-1.845
30
0
11
111.757223
21
-1.305
31
0
39
0
210
0
220
0
230
1
0
LINE
5
73
100
AcDbEntity
8
1
62
256
6
ByLayer
370
18
48
1
60
0
100
AcDbLine
10
111.109034
20
-2.474934
30
0
11
108.318987
21
-2.474934
31
0
39
0
210
0
220
0
230
1
0
LINE
5
74
100
AcDbEntity
8
1
62
256
6
ByLayer
370
18
48
1
60
0
100
AcDbLine
10
110.840604
20
2.6
30
0
11
112.631737
21
2.6
31
0
39
0
210
0
220
0
230
1
0
LINE
5
75
100
AcDbEntity
8
1
62
256
6
ByLayer
370
18
48
1
60
0
100
AcDbLine
10
112.631737
20
-5.75
30
0
11
110.840604
21
-5.75
31
0
39
0
210
0
220
0
230
1
0
LINE
5
76
100
AcDbEntity
8
1
62
256
6
ByLayer
370
18
48
1
60
0
100
AcDbLine
10
112.631737
20
-5.75
30
0
11
112.631737
21
2.6
31
0
39
0
210
0
220
0
230
1
0
LINE
5
77
100
AcDbEntity
8
1
62
256
6
ByLayer
370
18
48
1
60
0
100
AcDbLine
10
111.359172
20
-0.582993
30
0
11
111.351956
21
-0.573774
31
0
39
0
210
0
220
0
230
1
0
LINE
5
78
100
AcDbEntity
8
1
62
256
6
ByLayer
370
18
48
1
60
0
100
AcDbLine
10
107.87468
20
2.291384
30
0
11
110.625434
21
2.291384
31
0
39
0
210
0
220
0
230
1
0
LINE
5
79
100
AcDbEntity
8
1
62
256
6
ByLayer
370
18
48
1
60
0
100
AcDbLine
10
110.625434
20
2.308749
30
0
11
107.871987
21
2.308749
31
0
39
0
210
0
220
0
230
1
0
LINE
5
7A
100
AcDbEntity
8
1
62
256
6
ByLayer
370
18
48
1
60
0
100
AcDbLine
10
47.85
20
-5.65
30
0
11
53.35
21
-5.65
31
0
39
0
210
0
220
0
230
1
0
LINE
5
7B
100
AcDbEntity
8
1
62
256
6
ByLayer
370
18
48
1
60
0
100
AcDbLine
10
47.85
20
2.5
30
0
11
53.35
21
2.5
31
0
39
0
210
0
220
0
230
1
0
LINE
5
7C
100
AcDbEntity
8
1
62
256
6
ByLayer
370
18
48
1
60
0
100
AcDbLine
10
111.351956
20
-0.573774
30
0
11
110.840604
21
2.326247
31
0
39
0
210
0
220
0
230
1
0
LINE
5
7D
100
AcDbEntity
8
1
62
256
6
ByLayer
370
18
48
1
60
0
100
AcDbLine
10
110.625434
20
2.291384
30
0
11
111.147309
21
-0.668317
31
0
39
0
210
0
220
0
230
1
0
LINE
5
7E
100
AcDbEntity
8
1
62
256
6
ByLayer
370
18
48
1
60
0
100
AcDbLine
10
111.109034
20
-0.675066
30
0
11
108.319004
21
-0.675066
31
0
39
0
210
0
220
0
230
1
0
LINE
5
7F
100
AcDbEntity
8
1
62
256
6
ByLayer
370
18
48
1
60
0
100
AcDbLine
10
95.147162
20
-5.75
30
0
11
95.147162
21
-5.65
31
0
39
0
210
0
220
0
230
1
0
LINE
5
80
100
AcDbEntity
8
1
62
256
6
ByLayer
370
18
48
1
60
0
100
AcDbLine
10
43.914893
20
2.5
30
0
11
0
21
2.5
31
0
39
0
210
0
220
0
230
1
0
LINE
5
81
100
AcDbEntity
8
1
62
256
6
ByLayer
370
18
48
1
60
0
100
AcDbLine
10
111.351956
20
-2.576226
30
0
11
110.840604
21
-5.476247
31
0
39
0
210
0
220
0
230
1
0
LINE
5
82
100
AcDbEntity
8
1
62
256
6
ByLayer
370
18
48
1
60
0
100
AcDbLine
10
97.236615
20
-5.75
30
0
11
97.236615
21
-5.65
31
0
39
0
210
0
220
0
230
1
0
LINE
5
83
100
AcDbEntity
8
1
62
256
6
ByLayer
370
18
48
1
60
0
100
AcDbLine
10
110.840604
20
2.326247
30
0
11
110.840604
21
2.6
31
0
39
0
210
0
220
0
230
1
0
LINE
5
84
100
AcDbEntity
8
1
62
256
6
ByLayer
370
18
48
1
60
0
100
AcDbLine
10
97.408688
20
2.5
30
0
11
97.408688
21
2.6
31
0
39
0
210
0
220
0
230
1
0
LINE
5
85
100
AcDbEntity
8
1
62
256
6
ByLayer
370
18
48
1
60
0
100
AcDbLine
10
97.236615
20
2.6
30
0
11
97.236615
21
2.5
31
0
39
0
210
0
220
0
230
1
0
LINE
5
86
100
AcDbEntity
8
1
62
256
6
ByLayer
370
18
48
1
60
0
100
AcDbLine
10
110.628472
20
-5.75
30
0
11
110.628472
21
-5.45888
31
0
39
0
210
0
220
0
230
1
0
LINE
5
87
100
AcDbEntity
8
1
62
256
6
ByLayer
370
18
48
1
60
0
100
AcDbLine
10
110.625434
20
-5.458749
30
0
11
107.871946
21
-5.458749
31
0
39
0
210
0
220
0
230
1
0
LINE
5
88
100
AcDbEntity
8
1
62
256
6
ByLayer
370
18
48
1
60
0
100
AcDbLine
10
107.874636
20
-5.441384
30
0
11
110.625434
21
-5.441384
31
0
39
0
210
0
220
0
230
1
0
LINE
5
89
100
AcDbEntity
8
1
62
256
6
ByLayer
370
18
48
1
60
0
100
AcDbLine
10
97.408688
20
-5.65
30
0
11
97.408688
21
-5.75
31
0
39
0
210
0
220
0
230
1
0
LINE
5
8A
100
AcDbEntity
8
1
62
256
6
ByLayer
370
18
48
1
60
0
100
AcDbLine
10
110.628472
20
2.6
30
0
11
110.628472
21
2.30888
31
0
39
0
210
0
220
0
230
1
0
LINE
5
8B
100
AcDbEntity
8
1
62
256
6
ByLayer
370
18
48
1
60
0
100
AcDbLine
10
97.408688
20
2.6
30
0
11
110.628472
21
2.6
31
0
39
0
210
0
220
0
230
1
0
LINE
5
8C
100
AcDbEntity
8
1
62
256
6
ByLayer
370
18
48
1
60
0
100
AcDbLine
10
110.628472
20
-5.75
30
0
11
97.408688
21
-5.75
31
0
39
0
210
0
220
0
230
1
0
LINE
5
8D
100
AcDbEntity
8
1
62
256
6
ByLayer
370
18
48
1
60
0
100
AcDbLine
10
110.625434
20
-5.441384
30
0
11
111.147309
21
-2.481683
31
0
39
0
210
0
220
0
230
1
0
LINE
5
8E
100
AcDbEntity
8
1
62
256
6
ByLayer
370
18
48
1
60
0
100
AcDbLine
10
110.840604
20
-5.476247
30
0
11
110.840604
21
-5.75
31
0
39
0
210
0
220
0
230
1
0
LINE
5
8F
100
AcDbEntity
8
1
62
256
6
ByLayer
370
18
48
1
60
0
100
AcDbLine
10
95.147162
20
2.5
30
0
11
95.147162
21
2.6
31
0
39
0
210
0
220
0
230
1
0
LINE
5
90
100
AcDbEntity
8
1
62
256
6
ByLayer
370
18
48
1
60
0
100
AcDbLine
10
97.236615
20
2.6
30
0
11
95.147162
21
2.6
31
0
39
0
210
0
220
0
230
1
0
LINE
5
91
100
AcDbEntity
8
1
62
256
6
ByLayer
370
18
48
1
60
0
100
AcDbLine
10
95.147162
20
-5.75
30
0
11
97.236615
21
-5.75
31
0
39
0
210
0
220
0
230
1
0
LINE
5
92
100
AcDbEntity
8
1
62
256
6
ByLayer
370
18
48
1
60
0
100
AcDbLine
10
111.359172
20
-2.567007
30
0
11
111.351956
21
-2.576226
31
0
39
0
210
0
220
0
230
1
0
LINE
5
93
100
AcDbEntity
8
1
62
256
6
ByLayer
370
18
48
1
60
0
100
AcDbLine
10
57.796785
20
2.5
30
0
11
57.796785
21
-5.65
31
0
39
0
210
0
220
0
230
1
0
LINE
5
94
100
AcDbEntity
8
80
62
256
6
ByLayer
370
18
48
1
60
0
100
AcDbLine
10
0
20
0
30
0
11
-2.5
21
0
31
0
39
0
210
0
220
0
230
1
0
LINE
5
95
100
AcDbEntity
8
1
62
256
6
ByLayer
370
18
48
1
60
0
100
AcDbLine
10
97.160534
20
-5.65
30
0
11
57.796785
21
-5.65
31
0
39
0
210
0
220
0
230
1
0
LINE
5
96
100
AcDbEntity
8
1
62
256
6
ByLayer
370
18
48
1
60
0
100
AcDbLine
10
43.914893
20
2.5
30
0
11
43.914893
21
0
31
0
39
0
210
0
220
0
230
1
0
LINE
5
97
100
AcDbEntity
8
1
62
256
6
ByLayer
370
18
48
1
60
0
100
AcDbLine
10
95.147162
20
2.6
30
0
11
94.000009
21
2.6
31
0
39
0
210
0
220
0
230
1
0
LINE
5
98
100
AcDbEntity
8
1
62
256
6
ByLayer
370
18
48
1
60
0
100
AcDbLine
10
94.000009
20
-5.75
30
0
11
95.147162
21
-5.75
31
0
39
0
210
0
220
0
230
1
0
LINE
5
99
100
AcDbEntity
8
1
62
256
6
ByLayer
370
18
48
1
60
0
100
AcDbLine
10
47.85
20
-5.65
30
0
11
47.85
21
2.5
31
0
39
0
210
0
220
0
230
1
0
LINE
5
9A
100
AcDbEntity
8
1
62
256
6
ByLayer
370
18
48
1
60
0
100
AcDbLine
10
97.160534
20
2.5
30
0
11
57.796785
21
2.5
31
0
39
0
210
0
220
0
230
1
0
LINE
5
9B
100
AcDbEntity
8
1
62
256
6
ByLayer
370
18
48
1
60
0
100
AcDbLine
10
45.284113
20
-5.65
30
0
11
0
21
-5.65
31
0
39
0
210
0
220
0
230
1
0
LINE
5
9C
100
AcDbEntity
8
1
62
256
6
ByLayer
370
18
48
1
60
0
100
AcDbLine
10
111.099673
20
-2.338888
30
0
11
111.099673
21
-2.308086
31
0
39
0
210
0
220
0
230
1
0
LINE
5
9D
100
AcDbEntity
8
1
62
256
6
ByLayer
370
18
48
1
60
0
100
AcDbLine
10
111.099673
20
-0.811112
30
0
11
111.099673
21
-0.841914
31
0
39
0
210
0
220
0
230
1
0
LINE
5
9E
100
AcDbEntity
8
1
62
256
6
ByLayer
370
18
48
1
60
0
100
AcDbLine
10
108.601911
20
-1.05
30
0
11
108.601911
21
-2.1
31
0
39
0
210
0
220
0
230
1
0
LINE
5
9F
100
AcDbEntity
8
1
62
256
6
ByLayer
370
18
48
1
60
0
100
AcDbLine
10
97.160534
20
-5.65
30
0
11
107.84232
21
-5.65
31
0
39
0
210
0
220
0
230
1
0
LINE
5
A0
100
AcDbEntity
8
1
62
256
6
ByLayer
370
18
48
1
60
0
100
AcDbLine
10
43.914893
20
0
30
0
11
0
21
0
31
0
39
0
210
0
220
0
230
1
0
LINE
5
A1
100
AcDbEntity
8
1
62
256
6
ByLayer
370
18
48
1
60
0
100
AcDbLine
10
111.109034
20
-2.474934
30
0
11
111.109034
21
-2.430665
31
0
39
0
210
0
220
0
230
1
0
LINE
5
A2
100
AcDbEntity
8
1
62
256
6
ByLayer
370
18
48
1
60
0
100
AcDbLine
10
97.160534
20
-5.65
30
0
11
97.160534
21
2.5
31
0
39
0
210
0
220
0
230
1
0
LINE
5
A3
100
AcDbEntity
8
1
62
256
6
ByLayer
370
18
48
1
60
0
100
AcDbLine
10
107.84232
20
2.5
30
0
11
97.160534
21
2.5
31
0
39
0
210
0
220
0
230
1
0
LINE
5
A4
100
AcDbEntity
8
SK1
62
256
6
ByLayer
370
18
48
1
60
0
100
AcDbLine
10
-180
20
-5.65
30
0
11
-180
21
0
31
0
39
0
210
0
220
0
230
1
0
LINE
5
A6
100
AcDbEntity
8
1
62
256
6
ByLayer
370
18
48
1
60
0
100
AcDbLine
10
111.109034
20
-0.675066
30
0
11
111.109034
21
-0.719335
31
0
39
0
210
0
220
0
230
1
0
LINE
5
A7
100
AcDbEntity
8
1
62
256
6
ByLayer
370
18
48
1
60
0
100
AcDbLine
10
110.628472
20
2.6
30
0
11
110.840604
21
2.6
31
0
39
0
210
0
220
0
230
1
0
LINE
5
A8
100
AcDbEntity
8
1
62
256
6
ByLayer
370
18
48
1
60
0
100
AcDbLine
10
53.35
20
-5.65
30
0
11
53.35
21
2.5
31
0
39
0
210
0
220
0
230
1
0
LINE
5
A9
100
AcDbEntity
8
1
62
256
6
ByLayer
370
18
48
1
60
0
100
AcDbLine
10
112.631737
20
2.6
30
0
11
113.657076
21
2.6
31
0
39
0
210
0
220
0
230
1
0
LINE
5
AA
100
AcDbEntity
8
1
62
256
6
ByLayer
370
18
48
1
60
0
100
AcDbLine
10
113.657076
20
-5.75
30
0
11
112.631737
21
-5.75
31
0
39
0
210
0
220
0
230
1
0
LINE
5
AB
100
AcDbEntity
8
1
62
256
6
ByLayer
370
18
48
1
60
0
100
AcDbLine
10
115.777963
20
3.746756
30
0
11
119.157331
21
3.923861
31
0
39
0
210
0
220
0
230
1
0
LINE
5
AC
100
AcDbEntity
8
1
62
256
6
ByLayer
370
18
48
1
60
0
100
AcDbLine
10
114.082619
20
2.767949
30
0
11
115.777963
21
3.746756
31
0
39
0
210
0
220
0
230
1
0
LINE
5
AD
100
AcDbEntity
8
1
62
256
6
ByLayer
370
18
48
1
60
0
100
AcDbLine
10
115.777963
20
-6.896756
30
0
11
114.082619
21
-5.917949
31
0
39
0
210
0
220
0
230
1
0
LINE
5
AE
100
AcDbEntity
8
1
62
256
6
ByLayer
370
18
48
1
60
0
100
AcDbLine
10
119.157331
20
-7.073861
30
0
11
115.777963
21
-6.896756
31
0
39
0
210
0
220
0
230
1
0
LINE
5
AF
100
AcDbEntity
8
1
62
256
6
ByLayer
370
18
48
1
60
0
100
AcDbLine
10
120.000009
20
-6.27933
30
0
11
120.000009
21
3.12933
31
0
39
0
210
0
220
0
230
1
0
LINE
5
B0
100
AcDbEntity
8
1
62
256
6
ByLayer
370
18
48
1
60
0
100
AcDbLine
10
90.800009
20
2.6
30
0
11
94.000009
21
2.6
31
0
39
0
210
0
220
0
230
1
0
LINE
5
B1
100
AcDbEntity
8
1
62
256
6
ByLayer
370
18
48
1
60
0
100
AcDbLine
10
94.000009
20
-5.75
30
0
11
90.800009
21
-5.75
31
0
39
0
210
0
220
0
230
1
0
LINE
5
B2
100
AcDbEntity
8
1
62
256
6
ByLayer
370
18
48
1
60
0
100
AcDbLine
10
94.000009
20
2.5
30
0
11
94.000009
21
2.6
31
0
39
0
210
0
220
0
230
1
0
LINE
5
B3
100
AcDbEntity
8
1
62
256
6
ByLayer
370
18
48
1
60
0
100
AcDbLine
10
94.000009
20
-5.75
30
0
11
94.000009
21
-5.65
31
0
39
0
210
0
220
0
230
1
0
LINE
5
B4
100
AcDbEntity
8
1
62
256
6
ByLayer
370
18
48
1
60
0
100
AcDbLine
10
108.601911
20
-1.305
30
0
11
111.757223
21
-1.305
31
0
39
0
210
0
220
0
230
1
0
LINE
5
B5
100
AcDbEntity
8
1
62
256
6
ByLayer
370
18
48
1
60
0
100
AcDbLine
10
108.601911
20
-1.845
30
0
11
111.757223
21
-1.845
31
0
39
0
210
0
220
0
230
1
0
LINE
5
B6
100
AcDbEntity
8
1
62
256
6
ByLayer
370
18
48
1
60
0
100
AcDbLine
10
108.601911
20
-2.035736
30
0
11
111.748308
21
-2.035736
31
0
39
0
210
0
220
0
230
1
0
LINE
5
B7
100
AcDbEntity
8
1
62
256
6
ByLayer
370
18
48
1
60
0
100
AcDbLine
10
108.601911
20
-1.114264
30
0
11
111.748308
21
-1.114264
31
0
39
0
210
0
220
0
230
1
0
LINE
5
B8
100
AcDbEntity
8
1
62
256
6
ByLayer
370
18
48
1
60
0
100
AcDbLine
10
108.493156
20
-0.897267
30
0
11
111.226734
21
-0.897267
31
0
39
0
210
0
220
0
230
1
0
LINE
5
B9
100
AcDbEntity
8
1
62
256
6
ByLayer
370
18
48
1
60
0
100
AcDbLine
10
108.493156
20
-2.252733
30
0
11
111.226734
21
-2.252733
31
0
39
0
210
0
220
0
230
1
0
LINE
5
BA
100
AcDbEntity
8
1
62
256
6
ByLayer
370
18
48
1
60
0
100
AcDbLine
10
108.38011
20
-2.308086
30
0
11
111.099673
21
-2.308086
31
0
39
0
210
0
220
0
230
1
0
LINE
5
BB
100
AcDbEntity
8
1
62
256
6
ByLayer
370
18
48
1
60
0
100
AcDbLine
10
108.379991
20
-0.841914
30
0
11
111.099673
21
-0.841914
31
0
39
0
210
0
220
0
230
1
0
LINE
5
BC
100
AcDbEntity
8
1
62
256
6
ByLayer
370
18
48
1
60
0
100
AcDbLine
10
111.099673
20
-0.811112
30
0
11
108.353621
21
-0.811112
31
0
39
0
210
0
220
0
230
1
0
LINE
5
BD
100
AcDbEntity
8
1
62
256
6
ByLayer
370
18
48
1
60
0
100
AcDbLine
10
111.099673
20
-2.338888
30
0
11
108.35351
21
-2.338888
31
0
39
0
210
0
220
0
230
1
0
LINE
5
BE
100
AcDbEntity
8
1
62
256
6
ByLayer
370
18
48
1
60
0
100
AcDbLine
10
111.109034
20
-2.430665
30
0
11
111.168083
21
-2.355219
31
0
39
0
210
0
220
0
230
1
0
LINE
5
BF
100
AcDbEntity
8
1
62
256
6
ByLayer
370
18
48
1
60
0
100
AcDbLine
10
111.109034
20
-0.719335
30
0
11
111.168083
21
-0.794781
31
0
39
0
210
0
220
0
230
1
0
LINE
5
C0
100
AcDbEntity
8
1
62
256
6
ByLayer
370
18
48
1
60
0
100
AcDbLine
10
108.325533
20
-0.719335
30
0
11
111.109034
21
-0.719335
31
0
39
0
210
0
220
0
230
1
0
LINE
5
C1
100
AcDbEntity
8
1
62
256
6
ByLayer
370
18
48
1
60
0
100
AcDbLine
10
97.408688
20
-5.75
30
0
11
97.236615
21
-5.75
31
0
39
0
210
0
220
0
230
1
0
LINE
5
C2
100
AcDbEntity
8
1
62
256
6
ByLayer
370
18
48
1
60
0
100
AcDbLine
10
110.629958
20
2.291771
30
0
11
110.628472
21
2.30888
31
0
39
0
210
0
220
0
230
1
0
LINE
5
C3
100
AcDbEntity
8
1
62
256
6
ByLayer
370
18
48
1
60
0
100
AcDbLine
10
110.840604
20
-5.75
30
0
11
110.628472
21
-5.75
31
0
39
0
210
0
220
0
230
1
0
LINE
5
C4
100
AcDbEntity
8
1
62
256
6
ByLayer
370
18
48
1
60
0
100
AcDbLine
10
97.236615
20
2.6
30
0
11
97.408688
21
2.6
31
0
39
0
210
0
220
0
230
1
0
LINE
5
C5
100
AcDbEntity
8
1
62
256
6
ByLayer
370
18
48
1
60
0
100
AcDbLine
10
110.625434
20
-5.458749
30
0
11
110.625434
21
-5.441384
31
0
39
0
210
0
220
0
230
1
0
LINE
5
C6
100
AcDbEntity
8
1
62
256
6
ByLayer
370
18
48
1
60
0
100
AcDbLine
10
110.629958
20
-5.441771
30
0
11
110.628472
21
-5.45888
31
0
39
0
210
0
220
0
230
1
0
LINE
5
C7
100
AcDbEntity
8
1
62
256
6
ByLayer
370
18
48
1
60
0
100
AcDbLine
10
110.625434
20
2.308749
30
0
11
110.625434
21
2.291384
31
0
39
0
210
0
220
0
230
1
0
LINE
5
C8
100
AcDbEntity
8
1
62
256
6
ByLayer
370
18
48
1
60
0
100
AcDbLine
10
45.284113
20
-5.65
30
0
11
47.85
21
-5.65
31
0
39
0
210
0
220
0
230
1
0
LINE
5
C9
100
AcDbEntity
8
1
62
256
6
ByLayer
370
18
48
1
60
0
100
AcDbLine
10
47.85
20
2.5
30
0
11
43.914893
21
2.5
31
0
39
0
210
0
220
0
230
1
0
LINE
5
CA
100
AcDbEntity
8
1
62
256
6
ByLayer
370
18
48
1
60
0
100
AcDbLine
10
53.35
20
-5.65
30
0
11
57.796785
21
-5.65
31
0
39
0
210
0
220
0
230
1
0
LINE
5
CB
100
AcDbEntity
8
1
62
256
6
ByLayer
370
18
48
1
60
0
100
AcDbLine
10
57.796785
20
2.5
30
0
11
53.35
21
2.5
31
0
39
0
210
0
220
0
230
1
0
LINE
5
CC
100
AcDbEntity
8
SK1
62
256
6
ByLayer
370
18
48
1
60
0
100
AcDbLine
10
-180
20
2.5
30
0
11
-180
21
0
31
0
39
0
210
0
220
0
230
1
0
LINE
5
CD
100
AcDbEntity
8
81
62
256
6
ByLayer
370
18
48
1
60
0
100
AcDbLine
10
119.157331
20
3.923861
30
0
11
125.225764
21
3.923861
31
0
39
0
210
0
220
0
230
1
0
LINE
5
CE
100
AcDbEntity
8
SK1
62
256
6
ByLayer
370
18
48
1
60
0
100
AcDbLine
10
0
20
2.5
30
0
11
-180
21
2.5
31
0
39
0
210
0
220
0
230
1
0
LINE
5
CF
100
AcDbEntity
8
SK1
62
256
6
ByLayer
370
18
48
1
60
0
100
AcDbLine
10
0
20
0
30
0
11
-180
21
0
31
0
39
0
210
0
220
0
230
1
0
LINE
5
D0
100
AcDbEntity
8
SK1
62
256
6
ByLayer
370
18
48
1
60
0
100
AcDbLine
10
0
20
-5.65
30
0
11
-180
21
-5.65
31
0
39
0
210
0
220
0
230
1
0
MTEXT
5
136
100
AcDbEntity
8
SK6
62
256
6
ByLayer
370
13
48
1
60
0
100
AcDbMText
10
-38.461712
20
-20.407982
30
0
210
0
220
0
230
1
1
\W0.7216;RF123M120-93B1
40
3.5
41
0
44
1.084337
50
0
71
7
72
5
7
iso_b_vert
0
DIMENSION
5
144
100
AcDbEntity
8
SK2
62
256
6
ByLayer
370
13
48
1
60
0
100
AcDbDimension
2
DimnDraft3D1
10
120.000009
20
27.930898
30
0
11
-33.39868
21
27.930898
31
0
70
32
71
5
72
1
41
1
210
0
220
0
230
1
3
Standard
100
AcDbAlignedDimension
13
-180
23
2.5
33
0
14
120.000009
24
3.12933
34
0
50
0
100
AcDbRotatedDimension
1001
ACAD
1000
DSTYLE
1002
{
1070
   279
1070
     0
1070
   172
1070
     1
1070
   173
1070
     1
1070
   340
1005
137
1070
   271
1070
     1
1070
   272
1070
     2
1070
    77
1070
     1
1070
    73
1070
     0
1070
   171
1070
     3
1070
   274
1070
     4
1070
   177
1070
     7
1070
   176
1070
     7
1070
   178
1070
     7
1070
    78
1070
     8
1070
    48
1040
-0.005
1070
    41
1041
3.5
1070
   147
1041
1.75
1070
    42
1041
0.0
1070
    44
1041
2.0
1070
   140
1041
3.5
1070
   343
1005
0
1070
   344
1005
0
1002
}
0
DIMENSION
5
14F
100
AcDbEntity
8
2
62
256
6
ByLayer
370
13
48
1
60
0
100
AcDbDimension
2
DimnDraft3D2
10
135.191961
20
-7.073861
30
0
11
135.191961
21
-2.790789
31
0
70
32
71
5
72
1
41
1
210
0
220
0
230
1
3
Standard
100
AcDbAlignedDimension
13
119.157331
23
3.923861
33
0
14
119.157331
24
-7.073861
34
0
50
90
100
AcDbRotatedDimension
1001
ACAD
1000
DSTYLE
1002
{
1070
    74
1070
     0
1070
   279
1070
     0
1070
   172
1070
     1
1070
   173
1070
     1
1070
   340
1005
137
1070
   271
1070
     1
1070
   272
1070
     2
1070
    77
1070
     1
1070
    73
1070
     0
1070
   171
1070
     3
1070
   274
1070
     4
1070
   177
1070
     7
1070
   176
1070
     7
1070
   178
1070
     7
1070
    78
1070
     8
1070
    48
1040
-0.005
1070
    41
1041
3.5
1070
   147
1041
1.75
1070
    42
1041
0.0
1070
    44
1041
2.0
1070
   140
1041
3.5
1070
   343
1005
0
1070
   344
1005
0
1002
}
0
DIMENSION
5
159
100
AcDbEntity
8
2
62
256
6
ByLayer
370
13
48
1
60
0
100
AcDbDimension
2
DimnDraft3D3
10
0
20
15.739538
30
0
11
57.03882
21
15.739538
31
0
70
32
71
5
72
1
41
1
210
0
220
0
230
1
3
Standard
100
AcDbAlignedDimension
13
120.000009
23
3.12933
33
0
14
0
24
0
34
0
50
0
100
AcDbRotatedDimension
1001
ACAD
1000
DSTYLE
1002
{
1070
   279
1070
     0
1070
   172
1070
     1
1070
   173
1070
     1
1070
   340
1005
137
1070
   271
1070
     1
1070
   272
1070
     2
1070
    77
1070
     1
1070
    73
1070
     0
1070
   171
1070
     3
1070
   274
1070
     4
1070
   177
1070
     7
1070
   176
1070
     7
1070
   178
1070
     7
1070
    78
1070
     8
1070
    48
1040
-0.005
1070
    41
1041
3.5
1070
   147
1041
1.75
1070
    42
1041
0.0
1070
    44
1041
2.0
1070
   140
1041
3.5
1070
   343
1005
0
1070
   344
1005
0
1002
}
0
ENDSEC
0
SECTION
2
OBJECTS
0
DICTIONARY
5
1c3
330
0
100
AcDbDictionary
280
0
281
1
3
ACAD_GROUP
350
1c4
3
ACAD_MLINESTYLE
350
1c5
0
DICTIONARY
5
1c4
330
0
100
AcDbDictionary
280
0
281
1
0
DICTIONARY
5
1c5
330
0
100
AcDbDictionary
280
0
281
1
3
Standard
350
18
0
MLINESTYLE
5
18
330
1c5
100
AcDbMlineStyle
2
Standard
70
0
3

62
256
51
90
52
90
71
2
49
-0.5
62
256
6
ByLayer
49
0.5
62
256
6
ByLayer
0
RASTERVARIABLES
5
1b2
330

100
AcDbRasterVariables
90
0
70
1
71
1
72
1
0
ENDSEC
0
EOF
