0
SECTION
2
HEADER
9
$ACADVER
1
AC1015
9
$DWGCODEPAGE
3
ANSI_1252
9
$HANDSEED
5
23c
9
$ANGBASE
50
0
9
$ANGDIR
70
0
9
$ATTMODE
70
1
9
$AUNITS
70
0
9
$AUPREC
70
0
9
$CECOLOR
62
256
9
$CELTSCALE
40
1
9
$CELTYPE
6
ByLayer
9
$CELWEIGHT
370
18
9
$CLAYER
8
0
9
$CMLJUST
70
0
9
$CMLSCALE
40
1
9
$CMLSTYLE
2
Standard
9
$DIMSTYLE
2
Standard
9
$TEXTSIZE
40
0.2
9
$TEXTSTYLE
7
Standard
9
$LUNITS
70
2
9
$LUPREC
70
4
9
$EXTNAMES
290
1
9
$INSUNITS
70
4
9
$LTSCALE
40
1
9
$LWDISPLAY
290
1
9
$PDMODE
70
0
9
$PDSIZE
40
0
9
$PLINEGEN
70
0
0
ENDSEC
0
SECTION
2
CLASSES
0
CLASS
1
RASTERVARIABLES
2
AcDbRasterVariables
3
ISM
90
0
280
0
281
0
0
ENDSEC
0
SECTION
2
TABLES
0
TABLE
2
VPORT
5
232
100
AcDbSymbolTable
0
VPORT
5
1
100
AcDbSymbolTableRecord
100
AcDbViewportTableRecord
2
*Active
70
0
10
0
20
0
11
1
21
1
12
-1
22
1
13
0
23
0
14
0.5
24
0.5
15
10
25
10
16
0
26
0
36
1
17
0
27
0
37
0
0
ENDTAB
0
TABLE
2
LTYPE
5
233
100
AcDbSymbolTable
0
LTYPE
5
14
100
AcDbSymbolTableRecord
100
AcDbLinetypeTableRecord
70
0
2
ByBlock
3

72
65
73
0
40
0
0
LTYPE
5
15
100
AcDbSymbolTableRecord
100
AcDbLinetypeTableRecord
70
0
2
ByLayer
3

72
65
73
0
40
0
0
LTYPE
5
16
100
AcDbSymbolTableRecord
100
AcDbLinetypeTableRecord
70
0
2
CONTINUOUS
3
Solid line
72
65
73
0
40
0
0
LTYPE
5
6A
100
AcDbSymbolTableRecord
100
AcDbLinetypeTableRecord
70
0
2
CENTER
3
____ _ ____ _ ____ _ ____
72
65
73
4
40
47.5
49
22
74
0
49
-8.5
74
0
49
8.5
74
0
49
-8.5
74
0
0
LTYPE
5
6B
100
AcDbSymbolTableRecord
100
AcDbLinetypeTableRecord
70
0
2
DASHED
3
__ __ __ __ __ __ __ __ __
72
65
73
2
40
25.72
49
12.86
74
0
49
-12.86
74
0
0
ENDTAB
0
TABLE
2
LAYER
5
234
100
AcDbSymbolTable
0
LAYER
5
10
100
AcDbSymbolTableRecord
100
AcDbLayerTableRecord
2
0
70
0
62
7
6
CONTINUOUS
290
1
370
-3
390
0
0
LAYER
5
6D
100
AcDbSymbolTableRecord
100
AcDbLayerTableRecord
2
2
70
0
62
7
6
CONTINUOUS
290
1
370
-3
390
0
0
LAYER
5
6F
100
AcDbSymbolTableRecord
100
AcDbLayerTableRecord
2
80
70
0
62
-6
6
CONTINUOUS
290
1
370
-3
390
0
0
LAYER
5
72
100
AcDbSymbolTableRecord
100
AcDbLayerTableRecord
2
81
70
0
62
-3
6
CONTINUOUS
290
1
370
-3
390
0
0
LAYER
5
76
100
AcDbSymbolTableRecord
100
AcDbLayerTableRecord
2
1
70
0
62
4
6
CONTINUOUS
290
1
370
-3
390
0
0
LAYER
5
21f
100
AcDbSymbolTableRecord
100
AcDbLayerTableRecord
2
SK1
70
0
62
4
6
CONTINUOUS
290
1
370
-3
390
0
0
LAYER
5
220
100
AcDbSymbolTableRecord
100
AcDbLayerTableRecord
2
SK6
70
0
62
5
6
CONTINUOUS
290
1
370
-3
390
0
0
LAYER
5
221
100
AcDbSymbolTableRecord
100
AcDbLayerTableRecord
2
SK2
70
0
62
7
6
CONTINUOUS
290
1
370
-3
390
0
0
ENDTAB
0
TABLE
2
STYLE
5
235
100
AcDbSymbolTable
0
STYLE
5
11
100
AcDbSymbolTableRecord
100
AcDbTextStyleTableRecord
2
Standard
3
txt
70
0
71
0
40
0
41
1
42
0
50
0
0
STYLE
5
167
100
AcDbSymbolTableRecord
100
AcDbTextStyleTableRecord
2
iso_b_vert
3
simplex.shx
70
0
71
0
40
0
41
1
42
0
50
0
0
STYLE
5
168
100
AcDbSymbolTableRecord
100
AcDbTextStyleTableRecord
2
DWGDirectTextStyle
3
simplex
70
0
71
0
40
0
41
1
42
0
50
0
0
ENDTAB
0
TABLE
2
DIMSTYLE
5
236
100
AcDbSymbolTable
100
AcDbDimStyleTable
0
DIMSTYLE
105
27
100
AcDbSymbolTableRecord
100
AcDbDimStyleTableRecord
2
Standard
70
0
3
<>
41
0.18
42
0.0625
44
0.18
140
0.18
147
0.09
73
0
74
0
77
1
271
2
275
0
278
52
280
0
340
11
0
ENDTAB
0
TABLE
2
VIEW
5
237
100
AcDbSymbolTable
0
ENDTAB
0
TABLE
2
UCS
5
238
100
AcDbSymbolTable
0
ENDTAB
0
TABLE
2
APPID
5
239
100
AcDbSymbolTable
0
APPID
5
12
100
AcDbSymbolTableRecord
100
AcDbRegAppTableRecord
2
ACAD
70
0
0
ENDTAB
0
TABLE
2
BLOCK_RECORD
5
23a
100
AcDbSymbolTable
0
BLOCK_RECORD
5
1F
100
AcDbSymbolTableRecord
100
AcDbBlockTableRecord
2
*Model_Space
340
0
70
0
0
BLOCK_RECORD
5
1B
100
AcDbSymbolTableRecord
100
AcDbBlockTableRecord
2
*Paper_Space
340
0
70
0
0
BLOCK_RECORD
5
23
100
AcDbSymbolTableRecord
100
AcDbBlockTableRecord
2
*Paper_Space0
340
0
70
0
0
BLOCK_RECORD
5
16A
100
AcDbSymbolTableRecord
100
AcDbBlockTableRecord
2
DimnDraft3D1
340
0
70
0
0
BLOCK_RECORD
5
178
100
AcDbSymbolTableRecord
100
AcDbBlockTableRecord
2
_CLOSED
340
0
70
0
0
BLOCK_RECORD
5
17F
100
AcDbSymbolTableRecord
100
AcDbBlockTableRecord
2
DimnDraft3D2
340
0
70
0
0
BLOCK_RECORD
5
18D
100
AcDbSymbolTableRecord
100
AcDbBlockTableRecord
2
DimnDraft3D3
340
0
70
0
0
BLOCK_RECORD
5
19C
100
AcDbSymbolTableRecord
100
AcDbBlockTableRecord
2
DimnDraft3D4
340
0
70
0
0
BLOCK_RECORD
5
1AA
100
AcDbSymbolTableRecord
100
AcDbBlockTableRecord
2
DimnDraft3D5
340
0
70
0
0
BLOCK_RECORD
5
1B8
100
AcDbSymbolTableRecord
100
AcDbBlockTableRecord
2
DimnDraft3D6
340
0
70
0
0
ENDTAB
0
ENDSEC
0
SECTION
2
BLOCKS
0
BLOCK
5
20
100
AcDbEntity
8
0
100
AcDbBlockBegin
2
*Model_Space
70
0
10
0
20
0
30
0
3
*Model_Space
0
ENDBLK
5
21
100
AcDbEntity
8
0
100
AcDbBlockEnd
0
BLOCK
5
1C
100
AcDbEntity
8
0
100
AcDbBlockBegin
2
*Paper_Space
70
0
10
0
20
0
30
0
3
*Paper_Space
0
ENDBLK
5
1D
100
AcDbEntity
8
0
100
AcDbBlockEnd
0
BLOCK
5
24
100
AcDbEntity
8
0
100
AcDbBlockBegin
2
*Paper_Space0
70
0
10
0
20
0
30
0
3
*Paper_Space0
0
ENDBLK
5
25
100
AcDbEntity
8
0
100
AcDbBlockEnd
0
BLOCK
5
175
100
AcDbEntity
8
0
100
AcDbBlockBegin
2
DimnDraft3D1
70
0
10
0
20
0
30
0
3
DimnDraft3D1
0
MTEXT
5
16B
100
AcDbEntity
8
2
62
256
6
ByLayer
370
18
48
1
60
0
100
AcDbMText
10
69.125
20
9.680921
30
0
210
0
220
0
230
1
1
\W0.5404;8
40
4.5
41
0
44
1.084337
50
90
71
7
72
5
7
iso_b_vert
0
LINE
5
16C
100
AcDbEntity
8
2
62
256
6
ByLayer
370
13
48
1
60
0
100
AcDbLine
10
57.5
20
5.5625
30
0
11
73.25
21
5.5625
31
0
39
0
210
0
220
0
230
1
0
LINE
5
16D
100
AcDbEntity
8
2
62
256
6
ByLayer
370
13
48
1
60
0
100
AcDbLine
10
57.5
20
13.5625
30
0
11
73.25
21
13.5625
31
0
39
0
210
0
220
0
230
1
0
LINE
5
16E
100
AcDbEntity
8
2
62
256
6
ByLayer
370
13
48
1
60
0
100
AcDbLine
10
70.25
20
-5.6875
30
0
11
70.25
21
24.8125
31
0
39
0
210
0
220
0
230
1
0
LINE
5
16F
100
AcDbEntity
8
2
62
256
6
ByLayer
370
13
48
1
60
0
100
AcDbLine
10
70.25
20
5.5625
30
0
11
70.644957
21
2.562501
31
0
39
0
210
0
220
0
230
1
0
LINE
5
170
100
AcDbEntity
8
2
62
256
6
ByLayer
370
13
48
1
60
0
100
AcDbLine
10
70.25
20
5.5625
30
0
11
69.855043
21
2.562499
31
0
39
0
210
0
220
0
230
1
0
LINE
5
171
100
AcDbEntity
8
2
62
256
6
ByLayer
370
13
48
1
60
0
100
AcDbLine
10
70.644957
20
2.562501
30
0
11
69.855043
21
2.562499
31
0
39
0
210
0
220
0
230
1
0
LINE
5
172
100
AcDbEntity
8
2
62
256
6
ByLayer
370
13
48
1
60
0
100
AcDbLine
10
70.25
20
13.5625
30
0
11
69.855043
21
16.562499
31
0
39
0
210
0
220
0
230
1
0
LINE
5
173
100
AcDbEntity
8
2
62
256
6
ByLayer
370
13
48
1
60
0
100
AcDbLine
10
70.25
20
13.5625
30
0
11
70.644957
21
16.562501
31
0
39
0
210
0
220
0
230
1
0
LINE
5
174
100
AcDbEntity
8
2
62
256
6
ByLayer
370
13
48
1
60
0
100
AcDbLine
10
69.855043
20
16.562499
30
0
11
70.644957
21
16.562501
31
0
39
0
210
0
220
0
230
1
0
ENDBLK
5
176
100
AcDbEntity
8
0
100
AcDbBlockEnd
0
BLOCK
5
179
100
AcDbEntity
8
0
100
AcDbBlockBegin
2
_CLOSED
70
0
10
0
20
0
30
0
3
_CLOSED
0
LINE
5
17B
100
AcDbEntity
8
0
62
256
6
ByLayer
370
-2
48
1
60
0
100
AcDbLine
10
-1
20
0.166667
30
0
11
0
21
0
31
0
39
0
210
0
220
0
230
1
0
LINE
5
17C
100
AcDbEntity
8
0
62
256
6
ByLayer
370
-2
48
1
60
0
100
AcDbLine
10
0
20
0
30
0
11
-1
21
-0.166667
31
0
39
0
210
0
220
0
230
1
0
LINE
5
17D
100
AcDbEntity
8
0
62
256
6
ByLayer
370
-2
48
1
60
0
100
AcDbLine
10
-1
20
0.166667
30
0
11
-1
21
-0.166667
31
0
39
0
210
0
220
0
230
1
0
LINE
5
17E
100
AcDbEntity
8
0
62
256
6
ByLayer
370
-2
48
1
60
0
100
AcDbLine
10
0
20
0
30
0
11
-1
21
0
31
0
39
0
210
0
220
0
230
1
0
ENDBLK
5
17A
100
AcDbEntity
8
0
100
AcDbBlockEnd
0
BLOCK
5
18A
100
AcDbEntity
8
0
100
AcDbBlockBegin
2
DimnDraft3D2
70
0
10
0
20
0
30
0
3
DimnDraft3D2
0
MTEXT
5
180
100
AcDbEntity
8
2
62
256
6
ByLayer
370
18
48
1
60
0
100
AcDbMText
10
79.125
20
-1.000658
30
0
210
0
220
0
230
1
1
\W0.6740;26
40
4.5
41
0
44
1.084337
50
90
71
7
72
5
7
iso_b_vert
0
LINE
5
181
100
AcDbEntity
8
2
62
256
6
ByLayer
370
13
48
1
60
0
100
AcDbLine
10
57.5
20
13.5625
30
0
11
83.25
21
13.5625
31
0
39
0
210
0
220
0
230
1
0
LINE
5
182
100
AcDbEntity
8
2
62
256
6
ByLayer
370
13
48
1
60
0
100
AcDbLine
10
-3.5
20
-12.4375
30
0
11
83.25
21
-12.4375
31
0
39
0
210
0
220
0
230
1
0
LINE
5
183
100
AcDbEntity
8
2
62
256
6
ByLayer
370
13
48
1
60
0
100
AcDbLine
10
80.25
20
13.5625
30
0
11
80.25
21
-12.4375
31
0
39
0
210
0
220
0
230
1
0
LINE
5
184
100
AcDbEntity
8
2
62
256
6
ByLayer
370
13
48
1
60
0
100
AcDbLine
10
80.25
20
13.5625
30
0
11
80.644957
21
10.562501
31
0
39
0
210
0
220
0
230
1
0
LINE
5
185
100
AcDbEntity
8
2
62
256
6
ByLayer
370
13
48
1
60
0
100
AcDbLine
10
80.25
20
13.5625
30
0
11
79.855043
21
10.562499
31
0
39
0
210
0
220
0
230
1
0
LINE
5
186
100
AcDbEntity
8
2
62
256
6
ByLayer
370
13
48
1
60
0
100
AcDbLine
10
80.644957
20
10.562501
30
0
11
79.855043
21
10.562499
31
0
39
0
210
0
220
0
230
1
0
LINE
5
187
100
AcDbEntity
8
2
62
256
6
ByLayer
370
13
48
1
60
0
100
AcDbLine
10
80.25
20
-12.4375
30
0
11
79.855043
21
-9.437501
31
0
39
0
210
0
220
0
230
1
0
LINE
5
188
100
AcDbEntity
8
2
62
256
6
ByLayer
370
13
48
1
60
0
100
AcDbLine
10
80.25
20
-12.4375
30
0
11
80.644957
21
-9.437499
31
0
39
0
210
0
220
0
230
1
0
LINE
5
189
100
AcDbEntity
8
2
62
256
6
ByLayer
370
13
48
1
60
0
100
AcDbLine
10
79.855043
20
-9.437501
30
0
11
80.644957
21
-9.437499
31
0
39
0
210
0
220
0
230
1
0
ENDBLK
5
18B
100
AcDbEntity
8
0
100
AcDbBlockEnd
0
BLOCK
5
199
100
AcDbEntity
8
0
100
AcDbBlockBegin
2
DimnDraft3D3
70
0
10
0
20
0
30
0
3
DimnDraft3D3
0
MTEXT
5
18E
100
AcDbEntity
8
SK2
62
256
6
ByLayer
370
18
48
1
60
0
100
AcDbMText
10
-126.225
20
-1.563158
30
0
210
0
220
0
230
1
1
\W0.6740;25
40
4.5
41
0
44
1.084337
50
90
71
7
72
5
7
iso_b_vert
0
LINE
5
190
100
AcDbEntity
8
SK2
62
256
6
ByLayer
370
13
48
1
60
0
100
AcDbLine
10
-116.85
20
12.4375
30
0
11
-128.1
21
12.4375
31
0
39
0
210
0
220
0
230
1
0
LINE
5
191
100
AcDbEntity
8
SK2
62
256
6
ByLayer
370
13
48
1
60
0
100
AcDbLine
10
-116.85
20
-12.4375
30
0
11
-128.1
21
-12.4375
31
0
39
0
210
0
220
0
230
1
0
LINE
5
192
100
AcDbEntity
8
SK2
62
256
6
ByLayer
370
13
48
1
60
0
100
AcDbLine
10
-125.1
20
12.4375
30
0
11
-125.1
21
-12.4375
31
0
39
0
210
0
220
0
230
1
0
LINE
5
193
100
AcDbEntity
8
SK2
62
256
6
ByLayer
370
13
48
1
60
0
100
AcDbLine
10
-125.1
20
12.4375
30
0
11
-124.705043
21
9.437501
31
0
39
0
210
0
220
0
230
1
0
LINE
5
194
100
AcDbEntity
8
SK2
62
256
6
ByLayer
370
13
48
1
60
0
100
AcDbLine
10
-125.1
20
12.4375
30
0
11
-125.494957
21
9.437499
31
0
39
0
210
0
220
0
230
1
0
LINE
5
195
100
AcDbEntity
8
SK2
62
256
6
ByLayer
370
13
48
1
60
0
100
AcDbLine
10
-124.705043
20
9.437501
30
0
11
-125.494957
21
9.437499
31
0
39
0
210
0
220
0
230
1
0
LINE
5
196
100
AcDbEntity
8
SK2
62
256
6
ByLayer
370
13
48
1
60
0
100
AcDbLine
10
-125.1
20
-12.4375
30
0
11
-125.494957
21
-9.437501
31
0
39
0
210
0
220
0
230
1
0
LINE
5
197
100
AcDbEntity
8
SK2
62
256
6
ByLayer
370
13
48
1
60
0
100
AcDbLine
10
-125.1
20
-12.4375
30
0
11
-124.705043
21
-9.437499
31
0
39
0
210
0
220
0
230
1
0
LINE
5
198
100
AcDbEntity
8
SK2
62
256
6
ByLayer
370
13
48
1
60
0
100
AcDbLine
10
-125.494957
20
-9.437501
30
0
11
-124.705043
21
-9.437499
31
0
39
0
210
0
220
0
230
1
0
ENDBLK
5
19A
100
AcDbEntity
8
0
100
AcDbBlockEnd
0
BLOCK
5
1A7
100
AcDbEntity
8
0
100
AcDbBlockBegin
2
DimnDraft3D4
70
0
10
0
20
0
30
0
3
DimnDraft3D4
0
MTEXT
5
19D
100
AcDbEntity
8
2
62
256
6
ByLayer
370
18
48
1
60
0
100
AcDbMText
10
26.436842
20
24.4375
30
0
210
0
220
0
230
1
1
\W0.6740;56
40
4.5
41
0
44
1.084337
50
0
71
7
72
5
7
iso_b_vert
0
LINE
5
19E
100
AcDbEntity
8
2
62
256
6
ByLayer
370
13
48
1
60
0
100
AcDbLine
10
56
20
15.0625
30
0
11
56
21
26.3125
31
0
39
0
210
0
220
0
230
1
0
LINE
5
19F
100
AcDbEntity
8
2
62
256
6
ByLayer
370
13
48
1
60
0
100
AcDbLine
10
0
20
13.9375
30
0
11
0
21
26.3125
31
0
39
0
210
0
220
0
230
1
0
LINE
5
1A0
100
AcDbEntity
8
2
62
256
6
ByLayer
370
13
48
1
60
0
100
AcDbLine
10
56
20
23.3125
30
0
11
0
21
23.3125
31
0
39
0
210
0
220
0
230
1
0
LINE
5
1A1
100
AcDbEntity
8
2
62
256
6
ByLayer
370
13
48
1
60
0
100
AcDbLine
10
56
20
23.3125
30
0
11
53.000001
21
22.917543
31
0
39
0
210
0
220
0
230
1
0
LINE
5
1A2
100
AcDbEntity
8
2
62
256
6
ByLayer
370
13
48
1
60
0
100
AcDbLine
10
56
20
23.3125
30
0
11
52.999999
21
23.707457
31
0
39
0
210
0
220
0
230
1
0
LINE
5
1A3
100
AcDbEntity
8
2
62
256
6
ByLayer
370
13
48
1
60
0
100
AcDbLine
10
53.000001
20
22.917543
30
0
11
52.999999
21
23.707457
31
0
39
0
210
0
220
0
230
1
0
LINE
5
1A4
100
AcDbEntity
8
2
62
256
6
ByLayer
370
13
48
1
60
0
100
AcDbLine
10
0
20
23.3125
30
0
11
2.999999
21
23.707457
31
0
39
0
210
0
220
0
230
1
0
LINE
5
1A5
100
AcDbEntity
8
2
62
256
6
ByLayer
370
13
48
1
60
0
100
AcDbLine
10
0
20
23.3125
30
0
11
3.000001
21
22.917543
31
0
39
0
210
0
220
0
230
1
0
LINE
5
1A6
100
AcDbEntity
8
2
62
256
6
ByLayer
370
13
48
1
60
0
100
AcDbLine
10
2.999999
20
23.707457
30
0
11
3.000001
21
22.917543
31
0
39
0
210
0
220
0
230
1
0
ENDBLK
5
1A8
100
AcDbEntity
8
0
100
AcDbBlockEnd
0
BLOCK
5
1B5
100
AcDbEntity
8
0
100
AcDbBlockBegin
2
DimnDraft3D5
70
0
10
0
20
0
30
0
3
DimnDraft3D5
0
MTEXT
5
1AB
100
AcDbEntity
8
SK2
62
256
6
ByLayer
370
18
48
1
60
0
100
AcDbMText
10
-32.357237
20
34.4375
30
0
210
0
220
0
230
1
1
\W0.6217;170
40
4.5
41
0
44
1.084337
50
0
71
7
72
5
7
iso_b_vert
0
LINE
5
1AC
100
AcDbEntity
8
SK2
62
256
6
ByLayer
370
13
48
1
60
0
100
AcDbLine
10
56
20
15.0625
30
0
11
56
21
36.3125
31
0
39
0
210
0
220
0
230
1
0
LINE
5
1AD
100
AcDbEntity
8
SK2
62
256
6
ByLayer
370
13
48
1
60
0
100
AcDbLine
10
-115.35
20
13.9375
30
0
11
-115.35
21
36.3125
31
0
39
0
210
0
220
0
230
1
0
LINE
5
1AE
100
AcDbEntity
8
SK2
62
256
6
ByLayer
370
13
48
1
60
0
100
AcDbLine
10
56
20
33.3125
30
0
11
-115.35
21
33.3125
31
0
39
0
210
0
220
0
230
1
0
LINE
5
1AF
100
AcDbEntity
8
SK2
62
256
6
ByLayer
370
13
48
1
60
0
100
AcDbLine
10
56
20
33.3125
30
0
11
53.000001
21
32.917543
31
0
39
0
210
0
220
0
230
1
0
LINE
5
1B0
100
AcDbEntity
8
SK2
62
256
6
ByLayer
370
13
48
1
60
0
100
AcDbLine
10
56
20
33.3125
30
0
11
52.999999
21
33.707457
31
0
39
0
210
0
220
0
230
1
0
LINE
5
1B1
100
AcDbEntity
8
SK2
62
256
6
ByLayer
370
13
48
1
60
0
100
AcDbLine
10
53.000001
20
32.917543
30
0
11
52.999999
21
33.707457
31
0
39
0
210
0
220
0
230
1
0
LINE
5
1B2
100
AcDbEntity
8
SK2
62
256
6
ByLayer
370
13
48
1
60
0
100
AcDbLine
10
-115.35
20
33.3125
30
0
11
-112.350001
21
33.707457
31
0
39
0
210
0
220
0
230
1
0
LINE
5
1B3
100
AcDbEntity
8
SK2
62
256
6
ByLayer
370
13
48
1
60
0
100
AcDbLine
10
-115.35
20
33.3125
30
0
11
-112.349999
21
32.917543
31
0
39
0
210
0
220
0
230
1
0
LINE
5
1B4
100
AcDbEntity
8
SK2
62
256
6
ByLayer
370
13
48
1
60
0
100
AcDbLine
10
-112.350001
20
33.707457
30
0
11
-112.349999
21
32.917543
31
0
39
0
210
0
220
0
230
1
0
ENDBLK
5
1B6
100
AcDbEntity
8
0
100
AcDbBlockEnd
0
BLOCK
5
1C3
100
AcDbEntity
8
0
100
AcDbBlockBegin
2
DimnDraft3D6
70
0
10
0
20
0
30
0
3
DimnDraft3D6
0
MTEXT
5
1B9
100
AcDbEntity
8
2
62
256
6
ByLayer
370
18
48
1
60
0
100
AcDbMText
10
40.436842
20
-25.5625
30
0
210
0
220
0
230
1
1
\W0.6740;28
40
4.5
41
0
44
1.084337
50
0
71
7
72
5
7
iso_b_vert
0
LINE
5
1BA
100
AcDbEntity
8
2
62
256
6
ByLayer
370
13
48
1
60
0
100
AcDbLine
10
28
20
3.0625
30
0
11
28
21
-29.6875
31
0
39
0
210
0
220
0
230
1
0
LINE
5
1BB
100
AcDbEntity
8
2
62
256
6
ByLayer
370
13
48
1
60
0
100
AcDbLine
10
56
20
4.0625
30
0
11
56
21
-29.6875
31
0
39
0
210
0
220
0
230
1
0
LINE
5
1BC
100
AcDbEntity
8
2
62
256
6
ByLayer
370
13
48
1
60
0
100
AcDbLine
10
28
20
-26.6875
30
0
11
56
21
-26.6875
31
0
39
0
210
0
220
0
230
1
0
LINE
5
1BD
100
AcDbEntity
8
2
62
256
6
ByLayer
370
13
48
1
60
0
100
AcDbLine
10
28
20
-26.6875
30
0
11
30.999999
21
-26.292543
31
0
39
0
210
0
220
0
230
1
0
LINE
5
1BE
100
AcDbEntity
8
2
62
256
6
ByLayer
370
13
48
1
60
0
100
AcDbLine
10
28
20
-26.6875
30
0
11
31.000001
21
-27.082457
31
0
39
0
210
0
220
0
230
1
0
LINE
5
1BF
100
AcDbEntity
8
2
62
256
6
ByLayer
370
13
48
1
60
0
100
AcDbLine
10
30.999999
20
-26.292543
30
0
11
31.000001
21
-27.082457
31
0
39
0
210
0
220
0
230
1
0
LINE
5
1C0
100
AcDbEntity
8
2
62
256
6
ByLayer
370
13
48
1
60
0
100
AcDbLine
10
56
20
-26.6875
30
0
11
53.000001
21
-27.082457
31
0
39
0
210
0
220
0
230
1
0
LINE
5
1C1
100
AcDbEntity
8
2
62
256
6
ByLayer
370
13
48
1
60
0
100
AcDbLine
10
56
20
-26.6875
30
0
11
52.999999
21
-26.292543
31
0
39
0
210
0
220
0
230
1
0
LINE
5
1C2
100
AcDbEntity
8
2
62
256
6
ByLayer
370
13
48
1
60
0
100
AcDbLine
10
53.000001
20
-27.082457
30
0
11
52.999999
21
-26.292543
31
0
39
0
210
0
220
0
230
1
0
ENDBLK
5
1C4
100
AcDbEntity
8
0
100
AcDbBlockEnd
0
ENDSEC
0
SECTION
2
ENTITIES
0
ARC
5
DC
100
AcDbEntity
8
1
62
256
6
ByLayer
370
18
48
1
60
0
100
AcDbCircle
39
0
10
-28.1
20
4.7875
30
0
40
1.6
210
0
220
0
230
-1
100
AcDbArc
50
0
51
21.047238
0
ARC
5
DE
100
AcDbEntity
8
1
62
256
6
ByLayer
370
18
48
1
60
0
100
AcDbCircle
39
0
10
19.35
20
-1.7875
30
0
40
2.807
210
0
220
0
230
1
100
AcDbArc
50
120.034873
51
180
0
ARC
5
DF
100
AcDbEntity
8
1
62
256
6
ByLayer
370
18
48
1
60
0
100
AcDbCircle
39
0
10
19.35
20
-1.7875
30
0
40
2.807
210
0
220
0
230
1
100
AcDbArc
50
300.034873
51
360
0
ARC
5
E1
100
AcDbEntity
8
1
62
256
6
ByLayer
370
18
48
1
60
0
100
AcDbCircle
39
0
10
19.35
20
-1.7875
30
0
40
2.0135
210
0
220
0
230
1
100
AcDbArc
50
88.140164
51
91.859836
0
ARC
5
E2
100
AcDbEntity
8
1
62
256
6
ByLayer
370
18
48
1
60
0
100
AcDbCircle
39
0
10
19.35
20
-1.7875
30
0
40
2.807
210
0
220
0
230
1
100
AcDbArc
50
239.965127
51
300.034873
0
ARC
5
E4
100
AcDbEntity
8
1
62
256
6
ByLayer
370
18
48
1
60
0
100
AcDbCircle
39
0
10
19.35
20
-1.7875
30
0
40
2.807
210
0
220
0
230
1
100
AcDbArc
50
360
51
59.965127
0
ARC
5
E5
100
AcDbEntity
8
1
62
256
6
ByLayer
370
18
48
1
60
0
100
AcDbCircle
39
0
10
19.35
20
-1.7875
30
0
40
2.807
210
0
220
0
230
1
100
AcDbArc
50
59.965127
51
120.034873
0
ARC
5
E6
100
AcDbEntity
8
1
62
256
6
ByLayer
370
18
48
1
60
0
100
AcDbCircle
39
0
10
19.35
20
-1.7875
30
0
40
2.807
210
0
220
0
230
1
100
AcDbArc
50
180
51
239.965127
0
ARC
5
E7
100
AcDbEntity
8
1
62
256
6
ByLayer
370
18
48
1
60
0
100
AcDbCircle
39
0
10
19.35
20
-1.7875
30
0
40
2.0135
210
0
220
0
230
1
100
AcDbArc
50
268.140164
51
271.859836
0
CIRCLE
5
DD
100
AcDbEntity
8
1
62
256
6
ByLayer
370
18
48
1
60
0
100
AcDbCircle
10
-19.35
20
-1.7875
30
0
40
6.15
39
0
210
0
220
0
230
-1
0
CIRCLE
5
E0
100
AcDbEntity
8
1
62
256
6
ByLayer
370
18
48
1
60
0
100
AcDbCircle
10
-19.35
20
-1.7875
30
0
40
3
39
0
210
0
220
0
230
-1
0
CIRCLE
5
E3
100
AcDbEntity
8
1
62
256
6
ByLayer
370
18
48
1
60
0
100
AcDbCircle
10
-19.35
20
-1.7875
30
0
40
5.93
39
0
210
0
220
0
230
-1
0
CIRCLE
5
E8
100
AcDbEntity
8
1
62
256
6
ByLayer
370
18
48
1
60
0
100
AcDbCircle
10
19.35
20
-1.7875
30
0
40
5.13
39
0
210
0
220
0
230
1
0
ELLIPSE
5
E9
100
AcDbEntity
8
1
62
256
6
ByLayer
370
18
48
1
60
0
100
AcDbEllipse
10
46.990785
20
205.762499
30
0
11
-275.668268071517
21
6.45865028005835E-13
31
0
210
0
220
0
230
1
40
0.700208
41
1.52052259396683
42
1.56069994870128
0
ELLIPSE
5
EA
100
AcDbEntity
8
1
62
256
6
ByLayer
370
18
48
1
60
0
100
AcDbEllipse
10
-987.861972
20
84.446796
30
0
11
-6842.51475136949
21
13.6114954535178
31
0
210
0
220
0
230
1
40
0.011233
41
1.72065719484519
42
1.72219899436613
0
ELLIPSE
5
EB
100
AcDbEntity
8
1
62
256
6
ByLayer
370
18
48
1
60
0
100
AcDbEllipse
10
60.985846
20
205.7625
30
0
11
2.26119781345467E-13
21
193.024999952937
31
0
210
0
220
0
230
1
40
0.57735
41
2.97504209282466
42
3.056901940728
0
ELLIPSE
5
EC
100
AcDbEntity
8
1
62
256
6
ByLayer
370
18
48
1
60
0
100
AcDbEllipse
10
368.018634
20
83.845579
30
0
11
-2248.34231977847
21
-13.4911676382017
31
0
210
0
220
0
230
1
40
0.033925
41
1.41925234235154
42
1.42121084613289
0
ELLIPSE
5
ED
100
AcDbEntity
8
1
62
256
6
ByLayer
370
18
48
1
60
0
100
AcDbEllipse
10
46.990785
20
83.5625
30
0
11
-110.217322373419
21
2.58228901350984E-13
31
0
210
0
220
0
230
1
40
0.700208
41
1.44477465285544
42
1.54558690714096
0
POINT
5
6C
100
AcDbEntity
8
2
62
256
6
ByLayer
370
18
48
1
60
0
100
AcDbPoint
10
56
20
9.5625
30
0
39
0
210
0
220
0
230
1
50
360
0
POINT
5
6E
100
AcDbEntity
8
80
62
256
6
ByLayer
370
18
48
1
60
0
100
AcDbPoint
10
0
20
0
30
0
39
0
210
0
220
0
230
1
50
360
0
POINT
5
70
100
AcDbEntity
8
2
62
256
6
ByLayer
370
18
48
1
60
0
100
AcDbPoint
10
56
20
13.5625
30
0
39
0
210
0
220
0
230
1
50
360
0
POINT
5
71
100
AcDbEntity
8
81
62
256
6
ByLayer
370
18
48
1
60
0
100
AcDbPoint
10
56
20
13.5625
30
0
39
0
210
0
220
0
230
1
50
360
0
SPLINE
5
EE
100
AcDbEntity
8
1
62
256
6
ByLayer
370
18
48
1
60
0
100
AcDbSpline
70
4
71
3
72
10
73
6
40
0
40
0
40
0
40
0
40
0.52324494034785
40
0.52324494034785
40
1
40
1
40
1
40
1
41
1
10
27.0370946816108
20
5.98968662225812
30
0
41
1
10
26.937077586427
20
5.90078686127006
30
0
41
1
10
26.8476114797894
20
5.79845076043856
30
0
41
1
10
26.7047323376278
20
5.58626406765779
30
0
41
1
10
26.6478771864834
20
5.47652486166353
30
0
41
1
10
26.6045129306983
20
5.36249999999996
30
0
0
SPLINE
5
EF
100
AcDbEntity
8
1
62
256
6
ByLayer
370
18
48
1
60
0
100
AcDbSpline
70
4
71
3
72
8
73
4
40
0
40
0
40
0
40
0
40
1
40
1
40
1
40
1
41
1
10
29.0509697545922
20
6.40892843863966
30
0
41
1
10
28.7273166186387
20
6.4086631469078
30
0
41
1
10
28.4010289528671
20
6.4070041134716
30
0
41
1
10
28.1000000000172
20
6.40449796891897
30
0
0
SPLINE
5
F0
100
AcDbEntity
8
1
62
256
6
ByLayer
370
18
48
1
60
0
100
AcDbSpline
70
4
71
3
72
14
73
10
40
0
40
0
40
0
40
0
40
0.318667665032446
40
0.318667665032446
40
0.641052743242266
40
0.641052743242266
40
0.963329634378716
40
0.963329634378716
40
1
40
1
40
1
40
1
41
1
10
44.6274076487538
20
10.2767185456528
30
0
41
1
10
44.6146252158819
20
10.282395446647
30
0
41
1
10
44.602463342385
20
10.2908095984837
30
0
41
1
10
44.581227040761
20
10.3118739162791
30
0
41
1
10
44.5718982357197
20
10.324864533587
30
0
41
1
10
44.5574927537258
20
10.3534848290141
30
0
41
1
10
44.5522159951047
20
10.3695085962434
30
0
41
1
10
44.5489662155746
20
10.3878144588711
30
0
41
1
10
44.5486600147213
20
10.3897167490812
30
0
41
1
10
44.5483841899895
20
10.3916252121207
30
0
0
SPLINE
5
F1
100
AcDbEntity
8
1
62
256
6
ByLayer
370
18
48
1
60
0
100
AcDbSpline
70
4
71
3
72
16
73
12
40
0
40
0
40
0
40
0
40
0.148621920726715
40
0.148621920726715
40
0.365642230927467
40
0.365642230927467
40
0.582162076981639
40
0.582162076981639
40
0.797201882157161
40
0.797201882157161
40
1
40
1
40
1
40
1
41
1
10
26.5
20
5.38698832914488
30
0
41
1
10
26.5
20
5.51160037484749
30
0
41
1
10
26.5145246095814
20
5.63703024499657
30
0
41
1
10
26.5845592005607
20
5.93521969161941
30
0
41
1
10
26.6572222985882
20
6.10739011146504
30
0
41
1
10
26.852755669267
20
6.41316882748379
30
0
41
1
10
26.978243919652
20
6.55110802544931
30
0
41
1
10
27.2631970854331
20
6.77321730991943
30
0
41
1
10
27.426393858457
20
6.86081727328684
30
0
41
1
10
27.7582461225383
20
6.97155095099308
30
0
41
1
10
27.9301904422782
20
6.99951530765665
30
0
41
1
10
28.1
20
6.99951530765665
30
0
0
SPLINE
5
F2
100
AcDbEntity
8
1
62
256
6
ByLayer
370
18
48
1
60
0
100
AcDbSpline
70
4
71
3
72
14
73
10
40
0
40
0
40
0
40
0
40
0.275231833122484
40
0.275231833122484
40
0.551543765575155
40
0.551543765575155
40
0.827886295446645
40
0.827886295446645
40
1
40
1
40
1
40
1
41
1
10
44.8169482605624
20
10.0875
30
0
41
1
10
44.8169482605624
20
10.1042192300001
30
0
41
1
10
44.8145932901213
20
10.121167263407
30
0
41
1
10
44.8055430879792
20
10.1527973449468
30
0
41
1
10
44.7987055978184
20
10.1679062064607
30
0
41
1
10
44.7815556333881
20
10.1941498911049
30
0
41
1
10
44.7710063776004
20
10.2056461072382
30
0
41
1
10
44.7520394161212
20
10.220167463966
30
0
41
1
10
44.7441924993763
20
10.2248485700696
30
0
41
1
10
44.7360755866311
20
10.2284538931178
30
0
0
SPLINE
5
F3
100
AcDbEntity
8
1
62
256
6
ByLayer
370
18
48
1
60
0
100
AcDbSpline
70
4
71
3
72
8
73
4
40
0
40
0
40
0
40
0
40
1
40
1
40
1
40
1
41
1
10
44.6274076487538
20
8.84828145434707
30
0
41
1
10
44.6636305867856
20
8.86436869180687
30
0
41
1
10
44.6998531897832
20
8.8804570535294
30
0
41
1
10
44.7360755866311
20
8.89654610688206
30
0
0
SPLINE
5
F4
100
AcDbEntity
8
1
62
256
6
ByLayer
370
18
48
1
60
0
100
AcDbSpline
70
4
71
3
72
14
73
10
40
0
40
0
40
0
40
0
40
0.168783631127351
40
0.168783631127351
40
0.55331950964564
40
0.55331950964564
40
0.937621823033766
40
0.937621823033766
40
1
40
1
40
1
40
1
41
1
10
44.212564525901
20
6.41202163014461
30
0
41
1
10
44.2041388948619
20
6.41177136371454
30
0
41
1
10
44.19495126354
20
6.41153814751559
30
0
41
1
10
44.1629261868883
20
6.41084181886993
30
0
41
1
10
44.1370340480891
20
6.41045456561457
30
0
41
1
10
44.08222409007
20
6.40992174313334
30
0
41
1
10
44.0525520232983
20
6.40976840501287
30
0
41
1
10
44.018211223073
20
6.40973226744717
30
0
41
1
10
44.0133511816747
20
6.40973038156224
30
0
41
1
10
44.0084945356526
20
6.40973171907916
30
0
0
SPLINE
5
F5
100
AcDbEntity
8
1
62
256
6
ByLayer
370
18
48
1
60
0
100
AcDbSpline
70
4
71
3
72
14
73
10
40
0
40
0
40
0
40
0
40
0.273270095644523
40
0.273270095644523
40
0.549726943813334
40
0.549726943813334
40
0.826120673708493
40
0.826120673708493
40
1
40
1
40
1
40
1
41
1
10
44.7360755866311
20
8.89654610688206
30
0
41
1
10
44.7488540562711
20
8.90222197313318
30
0
41
1
10
44.7610120412531
20
8.91063433682947
30
0
41
1
10
44.7822412023169
20
8.93169372588326
30
0
41
1
10
44.7915666307355
20
8.94468100305539
30
0
41
1
10
44.805968422665
20
8.9732945688487
30
0
41
1
10
44.8112443677609
20
8.98931494805126
30
0
41
1
10
44.8160078121529
20
9.01613436388624
30
0
41
1
10
44.8169482605766
20
9.02684716098383
30
0
41
1
10
44.8169482605767
20
9.03749999999809
30
0
0
SPLINE
5
F6
100
AcDbEntity
8
1
62
256
6
ByLayer
370
18
48
1
60
0
100
AcDbSpline
70
4
71
3
72
10
73
6
40
0
40
0
40
0
40
0
40
0.478845395841548
40
0.478845395841548
40
1
40
1
40
1
40
1
41
1
10
44.5483841899895
20
10.3916252121207
30
0
41
1
10
44.4940392740558
20
10.7676439351971
30
0
41
1
10
44.4396864911114
20
11.1436609648976
30
0
41
1
10
44.3261262216948
20
11.9289073787183
30
0
41
1
10
44.266934630695
20
12.3381402231773
30
0
41
1
10
44.2075811930607
20
12.7473380966559
30
0
0
SPLINE
5
F7
100
AcDbEntity
8
1
62
256
6
ByLayer
370
18
48
1
60
0
100
AcDbSpline
70
4
71
3
72
14
73
10
40
0
40
0
40
0
40
0
40
0.320843958952925
40
0.320843958952925
40
0.642960195576483
40
0.642960195576483
40
0.965202726838008
40
0.965202726838008
40
1
40
1
40
1
40
1
41
1
10
44.5483841899895
20
8.73337478787926
30
0
41
1
10
44.5507636716331
20
8.7498386950144
30
0
41
1
10
44.5554952299975
20
8.76602825052797
30
0
41
1
10
44.5689095072304
20
8.79525623943226
30
0
41
1
10
44.5777931115872
20
8.80868464870923
30
0
41
1
10
44.5984185528158
20
8.83089631512081
30
0
41
1
10
44.610445772591
20
8.83998403352305
30
0
41
1
10
44.6245857360683
20
8.84699222785949
30
0
41
1
10
44.6259920791746
20
8.84765277525057
30
0
41
1
10
44.6274076487538
20
8.84828145434724
30
0
0
SPLINE
5
F8
100
AcDbEntity
8
1
62
256
6
ByLayer
370
18
48
1
60
0
100
AcDbSpline
70
4
71
3
72
10
73
6
40
0
40
0
40
0
40
0
40
0.418710382223501
40
0.418710382223501
40
1
40
1
40
1
40
1
41
1
10
44.212564525901
20
6.41202163014461
30
0
41
1
10
44.2595463931551
20
6.73598911036711
30
0
41
1
10
44.3064272785548
20
7.05997840972748
30
0
41
1
10
44.4183563133612
20
7.8337651416584
30
0
41
1
10
44.4833750304401
20
8.28356893682493
30
0
41
1
10
44.5483841899895
20
8.73337478787923
30
0
0
SPLINE
5
F9
100
AcDbEntity
8
1
62
256
6
ByLayer
370
18
48
1
60
0
100
AcDbSpline
70
4
71
3
72
8
73
4
40
0
40
0
40
0
40
0
40
1
40
1
40
1
40
1
41
1
10
44.7360755866311
20
10.2284538931178
30
0
41
1
10
44.699853186071
20
10.2445429481194
30
0
41
1
10
44.6636305824493
20
10.2606313101188
30
0
41
1
10
44.6274076487538
20
10.2767185456528
30
0
0
SPLINE
5
FA
100
AcDbEntity
8
1
62
256
6
ByLayer
370
18
48
1
60
0
100
AcDbSpline
70
4
71
3
72
8
73
4
40
0
40
0
40
0
40
0
40
1
40
1
40
1
40
1
41
1
10
33.5781350404229
20
6.41269664775257
30
0
41
1
10
33.5203141942595
20
6.4127135960606
30
0
41
1
10
33.462462568168
20
6.4126963556883
30
0
41
1
10
33.4046728504883
20
6.41264505875088
30
0
0
SPLINE
5
FB
100
AcDbEntity
8
1
62
256
6
ByLayer
370
18
48
1
60
0
100
AcDbSpline
70
4
71
3
72
10
73
6
40
0
40
0
40
0
40
0
40
0.617359473551376
40
0.617359473551376
40
1
40
1
40
1
40
1
41
1
10
27.0370946816109
20
5.98968662225809
30
0
41
1
10
27.20902209779
20
6.14430456851485
30
0
41
1
10
27.4157441270193
20
6.26377410540388
30
0
41
1
10
27.7876035396712
20
6.37800425301174
30
0
41
1
10
27.9422513993791
20
6.40318467067885
30
0
41
1
10
28.1000000000153
20
6.40449796892469
30
0
0
SPLINE
5
FC
100
AcDbEntity
8
1
62
256
6
ByLayer
370
18
48
1
60
0
100
AcDbSpline
70
4
71
3
72
18
73
14
40
0
40
0
40
0
40
0
40
0.181666908878583
40
0.181666908878583
40
0.360750617017816
40
0.360750617017816
40
0.541895453074694
40
0.541895453074694
40
0.695365105948643
40
0.695365105948643
40
0.891753383060548
40
0.891753383060548
40
1
40
1
40
1
40
1
41
1
10
20.9794641406544
20
-3.67330115627027
30
0
41
1
10
20.9526398265003
20
-3.57414846717251
30
0
41
1
10
20.9384602459352
20
-3.46877567552431
30
0
41
1
10
20.9403139531036
20
-3.25539333467694
30
0
41
1
10
20.9562426230037
20
-3.14489939684904
30
0
41
1
10
21.0211140051548
20
-2.92975418313478
30
0
41
1
10
21.0718441395718
20
-2.82191060048746
30
0
41
1
10
21.190504121791
20
-2.64534362558285
30
0
41
1
10
21.2559542246233
20
-2.57097335760727
30
0
41
1
10
21.4168403373044
20
-2.42772474887678
30
0
41
1
10
21.5179980746868
20
-2.36347049930851
30
0
41
1
10
21.6794511603026
20
-2.29097175513925
30
0
41
1
10
21.7385601350611
20
-2.27012362684187
30
0
41
1
10
21.7981683275964
20
-2.25426677947479
30
0
0
SPLINE
5
FD
100
AcDbEntity
8
1
62
256
6
ByLayer
370
18
48
1
60
0
100
AcDbSpline
70
4
71
3
72
14
73
10
40
0
40
0
40
0
40
0
40
0.220792708734965
40
0.220792708734965
40
0.514440208322327
40
0.514440208322327
40
0.779604980836353
40
0.779604980836353
40
1
40
1
40
1
40
1
41
1
10
21.7981683275969
20
-1.32073322052301
30
0
41
1
10
21.8400107170795
20
-1.33186404592266
30
0
41
1
10
21.881231568975
20
-1.34894075432371
30
0
41
1
10
21.9705520592615
20
-1.40169962464165
30
0
41
1
10
22.0178802128891
20
-1.44272399125143
30
0
41
1
10
22.0900923702315
20
-1.53592618819252
30
0
41
1
10
22.1177254137801
20
-1.58813462289012
30
0
41
1
10
22.1493875756904
20
-1.68940887790393
30
0
41
1
10
22.157
20
-1.73877461012435
30
0
41
1
10
22.157
20
-1.78750000000002
30
0
0
SPLINE
5
FE
100
AcDbEntity
8
1
62
256
6
ByLayer
370
18
48
1
60
0
100
AcDbSpline
70
4
71
3
72
14
73
10
40
0
40
0
40
0
40
0
40
0.21911646451238
40
0.21911646451238
40
0.51297121247558
40
0.51297121247558
40
0.77831862025342
40
0.77831862025342
40
1
40
1
40
1
40
1
41
1
10
20.9794641406561
20
-3.67330115626976
30
0
41
1
10
20.9906856982875
20
-3.71478022666193
30
0
41
1
10
20.9965313764369
20
-3.75865699190186
30
0
41
1
10
20.9957856818418
20
-3.86207005827669
30
0
41
1
10
20.9840791649932
20
-3.92362818189932
30
0
41
1
10
20.9397280800638
20
-4.03293056745176
30
0
41
1
10
20.9084392425725
20
-4.08306908424058
30
0
41
1
10
20.836542375328
20
-4.16152313228503
30
0
41
1
10
20.7974070376034
20
-4.19304852466021
30
0
41
1
10
20.7549793192102
20
-4.21757862271815
30
0
0
SPLINE
5
FF
100
AcDbEntity
8
1
62
256
6
ByLayer
370
18
48
1
60
0
100
AcDbSpline
70
4
71
3
72
16
73
12
40
0
40
0
40
0
40
0
40
0.191836824669075
40
0.191836824669075
40
0.488625600663344
40
0.488625600663344
40
0.756617127620166
40
0.756617127620166
40
0.994885626449979
40
0.994885626449979
40
1
40
1
40
1
40
1
41
1
10
18.5295681283731
20
-4.13970299943469
30
0
41
1
10
18.5030027275395
20
-4.16646555729611
30
0
41
1
10
18.4728056370948
20
-4.19055178945973
30
0
41
1
10
18.3891024511949
20
-4.24204558350968
30
0
41
1
10
18.3302375601686
20
-4.26484546133054
30
0
41
1
10
18.2130856505552
20
-4.28500871675163
30
0
41
1
10
18.1534692409385
20
-4.28481951312466
30
0
41
1
10
18.0448627470954
20
-4.2640486102037
30
0
41
1
10
17.9938796455354
20
-4.24537720174842
30
0
41
1
10
17.9470150634089
20
-4.21872694932952
30
0
41
1
10
17.9460168391091
20
-4.21815456368736
30
0
41
1
10
17.9450206807898
20
-4.21757862271815
30
0
0
SPLINE
5
100
100
AcDbEntity
8
1
62
256
6
ByLayer
370
18
48
1
60
0
100
AcDbSpline
70
4
71
3
72
18
73
14
40
0
40
0
40
0
40
0
40
0.181612675763437
40
0.181612675763437
40
0.360704962161447
40
0.360704962161447
40
0.541858957768575
40
0.541858957768575
40
0.695330353238803
40
0.695330353238803
40
0.891708592214999
40
0.891708592214999
40
1
40
1
40
1
40
1
41
1
10
16.9018316724035
20
-2.25426677947544
30
0
41
1
10
17.0010678212246
20
-2.28066537333018
30
0
41
1
10
17.0993599974145
20
-2.32111577534701
30
0
41
1
10
17.283146016433
20
-2.42949477659587
30
0
41
1
10
17.3708390147032
20
-2.49858584381442
30
0
41
1
10
17.5246433194004
20
-2.66242921541553
30
0
41
1
10
17.5926240182454
20
-2.76032719766536
30
0
41
1
10
17.6861034266653
20
-2.95143345870596
30
0
41
1
10
17.7177334532225
20
-3.04532048911804
30
0
41
1
10
17.7612284804202
20
-3.25629952004525
30
0
41
1
10
17.7662285845804
20
-3.37603091949254
30
0
41
1
10
17.7481886242894
20
-3.55211127081239
30
0
41
1
10
17.7366492612541
20
-3.61374000139844
30
0
41
1
10
17.7205358593463
20
-3.67330115627053
30
0
0
SPLINE
5
101
100
AcDbEntity
8
1
62
256
6
ByLayer
370
18
48
1
60
0
100
AcDbSpline
70
4
71
3
72
18
73
14
40
0
40
0
40
0
40
0
40
0.0173285944903534
40
0.0173285944903534
40
0.239841647765361
40
0.239841647765361
40
0.462510527753937
40
0.462510527753937
40
0.697478079776721
40
0.697478079776721
40
0.954392202348371
40
0.954392202348371
40
1
40
1
40
1
40
1
41
1
10
17.9450206807898
20
0.642578622718105
30
0
41
1
10
17.9483773076036
20
0.644519297069763
30
0
41
1
10
17.9517576061862
20
0.646419717877706
30
0
41
1
10
17.9983242480798
20
0.671866740769957
30
0
41
1
10
18.0457449432696
20
0.688937159219478
30
0
41
1
10
18.1412016837082
20
0.707739046875616
30
0
41
1
10
18.1904528627447
20
0.709735141252054
30
0
41
1
10
18.2872012098167
20
0.69951338812055
30
0
41
1
10
18.3356698281874
20
0.686426908559753
30
0
41
1
10
18.4280129849237
20
0.6461705463839
30
0
41
1
10
18.4722176447067
20
0.617348378604873
30
0
41
1
10
18.5166419676245
20
0.577365196931311
30
0
41
1
10
18.5232044293723
20
0.571113927077903
30
0
41
1
10
18.5295681283699
20
0.564702999431688
30
0
0
SPLINE
5
102
100
AcDbEntity
8
1
62
256
6
ByLayer
370
18
48
1
60
0
100
AcDbSpline
70
4
71
3
72
12
73
8
40
0
40
0
40
0
40
0
40
0.368706056448697
40
0.368706056448697
40
0.737980850848006
40
0.737980850848006
40
1
40
1
40
1
40
1
41
1
10
19.4153472699774
20
-3.79993931195617
30
0
41
1
10
19.5244901215341
20
-3.80611890558373
30
0
41
1
10
19.6333517440413
20
-3.82842679306162
30
0
41
1
10
19.8325096312106
20
-3.89828731098859
30
0
41
1
10
19.9255727775013
20
-3.94655397434298
30
0
41
1
10
20.0670109423506
20
-4.04449503329698
30
0
41
1
10
20.1213385199131
20
-4.09024529788354
30
0
41
1
10
20.1704318716301
20
-4.13970299943173
30
0
0
SPLINE
5
103
100
AcDbEntity
8
1
62
256
6
ByLayer
370
18
48
1
60
0
100
AcDbSpline
70
4
71
3
72
18
73
14
40
0
40
0
40
0
40
0
40
0.18175277145018
40
0.18175277145018
40
0.360818406833419
40
0.360818406833419
40
0.541944163041264
40
0.541944163041264
40
0.695407615755981
40
0.695407615755981
40
0.891808268956465
40
0.891808268956465
40
1
40
1
40
1
40
1
41
1
10
21.7981683275965
20
-1.32073322052457
30
0
41
1
10
21.6988559553603
20
-1.29431434987555
30
0
41
1
10
21.6004880467831
20
-1.25382153935203
30
0
41
1
10
21.4166603201379
20
-1.14536440626026
30
0
41
1
10
21.3289907291675
20
-1.07626294022691
30
0
41
1
10
21.1752354772816
20
-0.912411253084628
30
0
41
1
10
21.1072814826209
20
-0.814516504907061
30
0
41
1
10
21.0138398120849
20
-0.623418984475222
30
0
41
1
10
20.9822248539707
20
-0.529535084038059
30
0
41
1
10
20.938755204354
20
-0.318547444343921
30
0
41
1
10
20.9337711326442
20
-0.198805534186477
30
0
41
1
10
20.9518323112013
20
-0.0227768627445357
30
0
41
1
10
20.9633653362174
20
0.0387939591079487
30
0
41
1
10
20.9794641406537
20
0.0983011562704803
30
0
0
SPLINE
5
104
100
AcDbEntity
8
1
62
256
6
ByLayer
370
18
48
1
60
0
100
AcDbSpline
70
4
71
3
72
18
73
14
40
0
40
0
40
0
40
0
40
0.0150229386922736
40
0.0150229386922736
40
0.237604440562207
40
0.237604440562207
40
0.460204731428097
40
0.460204731428097
40
0.694992075280023
40
0.694992075280023
40
0.951641525778754
40
0.951641525778754
40
1
40
1
40
1
40
1
41
1
10
20.7549793192102
20
-4.21757862271815
30
0
41
1
10
20.7520684199845
20
-4.21926159427892
30
0
41
1
10
20.7491397490837
20
-4.22091427740776
30
0
41
1
10
20.7030920682664
20
-4.24626927600065
30
0
41
1
10
20.6557039074632
20
-4.26349741410897
30
0
41
1
10
20.5602851564218
20
-4.28259608581951
30
0
41
1
10
20.5110399513397
20
-4.28474434006006
30
0
41
1
10
20.4142792924752
20
-4.27482177643702
30
0
41
1
10
20.3657874551504
20
-4.26189222325138
30
0
41
1
10
20.2733624353174
20
-4.22195027104473
30
0
41
1
10
20.2290914112967
20
-4.19329166347043
30
0
41
1
10
20.1841477224758
20
-4.15311616080783
30
0
41
1
10
20.1771780297028
20
-4.14649922460049
30
0
41
1
10
20.1704318716301
20
-4.13970299943173
30
0
0
SPLINE
5
105
100
AcDbEntity
8
1
62
256
6
ByLayer
370
18
48
1
60
0
100
AcDbSpline
70
4
71
3
72
18
73
14
40
0
40
0
40
0
40
0
40
0.0157923844670974
40
0.0157923844670974
40
0.238811095461871
40
0.238811095461871
40
0.461892552251098
40
0.461892552251098
40
0.697221985203075
40
0.697221985203075
40
0.954485725072622
40
0.954485725072622
40
1
40
1
40
1
40
1
41
1
10
16.543
20
-1.78749999999999
30
0
41
1
10
16.543
20
-1.78397300960432
30
0
41
1
10
16.5430386392404
20
-1.78044575937864
30
0
41
1
10
16.5441936182627
20
-1.7277320617186
30
0
41
1
10
16.5530467858234
20
-1.67810019675372
30
0
41
1
10
16.584360559074
20
-1.58597171024257
30
0
41
1
10
16.6071923964691
20
-1.54228651046841
30
0
41
1
10
16.6642947244229
20
-1.46353650319034
30
0
41
1
10
16.6997993013223
20
-1.42805918657737
30
0
41
1
10
16.7807130359747
20
-1.36810979658
30
0
41
1
10
16.8277169007501
20
-1.34417232751787
30
0
41
1
10
16.8844720689919
20
-1.32561173398528
30
0
41
1
10
16.8931323638085
20
-1.32304739249861
30
0
41
1
10
16.9018316724035
20
-1.32073322052457
30
0
0
SPLINE
5
106
100
AcDbEntity
8
1
62
256
6
ByLayer
370
18
48
1
60
0
100
AcDbSpline
70
4
71
3
72
14
73
10
40
0
40
0
40
0
40
0
40
0.22241165527065
40
0.22241165527065
40
0.5158588244537
40
0.5158588244537
40
0.780847480391327
40
0.780847480391327
40
1
40
1
40
1
40
1
41
1
10
17.7205358593442
20
0.0983011562698266
30
0
41
1
10
17.7091462249202
20
0.140401501296225
30
0
41
1
10
17.7032956435497
20
0.184979147143025
30
0
41
1
10
17.7044780289879
20
0.289022487130126
30
0
41
1
10
17.7164205388668
20
0.350479348433169
30
0
41
1
10
17.7611484449685
20
0.459512788944693
30
0
41
1
10
17.7925904447841
20
0.50948549228454
30
0
41
1
10
17.8643498449848
20
0.587246056355013
30
0
41
1
10
17.9030748695198
20
0.618327145086511
30
0
41
1
10
17.9450206807898
20
0.642578622718105
30
0
0
SPLINE
5
107
100
AcDbEntity
8
1
62
256
6
ByLayer
370
18
48
1
60
0
100
AcDbSpline
70
4
71
3
72
16
73
12
40
0
40
0
40
0
40
0
40
0.191930281182739
40
0.191930281182739
40
0.488707775608025
40
0.488707775608025
40
0.756688906725717
40
0.756688906725717
40
0.994950483060319
40
0.994950483060319
40
1
40
1
40
1
40
1
41
1
10
20.1704318716269
20
0.564702999434644
30
0
41
1
10
20.1970101552166
20
0.591478535662532
30
0
41
1
10
20.22722378362
20
0.615575212543547
30
0
41
1
10
20.310948268476
20
0.66706857952525
30
0
41
1
10
20.3698143864777
20
0.689861268016386
30
0
41
1
10
20.486965618469
20
0.710011329961645
30
0
41
1
10
20.5465803486937
20
0.709815893226988
30
0
41
1
10
20.6551819835097
20
0.689034824048946
30
0
41
1
10
20.7061620099742
20
0.670359008505358
30
0
41
1
10
20.7530102361109
20
0.643712441728297
30
0
41
1
10
20.7539957845871
20
0.643147265144847
30
0
41
1
10
20.7549793192102
20
0.642578622718105
30
0
0
SPLINE
5
108
100
AcDbEntity
8
1
62
256
6
ByLayer
370
18
48
1
60
0
100
AcDbSpline
70
4
71
3
72
14
73
10
40
0
40
0
40
0
40
0
40
0.220170037959094
40
0.220170037959094
40
0.513894544314518
40
0.513894544314518
40
0.779127126142474
40
0.779127126142474
40
1
40
1
40
1
40
1
41
1
10
16.901831672403
20
-2.25426677947706
30
0
41
1
10
16.860106814132
20
-2.24316721948583
30
0
41
1
10
16.8190010815935
20
-2.2261559514449
30
0
41
1
10
16.7297424597143
20
-2.1735280644165
30
0
41
1
10
16.6823754340564
20
-2.13253274460891
30
0
41
1
10
16.6100836522094
20
-2.03936678937285
30
0
41
1
10
16.5824089980939
20
-1.98716774306223
30
0
41
1
10
16.5506463360883
20
-1.88580545752708
30
0
41
1
10
16.543
20
-1.83633057495888
30
0
41
1
10
16.543
20
-1.78749999999999
30
0
0
SPLINE
5
109
100
AcDbEntity
8
1
62
256
6
ByLayer
370
18
48
1
60
0
100
AcDbSpline
70
4
71
3
72
12
73
8
40
0
40
0
40
0
40
0
40
0.368706056538511
40
0.368706056538511
40
0.73798085095237
40
0.73798085095237
40
1
40
1
40
1
40
1
41
1
10
19.2846527300226
20
0.22493931195612
30
0
41
1
10
19.1755098784395
20
0.231118905585191
30
0
41
1
10
19.0666482559058
20
0.253426793072634
30
0
41
1
10
18.8674903687158
20
0.323287311021914
30
0
41
1
10
18.7744272224264
20
0.371553974384028
30
0
41
1
10
18.6329890576063
20
0.469495033333288
30
0
41
1
10
18.5786614800674
20
0.515245297903107
30
0
41
1
10
18.5295681283699
20
0.564702999431688
30
0
0
SPLINE
5
10A
100
AcDbEntity
8
1
62
256
6
ByLayer
370
18
48
1
60
0
100
AcDbSpline
70
4
71
3
72
18
73
14
40
0
40
0
40
0
40
0
40
0.0162289153285311
40
0.0162289153285311
40
0.239234459040962
40
0.239234459040962
40
0.462328698874886
40
0.462328698874886
40
0.69769204226341
40
0.69769204226341
40
0.955005672045977
40
0.955005672045977
40
1
40
1
40
1
40
1
41
1
10
22.157
20
-1.78750000000002
30
0
41
1
10
22.157
20
-1.7911242766896
30
0
41
1
10
22.1569591993612
20
-1.79474883530307
30
0
41
1
10
22.1557702435972
20
-1.84755613662631
30
0
41
1
10
22.1468881961843
20
-1.89717841093054
30
0
41
1
10
22.1155222788133
20
-1.98928505035804
30
0
41
1
10
22.0926649850557
20
-2.03295684093084
30
0
41
1
10
22.0355148789301
20
-2.11167654838647
30
0
41
1
10
21.999986827069
20
-2.14713523175593
30
0
41
1
10
21.9190294001722
20
-2.20704151022926
30
0
41
1
10
21.8720050535463
20
-2.23095266341227
30
0
41
1
10
21.8153304916667
20
-2.24944669661605
30
0
41
1
10
21.8067684906715
20
-2.25197898198638
30
0
41
1
10
21.7981683275966
20
-2.25426677947547
30
0
0
SPLINE
5
10B
100
AcDbEntity
8
1
62
256
6
ByLayer
370
18
48
1
60
0
100
AcDbSpline
70
4
71
3
72
16
73
12
40
0
40
0
40
0
40
0
40
0.218620732637229
40
0.218620732637229
40
0.441132096326283
40
0.441132096326283
40
0.674870839126926
40
0.674870839126926
40
0.929765351321896
40
0.929765351321896
40
1
40
1
40
1
40
1
41
1
10
20.7549793192102
20
0.642578622718105
30
0
41
1
10
20.7967322838594
20
0.618438641690602
30
0
41
1
10
20.8352928941211
20
0.587534739062932
30
0
41
1
10
20.9007677451595
20
0.516781678009409
30
0
41
1
10
20.9283171189502
20
0.47589172849635
30
0
41
1
10
20.9702916326038
20
0.38831040406987
30
0
41
1
10
20.9845563198091
20
0.340352480276579
30
0
41
1
10
20.9987611977979
20
0.241101736340482
30
0
41
1
10
20.9975238514805
20
0.188664361151467
30
0
41
1
10
20.9861524490117
20
0.125317354032489
30
0
41
1
10
20.9830886103785
20
0.111698550799474
30
0
41
1
10
20.9794641406544
20
0.0983011562701961
30
0
0
SPLINE
5
10C
100
AcDbEntity
8
1
62
256
6
ByLayer
370
18
48
1
60
0
100
AcDbSpline
70
4
71
3
72
16
73
12
40
0
40
0
40
0
40
0
40
0.218557773056328
40
0.218557773056328
40
0.44106747367926
40
0.44106747367926
40
0.674801337484702
40
0.674801337484702
40
0.929688497508495
40
0.929688497508495
40
1
40
1
40
1
40
1
41
1
10
17.9450206807898
20
-4.21757862271815
30
0
41
1
10
17.9032797321598
20
-4.19344558889728
30
0
41
1
10
17.8647293704485
20
-4.16255271493347
30
0
41
1
10
17.7992576027249
20
-4.09181526405305
30
0
41
1
10
17.771704634642
20
-4.05092765533792
30
0
41
1
10
17.7297227484991
20
-3.96335034464752
30
0
41
1
10
17.7154539696446
20
-3.91539412670264
30
0
41
1
10
17.7012404187867
20
-3.81614597406599
30
0
41
1
10
17.7024729202592
20
-3.76370939041058
30
0
41
1
10
17.7138408712732
20
-3.70034705411229
30
0
41
1
10
17.7169074392227
20
-3.68671315294967
30
0
41
1
10
17.7205358593456
20
-3.67330115627024
30
0
0
SPLINE
5
10D
100
AcDbEntity
8
1
62
256
6
ByLayer
370
18
48
1
60
0
100
AcDbSpline
70
4
71
3
72
18
73
14
40
0
40
0
40
0
40
0
40
0.181347322288266
40
0.181347322288266
40
0.360491893295299
40
0.360491893295299
40
0.54170121550288
40
0.54170121550288
40
0.695189055143496
40
0.695189055143496
40
0.891526265458829
40
0.891526265458829
40
1
40
1
40
1
40
1
41
1
10
17.7205358593457
20
0.0983011562702245
30
0
41
1
10
17.7473131816822
20
-0.0006778335097124
30
0
41
1
10
17.7614899989259
20
-0.105852656304592
30
0
41
1
10
17.7597428781363
20
-0.319063412424328
30
0
41
1
10
17.7438614825797
20
-0.429591707303814
30
0
41
1
10
17.6790625518665
20
-0.644824307843891
30
0
41
1
10
17.6283565316106
20
-0.752724327479825
30
0
41
1
10
17.509722370224
20
-0.929375831576237
30
0
41
1
10
17.4442832783193
20
-1.00377944229302
30
0
41
1
10
17.2834431085831
20
-1.1470683332407
30
0
41
1
10
17.1823244174428
20
-1.21134222717427
30
0
41
1
10
17.0207935514181
20
-1.2839418767044
30
0
41
1
10
16.961563034439
20
-1.30484360786403
30
0
41
1
10
16.9018316724036
20
-1.32073322052526
30
0
0
SPLINE
5
10E
100
AcDbEntity
8
1
62
256
6
ByLayer
370
18
48
1
60
0
100
AcDbSpline
70
4
71
3
72
12
73
8
40
0
40
0
40
0
40
0
40
0.455353062347087
40
0.455353062347087
40
0.827333545906255
40
0.827333545906255
40
1
40
1
40
1
40
1
41
1
10
18.5295681283698
20
-4.13970299943173
30
0
41
1
10
18.6141721268345
20
-4.05447110632392
30
0
41
1
10
18.7150921540688
20
-3.97977181937446
30
0
41
1
10
18.9207068254726
20
-3.87576419992246
30
0
41
1
10
19.0237682964852
20
-3.83971835810533
30
0
41
1
10
19.1812413972467
20
-3.80932915672517
30
0
41
1
10
19.232860250395
20
-3.80287176673903
30
0
41
1
10
19.2846527300225
20
-3.79993931195617
30
0
0
SPLINE
5
10F
100
AcDbEntity
8
1
62
256
6
ByLayer
370
18
48
1
60
0
100
AcDbSpline
70
4
71
3
72
12
73
8
40
0
40
0
40
0
40
0
40
0.455353062346786
40
0.455353062346786
40
0.827333545905708
40
0.827333545905708
40
1
40
1
40
1
40
1
41
1
10
20.1704318716302
20
0.564702999431717
30
0
41
1
10
20.0858278731656
20
0.479471106323899
30
0
41
1
10
19.9849078459312
20
0.404771819374446
30
0
41
1
10
19.7792931745274
20
0.300764199922412
30
0
41
1
10
19.6762317035148
20
0.264718358105284
30
0
41
1
10
19.5187586027534
20
0.234329156725153
30
0
41
1
10
19.467139749605
20
0.227871766738986
30
0
41
1
10
19.4153472699774
20
0.22493931195612
30
0
0
SPLINE
5
110
100
AcDbEntity
8
1
62
256
6
ByLayer
370
18
48
1
60
0
100
AcDbSpline
70
4
71
5
72
12
73
6
40
0
40
0
40
0
40
0
40
0
40
0
40
1
40
1
40
1
40
1
40
1
40
1
41
1
10
26.7028107671543
20
5.54343327490585
30
0
41
1
10
26.7290854712508
20
5.5402202201652
30
0
41
1
10
26.7554925340816
20
5.53809308312464
30
0
41
1
10
26.7819712042918
20
5.53705816538806
30
0
41
1
10
26.8084596441238
20
5.53711612539504
30
0
41
1
10
26.8348955099
20
5.53826142272996
30
0
0
SPLINE
5
111
100
AcDbEntity
8
1
62
256
6
ByLayer
370
18
48
1
60
0
100
AcDbSpline
70
4
71
5
72
12
73
6
40
0
40
0
40
0
40
0
40
0
40
0
40
1
40
1
40
1
40
1
40
1
40
1
41
1
10
26.0249613319278
20
12.9857825177098
30
0
41
1
10
26.0790296485981
20
13.1972285879282
30
0
41
1
10
26.2052229844011
20
13.3902084146199
30
0
41
1
10
26.3953919484097
20
13.5317066860962
30
0
41
1
10
26.6169307393034
20
13.5961815996013
30
0
41
1
10
26.8348955099
20
13.58673857727
30
0
0
SPLINE
5
112
100
AcDbEntity
8
1
62
256
6
ByLayer
370
18
48
1
60
0
100
AcDbSpline
70
4
71
11
72
24
73
12
40
0
40
0
40
0
40
0
40
0
40
0
40
0
40
0
40
0
40
0
40
0
40
0
40
1
40
1
40
1
40
1
40
1
40
1
40
1
40
1
40
1
40
1
40
1
40
1
41
1
10
32.95110689109
20
13.31969902133
30
0
41
1
10
32.9598252315801
20
13.31931837037
30
0
41
1
10
32.96852530194
20
13.31851926908
30
0
41
1
10
32.97718478664
20
13.31730269182
30
0
41
1
10
32.98578142845
20
13.31567095177
30
0
41
1
10
32.9942931203
20
13.31362769695
30
0
41
1
10
33.00269799687
20
13.31117789884
30
0
41
1
10
33.01097452502
20
13.3083278338
30
0
41
1
10
33.01910159254
20
13.30508505709
30
0
41
1
10
33.02705859446
20
13.30145837013
30
0
41
1
10
33.0348255163
20
13.29745778084
30
0
41
1
10
33.04238301365
20
13.29309445771
30
0
0
SPLINE
5
113
100
AcDbEntity
8
1
62
256
6
ByLayer
370
18
48
1
60
0
100
AcDbSpline
70
4
71
11
72
24
73
12
40
0
40
0
40
0
40
0
40
0
40
0
40
0
40
0
40
0
40
0
40
0
40
0
40
1
40
1
40
1
40
1
40
1
40
1
40
1
40
1
40
1
40
1
40
1
40
1
41
1
10
32.95110689109
20
5.80530097866998
30
0
41
1
10
32.9598252315801
20
5.80568162962996
30
0
41
1
10
32.96852530194
20
5.80648073091996
30
0
41
1
10
32.97718478664
20
5.80769730817997
30
0
41
1
10
32.98578142845
20
5.80932904822996
30
0
41
1
10
32.9942931203
20
5.81137230304998
30
0
41
1
10
33.00269799687
20
5.81382210115996
30
0
41
1
10
33.01097452502
20
5.81667216619997
30
0
41
1
10
33.01910159254
20
5.81991494290997
30
0
41
1
10
33.02705859446
20
5.82354162986996
30
0
41
1
10
33.0348255163
20
5.82754221915997
30
0
41
1
10
33.04238301365
20
5.83190554228997
30
0
0
SPLINE
5
114
100
AcDbEntity
8
1
62
256
6
ByLayer
370
18
48
1
60
0
100
AcDbSpline
70
4
71
11
72
24
73
12
40
0
40
0
40
0
40
0
40
0
40
0
40
0
40
0
40
0
40
0
40
0
40
0
40
1
40
1
40
1
40
1
40
1
40
1
40
1
40
1
40
1
40
1
40
1
40
1
41
1
10
33.74178433043
20
6.23570508075997
30
0
41
1
10
33.75002887305
20
6.24046506965996
30
0
41
1
10
33.7585226479301
20
6.24479337517997
30
0
41
1
10
33.7672405409701
20
6.24867549773998
30
0
41
1
10
33.77615648889
20
6.25209858133996
30
0
41
1
10
33.78524360229
20
6.25505148463998
30
0
41
1
10
33.7944742948401
20
6.25752484127997
30
0
41
1
10
33.80382041754
20
6.25951110872995
30
0
41
1
10
33.81325339678
20
6.26100460534997
30
0
41
1
10
33.82274437503
20
6.26200153509996
30
0
41
1
10
33.83226435276
20
6.26249999996998
30
0
41
1
10
33.84178433049
20
6.26249999995997
30
0
0
SPLINE
5
115
100
AcDbEntity
8
1
62
256
6
ByLayer
370
18
48
1
60
0
100
AcDbSpline
70
4
71
5
72
12
73
6
40
0
40
0
40
0
40
0
40
0
40
0
40
1
40
1
40
1
40
1
40
1
40
1
41
1
10
46.94285699163
20
9.83250073604395
30
0
41
1
10
46.9428261726169
20
9.87081142030084
30
0
41
1
10
46.9415985886776
20
9.90912971687058
30
0
41
1
10
46.9387793601911
20
9.94733823440012
30
0
41
1
10
46.934846030195
20
9.98538917742962
30
0
41
1
10
46.9295212005386
20
10.0231636600114
30
0
0
SPLINE
5
116
100
AcDbEntity
8
1
62
256
6
ByLayer
370
18
48
1
60
0
100
AcDbSpline
70
4
71
3
72
16
73
12
40
0
40
0
40
0
40
0
40
0.0040051937034572
40
0.0081233336125099
40
0.0162581606211207
40
0.0321730544214016
40
0.0629558962209249
40
0.122666009016088
40
0.243856595800663
40
0.494523961324319
40
1
40
1
40
1
40
1
41
1
10
46.9295211895394
20
10.0232355869719
30
0
41
1
10
46.929386329952
20
10.0238581257406
30
0
41
1
10
46.9291128077453
20
10.0251207588313
30
0
41
1
10
46.9285584739815
20
10.0276439492963
30
0
41
1
10
46.927509611606
20
10.0319905473678
30
0
41
1
10
46.9251719226103
20
10.040354686552
30
0
41
1
10
46.9194740991099
20
10.0561386648785
30
0
41
1
10
46.9038030451437
20
10.0853012419223
30
0
41
1
10
46.859631635247
20
10.1345512501411
30
0
41
1
10
46.7483970705723
20
10.203844725595
30
0
41
1
10
46.6413097707737
20
10.2256392914643
30
0
41
1
10
46.5697227361
20
10.2402087907934
30
0
0
SPLINE
5
117
100
AcDbEntity
8
1
62
256
6
ByLayer
370
18
48
1
60
0
100
AcDbSpline
70
4
71
5
72
12
73
6
40
0
40
0
40
0
40
0
40
0
40
0
40
1
40
1
40
1
40
1
40
1
40
1
41
1
10
46.35791328442
20
8.82941464824094
30
0
41
1
10
46.39991139387
20
8.84241928199796
30
0
41
1
10
46.44210329739
20
8.85443647490396
30
0
41
1
10
46.48446695877
20
8.86548915461296
30
0
41
1
10
46.5269797832
20
8.87559468517895
30
0
41
1
10
46.56961955257
20
8.88476747633194
30
0
0
SPLINE
5
118
100
AcDbEntity
8
1
62
256
6
ByLayer
370
18
48
1
60
0
100
AcDbSpline
70
4
71
5
72
12
73
6
40
0
40
0
40
0
40
0
40
0
40
0
40
1
40
1
40
1
40
1
40
1
40
1
41
1
10
46.35791328426
20
8.79861243651294
30
0
41
1
10
46.35791328432
20
8.80674084910396
30
0
41
1
10
46.35791328444
20
8.81404377848597
30
0
41
1
10
46.35791328435
20
8.82034060275495
30
0
41
1
10
46.3579132843701
20
8.82549121796296
30
0
41
1
10
46.35791328443
20
8.82941465063695
30
0
0
SPLINE
5
119
100
AcDbEntity
8
1
62
256
6
ByLayer
370
18
48
1
60
0
100
AcDbSpline
70
4
71
5
72
12
73
6
40
0
40
0
40
0
40
0
40
0
40
0
40
1
40
1
40
1
40
1
40
1
40
1
41
1
10
46.2553276268
20
8.66256616653195
30
0
41
1
10
46.25532762618
20
8.67220848451595
30
0
41
1
10
46.25532762758
20
8.68164250545294
30
0
41
1
10
46.25532762618
20
8.69067592520494
30
0
41
1
10
46.25532762708
20
8.69912493343395
30
0
41
1
10
46.2553276268901
20
8.70683511380395
30
0
0
SPLINE
5
11A
100
AcDbEntity
8
1
62
256
6
ByLayer
370
18
48
1
60
0
100
AcDbSpline
70
4
71
5
72
12
73
6
40
0
40
0
40
0
40
0
40
0
40
0
40
1
40
1
40
1
40
1
40
1
40
1
41
1
10
46.0084088156939
20
7.43616977372201
30
0
41
1
10
46.4290864162249
20
7.43610541665964
30
0
41
1
10
46.8497640173467
20
7.43604670945589
30
0
41
1
10
47.2704416186877
20
7.43599155316352
30
0
41
1
10
47.6911192202472
20
7.43593945802419
30
0
41
1
10
48.1117968220411
20
7.43588995264872
30
0
0
SPLINE
5
11B
100
AcDbEntity
8
1
62
256
6
ByLayer
370
18
48
1
60
0
100
AcDbSpline
70
4
71
2
72
6
73
3
40
0
40
0
40
0
40
1
40
1
40
1
41
1
10
48.1117947579409
20
7.43669637645101
30
0
41
1
10
48.0447684892365
20
7.52784964273289
30
0
41
1
10
47.9601210950061
20
7.61126830259994
30
0
0
SPLINE
5
11C
100
AcDbEntity
8
1
62
256
6
ByLayer
370
18
48
1
60
0
100
AcDbSpline
70
4
71
5
72
12
73
6
40
0
40
0
40
0
40
0
40
0
40
0
40
1
40
1
40
1
40
1
40
1
40
1
41
1
10
46.62697719621
20
8.78864130673594
30
0
41
1
10
46.58435023177
20
8.78008260976196
30
0
41
1
10
46.54184577374
20
8.77065298368495
30
0
41
1
10
46.49948305591
20
8.76033809840794
30
0
41
1
10
46.4572832651
20
8.74912043705194
30
0
41
1
10
46.4152709283601
20
8.73697866723694
30
0
0
SPLINE
5
11D
100
AcDbEntity
8
1
62
256
6
ByLayer
370
18
48
1
60
0
100
AcDbSpline
70
4
71
5
72
12
73
6
40
0
40
0
40
0
40
0
40
0
40
0
40
1
40
1
40
1
40
1
40
1
40
1
41
1
10
45.9510991586901
20
7.45446215132995
30
0
41
1
10
45.93679778226
20
7.39754373540995
30
0
41
1
10
45.9088851445401
20
7.34336408800996
30
0
41
1
10
45.87162932108
20
7.29498225617996
30
0
41
1
10
45.8286349824
20
7.25138633843994
30
0
41
1
10
45.78117848899
20
7.21240067764995
30
0
0
SPLINE
5
11E
100
AcDbEntity
8
1
62
256
6
ByLayer
370
18
48
1
60
0
100
AcDbSpline
70
4
71
5
72
12
73
6
40
0
40
0
40
0
40
0
40
0
40
0
40
1
40
1
40
1
40
1
40
1
40
1
41
1
10
45.78118719384
20
7.21239040981996
30
0
41
1
10
45.7927188692
20
7.19878578230995
30
0
41
1
10
45.80425075487
20
7.18447839689995
30
0
41
1
10
45.8150033301
20
7.17038588207996
30
0
41
1
10
45.82420425165
20
7.15752050310996
30
0
41
1
10
45.8313745660701
20
7.14661396424995
30
0
0
SPLINE
5
11F
100
AcDbEntity
8
1
62
256
6
ByLayer
370
18
48
1
60
0
100
AcDbSpline
70
4
71
5
72
12
73
6
40
0
40
0
40
0
40
0
40
0
40
0
40
1
40
1
40
1
40
1
40
1
40
1
41
1
10
45.83136632335
20
7.14662370902997
30
0
41
1
10
45.8812653420521
20
7.19337411094398
30
0
41
1
10
45.9263392270178
20
7.24565176618799
30
0
41
1
10
45.9652263636057
20
7.30366024863054
30
0
41
1
10
45.9940789533698
20
7.36861913589479
30
0
41
1
10
46.0084079833224
20
7.43686542376335
30
0
0
SPLINE
5
120
100
AcDbEntity
8
1
62
256
6
ByLayer
370
18
48
1
60
0
100
AcDbSpline
70
4
71
5
72
12
73
6
40
0
40
0
40
0
40
0
40
0
40
0
40
1
40
1
40
1
40
1
40
1
40
1
41
1
10
47.58066632218
20
8.25040432485994
30
0
41
1
10
47.58048682909
20
8.13444828781994
30
0
41
1
10
47.6113312314
20
8.01925988847995
30
0
41
1
10
47.66654446845
20
7.92048783365996
30
0
41
1
10
47.7328341277
20
7.83508746405994
30
0
41
1
10
47.8067633481201
20
7.76233238520996
30
0
0
SPLINE
5
121
100
AcDbEntity
8
1
62
256
6
ByLayer
370
18
48
1
60
0
100
AcDbSpline
70
4
71
5
72
19
73
13
40
0
40
0
40
0
40
0
40
0
40
0
40
0.44522345479053
40
0.44522345479053
40
0.44522345479053
40
0.55477654520947
40
0.55477654520947
40
0.55477654520947
40
0.55477654520947
40
1
40
1
40
1
40
1
40
1
40
1
41
1
10
46.98690429806
20
9.09269413475994
30
0
41
1
10
46.98955877067
20
9.11249991056596
30
0
41
1
10
46.99184150192
20
9.13237573178193
30
0
41
1
10
46.99383537624
20
9.15230171944495
30
0
41
1
10
46.99592888491
20
9.17718231091496
30
0
41
1
10
46.99751014375
20
9.20211465296694
30
0
41
1
10
46.99780203956
20
9.20703998195296
30
0
41
1
10
46.99807337586
20
9.21196703918895
30
0
41
1
10
46.99905470334
20
9.23200023924494
30
0
41
1
10
46.99966416951
20
9.24710977801394
30
0
41
1
10
47.00003257604
20
9.26224152443896
30
0
41
1
10
47.00018546629
20
9.27736854178994
30
0
41
1
10
47.00021845637
20
9.29249922824596
30
0
0
SPLINE
5
122
100
AcDbEntity
8
1
62
256
6
ByLayer
370
18
48
1
60
0
100
AcDbSpline
70
4
71
5
72
12
73
6
40
0
40
0
40
0
40
0
40
0
40
0
40
1
40
1
40
1
40
1
40
1
40
1
41
1
10
47.00022626063
20
9.29249999930195
30
0
41
1
10
46.9902184152101
20
9.29249999930195
30
0
41
1
10
46.97914050042
20
9.29249999930195
30
0
41
1
10
46.96730327683
20
9.29249999930195
30
0
41
1
10
46.95508590949
20
9.29249999930195
30
0
41
1
10
46.942868617
20
9.29249999930195
30
0
0
SPLINE
5
123
100
AcDbEntity
8
1
62
256
6
ByLayer
370
18
48
1
60
0
100
AcDbSpline
70
4
71
5
72
12
73
6
40
0
40
0
40
0
40
0
40
0
40
0
40
1
40
1
40
1
40
1
40
1
40
1
41
1
10
46.94285699163
20
9.29249926395596
30
0
41
1
10
46.9428261726169
20
9.25418857969908
30
0
41
1
10
46.9415985886776
20
9.21587028312931
30
0
41
1
10
46.9387793601911
20
9.17766176559977
30
0
41
1
10
46.934846030195
20
9.13961082257029
30
0
41
1
10
46.9295212005386
20
9.10183633998852
30
0
0
SPLINE
5
124
100
AcDbEntity
8
1
62
256
6
ByLayer
370
18
48
1
60
0
100
AcDbSpline
70
4
71
5
72
22
73
16
40
0
40
0
40
0
40
0
40
0
40
0
40
0.333333333333333
40
0.333333333333333
40
0.333333333333333
40
0.333333333333333
40
0.333333333333333
40
0.666666666666667
40
0.666666666666667
40
0.666666666666667
40
0.666666666666667
40
0.666666666666667
40
1
40
1
40
1
40
1
40
1
40
1
41
1
10
46.62708037975
20
8.78882620588294
30
0
41
1
10
46.6939404896801
20
8.80146145762694
30
0
41
1
10
46.75956077285
20
8.82484142791895
30
0
41
1
10
46.82376569857
20
8.85586524588496
30
0
41
1
10
46.88250096524
20
8.89858069990595
30
0
41
1
10
46.92908842515
20
8.95898985669209
30
0
41
1
10
46.94093860435
20
8.97435577993895
30
0
41
1
10
46.95188292131
20
8.99089822957194
30
0
41
1
10
46.96161676176
20
9.00854375570296
30
0
41
1
10
46.96987403676
20
9.02712904953094
30
0
41
1
10
46.9763022793878
20
9.04678809404035
30
0
41
1
10
46.97920707521
20
9.05567162779394
30
0
41
1
10
46.98183190399
20
9.06466332263395
30
0
41
1
10
46.9840236109901
20
9.07391998666895
30
0
41
1
10
46.98557234072
20
9.08326903131095
30
0
41
1
10
46.9869018151101
20
9.09269824356394
30
0
0
SPLINE
5
125
100
AcDbEntity
8
1
62
256
6
ByLayer
370
18
48
1
60
0
100
AcDbSpline
70
4
71
5
72
12
73
6
40
0
40
0
40
0
40
0
40
0
40
0
40
1
40
1
40
1
40
1
40
1
40
1
41
1
10
46.98690181492
20
9.09269824356394
30
0
41
1
10
46.9769253268473
20
9.0946746964012
30
0
41
1
10
46.9658576206839
20
9.09665089992947
30
0
41
1
10
46.9540144554112
20
9.09856357680476
30
0
41
1
10
46.9417826684555
20
9.10034682192449
30
0
41
1
10
46.9295503298062
20
9.10194996449758
30
0
0
SPLINE
5
126
100
AcDbEntity
8
1
62
256
6
ByLayer
370
18
48
1
60
0
100
AcDbSpline
70
4
71
5
72
12
73
6
40
0
40
0
40
0
40
0
40
0
40
0
40
1
40
1
40
1
40
1
40
1
40
1
41
1
10
46.9295233837884
20
9.10183714268894
30
0
41
1
10
46.9135543748799
20
9.01459766918069
30
0
41
1
10
46.8229768257609
20
8.95345222425547
30
0
41
1
10
46.7482634085756
20
8.92368368880878
30
0
41
1
10
46.6576094695955
20
8.89657187155314
30
0
41
1
10
46.5697227361
20
8.88489954712696
30
0
0
SPLINE
5
127
100
AcDbEntity
8
1
62
256
6
ByLayer
370
18
48
1
60
0
100
AcDbSpline
70
4
71
5
72
12
73
6
40
0
40
0
40
0
40
0
40
0
40
0
40
1
40
1
40
1
40
1
40
1
40
1
41
1
10
46.6269555849335
20
8.78880115787078
30
0
41
1
10
46.6233645409243
20
8.81527084589717
30
0
41
1
10
46.6146227484244
20
8.84174364618718
30
0
41
1
10
46.6012185476616
20
8.86417923917111
30
0
41
1
10
46.585413753548
20
8.87879092587997
30
0
41
1
10
46.56961955257
20
8.88476747633194
30
0
0
SPLINE
5
128
100
AcDbEntity
8
1
62
256
6
ByLayer
370
18
48
1
60
0
100
AcDbSpline
70
4
71
5
72
12
73
6
40
0
40
0
40
0
40
0
40
0
40
0
40
1
40
1
40
1
40
1
40
1
40
1
41
1
10
46.41527092767
20
8.73697866723796
30
0
41
1
10
46.41054245407
20
8.76136164792294
30
0
41
1
10
46.40131669698
20
8.78575553001795
30
0
41
1
10
46.38817991478
20
8.80692640221994
30
0
41
1
10
46.3730432172401
20
8.82179437309895
30
0
41
1
10
46.35791328443
20
8.82941465063695
30
0
0
SPLINE
5
129
100
AcDbEntity
8
1
62
256
6
ByLayer
370
18
48
1
60
0
100
AcDbSpline
70
4
71
8
72
18
73
9
40
0
40
0
40
0
40
0
40
0
40
0
40
0
40
0
40
0
40
1
40
1
40
1
40
1
40
1
40
1
40
1
40
1
40
1
41
1
10
46.25532762777
20
8.70683511135994
30
0
41
1
10
46.26348778272
20
8.70117883073294
30
0
41
1
10
46.2716479373
20
8.69469010753497
30
0
41
1
10
46.2796611414701
20
8.68747080175595
30
0
41
1
10
46.28738044356
20
8.67964376098095
30
0
41
1
10
46.2946644481501
20
8.67134897016396
30
0
41
1
10
46.30138288168
20
8.66273836708297
30
0
41
1
10
46.30742142068
20
8.65396985711396
30
0
41
1
10
46.31268527141
20
8.64520134720695
30
0
0
SPLINE
5
12A
100
AcDbEntity
8
1
62
256
6
ByLayer
370
18
48
1
60
0
100
AcDbSpline
70
4
71
5
72
12
73
6
40
0
40
0
40
0
40
0
40
0
40
0
40
1
40
1
40
1
40
1
40
1
40
1
41
1
10
46.4152709279101
20
8.73697866720295
30
0
41
1
10
46.4068488447001
20
8.75100815557394
30
0
41
1
10
46.39625805827
20
8.76503836983295
30
0
41
1
10
46.38402621377
20
8.77818212216894
30
0
41
1
10
46.37096941129
20
8.78956246981795
30
0
41
1
10
46.35791328426
20
8.79861243651294
30
0
0
SPLINE
5
12B
100
AcDbEntity
8
1
62
256
6
ByLayer
370
18
48
1
60
0
100
AcDbSpline
70
4
71
5
72
12
73
6
40
0
40
0
40
0
40
0
40
0
40
0
40
1
40
1
40
1
40
1
40
1
40
1
41
1
10
46.25532762775
20
8.66256616613194
30
0
41
1
10
46.2676005883101
20
8.65956875731496
30
0
41
1
10
46.27987364203
20
8.65622433156494
30
0
41
1
10
46.2917375973
20
8.65263257406494
30
0
41
1
10
46.3027845514
20
8.64891693538397
30
0
41
1
10
46.31268527138
20
8.64520134836596
30
0
0
SPLINE
5
12C
100
AcDbEntity
8
1
62
256
6
ByLayer
370
18
48
1
60
0
100
AcDbSpline
70
4
71
5
72
12
73
6
40
0
40
0
40
0
40
0
40
0
40
0
40
1
40
1
40
1
40
1
40
1
40
1
41
1
10
45.9511014917001
20
7.45446158153996
30
0
41
1
10
45.96337398982
20
7.45146427109995
30
0
41
1
10
45.9756464632
20
7.44811997587996
30
0
41
1
10
45.98750994804
20
7.44452833779994
30
0
41
1
10
45.99855637966
20
7.44081290451996
30
0
41
1
10
46.00845663571
20
7.43709748042994
30
0
0
SPLINE
5
12D
100
AcDbEntity
8
1
62
256
6
ByLayer
370
18
48
1
60
0
100
AcDbSpline
70
4
71
8
72
18
73
9
40
0
40
0
40
0
40
0
40
0
40
0
40
0
40
0
40
0
40
1
40
1
40
1
40
1
40
1
40
1
40
1
40
1
40
1
41
1
10
45.4876889785001
20
12.8624999999999
30
0
41
1
10
45.4814340846801
20
12.8624999999999
30
0
41
1
10
45.4747969880301
20
12.8624999999999
30
0
41
1
10
45.4678332608
20
12.8624999999999
30
0
41
1
10
45.46060322996
20
12.8624999999999
30
0
41
1
10
45.4531709396
20
12.8624999999999
30
0
41
1
10
45.44560296585
20
12.8624999999999
30
0
41
1
10
45.4379671503501
20
12.8624999999999
30
0
41
1
10
45.43033133486
20
12.8624999999999
30
0
0
SPLINE
5
12E
100
AcDbEntity
8
1
62
256
6
ByLayer
370
18
48
1
60
0
100
AcDbSpline
70
4
71
5
72
12
73
6
40
0
40
0
40
0
40
0
40
0
40
0
40
1
40
1
40
1
40
1
40
1
40
1
41
1
10
56
20
12.7875000016699
30
0
41
1
10
55.9999130546001
20
13.0457314033999
30
0
41
1
10
55.8961489023
20
13.3044480540299
30
0
41
1
10
55.686090443
20
13.50553528014
30
0
41
1
10
55.4230939055
20
13.5979156119999
30
0
41
1
10
55.1651044901
20
13.5867385772699
30
0
0
SPLINE
5
12F
100
AcDbEntity
8
1
62
256
6
ByLayer
370
18
48
1
60
0
100
AcDbSpline
70
4
71
11
72
24
73
12
40
0
40
0
40
0
40
0
40
0
40
0
40
0
40
0
40
0
40
0
40
0
40
0
40
1
40
1
40
1
40
1
40
1
40
1
40
1
40
1
40
1
40
1
40
1
40
1
41
1
10
49.0488931089101
20
13.3196990213299
30
0
41
1
10
49.04017476842
20
13.31931837037
30
0
41
1
10
49.03147469806
20
13.31851926908
30
0
41
1
10
49.02281521336
20
13.31730269182
30
0
41
1
10
49.01421857155
20
13.31567095177
30
0
41
1
10
49.0057068797
20
13.31362769695
30
0
41
1
10
48.9973020031301
20
13.31117789884
30
0
41
1
10
48.98902547498
20
13.3083278338
30
0
41
1
10
48.9808984074601
20
13.3050850570899
30
0
41
1
10
48.97294140554
20
13.30145837013
30
0
41
1
10
48.9651744837
20
13.29745778084
30
0
41
1
10
48.95761698635
20
13.2930944577099
30
0
0
SPLINE
5
130
100
AcDbEntity
8
1
62
256
6
ByLayer
370
18
48
1
60
0
100
AcDbSpline
70
4
71
11
72
24
73
12
40
0
40
0
40
0
40
0
40
0
40
0
40
0
40
0
40
0
40
0
40
0
40
0
40
1
40
1
40
1
40
1
40
1
40
1
40
1
40
1
40
1
40
1
40
1
40
1
41
1
10
48.25821566957
20
12.8892949192399
30
0
41
1
10
48.24997112695
20
12.8845349303399
30
0
41
1
10
48.24147735207
20
12.8802066248199
30
0
41
1
10
48.23275945903
20
12.87632450226
30
0
41
1
10
48.22384351111
20
12.87290141866
30
0
41
1
10
48.21475639771
20
12.8699485153599
30
0
41
1
10
48.20552570516
20
12.8674751587199
30
0
41
1
10
48.19617958246
20
12.86548889127
30
0
41
1
10
48.1867466032201
20
12.8639953946499
30
0
41
1
10
48.17725562497
20
12.8629984649
30
0
41
1
10
48.1677356472401
20
12.8625000000299
30
0
41
1
10
48.15821566951
20
12.8625000000399
30
0
0
SPLINE
5
131
100
AcDbEntity
8
1
62
256
6
ByLayer
370
18
48
1
60
0
100
AcDbSpline
70
4
71
3
72
9
73
5
40
0
40
0
40
0
40
0
40
0.532506196566941
40
1
40
1
40
1
40
1
41
1
10
48.0925790769361
20
11.9783797436947
30
0
41
1
10
48.0289431530555
20
12.0534611722593
30
0
41
1
10
47.9094404612731
20
12.1944575194355
30
0
41
1
10
47.8857296860733
20
12.3771107476382
30
0
41
1
10
47.8746450455928
20
12.4625
30
0
0
SPLINE
5
132
100
AcDbEntity
8
1
62
256
6
ByLayer
370
18
48
1
60
0
100
AcDbSpline
70
4
71
3
72
8
73
4
40
0
40
0
40
0
40
0
40
1
40
1
40
1
40
1
41
1
10
45.4877178255945
20
12.4624872989152
30
0
41
1
10
45.4894502665298
20
12.4374858548952
30
0
41
1
10
45.4911827074652
20
12.4124844108751
30
0
41
1
10
45.4929151484006
20
12.387482966855
30
0
0
SPLINE
5
133
100
AcDbEntity
8
1
62
256
6
ByLayer
370
18
48
1
60
0
100
AcDbSpline
70
4
71
3
72
9
73
5
40
0
40
0
40
0
40
0
40
0.455364492365378
40
1
40
1
40
1
40
1
41
1
10
45.4975333696968
20
12.3717066471821
30
0
41
1
10
45.5365772362644
20
12.3026265069453
30
0
41
1
10
45.6223192456266
20
12.1509235494354
30
0
41
1
10
45.7576577393813
20
12.0392208632862
30
0
41
1
10
45.8313678886299
20
11.9783836141112
30
0
0
SPLINE
5
134
100
AcDbEntity
8
1
62
256
6
ByLayer
370
18
48
1
60
0
100
AcDbSpline
70
4
71
8
72
18
73
9
40
0
40
0
40
0
40
0
40
0
40
0
40
0
40
0
40
0
40
1
40
1
40
1
40
1
40
1
40
1
40
1
40
1
40
1
41
1
10
36.5123110215
20
6.26249999999996
30
0
41
1
10
36.51856591532
20
6.26249999999996
30
0
41
1
10
36.52520301197
20
6.26249999999996
30
0
41
1
10
36.5321667392
20
6.26249999999996
30
0
41
1
10
36.53939677004
20
6.26249999999996
30
0
41
1
10
36.5468290604
20
6.26249999999996
30
0
41
1
10
36.55439703415
20
6.26249999999996
30
0
41
1
10
36.56203284965
20
6.26249999999996
30
0
41
1
10
36.56966866514
20
6.26249999999996
30
0
0
SPLINE
5
135
100
AcDbEntity
8
1
62
256
6
ByLayer
370
18
48
1
60
0
100
AcDbSpline
70
4
71
5
72
12
73
6
40
0
40
0
40
0
40
0
40
0
40
0
40
1
40
1
40
1
40
1
40
1
40
1
41
1
10
45.48773068322
20
6.66251270079997
30
0
41
1
10
45.4876835659139
20
6.67754369813744
30
0
41
1
10
45.4881885962297
20
6.69258849052648
30
0
41
1
10
45.4892360382309
20
6.70761625522923
30
0
41
1
10
45.4908137904747
20
6.72260038654184
30
0
41
1
10
45.4929079888699
20
6.73751797217338
30
0
0
SPLINE
5
136
100
AcDbEntity
8
1
62
256
6
ByLayer
370
18
48
1
60
0
100
AcDbSpline
70
4
71
5
72
12
73
6
40
0
40
0
40
0
40
0
40
0
40
0
40
1
40
1
40
1
40
1
40
1
40
1
41
1
10
45.4357091738559
20
6.74500399685311
30
0
41
1
10
45.433551236202
20
6.72859775927924
30
0
41
1
10
45.4319254699008
20
6.7121183641878
30
0
41
1
10
45.4308461574983
20
6.69559100207385
30
0
41
1
10
45.4303257658732
20
6.67904492318667
30
0
41
1
10
45.4303743252964
20
6.66251401291484
30
0
0
SPLINE
5
137
100
AcDbEntity
8
1
62
256
6
ByLayer
370
18
48
1
60
0
100
AcDbSpline
70
4
71
5
72
12
73
6
40
0
40
0
40
0
40
0
40
0
40
0
40
1
40
1
40
1
40
1
40
1
40
1
41
1
10
56
20
6.33749999832995
30
0
41
1
10
55.9999130546001
20
6.07926859659995
30
0
41
1
10
55.8961489023
20
5.82055194596995
30
0
41
1
10
55.686090443
20
5.61946471985993
30
0
41
1
10
55.4230939055
20
5.52708438799993
30
0
41
1
10
55.1651044901
20
5.53826142272993
30
0
0
SPLINE
5
138
100
AcDbEntity
8
1
62
256
6
ByLayer
370
18
48
1
60
0
100
AcDbSpline
70
4
71
11
72
24
73
12
40
0
40
0
40
0
40
0
40
0
40
0
40
0
40
0
40
0
40
0
40
0
40
0
40
1
40
1
40
1
40
1
40
1
40
1
40
1
40
1
40
1
40
1
40
1
40
1
41
1
10
49.0488931089101
20
5.80530097866995
30
0
41
1
10
49.04017476842
20
5.80568162962996
30
0
41
1
10
49.03147469806
20
5.80648073091996
30
0
41
1
10
49.02281521336
20
5.80769730817994
30
0
41
1
10
49.01421857155
20
5.80932904822996
30
0
41
1
10
49.0057068797
20
5.81137230304995
30
0
41
1
10
48.9973020031301
20
5.81382210115996
30
0
41
1
10
48.98902547498
20
5.81667216619994
30
0
41
1
10
48.9808984074601
20
5.81991494290995
30
0
41
1
10
48.97294140554
20
5.82354162986994
30
0
41
1
10
48.9651744837
20
5.82754221915994
30
0
41
1
10
48.95761698635
20
5.83190554228995
30
0
0
SPLINE
5
139
100
AcDbEntity
8
1
62
256
6
ByLayer
370
18
48
1
60
0
100
AcDbSpline
70
4
71
11
72
24
73
12
40
0
40
0
40
0
40
0
40
0
40
0
40
0
40
0
40
0
40
0
40
0
40
0
40
1
40
1
40
1
40
1
40
1
40
1
40
1
40
1
40
1
40
1
40
1
40
1
41
1
10
48.25821566957
20
6.23570508075994
30
0
41
1
10
48.24997112695
20
6.24046506965996
30
0
41
1
10
48.24147735207
20
6.24479337517994
30
0
41
1
10
48.23275945903
20
6.24867549773995
30
0
41
1
10
48.22384351111
20
6.25209858133994
30
0
41
1
10
48.21475639771
20
6.25505148463995
30
0
41
1
10
48.20552570516
20
6.25752484127995
30
0
41
1
10
48.19617958246
20
6.25951110872995
30
0
41
1
10
48.1867466032201
20
6.26100460534994
30
0
41
1
10
48.17725562497
20
6.26200153509996
30
0
41
1
10
48.1677356472401
20
6.26249999996995
30
0
41
1
10
48.15821566951
20
6.26249999995994
30
0
0
SPLINE
5
13A
100
AcDbEntity
8
1
62
256
6
ByLayer
370
18
48
1
60
0
100
AcDbSpline
70
4
71
3
72
9
73
5
40
0
40
0
40
0
40
0
40
0.535321006567692
40
1
40
1
40
1
40
1
41
1
10
48.111804076545
20
7.43670612603014
30
0
41
1
10
48.1311354326976
20
7.40752237986428
30
0
41
1
10
48.1672471412155
20
7.35300603208825
30
0
41
1
10
48.172401366773
20
7.28712048949382
30
0
41
1
10
48.174796427117
20
7.25650486187931
30
0
0
SPLINE
5
13B
100
AcDbEntity
8
1
62
256
6
ByLayer
370
18
48
1
60
0
100
AcDbSpline
70
4
71
5
72
15
73
9
40
0
40
0
40
0
40
0
40
0
40
0
40
0.0074613573022366
40
0.0074613573022366
40
0.0074613573022366
40
1
40
1
40
1
40
1
40
1
40
1
41
1
10
52.4961060347578
20
7.06783391305524
30
0
41
1
10
52.4956209068598
20
7.0684926300209
30
0
41
1
10
52.4951351973133
20
7.06915083882768
30
0
41
1
10
52.494648907871
20
7.06980854062289
30
0
41
1
10
52.4293970251106
20
7.15788848845611
30
0
41
1
10
52.3537903458
20
7.23690418423993
30
0
41
1
10
52.2734438481
20
7.30728114332996
30
0
41
1
10
52.1881536441
20
7.37194748612996
30
0
41
1
10
52.1008681941
20
7.43047937990994
30
0
0
SPLINE
5
13C
100
AcDbEntity
8
1
62
256
6
ByLayer
370
18
48
1
60
0
100
AcDbSpline
70
4
71
5
72
15
73
9
40
0
40
0
40
0
40
0
40
0
40
0
40
0.437068328965547
40
0.437068328965547
40
0.437068328965547
40
1
40
1
40
1
40
1
40
1
40
1
41
1
10
51.5310782149
20
8.07792561674995
30
0
41
1
10
51.5311473805
20
8.02092590498995
30
0
41
1
10
51.5416724572
20
7.96628902158994
30
0
41
1
10
51.5621295952
20
7.91305013059994
30
0
41
1
10
51.6227463326
20
7.80238513087994
30
0
41
1
10
51.7078759745
20
7.71036873267994
30
0
41
1
10
51.7591602355
20
7.66482603210994
30
0
41
1
10
51.8146792816
20
7.62231580570995
30
0
41
1
10
51.8705860040001
20
7.58490205624994
30
0
0
SPLINE
5
13D
100
AcDbEntity
8
1
62
256
6
ByLayer
370
18
48
1
60
0
100
AcDbSpline
70
4
71
5
72
12
73
6
40
0
40
0
40
0
40
0
40
0
40
0
40
1
40
1
40
1
40
1
40
1
40
1
41
1
10
45.7811868211122
20
7.21239010335631
30
0
41
1
10
45.6955317993418
20
7.14196317839901
30
0
41
1
10
45.6156791467943
20
7.06431710337893
30
0
41
1
10
45.5436183128689
20
6.97856673389677
30
0
41
1
10
45.4829014338882
20
6.88308546871266
30
0
41
1
10
45.4404123788421
20
6.77973041326484
30
0
0
SPLINE
5
13E
100
AcDbEntity
8
1
62
256
6
ByLayer
370
18
48
1
60
0
100
AcDbSpline
70
4
71
5
72
12
73
6
40
0
40
0
40
0
40
0
40
0
40
0
40
1
40
1
40
1
40
1
40
1
40
1
41
1
10
45.4975309728911
20
6.75329373378975
30
0
41
1
10
45.5395278821963
20
6.84725201016693
30
0
41
1
10
45.5991475440502
20
6.93405235608429
30
0
41
1
10
45.6696982989645
20
7.01200659291229
30
0
41
1
10
45.747746623697
20
7.08259337981701
30
0
41
1
10
45.8313692912784
20
7.1466173737997
30
0
0
SPLINE
5
13F
100
AcDbEntity
8
1
62
256
6
ByLayer
370
18
48
1
60
0
100
AcDbSpline
70
4
71
5
72
12
73
6
40
0
40
0
40
0
40
0
40
0
40
0
40
1
40
1
40
1
40
1
40
1
40
1
41
1
10
45.4404205480076
20
6.77972934580467
30
0
41
1
10
45.439023346493
20
6.77292601535706
30
0
41
1
10
45.4378454735756
20
6.76602452875997
30
0
41
1
10
45.4368998119326
20
6.75905265834766
30
0
41
1
10
45.4361942166871
20
6.75203638432185
30
0
41
1
10
45.43573302729
20
6.74500226678995
30
0
0
SPLINE
5
140
100
AcDbEntity
8
1
62
256
6
ByLayer
370
18
48
1
60
0
100
AcDbSpline
70
4
71
5
72
12
73
6
40
0
40
0
40
0
40
0
40
0
40
0
40
1
40
1
40
1
40
1
40
1
40
1
41
1
10
45.43573302729
20
6.74500226678995
30
0
41
1
10
45.4479222892848
20
6.74340387112179
30
0
41
1
10
45.4601116312689
20
6.74180546502021
30
0
41
1
10
45.4719169401094
20
6.74025741775549
30
0
41
1
10
45.4829552308226
20
6.73880995071536
30
0
41
1
10
45.4929133358172
20
6.73750412998916
30
0
0
SPLINE
5
141
100
AcDbEntity
8
1
62
256
6
ByLayer
370
18
48
1
60
0
100
AcDbSpline
70
4
71
5
72
12
73
6
40
0
40
0
40
0
40
0
40
0
40
0
40
1
40
1
40
1
40
1
40
1
40
1
41
1
10
45.49754184198
20
6.75328825923995
30
0
41
1
10
45.48784748179
20
6.75857091622996
30
0
41
1
10
45.47689454875
20
6.76405362060996
30
0
41
1
10
45.4650382343801
20
6.76954241527994
30
0
41
1
10
45.45272963975
20
6.77482846592994
30
0
41
1
10
45.44042107339
20
6.77973190395994
30
0
0
SPLINE
5
142
100
AcDbEntity
8
1
62
256
6
ByLayer
370
18
48
1
60
0
100
AcDbSpline
70
4
71
5
72
12
73
6
40
0
40
0
40
0
40
0
40
0
40
0
40
1
40
1
40
1
40
1
40
1
40
1
41
1
10
45.9510991586901
20
11.67053784867
30
0
41
1
10
45.93679778226
20
11.72745626459
30
0
41
1
10
45.9088851445401
20
11.7816359119899
30
0
41
1
10
45.87162932108
20
11.8300177438199
30
0
41
1
10
45.8286349824
20
11.8736136615599
30
0
41
1
10
45.78117848899
20
11.91259932235
30
0
0
SPLINE
5
143
100
AcDbEntity
8
1
62
256
6
ByLayer
370
18
48
1
60
0
100
AcDbSpline
70
4
71
5
72
12
73
6
40
0
40
0
40
0
40
0
40
0
40
0
40
1
40
1
40
1
40
1
40
1
40
1
41
1
10
45.7811868211122
20
11.9126098966436
30
0
41
1
10
45.6955317993418
20
11.9830368216009
30
0
41
1
10
45.6156791467943
20
12.060682896621
30
0
41
1
10
45.5436183128689
20
12.1464332661031
30
0
41
1
10
45.4829014338882
20
12.2419145312872
30
0
41
1
10
45.4404123788421
20
12.345269586735
30
0
0
SPLINE
5
144
100
AcDbEntity
8
1
62
256
6
ByLayer
370
18
48
1
60
0
100
AcDbSpline
70
4
71
5
72
22
73
16
40
0
40
0
40
0
40
0
40
0
40
0
40
0.333333333333333
40
0.333333333333333
40
0.333333333333333
40
0.333333333333333
40
0.333333333333333
40
0.666666666666667
40
0.666666666666667
40
0.666666666666667
40
0.666666666666667
40
0.666666666666667
40
1
40
1
40
1
40
1
40
1
40
1
41
1
10
46.62708037975
20
10.336173794117
30
0
41
1
10
46.6939404896801
20
10.3235385423729
30
0
41
1
10
46.75956077285
20
10.300158572081
30
0
41
1
10
46.82376569857
20
10.269134754115
30
0
41
1
10
46.88250096524
20
10.226419300094
30
0
41
1
10
46.92908842515
20
10.1660101433078
30
0
41
1
10
46.94093860435
20
10.1506442200609
30
0
41
1
10
46.95188292131
20
10.134101770428
30
0
41
1
10
46.96161676176
20
10.116456244297
30
0
41
1
10
46.96987403676
20
10.0978709504689
30
0
41
1
10
46.9763022793878
20
10.0782119059595
30
0
41
1
10
46.97920707521
20
10.0693283722059
30
0
41
1
10
46.98183190399
20
10.0603366773659
30
0
41
1
10
46.9840236109901
20
10.051080013331
30
0
41
1
10
46.98557234072
20
10.0417309686889
30
0
41
1
10
46.9869018151101
20
10.0323017564359
30
0
0
SPLINE
5
145
100
AcDbEntity
8
1
62
256
6
ByLayer
370
18
48
1
60
0
100
AcDbSpline
70
4
71
5
72
19
73
13
40
0
40
0
40
0
40
0
40
0
40
0
40
0.44522345479053
40
0.44522345479053
40
0.44522345479053
40
0.55477654520947
40
0.55477654520947
40
0.55477654520947
40
0.55477654520947
40
1
40
1
40
1
40
1
40
1
40
1
41
1
10
46.98690429806
20
10.0323058652399
30
0
41
1
10
46.98955877067
20
10.012500089434
30
0
41
1
10
46.99184150192
20
9.99262426821795
30
0
41
1
10
46.99383537624
20
9.97269828055494
30
0
41
1
10
46.99592888491
20
9.94781768908496
30
0
41
1
10
46.99751014375
20
9.92288534703295
30
0
41
1
10
46.99780203956
20
9.91796001804695
30
0
41
1
10
46.99807337586
20
9.91303296081094
30
0
41
1
10
46.99905470334
20
9.89299976075495
30
0
41
1
10
46.99966416951
20
9.87789022198595
30
0
41
1
10
47.00003257604
20
9.86275847556095
30
0
41
1
10
47.00018546629
20
9.84763145820995
30
0
41
1
10
47.00021845637
20
9.83250077175396
30
0
0
SPLINE
5
146
100
AcDbEntity
8
1
62
256
6
ByLayer
370
18
48
1
60
0
100
AcDbSpline
70
4
71
5
72
12
73
6
40
0
40
0
40
0
40
0
40
0
40
0
40
1
40
1
40
1
40
1
40
1
40
1
41
1
10
47.58066632218
20
10.8745956751399
30
0
41
1
10
47.58048682909
20
10.99055171218
30
0
41
1
10
47.6113312314
20
11.10574011152
30
0
41
1
10
47.66654446845
20
11.2045121663399
30
0
41
1
10
47.7328341277
20
11.2899125359399
30
0
41
1
10
47.8067633481201
20
11.36266761479
30
0
0
SPLINE
5
147
100
AcDbEntity
8
1
62
256
6
ByLayer
370
18
48
1
60
0
100
AcDbSpline
70
4
71
5
72
12
73
6
40
0
40
0
40
0
40
0
40
0
40
0
40
1
40
1
40
1
40
1
40
1
40
1
41
1
10
45.9511014917001
20
11.67053841846
30
0
41
1
10
45.96337398982
20
11.6735357289
30
0
41
1
10
45.9756464632
20
11.6768800241199
30
0
41
1
10
45.98750994804
20
11.6804716622
30
0
41
1
10
45.99855637966
20
11.68418709548
30
0
41
1
10
46.00845663571
20
11.68790251957
30
0
0
SPLINE
5
148
100
AcDbEntity
8
1
62
256
6
ByLayer
370
18
48
1
60
0
100
AcDbSpline
70
4
71
5
72
12
73
6
40
0
40
0
40
0
40
0
40
0
40
0
40
1
40
1
40
1
40
1
40
1
40
1
41
1
10
47.00022626063
20
9.83250000069793
30
0
41
1
10
46.9902184152101
20
9.83250000069793
30
0
41
1
10
46.97914050042
20
9.83250000069793
30
0
41
1
10
46.96730327683
20
9.83250000069793
30
0
41
1
10
46.95508590949
20
9.83250000069793
30
0
41
1
10
46.942868617
20
9.83250000069793
30
0
0
SPLINE
5
149
100
AcDbEntity
8
1
62
256
6
ByLayer
370
18
48
1
60
0
100
AcDbSpline
70
4
71
5
72
15
73
9
40
0
40
0
40
0
40
0
40
0
40
0
40
0.437068328965547
40
0.437068328965547
40
0.437068328965547
40
1
40
1
40
1
40
1
40
1
40
1
41
1
10
51.5310782149
20
11.0470743832499
30
0
41
1
10
51.5311473805
20
11.1040740950099
30
0
41
1
10
51.5416724572
20
11.1587109784099
30
0
41
1
10
51.5621295952
20
11.2119498693999
30
0
41
1
10
51.6227463326
20
11.32261486912
30
0
41
1
10
51.7078759745
20
11.4146312673199
30
0
41
1
10
51.7591602355
20
11.4601739678899
30
0
41
1
10
51.8146792816
20
11.5026841942899
30
0
41
1
10
51.8705860040001
20
11.5400979437499
30
0
0
SPLINE
5
14A
100
AcDbEntity
8
1
62
256
6
ByLayer
370
18
48
1
60
0
100
AcDbSpline
70
4
71
5
72
12
73
6
40
0
40
0
40
0
40
0
40
0
40
0
40
1
40
1
40
1
40
1
40
1
40
1
41
1
10
46.98690181492
20
10.0323017564359
30
0
41
1
10
46.9769253268473
20
10.0303253035987
30
0
41
1
10
46.9658576206839
20
10.0283491000704
30
0
41
1
10
46.9540144554112
20
10.0264364231951
30
0
41
1
10
46.9417826684555
20
10.0246531780754
30
0
41
1
10
46.9295503298062
20
10.0230500355023
30
0
0
SPLINE
5
14B
100
AcDbEntity
8
1
62
256
6
ByLayer
370
18
48
1
60
0
100
AcDbSpline
70
4
71
5
72
12
73
6
40
0
40
0
40
0
40
0
40
0
40
0
40
1
40
1
40
1
40
1
40
1
40
1
41
1
10
46.6270803803304
20
10.3361737940091
30
0
41
1
10
46.6235088988333
20
10.3096835644653
30
0
41
1
10
46.614774529515
20
10.2831755442784
30
0
41
1
10
46.6013626848792
20
10.260705022112
30
0
41
1
10
46.5855419467944
20
10.2460758723838
30
0
41
1
10
46.5697310584349
20
10.2401035952292
30
0
0
SPLINE
5
14C
100
AcDbEntity
8
1
62
256
6
ByLayer
370
18
48
1
60
0
100
AcDbSpline
70
4
71
5
72
12
73
6
40
0
40
0
40
0
40
0
40
0
40
0
40
1
40
1
40
1
40
1
40
1
40
1
41
1
10
46.41527092767
20
10.3880213327619
30
0
41
1
10
46.41054245407
20
10.363638352077
30
0
41
1
10
46.40131669698
20
10.339244469982
30
0
41
1
10
46.38817991478
20
10.3180735977799
30
0
41
1
10
46.3730432172401
20
10.303205626901
30
0
41
1
10
46.35791328443
20
10.2955853493629
30
0
0
SPLINE
5
14D
100
AcDbEntity
8
1
62
256
6
ByLayer
370
18
48
1
60
0
100
AcDbSpline
70
4
71
5
72
12
73
6
40
0
40
0
40
0
40
0
40
0
40
0
40
1
40
1
40
1
40
1
40
1
40
1
41
1
10
46.35791328442
20
10.2955853517589
30
0
41
1
10
46.39991139387
20
10.282580718002
30
0
41
1
10
46.44210329739
20
10.2705635250959
30
0
41
1
10
46.48446695877
20
10.259510845387
30
0
41
1
10
46.5269797832
20
10.249405314821
30
0
41
1
10
46.56961955257
20
10.240232523668
30
0
0
SPLINE
5
14E
100
AcDbEntity
8
1
62
256
6
ByLayer
370
18
48
1
60
0
100
AcDbSpline
70
4
71
5
72
12
73
6
40
0
40
0
40
0
40
0
40
0
40
0
40
1
40
1
40
1
40
1
40
1
40
1
41
1
10
46.62697719621
20
10.336358693264
30
0
41
1
10
46.58435023177
20
10.3449173902379
30
0
41
1
10
46.54184577374
20
10.354347016315
30
0
41
1
10
46.49948305591
20
10.3646619015919
30
0
41
1
10
46.4572832651
20
10.3758795629479
30
0
41
1
10
46.4152709283601
20
10.3880213327629
30
0
0
SPLINE
5
14F
100
AcDbEntity
8
1
62
256
6
ByLayer
370
18
48
1
60
0
100
AcDbSpline
70
4
71
5
72
12
73
6
40
0
40
0
40
0
40
0
40
0
40
0
40
1
40
1
40
1
40
1
40
1
40
1
41
1
10
46.4152709279101
20
10.388021332797
30
0
41
1
10
46.4068488447001
20
10.3739918444259
30
0
41
1
10
46.39625805827
20
10.359961630167
30
0
41
1
10
46.38402621377
20
10.3468178778309
30
0
41
1
10
46.37096941129
20
10.335437530182
30
0
41
1
10
46.35791328426
20
10.326387563487
30
0
0
SPLINE
5
150
100
AcDbEntity
8
1
62
256
6
ByLayer
370
18
48
1
60
0
100
AcDbSpline
70
4
71
5
72
12
73
6
40
0
40
0
40
0
40
0
40
0
40
0
40
1
40
1
40
1
40
1
40
1
40
1
41
1
10
46.35791328426
20
10.326387563487
30
0
41
1
10
46.35791328432
20
10.3182591508959
30
0
41
1
10
46.35791328444
20
10.3109562215139
30
0
41
1
10
46.35791328435
20
10.304659397245
30
0
41
1
10
46.3579132843701
20
10.299508782037
30
0
41
1
10
46.35791328443
20
10.2955853493629
30
0
0
SPLINE
5
151
100
AcDbEntity
8
1
62
256
6
ByLayer
370
18
48
1
60
0
100
AcDbSpline
70
4
71
5
72
12
73
6
40
0
40
0
40
0
40
0
40
0
40
0
40
1
40
1
40
1
40
1
40
1
40
1
41
1
10
46.2553276268
20
10.4624338334679
30
0
41
1
10
46.25532762618
20
10.4527915154839
30
0
41
1
10
46.25532762758
20
10.4433574945469
30
0
41
1
10
46.25532762618
20
10.4343240747949
30
0
41
1
10
46.25532762708
20
10.425875066566
30
0
41
1
10
46.2553276268901
20
10.418164886196
30
0
0
SPLINE
5
152
100
AcDbEntity
8
1
62
256
6
ByLayer
370
18
48
1
60
0
100
AcDbSpline
70
4
71
8
72
18
73
9
40
0
40
0
40
0
40
0
40
0
40
0
40
0
40
0
40
0
40
1
40
1
40
1
40
1
40
1
40
1
40
1
40
1
40
1
41
1
10
46.25532762777
20
10.41816488864
30
0
41
1
10
46.26348778272
20
10.4238211692669
30
0
41
1
10
46.2716479373
20
10.4303098924649
30
0
41
1
10
46.2796611414701
20
10.437529198244
30
0
41
1
10
46.28738044356
20
10.445356239019
30
0
41
1
10
46.2946644481501
20
10.4536510298359
30
0
41
1
10
46.30138288168
20
10.462261632917
30
0
41
1
10
46.30742142068
20
10.4710301428859
30
0
41
1
10
46.31268527141
20
10.479798652793
30
0
0
SPLINE
5
153
100
AcDbEntity
8
1
62
256
6
ByLayer
370
18
48
1
60
0
100
AcDbSpline
70
4
71
5
72
12
73
6
40
0
40
0
40
0
40
0
40
0
40
0
40
1
40
1
40
1
40
1
40
1
40
1
41
1
10
46.25532762775
20
10.4624338338679
30
0
41
1
10
46.2676005883101
20
10.465431242685
30
0
41
1
10
46.27987364203
20
10.4687756684349
30
0
41
1
10
46.2917375973
20
10.4723674259349
30
0
41
1
10
46.3027845514
20
10.476083064616
30
0
41
1
10
46.31268527138
20
10.479798651634
30
0
0
SPLINE
5
154
100
AcDbEntity
8
1
62
256
6
ByLayer
370
18
48
1
60
0
100
AcDbSpline
70
4
71
5
72
12
73
6
40
0
40
0
40
0
40
0
40
0
40
0
40
1
40
1
40
1
40
1
40
1
40
1
41
1
10
45.4357091738559
20
12.3799960031468
30
0
41
1
10
45.433551236202
20
12.3964022407207
30
0
41
1
10
45.4319254699008
20
12.4128816358121
30
0
41
1
10
45.4308461574983
20
12.4294089979261
30
0
41
1
10
45.4303257658732
20
12.4459550768133
30
0
41
1
10
45.4303743252964
20
12.462485987085
30
0
0
SPLINE
5
155
100
AcDbEntity
8
1
62
256
6
ByLayer
370
18
48
1
60
0
100
AcDbSpline
70
4
71
5
72
12
73
6
40
0
40
0
40
0
40
0
40
0
40
0
40
1
40
1
40
1
40
1
40
1
40
1
41
1
10
45.4357330272909
20
12.3799977332101
30
0
41
1
10
45.4479215087867
20
12.3815961056068
30
0
41
1
10
45.4601096226958
20
12.3831944297609
30
0
41
1
10
45.4719133648689
20
12.3847423297828
30
0
41
1
10
45.4829498836545
20
12.3861895817838
30
0
41
1
10
45.4929061514645
20
12.3874951173544
30
0
0
SPLINE
5
156
100
AcDbEntity
8
1
62
256
6
ByLayer
370
18
48
1
60
0
100
AcDbSpline
70
4
71
5
72
12
73
6
40
0
40
0
40
0
40
0
40
0
40
0
40
1
40
1
40
1
40
1
40
1
40
1
41
1
10
45.4877018288364
20
12.4624872603814
30
0
41
1
10
45.477697754055
20
12.4624868913061
30
0
41
1
10
45.4666251879979
20
12.4624866088287
30
0
41
1
10
45.4547945631077
20
12.4624863832916
30
0
41
1
10
45.4425844057222
20
12.4624861854912
30
0
41
1
10
45.4303743252981
20
12.462485987651
30
0
0
SPLINE
5
157
100
AcDbEntity
8
1
62
256
6
ByLayer
370
18
48
1
60
0
100
AcDbSpline
70
4
71
3
72
8
73
4
40
0
40
0
40
0
40
0
40
1
40
1
40
1
40
1
41
1
10
48.1117917666896
20
11.6883008417868
30
0
41
1
10
48.0612348761264
20
11.63011112699
30
0
41
1
10
48.0106779855633
20
11.5719214121933
30
0
41
1
10
47.9601210950001
20
11.5137316973965
30
0
0
SPLINE
5
158
100
AcDbEntity
8
1
62
256
6
ByLayer
370
18
48
1
60
0
100
AcDbSpline
70
4
71
5
72
12
73
6
40
0
40
0
40
0
40
0
40
0
40
0
40
1
40
1
40
1
40
1
40
1
40
1
41
1
10
46.0084088156964
20
11.6888302262779
30
0
41
1
10
46.4290864162273
20
11.6888945833403
30
0
41
1
10
46.8497640173488
20
11.688953290544
30
0
41
1
10
47.2704416186896
20
11.6890084468364
30
0
41
1
10
47.6911192202488
20
11.6890605419757
30
0
41
1
10
48.1117968220425
20
11.6891100473512
30
0
0
SPLINE
5
159
100
AcDbEntity
8
1
62
256
6
ByLayer
370
18
48
1
60
0
100
AcDbSpline
70
4
71
3
72
9
73
5
40
0
40
0
40
0
40
0
40
0.536360108577949
40
1
40
1
40
1
40
1
41
1
10
48.1118042712703
20
11.6882939153768
30
0
41
1
10
48.1311415082373
20
11.7175580632267
30
0
41
1
10
48.1671942210655
20
11.7721186977368
30
0
41
1
10
48.1723897373334
20
11.8379702410148
30
0
41
1
10
48.1747985859317
20
11.8685016433902
30
0
0
SPLINE
5
15A
100
AcDbEntity
8
1
62
256
6
ByLayer
370
18
48
1
60
0
100
AcDbSpline
70
4
71
5
72
12
73
6
40
0
40
0
40
0
40
0
40
0
40
0
40
1
40
1
40
1
40
1
40
1
40
1
41
1
10
48.1748287842857
20
11.8685034977511
30
0
41
1
10
48.161567904665
20
11.8926039195293
30
0
41
1
10
48.1464012244672
20
11.91573727702
30
0
41
1
10
48.1296209845735
20
11.9377817798586
30
0
41
1
10
48.1115638290926
20
11.9586666901563
30
0
41
1
10
48.09257589514
20
11.978377082
30
0
0
SPLINE
5
15B
100
AcDbEntity
8
1
62
256
6
ByLayer
370
18
48
1
60
0
100
AcDbSpline
70
4
71
3
72
9
73
5
40
0
40
0
40
0
40
0
40
0.537936677317045
40
1
40
1
40
1
40
1
41
1
10
45.8313737783528
20
11.9783705599318
30
0
41
1
10
45.8749318496606
20
11.9330939289083
30
0
41
1
10
45.9559043379563
20
11.8489267156793
30
0
41
1
10
45.9918153961586
20
11.738950462205
30
0
41
1
10
46.0084085790326
20
11.6881344691085
30
0
0
SPLINE
5
15C
100
AcDbEntity
8
1
62
256
6
ByLayer
370
18
48
1
60
0
100
AcDbSpline
70
4
71
5
72
15
73
9
40
0
40
0
40
0
40
0
40
0
40
0
40
0.0074613572676145
40
0.0074613572676145
40
0.0074613572676145
40
1
40
1
40
1
40
1
40
1
40
1
41
1
10
52.4961060347465
20
12.0571660869293
30
0
41
1
10
52.4956209068507
20
12.0565073699667
30
0
41
1
10
52.4951351973064
20
12.055849161163
30
0
41
1
10
52.4946489078665
20
12.0551914593709
30
0
41
1
10
52.4293970251079
20
11.967111511541
30
0
41
1
10
52.3537903458
20
11.88809581576
30
0
41
1
10
52.2734438481
20
11.81771885667
30
0
41
1
10
52.1881536441
20
11.75305251387
30
0
41
1
10
52.1008681941
20
11.6945206200899
30
0
0
SPLINE
5
15D
100
AcDbEntity
8
1
62
256
6
ByLayer
370
18
48
1
60
0
100
AcDbSpline
70
4
71
5
72
12
73
6
40
0
40
0
40
0
40
0
40
0
40
0
40
1
40
1
40
1
40
1
40
1
40
1
41
1
10
45.78118719384
20
11.9126095901799
30
0
41
1
10
45.7927188692
20
11.92621421769
30
0
41
1
10
45.80425075487
20
11.9405216030999
30
0
41
1
10
45.8150033301
20
11.95461411792
30
0
41
1
10
45.82420425165
20
11.96747949689
30
0
41
1
10
45.8313745660701
20
11.97838603575
30
0
0
SPLINE
5
15E
100
AcDbEntity
8
1
62
256
6
ByLayer
370
18
48
1
60
0
100
AcDbSpline
70
4
71
5
72
12
73
6
40
0
40
0
40
0
40
0
40
0
40
0
40
1
40
1
40
1
40
1
40
1
40
1
41
1
10
45.49754184198
20
12.37171174076
30
0
41
1
10
45.48784748179
20
12.36642908377
30
0
41
1
10
45.47689454875
20
12.36094637939
30
0
41
1
10
45.4650382343801
20
12.3554575847199
30
0
41
1
10
45.45272963975
20
12.3501715340699
30
0
41
1
10
45.44042107339
20
12.3452680960399
30
0
0
SPLINE
5
15F
100
AcDbEntity
8
1
62
256
6
ByLayer
370
18
48
1
60
0
100
AcDbSpline
70
4
71
5
72
12
73
6
40
0
40
0
40
0
40
0
40
0
40
0
40
1
40
1
40
1
40
1
40
1
40
1
41
1
10
45.4975418334
20
12.37171173609
30
0
41
1
10
45.49627727087
20
12.37472712093
30
0
41
1
10
45.49506814699
20
12.3777591897299
30
0
41
1
10
45.49409293678
20
12.38095862778
30
0
41
1
10
45.49348559577
20
12.3842032987399
30
0
41
1
10
45.49293267505
20
12.38747248618
30
0
0
SPLINE
5
160
100
AcDbEntity
8
1
62
256
6
ByLayer
370
18
48
1
60
0
100
AcDbSpline
70
4
71
5
72
12
73
6
40
0
40
0
40
0
40
0
40
0
40
0
40
1
40
1
40
1
40
1
40
1
40
1
41
1
10
45.4404205480076
20
12.3452706541952
30
0
41
1
10
45.439023346493
20
12.3520739846428
30
0
41
1
10
45.4378454735756
20
12.3589754712399
30
0
41
1
10
45.4368998119326
20
12.3659473416523
30
0
41
1
10
45.4361942166871
20
12.3729636156781
30
0
41
1
10
45.43573302729
20
12.37999773321
30
0
0
SPLINE
5
161
100
AcDbEntity
8
1
62
256
6
ByLayer
370
18
48
1
60
0
100
AcDbSpline
70
4
71
8
72
18
73
9
40
0
40
0
40
0
40
0
40
0
40
0
40
0
40
0
40
0
40
1
40
1
40
1
40
1
40
1
40
1
40
1
40
1
40
1
41
1
10
45.4876889785001
20
6.26249999999996
30
0
41
1
10
45.4814340846801
20
6.26249999999996
30
0
41
1
10
45.4747969880301
20
6.26249999999996
30
0
41
1
10
45.4678332608
20
6.26249999999996
30
0
41
1
10
45.46060322996
20
6.26249999999996
30
0
41
1
10
45.4531709396
20
6.26249999999996
30
0
41
1
10
45.44560296585
20
6.26249999999996
30
0
41
1
10
45.4379671503501
20
6.26249999999996
30
0
41
1
10
45.43033133486
20
6.26249999999996
30
0
0
SPLINE
5
162
100
AcDbEntity
8
1
62
256
6
ByLayer
370
18
48
1
60
0
100
AcDbSpline
70
4
71
5
72
12
73
6
40
0
40
0
40
0
40
0
40
0
40
0
40
1
40
1
40
1
40
1
40
1
40
1
41
1
10
48.1748287842857
20
7.25649650224884
30
0
41
1
10
48.161567904665
20
7.23239608047058
30
0
41
1
10
48.1464012244672
20
7.20926272297993
30
0
41
1
10
48.1296209845735
20
7.18721822014126
30
0
41
1
10
48.1115638290926
20
7.16633330984362
30
0
41
1
10
48.09257589514
20
7.14662291799996
30
0
0
SPLINE
5
163
100
AcDbEntity
8
1
62
256
6
ByLayer
370
18
48
1
60
0
100
AcDbSpline
70
4
71
2
72
8
73
5
40
0
40
0
40
0
40
0.5
40
0.5
40
1
40
1
40
1
41
1
10
48.0925820305357
20
7.14661740722428
30
0
41
1
10
47.9909470863662
20
7.04115931701335
30
0
41
1
10
47.935781544502
20
6.92497786683856
30
0
41
1
10
47.8745164040193
20
6.79595035027793
30
0
41
1
10
47.87464504559
20
6.66249999999994
30
0
0
SPLINE
5
164
100
AcDbEntity
8
1
62
256
6
ByLayer
370
18
48
1
60
0
100
AcDbSpline
70
4
71
5
72
12
73
6
40
0
40
0
40
0
40
0
40
0
40
0
40
1
40
1
40
1
40
1
40
1
40
1
41
1
10
45.4975418334
20
6.75328826390995
30
0
41
1
10
45.49627727087
20
6.75027287906997
30
0
41
1
10
45.49506814699
20
6.74724081026994
30
0
41
1
10
45.49409293678
20
6.74404137221995
30
0
41
1
10
45.49348559577
20
6.74079670125994
30
0
41
1
10
45.49293267505
20
6.73752751381994
30
0
0
SPLINE
5
165
100
AcDbEntity
8
1
62
256
6
ByLayer
370
18
48
1
60
0
100
AcDbSpline
70
4
71
3
72
8
73
4
40
0
40
0
40
0
40
0
40
1
40
1
40
1
40
1
41
1
10
45.4876889784984
20
6.66251270186996
30
0
41
1
10
45.4710210001083
20
6.66251313886147
30
0
41
1
10
45.4507221678717
20
6.66251357585298
30
0
41
1
10
45.4303743252868
20
6.66251401284453
30
0
0
LINE
5
73
100
AcDbEntity
8
80
62
256
6
ByLayer
370
18
48
1
60
0
100
AcDbLine
10
0
20
0
30
0
11
-5
21
0
31
0
39
0
210
0
220
0
230
1
0
LINE
5
74
100
AcDbEntity
8
81
62
256
6
ByLayer
370
18
48
1
60
0
100
AcDbLine
10
56
20
13.5625
30
0
11
61
21
13.5625
31
0
39
0
210
0
220
0
230
1
0
LINE
5
75
100
AcDbEntity
8
1
62
256
6
ByLayer
370
18
48
1
60
0
100
AcDbLine
10
3.005325
20
12.4375
30
0
11
0.5
21
12.4375
31
0
39
0
210
0
220
0
230
1
0
LINE
5
77
100
AcDbEntity
8
1
62
256
6
ByLayer
370
18
48
1
60
0
100
AcDbLine
10
0
20
12.4375
30
0
11
0
21
-12.4375
31
0
39
0
210
0
220
0
230
1
0
LINE
5
78
100
AcDbEntity
8
1
62
256
6
ByLayer
370
18
48
1
60
0
100
AcDbLine
10
11
20
12.4375
30
0
11
3.005325
21
12.4375
31
0
39
0
210
0
220
0
230
1
0
LINE
5
79
100
AcDbEntity
8
1
62
256
6
ByLayer
370
18
48
1
60
0
100
AcDbLine
10
3.005325
20
12.4375
30
0
11
3.005325
21
-12.480479
31
0
39
0
210
0
220
0
230
1
0
LINE
5
7A
100
AcDbEntity
8
1
62
256
6
ByLayer
370
18
48
1
60
0
100
AcDbLine
10
26.606884
20
5.3625
30
0
11
26.604513
21
5.3625
31
0
39
0
210
0
220
0
230
1
0
LINE
5
7B
100
AcDbEntity
8
1
62
256
6
ByLayer
370
18
48
1
60
0
100
AcDbLine
10
28.1
20
6.404498
30
0
11
28.1
21
6.999515
31
0
39
0
210
0
220
0
230
1
0
LINE
5
7C
100
AcDbEntity
8
1
62
256
6
ByLayer
370
18
48
1
60
0
100
AcDbLine
10
44.816948
20
9.0375
30
0
11
44.816948
21
10.0875
31
0
39
0
210
0
220
0
230
1
0
LINE
5
7D
100
AcDbEntity
8
1
62
256
6
ByLayer
370
18
48
1
60
0
100
AcDbLine
10
0.5
20
-12.439682
30
0
11
0
21
-12.4375
31
0
39
0
210
0
220
0
230
1
0
LINE
5
7E
100
AcDbEntity
8
1
62
256
6
ByLayer
370
18
48
1
60
0
100
AcDbLine
10
26.5
20
5.386988
30
0
11
26.5
21
-7.9375
31
0
39
0
210
0
220
0
230
1
0
LINE
5
7F
100
AcDbEntity
8
1
62
256
6
ByLayer
370
18
48
1
60
0
100
AcDbLine
10
33.137749
20
12.981379
30
0
11
11.511757
21
12.981379
31
0
39
0
210
0
220
0
230
1
0
LINE
5
80
100
AcDbEntity
8
1
62
256
6
ByLayer
370
18
48
1
60
0
100
AcDbLine
10
11.511757
20
12.981379
30
0
11
11.5
21
12.9375
31
0
39
0
210
0
220
0
230
1
0
LINE
5
81
100
AcDbEntity
8
1
62
256
6
ByLayer
370
18
48
1
60
0
100
AcDbLine
10
11
20
12.4375
30
0
11
11.5
21
12.9375
31
0
39
0
210
0
220
0
230
1
0
LINE
5
82
100
AcDbEntity
8
1
62
256
6
ByLayer
370
18
48
1
60
0
100
AcDbLine
10
33.137749
20
6.999515
30
0
11
28.1
21
6.999515
31
0
39
0
210
0
220
0
230
1
0
LINE
5
83
100
AcDbEntity
8
1
62
256
6
ByLayer
370
18
48
1
60
0
100
AcDbLine
10
11.511759
20
12.981386
30
0
11
12.162099
21
15.408486
31
0
39
0
210
0
220
0
230
1
0
LINE
5
84
100
AcDbEntity
8
1
62
256
6
ByLayer
370
18
48
1
60
0
100
AcDbLine
10
42.510638
20
15.408486
30
0
11
12.162099
21
15.408486
31
0
39
0
210
0
220
0
230
1
0
LINE
5
85
100
AcDbEntity
8
1
62
256
6
ByLayer
370
18
48
1
60
0
100
AcDbLine
10
3.005325
20
-12.480479
30
0
11
21.957021
21
-12.480479
31
0
39
0
210
0
220
0
230
1
0
LINE
5
86
100
AcDbEntity
8
1
62
256
6
ByLayer
370
18
48
1
60
0
100
AcDbLine
10
0.5
20
12.4375
30
0
11
0.5
21
-12.439682
31
0
39
0
210
0
220
0
230
1
0
LINE
5
87
100
AcDbEntity
8
1
62
256
6
ByLayer
370
18
48
1
60
0
100
AcDbLine
10
21.957021
20
-12.480479
30
0
11
26.5
21
-7.9375
31
0
39
0
210
0
220
0
230
1
0
LINE
5
88
100
AcDbEntity
8
1
62
256
6
ByLayer
370
18
48
1
60
0
100
AcDbLine
10
33.137749
20
6.999515
30
0
11
33.137749
21
12.981379
31
0
39
0
210
0
220
0
230
1
0
LINE
5
89
100
AcDbEntity
8
1
62
256
6
ByLayer
370
18
48
1
60
0
100
AcDbLine
10
0.5
20
-12.439682
30
0
11
3.005325
21
-12.480479
31
0
39
0
210
0
220
0
230
1
0
LINE
5
8A
100
AcDbEntity
8
1
62
256
6
ByLayer
370
18
48
1
60
0
100
AcDbLine
10
0
20
12.4375
30
0
11
0.5
21
12.4375
31
0
39
0
210
0
220
0
230
1
0
LINE
5
8B
100
AcDbEntity
8
SK1
62
256
6
ByLayer
370
18
48
1
60
0
100
AcDbLine
10
0
20
12.4375
30
0
11
-115.35
21
12.4375
31
0
39
0
210
0
220
0
230
1
0
LINE
5
8D
100
AcDbEntity
8
SK1
62
256
6
ByLayer
370
18
48
1
60
0
100
AcDbLine
10
-115.35
20
-12.4375
30
0
11
0
21
-12.4375
31
0
39
0
210
0
220
0
230
1
0
LINE
5
8E
100
AcDbEntity
8
SK1
62
256
6
ByLayer
370
18
48
1
60
0
100
AcDbLine
10
-115.35
20
12.4375
30
0
11
-115.35
21
-12.4375
31
0
39
0
210
0
220
0
230
1
0
LINE
5
8F
100
AcDbEntity
8
SK1
62
256
6
ByLayer
370
18
48
1
60
0
100
AcDbLine
10
0
20
12.4375
30
0
11
0
21
-12.4375
31
0
39
0
210
0
220
0
230
1
0
LINE
5
90
100
AcDbEntity
8
1
62
256
6
ByLayer
370
18
48
1
60
0
100
AcDbLine
10
45.435722
20
12.379998
30
0
11
44.260672
21
12.379998
31
0
39
0
210
0
220
0
230
1
0
LINE
5
91
100
AcDbEntity
8
1
62
256
6
ByLayer
370
18
48
1
60
0
100
AcDbLine
10
45.430331
20
12.8625
30
0
11
37.071542
21
12.8625
31
0
39
0
210
0
220
0
230
1
0
LINE
5
92
100
AcDbEntity
8
1
62
256
6
ByLayer
370
18
48
1
60
0
100
AcDbLine
10
45.44041
20
12.345268
30
0
11
44.265782
21
12.345268
31
0
39
0
210
0
220
0
230
1
0
LINE
5
93
100
AcDbEntity
8
1
62
256
6
ByLayer
370
18
48
1
60
0
100
AcDbLine
10
45.44041
20
6.779732
30
0
11
44.265782
21
6.779732
31
0
39
0
210
0
220
0
230
1
0
LINE
5
94
100
AcDbEntity
8
1
62
256
6
ByLayer
370
18
48
1
60
0
100
AcDbLine
10
45.435722
20
6.745002
30
0
11
44.260672
21
6.745002
31
0
39
0
210
0
220
0
230
1
0
LINE
5
95
100
AcDbEntity
8
1
62
256
6
ByLayer
370
18
48
1
60
0
100
AcDbLine
10
36.569669
20
6.2625
30
0
11
36.569669
21
6.41183
31
0
39
0
210
0
220
0
230
1
0
LINE
5
96
100
AcDbEntity
8
1
62
256
6
ByLayer
370
18
48
1
60
0
100
AcDbLine
10
36.512311
20
6.2625
30
0
11
36.512311
21
6.411847
31
0
39
0
210
0
220
0
230
1
0
LINE
5
97
100
AcDbEntity
8
1
62
256
6
ByLayer
370
18
48
1
60
0
100
AcDbLine
10
46.255328
20
10.462434
30
0
11
44.537985
21
10.462434
31
0
39
0
210
0
220
0
230
1
0
LINE
5
98
100
AcDbEntity
8
1
62
256
6
ByLayer
370
18
48
1
60
0
100
AcDbLine
10
46.255328
20
8.662566
30
0
11
44.537985
21
8.662566
31
0
39
0
210
0
220
0
230
1
0
LINE
5
99
100
AcDbEntity
8
1
62
256
6
ByLayer
370
18
48
1
60
0
100
AcDbLine
10
34.125355
20
6.412537
30
0
11
34.125355
21
6.2625
31
0
39
0
210
0
220
0
230
1
0
LINE
5
9A
100
AcDbEntity
8
1
62
256
6
ByLayer
370
18
48
1
60
0
100
AcDbLine
10
46.255328
20
8.706835
30
0
11
44.54439
21
8.706835
31
0
39
0
210
0
220
0
230
1
0
LINE
5
9B
100
AcDbEntity
8
1
62
256
6
ByLayer
370
18
48
1
60
0
100
AcDbLine
10
46.255328
20
10.418165
30
0
11
44.54439
21
10.418165
31
0
39
0
210
0
220
0
230
1
0
LINE
5
9C
100
AcDbEntity
8
1
62
256
6
ByLayer
370
18
48
1
60
0
100
AcDbLine
10
44.573728
20
10.326388
30
0
11
46.357913
21
10.326388
31
0
39
0
210
0
220
0
230
1
0
LINE
5
9D
100
AcDbEntity
8
1
62
256
6
ByLayer
370
18
48
1
60
0
100
AcDbLine
10
44.574063
20
8.798612
30
0
11
46.357913
21
8.798612
31
0
39
0
210
0
220
0
230
1
0
LINE
5
9E
100
AcDbEntity
8
1
62
256
6
ByLayer
370
18
48
1
60
0
100
AcDbLine
10
44.600099
20
10.295585
30
0
11
46.357913
21
10.295585
31
0
39
0
210
0
220
0
230
1
0
LINE
5
9F
100
AcDbEntity
8
1
62
256
6
ByLayer
370
18
48
1
60
0
100
AcDbLine
10
44.600769
20
8.829415
30
0
11
46.357913
21
8.829415
31
0
39
0
210
0
220
0
230
1
0
LINE
5
A0
100
AcDbEntity
8
1
62
256
6
ByLayer
370
18
48
1
60
0
100
AcDbLine
10
44.709479
20
8.884767
30
0
11
46.569658
21
8.884767
31
0
39
0
210
0
220
0
230
1
0
LINE
5
A1
100
AcDbEntity
8
1
62
256
6
ByLayer
370
18
48
1
60
0
100
AcDbLine
10
44.709479
20
10.240233
30
0
11
46.569658
21
10.240233
31
0
39
0
210
0
220
0
230
1
0
LINE
5
A2
100
AcDbEntity
8
1
62
256
6
ByLayer
370
18
48
1
60
0
100
AcDbLine
10
44.81686
20
10.023236
30
0
11
46.929535
21
10.023236
31
0
39
0
210
0
220
0
230
1
0
LINE
5
A3
100
AcDbEntity
8
1
62
256
6
ByLayer
370
18
48
1
60
0
100
AcDbLine
10
44.81686
20
9.101764
30
0
11
46.929535
21
9.101764
31
0
39
0
210
0
220
0
230
1
0
LINE
5
A4
100
AcDbEntity
8
1
62
256
6
ByLayer
370
18
48
1
60
0
100
AcDbLine
10
44.816897
20
9.8325
30
0
11
46.942864
21
9.8325
31
0
39
0
210
0
220
0
230
1
0
LINE
5
A5
100
AcDbEntity
8
1
62
256
6
ByLayer
370
18
48
1
60
0
100
AcDbLine
10
44.816897
20
9.2925
30
0
11
46.942864
21
9.2925
31
0
39
0
210
0
220
0
230
1
0
LINE
5
A6
100
AcDbEntity
8
1
62
256
6
ByLayer
370
18
48
1
60
0
100
AcDbLine
10
33.042383
20
13.293094
30
0
11
33.610647
21
12.965007
31
0
39
0
210
0
220
0
230
1
0
LINE
5
A7
100
AcDbEntity
8
1
62
256
6
ByLayer
370
18
48
1
60
0
100
AcDbLine
10
26.834896
20
13.586739
30
0
11
32.951107
21
13.319699
31
0
39
0
210
0
220
0
230
1
0
LINE
5
A8
100
AcDbEntity
8
1
62
256
6
ByLayer
370
18
48
1
60
0
100
AcDbLine
10
26.834896
20
5.538261
30
0
11
32.951107
21
5.805301
31
0
39
0
210
0
220
0
230
1
0
LINE
5
A9
100
AcDbEntity
8
1
62
256
6
ByLayer
370
18
48
1
60
0
100
AcDbLine
10
33.042383
20
5.831906
30
0
11
33.741784
21
6.235705
31
0
39
0
210
0
220
0
230
1
0
LINE
5
AA
100
AcDbEntity
8
1
62
256
6
ByLayer
370
18
48
1
60
0
100
AcDbLine
10
46.357913
20
10.326388
30
0
11
46.255328
21
10.418165
31
0
39
0
210
0
220
0
230
1
0
LINE
5
AB
100
AcDbEntity
8
1
62
256
6
ByLayer
370
18
48
1
60
0
100
AcDbLine
10
45.951102
20
7.454462
30
0
11
46.255328
21
8.662566
31
0
39
0
210
0
220
0
230
1
0
LINE
5
AC
100
AcDbEntity
8
1
62
256
6
ByLayer
370
18
48
1
60
0
100
AcDbLine
10
51.870586
20
7.584902
30
0
11
47.806763
21
7.762332
31
0
39
0
210
0
220
0
230
1
0
LINE
5
AD
100
AcDbEntity
8
1
62
256
6
ByLayer
370
18
48
1
60
0
100
AcDbLine
10
47.806763
20
7.762332
30
0
11
47.960123
21
7.611267
31
0
39
0
210
0
220
0
230
1
0
LINE
5
AE
100
AcDbEntity
8
1
62
256
6
ByLayer
370
18
48
1
60
0
100
AcDbLine
10
47.000226
20
9.832501
30
0
11
47.000226
21
9.292499
31
0
39
0
210
0
220
0
230
1
0
LINE
5
AF
100
AcDbEntity
8
1
62
256
6
ByLayer
370
18
48
1
60
0
100
AcDbLine
10
46.415271
20
8.736979
30
0
11
46.312685
21
8.645201
31
0
39
0
210
0
220
0
230
1
0
LINE
5
B0
100
AcDbEntity
8
1
62
256
6
ByLayer
370
18
48
1
60
0
100
AcDbLine
10
46.942869
20
9.8325
30
0
11
46.942869
21
9.2925
31
0
39
0
210
0
220
0
230
1
0
LINE
5
B1
100
AcDbEntity
8
1
62
256
6
ByLayer
370
18
48
1
60
0
100
AcDbLine
10
51.531078
20
8.077926
30
0
11
51.531078
21
9.5625
31
0
39
0
210
0
220
0
230
1
0
LINE
5
B2
100
AcDbEntity
8
1
62
256
6
ByLayer
370
18
48
1
60
0
100
AcDbLine
10
47.580667
20
9.5625
30
0
11
47.580666
21
8.250404
31
0
39
0
210
0
220
0
230
1
0
LINE
5
B3
100
AcDbEntity
8
1
62
256
6
ByLayer
370
18
48
1
60
0
100
AcDbLine
10
51.531078
20
8.077926
30
0
11
47.580666
21
8.250404
31
0
39
0
210
0
220
0
230
1
0
LINE
5
B4
100
AcDbEntity
8
1
62
256
6
ByLayer
370
18
48
1
60
0
100
AcDbLine
10
46.357913
20
8.798612
30
0
11
46.255328
21
8.706835
31
0
39
0
210
0
220
0
230
1
0
LINE
5
B5
100
AcDbEntity
8
1
62
256
6
ByLayer
370
18
48
1
60
0
100
AcDbLine
10
46.008402
20
7.436868
30
0
11
46.312685
21
8.645201
31
0
39
0
210
0
220
0
230
1
0
LINE
5
B6
100
AcDbEntity
8
1
62
256
6
ByLayer
370
18
48
1
60
0
100
AcDbLine
10
45.487703
20
12.4625
30
0
11
47.874645
21
12.4625
31
0
39
0
210
0
220
0
230
1
0
LINE
5
B7
100
AcDbEntity
8
1
62
256
6
ByLayer
370
18
48
1
60
0
100
AcDbLine
10
47.874645
20
12.4625
30
0
11
47.874645
21
12.8625
31
0
39
0
210
0
220
0
230
1
0
LINE
5
B8
100
AcDbEntity
8
1
62
256
6
ByLayer
370
18
48
1
60
0
100
AcDbLine
10
45.487689
20
12.8625
30
0
11
45.487689
21
12.462492
31
0
39
0
210
0
220
0
230
1
0
LINE
5
B9
100
AcDbEntity
8
1
62
256
6
ByLayer
370
18
48
1
60
0
100
AcDbLine
10
45.430331
20
12.8625
30
0
11
45.430331
21
12.462486
31
0
39
0
210
0
220
0
230
1
0
LINE
5
BA
100
AcDbEntity
8
1
62
256
6
ByLayer
370
18
48
1
60
0
100
AcDbLine
10
45.487689
20
12.8625
30
0
11
47.874645
21
12.8625
31
0
39
0
210
0
220
0
230
1
0
LINE
5
BB
100
AcDbEntity
8
1
62
256
6
ByLayer
370
18
48
1
60
0
100
AcDbLine
10
47.874645
20
12.8625
30
0
11
48.158216
21
12.8625
31
0
39
0
210
0
220
0
230
1
0
LINE
5
BC
100
AcDbEntity
8
1
62
256
6
ByLayer
370
18
48
1
60
0
100
AcDbLine
10
52.496106
20
12.057164
30
0
11
52.496106
21
9.5625
31
0
39
0
210
0
220
0
230
1
0
LINE
5
BD
100
AcDbEntity
8
1
62
256
6
ByLayer
370
18
48
1
60
0
100
AcDbLine
10
55.165104
20
13.586739
30
0
11
49.048893
21
13.319699
31
0
39
0
210
0
220
0
230
1
0
LINE
5
BE
100
AcDbEntity
8
1
62
256
6
ByLayer
370
18
48
1
60
0
100
AcDbLine
10
48.957617
20
13.293094
30
0
11
48.258216
21
12.889295
31
0
39
0
210
0
220
0
230
1
0
LINE
5
BF
100
AcDbEntity
8
1
62
256
6
ByLayer
370
18
48
1
60
0
100
AcDbLine
10
36.512311
20
6.2625
30
0
11
34.125355
21
6.2625
31
0
39
0
210
0
220
0
230
1
0
LINE
5
C0
100
AcDbEntity
8
1
62
256
6
ByLayer
370
18
48
1
60
0
100
AcDbLine
10
34.125355
20
6.2625
30
0
11
33.841784
21
6.2625
31
0
39
0
210
0
220
0
230
1
0
LINE
5
C1
100
AcDbEntity
8
1
62
256
6
ByLayer
370
18
48
1
60
0
100
AcDbLine
10
55.165104
20
5.538261
30
0
11
49.048893
21
5.805301
31
0
39
0
210
0
220
0
230
1
0
LINE
5
C2
100
AcDbEntity
8
1
62
256
6
ByLayer
370
18
48
1
60
0
100
AcDbLine
10
52.100871
20
7.430479
30
0
11
47.960123
21
7.611268
31
0
39
0
210
0
220
0
230
1
0
LINE
5
C3
100
AcDbEntity
8
1
62
256
6
ByLayer
370
18
48
1
60
0
100
AcDbLine
10
48.957617
20
5.831906
30
0
11
48.258216
21
6.235705
31
0
39
0
210
0
220
0
230
1
0
LINE
5
C4
100
AcDbEntity
8
1
62
256
6
ByLayer
370
18
48
1
60
0
100
AcDbLine
10
56
20
12.7875
30
0
11
56
21
6.3375
31
0
39
0
210
0
220
0
230
1
0
LINE
5
C5
100
AcDbEntity
8
1
62
256
6
ByLayer
370
18
48
1
60
0
100
AcDbLine
10
51.870586
20
7.584902
30
0
11
52.100871
21
7.430477
31
0
39
0
210
0
220
0
230
1
0
LINE
5
C6
100
AcDbEntity
8
1
62
256
6
ByLayer
370
18
48
1
60
0
100
AcDbLine
10
52.496106
20
7.067836
30
0
11
52.496106
21
9.5625
31
0
39
0
210
0
220
0
230
1
0
LINE
5
C7
100
AcDbEntity
8
1
62
256
6
ByLayer
370
18
48
1
60
0
100
AcDbLine
10
51.870586
20
11.540098
30
0
11
52.100871
21
11.694523
31
0
39
0
210
0
220
0
230
1
0
LINE
5
C8
100
AcDbEntity
8
1
62
256
6
ByLayer
370
18
48
1
60
0
100
AcDbLine
10
52.100871
20
11.694521
30
0
11
47.960123
21
11.513732
31
0
39
0
210
0
220
0
230
1
0
LINE
5
C9
100
AcDbEntity
8
1
62
256
6
ByLayer
370
18
48
1
60
0
100
AcDbLine
10
46.008402
20
11.688132
30
0
11
46.312685
21
10.479799
31
0
39
0
210
0
220
0
230
1
0
LINE
5
CA
100
AcDbEntity
8
1
62
256
6
ByLayer
370
18
48
1
60
0
100
AcDbLine
10
47.580667
20
9.5625
30
0
11
47.580666
21
10.874596
31
0
39
0
210
0
220
0
230
1
0
LINE
5
CB
100
AcDbEntity
8
1
62
256
6
ByLayer
370
18
48
1
60
0
100
AcDbLine
10
47.806763
20
11.362668
30
0
11
47.960123
21
11.513733
31
0
39
0
210
0
220
0
230
1
0
LINE
5
CC
100
AcDbEntity
8
1
62
256
6
ByLayer
370
18
48
1
60
0
100
AcDbLine
10
51.531078
20
11.047074
30
0
11
47.580666
21
10.874596
31
0
39
0
210
0
220
0
230
1
0
LINE
5
CD
100
AcDbEntity
8
1
62
256
6
ByLayer
370
18
48
1
60
0
100
AcDbLine
10
51.870586
20
11.540098
30
0
11
47.806764
21
11.362668
31
0
39
0
210
0
220
0
230
1
0
LINE
5
CE
100
AcDbEntity
8
1
62
256
6
ByLayer
370
18
48
1
60
0
100
AcDbLine
10
46.415271
20
10.388021
30
0
11
46.312685
21
10.479799
31
0
39
0
210
0
220
0
230
1
0
LINE
5
CF
100
AcDbEntity
8
1
62
256
6
ByLayer
370
18
48
1
60
0
100
AcDbLine
10
45.951102
20
11.670538
30
0
11
46.255328
21
10.462434
31
0
39
0
210
0
220
0
230
1
0
LINE
5
D0
100
AcDbEntity
8
1
62
256
6
ByLayer
370
18
48
1
60
0
100
AcDbLine
10
52.496108
20
12.057165
30
0
11
48.174816
21
11.868493
31
0
39
0
210
0
220
0
230
1
0
LINE
5
D1
100
AcDbEntity
8
1
62
256
6
ByLayer
370
18
48
1
60
0
100
AcDbLine
10
48.092576
20
11.978377
30
0
11
45.831369
21
11.978377
31
0
39
0
210
0
220
0
230
1
0
LINE
5
D2
100
AcDbEntity
8
1
62
256
6
ByLayer
370
18
48
1
60
0
100
AcDbLine
10
51.531078
20
11.047074
30
0
11
51.531078
21
9.5625
31
0
39
0
210
0
220
0
230
1
0
LINE
5
D3
100
AcDbEntity
8
1
62
256
6
ByLayer
370
18
48
1
60
0
100
AcDbLine
10
52.496108
20
7.067835
30
0
11
48.174816
21
7.256507
31
0
39
0
210
0
220
0
230
1
0
LINE
5
D4
100
AcDbEntity
8
1
62
256
6
ByLayer
370
18
48
1
60
0
100
AcDbLine
10
47.874645
20
6.6625
30
0
11
47.874645
21
6.2625
31
0
39
0
210
0
220
0
230
1
0
LINE
5
D5
100
AcDbEntity
8
1
62
256
6
ByLayer
370
18
48
1
60
0
100
AcDbLine
10
47.874645
20
6.2625
30
0
11
48.158216
21
6.2625
31
0
39
0
210
0
220
0
230
1
0
LINE
5
D6
100
AcDbEntity
8
1
62
256
6
ByLayer
370
18
48
1
60
0
100
AcDbLine
10
48.092576
20
7.146623
30
0
11
45.831369
21
7.146623
31
0
39
0
210
0
220
0
230
1
0
LINE
5
D7
100
AcDbEntity
8
1
62
256
6
ByLayer
370
18
48
1
60
0
100
AcDbLine
10
45.487703
20
6.6625
30
0
11
47.874645
21
6.6625
31
0
39
0
210
0
220
0
230
1
0
LINE
5
D8
100
AcDbEntity
8
1
62
256
6
ByLayer
370
18
48
1
60
0
100
AcDbLine
10
45.430331
20
6.2625
30
0
11
45.430331
21
6.662514
31
0
39
0
210
0
220
0
230
1
0
LINE
5
D9
100
AcDbEntity
8
1
62
256
6
ByLayer
370
18
48
1
60
0
100
AcDbLine
10
45.487689
20
6.2625
30
0
11
45.487689
21
6.662508
31
0
39
0
210
0
220
0
230
1
0
LINE
5
DA
100
AcDbEntity
8
1
62
256
6
ByLayer
370
18
48
1
60
0
100
AcDbLine
10
45.487689
20
6.2625
30
0
11
47.874645
21
6.2625
31
0
39
0
210
0
220
0
230
1
0
LINE
5
DB
100
AcDbEntity
8
1
62
256
6
ByLayer
370
18
48
1
60
0
100
AcDbLine
10
45.430331
20
6.2625
30
0
11
36.569669
21
6.2625
31
0
39
0
210
0
220
0
230
1
0
MTEXT
5
166
100
AcDbEntity
8
SK6
62
256
6
ByLayer
370
18
48
1
60
0
100
AcDbMText
10
-58.799987
20
-22.410996
30
0
210
0
220
0
230
1
1
\W0.7571;RF123L28-3225B-140BM
40
3.5
41
0
44
1.084337
50
0
71
7
72
5
7
iso_b_vert
0
DIMENSION
5
177
100
AcDbEntity
8
2
62
256
6
ByLayer
370
13
48
1
60
0
100
AcDbDimension
2
DimnDraft3D1
10
70.25
20
13.5625
30
0
11
70.25
21
8.555921
31
0
70
32
71
5
72
1
41
1
210
0
220
0
230
1
3
Standard
100
AcDbAlignedDimension
13
57.5
23
5.5625
33
0
14
57.5
24
13.5625
34
0
50
90
100
AcDbRotatedDimension
1001
ACAD
1000
DSTYLE
1002
{
1070
    74
1070
     0
1070
   279
1070
     0
1070
   172
1070
     1
1070
   173
1070
     1
1070
   340
1005
167
1070
   271
1070
     3
1070
   272
1070
     3
1070
    77
1070
     1
1070
    73
1070
     0
1070
   171
1070
     4
1070
   274
1070
     4
1070
   177
1070
     2
1070
   176
1070
     2
1070
   178
1070
     7
1070
    78
1070
     8
1070
    41
1041
3.0
1070
   147
1041
2.25
1070
    42
1041
1.5
1070
    44
1041
3.0
1070
   140
1041
4.5
1070
   343
1005
178
1070
   344
1005
178
1002
}
0
DIMENSION
5
18C
100
AcDbEntity
8
2
62
256
6
ByLayer
370
13
48
1
60
0
100
AcDbDimension
2
DimnDraft3D2
10
80.25
20
-12.4375
30
0
11
80.25
21
-2.125658
31
0
70
32
71
5
72
1
41
1
210
0
220
0
230
1
3
Standard
100
AcDbAlignedDimension
13
57.5
23
13.5625
33
0
14
-3.5
24
-12.4375
34
0
50
90
100
AcDbRotatedDimension
1001
ACAD
1000
DSTYLE
1002
{
1070
    74
1070
     0
1070
   279
1070
     0
1070
   172
1070
     1
1070
   173
1070
     1
1070
   340
1005
167
1070
   271
1070
     3
1070
   272
1070
     3
1070
    77
1070
     1
1070
    73
1070
     0
1070
   171
1070
     4
1070
   274
1070
     4
1070
   177
1070
     2
1070
   176
1070
     2
1070
   178
1070
     7
1070
    78
1070
     8
1070
    41
1041
3.0
1070
   147
1041
2.25
1070
    42
1041
1.5
1070
    44
1041
3.0
1070
   140
1041
4.5
1070
   343
1005
178
1070
   344
1005
178
1002
}
0
DIMENSION
5
19B
100
AcDbEntity
8
SK2
62
256
6
ByLayer
370
13
48
1
60
0
100
AcDbDimension
2
DimnDraft3D3
10
-125.1
20
-12.4375
30
0
11
-125.1
21
-2.688158
31
0
70
32
71
5
72
1
41
1
210
0
220
0
230
1
3
Standard
100
AcDbAlignedDimension
13
-116.85
23
12.4375
33
0
14
-116.85
24
-12.4375
34
0
50
90
100
AcDbRotatedDimension
1001
ACAD
1000
DSTYLE
1002
{
1070
    74
1070
     0
1070
   279
1070
     0
1070
   172
1070
     1
1070
   173
1070
     1
1070
   340
1005
167
1070
   271
1070
     3
1070
   272
1070
     3
1070
    77
1070
     1
1070
    73
1070
     0
1070
   171
1070
     4
1070
   274
1070
     4
1070
   177
1070
     2
1070
   176
1070
     2
1070
   178
1070
     7
1070
    78
1070
     8
1070
    41
1041
3.0
1070
   147
1041
2.25
1070
    42
1041
1.5
1070
    44
1041
3.0
1070
   140
1041
4.5
1070
   343
1005
178
1070
   344
1005
178
1002
}
0
DIMENSION
5
1A9
100
AcDbEntity
8
2
62
256
6
ByLayer
370
13
48
1
60
0
100
AcDbDimension
2
DimnDraft3D4
10
0
20
23.3125
30
0
11
25.311842
21
23.3125
31
0
70
32
71
5
72
1
41
1
210
0
220
0
230
1
3
Standard
100
AcDbAlignedDimension
13
56
23
15.0625
33
0
14
0
24
13.9375
34
0
50
0
100
AcDbRotatedDimension
1001
ACAD
1000
DSTYLE
1002
{
1070
   279
1070
     0
1070
   172
1070
     1
1070
   173
1070
     1
1070
   340
1005
167
1070
   271
1070
     3
1070
   272
1070
     3
1070
    77
1070
     1
1070
    73
1070
     0
1070
   171
1070
     4
1070
   274
1070
     4
1070
   177
1070
     2
1070
   176
1070
     2
1070
   178
1070
     7
1070
    78
1070
     8
1070
    41
1041
3.0
1070
   147
1041
2.25
1070
    42
1041
1.5
1070
    44
1041
3.0
1070
   140
1041
4.5
1070
   343
1005
178
1070
   344
1005
178
1002
}
0
DIMENSION
5
1B7
100
AcDbEntity
8
SK2
62
256
6
ByLayer
370
13
48
1
60
0
100
AcDbDimension
2
DimnDraft3D5
10
-115.35
20
33.3125
30
0
11
-33.482237
21
33.3125
31
0
70
32
71
5
72
1
41
1
210
0
220
0
230
1
3
Standard
100
AcDbAlignedDimension
13
56
23
15.0625
33
0
14
-115.35
24
13.9375
34
0
50
0
100
AcDbRotatedDimension
1001
ACAD
1000
DSTYLE
1002
{
1070
   279
1070
     0
1070
   172
1070
     1
1070
   173
1070
     1
1070
   340
1005
167
1070
   271
1070
     3
1070
   272
1070
     3
1070
    77
1070
     1
1070
    73
1070
     0
1070
   171
1070
     4
1070
   274
1070
     4
1070
   177
1070
     2
1070
   176
1070
     2
1070
   178
1070
     7
1070
    78
1070
     8
1070
    41
1041
3.0
1070
   147
1041
2.25
1070
    42
1041
1.5
1070
    44
1041
3.0
1070
   140
1041
4.5
1070
   343
1005
178
1070
   344
1005
178
1002
}
0
DIMENSION
5
1C5
100
AcDbEntity
8
2
62
256
6
ByLayer
370
13
48
1
60
0
100
AcDbDimension
2
DimnDraft3D6
10
56
20
-26.6875
30
0
11
39.311842
21
-26.6875
31
0
70
32
71
5
72
1
41
1
210
0
220
0
230
1
3
Standard
100
AcDbAlignedDimension
13
28
23
3.0625
33
0
14
56
24
4.0625
34
0
50
0
100
AcDbRotatedDimension
1001
ACAD
1000
DSTYLE
1002
{
1070
   279
1070
     0
1070
   172
1070
     1
1070
   173
1070
     1
1070
   340
1005
167
1070
   271
1070
     3
1070
   272
1070
     3
1070
    77
1070
     1
1070
    73
1070
     0
1070
   171
1070
     4
1070
   274
1070
     4
1070
   177
1070
     2
1070
   176
1070
     2
1070
   178
1070
     7
1070
    78
1070
     8
1070
    41
1041
3.0
1070
   147
1041
2.25
1070
    42
1041
1.5
1070
    44
1041
3.0
1070
   140
1041
4.5
1070
   343
1005
178
1070
   344
1005
178
1002
}
0
ENDSEC
0
SECTION
2
OBJECTS
0
DICTIONARY
5
22f
330
0
100
AcDbDictionary
280
0
281
1
3
ACAD_GROUP
350
230
3
ACAD_MLINESTYLE
350
231
0
DICTIONARY
5
230
330
0
100
AcDbDictionary
280
0
281
1
0
DICTIONARY
5
231
330
0
100
AcDbDictionary
280
0
281
1
3
Standard
350
18
0
MLINESTYLE
5
18
330
231
100
AcDbMlineStyle
2
Standard
70
0
3

62
256
51
90
52
90
71
2
49
-0.5
62
256
6
ByLayer
49
0.5
62
256
6
ByLayer
0
RASTERVARIABLES
5
21e
330

100
AcDbRasterVariables
90
0
70
1
71
1
72
1
0
ENDSEC
0
EOF
