0
SECTION
2
HEADER
9
$ACADVER
1
AC1015
9
$DWGCODEPAGE
3
ANSI_1252
9
$HANDSEED
5
1e0
9
$ANGBASE
50
0
9
$ANGDIR
70
0
9
$ATTMODE
70
1
9
$AUNITS
70
0
9
$AUPREC
70
0
9
$CECOLOR
62
256
9
$CELTSCALE
40
1
9
$CELTYPE
6
ByLayer
9
$CELWEIGHT
370
18
9
$CLAYER
8
0
9
$CMLJUST
70
0
9
$CMLSCALE
40
1
9
$CMLSTYLE
2
Standard
9
$DIMSTYLE
2
Standard
9
$TEXTSIZE
40
0.2
9
$TEXTSTYLE
7
Standard
9
$LUNITS
70
2
9
$LUPREC
70
4
9
$EXTNAMES
290
1
9
$INSUNITS
70
4
9
$LTSCALE
40
1
9
$LWDISPLAY
290
1
9
$PDMODE
70
0
9
$PDSIZE
40
0
9
$PLINEGEN
70
0
0
ENDSEC
0
SECTION
2
CLASSES
0
CLASS
1
RASTERVARIABLES
2
AcDbRasterVariables
3
ISM
90
0
280
0
281
0
0
ENDSEC
0
SECTION
2
TABLES
0
TABLE
2
VPORT
5
1d6
100
AcDbSymbolTable
0
VPORT
5
1
100
AcDbSymbolTableRecord
100
AcDbViewportTableRecord
2
*Active
70
0
10
0
20
0
11
1
21
1
12
-1
22
1
13
0
23
0
14
0.5
24
0.5
15
10
25
10
16
0
26
0
36
1
17
0
27
0
37
0
0
ENDTAB
0
TABLE
2
LTYPE
5
1d7
100
AcDbSymbolTable
0
LTYPE
5
14
100
AcDbSymbolTableRecord
100
AcDbLinetypeTableRecord
70
0
2
ByBlock
3

72
65
73
0
40
0
0
LTYPE
5
15
100
AcDbSymbolTableRecord
100
AcDbLinetypeTableRecord
70
0
2
ByLayer
3

72
65
73
0
40
0
0
LTYPE
5
16
100
AcDbSymbolTableRecord
100
AcDbLinetypeTableRecord
70
0
2
CONTINUOUS
3
Solid line
72
65
73
0
40
0
0
LTYPE
5
6A
100
AcDbSymbolTableRecord
100
AcDbLinetypeTableRecord
70
0
2
CENTER
3
____ _ ____ _ ____ _ ____
72
65
73
4
40
47.5
49
22
74
0
49
-8.5
74
0
49
8.5
74
0
49
-8.5
74
0
0
LTYPE
5
6B
100
AcDbSymbolTableRecord
100
AcDbLinetypeTableRecord
70
0
2
DASHED
3
__ __ __ __ __ __ __ __ __
72
65
73
2
40
25.72
49
12.86
74
0
49
-12.86
74
0
0
ENDTAB
0
TABLE
2
LAYER
5
1d8
100
AcDbSymbolTable
0
LAYER
5
10
100
AcDbSymbolTableRecord
100
AcDbLayerTableRecord
2
0
70
0
62
7
6
CONTINUOUS
290
1
370
-3
390
0
0
LAYER
5
6D
100
AcDbSymbolTableRecord
100
AcDbLayerTableRecord
2
80
70
0
62
-6
6
CONTINUOUS
290
1
370
-3
390
0
0
LAYER
5
6F
100
AcDbSymbolTableRecord
100
AcDbLayerTableRecord
2
2
70
0
62
7
6
CONTINUOUS
290
1
370
-3
390
0
0
LAYER
5
71
100
AcDbSymbolTableRecord
100
AcDbLayerTableRecord
2
81
70
0
62
-3
6
CONTINUOUS
290
1
370
-3
390
0
0
LAYER
5
75
100
AcDbSymbolTableRecord
100
AcDbLayerTableRecord
2
1
70
0
62
4
6
CONTINUOUS
290
1
370
-3
390
0
0
LAYER
5
1c3
100
AcDbSymbolTableRecord
100
AcDbLayerTableRecord
2
SK1
70
0
62
4
6
CONTINUOUS
290
1
370
-3
390
0
0
LAYER
5
1c4
100
AcDbSymbolTableRecord
100
AcDbLayerTableRecord
2
SK6
70
0
62
5
6
CONTINUOUS
290
1
370
-3
390
0
0
LAYER
5
1c5
100
AcDbSymbolTableRecord
100
AcDbLayerTableRecord
2
SK2
70
0
62
7
6
CONTINUOUS
290
1
370
-3
390
0
0
ENDTAB
0
TABLE
2
STYLE
5
1d9
100
AcDbSymbolTable
0
STYLE
5
11
100
AcDbSymbolTableRecord
100
AcDbTextStyleTableRecord
2
Standard
3
txt
70
0
71
0
40
0
41
1
42
0
50
0
0
STYLE
5
10B
100
AcDbSymbolTableRecord
100
AcDbTextStyleTableRecord
2
iso_b_vert
3
simplex.shx
70
0
71
0
40
0
41
1
42
0
50
0
0
STYLE
5
10C
100
AcDbSymbolTableRecord
100
AcDbTextStyleTableRecord
2
DWGDirectTextStyle
3
simplex
70
0
71
0
40
0
41
1
42
0
50
0
0
ENDTAB
0
TABLE
2
DIMSTYLE
5
1da
100
AcDbSymbolTable
100
AcDbDimStyleTable
0
DIMSTYLE
105
27
100
AcDbSymbolTableRecord
100
AcDbDimStyleTableRecord
2
Standard
70
0
3
<>
41
0.18
42
0.0625
44
0.18
140
0.18
147
0.09
73
0
74
0
77
1
271
2
275
0
278
52
280
0
340
11
0
ENDTAB
0
TABLE
2
VIEW
5
1db
100
AcDbSymbolTable
0
ENDTAB
0
TABLE
2
UCS
5
1dc
100
AcDbSymbolTable
0
ENDTAB
0
TABLE
2
APPID
5
1dd
100
AcDbSymbolTable
0
APPID
5
12
100
AcDbSymbolTableRecord
100
AcDbRegAppTableRecord
2
ACAD
70
0
0
ENDTAB
0
TABLE
2
BLOCK_RECORD
5
1de
100
AcDbSymbolTable
0
BLOCK_RECORD
5
1F
100
AcDbSymbolTableRecord
100
AcDbBlockTableRecord
2
*Model_Space
340
0
70
0
0
BLOCK_RECORD
5
1B
100
AcDbSymbolTableRecord
100
AcDbBlockTableRecord
2
*Paper_Space
340
0
70
0
0
BLOCK_RECORD
5
23
100
AcDbSymbolTableRecord
100
AcDbBlockTableRecord
2
*Paper_Space0
340
0
70
0
0
BLOCK_RECORD
5
10E
100
AcDbSymbolTableRecord
100
AcDbBlockTableRecord
2
DimnDraft3D1
340
0
70
0
0
BLOCK_RECORD
5
11C
100
AcDbSymbolTableRecord
100
AcDbBlockTableRecord
2
_CLOSED
340
0
70
0
0
BLOCK_RECORD
5
123
100
AcDbSymbolTableRecord
100
AcDbBlockTableRecord
2
DimnDraft3D2
340
0
70
0
0
BLOCK_RECORD
5
131
100
AcDbSymbolTableRecord
100
AcDbBlockTableRecord
2
DimnDraft3D3
340
0
70
0
0
BLOCK_RECORD
5
140
100
AcDbSymbolTableRecord
100
AcDbBlockTableRecord
2
DimnDraft3D4
340
0
70
0
0
BLOCK_RECORD
5
14E
100
AcDbSymbolTableRecord
100
AcDbBlockTableRecord
2
DimnDraft3D5
340
0
70
0
0
BLOCK_RECORD
5
15C
100
AcDbSymbolTableRecord
100
AcDbBlockTableRecord
2
DimnDraft3D6
340
0
70
0
0
ENDTAB
0
ENDSEC
0
SECTION
2
BLOCKS
0
BLOCK
5
20
100
AcDbEntity
8
0
100
AcDbBlockBegin
2
*Model_Space
70
0
10
0
20
0
30
0
3
*Model_Space
0
ENDBLK
5
21
100
AcDbEntity
8
0
100
AcDbBlockEnd
0
BLOCK
5
1C
100
AcDbEntity
8
0
100
AcDbBlockBegin
2
*Paper_Space
70
0
10
0
20
0
30
0
3
*Paper_Space
0
ENDBLK
5
1D
100
AcDbEntity
8
0
100
AcDbBlockEnd
0
BLOCK
5
24
100
AcDbEntity
8
0
100
AcDbBlockBegin
2
*Paper_Space0
70
0
10
0
20
0
30
0
3
*Paper_Space0
0
ENDBLK
5
25
100
AcDbEntity
8
0
100
AcDbBlockEnd
0
BLOCK
5
119
100
AcDbEntity
8
0
100
AcDbBlockBegin
2
DimnDraft3D1
70
0
10
0
20
0
30
0
3
DimnDraft3D1
0
MTEXT
5
10F
100
AcDbEntity
8
2
62
256
6
ByLayer
370
18
48
1
60
0
100
AcDbMText
10
60.125
20
19.1875
30
0
210
0
220
0
230
1
1
\W0.6380;4
40
4.5
41
0
44
1.084337
50
90
71
7
72
5
7
iso_b_vert
0
LINE
5
110
100
AcDbEntity
8
2
62
256
6
ByLayer
370
13
48
1
60
0
100
AcDbLine
10
48.5
20
9.5625
30
0
11
64.25
21
9.5625
31
0
39
0
210
0
220
0
230
1
0
LINE
5
111
100
AcDbEntity
8
2
62
256
6
ByLayer
370
13
48
1
60
0
100
AcDbLine
10
48.5
20
13.5625
30
0
11
64.25
21
13.5625
31
0
39
0
210
0
220
0
230
1
0
LINE
5
112
100
AcDbEntity
8
2
62
256
6
ByLayer
370
13
48
1
60
0
100
AcDbLine
10
61.25
20
20.549342
30
0
11
61.25
21
-1.6875
31
0
39
0
210
0
220
0
230
1
0
LINE
5
113
100
AcDbEntity
8
2
62
256
6
ByLayer
370
13
48
1
60
0
100
AcDbLine
10
61.25
20
9.5625
30
0
11
61.644957
21
6.562501
31
0
39
0
210
0
220
0
230
1
0
LINE
5
114
100
AcDbEntity
8
2
62
256
6
ByLayer
370
13
48
1
60
0
100
AcDbLine
10
61.25
20
9.5625
30
0
11
60.855043
21
6.562499
31
0
39
0
210
0
220
0
230
1
0
LINE
5
115
100
AcDbEntity
8
2
62
256
6
ByLayer
370
13
48
1
60
0
100
AcDbLine
10
61.644957
20
6.562501
30
0
11
60.855043
21
6.562499
31
0
39
0
210
0
220
0
230
1
0
LINE
5
116
100
AcDbEntity
8
2
62
256
6
ByLayer
370
13
48
1
60
0
100
AcDbLine
10
61.25
20
13.5625
30
0
11
60.855043
21
16.562499
31
0
39
0
210
0
220
0
230
1
0
LINE
5
117
100
AcDbEntity
8
2
62
256
6
ByLayer
370
13
48
1
60
0
100
AcDbLine
10
61.25
20
13.5625
30
0
11
61.644957
21
16.562501
31
0
39
0
210
0
220
0
230
1
0
LINE
5
118
100
AcDbEntity
8
2
62
256
6
ByLayer
370
13
48
1
60
0
100
AcDbLine
10
60.855043
20
16.562499
30
0
11
61.644957
21
16.562501
31
0
39
0
210
0
220
0
230
1
0
ENDBLK
5
11A
100
AcDbEntity
8
0
100
AcDbBlockEnd
0
BLOCK
5
11D
100
AcDbEntity
8
0
100
AcDbBlockBegin
2
_CLOSED
70
0
10
0
20
0
30
0
3
_CLOSED
0
LINE
5
11F
100
AcDbEntity
8
0
62
256
6
ByLayer
370
-2
48
1
60
0
100
AcDbLine
10
-1
20
0.166667
30
0
11
0
21
0
31
0
39
0
210
0
220
0
230
1
0
LINE
5
120
100
AcDbEntity
8
0
62
256
6
ByLayer
370
-2
48
1
60
0
100
AcDbLine
10
0
20
0
30
0
11
-1
21
-0.166667
31
0
39
0
210
0
220
0
230
1
0
LINE
5
121
100
AcDbEntity
8
0
62
256
6
ByLayer
370
-2
48
1
60
0
100
AcDbLine
10
-1
20
0.166667
30
0
11
-1
21
-0.166667
31
0
39
0
210
0
220
0
230
1
0
LINE
5
122
100
AcDbEntity
8
0
62
256
6
ByLayer
370
-2
48
1
60
0
100
AcDbLine
10
0
20
0
30
0
11
-1
21
0
31
0
39
0
210
0
220
0
230
1
0
ENDBLK
5
11E
100
AcDbEntity
8
0
100
AcDbBlockEnd
0
BLOCK
5
12E
100
AcDbEntity
8
0
100
AcDbBlockBegin
2
DimnDraft3D2
70
0
10
0
20
0
30
0
3
DimnDraft3D2
0
MTEXT
5
124
100
AcDbEntity
8
2
62
256
6
ByLayer
370
18
48
1
60
0
100
AcDbMText
10
70.125
20
-1.000658
30
0
210
0
220
0
230
1
1
\W0.6740;26
40
4.5
41
0
44
1.084337
50
90
71
7
72
5
7
iso_b_vert
0
LINE
5
125
100
AcDbEntity
8
2
62
256
6
ByLayer
370
13
48
1
60
0
100
AcDbLine
10
48.5
20
13.5625
30
0
11
74.25
21
13.5625
31
0
39
0
210
0
220
0
230
1
0
LINE
5
126
100
AcDbEntity
8
2
62
256
6
ByLayer
370
13
48
1
60
0
100
AcDbLine
10
-3.5
20
-12.4375
30
0
11
74.25
21
-12.4375
31
0
39
0
210
0
220
0
230
1
0
LINE
5
127
100
AcDbEntity
8
2
62
256
6
ByLayer
370
13
48
1
60
0
100
AcDbLine
10
71.25
20
13.5625
30
0
11
71.25
21
-12.4375
31
0
39
0
210
0
220
0
230
1
0
LINE
5
128
100
AcDbEntity
8
2
62
256
6
ByLayer
370
13
48
1
60
0
100
AcDbLine
10
71.25
20
13.5625
30
0
11
71.644957
21
10.562501
31
0
39
0
210
0
220
0
230
1
0
LINE
5
129
100
AcDbEntity
8
2
62
256
6
ByLayer
370
13
48
1
60
0
100
AcDbLine
10
71.25
20
13.5625
30
0
11
70.855043
21
10.562499
31
0
39
0
210
0
220
0
230
1
0
LINE
5
12A
100
AcDbEntity
8
2
62
256
6
ByLayer
370
13
48
1
60
0
100
AcDbLine
10
71.644957
20
10.562501
30
0
11
70.855043
21
10.562499
31
0
39
0
210
0
220
0
230
1
0
LINE
5
12B
100
AcDbEntity
8
2
62
256
6
ByLayer
370
13
48
1
60
0
100
AcDbLine
10
71.25
20
-12.4375
30
0
11
70.855043
21
-9.437501
31
0
39
0
210
0
220
0
230
1
0
LINE
5
12C
100
AcDbEntity
8
2
62
256
6
ByLayer
370
13
48
1
60
0
100
AcDbLine
10
71.25
20
-12.4375
30
0
11
71.644957
21
-9.437499
31
0
39
0
210
0
220
0
230
1
0
LINE
5
12D
100
AcDbEntity
8
2
62
256
6
ByLayer
370
13
48
1
60
0
100
AcDbLine
10
70.855043
20
-9.437501
30
0
11
71.644957
21
-9.437499
31
0
39
0
210
0
220
0
230
1
0
ENDBLK
5
12F
100
AcDbEntity
8
0
100
AcDbBlockEnd
0
BLOCK
5
13D
100
AcDbEntity
8
0
100
AcDbBlockBegin
2
DimnDraft3D3
70
0
10
0
20
0
30
0
3
DimnDraft3D3
0
MTEXT
5
132
100
AcDbEntity
8
SK2
62
256
6
ByLayer
370
18
48
1
60
0
100
AcDbMText
10
-115.225
20
-1.563158
30
0
210
0
220
0
230
1
1
\W0.6740;25
40
4.5
41
0
44
1.084337
50
90
71
7
72
5
7
iso_b_vert
0
LINE
5
134
100
AcDbEntity
8
SK2
62
256
6
ByLayer
370
13
48
1
60
0
100
AcDbLine
10
-105.85
20
12.4375
30
0
11
-117.1
21
12.4375
31
0
39
0
210
0
220
0
230
1
0
LINE
5
135
100
AcDbEntity
8
SK2
62
256
6
ByLayer
370
13
48
1
60
0
100
AcDbLine
10
-105.85
20
-12.4375
30
0
11
-117.1
21
-12.4375
31
0
39
0
210
0
220
0
230
1
0
LINE
5
136
100
AcDbEntity
8
SK2
62
256
6
ByLayer
370
13
48
1
60
0
100
AcDbLine
10
-114.1
20
12.4375
30
0
11
-114.1
21
-12.4375
31
0
39
0
210
0
220
0
230
1
0
LINE
5
137
100
AcDbEntity
8
SK2
62
256
6
ByLayer
370
13
48
1
60
0
100
AcDbLine
10
-114.1
20
12.4375
30
0
11
-113.705043
21
9.437501
31
0
39
0
210
0
220
0
230
1
0
LINE
5
138
100
AcDbEntity
8
SK2
62
256
6
ByLayer
370
13
48
1
60
0
100
AcDbLine
10
-114.1
20
12.4375
30
0
11
-114.494957
21
9.437499
31
0
39
0
210
0
220
0
230
1
0
LINE
5
139
100
AcDbEntity
8
SK2
62
256
6
ByLayer
370
13
48
1
60
0
100
AcDbLine
10
-113.705043
20
9.437501
30
0
11
-114.494957
21
9.437499
31
0
39
0
210
0
220
0
230
1
0
LINE
5
13A
100
AcDbEntity
8
SK2
62
256
6
ByLayer
370
13
48
1
60
0
100
AcDbLine
10
-114.1
20
-12.4375
30
0
11
-114.494957
21
-9.437501
31
0
39
0
210
0
220
0
230
1
0
LINE
5
13B
100
AcDbEntity
8
SK2
62
256
6
ByLayer
370
13
48
1
60
0
100
AcDbLine
10
-114.1
20
-12.4375
30
0
11
-113.705043
21
-9.437499
31
0
39
0
210
0
220
0
230
1
0
LINE
5
13C
100
AcDbEntity
8
SK2
62
256
6
ByLayer
370
13
48
1
60
0
100
AcDbLine
10
-114.494957
20
-9.437501
30
0
11
-113.705043
21
-9.437499
31
0
39
0
210
0
220
0
230
1
0
ENDBLK
5
13E
100
AcDbEntity
8
0
100
AcDbBlockEnd
0
BLOCK
5
14B
100
AcDbEntity
8
0
100
AcDbBlockBegin
2
DimnDraft3D4
70
0
10
0
20
0
30
0
3
DimnDraft3D4
0
MTEXT
5
141
100
AcDbEntity
8
2
62
256
6
ByLayer
370
18
48
1
60
0
100
AcDbMText
10
21.7
20
24.4375
30
0
210
0
220
0
230
1
1
\W0.7361;47
40
4.5
41
0
44
1.084337
50
0
71
7
72
5
7
iso_b_vert
0
LINE
5
142
100
AcDbEntity
8
2
62
256
6
ByLayer
370
13
48
1
60
0
100
AcDbLine
10
47
20
15.0625
30
0
11
47
21
26.3125
31
0
39
0
210
0
220
0
230
1
0
LINE
5
143
100
AcDbEntity
8
2
62
256
6
ByLayer
370
13
48
1
60
0
100
AcDbLine
10
0
20
13.9375
30
0
11
0
21
26.3125
31
0
39
0
210
0
220
0
230
1
0
LINE
5
144
100
AcDbEntity
8
2
62
256
6
ByLayer
370
13
48
1
60
0
100
AcDbLine
10
47
20
23.3125
30
0
11
0
21
23.3125
31
0
39
0
210
0
220
0
230
1
0
LINE
5
145
100
AcDbEntity
8
2
62
256
6
ByLayer
370
13
48
1
60
0
100
AcDbLine
10
47
20
23.3125
30
0
11
44.000001
21
22.917543
31
0
39
0
210
0
220
0
230
1
0
LINE
5
146
100
AcDbEntity
8
2
62
256
6
ByLayer
370
13
48
1
60
0
100
AcDbLine
10
47
20
23.3125
30
0
11
43.999999
21
23.707457
31
0
39
0
210
0
220
0
230
1
0
LINE
5
147
100
AcDbEntity
8
2
62
256
6
ByLayer
370
13
48
1
60
0
100
AcDbLine
10
44.000001
20
22.917543
30
0
11
43.999999
21
23.707457
31
0
39
0
210
0
220
0
230
1
0
LINE
5
148
100
AcDbEntity
8
2
62
256
6
ByLayer
370
13
48
1
60
0
100
AcDbLine
10
0
20
23.3125
30
0
11
2.999999
21
23.707457
31
0
39
0
210
0
220
0
230
1
0
LINE
5
149
100
AcDbEntity
8
2
62
256
6
ByLayer
370
13
48
1
60
0
100
AcDbLine
10
0
20
23.3125
30
0
11
3.000001
21
22.917543
31
0
39
0
210
0
220
0
230
1
0
LINE
5
14A
100
AcDbEntity
8
2
62
256
6
ByLayer
370
13
48
1
60
0
100
AcDbLine
10
2.999999
20
23.707457
30
0
11
3.000001
21
22.917543
31
0
39
0
210
0
220
0
230
1
0
ENDBLK
5
14C
100
AcDbEntity
8
0
100
AcDbBlockEnd
0
BLOCK
5
159
100
AcDbEntity
8
0
100
AcDbBlockBegin
2
DimnDraft3D5
70
0
10
0
20
0
30
0
3
DimnDraft3D5
0
MTEXT
5
14F
100
AcDbEntity
8
SK2
62
256
6
ByLayer
370
18
48
1
60
0
100
AcDbMText
10
-31.357237
20
34.4375
30
0
210
0
220
0
230
1
1
\W0.6217;150
40
4.5
41
0
44
1.084337
50
0
71
7
72
5
7
iso_b_vert
0
LINE
5
150
100
AcDbEntity
8
SK2
62
256
6
ByLayer
370
13
48
1
60
0
100
AcDbLine
10
47
20
15.0625
30
0
11
47
21
36.3125
31
0
39
0
210
0
220
0
230
1
0
LINE
5
151
100
AcDbEntity
8
SK2
62
256
6
ByLayer
370
13
48
1
60
0
100
AcDbLine
10
-104.35
20
13.9375
30
0
11
-104.35
21
36.3125
31
0
39
0
210
0
220
0
230
1
0
LINE
5
152
100
AcDbEntity
8
SK2
62
256
6
ByLayer
370
13
48
1
60
0
100
AcDbLine
10
47
20
33.3125
30
0
11
-104.35
21
33.3125
31
0
39
0
210
0
220
0
230
1
0
LINE
5
153
100
AcDbEntity
8
SK2
62
256
6
ByLayer
370
13
48
1
60
0
100
AcDbLine
10
47
20
33.3125
30
0
11
44.000001
21
32.917543
31
0
39
0
210
0
220
0
230
1
0
LINE
5
154
100
AcDbEntity
8
SK2
62
256
6
ByLayer
370
13
48
1
60
0
100
AcDbLine
10
47
20
33.3125
30
0
11
43.999999
21
33.707457
31
0
39
0
210
0
220
0
230
1
0
LINE
5
155
100
AcDbEntity
8
SK2
62
256
6
ByLayer
370
13
48
1
60
0
100
AcDbLine
10
44.000001
20
32.917543
30
0
11
43.999999
21
33.707457
31
0
39
0
210
0
220
0
230
1
0
LINE
5
156
100
AcDbEntity
8
SK2
62
256
6
ByLayer
370
13
48
1
60
0
100
AcDbLine
10
-104.35
20
33.3125
30
0
11
-101.350001
21
33.707457
31
0
39
0
210
0
220
0
230
1
0
LINE
5
157
100
AcDbEntity
8
SK2
62
256
6
ByLayer
370
13
48
1
60
0
100
AcDbLine
10
-104.35
20
33.3125
30
0
11
-101.349999
21
32.917543
31
0
39
0
210
0
220
0
230
1
0
LINE
5
158
100
AcDbEntity
8
SK2
62
256
6
ByLayer
370
13
48
1
60
0
100
AcDbLine
10
-101.350001
20
33.707457
30
0
11
-101.349999
21
32.917543
31
0
39
0
210
0
220
0
230
1
0
ENDBLK
5
15A
100
AcDbEntity
8
0
100
AcDbBlockEnd
0
BLOCK
5
167
100
AcDbEntity
8
0
100
AcDbBlockBegin
2
DimnDraft3D6
70
0
10
0
20
0
30
0
3
DimnDraft3D6
0
MTEXT
5
15D
100
AcDbEntity
8
2
62
256
6
ByLayer
370
18
48
1
60
0
100
AcDbMText
10
32.936842
20
-25.5625
30
0
210
0
220
0
230
1
1
\W0.6740;25
40
4.5
41
0
44
1.084337
50
0
71
7
72
5
7
iso_b_vert
0
LINE
5
15E
100
AcDbEntity
8
2
62
256
6
ByLayer
370
13
48
1
60
0
100
AcDbLine
10
22
20
7.0625
30
0
11
22
21
-29.6875
31
0
39
0
210
0
220
0
230
1
0
LINE
5
15F
100
AcDbEntity
8
2
62
256
6
ByLayer
370
13
48
1
60
0
100
AcDbLine
10
47
20
8.0625
30
0
11
47
21
-29.6875
31
0
39
0
210
0
220
0
230
1
0
LINE
5
160
100
AcDbEntity
8
2
62
256
6
ByLayer
370
13
48
1
60
0
100
AcDbLine
10
22
20
-26.6875
30
0
11
47
21
-26.6875
31
0
39
0
210
0
220
0
230
1
0
LINE
5
161
100
AcDbEntity
8
2
62
256
6
ByLayer
370
13
48
1
60
0
100
AcDbLine
10
22
20
-26.6875
30
0
11
24.999999
21
-26.292543
31
0
39
0
210
0
220
0
230
1
0
LINE
5
162
100
AcDbEntity
8
2
62
256
6
ByLayer
370
13
48
1
60
0
100
AcDbLine
10
22
20
-26.6875
30
0
11
25.000001
21
-27.082457
31
0
39
0
210
0
220
0
230
1
0
LINE
5
163
100
AcDbEntity
8
2
62
256
6
ByLayer
370
13
48
1
60
0
100
AcDbLine
10
24.999999
20
-26.292543
30
0
11
25.000001
21
-27.082457
31
0
39
0
210
0
220
0
230
1
0
LINE
5
164
100
AcDbEntity
8
2
62
256
6
ByLayer
370
13
48
1
60
0
100
AcDbLine
10
47
20
-26.6875
30
0
11
44.000001
21
-27.082457
31
0
39
0
210
0
220
0
230
1
0
LINE
5
165
100
AcDbEntity
8
2
62
256
6
ByLayer
370
13
48
1
60
0
100
AcDbLine
10
47
20
-26.6875
30
0
11
43.999999
21
-26.292543
31
0
39
0
210
0
220
0
230
1
0
LINE
5
166
100
AcDbEntity
8
2
62
256
6
ByLayer
370
13
48
1
60
0
100
AcDbLine
10
44.000001
20
-27.082457
30
0
11
43.999999
21
-26.292543
31
0
39
0
210
0
220
0
230
1
0
ENDBLK
5
168
100
AcDbEntity
8
0
100
AcDbBlockEnd
0
ENDSEC
0
SECTION
2
ENTITIES
0
ARC
5
BF
100
AcDbEntity
8
1
62
256
6
ByLayer
370
18
48
1
60
0
100
AcDbCircle
39
0
10
-22.1
20
8.2875
30
0
40
1.6
210
0
220
0
230
-1
100
AcDbArc
50
0
51
36.524738
0
ARC
5
C1
100
AcDbEntity
8
1
62
256
6
ByLayer
370
18
48
1
60
0
100
AcDbCircle
39
0
10
13.35
20
5.5875
30
0
40
2.807
210
0
220
0
230
1
100
AcDbArc
50
360
51
59.965127
0
ARC
5
C2
100
AcDbEntity
8
1
62
256
6
ByLayer
370
18
48
1
60
0
100
AcDbCircle
39
0
10
13.35
20
5.5875
30
0
40
2.807
210
0
220
0
230
1
100
AcDbArc
50
120.034873
51
180
0
ARC
5
C4
100
AcDbEntity
8
1
62
256
6
ByLayer
370
18
48
1
60
0
100
AcDbCircle
39
0
10
13.35
20
5.5875
30
0
40
2.807
210
0
220
0
230
1
100
AcDbArc
50
300.034873
51
360
0
ARC
5
C5
100
AcDbEntity
8
1
62
256
6
ByLayer
370
18
48
1
60
0
100
AcDbCircle
39
0
10
13.35
20
5.5875
30
0
40
2.0135
210
0
220
0
230
1
100
AcDbArc
50
88.140164
51
91.859836
0
ARC
5
C6
100
AcDbEntity
8
1
62
256
6
ByLayer
370
18
48
1
60
0
100
AcDbCircle
39
0
10
13.35
20
5.5875
30
0
40
2.807
210
0
220
0
230
1
100
AcDbArc
50
239.965127
51
300.034873
0
ARC
5
C8
100
AcDbEntity
8
1
62
256
6
ByLayer
370
18
48
1
60
0
100
AcDbCircle
39
0
10
13.35
20
5.5875
30
0
40
2.807
210
0
220
0
230
1
100
AcDbArc
50
59.965127
51
120.034873
0
ARC
5
C9
100
AcDbEntity
8
1
62
256
6
ByLayer
370
18
48
1
60
0
100
AcDbCircle
39
0
10
13.35
20
5.5875
30
0
40
2.0135
210
0
220
0
230
1
100
AcDbArc
50
268.140164
51
271.859836
0
ARC
5
CB
100
AcDbEntity
8
1
62
256
6
ByLayer
370
18
48
1
60
0
100
AcDbCircle
39
0
10
13.35
20
5.5875
30
0
40
2.807
210
0
220
0
230
1
100
AcDbArc
50
180
51
239.965127
0
ARC
5
CC
100
AcDbEntity
8
1
62
256
6
ByLayer
370
18
48
1
60
0
100
AcDbCircle
39
0
10
22.4
20
13.15842
30
0
40
0.4
210
0
220
0
230
1
100
AcDbArc
50
97.963445
51
152.690369
0
ARC
5
CD
100
AcDbEntity
8
1
62
256
6
ByLayer
370
18
48
1
60
0
100
AcDbCircle
39
0
10
22.4
20
9.96658
30
0
40
0.4
210
0
220
0
230
1
100
AcDbArc
50
192.668698
51
262.036555
0
ARC
5
CE
100
AcDbEntity
8
1
62
256
6
ByLayer
370
18
48
1
60
0
100
AcDbCircle
39
0
10
-46.6
20
13.15842
30
0
40
0.4
210
0
220
0
230
-1
100
AcDbArc
50
97.963445
51
179.628206
0
ARC
5
CF
100
AcDbEntity
8
1
62
256
6
ByLayer
370
18
48
1
60
0
100
AcDbCircle
39
0
10
-46.6
20
9.96658
30
0
40
0.4
210
0
220
0
230
-1
100
AcDbArc
50
180.371794
51
262.036555
0
CIRCLE
5
C0
100
AcDbEntity
8
1
62
256
6
ByLayer
370
18
48
1
60
0
100
AcDbCircle
10
-13.35
20
5.5875
30
0
40
6.15
39
0
210
0
220
0
230
-1
0
CIRCLE
5
C3
100
AcDbEntity
8
1
62
256
6
ByLayer
370
18
48
1
60
0
100
AcDbCircle
10
13.35
20
5.5875
30
0
40
5.13
39
0
210
0
220
0
230
1
0
CIRCLE
5
C7
100
AcDbEntity
8
1
62
256
6
ByLayer
370
18
48
1
60
0
100
AcDbCircle
10
-13.35
20
5.5875
30
0
40
3
39
0
210
0
220
0
230
-1
0
CIRCLE
5
CA
100
AcDbEntity
8
1
62
256
6
ByLayer
370
18
48
1
60
0
100
AcDbCircle
10
-13.35
20
5.5875
30
0
40
5.93
39
0
210
0
220
0
230
-1
0
ELLIPSE
5
D0
100
AcDbEntity
8
1
62
256
6
ByLayer
370
18
48
1
60
0
100
AcDbEllipse
10
41.209437
20
409.762328
30
0
11
-566.296265348111
21
1.32677930556654E-12
31
0
210
0
220
0
230
1
40
0.700207
41
1.54784493418442
42
1.56668533590629
0
ELLIPSE
5
D1
100
AcDbEntity
8
1
62
256
6
ByLayer
370
18
48
1
60
0
100
AcDbEllipse
10
51.216244
20
409.762509
30
0
11
4.6451054652977E-13
21
396.525008508925
31
0
210
0
220
0
230
1
40
0.57735
41
3.07850308295881
42
3.10960728609217
0
ELLIPSE
5
D2
100
AcDbEntity
8
1
62
256
6
ByLayer
370
18
48
1
60
0
100
AcDbEllipse
10
41.209437
20
163.5625
30
0
11
-219.470644795019
21
5.14199240770866E-13
31
0
210
0
220
0
230
1
40
0.700208
41
1.51154578742636
42
1.56019654992938
0
ELLIPSE
5
D3
100
AcDbEntity
8
1
62
256
6
ByLayer
370
18
48
1
60
0
100
AcDbEllipse
10
-774.786801
20
197.041973
30
0
11
-5120.03783305777
21
34.7649393885176
31
0
210
0
220
0
230
1
40
0.035917
41
1.73063728363957
42
1.73084832558752
0
ELLIPSE
5
D4
100
AcDbEntity
8
1
62
256
6
ByLayer
370
18
48
1
60
0
100
AcDbEllipse
10
236.526264
20
163.264866
30
0
11
-1269.90941335034
21
-27.1893092045763
31
0
210
0
220
0
230
1
40
0.118865
41
1.40076870360749
42
1.4026904099057
0
ELLIPSE
5
D5
100
AcDbEntity
8
1
62
256
6
ByLayer
370
18
48
1
60
0
100
AcDbEllipse
10
-2187.020534
20
163.514893
30
0
11
-13543.8918410485
21
26.6795761689772
31
0
210
0
220
0
230
1
40
0.011171
41
1.73507821921184
42
1.73588649920375
0
ELLIPSE
5
D6
100
AcDbEntity
8
1
62
256
6
ByLayer
370
18
48
1
60
0
100
AcDbEllipse
10
39.434518
20
12.921249
30
0
11
-0.0995919754607049
21
-0.00902445171190292
31
0
210
0
220
0
230
1
40
1
41
-0.0903674455589898
42
0.0841654695170186
0
ELLIPSE
5
D7
100
AcDbEntity
8
1
62
256
6
ByLayer
370
18
48
1
60
0
100
AcDbEllipse
10
39.55644
20
12.229799
30
0
11
-0.091441376557969
21
-0.0404780765284665
31
0
210
0
220
0
230
1
40
1
41
-0.242206128452652
42
0.247344416923834
0
ELLIPSE
5
D8
100
AcDbEntity
8
1
62
256
6
ByLayer
370
18
48
1
60
0
100
AcDbEllipse
10
46.596996
20
9.968944
30
0
11
0.311892621547632
21
-0.258440281666709
31
0
210
0
220
0
230
1
40
0.987524
41
-0.916426657138436
42
-0.73953217274296
0
ELLIPSE
5
D9
100
AcDbEntity
8
1
62
256
6
ByLayer
370
18
48
1
60
0
100
AcDbEllipse
10
39.55644
20
10.895201
30
0
11
-0.091441376557969
21
0.0404780765284667
31
0
210
0
220
0
230
1
40
1
41
-0.247344416923834
42
0.242206128452652
0
ELLIPSE
5
DA
100
AcDbEntity
8
1
62
256
6
ByLayer
370
18
48
1
60
0
100
AcDbEllipse
10
46.596996
20
13.156056
30
0
11
-0.311892621547632
21
-0.258440281666709
31
0
210
0
220
0
230
1
40
0.987524
41
-2.4020604808467
42
-2.22516599645136
0
ELLIPSE
5
DB
100
AcDbEntity
8
1
62
256
6
ByLayer
370
18
48
1
60
0
100
AcDbEllipse
10
22.403004
20
9.968944
30
0
11
0.311892621547632
21
0.258440281666709
31
0
210
0
220
0
230
1
40
0.987524
41
-2.40206048084705
42
-2.2251659964513
0
ELLIPSE
5
DC
100
AcDbEntity
8
1
62
256
6
ByLayer
370
18
48
1
60
0
100
AcDbEllipse
10
39.434518
20
10.203751
30
0
11
-0.0995919754607049
21
0.00902445171190321
31
0
210
0
220
0
230
1
40
1
41
-0.0841654695170186
42
0.0903674455589898
0
ELLIPSE
5
DD
100
AcDbEntity
8
1
62
256
6
ByLayer
370
18
48
1
60
0
100
AcDbEllipse
10
22.403004
20
13.156056
30
0
11
-0.311892621547632
21
0.258440281666709
31
0
210
0
220
0
230
1
40
0.987524
41
-0.916426657138492
42
-0.739532172742882
0
POINT
5
6C
100
AcDbEntity
8
80
62
256
6
ByLayer
370
18
48
1
60
0
100
AcDbPoint
10
0
20
0
30
0
39
0
210
0
220
0
230
1
50
360
0
POINT
5
6E
100
AcDbEntity
8
2
62
256
6
ByLayer
370
18
48
1
60
0
100
AcDbPoint
10
47
20
13.5625
30
0
39
0
210
0
220
0
230
1
50
360
0
POINT
5
70
100
AcDbEntity
8
81
62
256
6
ByLayer
370
18
48
1
60
0
100
AcDbPoint
10
47
20
13.5625
30
0
39
0
210
0
220
0
230
1
50
360
0
SPLINE
5
DE
100
AcDbEntity
8
1
62
256
6
ByLayer
370
18
48
1
60
0
100
AcDbSpline
70
4
71
3
72
8
73
4
40
0
40
0
40
0
40
0
40
1
40
1
40
1
40
1
41
1
10
27.7068086103385
20
9.89559741525841
30
0
41
1
10
27.5500902897216
20
9.89561591554872
30
0
41
1
10
27.3929039880466
20
9.89552567867028
30
0
41
1
10
27.2373395215459
20
9.89533315935418
30
0
0
SPLINE
5
DF
100
AcDbEntity
8
1
62
256
6
ByLayer
370
18
48
1
60
0
100
AcDbSpline
70
4
71
3
72
8
73
4
40
0
40
0
40
0
40
0
40
1
40
1
40
1
40
1
41
1
10
39.1195868846333
20
11.0982814543471
30
0
41
1
10
39.1558305132186
20
11.1143673176659
30
0
41
1
10
39.1920733375391
20
11.1304558816509
30
0
41
1
10
39.2283156668964
20
11.1465461068821
30
0
0
SPLINE
5
E0
100
AcDbEntity
8
1
62
256
6
ByLayer
370
18
48
1
60
0
100
AcDbSpline
70
4
71
3
72
14
73
10
40
0
40
0
40
0
40
0
40
0.318825335745318
40
0.318825335745318
40
0.641378913519526
40
0.641378913519526
40
0.963672388635764
40
0.963672388635764
40
1
40
1
40
1
40
1
41
1
10
39.1195868846333
20
12.0267185456528
30
0
41
1
10
39.106793014013
20
12.032396797587
30
0
41
1
10
39.0946194073437
20
12.0408136973169
30
0
41
1
10
39.0733610363011
20
12.0618885821227
30
0
41
1
10
39.064021619688
20
12.0748876111589
30
0
41
1
10
39.049605342509
20
12.1035233263036
30
0
41
1
10
39.0443262529216
20
12.1195534661562
30
0
41
1
10
39.0410810594112
20
12.1378488581191
30
0
41
1
10
39.0407776400381
20
12.1397339976231
30
0
41
1
10
39.0405040733832
20
12.1416252121207
30
0
0
SPLINE
5
E1
100
AcDbEntity
8
1
62
256
6
ByLayer
370
18
48
1
60
0
100
AcDbSpline
70
4
71
3
72
8
73
4
40
0
40
0
40
0
40
0
40
1
40
1
40
1
40
1
41
1
10
22.1
20
9.89128973390558
30
0
41
1
10
22.1498118230671
20
9.89132489323779
30
0
41
1
10
22.1999372218243
20
9.89134272307808
30
0
41
1
10
22.25
20
9.89134272307808
30
0
0
SPLINE
5
E2
100
AcDbEntity
8
1
62
256
6
ByLayer
370
18
48
1
60
0
100
AcDbSpline
70
4
71
3
72
14
73
10
40
0
40
0
40
0
40
0
40
0.273335586308423
40
0.273335586308423
40
0.549864884754059
40
0.549864884754059
40
0.826242595228951
40
0.826242595228951
40
1
40
1
40
1
40
1
41
1
10
39.2283156668964
20
11.1465461068821
30
0
41
1
10
39.2411000042653
20
11.1522218697633
30
0
41
1
10
39.2532642576505
20
11.1606344671603
30
0
41
1
10
39.2745054552684
20
11.1816974924646
30
0
41
1
10
39.283836751431
20
11.1946884838198
30
0
41
1
10
39.2982441671546
20
11.223308011158
30
0
41
1
10
39.3035213092883
20
11.239330006648
30
0
41
1
10
39.3082833172109
20
11.2661457275076
30
0
41
1
10
39.3092231349939
20
11.2768528161222
30
0
41
1
10
39.3092231349941
20
11.2874999999981
30
0
0
SPLINE
5
E3
100
AcDbEntity
8
1
62
256
6
ByLayer
370
18
48
1
60
0
100
AcDbSpline
70
4
71
3
72
8
73
4
40
0
40
0
40
0
40
0
40
1
40
1
40
1
40
1
41
1
10
39.2283156668964
20
11.9784538931178
30
0
41
1
10
39.1920733240275
20
11.9945441243476
30
0
41
1
10
39.1558304974701
20
12.0106326893236
30
0
41
1
10
39.1195868846333
20
12.0267185456528
30
0
0
SPLINE
5
E4
100
AcDbEntity
8
1
62
256
6
ByLayer
370
18
48
1
60
0
100
AcDbSpline
70
4
71
3
72
18
73
14
40
0
40
0
40
0
40
0
40
0.0527609895670799
40
0.0527609895670799
40
0.186827372228674
40
0.186827372228674
40
0.402010586785396
40
0.402010586785396
40
0.617210862144564
40
0.617210862144564
40
0.832155727985426
40
0.832155727985426
40
1
40
1
40
1
40
1
41
1
10
20.4999999999999
20
8.55438529305951
30
0
41
1
10
20.4999999999999
20
8.59873915450274
30
0
41
1
10
20.5018411231372
20
8.64313105032488
30
0
41
1
10
20.5148521439106
20
8.79971553905926
30
0
41
1
10
20.5362140938899
20
8.91172267669401
30
0
41
1
10
20.6209044286032
20
9.19138649203086
30
0
41
1
10
20.7032454218982
20
9.35652109581105
30
0
41
1
10
20.9150473131872
20
9.64623568647593
30
0
41
1
10
21.0474392308256
20
9.7748097032123
30
0
41
1
10
21.3431159359801
20
9.97784509162585
30
0
41
1
10
21.5104496033088
20
10.0551710582022
30
0
41
1
10
21.8186921443526
20
10.138425619718
30
0
41
1
10
21.9599435623291
20
10.157168850786
30
0
41
1
10
22.1
20
10.157168850786
30
0
0
SPLINE
5
E5
100
AcDbEntity
8
1
62
256
6
ByLayer
370
18
48
1
60
0
100
AcDbSpline
70
4
71
3
72
14
73
10
40
0
40
0
40
0
40
0
40
0.275104320463931
40
0.275104320463931
40
0.551285892222262
40
0.551285892222262
40
0.827540816329095
40
0.827540816329095
40
1
40
1
40
1
40
1
41
1
10
39.3092231349798
20
11.8375
30
0
41
1
10
39.3092231349798
20
11.8542141719495
30
0
41
1
10
39.3068686319537
20
11.8711570737924
30
0
41
1
10
39.2978207623995
20
11.9027773389955
30
0
41
1
10
39.2909852714479
20
11.9178813158534
30
0
41
1
10
39.2738400953992
20
11.9441198763753
30
0
41
1
10
39.2632933134876
20
11.9556150508633
30
0
41
1
10
39.2443144629828
20
11.970151104695
30
0
41
1
10
39.2364504363819
20
11.9748423627459
30
0
41
1
10
39.2283156668964
20
11.9784538931178
30
0
0
SPLINE
5
E6
100
AcDbEntity
8
1
62
256
6
ByLayer
370
18
48
1
60
0
100
AcDbSpline
70
4
71
3
72
14
73
10
40
0
40
0
40
0
40
0
40
0.320648283087879
40
0.320648283087879
40
0.642556656032455
40
0.642556656032455
40
0.964767987534561
40
0.964767987534561
40
1
40
1
40
1
40
1
41
1
10
39.0405040733832
20
10.9833747878792
30
0
41
1
10
39.0428848120555
20
10.9998332538916
30
0
41
1
10
39.0476180403295
20
11.0160167196511
30
0
41
1
10
39.0610331974549
20
11.0452320241537
30
0
41
1
10
39.0699156352927
20
11.0586536819562
30
0
41
1
10
39.090540376174
20
11.0808637034432
30
0
41
1
10
39.1025693737439
20
11.0899539171941
30
0
41
1
10
39.1167287638944
20
11.0969760997766
30
0
41
1
10
39.1181531019785
20
11.0976451043814
30
0
41
1
10
39.1195868846332
20
11.0982814543472
30
0
0
SPLINE
5
E7
100
AcDbEntity
8
1
62
256
6
ByLayer
370
18
48
1
60
0
100
AcDbSpline
70
4
71
3
72
12
73
8
40
0
40
0
40
0
40
0
40
0.225791699128426
40
0.225791699128426
40
0.602963947751481
40
0.602963947751481
40
1
40
1
40
1
40
1
41
1
10
38.8831405480971
20
9.89613301718589
30
0
41
1
10
38.8626111403074
20
9.8958683892007
30
0
41
1
10
38.8394378582555
20
9.89563071073343
30
0
41
1
10
38.7724597448398
20
9.89507980898011
30
0
41
1
10
38.7241662268474
20
9.89481521274811
30
0
41
1
10
38.6201479209308
20
9.89445678510066
30
0
41
1
10
38.5625780635928
20
9.89436653364669
30
0
41
1
10
38.5059868612087
20
9.89437268905735
30
0
0
SPLINE
5
E8
100
AcDbEntity
8
1
62
256
6
ByLayer
370
18
48
1
60
0
100
AcDbSpline
70
4
71
3
72
8
73
4
40
0
40
0
40
0
40
0
40
1
40
1
40
1
40
1
41
1
10
36.95
20
13.2648718176212
30
0
41
1
10
36.9783709768227
20
13.2648718176212
30
0
41
1
10
37.0067459970884
20
13.2648661865632
30
0
41
1
10
37.0351007966423
20
13.2648549344812
30
0
0
SPLINE
5
E9
100
AcDbEntity
8
1
62
256
6
ByLayer
370
18
48
1
60
0
100
AcDbSpline
70
4
71
3
72
10
73
6
40
0
40
0
40
0
40
0
40
0.731201770005212
40
0.731201770005212
40
1
40
1
40
1
40
1
41
1
10
38.8831405480971
20
9.89613301718589
30
0
41
1
10
38.9215260300738
20
10.1611241051624
30
0
41
1
10
38.9598817273576
20
10.426121623221
30
0
41
1
10
39.0123192703994
20
10.7885392060367
30
0
41
1
10
39.0264124383919
20
10.8859568317363
30
0
41
1
10
39.0405040733832
20
10.9833747878792
30
0
0
SPLINE
5
EA
100
AcDbEntity
8
1
62
256
6
ByLayer
370
18
48
1
60
0
100
AcDbSpline
70
4
71
3
72
14
73
10
40
0
40
0
40
0
40
0
40
0.220735989957116
40
0.220735989957116
40
0.439487667277465
40
0.439487667277465
40
0.750632009884188
40
0.750632009884188
40
1
40
1
40
1
40
1
41
1
10
22.1
20
9.89128973390558
30
0
41
1
10
21.9605040650194
20
9.89119127166074
30
0
41
1
10
21.8211460861595
20
9.87187513359873
30
0
41
1
10
21.5688301237607
20
9.80515752646681
30
0
41
1
10
21.4520979280774
20
9.75745643867435
30
0
41
1
10
21.2042765018002
20
9.624888930731
30
0
41
1
10
21.0827921200516
20
9.53040362089502
30
0
41
1
10
20.9126296608981
20
9.36529762048022
30
0
41
1
10
20.8515954903028
20
9.29014452734862
30
0
41
1
10
20.8101069550354
20
9.23396911127062
30
0
0
SPLINE
5
EB
100
AcDbEntity
8
1
62
256
6
ByLayer
370
18
48
1
60
0
100
AcDbSpline
70
4
71
3
72
8
73
4
40
0
40
0
40
0
40
0
40
1
40
1
40
1
40
1
41
1
10
39.0405040733832
20
12.1416252121207
30
0
41
1
10
38.9875016470142
20
12.5080403265243
30
0
41
1
10
38.9344810015677
20
12.8744515189273
30
0
41
1
10
38.8814046186807
20
13.2408506788701
30
0
0
SPLINE
5
EC
100
AcDbEntity
8
1
62
256
6
ByLayer
370
18
48
1
60
0
100
AcDbSpline
70
4
71
3
72
8
73
4
40
0
40
0
40
0
40
0
40
1
40
1
40
1
40
1
41
1
10
24.8306965228103
20
9.89263752547444
30
0
41
1
10
24.6054614809578
20
9.89241171163326
30
0
41
1
10
24.381996487252
20
9.89194133836276
30
0
41
1
10
24.1714539378381
20
9.89134272307808
30
0
0
SPLINE
5
ED
100
AcDbEntity
8
1
62
256
6
ByLayer
370
18
48
1
60
0
100
AcDbSpline
70
4
71
2
72
6
73
3
40
0
40
0
40
0
40
1
40
1
40
1
41
0.500000219754758
10
37.0351007966409
20
13.2648549344813
30
0
41
0.499999780245242
10
38.4969443822115
20
13.2642748286769
30
0
41
0.500000219754758
10
39.9588565832377
20
13.2637070245533
30
0
0
SPLINE
5
EE
100
AcDbEntity
8
1
62
256
6
ByLayer
370
18
48
1
60
0
100
AcDbSpline
70
4
71
3
72
18
73
14
40
0
40
0
40
0
40
0
40
0.181752771450183
40
0.181752771450183
40
0.360818406833415
40
0.360818406833415
40
0.541944163041263
40
0.541944163041263
40
0.695407615755982
40
0.695407615755982
40
0.891808268956467
40
0.891808268956467
40
1
40
1
40
1
40
1
41
1
10
15.7981683275965
20
6.05426677947543
30
0
41
1
10
15.6988559553603
20
6.08068565012442
30
0
41
1
10
15.6004880467831
20
6.12117846064794
30
0
41
1
10
15.4166603201379
20
6.22963559373974
30
0
41
1
10
15.3289907291675
20
6.29873705977309
30
0
41
1
10
15.1752354772816
20
6.46258874691534
30
0
41
1
10
15.1072814826209
20
6.56048349509294
30
0
41
1
10
15.0138398120849
20
6.75158101552478
30
0
41
1
10
14.9822248539708
20
6.84546491596194
30
0
41
1
10
14.938755204354
20
7.05645255565608
30
0
41
1
10
14.9337711326442
20
7.17619446581352
30
0
41
1
10
14.9518323112013
20
7.35222313725546
30
0
41
1
10
14.9633653362174
20
7.41379395910795
30
0
41
1
10
14.9794641406537
20
7.47330115627048
30
0
0
SPLINE
5
EF
100
AcDbEntity
8
1
62
256
6
ByLayer
370
18
48
1
60
0
100
AcDbSpline
70
4
71
3
72
18
73
14
40
0
40
0
40
0
40
0
40
0.0150229386922524
40
0.0150229386922524
40
0.23760444056223
40
0.23760444056223
40
0.460204731428102
40
0.460204731428102
40
0.694992075280033
40
0.694992075280033
40
0.951641525778767
40
0.951641525778767
40
1
40
1
40
1
40
1
41
1
10
14.7549793192102
20
3.15742137728185
30
0
41
1
10
14.7520684199844
20
3.15573840572108
30
0
41
1
10
14.7491397490837
20
3.15408572259224
30
0
41
1
10
14.7030920682664
20
3.12873072399932
30
0
41
1
10
14.6557039074632
20
3.111502585891
30
0
41
1
10
14.5602851564218
20
3.09240391418049
30
0
41
1
10
14.5110399513397
20
3.09025565993994
30
0
41
1
10
14.4142792924752
20
3.10017822356295
30
0
41
1
10
14.3657874551504
20
3.11310777674862
30
0
41
1
10
14.2733624353174
20
3.15304972895527
30
0
41
1
10
14.2290914112967
20
3.18170833652954
30
0
41
1
10
14.1841477224758
20
3.22188383919217
30
0
41
1
10
14.1771780297028
20
3.22850077539951
30
0
41
1
10
14.1704318716301
20
3.23529700056824
30
0
0
SPLINE
5
F0
100
AcDbEntity
8
1
62
256
6
ByLayer
370
18
48
1
60
0
100
AcDbSpline
70
4
71
3
72
18
73
14
40
0
40
0
40
0
40
0
40
0.0162289153285311
40
0.0162289153285311
40
0.239234459040965
40
0.239234459040965
40
0.462328698874893
40
0.462328698874893
40
0.697692042263403
40
0.697692042263403
40
0.95500567204598
40
0.95500567204598
40
1
40
1
40
1
40
1
41
1
10
16.157
20
5.58749999999998
30
0
41
1
10
16.157
20
5.5838757233104
30
0
41
1
10
16.1569591993613
20
5.5802511646969
30
0
41
1
10
16.1557702435972
20
5.52744386337366
30
0
41
1
10
16.1468881961842
20
5.47782158906944
30
0
41
1
10
16.1155222788132
20
5.38571494964197
30
0
41
1
10
16.0926649850556
20
5.34204315906916
30
0
41
1
10
16.0355148789301
20
5.26332345161353
30
0
41
1
10
15.999986827069
20
5.22786476824407
30
0
41
1
10
15.9190294001722
20
5.16795848977074
30
0
41
1
10
15.8720050535463
20
5.1440473365877
30
0
41
1
10
15.8153304916666
20
5.12555330338395
30
0
41
1
10
15.8067684906714
20
5.12302101801362
30
0
41
1
10
15.7981683275965
20
5.12073322052453
30
0
0
SPLINE
5
F1
100
AcDbEntity
8
1
62
256
6
ByLayer
370
18
48
1
60
0
100
AcDbSpline
70
4
71
3
72
14
73
10
40
0
40
0
40
0
40
0
40
0.220170037959103
40
0.220170037959103
40
0.51389454431452
40
0.51389454431452
40
0.779127126142474
40
0.779127126142474
40
1
40
1
40
1
40
1
41
1
10
10.901831672403
20
5.12073322052291
30
0
41
1
10
10.8601068141321
20
5.13183278051417
30
0
41
1
10
10.8190010815936
20
5.14884404855508
30
0
41
1
10
10.7297424597143
20
5.2014719355835
30
0
41
1
10
10.6823754340564
20
5.24246725539109
30
0
41
1
10
10.6100836522094
20
5.33563321062715
30
0
41
1
10
10.5824089980939
20
5.38783225693777
30
0
41
1
10
10.5506463360883
20
5.48919454247292
30
0
41
1
10
10.543
20
5.53866942504109
30
0
41
1
10
10.543
20
5.58749999999998
30
0
0
SPLINE
5
F2
100
AcDbEntity
8
1
62
256
6
ByLayer
370
18
48
1
60
0
100
AcDbSpline
70
4
71
3
72
18
73
14
40
0
40
0
40
0
40
0
40
0.181347322288268
40
0.181347322288268
40
0.360491893295303
40
0.360491893295303
40
0.541701215502883
40
0.541701215502883
40
0.695189055143494
40
0.695189055143494
40
0.891526265458831
40
0.891526265458831
40
1
40
1
40
1
40
1
41
1
10
11.7205358593456
20
7.47330115627023
30
0
41
1
10
11.7473131816822
20
7.37432216649029
30
0
41
1
10
11.7614899989259
20
7.26914734369541
30
0
41
1
10
11.7597428781363
20
7.05593658757567
30
0
41
1
10
11.7438614825796
20
6.94540829269619
30
0
41
1
10
11.6790625518664
20
6.73017569215608
30
0
41
1
10
11.6283565316106
20
6.62227567252017
30
0
41
1
10
11.509722370224
20
6.44562416842376
30
0
41
1
10
11.4442832783194
20
6.37122055770698
30
0
41
1
10
11.2834431085831
20
6.22793166675928
30
0
41
1
10
11.1823244174428
20
6.16365777282573
30
0
41
1
10
11.0207935514181
20
6.0910581232956
30
0
41
1
10
10.961563034439
20
6.07015639213597
30
0
41
1
10
10.9018316724036
20
6.05426677947472
30
0
0
SPLINE
5
F3
100
AcDbEntity
8
1
62
256
6
ByLayer
370
18
48
1
60
0
100
AcDbSpline
70
4
71
3
72
18
73
14
40
0
40
0
40
0
40
0
40
0.181666908878583
40
0.181666908878583
40
0.360750617017815
40
0.360750617017815
40
0.541895453074692
40
0.541895453074692
40
0.695365105948638
40
0.695365105948638
40
0.891753383060554
40
0.891753383060554
40
1
40
1
40
1
40
1
41
1
10
14.9794641406544
20
3.70169884372973
30
0
41
1
10
14.9526398265003
20
3.80085153282749
30
0
41
1
10
14.9384602459352
20
3.90622432447569
30
0
41
1
10
14.9403139531035
20
4.11960666532306
30
0
41
1
10
14.9562426230037
20
4.23010060315096
30
0
41
1
10
15.0211140051548
20
4.44524581686522
30
0
41
1
10
15.0718441395717
20
4.55308939951254
30
0
41
1
10
15.1905041217909
20
4.72965637441715
30
0
41
1
10
15.2559542246232
20
4.80402664239273
30
0
41
1
10
15.4168403373044
20
4.94727525112322
30
0
41
1
10
15.5179980746868
20
5.01152950069147
30
0
41
1
10
15.6794511603026
20
5.08402824486072
30
0
41
1
10
15.7385601350611
20
5.10487637315813
30
0
41
1
10
15.7981683275964
20
5.12073322052521
30
0
0
SPLINE
5
F4
100
AcDbEntity
8
1
62
256
6
ByLayer
370
18
48
1
60
0
100
AcDbSpline
70
4
71
3
72
16
73
12
40
0
40
0
40
0
40
0
40
0.191836824669046
40
0.191836824669046
40
0.488625600663315
40
0.488625600663315
40
0.756617127620182
40
0.756617127620182
40
0.994885626449979
40
0.994885626449979
40
1
40
1
40
1
40
1
41
1
10
12.5295681283731
20
3.23529700056531
30
0
41
1
10
12.5030027275395
20
3.20853444270389
30
0
41
1
10
12.4728056370948
20
3.18444821054027
30
0
41
1
10
12.3891024511948
20
3.13295441649032
30
0
41
1
10
12.3302375601686
20
3.11015453866946
30
0
41
1
10
12.2130856505552
20
3.08999128324837
30
0
41
1
10
12.1534692409385
20
3.09018048687534
30
0
41
1
10
12.0448627470954
20
3.1109513897963
30
0
41
1
10
11.9938796455353
20
3.12962279825158
30
0
41
1
10
11.9470150634089
20
3.15627305067048
30
0
41
1
10
11.9460168391091
20
3.15684543631264
30
0
41
1
10
11.9450206807897
20
3.15742137728185
30
0
0
SPLINE
5
F5
100
AcDbEntity
8
1
62
256
6
ByLayer
370
18
48
1
60
0
100
AcDbSpline
70
4
71
3
72
18
73
14
40
0
40
0
40
0
40
0
40
0.181612675763436
40
0.181612675763436
40
0.360704962161447
40
0.360704962161447
40
0.541858957768577
40
0.541858957768577
40
0.695330353238802
40
0.695330353238802
40
0.891708592214998
40
0.891708592214998
40
1
40
1
40
1
40
1
41
1
10
10.9018316724034
20
5.12073322052453
30
0
41
1
10
11.0010678212246
20
5.09433462666982
30
0
41
1
10
11.0993599974145
20
5.05388422465299
30
0
41
1
10
11.283146016433
20
4.9455052234041
30
0
41
1
10
11.3708390147032
20
4.87641415618558
30
0
41
1
10
11.5246433194004
20
4.71257078458447
30
0
41
1
10
11.5926240182454
20
4.61467280233461
30
0
41
1
10
11.6861034266653
20
4.42356654129404
30
0
41
1
10
11.7177334532225
20
4.32967951088196
30
0
41
1
10
11.7612284804202
20
4.11870047995475
30
0
41
1
10
11.7662285845804
20
3.99896908050746
30
0
41
1
10
11.7481886242894
20
3.82288872918761
30
0
41
1
10
11.7366492612541
20
3.76125999860156
30
0
41
1
10
11.7205358593463
20
3.70169884372947
30
0
0
SPLINE
5
F6
100
AcDbEntity
8
1
62
256
6
ByLayer
370
18
48
1
60
0
100
AcDbSpline
70
4
71
3
72
16
73
12
40
0
40
0
40
0
40
0
40
0.218557773056345
40
0.218557773056345
40
0.441067473679257
40
0.441067473679257
40
0.674801337484712
40
0.674801337484712
40
0.929688497508508
40
0.929688497508508
40
1
40
1
40
1
40
1
41
1
10
11.9450206807897
20
3.15742137728185
30
0
41
1
10
11.9032797321598
20
3.1815544111027
30
0
41
1
10
11.8647293704485
20
3.2124472850665
30
0
41
1
10
11.7992576027249
20
3.28318473594695
30
0
41
1
10
11.771704634642
20
3.32407234466208
30
0
41
1
10
11.7297227484991
20
3.41164965535248
30
0
41
1
10
11.7154539696446
20
3.45960587329734
30
0
41
1
10
11.7012404187867
20
3.55885402593401
30
0
41
1
10
11.7024729202592
20
3.61129060958942
30
0
41
1
10
11.7138408712732
20
3.67465294588771
30
0
41
1
10
11.7169074392227
20
3.68828684705031
30
0
41
1
10
11.7205358593456
20
3.70169884372973
30
0
0
SPLINE
5
F7
100
AcDbEntity
8
1
62
256
6
ByLayer
370
18
48
1
60
0
100
AcDbSpline
70
4
71
3
72
14
73
10
40
0
40
0
40
0
40
0
40
0.219116464512376
40
0.219116464512376
40
0.512971212475574
40
0.512971212475574
40
0.778318620253417
40
0.778318620253417
40
1
40
1
40
1
40
1
41
1
10
14.979464140656
20
3.70169884373021
30
0
41
1
10
14.9906856982875
20
3.66021977333807
30
0
41
1
10
14.9965313764369
20
3.61634300809814
30
0
41
1
10
14.9957856818418
20
3.51292994172331
30
0
41
1
10
14.9840791649931
20
3.45137181810065
30
0
41
1
10
14.9397280800638
20
3.34206943254824
30
0
41
1
10
14.9084392425724
20
3.29193091575939
30
0
41
1
10
14.8365423753279
20
3.21347686771497
30
0
41
1
10
14.7974070376034
20
3.18195147533979
30
0
41
1
10
14.7549793192102
20
3.15742137728185
30
0
0
SPLINE
5
F8
100
AcDbEntity
8
1
62
256
6
ByLayer
370
18
48
1
60
0
100
AcDbSpline
70
4
71
3
72
18
73
14
40
0
40
0
40
0
40
0
40
0.0157923844670924
40
0.0157923844670924
40
0.23881109546187
40
0.23881109546187
40
0.461892552251077
40
0.461892552251077
40
0.697221985203078
40
0.697221985203078
40
0.954485725072582
40
0.954485725072582
40
1
40
1
40
1
40
1
41
1
10
10.543
20
5.58749999999998
30
0
41
1
10
10.543
20
5.59102699039568
30
0
41
1
10
10.5430386392404
20
5.59455424062136
30
0
41
1
10
10.5441936182627
20
5.6472679382814
30
0
41
1
10
10.5530467858234
20
5.69689980324628
30
0
41
1
10
10.584360559074
20
5.7890282897574
30
0
41
1
10
10.6071923964691
20
5.83271348953159
30
0
41
1
10
10.6642947244229
20
5.91146349680966
30
0
41
1
10
10.6997993013223
20
5.94694081342263
30
0
41
1
10
10.7807130359747
20
6.00689020341997
30
0
41
1
10
10.8277169007501
20
6.03082767248213
30
0
41
1
10
10.8844720689918
20
6.04938826601472
30
0
41
1
10
10.8931323638085
20
6.05195260750139
30
0
41
1
10
10.9018316724035
20
6.05426677947543
30
0
0
SPLINE
5
F9
100
AcDbEntity
8
1
62
256
6
ByLayer
370
18
48
1
60
0
100
AcDbSpline
70
4
71
3
72
16
73
12
40
0
40
0
40
0
40
0
40
0.218620732637221
40
0.218620732637221
40
0.441132096326288
40
0.441132096326288
40
0.674870839126937
40
0.674870839126937
40
0.929765351321906
40
0.929765351321906
40
1
40
1
40
1
40
1
41
1
10
14.7549793192102
20
8.01757862271811
30
0
41
1
10
14.7967322838593
20
7.9934386416906
30
0
41
1
10
14.835292894121
20
7.96253473906293
30
0
41
1
10
14.9007677451595
20
7.89178167800941
30
0
41
1
10
14.9283171189502
20
7.85089172849635
30
0
41
1
10
14.9702916326037
20
7.76331040406987
30
0
41
1
10
14.9845563198091
20
7.71535248027655
30
0
41
1
10
14.9987611977979
20
7.61610173634045
30
0
41
1
10
14.9975238514805
20
7.56366436115144
30
0
41
1
10
14.9861524490117
20
7.50031735403246
30
0
41
1
10
14.9830886103785
20
7.48669855079947
30
0
41
1
10
14.9794641406544
20
7.47330115627023
30
0
0
SPLINE
5
FA
100
AcDbEntity
8
1
62
256
6
ByLayer
370
18
48
1
60
0
100
AcDbSpline
70
4
71
3
72
12
73
8
40
0
40
0
40
0
40
0
40
0.368706056538499
40
0.368706056538499
40
0.73798085095236
40
0.73798085095236
40
1
40
1
40
1
40
1
41
1
10
13.2846527300225
20
7.59993931195612
30
0
41
1
10
13.1755098784395
20
7.60611890558519
30
0
41
1
10
13.0666482559057
20
7.62842679307263
30
0
41
1
10
12.8674903687157
20
7.69828731102189
30
0
41
1
10
12.7744272224264
20
7.74655397438403
30
0
41
1
10
12.6329890576063
20
7.84449503333326
30
0
41
1
10
12.5786614800674
20
7.89024529790311
30
0
41
1
10
12.5295681283698
20
7.93970299943169
30
0
0
SPLINE
5
FB
100
AcDbEntity
8
1
62
256
6
ByLayer
370
18
48
1
60
0
100
AcDbSpline
70
4
71
3
72
12
73
8
40
0
40
0
40
0
40
0
40
0.455353062346803
40
0.455353062346803
40
0.827333545905709
40
0.827333545905709
40
1
40
1
40
1
40
1
41
1
10
14.1704318716301
20
7.93970299943169
30
0
41
1
10
14.0858278731655
20
7.8544711063239
30
0
41
1
10
13.9849078459312
20
7.77977181937442
30
0
41
1
10
13.7792931745274
20
7.67576419992241
30
0
41
1
10
13.6762317035148
20
7.63971835810528
30
0
41
1
10
13.5187586027533
20
7.60932915672515
30
0
41
1
10
13.467139749605
20
7.60287176673899
30
0
41
1
10
13.4153472699775
20
7.59993931195612
30
0
0
SPLINE
5
FC
100
AcDbEntity
8
1
62
256
6
ByLayer
370
18
48
1
60
0
100
AcDbSpline
70
4
71
3
72
16
73
12
40
0
40
0
40
0
40
0
40
0.191930281182744
40
0.191930281182744
40
0.48870777560802
40
0.48870777560802
40
0.756688906725717
40
0.756688906725717
40
0.994950483060341
40
0.994950483060341
40
1
40
1
40
1
40
1
41
1
10
14.1704318716269
20
7.93970299943464
30
0
41
1
10
14.1970101552166
20
7.96647853566253
30
0
41
1
10
14.22722378362
20
7.99057521254355
30
0
41
1
10
14.3109482684759
20
8.04206857952525
30
0
41
1
10
14.3698143864776
20
8.06486126801639
30
0
41
1
10
14.486965618469
20
8.08501132996165
30
0
41
1
10
14.5465803486937
20
8.08481589322696
30
0
41
1
10
14.6551819835097
20
8.06403482404895
30
0
41
1
10
14.7061620099742
20
8.04535900850536
30
0
41
1
10
14.7530102361109
20
8.0187124417283
30
0
41
1
10
14.7539957845871
20
8.01814726514485
30
0
41
1
10
14.7549793192102
20
8.01757862271811
30
0
0
SPLINE
5
FD
100
AcDbEntity
8
1
62
256
6
ByLayer
370
18
48
1
60
0
100
AcDbSpline
70
4
71
3
72
12
73
8
40
0
40
0
40
0
40
0
40
0.455353062347104
40
0.455353062347104
40
0.827333545906256
40
0.827333545906256
40
1
40
1
40
1
40
1
41
1
10
12.5295681283698
20
3.23529700056827
30
0
41
1
10
12.6141721268345
20
3.32052889367605
30
0
41
1
10
12.7150921540688
20
3.39522818062551
30
0
41
1
10
12.9207068254726
20
3.49923580007754
30
0
41
1
10
13.0237682964852
20
3.53528164189467
30
0
41
1
10
13.1812413972466
20
3.5656708432748
30
0
41
1
10
13.232860250395
20
3.57212823326097
30
0
41
1
10
13.2846527300225
20
3.57506068804383
30
0
0
SPLINE
5
FE
100
AcDbEntity
8
1
62
256
6
ByLayer
370
18
48
1
60
0
100
AcDbSpline
70
4
71
3
72
18
73
14
40
0
40
0
40
0
40
0
40
0.0173285944903302
40
0.0173285944903302
40
0.239841647765362
40
0.239841647765362
40
0.462510527753943
40
0.462510527753943
40
0.697478079776749
40
0.697478079776749
40
0.954392202348387
40
0.954392202348387
40
1
40
1
40
1
40
1
41
1
10
11.9450206807898
20
8.01757862271811
30
0
41
1
10
11.9483773076035
20
8.01951929706976
30
0
41
1
10
11.9517576061861
20
8.02141971787771
30
0
41
1
10
11.9983242480798
20
8.04686674076996
30
0
41
1
10
12.0457449432696
20
8.06393715921948
30
0
41
1
10
12.1412016837082
20
8.08273904687562
30
0
41
1
10
12.1904528627447
20
8.08473514125205
30
0
41
1
10
12.2872012098167
20
8.07451338812055
30
0
41
1
10
12.3356698281873
20
8.06142690855975
30
0
41
1
10
12.4280129849237
20
8.02117054638387
30
0
41
1
10
12.4722176447067
20
7.99234837860487
30
0
41
1
10
12.5166419676245
20
7.95236519693131
30
0
41
1
10
12.5232044293722
20
7.9461139270779
30
0
41
1
10
12.5295681283698
20
7.93970299943169
30
0
0
SPLINE
5
FF
100
AcDbEntity
8
1
62
256
6
ByLayer
370
18
48
1
60
0
100
AcDbSpline
70
4
71
3
72
14
73
10
40
0
40
0
40
0
40
0
40
0.222411655270651
40
0.222411655270651
40
0.515858824453691
40
0.515858824453691
40
0.780847480391322
40
0.780847480391322
40
1
40
1
40
1
40
1
41
1
10
11.7205358593441
20
7.4733011562698
30
0
41
1
10
11.7091462249201
20
7.51540150129622
30
0
41
1
10
11.7032956435496
20
7.55997914714303
30
0
41
1
10
11.7044780289879
20
7.66402248713013
30
0
41
1
10
11.7164205388668
20
7.72547934843317
30
0
41
1
10
11.7611484449685
20
7.83451278894469
30
0
41
1
10
11.792590444784
20
7.88448549228454
30
0
41
1
10
11.8643498449848
20
7.96224605635501
30
0
41
1
10
11.9030748695198
20
7.99332714508651
30
0
41
1
10
11.9450206807898
20
8.01757862271811
30
0
0
SPLINE
5
100
100
AcDbEntity
8
1
62
256
6
ByLayer
370
18
48
1
60
0
100
AcDbSpline
70
4
71
3
72
12
73
8
40
0
40
0
40
0
40
0
40
0.368706056448691
40
0.368706056448691
40
0.737980850847993
40
0.737980850847993
40
1
40
1
40
1
40
1
41
1
10
13.4153472699774
20
3.57506068804383
30
0
41
1
10
13.524490121534
20
3.56888109441627
30
0
41
1
10
13.6333517440413
20
3.54657320693838
30
0
41
1
10
13.8325096312106
20
3.47671268901141
30
0
41
1
10
13.9255727775013
20
3.42844602565702
30
0
41
1
10
14.0670109423506
20
3.33050496670299
30
0
41
1
10
14.1213385199131
20
3.28475470211643
30
0
41
1
10
14.1704318716301
20
3.23529700056827
30
0
0
SPLINE
5
101
100
AcDbEntity
8
1
62
256
6
ByLayer
370
18
48
1
60
0
100
AcDbSpline
70
4
71
3
72
14
73
10
40
0
40
0
40
0
40
0
40
0.220792708734974
40
0.220792708734974
40
0.51444020832232
40
0.51444020832232
40
0.779604980836354
40
0.779604980836354
40
1
40
1
40
1
40
1
41
1
10
15.7981683275969
20
6.05426677947699
30
0
41
1
10
15.8400107170795
20
6.04313595407734
30
0
41
1
10
15.881231568975
20
6.02605924567627
30
0
41
1
10
15.9705520592615
20
5.97330037535832
30
0
41
1
10
16.0178802128891
20
5.93227600874857
30
0
41
1
10
16.0900923702314
20
5.83907381180748
30
0
41
1
10
16.1177254137801
20
5.78686537710985
30
0
41
1
10
16.1493875756904
20
5.68559112209607
30
0
41
1
10
16.157
20
5.63622538987565
30
0
41
1
10
16.157
20
5.58749999999998
30
0
0
SPLINE
5
102
100
AcDbEntity
8
1
62
256
6
ByLayer
370
18
48
1
60
0
100
AcDbSpline
70
4
71
2
72
6
73
3
40
0
40
0
40
0
40
1
40
1
40
1
41
1
10
39.748945415452
20
11.134767476298
30
0
41
1
10
39.6679467190157
20
11.111515243328
30
0
41
1
10
39.5901186384125
20
11.0794146481699
30
0
0
SPLINE
5
103
100
AcDbEntity
8
1
62
256
6
ByLayer
370
18
48
1
60
0
100
AcDbSpline
70
4
71
2
72
6
73
3
40
0
40
0
40
0
40
1
40
1
40
1
41
1
10
39.5901186384115
20
11.0794146481769
30
0
41
1
10
39.5658197594191
20
11.0692453291367
30
0
41
1
10
39.5495226247505
20
11.048612431851
30
0
0
SPLINE
5
104
100
AcDbEntity
8
1
62
256
6
ByLayer
370
18
48
1
60
0
100
AcDbSpline
70
4
71
2
72
10
73
7
40
0
40
0
40
0
40
0.5
40
0.5
40
0.75
40
0.75
40
1
40
1
40
1
41
1
10
39.7489454154435
20
11.9902325237379
30
0
41
1
10
39.8165392416659
20
11.9707378364849
30
0
41
1
10
39.864235482769
20
11.9190142889901
30
0
41
1
10
39.8902224727208
20
11.890833047074
30
0
41
1
10
39.9068593747304
20
11.8549776461037
30
0
41
1
10
39.9248252361523
20
11.8162581077732
30
0
41
1
10
39.928946197083
20
11.7732355869719
30
0
0
SPLINE
5
105
100
AcDbEntity
8
1
62
256
6
ByLayer
370
18
48
1
60
0
100
AcDbSpline
70
4
71
2
72
6
73
3
40
0
40
0
40
0
40
1
40
1
40
1
41
1
10
39.9289461971205
20
11.7732355870579
30
0
41
1
10
39.9378374892931
20
11.6780165540398
30
0
41
1
10
39.9378609595315
20
11.5825000006975
30
0
0
SPLINE
5
106
100
AcDbEntity
8
1
62
256
6
ByLayer
370
18
48
1
60
0
100
AcDbSpline
70
4
71
3
72
9
73
5
40
0
40
0
40
0
40
0
40
0.508287091433896
40
1
40
1
40
1
40
1
41
1
10
39.74894541544
20
11.1347674762619
30
0
41
1
10
39.7914754634341
20
11.1517901858918
30
0
41
1
10
39.8751487431826
20
11.1852805300629
30
0
41
1
10
39.911212957408
20
11.2968863772799
30
0
41
1
10
39.92894619708
20
11.351764413028
30
0
0
SPLINE
5
107
100
AcDbEntity
8
1
62
256
6
ByLayer
370
18
48
1
60
0
100
AcDbSpline
70
4
71
3
72
8
73
4
40
0
40
0
40
0
40
0
40
1
40
1
40
1
40
1
41
1
10
39.92894619712
20
11.351764412942
30
0
41
1
10
39.93191778459
20
11.4153429417287
30
0
41
1
10
39.93488937206
20
11.4789214705156
30
0
41
1
10
39.93786095953
20
11.5424999993024
30
0
0
SPLINE
5
108
100
AcDbEntity
8
1
62
256
6
ByLayer
370
18
48
1
60
0
100
AcDbSpline
70
4
71
3
72
8
73
4
40
0
40
0
40
0
40
0
40
1
40
1
40
1
40
1
41
1
10
39.59011863841
20
12.0455853518229
30
0
41
1
10
39.5765866338566
20
12.055852757265
30
0
41
1
10
39.5630546293033
20
12.0661201627072
30
0
41
1
10
39.54952262475
20
12.0763875681493
30
0
0
SPLINE
5
109
100
AcDbEntity
8
1
62
256
6
ByLayer
370
18
48
1
60
0
100
AcDbSpline
70
4
71
3
72
8
73
4
40
0
40
0
40
0
40
0
40
1
40
1
40
1
40
1
41
1
10
39.74894541545
20
11.9902325237019
30
0
41
1
10
39.6960031564366
20
12.0086834664113
30
0
41
1
10
39.6430608974233
20
12.0271344091206
30
0
41
1
10
39.59011863841
20
12.0455853518299
30
0
0
LINE
5
72
100
AcDbEntity
8
80
62
256
6
ByLayer
370
18
48
1
60
0
100
AcDbLine
10
0
20
0
30
0
11
-5
21
0
31
0
39
0
210
0
220
0
230
1
0
LINE
5
73
100
AcDbEntity
8
81
62
256
6
ByLayer
370
18
48
1
60
0
100
AcDbLine
10
47
20
13.5625
30
0
11
52
21
13.5625
31
0
39
0
210
0
220
0
230
1
0
LINE
5
74
100
AcDbEntity
8
1
62
256
6
ByLayer
370
18
48
1
60
0
100
AcDbLine
10
0.5
20
-12.439682
30
0
11
0
21
-12.4375
31
0
39
0
210
0
220
0
230
1
0
LINE
5
76
100
AcDbEntity
8
1
62
256
6
ByLayer
370
18
48
1
60
0
100
AcDbLine
10
39.958579
20
9.954647
30
0
11
42.600096
21
9.954647
31
0
39
0
210
0
220
0
230
1
0
LINE
5
77
100
AcDbEntity
8
1
62
256
6
ByLayer
370
18
48
1
60
0
100
AcDbLine
10
28.21329
20
10.157169
30
0
11
28.21329
21
13.341933
31
0
39
0
210
0
220
0
230
1
0
LINE
5
78
100
AcDbEntity
8
1
62
256
6
ByLayer
370
18
48
1
60
0
100
AcDbLine
10
34.555694
20
13.264872
30
0
11
36.95
21
13.264872
31
0
39
0
210
0
220
0
230
1
0
LINE
5
79
100
AcDbEntity
8
1
62
256
6
ByLayer
370
18
48
1
60
0
100
AcDbLine
10
22.1
20
9.89129
30
0
11
22.1
21
10.157169
31
0
39
0
210
0
220
0
230
1
0
LINE
5
7A
100
AcDbEntity
8
1
62
256
6
ByLayer
370
18
48
1
60
0
100
AcDbLine
10
39.958556
20
9.962507
30
0
11
39.958579
21
9.954647
31
0
39
0
210
0
220
0
230
1
0
LINE
5
7B
100
AcDbEntity
8
1
62
256
6
ByLayer
370
18
48
1
60
0
100
AcDbLine
10
0.5
20
12.4375
30
0
11
0.5
21
-12.439682
31
0
39
0
210
0
220
0
230
1
0
LINE
5
7C
100
AcDbEntity
8
1
62
256
6
ByLayer
370
18
48
1
60
0
100
AcDbLine
10
2.837857
20
-12.477752
30
0
11
8.929608
21
-12.477752
31
0
39
0
210
0
220
0
230
1
0
LINE
5
7D
100
AcDbEntity
8
1
62
256
6
ByLayer
370
18
48
1
60
0
100
AcDbLine
10
22.25
20
9.891343
30
0
11
24.171454
21
9.891343
31
0
39
0
210
0
220
0
230
1
0
LINE
5
7E
100
AcDbEntity
8
1
62
256
6
ByLayer
370
18
48
1
60
0
100
AcDbLine
10
11.608368
20
13.341933
30
0
11
11.5
21
12.9375
31
0
39
0
210
0
220
0
230
1
0
LINE
5
7F
100
AcDbEntity
8
1
62
256
6
ByLayer
370
18
48
1
60
0
100
AcDbLine
10
2.837857
20
12.4375
30
0
11
2.837857
21
-12.477752
31
0
39
0
210
0
220
0
230
1
0
LINE
5
80
100
AcDbEntity
8
1
62
256
6
ByLayer
370
18
48
1
60
0
100
AcDbLine
10
8.929608
20
-12.477752
30
0
11
20.5
21
-0.5625
31
0
39
0
210
0
220
0
230
1
0
LINE
5
81
100
AcDbEntity
8
1
62
256
6
ByLayer
370
18
48
1
60
0
100
AcDbLine
10
36.95
20
13.248708
30
0
11
36.95
21
13.264872
31
0
39
0
210
0
220
0
230
1
0
LINE
5
82
100
AcDbEntity
8
1
62
256
6
ByLayer
370
18
48
1
60
0
100
AcDbLine
10
39.309223
20
11.2875
30
0
11
39.309223
21
11.8375
31
0
39
0
210
0
220
0
230
1
0
LINE
5
83
100
AcDbEntity
8
1
62
256
6
ByLayer
370
18
48
1
60
0
100
AcDbLine
10
36.782487
20
14.026381
30
0
11
11.791765
21
14.026381
31
0
39
0
210
0
220
0
230
1
0
LINE
5
84
100
AcDbEntity
8
1
62
256
6
ByLayer
370
18
48
1
60
0
100
AcDbLine
10
0
20
12.4375
30
0
11
0
21
-12.4375
31
0
39
0
210
0
220
0
230
1
0
LINE
5
85
100
AcDbEntity
8
1
62
256
6
ByLayer
370
18
48
1
60
0
100
AcDbLine
10
39.958857
20
13.263707
30
0
11
39.958556
21
13.162492
31
0
39
0
210
0
220
0
230
1
0
LINE
5
86
100
AcDbEntity
8
1
62
256
6
ByLayer
370
18
48
1
60
0
100
AcDbLine
10
37.035101
20
13.264855
30
0
11
37.035002
21
13.24827
31
0
39
0
210
0
220
0
230
1
0
LINE
5
87
100
AcDbEntity
8
1
62
256
6
ByLayer
370
18
48
1
60
0
100
AcDbLine
10
0
20
12.4375
30
0
11
0.5
21
12.4375
31
0
39
0
210
0
220
0
230
1
0
LINE
5
88
100
AcDbEntity
8
1
62
256
6
ByLayer
370
18
48
1
60
0
100
AcDbLine
10
39.958857
20
13.263707
30
0
11
42.761853
21
13.263707
31
0
39
0
210
0
220
0
230
1
0
LINE
5
89
100
AcDbEntity
8
1
62
256
6
ByLayer
370
18
48
1
60
0
100
AcDbLine
10
2.837857
20
12.4375
30
0
11
0.5
21
12.4375
31
0
39
0
210
0
220
0
230
1
0
LINE
5
8A
100
AcDbEntity
8
1
62
256
6
ByLayer
370
18
48
1
60
0
100
AcDbLine
10
28.21329
20
10.157169
30
0
11
22.1
21
10.157169
31
0
39
0
210
0
220
0
230
1
0
LINE
5
8B
100
AcDbEntity
8
1
62
256
6
ByLayer
370
18
48
1
60
0
100
AcDbLine
10
28.21329
20
13.341933
30
0
11
11.608368
21
13.341933
31
0
39
0
210
0
220
0
230
1
0
LINE
5
8C
100
AcDbEntity
8
1
62
256
6
ByLayer
370
18
48
1
60
0
100
AcDbLine
10
11
20
12.4375
30
0
11
2.837857
21
12.4375
31
0
39
0
210
0
220
0
230
1
0
LINE
5
8D
100
AcDbEntity
8
1
62
256
6
ByLayer
370
18
48
1
60
0
100
AcDbLine
10
11.608368
20
13.341935
30
0
11
11.791765
21
14.026381
31
0
39
0
210
0
220
0
230
1
0
LINE
5
8E
100
AcDbEntity
8
1
62
256
6
ByLayer
370
18
48
1
60
0
100
AcDbLine
10
20.5
20
8.554385
30
0
11
20.5
21
-0.5625
31
0
39
0
210
0
220
0
230
1
0
LINE
5
8F
100
AcDbEntity
8
1
62
256
6
ByLayer
370
18
48
1
60
0
100
AcDbLine
10
0.5
20
-12.439682
30
0
11
2.837857
21
-12.477752
31
0
39
0
210
0
220
0
230
1
0
LINE
5
90
100
AcDbEntity
8
1
62
256
6
ByLayer
370
18
48
1
60
0
100
AcDbLine
10
11
20
12.4375
30
0
11
11.5
21
12.9375
31
0
39
0
210
0
220
0
230
1
0
LINE
5
91
100
AcDbEntity
8
SK1
62
256
6
ByLayer
370
18
48
1
60
0
100
AcDbLine
10
-104.35
20
12.4375
30
0
11
-104.35
21
-12.4375
31
0
39
0
210
0
220
0
230
1
0
LINE
5
93
100
AcDbEntity
8
SK1
62
256
6
ByLayer
370
18
48
1
60
0
100
AcDbLine
10
0
20
12.4375
30
0
11
0
21
-12.4375
31
0
39
0
210
0
220
0
230
1
0
LINE
5
94
100
AcDbEntity
8
SK1
62
256
6
ByLayer
370
18
48
1
60
0
100
AcDbLine
10
0
20
12.4375
30
0
11
-104.35
21
12.4375
31
0
39
0
210
0
220
0
230
1
0
LINE
5
95
100
AcDbEntity
8
SK1
62
256
6
ByLayer
370
18
48
1
60
0
100
AcDbLine
10
-104.35
20
-12.4375
30
0
11
0
21
-12.4375
31
0
39
0
210
0
220
0
230
1
0
LINE
5
96
100
AcDbEntity
8
1
62
256
6
ByLayer
370
18
48
1
60
0
100
AcDbLine
10
38.927663
20
10.203751
30
0
11
39.334518
21
10.203751
31
0
39
0
210
0
220
0
230
1
0
LINE
5
97
100
AcDbEntity
8
1
62
256
6
ByLayer
370
18
48
1
60
0
100
AcDbLine
10
38.892613
20
9.9625
30
0
11
39.334518
21
9.9625
31
0
39
0
210
0
220
0
230
1
0
LINE
5
98
100
AcDbEntity
8
1
62
256
6
ByLayer
370
18
48
1
60
0
100
AcDbLine
10
38.930113
20
12.903884
30
0
11
39.336037
21
12.903884
31
0
39
0
210
0
220
0
230
1
0
LINE
5
99
100
AcDbEntity
8
1
62
256
6
ByLayer
370
18
48
1
60
0
100
AcDbLine
10
38.927512
20
12.921249
30
0
11
39.334518
21
12.921249
31
0
39
0
210
0
220
0
230
1
0
LINE
5
9A
100
AcDbEntity
8
1
62
256
6
ByLayer
370
18
48
1
60
0
100
AcDbLine
10
38.930113
20
10.221116
30
0
11
39.336037
21
10.221116
31
0
39
0
210
0
220
0
230
1
0
LINE
5
9B
100
AcDbEntity
8
1
62
256
6
ByLayer
370
18
48
1
60
0
100
AcDbLine
10
38.892613
20
13.1625
30
0
11
39.334518
21
13.1625
31
0
39
0
210
0
220
0
230
1
0
LINE
5
9C
100
AcDbEntity
8
1
62
256
6
ByLayer
370
18
48
1
60
0
100
AcDbLine
10
39.03018
20
12.212434
30
0
11
39.457959
21
12.212434
31
0
39
0
210
0
220
0
230
1
0
LINE
5
9D
100
AcDbEntity
8
1
62
256
6
ByLayer
370
18
48
1
60
0
100
AcDbLine
10
39.03018
20
10.912566
30
0
11
39.457959
21
10.912566
31
0
39
0
210
0
220
0
230
1
0
LINE
5
9E
100
AcDbEntity
8
1
62
256
6
ByLayer
370
18
48
1
60
0
100
AcDbLine
10
39.036543
20
10.956835
30
0
11
39.477691
21
10.956835
31
0
39
0
210
0
220
0
230
1
0
LINE
5
9F
100
AcDbEntity
8
1
62
256
6
ByLayer
370
18
48
1
60
0
100
AcDbLine
10
39.036543
20
12.168165
30
0
11
39.477691
21
12.168165
31
0
39
0
210
0
220
0
230
1
0
LINE
5
A0
100
AcDbEntity
8
1
62
256
6
ByLayer
370
18
48
1
60
0
100
AcDbLine
10
39.065952
20
12.076388
30
0
11
39.549523
21
12.076388
31
0
39
0
210
0
220
0
230
1
0
LINE
5
A1
100
AcDbEntity
8
1
62
256
6
ByLayer
370
18
48
1
60
0
100
AcDbLine
10
39.066189
20
11.048612
30
0
11
39.549523
21
11.048612
31
0
39
0
210
0
220
0
230
1
0
LINE
5
A2
100
AcDbEntity
8
1
62
256
6
ByLayer
370
18
48
1
60
0
100
AcDbLine
10
39.590119
20
11.079415
30
0
11
39.092957
21
11.079415
31
0
39
0
210
0
220
0
230
1
0
LINE
5
A3
100
AcDbEntity
8
1
62
256
6
ByLayer
370
18
48
1
60
0
100
AcDbLine
10
39.590119
20
12.045585
30
0
11
39.092241
21
12.045585
31
0
39
0
210
0
220
0
230
1
0
LINE
5
A4
100
AcDbEntity
8
1
62
256
6
ByLayer
370
18
48
1
60
0
100
AcDbLine
10
39.201743
20
11.990233
30
0
11
39.748945
21
11.990233
31
0
39
0
210
0
220
0
230
1
0
LINE
5
A5
100
AcDbEntity
8
1
62
256
6
ByLayer
370
18
48
1
60
0
100
AcDbLine
10
39.201743
20
11.134767
30
0
11
39.748945
21
11.134767
31
0
39
0
210
0
220
0
230
1
0
LINE
5
A6
100
AcDbEntity
8
1
62
256
6
ByLayer
370
18
48
1
60
0
100
AcDbLine
10
39.309198
20
11.773236
30
0
11
39.928946
21
11.773236
31
0
39
0
210
0
220
0
230
1
0
LINE
5
A7
100
AcDbEntity
8
1
62
256
6
ByLayer
370
18
48
1
60
0
100
AcDbLine
10
39.309198
20
11.351764
30
0
11
39.928946
21
11.351764
31
0
39
0
210
0
220
0
230
1
0
LINE
5
A8
100
AcDbEntity
8
1
62
256
6
ByLayer
370
18
48
1
60
0
100
AcDbLine
10
39.309193
20
11.5825
30
0
11
39.937861
21
11.5825
31
0
39
0
210
0
220
0
230
1
0
LINE
5
A9
100
AcDbEntity
8
1
62
256
6
ByLayer
370
18
48
1
60
0
100
AcDbLine
10
39.309193
20
11.5425
30
0
11
39.937861
21
11.5425
31
0
39
0
210
0
220
0
230
1
0
LINE
5
AA
100
AcDbEntity
8
1
62
256
6
ByLayer
370
18
48
1
60
0
100
AcDbLine
10
26
20
13.40124
30
0
11
26.102725
21
13.341932
31
0
39
0
210
0
220
0
230
1
0
LINE
5
AB
100
AcDbEntity
8
1
62
256
6
ByLayer
370
18
48
1
60
0
100
AcDbLine
10
26
20
9.72376
30
0
11
26.295227
21
9.894209
31
0
39
0
210
0
220
0
230
1
0
LINE
5
AC
100
AcDbEntity
8
1
62
256
6
ByLayer
370
18
48
1
60
0
100
AcDbLine
10
40.63
20
9.9625
30
0
11
42.58649
21
9.9625
31
0
39
0
210
0
220
0
230
1
0
LINE
5
AD
100
AcDbEntity
8
1
62
256
6
ByLayer
370
18
48
1
60
0
100
AcDbLine
10
22.415664
20
9.567264
30
0
11
26
21
9.72376
31
0
39
0
210
0
220
0
230
1
0
LINE
5
AE
100
AcDbEntity
8
1
62
256
6
ByLayer
370
18
48
1
60
0
100
AcDbLine
10
46.584336
20
9.567264
30
0
11
43
21
9.72376
31
0
39
0
210
0
220
0
230
1
0
LINE
5
AF
100
AcDbEntity
8
1
62
256
6
ByLayer
370
18
48
1
60
0
100
AcDbLine
10
39.334518
20
13.1625
30
0
11
39.334518
21
12.921249
31
0
39
0
210
0
220
0
230
1
0
LINE
5
B0
100
AcDbEntity
8
1
62
256
6
ByLayer
370
18
48
1
60
0
100
AcDbLine
10
39.336037
20
12.903884
30
0
11
39.457959
21
12.212434
31
0
39
0
210
0
220
0
230
1
0
LINE
5
B1
100
AcDbEntity
8
1
62
256
6
ByLayer
370
18
48
1
60
0
100
AcDbLine
10
39.477691
20
12.168165
30
0
11
39.549523
21
12.076388
31
0
39
0
210
0
220
0
230
1
0
LINE
5
B2
100
AcDbEntity
8
1
62
256
6
ByLayer
370
18
48
1
60
0
100
AcDbLine
10
40.63
20
9.9625
30
0
11
39.334518
21
9.9625
31
0
39
0
210
0
220
0
230
1
0
LINE
5
B3
100
AcDbEntity
8
1
62
256
6
ByLayer
370
18
48
1
60
0
100
AcDbLine
10
39.334518
20
13.1625
30
0
11
40.63
21
13.1625
31
0
39
0
210
0
220
0
230
1
0
LINE
5
B4
100
AcDbEntity
8
1
62
256
6
ByLayer
370
18
48
1
60
0
100
AcDbLine
10
40.63
20
9.9625
30
0
11
40.63
21
13.1625
31
0
39
0
210
0
220
0
230
1
0
LINE
5
B5
100
AcDbEntity
8
1
62
256
6
ByLayer
370
18
48
1
60
0
100
AcDbLine
10
40.63
20
13.1625
30
0
11
42.58649
21
13.1625
31
0
39
0
210
0
220
0
230
1
0
LINE
5
B6
100
AcDbEntity
8
1
62
256
6
ByLayer
370
18
48
1
60
0
100
AcDbLine
10
22.415664
20
13.557736
30
0
11
26
21
13.40124
31
0
39
0
210
0
220
0
230
1
0
LINE
5
B7
100
AcDbEntity
8
1
62
256
6
ByLayer
370
18
48
1
60
0
100
AcDbLine
10
47
20
9.963985
30
0
11
47
21
13.161015
31
0
39
0
210
0
220
0
230
1
0
LINE
5
B8
100
AcDbEntity
8
1
62
256
6
ByLayer
370
18
48
1
60
0
100
AcDbLine
10
46.584336
20
13.557736
30
0
11
43
21
13.40124
31
0
39
0
210
0
220
0
230
1
0
LINE
5
B9
100
AcDbEntity
8
1
62
256
6
ByLayer
370
18
48
1
60
0
100
AcDbLine
10
43
20
13.40124
30
0
11
42.58649
21
13.1625
31
0
39
0
210
0
220
0
230
1
0
LINE
5
BA
100
AcDbEntity
8
1
62
256
6
ByLayer
370
18
48
1
60
0
100
AcDbLine
10
43
20
9.72376
30
0
11
42.58649
21
9.9625
31
0
39
0
210
0
220
0
230
1
0
LINE
5
BB
100
AcDbEntity
8
1
62
256
6
ByLayer
370
18
48
1
60
0
100
AcDbLine
10
39.937861
20
11.5425
30
0
11
39.937861
21
11.5825
31
0
39
0
210
0
220
0
230
1
0
LINE
5
BC
100
AcDbEntity
8
1
62
256
6
ByLayer
370
18
48
1
60
0
100
AcDbLine
10
39.336037
20
10.221116
30
0
11
39.457959
21
10.912566
31
0
39
0
210
0
220
0
230
1
0
LINE
5
BD
100
AcDbEntity
8
1
62
256
6
ByLayer
370
18
48
1
60
0
100
AcDbLine
10
39.334518
20
9.9625
30
0
11
39.334518
21
10.203751
31
0
39
0
210
0
220
0
230
1
0
LINE
5
BE
100
AcDbEntity
8
1
62
256
6
ByLayer
370
18
48
1
60
0
100
AcDbLine
10
39.477691
20
10.956835
30
0
11
39.549523
21
11.048612
31
0
39
0
210
0
220
0
230
1
0
MTEXT
5
10A
100
AcDbEntity
8
SK6
62
256
6
ByLayer
370
18
48
1
60
0
100
AcDbMText
10
-57.8
20
-23.100685
30
0
210
0
220
0
230
1
1
\W0.7606;RF123H25-2525B-300BM
40
3.5
41
0
44
1.084337
50
0
71
7
72
5
7
iso_b_vert
0
DIMENSION
5
11B
100
AcDbEntity
8
2
62
256
6
ByLayer
370
13
48
1
60
0
100
AcDbDimension
2
DimnDraft3D1
10
61.25
20
13.5625
30
0
11
61.25
21
18.0625
31
0
70
32
71
5
72
1
41
1
210
0
220
0
230
1
3
Standard
100
AcDbAlignedDimension
13
48.5
23
9.5625
33
0
14
48.5
24
13.5625
34
0
50
90
100
AcDbRotatedDimension
1001
ACAD
1000
DSTYLE
1002
{
1070
    74
1070
     0
1070
   279
1070
     0
1070
   172
1070
     1
1070
   173
1070
     1
1070
   340
1005
10B
1070
   271
1070
     3
1070
   272
1070
     3
1070
    77
1070
     1
1070
    73
1070
     0
1070
   171
1070
     4
1070
   274
1070
     4
1070
   177
1070
     2
1070
   176
1070
     2
1070
   178
1070
     7
1070
    78
1070
     8
1070
    41
1041
3.0
1070
   147
1041
2.25
1070
    42
1041
1.5
1070
    44
1041
3.0
1070
   140
1041
4.5
1070
   343
1005
11C
1070
   344
1005
11C
1002
}
0
DIMENSION
5
130
100
AcDbEntity
8
2
62
256
6
ByLayer
370
13
48
1
60
0
100
AcDbDimension
2
DimnDraft3D2
10
71.25
20
-12.4375
30
0
11
71.25
21
-2.125658
31
0
70
32
71
5
72
1
41
1
210
0
220
0
230
1
3
Standard
100
AcDbAlignedDimension
13
48.5
23
13.5625
33
0
14
-3.5
24
-12.4375
34
0
50
90
100
AcDbRotatedDimension
1001
ACAD
1000
DSTYLE
1002
{
1070
    74
1070
     0
1070
   279
1070
     0
1070
   172
1070
     1
1070
   173
1070
     1
1070
   340
1005
10B
1070
   271
1070
     3
1070
   272
1070
     3
1070
    77
1070
     1
1070
    73
1070
     0
1070
   171
1070
     4
1070
   274
1070
     4
1070
   177
1070
     2
1070
   176
1070
     2
1070
   178
1070
     7
1070
    78
1070
     8
1070
    41
1041
3.0
1070
   147
1041
2.25
1070
    42
1041
1.5
1070
    44
1041
3.0
1070
   140
1041
4.5
1070
   343
1005
11C
1070
   344
1005
11C
1002
}
0
DIMENSION
5
13F
100
AcDbEntity
8
SK2
62
256
6
ByLayer
370
13
48
1
60
0
100
AcDbDimension
2
DimnDraft3D3
10
-114.1
20
-12.4375
30
0
11
-114.1
21
-2.688158
31
0
70
32
71
5
72
1
41
1
210
0
220
0
230
1
3
Standard
100
AcDbAlignedDimension
13
-105.85
23
12.4375
33
0
14
-105.85
24
-12.4375
34
0
50
90
100
AcDbRotatedDimension
1001
ACAD
1000
DSTYLE
1002
{
1070
    74
1070
     0
1070
   279
1070
     0
1070
   172
1070
     1
1070
   173
1070
     1
1070
   340
1005
10B
1070
   271
1070
     3
1070
   272
1070
     3
1070
    77
1070
     1
1070
    73
1070
     0
1070
   171
1070
     4
1070
   274
1070
     4
1070
   177
1070
     2
1070
   176
1070
     2
1070
   178
1070
     7
1070
    78
1070
     8
1070
    41
1041
3.0
1070
   147
1041
2.25
1070
    42
1041
1.5
1070
    44
1041
3.0
1070
   140
1041
4.5
1070
   343
1005
11C
1070
   344
1005
11C
1002
}
0
DIMENSION
5
14D
100
AcDbEntity
8
2
62
256
6
ByLayer
370
13
48
1
60
0
100
AcDbDimension
2
DimnDraft3D4
10
0
20
23.3125
30
0
11
20.575
21
23.3125
31
0
70
32
71
5
72
1
41
1
210
0
220
0
230
1
3
Standard
100
AcDbAlignedDimension
13
47
23
15.0625
33
0
14
0
24
13.9375
34
0
50
0
100
AcDbRotatedDimension
1001
ACAD
1000
DSTYLE
1002
{
1070
   279
1070
     0
1070
   172
1070
     1
1070
   173
1070
     1
1070
   340
1005
10B
1070
   271
1070
     3
1070
   272
1070
     3
1070
    77
1070
     1
1070
    73
1070
     0
1070
   171
1070
     4
1070
   274
1070
     4
1070
   177
1070
     2
1070
   176
1070
     2
1070
   178
1070
     7
1070
    78
1070
     8
1070
    41
1041
3.0
1070
   147
1041
2.25
1070
    42
1041
1.5
1070
    44
1041
3.0
1070
   140
1041
4.5
1070
   343
1005
11C
1070
   344
1005
11C
1002
}
0
DIMENSION
5
15B
100
AcDbEntity
8
SK2
62
256
6
ByLayer
370
13
48
1
60
0
100
AcDbDimension
2
DimnDraft3D5
10
-104.35
20
33.3125
30
0
11
-32.482237
21
33.3125
31
0
70
32
71
5
72
1
41
1
210
0
220
0
230
1
3
Standard
100
AcDbAlignedDimension
13
47
23
15.0625
33
0
14
-104.35
24
13.9375
34
0
50
0
100
AcDbRotatedDimension
1001
ACAD
1000
DSTYLE
1002
{
1070
   279
1070
     0
1070
   172
1070
     1
1070
   173
1070
     1
1070
   340
1005
10B
1070
   271
1070
     3
1070
   272
1070
     3
1070
    77
1070
     1
1070
    73
1070
     0
1070
   171
1070
     4
1070
   274
1070
     4
1070
   177
1070
     2
1070
   176
1070
     2
1070
   178
1070
     7
1070
    78
1070
     8
1070
    41
1041
3.0
1070
   147
1041
2.25
1070
    42
1041
1.5
1070
    44
1041
3.0
1070
   140
1041
4.5
1070
   343
1005
11C
1070
   344
1005
11C
1002
}
0
DIMENSION
5
169
100
AcDbEntity
8
2
62
256
6
ByLayer
370
13
48
1
60
0
100
AcDbDimension
2
DimnDraft3D6
10
47
20
-26.6875
30
0
11
31.811842
21
-26.6875
31
0
70
32
71
5
72
1
41
1
210
0
220
0
230
1
3
Standard
100
AcDbAlignedDimension
13
22
23
7.0625
33
0
14
47
24
8.0625
34
0
50
0
100
AcDbRotatedDimension
1001
ACAD
1000
DSTYLE
1002
{
1070
   279
1070
     0
1070
   172
1070
     1
1070
   173
1070
     1
1070
   340
1005
10B
1070
   271
1070
     3
1070
   272
1070
     3
1070
    77
1070
     1
1070
    73
1070
     0
1070
   171
1070
     4
1070
   274
1070
     4
1070
   177
1070
     2
1070
   176
1070
     2
1070
   178
1070
     7
1070
    78
1070
     8
1070
    41
1041
3.0
1070
   147
1041
2.25
1070
    42
1041
1.5
1070
    44
1041
3.0
1070
   140
1041
4.5
1070
   343
1005
11C
1070
   344
1005
11C
1002
}
0
ENDSEC
0
SECTION
2
OBJECTS
0
DICTIONARY
5
1d3
330
0
100
AcDbDictionary
280
0
281
1
3
ACAD_GROUP
350
1d4
3
ACAD_MLINESTYLE
350
1d5
0
DICTIONARY
5
1d4
330
0
100
AcDbDictionary
280
0
281
1
0
DICTIONARY
5
1d5
330
0
100
AcDbDictionary
280
0
281
1
3
Standard
350
18
0
MLINESTYLE
5
18
330
1d5
100
AcDbMlineStyle
2
Standard
70
0
3

62
256
51
90
52
90
71
2
49
-0.5
62
256
6
ByLayer
49
0.5
62
256
6
ByLayer
0
RASTERVARIABLES
5
1c2
330

100
AcDbRasterVariables
90
0
70
1
71
1
72
1
0
ENDSEC
0
EOF
