0
SECTION
2
HEADER
9
$ACADVER
1
AC1015
9
$DWGCODEPAGE
3
ANSI_1252
9
$HANDSEED
5
1b1
9
$ANGBASE
50
0
9
$ANGDIR
70
0
9
$ATTMODE
70
1
9
$AUNITS
70
0
9
$AUPREC
70
0
9
$CECOLOR
62
256
9
$CELTSCALE
40
1
9
$CELTYPE
6
ByLayer
9
$CELWEIGHT
370
18
9
$CLAYER
8
0
9
$CMLJUST
70
0
9
$CMLSCALE
40
1
9
$CMLSTYLE
2
Standard
9
$DIMSTYLE
2
Standard
9
$TEXTSIZE
40
0.2
9
$TEXTSTYLE
7
Standard
9
$LUNITS
70
2
9
$LUPREC
70
4
9
$EXTNAMES
290
1
9
$INSUNITS
70
4
9
$LTSCALE
40
1
9
$LWDISPLAY
290
1
9
$PDMODE
70
0
9
$PDSIZE
40
0
9
$PLINEGEN
70
0
0
ENDSEC
0
SECTION
2
CLASSES
0
CLASS
1
RASTERVARIABLES
2
AcDbRasterVariables
3
ISM
90
0
280
0
281
0
0
ENDSEC
0
SECTION
2
TABLES
0
TABLE
2
VPORT
5
1a7
100
AcDbSymbolTable
0
VPORT
5
1
100
AcDbSymbolTableRecord
100
AcDbViewportTableRecord
2
*Active
70
0
10
0
20
0
11
1
21
1
12
-1
22
1
13
0
23
0
14
0.5
24
0.5
15
10
25
10
16
0
26
0
36
1
17
0
27
0
37
0
0
ENDTAB
0
TABLE
2
LTYPE
5
1a8
100
AcDbSymbolTable
0
LTYPE
5
14
100
AcDbSymbolTableRecord
100
AcDbLinetypeTableRecord
70
0
2
ByBlock
3

72
65
73
0
40
0
0
LTYPE
5
15
100
AcDbSymbolTableRecord
100
AcDbLinetypeTableRecord
70
0
2
ByLayer
3

72
65
73
0
40
0
0
LTYPE
5
16
100
AcDbSymbolTableRecord
100
AcDbLinetypeTableRecord
70
0
2
CONTINUOUS
3
Solid line
72
65
73
0
40
0
0
LTYPE
5
6A
100
AcDbSymbolTableRecord
100
AcDbLinetypeTableRecord
70
0
2
CENTER
3
____ _ ____ _ ____ _ ____
72
65
73
4
40
47.5
49
22
74
0
49
-8.5
74
0
49
8.5
74
0
49
-8.5
74
0
0
LTYPE
5
6B
100
AcDbSymbolTableRecord
100
AcDbLinetypeTableRecord
70
0
2
DASHED
3
__ __ __ __ __ __ __ __ __
72
65
73
2
40
25.72
49
12.86
74
0
49
-12.86
74
0
0
ENDTAB
0
TABLE
2
LAYER
5
1a9
100
AcDbSymbolTable
0
LAYER
5
10
100
AcDbSymbolTableRecord
100
AcDbLayerTableRecord
2
0
70
0
62
7
6
CONTINUOUS
290
1
370
-3
390
0
0
LAYER
5
6D
100
AcDbSymbolTableRecord
100
AcDbLayerTableRecord
2
2
70
0
62
7
6
CONTINUOUS
290
1
370
-3
390
0
0
LAYER
5
6F
100
AcDbSymbolTableRecord
100
AcDbLayerTableRecord
2
80
70
0
62
-6
6
CONTINUOUS
290
1
370
-3
390
0
0
LAYER
5
72
100
AcDbSymbolTableRecord
100
AcDbLayerTableRecord
2
81
70
0
62
-3
6
CONTINUOUS
290
1
370
-3
390
0
0
LAYER
5
76
100
AcDbSymbolTableRecord
100
AcDbLayerTableRecord
2
1
70
0
62
4
6
CONTINUOUS
290
1
370
-3
390
0
0
LAYER
5
194
100
AcDbSymbolTableRecord
100
AcDbLayerTableRecord
2
SK1
70
0
62
4
6
CONTINUOUS
290
1
370
-3
390
0
0
LAYER
5
195
100
AcDbSymbolTableRecord
100
AcDbLayerTableRecord
2
SK6
70
0
62
5
6
CONTINUOUS
290
1
370
-3
390
0
0
LAYER
5
196
100
AcDbSymbolTableRecord
100
AcDbLayerTableRecord
2
SK2
70
0
62
7
6
CONTINUOUS
290
1
370
-3
390
0
0
ENDTAB
0
TABLE
2
STYLE
5
1aa
100
AcDbSymbolTable
0
STYLE
5
11
100
AcDbSymbolTableRecord
100
AcDbTextStyleTableRecord
2
Standard
3
txt
70
0
71
0
40
0
41
1
42
0
50
0
0
STYLE
5
DC
100
AcDbSymbolTableRecord
100
AcDbTextStyleTableRecord
2
iso_b_vert
3
simplex.shx
70
0
71
0
40
0
41
1
42
0
50
0
0
STYLE
5
DD
100
AcDbSymbolTableRecord
100
AcDbTextStyleTableRecord
2
DWGDirectTextStyle
3
simplex
70
0
71
0
40
0
41
1
42
0
50
0
0
ENDTAB
0
TABLE
2
DIMSTYLE
5
1ab
100
AcDbSymbolTable
100
AcDbDimStyleTable
0
DIMSTYLE
105
27
100
AcDbSymbolTableRecord
100
AcDbDimStyleTableRecord
2
Standard
70
0
3
<>
41
0.18
42
0.0625
44
0.18
140
0.18
147
0.09
73
0
74
0
77
1
271
2
275
0
278
52
280
0
340
11
0
ENDTAB
0
TABLE
2
VIEW
5
1ac
100
AcDbSymbolTable
0
ENDTAB
0
TABLE
2
UCS
5
1ad
100
AcDbSymbolTable
0
ENDTAB
0
TABLE
2
APPID
5
1ae
100
AcDbSymbolTable
0
APPID
5
12
100
AcDbSymbolTableRecord
100
AcDbRegAppTableRecord
2
ACAD
70
0
0
ENDTAB
0
TABLE
2
BLOCK_RECORD
5
1af
100
AcDbSymbolTable
0
BLOCK_RECORD
5
1F
100
AcDbSymbolTableRecord
100
AcDbBlockTableRecord
2
*Model_Space
340
0
70
0
0
BLOCK_RECORD
5
1B
100
AcDbSymbolTableRecord
100
AcDbBlockTableRecord
2
*Paper_Space
340
0
70
0
0
BLOCK_RECORD
5
23
100
AcDbSymbolTableRecord
100
AcDbBlockTableRecord
2
*Paper_Space0
340
0
70
0
0
BLOCK_RECORD
5
DF
100
AcDbSymbolTableRecord
100
AcDbBlockTableRecord
2
DimnDraft3D1
340
0
70
0
0
BLOCK_RECORD
5
ED
100
AcDbSymbolTableRecord
100
AcDbBlockTableRecord
2
_CLOSED
340
0
70
0
0
BLOCK_RECORD
5
F4
100
AcDbSymbolTableRecord
100
AcDbBlockTableRecord
2
DimnDraft3D2
340
0
70
0
0
BLOCK_RECORD
5
102
100
AcDbSymbolTableRecord
100
AcDbBlockTableRecord
2
DimnDraft3D3
340
0
70
0
0
BLOCK_RECORD
5
111
100
AcDbSymbolTableRecord
100
AcDbBlockTableRecord
2
DimnDraft3D4
340
0
70
0
0
BLOCK_RECORD
5
11F
100
AcDbSymbolTableRecord
100
AcDbBlockTableRecord
2
DimnDraft3D5
340
0
70
0
0
BLOCK_RECORD
5
12D
100
AcDbSymbolTableRecord
100
AcDbBlockTableRecord
2
DimnDraft3D6
340
0
70
0
0
ENDTAB
0
ENDSEC
0
SECTION
2
BLOCKS
0
BLOCK
5
20
100
AcDbEntity
8
0
100
AcDbBlockBegin
2
*Model_Space
70
0
10
0
20
0
30
0
3
*Model_Space
0
ENDBLK
5
21
100
AcDbEntity
8
0
100
AcDbBlockEnd
0
BLOCK
5
1C
100
AcDbEntity
8
0
100
AcDbBlockBegin
2
*Paper_Space
70
0
10
0
20
0
30
0
3
*Paper_Space
0
ENDBLK
5
1D
100
AcDbEntity
8
0
100
AcDbBlockEnd
0
BLOCK
5
24
100
AcDbEntity
8
0
100
AcDbBlockBegin
2
*Paper_Space0
70
0
10
0
20
0
30
0
3
*Paper_Space0
0
ENDBLK
5
25
100
AcDbEntity
8
0
100
AcDbBlockEnd
0
BLOCK
5
EA
100
AcDbEntity
8
0
100
AcDbBlockBegin
2
DimnDraft3D1
70
0
10
0
20
0
30
0
3
DimnDraft3D1
0
MTEXT
5
E0
100
AcDbEntity
8
2
62
256
6
ByLayer
370
18
48
1
60
0
100
AcDbMText
10
46.625
20
19.1875
30
0
210
0
220
0
230
1
1
\W0.5404;2
40
4.5
41
0
44
1.084337
50
90
71
7
72
5
7
iso_b_vert
0
LINE
5
E1
100
AcDbEntity
8
2
62
256
6
ByLayer
370
13
48
1
60
0
100
AcDbLine
10
35
20
11.5625
30
0
11
50.75
21
11.5625
31
0
39
0
210
0
220
0
230
1
0
LINE
5
E2
100
AcDbEntity
8
2
62
256
6
ByLayer
370
13
48
1
60
0
100
AcDbLine
10
35
20
13.5625
30
0
11
50.75
21
13.5625
31
0
39
0
210
0
220
0
230
1
0
LINE
5
E3
100
AcDbEntity
8
2
62
256
6
ByLayer
370
13
48
1
60
0
100
AcDbLine
10
47.75
20
20.075658
30
0
11
47.75
21
0.3125
31
0
39
0
210
0
220
0
230
1
0
LINE
5
E4
100
AcDbEntity
8
2
62
256
6
ByLayer
370
13
48
1
60
0
100
AcDbLine
10
47.75
20
11.5625
30
0
11
48.144957
21
8.562501
31
0
39
0
210
0
220
0
230
1
0
LINE
5
E5
100
AcDbEntity
8
2
62
256
6
ByLayer
370
13
48
1
60
0
100
AcDbLine
10
47.75
20
11.5625
30
0
11
47.355043
21
8.562499
31
0
39
0
210
0
220
0
230
1
0
LINE
5
E6
100
AcDbEntity
8
2
62
256
6
ByLayer
370
13
48
1
60
0
100
AcDbLine
10
48.144957
20
8.562501
30
0
11
47.355043
21
8.562499
31
0
39
0
210
0
220
0
230
1
0
LINE
5
E7
100
AcDbEntity
8
2
62
256
6
ByLayer
370
13
48
1
60
0
100
AcDbLine
10
47.75
20
13.5625
30
0
11
47.355043
21
16.562499
31
0
39
0
210
0
220
0
230
1
0
LINE
5
E8
100
AcDbEntity
8
2
62
256
6
ByLayer
370
13
48
1
60
0
100
AcDbLine
10
47.75
20
13.5625
30
0
11
48.144957
21
16.562501
31
0
39
0
210
0
220
0
230
1
0
LINE
5
E9
100
AcDbEntity
8
2
62
256
6
ByLayer
370
13
48
1
60
0
100
AcDbLine
10
47.355043
20
16.562499
30
0
11
48.144957
21
16.562501
31
0
39
0
210
0
220
0
230
1
0
ENDBLK
5
EB
100
AcDbEntity
8
0
100
AcDbBlockEnd
0
BLOCK
5
EE
100
AcDbEntity
8
0
100
AcDbBlockBegin
2
_CLOSED
70
0
10
0
20
0
30
0
3
_CLOSED
0
LINE
5
F0
100
AcDbEntity
8
0
62
256
6
ByLayer
370
-2
48
1
60
0
100
AcDbLine
10
-1
20
0.166667
30
0
11
0
21
0
31
0
39
0
210
0
220
0
230
1
0
LINE
5
F1
100
AcDbEntity
8
0
62
256
6
ByLayer
370
-2
48
1
60
0
100
AcDbLine
10
0
20
0
30
0
11
-1
21
-0.166667
31
0
39
0
210
0
220
0
230
1
0
LINE
5
F2
100
AcDbEntity
8
0
62
256
6
ByLayer
370
-2
48
1
60
0
100
AcDbLine
10
-1
20
0.166667
30
0
11
-1
21
-0.166667
31
0
39
0
210
0
220
0
230
1
0
LINE
5
F3
100
AcDbEntity
8
0
62
256
6
ByLayer
370
-2
48
1
60
0
100
AcDbLine
10
0
20
0
30
0
11
-1
21
0
31
0
39
0
210
0
220
0
230
1
0
ENDBLK
5
EF
100
AcDbEntity
8
0
100
AcDbBlockEnd
0
BLOCK
5
FF
100
AcDbEntity
8
0
100
AcDbBlockBegin
2
DimnDraft3D2
70
0
10
0
20
0
30
0
3
DimnDraft3D2
0
MTEXT
5
F5
100
AcDbEntity
8
2
62
256
6
ByLayer
370
18
48
1
60
0
100
AcDbMText
10
56.625
20
-1.000658
30
0
210
0
220
0
230
1
1
\W0.6740;26
40
4.5
41
0
44
1.084337
50
90
71
7
72
5
7
iso_b_vert
0
LINE
5
F6
100
AcDbEntity
8
2
62
256
6
ByLayer
370
13
48
1
60
0
100
AcDbLine
10
35
20
13.5625
30
0
11
60.75
21
13.5625
31
0
39
0
210
0
220
0
230
1
0
LINE
5
F7
100
AcDbEntity
8
2
62
256
6
ByLayer
370
13
48
1
60
0
100
AcDbLine
10
-3.5
20
-12.4375
30
0
11
60.75
21
-12.4375
31
0
39
0
210
0
220
0
230
1
0
LINE
5
F8
100
AcDbEntity
8
2
62
256
6
ByLayer
370
13
48
1
60
0
100
AcDbLine
10
57.75
20
13.5625
30
0
11
57.75
21
-12.4375
31
0
39
0
210
0
220
0
230
1
0
LINE
5
F9
100
AcDbEntity
8
2
62
256
6
ByLayer
370
13
48
1
60
0
100
AcDbLine
10
57.75
20
13.5625
30
0
11
58.144957
21
10.562501
31
0
39
0
210
0
220
0
230
1
0
LINE
5
FA
100
AcDbEntity
8
2
62
256
6
ByLayer
370
13
48
1
60
0
100
AcDbLine
10
57.75
20
13.5625
30
0
11
57.355043
21
10.562499
31
0
39
0
210
0
220
0
230
1
0
LINE
5
FB
100
AcDbEntity
8
2
62
256
6
ByLayer
370
13
48
1
60
0
100
AcDbLine
10
58.144957
20
10.562501
30
0
11
57.355043
21
10.562499
31
0
39
0
210
0
220
0
230
1
0
LINE
5
FC
100
AcDbEntity
8
2
62
256
6
ByLayer
370
13
48
1
60
0
100
AcDbLine
10
57.75
20
-12.4375
30
0
11
57.355043
21
-9.437501
31
0
39
0
210
0
220
0
230
1
0
LINE
5
FD
100
AcDbEntity
8
2
62
256
6
ByLayer
370
13
48
1
60
0
100
AcDbLine
10
57.75
20
-12.4375
30
0
11
58.144957
21
-9.437499
31
0
39
0
210
0
220
0
230
1
0
LINE
5
FE
100
AcDbEntity
8
2
62
256
6
ByLayer
370
13
48
1
60
0
100
AcDbLine
10
57.355043
20
-9.437501
30
0
11
58.144957
21
-9.437499
31
0
39
0
210
0
220
0
230
1
0
ENDBLK
5
100
100
AcDbEntity
8
0
100
AcDbBlockEnd
0
BLOCK
5
10E
100
AcDbEntity
8
0
100
AcDbBlockBegin
2
DimnDraft3D3
70
0
10
0
20
0
30
0
3
DimnDraft3D3
0
MTEXT
5
103
100
AcDbEntity
8
SK2
62
256
6
ByLayer
370
18
48
1
60
0
100
AcDbMText
10
-128.725
20
-1.563158
30
0
210
0
220
0
230
1
1
\W0.6740;25
40
4.5
41
0
44
1.084337
50
90
71
7
72
5
7
iso_b_vert
0
LINE
5
105
100
AcDbEntity
8
SK2
62
256
6
ByLayer
370
13
48
1
60
0
100
AcDbLine
10
-119.35
20
12.4375
30
0
11
-130.6
21
12.4375
31
0
39
0
210
0
220
0
230
1
0
LINE
5
106
100
AcDbEntity
8
SK2
62
256
6
ByLayer
370
13
48
1
60
0
100
AcDbLine
10
-119.35
20
-12.4375
30
0
11
-130.6
21
-12.4375
31
0
39
0
210
0
220
0
230
1
0
LINE
5
107
100
AcDbEntity
8
SK2
62
256
6
ByLayer
370
13
48
1
60
0
100
AcDbLine
10
-127.6
20
12.4375
30
0
11
-127.6
21
-12.4375
31
0
39
0
210
0
220
0
230
1
0
LINE
5
108
100
AcDbEntity
8
SK2
62
256
6
ByLayer
370
13
48
1
60
0
100
AcDbLine
10
-127.6
20
12.4375
30
0
11
-127.205043
21
9.437501
31
0
39
0
210
0
220
0
230
1
0
LINE
5
109
100
AcDbEntity
8
SK2
62
256
6
ByLayer
370
13
48
1
60
0
100
AcDbLine
10
-127.6
20
12.4375
30
0
11
-127.994957
21
9.437499
31
0
39
0
210
0
220
0
230
1
0
LINE
5
10A
100
AcDbEntity
8
SK2
62
256
6
ByLayer
370
13
48
1
60
0
100
AcDbLine
10
-127.205043
20
9.437501
30
0
11
-127.994957
21
9.437499
31
0
39
0
210
0
220
0
230
1
0
LINE
5
10B
100
AcDbEntity
8
SK2
62
256
6
ByLayer
370
13
48
1
60
0
100
AcDbLine
10
-127.6
20
-12.4375
30
0
11
-127.994957
21
-9.437501
31
0
39
0
210
0
220
0
230
1
0
LINE
5
10C
100
AcDbEntity
8
SK2
62
256
6
ByLayer
370
13
48
1
60
0
100
AcDbLine
10
-127.6
20
-12.4375
30
0
11
-127.205043
21
-9.437499
31
0
39
0
210
0
220
0
230
1
0
LINE
5
10D
100
AcDbEntity
8
SK2
62
256
6
ByLayer
370
13
48
1
60
0
100
AcDbLine
10
-127.994957
20
-9.437501
30
0
11
-127.205043
21
-9.437499
31
0
39
0
210
0
220
0
230
1
0
ENDBLK
5
10F
100
AcDbEntity
8
0
100
AcDbBlockEnd
0
BLOCK
5
11C
100
AcDbEntity
8
0
100
AcDbBlockBegin
2
DimnDraft3D4
70
0
10
0
20
0
30
0
3
DimnDraft3D4
0
MTEXT
5
112
100
AcDbEntity
8
2
62
256
6
ByLayer
370
18
48
1
60
0
100
AcDbMText
10
12.593421
20
24.4375
30
0
210
0
220
0
230
1
1
\W0.7346;33.5
40
4.5
41
0
44
1.084337
50
0
71
7
72
5
7
iso_b_vert
0
LINE
5
113
100
AcDbEntity
8
2
62
256
6
ByLayer
370
13
48
1
60
0
100
AcDbLine
10
33.5
20
15.0625
30
0
11
33.5
21
26.3125
31
0
39
0
210
0
220
0
230
1
0
LINE
5
114
100
AcDbEntity
8
2
62
256
6
ByLayer
370
13
48
1
60
0
100
AcDbLine
10
0
20
13.9375
30
0
11
0
21
26.3125
31
0
39
0
210
0
220
0
230
1
0
LINE
5
115
100
AcDbEntity
8
2
62
256
6
ByLayer
370
13
48
1
60
0
100
AcDbLine
10
33.5
20
23.3125
30
0
11
0
21
23.3125
31
0
39
0
210
0
220
0
230
1
0
LINE
5
116
100
AcDbEntity
8
2
62
256
6
ByLayer
370
13
48
1
60
0
100
AcDbLine
10
33.5
20
23.3125
30
0
11
30.500001
21
22.917543
31
0
39
0
210
0
220
0
230
1
0
LINE
5
117
100
AcDbEntity
8
2
62
256
6
ByLayer
370
13
48
1
60
0
100
AcDbLine
10
33.5
20
23.3125
30
0
11
30.499999
21
23.707457
31
0
39
0
210
0
220
0
230
1
0
LINE
5
118
100
AcDbEntity
8
2
62
256
6
ByLayer
370
13
48
1
60
0
100
AcDbLine
10
30.500001
20
22.917543
30
0
11
30.499999
21
23.707457
31
0
39
0
210
0
220
0
230
1
0
LINE
5
119
100
AcDbEntity
8
2
62
256
6
ByLayer
370
13
48
1
60
0
100
AcDbLine
10
0
20
23.3125
30
0
11
2.999999
21
23.707457
31
0
39
0
210
0
220
0
230
1
0
LINE
5
11A
100
AcDbEntity
8
2
62
256
6
ByLayer
370
13
48
1
60
0
100
AcDbLine
10
0
20
23.3125
30
0
11
3.000001
21
22.917543
31
0
39
0
210
0
220
0
230
1
0
LINE
5
11B
100
AcDbEntity
8
2
62
256
6
ByLayer
370
13
48
1
60
0
100
AcDbLine
10
2.999999
20
23.707457
30
0
11
3.000001
21
22.917543
31
0
39
0
210
0
220
0
230
1
0
ENDBLK
5
11D
100
AcDbEntity
8
0
100
AcDbBlockEnd
0
BLOCK
5
12A
100
AcDbEntity
8
0
100
AcDbBlockBegin
2
DimnDraft3D5
70
0
10
0
20
0
30
0
3
DimnDraft3D5
0
MTEXT
5
120
100
AcDbEntity
8
SK2
62
256
6
ByLayer
370
18
48
1
60
0
100
AcDbMText
10
-44.857237
20
34.4375
30
0
210
0
220
0
230
1
1
\W0.6217;150
40
4.5
41
0
44
1.084337
50
0
71
7
72
5
7
iso_b_vert
0
LINE
5
121
100
AcDbEntity
8
SK2
62
256
6
ByLayer
370
13
48
1
60
0
100
AcDbLine
10
33.5
20
15.0625
30
0
11
33.5
21
36.3125
31
0
39
0
210
0
220
0
230
1
0
LINE
5
122
100
AcDbEntity
8
SK2
62
256
6
ByLayer
370
13
48
1
60
0
100
AcDbLine
10
-117.85
20
13.9375
30
0
11
-117.85
21
36.3125
31
0
39
0
210
0
220
0
230
1
0
LINE
5
123
100
AcDbEntity
8
SK2
62
256
6
ByLayer
370
13
48
1
60
0
100
AcDbLine
10
33.5
20
33.3125
30
0
11
-117.85
21
33.3125
31
0
39
0
210
0
220
0
230
1
0
LINE
5
124
100
AcDbEntity
8
SK2
62
256
6
ByLayer
370
13
48
1
60
0
100
AcDbLine
10
33.5
20
33.3125
30
0
11
30.500001
21
32.917543
31
0
39
0
210
0
220
0
230
1
0
LINE
5
125
100
AcDbEntity
8
SK2
62
256
6
ByLayer
370
13
48
1
60
0
100
AcDbLine
10
33.5
20
33.3125
30
0
11
30.499999
21
33.707457
31
0
39
0
210
0
220
0
230
1
0
LINE
5
126
100
AcDbEntity
8
SK2
62
256
6
ByLayer
370
13
48
1
60
0
100
AcDbLine
10
30.500001
20
32.917543
30
0
11
30.499999
21
33.707457
31
0
39
0
210
0
220
0
230
1
0
LINE
5
127
100
AcDbEntity
8
SK2
62
256
6
ByLayer
370
13
48
1
60
0
100
AcDbLine
10
-117.85
20
33.3125
30
0
11
-114.850001
21
33.707457
31
0
39
0
210
0
220
0
230
1
0
LINE
5
128
100
AcDbEntity
8
SK2
62
256
6
ByLayer
370
13
48
1
60
0
100
AcDbLine
10
-117.85
20
33.3125
30
0
11
-114.849999
21
32.917543
31
0
39
0
210
0
220
0
230
1
0
LINE
5
129
100
AcDbEntity
8
SK2
62
256
6
ByLayer
370
13
48
1
60
0
100
AcDbLine
10
-114.850001
20
33.707457
30
0
11
-114.849999
21
32.917543
31
0
39
0
210
0
220
0
230
1
0
ENDBLK
5
12B
100
AcDbEntity
8
0
100
AcDbBlockEnd
0
BLOCK
5
138
100
AcDbEntity
8
0
100
AcDbBlockBegin
2
DimnDraft3D6
70
0
10
0
20
0
30
0
3
DimnDraft3D6
0
MTEXT
5
12E
100
AcDbEntity
8
2
62
256
6
ByLayer
370
18
48
1
60
0
100
AcDbMText
10
24.999342
20
-25.5625
30
0
210
0
220
0
230
1
1
\W0.5321;15
40
4.5
41
0
44
1.084337
50
0
71
7
72
5
7
iso_b_vert
0
LINE
5
12F
100
AcDbEntity
8
2
62
256
6
ByLayer
370
13
48
1
60
0
100
AcDbLine
10
18.5
20
9.0625
30
0
11
18.5
21
-29.6875
31
0
39
0
210
0
220
0
230
1
0
LINE
5
130
100
AcDbEntity
8
2
62
256
6
ByLayer
370
13
48
1
60
0
100
AcDbLine
10
33.5
20
10.0625
30
0
11
33.5
21
-29.6875
31
0
39
0
210
0
220
0
230
1
0
LINE
5
131
100
AcDbEntity
8
2
62
256
6
ByLayer
370
13
48
1
60
0
100
AcDbLine
10
18.5
20
-26.6875
30
0
11
33.5
21
-26.6875
31
0
39
0
210
0
220
0
230
1
0
LINE
5
132
100
AcDbEntity
8
2
62
256
6
ByLayer
370
13
48
1
60
0
100
AcDbLine
10
18.5
20
-26.6875
30
0
11
21.499999
21
-26.292543
31
0
39
0
210
0
220
0
230
1
0
LINE
5
133
100
AcDbEntity
8
2
62
256
6
ByLayer
370
13
48
1
60
0
100
AcDbLine
10
18.5
20
-26.6875
30
0
11
21.500001
21
-27.082457
31
0
39
0
210
0
220
0
230
1
0
LINE
5
134
100
AcDbEntity
8
2
62
256
6
ByLayer
370
13
48
1
60
0
100
AcDbLine
10
21.499999
20
-26.292543
30
0
11
21.500001
21
-27.082457
31
0
39
0
210
0
220
0
230
1
0
LINE
5
135
100
AcDbEntity
8
2
62
256
6
ByLayer
370
13
48
1
60
0
100
AcDbLine
10
33.5
20
-26.6875
30
0
11
30.500001
21
-27.082457
31
0
39
0
210
0
220
0
230
1
0
LINE
5
136
100
AcDbEntity
8
2
62
256
6
ByLayer
370
13
48
1
60
0
100
AcDbLine
10
33.5
20
-26.6875
30
0
11
30.499999
21
-26.292543
31
0
39
0
210
0
220
0
230
1
0
LINE
5
137
100
AcDbEntity
8
2
62
256
6
ByLayer
370
13
48
1
60
0
100
AcDbLine
10
30.500001
20
-27.082457
30
0
11
30.499999
21
-26.292543
31
0
39
0
210
0
220
0
230
1
0
ENDBLK
5
139
100
AcDbEntity
8
0
100
AcDbBlockEnd
0
ENDSEC
0
SECTION
2
ENTITIES
0
ARC
5
AB
100
AcDbEntity
8
1
62
256
6
ByLayer
370
18
48
1
60
0
100
AcDbCircle
39
0
10
-18.6
20
10.2125
30
0
40
1.6
210
0
220
0
230
-1
100
AcDbArc
50
0
51
73.282826
0
ARC
5
AC
100
AcDbEntity
8
1
62
256
6
ByLayer
370
18
48
1
60
0
100
AcDbCircle
39
0
10
18.6
20
10.2125
30
0
40
1.59999999984567
210
0
220
0
230
1
100
AcDbArc
50
90
51
106.717174
0
ARC
5
AE
100
AcDbEntity
8
1
62
256
6
ByLayer
370
18
48
1
60
0
100
AcDbCircle
39
0
10
12
20
5.5625
30
0
40
1.416
210
0
220
0
230
1
100
AcDbArc
50
96.192438
51
150.190711
0
ARC
5
AF
100
AcDbEntity
8
1
62
256
6
ByLayer
370
18
48
1
60
0
100
AcDbCircle
39
0
10
12
20
5.5625
30
0
40
1.416
210
0
220
0
230
1
100
AcDbArc
50
263.807562
51
276.192438
0
ARC
5
B0
100
AcDbEntity
8
1
62
256
6
ByLayer
370
18
48
1
60
0
100
AcDbCircle
39
0
10
12
20
5.5625
30
0
40
1.9685
210
0
220
0
230
1
100
AcDbArc
50
120.381422
51
180
0
ARC
5
B1
100
AcDbEntity
8
1
62
256
6
ByLayer
370
18
48
1
60
0
100
AcDbCircle
39
0
10
12
20
5.5625
30
0
40
1.416
210
0
220
0
230
1
100
AcDbArc
50
29.809289
51
83.807562
0
ARC
5
B2
100
AcDbEntity
8
1
62
256
6
ByLayer
370
18
48
1
60
0
100
AcDbCircle
39
0
10
12
20
5.5625
30
0
40
1.416
210
0
220
0
230
1
100
AcDbArc
50
330.190711
51
29.809289
0
ARC
5
B3
100
AcDbEntity
8
1
62
256
6
ByLayer
370
18
48
1
60
0
100
AcDbCircle
39
0
10
12
20
5.5625
30
0
40
1.9685
210
0
220
0
230
1
100
AcDbArc
50
239.618578
51
300.381422
0
ARC
5
B4
100
AcDbEntity
8
1
62
256
6
ByLayer
370
18
48
1
60
0
100
AcDbCircle
39
0
10
12
20
5.5625
30
0
40
1.9685
210
0
220
0
230
1
100
AcDbArc
50
180
51
239.618578
0
ARC
5
B5
100
AcDbEntity
8
1
62
256
6
ByLayer
370
18
48
1
60
0
100
AcDbCircle
39
0
10
12
20
5.5625
30
0
40
1.416
210
0
220
0
230
1
100
AcDbArc
50
83.807562
51
96.192438
0
ARC
5
B6
100
AcDbEntity
8
1
62
256
6
ByLayer
370
18
48
1
60
0
100
AcDbCircle
39
0
10
12
20
5.5625
30
0
40
1.416
210
0
220
0
230
1
100
AcDbArc
50
276.192438
51
330.190711
0
ARC
5
B7
100
AcDbEntity
8
1
62
256
6
ByLayer
370
18
48
1
60
0
100
AcDbCircle
39
0
10
12
20
5.5625
30
0
40
1.9685
210
0
220
0
230
1
100
AcDbArc
50
59.618578
51
120.381422
0
ARC
5
B8
100
AcDbEntity
8
1
62
256
6
ByLayer
370
18
48
1
60
0
100
AcDbCircle
39
0
10
12
20
5.5625
30
0
40
1.9685
210
0
220
0
230
1
100
AcDbArc
50
360
51
59.618578
0
ARC
5
B9
100
AcDbEntity
8
1
62
256
6
ByLayer
370
18
48
1
60
0
100
AcDbCircle
39
0
10
12
20
5.5625
30
0
40
1.416
210
0
220
0
230
1
100
AcDbArc
50
209.809289
51
263.807562
0
ARC
5
BA
100
AcDbEntity
8
1
62
256
6
ByLayer
370
18
48
1
60
0
100
AcDbCircle
39
0
10
12
20
5.5625
30
0
40
1.416
210
0
220
0
230
1
100
AcDbArc
50
150.190711
51
209.809289
0
ARC
5
BB
100
AcDbEntity
8
1
62
256
6
ByLayer
370
18
48
1
60
0
100
AcDbCircle
39
0
10
12
20
5.5625
30
0
40
1.9685
210
0
220
0
230
1
100
AcDbArc
50
300.381422
51
360
0
ARC
5
BE
100
AcDbEntity
8
1
62
256
6
ByLayer
370
18
48
1
60
0
100
AcDbCircle
39
0
10
-13.7
20
13.3625
30
0
40
0.2
210
0
220
0
230
-1
100
AcDbArc
50
0
51
92.5
0
ARC
5
BF
100
AcDbEntity
8
1
62
256
6
ByLayer
370
18
48
1
60
0
100
AcDbCircle
39
0
10
33.3
20
13.3625
30
0
40
0.2
210
0
220
0
230
1
100
AcDbArc
50
360
51
92.5
0
ARC
5
C0
100
AcDbEntity
8
1
62
256
6
ByLayer
370
18
48
1
60
0
100
AcDbCircle
39
0
10
27.332089
20
12.5625
30
0
40
0.499999999991138
210
0
220
0
230
1
100
AcDbArc
50
340
51
20
0
ARC
5
C1
100
AcDbEntity
8
1
62
256
6
ByLayer
370
18
48
1
60
0
100
AcDbCircle
39
0
10
-33.3
20
11.7625
30
0
40
0.2
210
0
220
0
230
-1
100
AcDbArc
50
180
51
272.5
0
CIRCLE
5
AD
100
AcDbEntity
8
1
62
256
6
ByLayer
370
18
48
1
60
0
100
AcDbCircle
10
-12
20
5.5625
30
0
40
4
39
0
210
0
220
0
230
-1
0
CIRCLE
5
BC
100
AcDbEntity
8
1
62
256
6
ByLayer
370
18
48
1
60
0
100
AcDbCircle
10
-12
20
5.5625
30
0
40
3
39
0
210
0
220
0
230
-1
0
CIRCLE
5
BD
100
AcDbEntity
8
1
62
256
6
ByLayer
370
18
48
1
60
0
100
AcDbCircle
10
-12
20
5.5625
30
0
40
3.5
39
0
210
0
220
0
230
-1
0
ELLIPSE
5
C2
100
AcDbEntity
8
1
62
256
6
ByLayer
370
18
48
1
60
0
100
AcDbEllipse
10
27.795796
20
13.188949
30
0
11
-0.0255413758870857
21
0.147809462337
31
0
210
0
220
0
230
1
40
1
41
1.39968672988555
42
1.74875258773326
0
ELLIPSE
5
C3
100
AcDbEntity
8
1
62
256
6
ByLayer
370
18
48
1
60
0
100
AcDbEllipse
10
27.795796
20
11.936051
30
0
11
-0.0255413758870862
21
-0.147809462337
31
0
210
0
220
0
230
1
40
1
41
-1.74875258773326
42
-1.39968672988555
0
POINT
5
6C
100
AcDbEntity
8
2
62
256
6
ByLayer
370
18
48
1
60
0
100
AcDbPoint
10
33.5
20
12.5625
30
0
39
0
210
0
220
0
230
1
50
360
0
POINT
5
6E
100
AcDbEntity
8
80
62
256
6
ByLayer
370
18
48
1
60
0
100
AcDbPoint
10
0
20
0
30
0
39
0
210
0
220
0
230
1
50
360
0
POINT
5
70
100
AcDbEntity
8
2
62
256
6
ByLayer
370
18
48
1
60
0
100
AcDbPoint
10
33.5
20
13.5625
30
0
39
0
210
0
220
0
230
1
50
360
0
POINT
5
71
100
AcDbEntity
8
81
62
256
6
ByLayer
370
18
48
1
60
0
100
AcDbPoint
10
33.5
20
13.5625
30
0
39
0
210
0
220
0
230
1
50
360
0
SPLINE
5
C4
100
AcDbEntity
8
1
62
256
6
ByLayer
370
18
48
1
60
0
100
AcDbSpline
70
4
71
3
72
8
73
4
40
0
40
0
40
0
40
0
40
1
40
1
40
1
40
1
41
1
10
26.9068513838671
20
12.9428564355666
30
0
41
1
10
26.8567751647697
20
13.0663912693361
30
0
41
1
10
26.8062919217128
20
13.1896843472819
30
0
41
1
10
26.755042424375
20
13.3125
30
0
0
SPLINE
5
C5
100
AcDbEntity
8
1
62
256
6
ByLayer
370
18
48
1
60
0
100
AcDbSpline
70
4
71
3
72
8
73
4
40
0
40
0
40
0
40
0
40
1
40
1
40
1
40
1
41
1
10
26.755042424375
20
11.8125
30
0
41
1
10
26.8062919217128
20
11.935315652718
30
0
41
1
10
26.8567751647697
20
12.0586087306638
30
0
41
1
10
26.906851383867
20
12.1821435644333
30
0
0
SPLINE
5
C6
100
AcDbEntity
8
1
62
256
6
ByLayer
370
18
48
1
60
0
100
AcDbSpline
70
4
71
3
72
12
73
8
40
0
40
0
40
0
40
0
40
0.367292260733832
40
0.367292260733832
40
0.734922303957995
40
0.734922303957995
40
1
40
1
40
1
40
1
41
1
10
26.9068513838671
20
12.1821435644333
30
0
41
1
10
26.9417035961608
20
12.2681217458898
30
0
41
1
10
26.9649302976673
20
12.362604218767
30
0
41
1
10
26.9841590431068
20
12.5531059378826
30
0
41
1
10
26.9804000460794
20
12.6517486220198
30
0
41
1
10
26.9513806104925
20
12.8136365678244
30
0
41
1
10
26.9321762389184
20
12.8803816358575
30
0
41
1
10
26.906851383872
20
12.9428564355687
30
0
0
SPLINE
5
C7
100
AcDbEntity
8
1
62
256
6
ByLayer
370
18
48
1
60
0
100
AcDbSpline
70
4
71
3
72
14
73
10
40
0
40
0
40
0
40
0
40
0.281038222380423
40
0.281038222380423
40
0.564557857067114
40
0.564557857067114
40
0.820700196129992
40
0.820700196129992
40
1
40
1
40
1
40
1
41
1
10
11.4078822958329
20
7.20608262808872
30
0
41
1
10
11.3813006245732
20
7.23341236906992
30
0
41
1
10
11.3490439690951
20
7.2568655245359
30
0
41
1
10
11.277235194489
20
7.29107486042693
30
0
41
1
10
11.2364720760798
20
7.30218475904485
30
0
41
1
10
11.1571729147492
20
7.30784868557419
30
0
41
1
10
11.1175924873017
20
7.30391172564305
30
0
41
1
10
11.0539176730122
20
7.28561543464568
30
0
41
1
10
11.0281706327858
20
7.2746032984634
30
0
41
1
10
11.0044231104048
20
7.26068105833974
30
0
0
SPLINE
5
C8
100
AcDbEntity
8
1
62
256
6
ByLayer
370
18
48
1
60
0
100
AcDbSpline
70
4
71
3
72
16
73
12
40
0
40
0
40
0
40
0
40
0.0645965064171271
40
0.0645965064171271
40
0.282747320500293
40
0.282747320500293
40
0.503851581407209
40
0.503851581407209
40
0.739476498257748
40
0.739476498257748
40
1
40
1
40
1
40
1
41
1
10
11.0044231104049
20
3.8643189416602
30
0
41
1
10
11.0130142520841
20
3.85928229255319
30
0
41
1
10
11.0218448367853
20
3.85462938535528
30
0
41
1
10
11.061059408281
20
3.83618168672814
30
0
41
1
10
11.093783713078
20
3.82656309176434
30
0
41
1
10
11.1593454694518
20
3.81754045
30
0
41
1
10
11.1930080641067
20
3.8181346613772
30
0
41
1
10
11.2588630387574
20
3.82896811424015
30
0
41
1
10
11.2916435993958
20
3.83993762071361
30
0
41
1
10
11.3537963059872
20
3.87161494646929
30
0
41
1
10
11.3832521428563
20
3.89359406945218
30
0
41
1
10
11.4078822958329
20
3.91891737191122
30
0
0
SPLINE
5
C9
100
AcDbEntity
8
1
62
256
6
ByLayer
370
18
48
1
60
0
100
AcDbSpline
70
4
71
3
72
18
73
14
40
0
40
0
40
0
40
0
40
0.21308126200063
40
0.21308126200063
40
0.387160943926343
40
0.387160943926343
40
0.562948999941992
40
0.562948999941992
40
0.715638435810367
40
0.715638435810367
40
0.919170953808098
40
0.919170953808098
40
1
40
1
40
1
40
1
41
1
10
13.1474510335849
20
6.89065233797857
30
0
41
1
10
13.1253499966636
20
6.80810260339751
30
0
41
1
10
13.1155116663085
20
6.71929631718774
30
0
41
1
10
13.125005262533
20
6.55555916469967
30
0
41
1
10
13.1396283941553
20
6.47923071749949
30
0
41
1
10
13.190791443592
20
6.33203000919164
30
0
41
1
10
13.2285222509958
20
6.25911142498919
30
0
41
1
10
13.314774512508
20
6.13906872419491
30
0
41
1
10
13.3621656692504
20
6.08832306339133
30
0
41
1
10
13.4803089305089
20
5.98870920900279
30
0
41
1
10
13.5554527440064
20
5.94412477171269
30
0
41
1
10
13.6631437334956
20
5.90001928382182
30
0
41
1
10
13.6945032391402
20
5.88935984363914
30
0
41
1
10
13.7260954401444
20
5.88066196954682
30
0
0
SPLINE
5
CA
100
AcDbEntity
8
1
62
256
6
ByLayer
370
18
48
1
60
0
100
AcDbSpline
70
4
71
3
72
18
73
14
40
0
40
0
40
0
40
0
40
0.213081026856085
40
0.213081026856085
40
0.387160750704722
40
0.387160750704722
40
0.562948851464616
40
0.562948851464616
40
0.71563829568366
40
0.71563829568366
40
0.919170771668877
40
0.919170771668877
40
1
40
1
40
1
40
1
41
1
10
10.2739045598557
20
5.88066196954682
30
0
41
1
10
10.3562959735258
20
5.90334573704686
30
0
41
1
10
10.4378828610424
20
5.93977251302653
30
0
41
1
10
10.5743337817464
20
6.03077305590372
30
0
41
1
10
10.6327849506205
20
6.08199151673355
30
0
41
1
10
10.7338958570924
20
6.20057608788608
30
0
41
1
10
10.7777186157693
20
6.27000448969926
30
0
41
1
10
10.8376543890653
20
6.40512448640652
30
0
41
1
10
10.8574632867377
20
6.47167260736035
30
0
41
1
10
10.8836465356628
20
6.62397226392113
30
0
41
1
10
10.8841042679144
20
6.71134590366793
30
0
41
1
10
10.8676879551153
20
6.82655511685172
30
0
41
1
10
10.8610234078263
20
6.85899939374312
30
0
41
1
10
10.8525489664152
20
6.89065233797857
30
0
0
SPLINE
5
CB
100
AcDbEntity
8
1
62
256
6
ByLayer
370
18
48
1
60
0
100
AcDbSpline
70
4
71
3
72
14
73
10
40
0
40
0
40
0
40
0
40
0.285014780844634
40
0.285014780844634
40
0.572350605982623
40
0.572350605982623
40
0.832166772861814
40
0.832166772861814
40
1
40
1
40
1
40
1
41
1
10
10.8525489664152
20
4.23434766202141
30
0
41
1
10
10.8427455383359
20
4.19773081056721
30
0
41
1
10
10.839100800866
20
4.15822860790558
30
0
41
1
10
10.8463060087591
20
4.07944876124884
30
0
41
1
10
10.8574570886556
20
4.03895975174143
30
0
41
1
10
10.8927012508891
20
3.968225358475
30
0
41
1
10
10.9160474129793
20
3.93633206469559
30
0
41
1
10
10.9622449161043
20
3.89245856248681
30
0
41
1
10
10.9826741516866
20
3.87706950236535
30
0
41
1
10
11.0044231104049
20
3.8643189416602
30
0
0
SPLINE
5
CC
100
AcDbEntity
8
1
62
256
6
ByLayer
370
18
48
1
60
0
100
AcDbSpline
70
4
71
3
72
14
73
10
40
0
40
0
40
0
40
0
40
0.285013984727018
40
0.285013984727018
40
0.572349910642993
40
0.572349910642993
40
0.832166158509238
40
0.832166158509238
40
1
40
1
40
1
40
1
41
1
10
13.7260954401444
20
5.24433803045315
30
0
41
1
10
13.7626420033309
20
5.25439992531963
30
0
41
1
10
13.798562913688
20
5.27123402413133
30
0
41
1
10
13.8628804284091
20
5.31729289787498
30
0
41
1
10
13.892169726513
20
5.34739014603082
30
0
41
1
10
13.9353659032994
20
5.41356868226839
30
0
41
1
10
13.9510721564614
20
5.44983905406568
30
0
41
1
10
13.9655563481768
20
5.51188189848253
30
0
41
1
10
13.9685
20
5.53728891833418
30
0
41
1
10
13.9685
20
5.5625
30
0
0
SPLINE
5
CD
100
AcDbEntity
8
1
62
256
6
ByLayer
370
18
48
1
60
0
100
AcDbSpline
70
4
71
3
72
16
73
12
40
0
40
0
40
0
40
0
40
0.0645965064171876
40
0.0645965064171876
40
0.282747320500345
40
0.282747320500345
40
0.503851581407257
40
0.503851581407257
40
0.739476498257782
40
0.739476498257782
40
1
40
1
40
1
40
1
41
1
10
12.9955768895952
20
7.26068105833977
30
0
41
1
10
12.986985747916
20
7.26571770744675
30
0
41
1
10
12.9781551632148
20
7.27037061464469
30
0
41
1
10
12.9389405917191
20
7.28881831327183
30
0
41
1
10
12.9062162869221
20
7.29843690823563
30
0
41
1
10
12.8406545305483
20
7.30745954999998
30
0
41
1
10
12.8069919358934
20
7.30686533862277
30
0
41
1
10
12.7411369612427
20
7.29603188575982
30
0
41
1
10
12.7083564006043
20
7.28506237928636
30
0
41
1
10
12.6462036940129
20
7.25338505353068
30
0
41
1
10
12.6167478571437
20
7.23140593054779
30
0
41
1
10
12.5921177041672
20
7.20608262808875
30
0
0
SPLINE
5
CE
100
AcDbEntity
8
1
62
256
6
ByLayer
370
18
48
1
60
0
100
AcDbSpline
70
4
71
3
72
16
73
12
40
0
40
0
40
0
40
0
40
0.0660777514108768
40
0.0660777514108768
40
0.289232858199889
40
0.289232858199889
40
0.515409129607283
40
0.515409129607283
40
0.756439127791301
40
0.756439127791301
40
1
40
1
40
1
40
1
41
1
10
10.0315
20
5.5625
30
0
41
1
10
10.0315
20
5.55254139325586
30
0
41
1
10
10.0319521370927
20
5.54257030370829
30
0
41
1
10
10.035870606949
20
5.49941084850119
30
0
41
1
10
10.0441232851388
20
5.46631566754513
30
0
41
1
10
10.0694977332366
20
5.40519374350103
30
0
41
1
10
10.0870353182328
20
5.37645428574575
30
0
41
1
10
10.1296874761397
20
5.32512170141612
30
0
41
1
10
10.1557295062842
20
5.30239049739563
30
0
41
1
10
10.2118903369799
20
5.2664574606323
30
0
41
1
10
10.242638287392
20
5.25294617083532
30
0
41
1
10
10.2739045598557
20
5.24433803045315
30
0
0
SPLINE
5
CF
100
AcDbEntity
8
1
62
256
6
ByLayer
370
18
48
1
60
0
100
AcDbSpline
70
4
71
3
72
10
73
6
40
0
40
0
40
0
40
0
40
0.479736826302675
40
0.479736826302675
40
1
40
1
40
1
40
1
41
1
10
11.8472587066236
20
4.15476206370016
30
0
41
1
10
11.7634717620859
20
4.13899655923134
30
0
41
1
10
11.6831344436618
20
4.11004978087922
30
0
41
1
10
11.5347803935531
20
4.03112630548256
30
0
41
1
10
11.4658766441958
20
3.97854381539736
30
0
41
1
10
11.4078822958329
20
3.91891737191125
30
0
0
SPLINE
5
D0
100
AcDbEntity
8
1
62
256
6
ByLayer
370
18
48
1
60
0
100
AcDbSpline
70
4
71
3
72
14
73
10
40
0
40
0
40
0
40
0
40
0.281038222380442
40
0.281038222380442
40
0.564557857067151
40
0.564557857067151
40
0.820700196130047
40
0.820700196130047
40
1
40
1
40
1
40
1
41
1
10
12.5921177041672
20
3.91891737191125
30
0
41
1
10
12.6186993754268
20
3.89158763093005
30
0
41
1
10
12.650956030905
20
3.86813447546408
30
0
41
1
10
12.722764805511
20
3.83392513957304
30
0
41
1
10
12.7635279239202
20
3.82281524095512
30
0
41
1
10
12.8428270852508
20
3.81715131442579
30
0
41
1
10
12.8824075126984
20
3.82108827435692
30
0
41
1
10
12.9460823269878
20
3.83938456535429
30
0
41
1
10
12.9718293672142
20
3.85039670153657
30
0
41
1
10
12.9955768895952
20
3.8643189416602
30
0
0
SPLINE
5
D1
100
AcDbEntity
8
1
62
256
6
ByLayer
370
18
48
1
60
0
100
AcDbSpline
70
4
71
3
72
14
73
10
40
0
40
0
40
0
40
0
40
0.285014780844647
40
0.285014780844647
40
0.572350605982657
40
0.572350605982657
40
0.832166772861867
40
0.832166772861867
40
1
40
1
40
1
40
1
41
1
10
13.1474510335849
20
6.89065233797857
30
0
41
1
10
13.1572544616642
20
6.92726918943276
30
0
41
1
10
13.1608991991341
20
6.96677139209439
30
0
41
1
10
13.153693991241
20
7.04555123875113
30
0
41
1
10
13.1425429113445
20
7.08604024825857
30
0
41
1
10
13.1072987491109
20
7.15677464152498
30
0
41
1
10
13.0839525870207
20
7.18866793530438
30
0
41
1
10
13.0377550838958
20
7.23254143751316
30
0
41
1
10
13.0173258483134
20
7.24793049763463
30
0
41
1
10
12.9955768895952
20
7.26068105833977
30
0
0
SPLINE
5
D2
100
AcDbEntity
8
1
62
256
6
ByLayer
370
18
48
1
60
0
100
AcDbSpline
70
4
71
3
72
10
73
6
40
0
40
0
40
0
40
0
40
0.541781546917671
40
0.541781546917671
40
1
40
1
40
1
40
1
41
1
10
12.5921177041672
20
3.91891737191125
30
0
41
1
10
12.5317893524551
20
3.98094350300011
30
0
41
1
10
12.4595938121995
20
4.03538232231523
30
0
41
1
10
12.3098326867735
20
4.11257770475876
30
0
41
1
10
12.2328667479518
20
4.13968551186809
30
0
41
1
10
12.1527412933765
20
4.15476206370016
30
0
0
SPLINE
5
D3
100
AcDbEntity
8
1
62
256
6
ByLayer
370
18
48
1
60
0
100
AcDbSpline
70
4
71
3
72
14
73
10
40
0
40
0
40
0
40
0
40
0.285013984727018
40
0.285013984727018
40
0.572349910642993
40
0.572349910642993
40
0.832166158509247
40
0.832166158509247
40
1
40
1
40
1
40
1
41
1
10
10.2739045598557
20
5.88066196954682
30
0
41
1
10
10.2373579966691
20
5.87060007468037
30
0
41
1
10
10.201437086312
20
5.85376597586864
30
0
41
1
10
10.1371195715909
20
5.80770710212499
30
0
41
1
10
10.1078302734871
20
5.77760985396915
30
0
41
1
10
10.0646340967007
20
5.71143131773158
30
0
41
1
10
10.0489278435387
20
5.67516094593429
30
0
41
1
10
10.0344436518232
20
5.61311810151747
30
0
41
1
10
10.0315
20
5.58771108166579
30
0
41
1
10
10.0315
20
5.5625
30
0
0
SPLINE
5
D4
100
AcDbEntity
8
1
62
256
6
ByLayer
370
18
48
1
60
0
100
AcDbSpline
70
4
71
3
72
18
73
14
40
0
40
0
40
0
40
0
40
0.213081026856105
40
0.213081026856105
40
0.387160750704737
40
0.387160750704737
40
0.562948851464635
40
0.562948851464635
40
0.71563829568368
40
0.71563829568368
40
0.919170771668906
40
0.919170771668906
40
1
40
1
40
1
40
1
41
1
10
13.7260954401444
20
5.24433803045315
30
0
41
1
10
13.6437040264742
20
5.22165426295314
30
0
41
1
10
13.5621171389576
20
5.18522748697345
30
0
41
1
10
13.4256662182536
20
5.09422694409625
30
0
41
1
10
13.3672150493795
20
5.04300848326642
30
0
41
1
10
13.2661041429076
20
4.92442391211389
30
0
41
1
10
13.2222813842307
20
4.85499551030071
30
0
41
1
10
13.1623456109347
20
4.71987551359345
30
0
41
1
10
13.1425367132623
20
4.65332739263962
30
0
41
1
10
13.1163534643372
20
4.50102773607884
30
0
41
1
10
13.1158957320857
20
4.41365409633201
30
0
41
1
10
13.1323120448847
20
4.29844488314822
30
0
41
1
10
13.1389765921737
20
4.26600060625685
30
0
41
1
10
13.1474510335849
20
4.23434766202141
30
0
0
SPLINE
5
D5
100
AcDbEntity
8
1
62
256
6
ByLayer
370
18
48
1
60
0
100
AcDbSpline
70
4
71
3
72
10
73
6
40
0
40
0
40
0
40
0
40
0.541781546918545
40
0.541781546918545
40
1
40
1
40
1
40
1
41
1
10
11.4078822958329
20
7.20608262808872
30
0
41
1
10
11.4682106475449
20
7.14405649699987
30
0
41
1
10
11.5404061878006
20
7.08961767768474
30
0
41
1
10
11.6901673132266
20
7.01242229524124
30
0
41
1
10
11.7671332520483
20
6.98531448813188
30
0
41
1
10
11.8472587066236
20
6.97023793629981
30
0
0
SPLINE
5
D6
100
AcDbEntity
8
1
62
256
6
ByLayer
370
18
48
1
60
0
100
AcDbSpline
70
4
71
3
72
18
73
14
40
0
40
0
40
0
40
0
40
0.213081262000628
40
0.213081262000628
40
0.387160943926349
40
0.387160943926349
40
0.562948999942014
40
0.562948999942014
40
0.715638435810382
40
0.715638435810382
40
0.919170953808144
40
0.919170953808144
40
1
40
1
40
1
40
1
41
1
10
10.8525489664152
20
4.23434766202141
30
0
41
1
10
10.8746500033365
20
4.31689739660246
30
0
41
1
10
10.8844883336915
20
4.40570368281223
30
0
41
1
10
10.874994737467
20
4.5694408353003
30
0
41
1
10
10.8603716058447
20
4.64576928250048
30
0
41
1
10
10.809208556408
20
4.79296999080833
30
0
41
1
10
10.7714777490042
20
4.86588857501076
30
0
41
1
10
10.685225487492
20
4.98593127580506
30
0
41
1
10
10.6378343307496
20
5.03667693660864
30
0
41
1
10
10.5196910694911
20
5.13629079099721
30
0
41
1
10
10.4445472559936
20
5.18087522828731
30
0
41
1
10
10.3368562665044
20
5.22498071617818
30
0
41
1
10
10.3054967608598
20
5.23564015636083
30
0
41
1
10
10.2739045598557
20
5.24433803045315
30
0
0
SPLINE
5
D7
100
AcDbEntity
8
1
62
256
6
ByLayer
370
18
48
1
60
0
100
AcDbSpline
70
4
71
3
72
16
73
12
40
0
40
0
40
0
40
0
40
0.0517235387678986
40
0.0517235387678986
40
0.275098677522093
40
0.275098677522093
40
0.500660612380062
40
0.500660612380062
40
0.740399911602638
40
0.740399911602638
40
1
40
1
40
1
40
1
41
1
10
12.9955768895952
20
3.8643189416602
30
0
41
1
10
13.0023126525051
20
3.86826785503078
30
0
41
1
10
13.0089132100843
20
3.872459315312
30
0
41
1
10
13.0429215049886
20
3.89578770141651
30
0
41
1
10
13.067814066225
20
3.91922205855832
30
0
41
1
10
13.1087337148404
20
3.97130290918196
30
0
41
1
10
13.1252135093439
20
4.00064489029594
30
0
41
1
10
13.1490799914639
20
4.06285577266235
30
0
41
1
10
13.1561625753256
20
4.09659614897024
30
0
41
1
10
13.1602113511054
20
4.16531279238151
30
0
41
1
10
13.1563795299009
20
4.20099877419693
30
0
41
1
10
13.1474510335849
20
4.23434766202141
30
0
0
SPLINE
5
D8
100
AcDbEntity
8
1
62
256
6
ByLayer
370
18
48
1
60
0
100
AcDbSpline
70
4
71
3
72
16
73
12
40
0
40
0
40
0
40
0
40
0.0660777514108694
40
0.0660777514108694
40
0.289232858199889
40
0.289232858199889
40
0.515409129607283
40
0.515409129607283
40
0.756439127791307
40
0.756439127791307
40
1
40
1
40
1
40
1
41
1
10
13.9685
20
5.5625
30
0
41
1
10
13.9685
20
5.57245860674411
30
0
41
1
10
13.9680478629074
20
5.58242969629171
30
0
41
1
10
13.9641293930511
20
5.62558915149879
30
0
41
1
10
13.9558767148613
20
5.65868433245487
30
0
41
1
10
13.9305022667635
20
5.71980625649897
30
0
41
1
10
13.9129646817672
20
5.74854571425422
30
0
41
1
10
13.8703125238603
20
5.79987829858388
30
0
41
1
10
13.8442704937159
20
5.82260950260434
30
0
41
1
10
13.7881096630202
20
5.8585425393677
30
0
41
1
10
13.757361712608
20
5.87205382916466
30
0
41
1
10
13.7260954401444
20
5.88066196954682
30
0
0
SPLINE
5
D9
100
AcDbEntity
8
1
62
256
6
ByLayer
370
18
48
1
60
0
100
AcDbSpline
70
4
71
3
72
10
73
6
40
0
40
0
40
0
40
0
40
0.479736826236859
40
0.479736826236859
40
1
40
1
40
1
40
1
41
1
10
12.1527412933765
20
6.97023793629981
30
0
41
1
10
12.2365282379028
20
6.98600344076649
30
0
41
1
10
12.3168655563165
20
7.01495021911282
30
0
41
1
10
12.4652196064296
20
7.0938736945042
30
0
41
1
10
12.5341233557971
20
7.14645618459517
30
0
41
1
10
12.5921177041672
20
7.20608262808875
30
0
0
SPLINE
5
DA
100
AcDbEntity
8
1
62
256
6
ByLayer
370
18
48
1
60
0
100
AcDbSpline
70
4
71
3
72
16
73
12
40
0
40
0
40
0
40
0
40
0.0517235387678374
40
0.0517235387678374
40
0.275098677522054
40
0.275098677522054
40
0.500660612380046
40
0.500660612380046
40
0.740399911602653
40
0.740399911602653
40
1
40
1
40
1
40
1
41
1
10
11.0044231104048
20
7.26068105833974
30
0
41
1
10
10.9976873474949
20
7.25673214496916
30
0
41
1
10
10.9910867899157
20
7.25254068468797
30
0
41
1
10
10.9570784950114
20
7.22921229858346
30
0
41
1
10
10.9321859337751
20
7.20577794144165
30
0
41
1
10
10.8912662851597
20
7.15369709081804
30
0
41
1
10
10.8747864906562
20
7.12435510970403
30
0
41
1
10
10.8509200085361
20
7.06214422733763
30
0
41
1
10
10.8438374246744
20
7.02840385102974
30
0
41
1
10
10.8397886488947
20
6.95968720761846
30
0
41
1
10
10.8436204700992
20
6.92400122580304
30
0
41
1
10
10.8525489664152
20
6.89065233797857
30
0
0
LINE
5
73
100
AcDbEntity
8
80
62
256
6
ByLayer
370
18
48
1
60
0
100
AcDbLine
10
0
20
0
30
0
11
-5
21
0
31
0
39
0
210
0
220
0
230
1
0
LINE
5
74
100
AcDbEntity
8
81
62
256
6
ByLayer
370
18
48
1
60
0
100
AcDbLine
10
33.5
20
13.5625
30
0
11
38.5
21
13.5625
31
0
39
0
210
0
220
0
230
1
0
LINE
5
75
100
AcDbEntity
8
1
62
256
6
ByLayer
370
18
48
1
60
0
100
AcDbLine
10
0.5
20
12.9375
30
0
11
0.5
21
-12.439682
31
0
39
0
210
0
220
0
230
1
0
LINE
5
77
100
AcDbEntity
8
1
62
256
6
ByLayer
370
18
48
1
60
0
100
AcDbLine
10
18.139764
20
13.3125
30
0
11
26.755042
21
13.3125
31
0
39
0
210
0
220
0
230
1
0
LINE
5
78
100
AcDbEntity
8
1
62
256
6
ByLayer
370
18
48
1
60
0
100
AcDbLine
10
0.600481
20
13.3125
30
0
11
2.382343
21
13.3125
31
0
39
0
210
0
220
0
230
1
0
LINE
5
79
100
AcDbEntity
8
1
62
256
6
ByLayer
370
18
48
1
60
0
100
AcDbLine
10
0.5
20
-12.439682
30
0
11
0
21
-12.4375
31
0
39
0
210
0
220
0
230
1
0
LINE
5
7A
100
AcDbEntity
8
1
62
256
6
ByLayer
370
18
48
1
60
0
100
AcDbLine
10
18.6
20
11.8125
30
0
11
26.755042
21
11.8125
31
0
39
0
210
0
220
0
230
1
0
LINE
5
7B
100
AcDbEntity
8
1
62
256
6
ByLayer
370
18
48
1
60
0
100
AcDbLine
10
0.600481
20
13.3125
30
0
11
0.5
21
12.9375
31
0
39
0
210
0
220
0
230
1
0
LINE
5
7C
100
AcDbEntity
8
1
62
256
6
ByLayer
370
18
48
1
60
0
100
AcDbLine
10
2.382343
20
-12.470334
30
0
11
9.030432
21
-12.470334
31
0
39
0
210
0
220
0
230
1
0
LINE
5
7D
100
AcDbEntity
8
1
62
256
6
ByLayer
370
18
48
1
60
0
100
AcDbLine
10
0.5
20
12.9375
30
0
11
0
21
12.4375
31
0
39
0
210
0
220
0
230
1
0
LINE
5
7E
100
AcDbEntity
8
1
62
256
6
ByLayer
370
18
48
1
60
0
100
AcDbLine
10
18.139764
20
11.744878
30
0
11
18.139764
21
13.3125
31
0
39
0
210
0
220
0
230
1
0
LINE
5
7F
100
AcDbEntity
8
1
62
256
6
ByLayer
370
18
48
1
60
0
100
AcDbLine
10
0
20
-12.4375
30
0
11
0
21
12.4375
31
0
39
0
210
0
220
0
230
1
0
LINE
5
80
100
AcDbEntity
8
1
62
256
6
ByLayer
370
18
48
1
60
0
100
AcDbLine
10
18.139764
20
13.3125
30
0
11
2.382343
21
13.3125
31
0
39
0
210
0
220
0
230
1
0
LINE
5
81
100
AcDbEntity
8
1
62
256
6
ByLayer
370
18
48
1
60
0
100
AcDbLine
10
9.030432
20
-12.470334
30
0
11
17
21
1.5625
31
0
39
0
210
0
220
0
230
1
0
LINE
5
82
100
AcDbEntity
8
1
62
256
6
ByLayer
370
18
48
1
60
0
100
AcDbLine
10
2.382343
20
13.3125
30
0
11
2.382343
21
-12.470334
31
0
39
0
210
0
220
0
230
1
0
LINE
5
83
100
AcDbEntity
8
1
62
256
6
ByLayer
370
18
48
1
60
0
100
AcDbLine
10
17
20
10.2125
30
0
11
17
21
1.5625
31
0
39
0
210
0
220
0
230
1
0
LINE
5
84
100
AcDbEntity
8
1
62
256
6
ByLayer
370
18
48
1
60
0
100
AcDbLine
10
0.5
20
-12.439682
30
0
11
2.382343
21
-12.470334
31
0
39
0
210
0
220
0
230
1
0
LINE
5
85
100
AcDbEntity
8
SK1
62
256
6
ByLayer
370
18
48
1
60
0
100
AcDbLine
10
-117.85
20
12.4375
30
0
11
-117.85
21
-12.4375
31
0
39
0
210
0
220
0
230
1
0
LINE
5
87
100
AcDbEntity
8
SK1
62
256
6
ByLayer
370
18
48
1
60
0
100
AcDbLine
10
0
20
12.4375
30
0
11
0
21
-12.4375
31
0
39
0
210
0
220
0
230
1
0
LINE
5
88
100
AcDbEntity
8
SK1
62
256
6
ByLayer
370
18
48
1
60
0
100
AcDbLine
10
0
20
12.4375
30
0
11
-117.85
21
12.4375
31
0
39
0
210
0
220
0
230
1
0
LINE
5
89
100
AcDbEntity
8
SK1
62
256
6
ByLayer
370
18
48
1
60
0
100
AcDbLine
10
-117.85
20
-12.4375
30
0
11
0
21
-12.4375
31
0
39
0
210
0
220
0
230
1
0
LINE
5
8A
100
AcDbEntity
8
1
62
256
6
ByLayer
370
18
48
1
60
0
100
AcDbLine
10
19.354204
20
11.812502
30
0
11
19.354204
21
11.7625
31
0
39
0
210
0
220
0
230
1
0
LINE
5
8B
100
AcDbEntity
8
1
62
256
6
ByLayer
370
18
48
1
60
0
100
AcDbLine
10
18.3
20
11.7625
30
0
11
18.3
21
11.784125
31
0
39
0
210
0
220
0
230
1
0
LINE
5
8C
100
AcDbEntity
8
1
62
256
6
ByLayer
370
18
48
1
60
0
100
AcDbLine
10
18.3
20
13.3125
30
0
11
18.3
21
13.3625
31
0
39
0
210
0
220
0
230
1
0
LINE
5
8D
100
AcDbEntity
8
1
62
256
6
ByLayer
370
18
48
1
60
0
100
AcDbLine
10
19.354204
20
13.312498
30
0
11
19.354204
21
13.3625
31
0
39
0
210
0
220
0
230
1
0
LINE
5
8E
100
AcDbEntity
8
1
62
256
6
ByLayer
370
18
48
1
60
0
100
AcDbLine
10
27.645796
20
11.936051
30
0
11
26.805754
21
11.936051
31
0
39
0
210
0
220
0
230
1
0
LINE
5
8F
100
AcDbEntity
8
1
62
256
6
ByLayer
370
18
48
1
60
0
100
AcDbLine
10
27.654842
20
11.987354
30
0
11
26.82673
21
11.987354
31
0
39
0
210
0
220
0
230
1
0
LINE
5
90
100
AcDbEntity
8
1
62
256
6
ByLayer
370
18
48
1
60
0
100
AcDbLine
10
27.645796
20
13.188949
30
0
11
26.805754
21
13.188949
31
0
39
0
210
0
220
0
230
1
0
LINE
5
91
100
AcDbEntity
8
1
62
256
6
ByLayer
370
18
48
1
60
0
100
AcDbLine
10
27.654842
20
13.137646
30
0
11
26.82673
21
13.137646
31
0
39
0
210
0
220
0
230
1
0
LINE
5
92
100
AcDbEntity
8
1
62
256
6
ByLayer
370
18
48
1
60
0
100
AcDbLine
10
27.801935
20
12.73351
30
0
11
26.963999
21
12.73351
31
0
39
0
210
0
220
0
230
1
0
LINE
5
93
100
AcDbEntity
8
1
62
256
6
ByLayer
370
18
48
1
60
0
100
AcDbLine
10
27.801935
20
12.39149
30
0
11
26.958218
21
12.39149
31
0
39
0
210
0
220
0
230
1
0
LINE
5
94
100
AcDbEntity
8
1
62
256
6
ByLayer
370
18
48
1
60
0
100
AcDbLine
10
13.5
20
13.3625
30
0
11
13.5
21
13.3125
31
0
39
0
210
0
220
0
230
1
0
LINE
5
95
100
AcDbEntity
8
1
62
256
6
ByLayer
370
18
48
1
60
0
100
AcDbLine
10
18.203114
20
11.7625
30
0
11
18.3
21
11.7625
31
0
39
0
210
0
220
0
230
1
0
LINE
5
96
100
AcDbEntity
8
1
62
256
6
ByLayer
370
18
48
1
60
0
100
AcDbLine
10
19.354204
20
11.7625
30
0
11
18.3
21
11.7625
31
0
39
0
210
0
220
0
230
1
0
LINE
5
97
100
AcDbEntity
8
1
62
256
6
ByLayer
370
18
48
1
60
0
100
AcDbLine
10
27.645796
20
13.3625
30
0
11
28.7
21
13.3625
31
0
39
0
210
0
220
0
230
1
0
LINE
5
98
100
AcDbEntity
8
1
62
256
6
ByLayer
370
18
48
1
60
0
100
AcDbLine
10
27.645796
20
13.188949
30
0
11
27.645796
21
13.3625
31
0
39
0
210
0
220
0
230
1
0
LINE
5
99
100
AcDbEntity
8
1
62
256
6
ByLayer
370
18
48
1
60
0
100
AcDbLine
10
28.7
20
11.7625
30
0
11
28.7
21
13.3625
31
0
39
0
210
0
220
0
230
1
0
LINE
5
9A
100
AcDbEntity
8
1
62
256
6
ByLayer
370
18
48
1
60
0
100
AcDbLine
10
30.285862
20
13.3625
30
0
11
28.7
21
13.3625
31
0
39
0
210
0
220
0
230
1
0
LINE
5
9B
100
AcDbEntity
8
1
62
256
6
ByLayer
370
18
48
1
60
0
100
AcDbLine
10
30.285862
20
13.3625
30
0
11
30.5
21
13.44044
31
0
39
0
210
0
220
0
230
1
0
LINE
5
9C
100
AcDbEntity
8
1
62
256
6
ByLayer
370
18
48
1
60
0
100
AcDbLine
10
30.5
20
13.44044
30
0
11
33.291276
21
13.56231
31
0
39
0
210
0
220
0
230
1
0
LINE
5
9D
100
AcDbEntity
8
1
62
256
6
ByLayer
370
18
48
1
60
0
100
AcDbLine
10
27.801935
20
12.73351
30
0
11
27.654842
21
13.137646
31
0
39
0
210
0
220
0
230
1
0
LINE
5
9E
100
AcDbEntity
8
1
62
256
6
ByLayer
370
18
48
1
60
0
100
AcDbLine
10
33.5
20
13.3625
30
0
11
33.5
21
11.7625
31
0
39
0
210
0
220
0
230
1
0
LINE
5
9F
100
AcDbEntity
8
1
62
256
6
ByLayer
370
18
48
1
60
0
100
AcDbLine
10
30.285862
20
11.7625
30
0
11
28.7
21
11.7625
31
0
39
0
210
0
220
0
230
1
0
LINE
5
A0
100
AcDbEntity
8
1
62
256
6
ByLayer
370
18
48
1
60
0
100
AcDbLine
10
27.801935
20
12.39149
30
0
11
27.654842
21
11.987354
31
0
39
0
210
0
220
0
230
1
0
LINE
5
A1
100
AcDbEntity
8
1
62
256
6
ByLayer
370
18
48
1
60
0
100
AcDbLine
10
27.645796
20
11.936051
30
0
11
27.645796
21
11.7625
31
0
39
0
210
0
220
0
230
1
0
LINE
5
A2
100
AcDbEntity
8
1
62
256
6
ByLayer
370
18
48
1
60
0
100
AcDbLine
10
27.645796
20
11.7625
30
0
11
28.7
21
11.7625
31
0
39
0
210
0
220
0
230
1
0
LINE
5
A3
100
AcDbEntity
8
1
62
256
6
ByLayer
370
18
48
1
60
0
100
AcDbLine
10
30.285862
20
11.7625
30
0
11
30.5
21
11.68456
31
0
39
0
210
0
220
0
230
1
0
LINE
5
A4
100
AcDbEntity
8
1
62
256
6
ByLayer
370
18
48
1
60
0
100
AcDbLine
10
30.5
20
11.68456
30
0
11
33.291276
21
11.56269
31
0
39
0
210
0
220
0
230
1
0
LINE
5
A5
100
AcDbEntity
8
1
62
256
6
ByLayer
370
18
48
1
60
0
100
AcDbLine
10
19.354204
20
13.3625
30
0
11
18.3
21
13.3625
31
0
39
0
210
0
220
0
230
1
0
LINE
5
A6
100
AcDbEntity
8
1
62
256
6
ByLayer
370
18
48
1
60
0
100
AcDbLine
10
16.714138
20
13.3625
30
0
11
16.5
21
13.44044
31
0
39
0
210
0
220
0
230
1
0
LINE
5
A7
100
AcDbEntity
8
1
62
256
6
ByLayer
370
18
48
1
60
0
100
AcDbLine
10
16.5
20
13.44044
30
0
11
13.708724
21
13.56231
31
0
39
0
210
0
220
0
230
1
0
LINE
5
A8
100
AcDbEntity
8
1
62
256
6
ByLayer
370
18
48
1
60
0
100
AcDbLine
10
19.354204
20
11.7625
30
0
11
27.645796
21
11.7625
31
0
39
0
210
0
220
0
230
1
0
LINE
5
A9
100
AcDbEntity
8
1
62
256
6
ByLayer
370
18
48
1
60
0
100
AcDbLine
10
16.714138
20
13.3625
30
0
11
18.3
21
13.3625
31
0
39
0
210
0
220
0
230
1
0
LINE
5
AA
100
AcDbEntity
8
1
62
256
6
ByLayer
370
18
48
1
60
0
100
AcDbLine
10
19.354204
20
13.3625
30
0
11
27.645796
21
13.3625
31
0
39
0
210
0
220
0
230
1
0
MTEXT
5
DB
100
AcDbEntity
8
SK6
62
256
6
ByLayer
370
18
48
1
60
0
100
AcDbMText
10
-71.299987
20
-23.328917
30
0
210
0
220
0
230
1
1
\W0.7342;RF123E15-2525B
40
3.5
41
0
44
1.084337
50
0
71
7
72
5
7
iso_b_vert
0
DIMENSION
5
EC
100
AcDbEntity
8
2
62
256
6
ByLayer
370
13
48
1
60
0
100
AcDbDimension
2
DimnDraft3D1
10
47.75
20
13.5625
30
0
11
47.75
21
18.0625
31
0
70
32
71
5
72
1
41
1
210
0
220
0
230
1
3
Standard
100
AcDbAlignedDimension
13
35
23
11.5625
33
0
14
35
24
13.5625
34
0
50
90
100
AcDbRotatedDimension
1001
ACAD
1000
DSTYLE
1002
{
1070
    74
1070
     0
1070
   279
1070
     0
1070
   172
1070
     1
1070
   173
1070
     1
1070
   340
1005
DC
1070
   271
1070
     3
1070
   272
1070
     3
1070
    77
1070
     1
1070
    73
1070
     0
1070
   171
1070
     4
1070
   274
1070
     4
1070
   177
1070
     2
1070
   176
1070
     2
1070
   178
1070
     7
1070
    78
1070
     8
1070
    41
1041
3.0
1070
   147
1041
2.25
1070
    42
1041
1.5
1070
    44
1041
3.0
1070
   140
1041
4.5
1070
   343
1005
ED
1070
   344
1005
ED
1002
}
0
DIMENSION
5
101
100
AcDbEntity
8
2
62
256
6
ByLayer
370
13
48
1
60
0
100
AcDbDimension
2
DimnDraft3D2
10
57.75
20
-12.4375
30
0
11
57.75
21
-2.125658
31
0
70
32
71
5
72
1
41
1
210
0
220
0
230
1
3
Standard
100
AcDbAlignedDimension
13
35
23
13.5625
33
0
14
-3.5
24
-12.4375
34
0
50
90
100
AcDbRotatedDimension
1001
ACAD
1000
DSTYLE
1002
{
1070
    74
1070
     0
1070
   279
1070
     0
1070
   172
1070
     1
1070
   173
1070
     1
1070
   340
1005
DC
1070
   271
1070
     3
1070
   272
1070
     3
1070
    77
1070
     1
1070
    73
1070
     0
1070
   171
1070
     4
1070
   274
1070
     4
1070
   177
1070
     2
1070
   176
1070
     2
1070
   178
1070
     7
1070
    78
1070
     8
1070
    41
1041
3.0
1070
   147
1041
2.25
1070
    42
1041
1.5
1070
    44
1041
3.0
1070
   140
1041
4.5
1070
   343
1005
ED
1070
   344
1005
ED
1002
}
0
DIMENSION
5
110
100
AcDbEntity
8
SK2
62
256
6
ByLayer
370
13
48
1
60
0
100
AcDbDimension
2
DimnDraft3D3
10
-127.6
20
-12.4375
30
0
11
-127.6
21
-2.688158
31
0
70
32
71
5
72
1
41
1
210
0
220
0
230
1
3
Standard
100
AcDbAlignedDimension
13
-119.35
23
12.4375
33
0
14
-119.35
24
-12.4375
34
0
50
90
100
AcDbRotatedDimension
1001
ACAD
1000
DSTYLE
1002
{
1070
    74
1070
     0
1070
   279
1070
     0
1070
   172
1070
     1
1070
   173
1070
     1
1070
   340
1005
DC
1070
   271
1070
     3
1070
   272
1070
     3
1070
    77
1070
     1
1070
    73
1070
     0
1070
   171
1070
     4
1070
   274
1070
     4
1070
   177
1070
     2
1070
   176
1070
     2
1070
   178
1070
     7
1070
    78
1070
     8
1070
    41
1041
3.0
1070
   147
1041
2.25
1070
    42
1041
1.5
1070
    44
1041
3.0
1070
   140
1041
4.5
1070
   343
1005
ED
1070
   344
1005
ED
1002
}
0
DIMENSION
5
11E
100
AcDbEntity
8
2
62
256
6
ByLayer
370
13
48
1
60
0
100
AcDbDimension
2
DimnDraft3D4
10
0
20
23.3125
30
0
11
11.468421
21
23.3125
31
0
70
32
71
5
72
1
41
1
210
0
220
0
230
1
3
Standard
100
AcDbAlignedDimension
13
33.5
23
15.0625
33
0
14
0
24
13.9375
34
0
50
0
100
AcDbRotatedDimension
1001
ACAD
1000
DSTYLE
1002
{
1070
   279
1070
     0
1070
   172
1070
     1
1070
   173
1070
     1
1070
   340
1005
DC
1070
   271
1070
     3
1070
   272
1070
     3
1070
    77
1070
     1
1070
    73
1070
     0
1070
   171
1070
     4
1070
   274
1070
     4
1070
   177
1070
     2
1070
   176
1070
     2
1070
   178
1070
     7
1070
    78
1070
     8
1070
    41
1041
3.0
1070
   147
1041
2.25
1070
    42
1041
1.5
1070
    44
1041
3.0
1070
   140
1041
4.5
1070
   343
1005
ED
1070
   344
1005
ED
1002
}
0
DIMENSION
5
12C
100
AcDbEntity
8
SK2
62
256
6
ByLayer
370
13
48
1
60
0
100
AcDbDimension
2
DimnDraft3D5
10
-117.85
20
33.3125
30
0
11
-45.982237
21
33.3125
31
0
70
32
71
5
72
1
41
1
210
0
220
0
230
1
3
Standard
100
AcDbAlignedDimension
13
33.5
23
15.0625
33
0
14
-117.85
24
13.9375
34
0
50
0
100
AcDbRotatedDimension
1001
ACAD
1000
DSTYLE
1002
{
1070
   279
1070
     0
1070
   172
1070
     1
1070
   173
1070
     1
1070
   340
1005
DC
1070
   271
1070
     3
1070
   272
1070
     3
1070
    77
1070
     1
1070
    73
1070
     0
1070
   171
1070
     4
1070
   274
1070
     4
1070
   177
1070
     2
1070
   176
1070
     2
1070
   178
1070
     7
1070
    78
1070
     8
1070
    41
1041
3.0
1070
   147
1041
2.25
1070
    42
1041
1.5
1070
    44
1041
3.0
1070
   140
1041
4.5
1070
   343
1005
ED
1070
   344
1005
ED
1002
}
0
DIMENSION
5
13A
100
AcDbEntity
8
2
62
256
6
ByLayer
370
13
48
1
60
0
100
AcDbDimension
2
DimnDraft3D6
10
33.5
20
-26.6875
30
0
11
23.874342
21
-26.6875
31
0
70
32
71
5
72
1
41
1
210
0
220
0
230
1
3
Standard
100
AcDbAlignedDimension
13
18.5
23
9.0625
33
0
14
33.5
24
10.0625
34
0
50
0
100
AcDbRotatedDimension
1001
ACAD
1000
DSTYLE
1002
{
1070
   279
1070
     0
1070
   172
1070
     1
1070
   173
1070
     1
1070
   340
1005
DC
1070
   271
1070
     3
1070
   272
1070
     3
1070
    77
1070
     1
1070
    73
1070
     0
1070
   171
1070
     4
1070
   274
1070
     4
1070
   177
1070
     2
1070
   176
1070
     2
1070
   178
1070
     7
1070
    78
1070
     8
1070
    41
1041
3.0
1070
   147
1041
2.25
1070
    42
1041
1.5
1070
    44
1041
3.0
1070
   140
1041
4.5
1070
   343
1005
ED
1070
   344
1005
ED
1002
}
0
ENDSEC
0
SECTION
2
OBJECTS
0
DICTIONARY
5
1a4
330
0
100
AcDbDictionary
280
0
281
1
3
ACAD_GROUP
350
1a5
3
ACAD_MLINESTYLE
350
1a6
0
DICTIONARY
5
1a5
330
0
100
AcDbDictionary
280
0
281
1
0
DICTIONARY
5
1a6
330
0
100
AcDbDictionary
280
0
281
1
3
Standard
350
18
0
MLINESTYLE
5
18
330
1a6
100
AcDbMlineStyle
2
Standard
70
0
3

62
256
51
90
52
90
71
2
49
-0.5
62
256
6
ByLayer
49
0.5
62
256
6
ByLayer
0
RASTERVARIABLES
5
193
330

100
AcDbRasterVariables
90
0
70
1
71
1
72
1
0
ENDSEC
0
EOF
