  0
SECTION
  2
HEADER
  9
$ACADVER
  1
AC1009
  9
$DWGCODEPAGE
  3
ansi_1252
  9
$INSBASE
 10
0.0
 20
0.0
 30
0.0
  9
$EXTMIN
 10
-0.5
 20
-0.5
 30
-0.5
  9
$EXTMAX
 10
5.0
 20
5.0
 30
5.0
  9
$LIMMIN
 10
-0.5
 20
-0.5
  9
$LIMMAX
 10
5.0
 20
5.0
  9
$ORTHOMODE
 70
     0
  9
$REGENMODE
 70
     1
  9
$FILLMODE
 70
     1
  9
$QTEXTMODE
 70
     0
  9
$MIRRTEXT
 70
     1
  9
$DRAGMODE
 70
     2
  9
$LTSCALE
 40
1.0
  9
$OSMODE
 70
    37
  9
$ATTMODE
 70
     1
  9
$TEXTSIZE
 40
0.2
  9
$TRACEWID
 40
0.05
  9
$TEXTSTYLE
  7
STANDARD
  9
$CLAYER
  8
0
  9
$CELTYPE
  6
BYLAYER
  9
$CECOLOR
 62
   256
  9
$DIMSCALE
 40
1.0
  9
$DIMASZ
 40
0.18
  9
$DIMEXO
 40
0.0625
  9
$DIMDLI
 40
0.38
  9
$DIMRND
 40
0.0
  9
$DIMDLE
 40
0.0
  9
$DIMEXE
 40
0.18
  9
$DIMTP
 40
0.0
  9
$DIMTM
 40
0.0
  9
$DIMTXT
 40
0.18
  9
$DIMCEN
 40
0.09
  9
$DIMTSZ
 40
0.0
  9
$DIMTOL
 70
     0
  9
$DIMLIM
 70
     0
  9
$DIMTIH
 70
     1
  9
$DIMTOH
 70
     1
  9
$DIMSE1
 70
     0
  9
$DIMSE2
 70
     0
  9
$DIMTAD
 70
     0
  9
$DIMZIN
 70
     0
  9
$DIMBLK
  1

  9
$DIMASO
 70
     1
  9
$DIMSHO
 70
     1
  9
$DIMPOST
  1

  9
$DIMAPOST
  1

  9
$DIMALT
 70
     0
  9
$DIMALTD
 70
     2
  9
$DIMALTF
 40
25.4
  9
$DIMLFAC
 40
1.0
  9
$DIMTOFL
 70
     0
  9
$DIMTVP
 40
0.0
  9
$DIMTIX
 70
     0
  9
$DIMSOXD
 70
     0
  9
$DIMSAH
 70
     0
  9
$DIMBLK1
  1

  9
$DIMBLK2
  1

  9
$DIMSTYLE
  2
STANDARD
  9
$DIMCLRD
 70
     0
  9
$DIMCLRE
 70
     0
  9
$DIMCLRT
 70
     0
  9
$DIMTFAC
 40
1.0
  9
$DIMGAP
 40
0.09
  9
$LUNITS
 70
     2
  9
$LUPREC
 70
     4
  9
$SKETCHINC
 40
0.1
  9
$FILLETRAD
 40
0.5
  9
$AUNITS
 70
     0
  9
$AUPREC
 70
     0
  9
$MENU
  1
.
  9
$ELEVATION
 40
0.0
  9
$PELEVATION
 40
0.0
  9
$THICKNESS
 40
0.0
  9
$LIMCHECK
 70
     0
  9
$CHAMFERA
 40
0.0
  9
$CHAMFERB
 40
0.0
  9
$SKPOLY
 70
     0
  9
$TDCREATE
 40
2459614.390811354
  9
$TDUPDATE
 40
2459614.390823183
  9
$TDINDWG
 40
0.0000000116
  9
$TDUSRTIMER
 40
0.0000000116
  9
$USRTIMER
 70
     1
  9
$ANGBASE
 50
0.0
  9
$ANGDIR
 70
     0
  9
$PDMODE
 70
     0
  9
$PDSIZE
 40
0.0
  9
$PLINEWID
 40
0.0
  9
$COORDS
 70
     1
  9
$SPLFRAME
 70
     0
  9
$SPLINETYPE
 70
     6
  9
$SPLINESEGS
 70
     8
  9
$ATTDIA
 70
     0
  9
$ATTREQ
 70
     1
  9
$HANDLING
 70
     1
  9
$HANDSEED
  5
117
  9
$SURFTAB1
 70
     6
  9
$SURFTAB2
 70
     6
  9
$SURFTYPE
 70
     6
  9
$SURFU
 70
     6
  9
$SURFV
 70
     6
  9
$UCSNAME
  2

  9
$UCSORG
 10
0.0
 20
0.0
 30
0.0
  9
$UCSXDIR
 10
1.0
 20
0.0
 30
0.0
  9
$UCSYDIR
 10
0.0
 20
1.0
 30
0.0
  9
$PUCSNAME
  2

  9
$PUCSORG
 10
0.0
 20
0.0
 30
0.0
  9
$PUCSXDIR
 10
1.0
 20
0.0
 30
0.0
  9
$PUCSYDIR
 10
0.0
 20
1.0
 30
0.0
  9
$USERI1
 70
     0
  9
$USERI2
 70
     0
  9
$USERI3
 70
     0
  9
$USERI4
 70
     0
  9
$USERI5
 70
     0
  9
$USERR1
 40
0.0
  9
$USERR2
 40
0.0
  9
$USERR3
 40
0.0
  9
$USERR4
 40
0.0
  9
$USERR5
 40
0.0
  9
$WORLDVIEW
 70
     1
  9
$SHADEDGE
 70
     3
  9
$SHADEDIF
 70
    70
  9
$TILEMODE
 70
     1
  9
$MAXACTVP
 70
    64
  9
$PLIMCHECK
 70
     0
  9
$PEXTMIN
 10
-0.5
 20
-0.5
 30
-0.5
  9
$PEXTMAX
 10
5.0
 20
5.0
 30
5.0
  9
$PLIMMIN
 10
-0.5
 20
-0.5
  9
$PLIMMAX
 10
5.0
 20
5.0
  9
$UNITMODE
 70
     0
  9
$VISRETAIN
 70
     1
  9
$PLINEGEN
 70
     0
  9
$PSLTSCALE
 70
     1
  0
ENDSEC
  0
SECTION
  2
TABLES
  0
TABLE
  2
VPORT
 70
    16
  0
VPORT
  2
*ACTIVE
 70
     0
 10
0.0
 20
0.0
 11
1.0
 21
1.0
 12
4.698408
 22
4.67018
 13
0.0
 23
0.0
 14
0.5
 24
0.5
 15
0.5
 25
0.5
 16
0.0
 26
0.0
 36
1.0
 17
0.0
 27
0.0
 37
0.0
 40
216.958333
 41
0.081844
 42
50.0
 43
114.339385
 44
-114.339385
 50
0.0
 51
0.0
 71
     0
 72
   100
 73
     1
 74
     3
 75
     0
 76
     0
 77
     0
 78
     0
  0
VPORT
  2
L1
 70
     0
 10
0.0
 20
0.0
 11
1.0
 21
1.0
 12
4.698408
 22
4.67018
 13
0.0
 23
0.0
 14
0.5
 24
0.5
 15
0.5
 25
0.5
 16
0.0
 26
0.0
 36
1.0
 17
0.0
 27
0.0
 37
0.0
 40
216.958333
 41
0.081844
 42
50.0
 43
114.339385
 44
-114.339385
 50
0.0
 51
0.0
 71
     0
 72
   100
 73
     1
 74
     3
 75
     0
 76
     0
 77
     0
 78
     0
  0
VPORT
  2
L2
 70
     0
 10
0.0
 20
0.0
 11
0.5
 21
1.0
 12
0.0
 22
0.0
 13
0.0
 23
0.0
 14
0.5
 24
0.5
 15
0.5
 25
0.5
 16
0.0
 26
-1.0
 36
0.0
 17
0.0
 27
0.0
 37
0.0
 40
1441.133733
 41
0.012321
 42
50.0
 43
743.889699
 44
-743.889699
 50
0.0
 51
0.0
 71
     0
 72
   100
 73
     1
 74
     3
 75
     0
 76
     0
 77
     0
 78
     0
  0
VPORT
  2
L2
 70
     0
 10
0.5
 20
0.0
 11
1.0
 21
1.0
 12
0.0
 22
0.0
 13
0.0
 23
0.0
 14
0.5
 24
0.5
 15
0.5
 25
0.5
 16
1.0
 26
0.0
 36
0.0
 17
0.0
 27
0.0
 37
0.0
 40
1441.133733
 41
0.012321
 42
50.0
 43
728.686722
 44
-728.686722
 50
0.0
 51
0.0
 71
     0
 72
   100
 73
     1
 74
     3
 75
     0
 76
     0
 77
     0
 78
     0
  0
VPORT
  2
L3
 70
     0
 10
0.0
 20
0.5
 11
1.0
 21
1.0
 12
4.698408
 22
4.67018
 13
0.0
 23
0.0
 14
0.5
 24
0.5
 15
0.5
 25
0.5
 16
0.0
 26
0.0
 36
1.0
 17
0.0
 27
0.0
 37
0.0
 40
216.958333
 41
0.081844
 42
50.0
 43
114.339385
 44
-114.339385
 50
0.0
 51
0.0
 71
     0
 72
   100
 73
     1
 74
     3
 75
     0
 76
     0
 77
     0
 78
     0
  0
VPORT
  2
L3
 70
     0
 10
0.0
 20
0.0
 11
1.0
 21
0.5
 12
0.0
 22
0.0
 13
0.0
 23
0.0
 14
0.5
 24
0.5
 15
0.5
 25
0.5
 16
0.0
 26
-1.0
 36
0.0
 17
0.0
 27
0.0
 37
0.0
 40
1441.133733
 41
0.012321
 42
50.0
 43
743.889699
 44
-743.889699
 50
0.0
 51
0.0
 71
     0
 72
   100
 73
     1
 74
     3
 75
     0
 76
     0
 77
     0
 78
     0
  0
VPORT
  2
L4
 70
     0
 10
0.0
 20
0.5
 11
0.5
 21
1.0
 12
4.698408
 22
4.67018
 13
0.0
 23
0.0
 14
0.5
 24
0.5
 15
0.5
 25
0.5
 16
0.0
 26
0.0
 36
1.0
 17
0.0
 27
0.0
 37
0.0
 40
216.958333
 41
0.081844
 42
50.0
 43
114.339385
 44
-114.339385
 50
0.0
 51
0.0
 71
     0
 72
   100
 73
     1
 74
     3
 75
     0
 76
     0
 77
     0
 78
     0
  0
VPORT
  2
L4
 70
     0
 10
0.0
 20
0.0
 11
0.5
 21
0.5
 12
0.0
 22
0.0
 13
0.0
 23
0.0
 14
0.5
 24
0.5
 15
0.5
 25
0.5
 16
0.0
 26
-1.0
 36
0.0
 17
0.0
 27
0.0
 37
0.0
 40
1441.133733
 41
0.012321
 42
50.0
 43
743.889699
 44
-743.889699
 50
0.0
 51
0.0
 71
     0
 72
   100
 73
     1
 74
     3
 75
     0
 76
     0
 77
     0
 78
     0
  0
VPORT
  2
L4
 70
     0
 10
0.5
 20
0.0
 11
1.0
 21
0.5
 12
0.0
 22
0.0
 13
0.0
 23
0.0
 14
0.5
 24
0.5
 15
0.5
 25
0.5
 16
1.0
 26
0.0
 36
0.0
 17
0.0
 27
0.0
 37
0.0
 40
1441.133733
 41
0.012321
 42
50.0
 43
728.686722
 44
-728.686722
 50
0.0
 51
0.0
 71
     0
 72
   100
 73
     1
 74
     3
 75
     0
 76
     0
 77
     0
 78
     0
  0
VPORT
  2
L4
 70
     0
 10
0.5
 20
0.5
 11
1.0
 21
1.0
 12
0.0
 22
0.0
 13
0.0
 23
0.0
 14
0.5
 24
0.5
 15
0.5
 25
0.5
 16
0.5773502691896258
 26
-0.5773502691896258
 36
0.5773502691896258
 17
0.0
 27
0.0
 37
0.0
 40
1416.151558
 41
0.012539
 42
50.0
 43
737.821797
 44
-737.821797
 50
0.0
 51
0.0
 71
     0
 72
   100
 73
     1
 74
     3
 75
     0
 76
     0
 77
     0
 78
     0
  0
VPORT
  2
L6
 70
     0
 10
0.0
 20
0.5
 11
0.333333
 21
1.0
 12
0.0
 22
0.0
 13
0.0
 23
0.0
 14
0.5
 24
0.5
 15
0.5
 25
0.5
 16
0.7188730927569433
 26
-0.5850486126764433
 36
0.3754192287502549
 17
0.0
 27
0.0
 37
0.0
 40
1494.76082
 41
0.011879
 42
50.0
 43
773.883382
 44
-773.883382
 50
0.0
 51
0.0
 71
     0
 72
   100
 73
     1
 74
     3
 75
     0
 76
     0
 77
     0
 78
     0
  0
VPORT
  2
L6
 70
     0
 10
0.0
 20
0.0
 11
0.333333
 21
0.5
 12
0.0
 22
0.0
 13
0.0
 23
0.0
 14
0.5
 24
0.5
 15
0.5
 25
0.5
 16
-1.0
 26
0.0
 36
0.0
 17
0.0
 27
0.0
 37
0.0
 40
1441.133733
 41
0.012321
 42
50.0
 43
728.686722
 44
-728.686722
 50
0.0
 51
0.0
 71
     0
 72
   100
 73
     1
 74
     3
 75
     0
 76
     0
 77
     0
 78
     0
  0
VPORT
  2
L6
 70
     0
 10
0.333333
 20
0.5
 11
0.666667
 21
1.0
 12
4.698408
 22
4.67018
 13
0.0
 23
0.0
 14
0.5
 24
0.5
 15
0.5
 25
0.5
 16
0.0
 26
0.0
 36
1.0
 17
0.0
 27
0.0
 37
0.0
 40
216.958333
 41
0.081844
 42
50.0
 43
114.339385
 44
-114.339385
 50
0.0
 51
0.0
 71
     0
 72
   100
 73
     1
 74
     3
 75
     0
 76
     0
 77
     0
 78
     0
  0
VPORT
  2
L6
 70
     0
 10
0.333333
 20
0.0
 11
0.666667
 21
0.5
 12
0.0
 22
0.0
 13
0.0
 23
0.0
 14
0.5
 24
0.5
 15
0.5
 25
0.5
 16
0.0
 26
-1.0
 36
0.0
 17
0.0
 27
0.0
 37
0.0
 40
1441.133733
 41
0.012321
 42
50.0
 43
743.889699
 44
-743.889699
 50
0.0
 51
0.0
 71
     0
 72
   100
 73
     1
 74
     3
 75
     0
 76
     0
 77
     0
 78
     0
  0
VPORT
  2
L6
 70
     0
 10
0.666667
 20
0.5
 11
1.0
 21
1.0
 12
0.0
 22
0.0
 13
0.0
 23
0.0
 14
0.5
 24
0.5
 15
0.5
 25
0.5
 16
0.5773502691896258
 26
-0.5773502691896258
 36
0.5773502691896258
 17
0.0
 27
0.0
 37
0.0
 40
1416.151558
 41
0.012539
 42
50.0
 43
737.821797
 44
-737.821797
 50
0.0
 51
0.0
 71
     0
 72
   100
 73
     1
 74
     3
 75
     0
 76
     0
 77
     0
 78
     0
  0
VPORT
  2
L6
 70
     0
 10
0.666667
 20
0.0
 11
1.0
 21
0.5
 12
0.0
 22
0.0
 13
0.0
 23
0.0
 14
0.5
 24
0.5
 15
0.5
 25
0.5
 16
1.0
 26
0.0
 36
0.0
 17
0.0
 27
0.0
 37
0.0
 40
1441.133733
 41
0.012321
 42
50.0
 43
728.686722
 44
-728.686722
 50
0.0
 51
0.0
 71
     0
 72
   100
 73
     1
 74
     3
 75
     0
 76
     0
 77
     0
 78
     0
  0
ENDTAB
  0
TABLE
  2
LTYPE
 70
     6
  0
LTYPE
  2
CONTINUOUS
 70
     0
  3
Solid line
 72
    65
 73
     0
 40
0.0
  0
LTYPE
  2
CENTER
 70
     0
  3
____ _ ____ _ ____ _ ____
 72
    65
 73
     4
 40
47.4
 49
22.0
 49
-8.5
 49
8.5
 49
-8.5
  0
LTYPE
  2
DASHDOT
 70
     0
  3
_._._._._._._._._._._._._._._._.
 72
    65
 73
     4
 40
70.0
 49
31.0
 49
-13.0
 49
13.0
 49
-13.0
  0
LTYPE
  2
DASHED
 70
     0
  3
__ __ __ __ __ __ __ __ __
 72
    65
 73
     2
 40
25.72
 49
12.86
 49
-12.86
  0
LTYPE
  2
DOT
 70
     0
  3
.........................
 72
    65
 73
     2
 40
10.0
 49
0.0
 49
-10.0
  0
LTYPE
  2
PHANTOM
 70
     0
  3
____ _ _ ____ _ _ _____ _ _ ____
 72
    65
 73
     6
 40
50.5
 49
18.0
 49
-6.5
 49
6.5
 49
-6.5
 49
6.5
 49
-6.5
  0
ENDTAB
  0
TABLE
  2
LAYER
 70
    10
  0
LAYER
  2
0
 70
     0
 62
     7
  6
CONTINUOUS
  0
LAYER
  2
80
 70
     0
 62
     7
  6
CONTINUOUS
  0
LAYER
  2
81
 70
     0
 62
     7
  6
CONTINUOUS
  0
LAYER
  2
1
 70
     0
 62
     7
  6
CONTINUOUS
  0
LAYER
  2
11
 70
     0
 62
     7
  6
CONTINUOUS
  0
LAYER
  2
14
 70
     0
 62
     7
  6
CONTINUOUS
  0
LAYER
  2
16
 70
     0
 62
     7
  6
CONTINUOUS
  0
LAYER
  2
DEFPOINTS
 70
     0
 62
     7
  6
CONTINUOUS
  0
LAYER
  2
2
 70
     0
 62
     7
  6
CONTINUOUS
  0
LAYER
  2
12
 70
     0
 62
     7
  6
CONTINUOUS
  0
ENDTAB
  0
TABLE
  2
STYLE
 70
     4
  0
STYLE
  2
STANDARD
 70
     0
 40
0.0
 41
1.0
 50
0.0
 71
     0
 42
0.2
  3
txt
  4

  0
STYLE
  2
ISO_B_VERT
 70
     0
 40
0.0
 41
1.0
 50
0.0
 71
     0
 42
0.2
  3
simplex.shx
  4

  0
STYLE
  2
MONOSPAC821_BT
 70
     0
 40
0.0
 41
1.0
 50
0.0
 71
     0
 42
0.2
  3
Monospac821 BT
  4

  0
STYLE
  2
DWGDIRECTTEXTSTYLE
 70
     0
 40
0.0
 41
1.0
 50
0.0
 71
     0
 42
0.2
  3
simplex
  4

  0
ENDTAB
  0
TABLE
  2
VIEW
 70
     8
  0
VIEW
  2
TOP
 70
     0
 40
216.958333
 10
4.698408
 20
4.67018
 41
369.622917
 11
0.0
 21
0.0
 31
1.0
 12
0.0
 22
0.0
 32
0.0
 42
50.0
 43
114.339385
 44
-114.339385
 50
0.0
 71
     0
  0
VIEW
  2
FRONT
 70
     0
 40
1441.133733
 10
0.0
 20
0.0
 41
369.622917
 11
0.0
 21
-1.0
 31
0.0
 12
0.0
 22
0.0
 32
0.0
 42
50.0
 43
743.889699
 44
-743.889699
 50
0.0
 71
     0
  0
VIEW
  2
RIGHT
 70
     0
 40
1441.133733
 10
0.0
 20
0.0
 41
216.958333
 11
1.0
 21
0.0
 31
0.0
 12
0.0
 22
0.0
 32
0.0
 42
50.0
 43
728.686722
 44
-728.686722
 50
0.0
 71
     0
  0
VIEW
  2
BACK
 70
     0
 40
1441.133733
 10
0.0
 20
0.0
 41
369.622917
 11
0.0
 21
1.0
 31
0.0
 12
0.0
 22
0.0
 32
0.0
 42
50.0
 43
743.889699
 44
-743.889699
 50
0.0
 71
     0
  0
VIEW
  2
BOTTOM
 70
     0
 40
216.958333
 10
0.0
 20
0.0
 41
369.622917
 11
0.0
 21
0.0
 31
-1.0
 12
0.0
 22
0.0
 32
0.0
 42
50.0
 43
720.566866
 44
-720.566866
 50
180.0
 71
     0
  0
VIEW
  2
LEFT
 70
     0
 40
1441.133733
 10
0.0
 20
0.0
 41
216.958333
 11
-1.0
 21
0.0
 31
0.0
 12
0.0
 22
0.0
 32
0.0
 42
50.0
 43
728.686722
 44
-728.686722
 50
0.0
 71
     0
  0
VIEW
  2
ISOMETRIC
 70
     0
 40
1416.151558
 10
0.0
 20
0.0
 41
414.77558
 11
0.5773502691896258
 21
-0.5773502691896258
 31
0.5773502691896258
 12
0.0
 22
0.0
 32
0.0
 42
50.0
 43
737.821797
 44
-737.821797
 50
0.0
 71
     0
  0
VIEW
  2
TRIMETRIC
 70
     0
 40
1494.76082
 10
0.0
 20
0.0
 41
401.586911
 11
0.7188730927569433
 21
-0.5850486126764433
 31
0.3754192287502549
 12
0.0
 22
0.0
 32
0.0
 42
50.0
 43
773.883382
 44
-773.883382
 50
0.0
 71
     0
  0
ENDTAB
  0
TABLE
  2
UCS
 70
     0
  0
ENDTAB
  0
TABLE
  2
APPID
 70
     2
  0
APPID
  2
ACAD
 70
     0
  0
APPID
  2
ACAD_DSTYLE_DIMBREAK
 70
     0
  0
ENDTAB
  0
TABLE
  2
DIMSTYLE
 70
     1
  0
DIMSTYLE
  2
STANDARD
 70
     0
  3

  4

  5

  6

  7

 40
1.0
 41
0.18
 42
0.0625
 43
0.38
 44
0.18
 45
0.0
 46
0.0
 47
0.0
 48
0.0
140
0.18
141
0.09
142
0.0
143
25.4
144
1.0
145
0.0
146
1.0
147
0.09
 71
     0
 72
     0
 73
     1
 74
     1
 75
     0
 76
     0
 77
     0
 78
     0
170
     0
171
     2
172
     0
173
     0
174
     0
175
     0
176
     0
177
     0
178
     0
  0
ENDTAB
  0
ENDSEC
  0
SECTION
  2
BLOCKS
  0
BLOCK
  8
0
  2
$MODEL_SPACE
 70
     0
 10
0.0
 20
0.0
 30
0.0
  3
$MODEL_SPACE
  1

  0
ENDBLK
  5
21
  8
0
  0
BLOCK
 67
     1
  8
0
  2
$PAPER_SPACE
 70
     0
 10
0.0
 20
0.0
 30
0.0
  3
$PAPER_SPACE
  1

  0
ENDBLK
  5
1D
 67
     1
  8
0
  0
BLOCK
  8
0
  2
_CLOSED
 70
     0
 10
0.0
 20
0.0
 30
0.0
  3
_CLOSED
  1

  0
LINE
  5
9D
  8
0
  6
BYBLOCK
 62
     0
 10
-1.0
 20
0.166667
 30
0.0
 11
0.0
 21
0.0
 31
0.0
  0
LINE
  5
9E
  8
0
  6
BYBLOCK
 62
     0
 10
0.0
 20
0.0
 30
0.0
 11
-1.0
 21
-0.166667
 31
0.0
  0
LINE
  5
9F
  8
0
  6
BYBLOCK
 62
     0
 10
-1.0
 20
0.166667
 30
0.0
 11
-1.0
 21
-0.166667
 31
0.0
  0
LINE
  5
A0
  8
0
  6
BYBLOCK
 62
     0
 10
0.0
 20
0.0
 30
0.0
 11
-1.0
 21
0.0
 31
0.0
  0
ENDBLK
  5
9C
  8
0
  0
BLOCK
  8
0
  2
*D2
 70
     1
 10
0.0
 20
0.0
 30
0.0
  3
*D2
  1

  0
LINE
  5
A7
  8
0
 62
     7
 10
-0.433734
 20
8.0
 30
0.0
 11
-7.517163
 21
8.0
 31
0.0
  0
LINE
  5
A8
  8
0
 62
     7
 10
0.454356
 20
-8.0
 30
0.0
 11
-7.517163
 21
-8.0
 31
0.0
  0
LINE
  5
A9
  8
0
 62
     7
 10
-5.517163
 20
4.825
 30
0.0
 11
-5.517163
 21
-4.825
 31
0.0
  0
SOLID
  5
AA
  8
0
 62
     7
 10
-4.987996
 20
4.825
 30
0.0
 11
-6.046329
 21
4.825
 31
0.0
 12
-5.517163
 22
8.0
 32
0.0
 13
-5.517163
 23
8.0
 33
0.0
  0
SOLID
  5
AB
  8
0
 62
     7
 10
-6.046329
 20
-4.825
 30
0.0
 11
-4.987996
 21
-4.825
 31
0.0
 12
-5.517163
 22
-8.0
 32
0.0
 13
-5.517163
 23
-8.0
 33
0.0
  0
TEXT
  5
AC
  8
0
  6
CONTINUOUS
 62
     7
 10
-10.017163
 20
-3.071429
 30
0.0
 40
3.0
  1
16
 50
90.0
  7
ISO_B_VERT
  0
POINT
  5
AD
  8
DEFPOINTS
 62
     0
 10
1.153766
 20
8.0
 30
0.0
  0
POINT
  5
AE
  8
DEFPOINTS
 62
     0
 10
2.041856
 20
-8.0
 30
0.0
  0
POINT
  5
AF
  8
DEFPOINTS
 62
     0
 10
-5.517163
 20
-8.0
 30
0.0
  0
ENDBLK
  5
A6
  8
0
  0
BLOCK
  8
0
  2
U0
 70
     0
 10
0.0
 20
0.0
 30
0.0
  3
U0
  1

  0
TEXT
  5
B2
  8
2
  6
CONTINUOUS
 62
     7
 10
-8.608163
 20
2.012029
 30
0.0
 40
3.0
  1
16
 50
90.0
 41
0.5321
  7
ISO_B_VERT
  0
TEXT
  5
B3
  8
2
  6
CONTINUOUS
 62
     7
 10
-8.608163
 20
-5.460457
 30
0.0
 40
3.0
  1
Ø
 50
90.0
  7
ISO_B_VERT
  0
LINE
  5
B4
  8
2
 62
     7
 10
-1.058734
 20
8.0
 30
0.0
 11
-7.517163
 21
8.0
 31
0.0
  0
LINE
  5
B5
  8
2
 62
     7
 10
-1.058734
 20
-8.0
 30
0.0
 11
-7.517163
 21
-8.0
 31
0.0
  0
LINE
  5
B6
  8
2
 62
     7
 10
-5.517163
 20
8.0
 30
0.0
 11
-5.517163
 21
-8.0
 31
0.0
  0
LINE
  5
B7
  8
2
 62
     7
 10
-5.517163
 20
8.0
 30
0.0
 11
-5.099166
 21
4.825002
 31
0.0
  0
LINE
  5
B8
  8
2
 62
     7
 10
-5.517163
 20
8.0
 30
0.0
 11
-5.935159
 21
4.824998
 31
0.0
  0
LINE
  5
B9
  8
2
 62
     7
 10
-5.099166
 20
4.825002
 30
0.0
 11
-5.935159
 21
4.824998
 31
0.0
  0
LINE
  5
BA
  8
2
 62
     7
 10
-5.517163
 20
-8.0
 30
0.0
 11
-5.935159
 21
-4.825002
 31
0.0
  0
LINE
  5
BB
  8
2
 62
     7
 10
-5.517163
 20
-8.0
 30
0.0
 11
-5.099166
 21
-4.824998
 31
0.0
  0
LINE
  5
BC
  8
2
 62
     7
 10
-5.935159
 20
-4.825002
 30
0.0
 11
-5.099166
 21
-4.824998
 31
0.0
  0
ENDBLK
  5
BE
  8
0
  0
BLOCK
  8
0
  2
*D4
 70
     1
 10
0.0
 20
0.0
 30
0.0
  3
*D4
  1

  0
LINE
  5
C5
  8
0
 62
     7
 10
0.0
 20
1.5875
 30
0.0
 11
0.0
 21
22.682477
 31
0.0
  0
LINE
  5
C6
  8
0
 62
     7
 10
8.0
 20
18.0875
 30
0.0
 11
8.0
 21
22.682477
 31
0.0
  0
LINE
  5
C7
  8
0
 62
     7
 10
-3.175
 20
20.682477
 30
0.0
 11
-6.35
 21
20.682477
 31
0.0
  0
LINE
  5
C8
  8
0
 62
     7
 10
11.175
 20
20.682477
 30
0.0
 11
14.35
 21
20.682477
 31
0.0
  0
SOLID
  5
C9
  8
0
 62
     7
 10
-3.175
 20
20.153311
 30
0.0
 11
-3.175
 21
21.211644
 31
0.0
 12
0.0
 22
20.682477
 32
0.0
 13
0.0
 23
20.682477
 33
0.0
  0
SOLID
  5
CA
  8
0
 62
     7
 10
11.175
 20
21.211644
 30
0.0
 11
11.175
 21
20.153311
 31
0.0
 12
8.0
 22
20.682477
 32
0.0
 13
8.0
 23
20.682477
 33
0.0
  0
TEXT
  5
CB
  8
0
  6
CONTINUOUS
 62
     7
 10
2.571429
 20
25.182477
 30
0.0
 40
3.0
  1
8
  7
ISO_B_VERT
  0
POINT
  5
CC
  8
DEFPOINTS
 62
     0
 10
0.0
 20
0.0
 30
0.0
  0
POINT
  5
CD
  8
DEFPOINTS
 62
     0
 10
8.0
 20
16.5
 30
0.0
  0
POINT
  5
CE
  8
DEFPOINTS
 62
     0
 10
8.0
 20
20.682477
 30
0.0
  0
ENDBLK
  5
C4
  8
0
  0
BLOCK
  8
0
  2
U1
 70
     0
 10
0.0
 20
0.0
 30
0.0
  3
U1
  1

  0
TEXT
  5
D1
  8
12
  6
CONTINUOUS
 62
     7
 10
3.256486
 20
23.317477
 30
0.0
 40
3.0
  1
8
 41
0.5404
  7
ISO_B_VERT
  0
LINE
  5
D2
  8
12
 62
     7
 10
0.0
 20
1.5875
 30
0.0
 11
0.0
 21
22.682477
 31
0.0
  0
LINE
  5
D3
  8
12
 62
     7
 10
8.0
 20
18.0875
 30
0.0
 11
8.0
 21
22.682477
 31
0.0
  0
LINE
  5
D4
  8
12
 62
     7
 10
0.0
 20
20.682477
 30
0.0
 11
8.0
 21
20.682477
 31
0.0
  0
LINE
  5
D5
  8
12
 62
     7
 10
0.0
 20
20.682477
 30
0.0
 11
3.174998
 21
21.100474
 31
0.0
  0
LINE
  5
D6
  8
12
 62
     7
 10
0.0
 20
20.682477
 30
0.0
 11
3.175002
 21
20.264481
 31
0.0
  0
LINE
  5
D7
  8
12
 62
     7
 10
3.174998
 20
21.100474
 30
0.0
 11
3.175002
 21
20.264481
 31
0.0
  0
LINE
  5
D8
  8
12
 62
     7
 10
8.0
 20
20.682477
 30
0.0
 11
4.825002
 21
20.264481
 31
0.0
  0
LINE
  5
D9
  8
12
 62
     7
 10
8.0
 20
20.682477
 30
0.0
 11
4.824998
 21
21.100474
 31
0.0
  0
LINE
  5
DA
  8
12
 62
     7
 10
4.825002
 20
20.264481
 30
0.0
 11
4.824998
 21
21.100474
 31
0.0
  0
ENDBLK
  5
DC
  8
0
  0
BLOCK
  8
0
  2
*D6
 70
     1
 10
0.0
 20
0.0
 30
0.0
  3
*D6
  1

  0
LINE
  5
E3
  8
0
 62
     7
 10
6.351883
 20
0.0
 30
0.0
 11
18.548965
 21
0.0
 31
0.0
  0
LINE
  5
E4
  8
0
 62
     7
 10
9.5875
 20
16.5
 30
0.0
 11
18.548965
 21
16.5
 31
0.0
  0
LINE
  5
E5
  8
0
 62
     7
 10
16.548965
 20
3.175
 30
0.0
 11
16.548965
 21
13.325
 31
0.0
  0
SOLID
  5
E6
  8
0
 62
     7
 10
16.019798
 20
3.175
 30
0.0
 11
17.078132
 21
3.175
 31
0.0
 12
16.548965
 22
0.0
 32
0.0
 13
16.548965
 23
0.0
 33
0.0
  0
SOLID
  5
E7
  8
0
 62
     7
 10
17.078132
 20
13.325
 30
0.0
 11
16.019798
 21
13.325
 31
0.0
 12
16.548965
 22
16.5
 32
0.0
 13
16.548965
 23
16.5
 33
0.0
  0
TEXT
  5
E8
  8
0
  6
CONTINUOUS
 62
     7
 10
12.048965
 20
3.035714
 30
0.0
 40
3.0
  1
16.5
 50
90.0
  7
ISO_B_VERT
  0
POINT
  5
E9
  8
DEFPOINTS
 62
     0
 10
4.764383
 20
0.0
 30
0.0
  0
POINT
  5
EA
  8
DEFPOINTS
 62
     0
 10
8.0
 20
16.5
 30
0.0
  0
POINT
  5
EB
  8
DEFPOINTS
 62
     0
 10
16.548965
 20
16.5
 30
0.0
  0
ENDBLK
  5
E2
  8
0
  0
BLOCK
  8
0
  2
U2
 70
     0
 10
0.0
 20
0.0
 30
0.0
  3
U2
  1

  0
TEXT
  5
ED
  8
12
  6
CONTINUOUS
 62
     7
 10
14.207965
 20
4.676944
 30
0.0
 40
3.0
  1
16.5
 50
90.0
 41
0.6563
  7
ISO_B_VERT
  0
LINE
  5
EE
  8
12
 62
     7
 10
11.351883
 20
0.0
 30
0.0
 11
18.548965
 21
0.0
 31
0.0
  0
LINE
  5
EF
  8
12
 62
     7
 10
9.5875
 20
16.5
 30
0.0
 11
18.548965
 21
16.5
 31
0.0
  0
LINE
  5
F0
  8
12
 62
     7
 10
16.548965
 20
0.0
 30
0.0
 11
16.548965
 21
16.5
 31
0.0
  0
LINE
  5
F1
  8
12
 62
     7
 10
16.548965
 20
0.0
 30
0.0
 11
16.130968
 21
3.174998
 31
0.0
  0
LINE
  5
F2
  8
12
 62
     7
 10
16.548965
 20
0.0
 30
0.0
 11
16.966962
 21
3.175002
 31
0.0
  0
LINE
  5
F3
  8
12
 62
     7
 10
16.130968
 20
3.174998
 30
0.0
 11
16.966962
 21
3.175002
 31
0.0
  0
LINE
  5
F4
  8
12
 62
     7
 10
16.548965
 20
16.5
 30
0.0
 11
16.966962
 21
13.325002
 31
0.0
  0
LINE
  5
F5
  8
12
 62
     7
 10
16.548965
 20
16.5
 30
0.0
 11
16.130968
 21
13.324998
 31
0.0
  0
LINE
  5
F6
  8
12
 62
     7
 10
16.966962
 20
13.325002
 30
0.0
 11
16.130968
 21
13.324998
 31
0.0
  0
ENDBLK
  5
F8
  8
0
  0
ENDSEC
  0
SECTION
  2
ENTITIES
  0
POINT
  5
73
  8
80
  6
CENTER
 62
     2
 10
0.0
 20
0.0
 30
0.0
  0
POINT
  5
75
  8
81
  6
CONTINUOUS
 62
     2
 10
8.0
 20
16.5
 30
0.0
  0
LINE
  5
77
  8
80
  6
CONTINUOUS
 62
     2
 10
0.0
 20
0.0
 30
0.0
 11
-3.36593
 21
0.0
 31
0.0
  0
LINE
  5
78
  8
1
  6
CONTINUOUS
 62
     4
 10
6.25
 20
7.0
 30
0.0
 11
6.25
 21
12.782475
 31
0.0
  0
LINE
  5
7A
  8
1
  6
CONTINUOUS
 62
     4
 10
7.75
 20
-8.0
 30
0.0
 11
7.75
 21
12.782475
 31
0.0
  0
LINE
  5
7B
  8
1
  6
CONTINUOUS
 62
     4
 10
0.528766
 20
-8.0
 30
0.0
 11
-0.221234
 21
-7.25
 31
0.0
  0
LINE
  5
7C
  8
1
  6
CONTINUOUS
 62
     4
 10
6.25
 20
12.805407
 30
0.0
 11
6.058706
 21
13.136738
 31
0.0
  0
LINE
  5
7D
  8
1
  6
CONTINUOUS
 62
     4
 10
0.528766
 20
8.0
 30
0.0
 11
-0.221234
 21
7.25
 31
0.0
  0
LINE
  5
7E
  8
1
  6
CONTINUOUS
 62
     4
 10
6.25
 20
7.0
 30
0.0
 11
1.778766
 21
7.0
 31
0.0
  0
LINE
  5
7F
  8
1
  6
CONTINUOUS
 62
     4
 10
-0.221234
 20
-7.25
 30
0.0
 11
-0.221234
 21
7.25
 31
0.0
  0
LINE
  5
80
  8
1
  6
CONTINUOUS
 62
     4
 10
0.528766
 20
-8.0
 30
0.0
 11
0.528766
 21
8.0
 31
0.0
  0
LINE
  5
81
  8
11
  6
CONTINUOUS
 62
     4
 10
-2.121234
 20
-1.875025
 30
0.0
 11
-2.121234
 21
1.875026
 31
0.0
  0
LINE
  5
83
  8
1
  6
CONTINUOUS
 62
     4
 10
1.778766
 20
7.0
 30
0.0
 11
1.778766
 21
8.0
 31
0.0
  0
LINE
  5
84
  8
1
  6
CONTINUOUS
 62
     4
 10
7.75
 20
12.805407
 30
0.0
 11
7.941294
 21
13.136738
 31
0.0
  0
LINE
  5
85
  8
11
  6
CONTINUOUS
 62
     4
 10
-1.621234
 20
-2.009
 30
0.0
 11
-1.621234
 21
2.009
 31
0.0
  0
LINE
  5
86
  8
1
  6
CONTINUOUS
 62
     4
 10
6.058706
 20
13.136738
 30
0.0
 11
6.0
 21
16.5
 31
0.0
  0
LINE
  5
87
  8
11
  6
CONTINUOUS
 62
     4
 10
-0.221234
 20
2.009
 30
0.0
 11
-1.621234
 21
2.009
 31
0.0
  0
LINE
  5
88
  8
11
  6
CONTINUOUS
 62
     4
 10
-0.221234
 20
-2.009
 30
0.0
 11
-1.621234
 21
-2.009
 31
0.0
  0
LINE
  5
89
  8
1
  6
CONTINUOUS
 62
     4
 10
8.0
 20
16.5
 30
0.0
 11
6.0
 21
16.5
 31
0.0
  0
LINE
  5
8A
  8
11
  6
CONTINUOUS
 62
     4
 10
-1.621234
 20
-2.009
 30
0.0
 11
-2.121234
 21
-1.875025
 31
0.0
  0
LINE
  5
8B
  8
11
  6
CONTINUOUS
 62
     4
 10
-1.621234
 20
2.009
 30
0.0
 11
-2.121234
 21
1.875026
 31
0.0
  0
LINE
  5
8C
  8
1
  6
CONTINUOUS
 62
     4
 10
0.528766
 20
8.0
 30
0.0
 11
1.778766
 21
8.0
 31
0.0
  0
LINE
  5
8D
  8
1
  6
CONTINUOUS
 62
     4
 10
0.528766
 20
-8.0
 30
0.0
 11
7.75
 21
-8.0
 31
0.0
  0
LINE
  5
8E
  8
1
  6
CONTINUOUS
 62
     4
 10
7.999034
 20
16.44469
 30
0.0
 11
7.943724
 21
16.500001
 31
0.0
  0
LINE
  5
8F
  8
1
  6
CONTINUOUS
 62
     4
 10
7.941294
 20
13.136738
 30
0.0
 11
8.0
 21
16.5
 31
0.0
  0
LINE
  5
90
  8
81
  6
CONTINUOUS
 62
     2
 10
8.0
 20
16.5
 30
0.0
 11
8.0
 21
19.66765
 31
0.0
  0
LINE
  5
91
  8
14
  6
CENTER
 62
     2
 10
-4.471234
 20
0.0
 30
0.0
 11
9.764383
 21
0.0
 31
0.0
  0
TEXT
  5
93
  8
16
  6
CONTINUOUS
 62
     5
 10
-27.239911
 20
-14.517952
 30
0.0
 40
3.5
  1
RAG551.31-160808-20
 41
0.7336
  0
DIMENSION
  5
99
  8
2
  6
CONTINUOUS
 62
     7
  2
U0
 10
-5.517163
 20
-8.0
 30
0.0
 11
-5.517163
 21
0.0
 31
0.0
 70
   160
  3
STANDARD
 13
1.153766
 23
8.0
 33
0.0
 14
2.041856
 24
-8.0
 34
0.0
 50
-90.0
 52
90.0
1001
ACAD
1000
DSTYLE
1002
{
1070
   287
1070
     3
1070
   270
1070
     2
1070
     7
1000
CLOSED
1070
     6
1000
CLOSED
1070
   371
1070
    13
1070
   372
1070
    13
1070
     3
1000
%%c<>
1070
   170
1070
     0
1070
   144
1040
1.0
1070
   277
1070
     2
1070
   284
1070
     8
1070
   278
1070
    46
1070
   146
1040
1.0
1070
   345
1005
16
1070
   347
1005
16
1070
   346
1005
16
1070
   172
1070
     1
1070
    76
1070
     0
1070
    75
1070
     0
1070
   282
1070
     0
1070
   281
1070
     0
1070
    71
1070
     0
1070
    74
1070
     0
1070
   279
1070
     0
1070
   173
1070
     1
1070
   340
1005
94
1070
   271
1070
     2
1070
   272
1070
     2
1070
    77
1070
     1
1070
    73
1070
     0
1070
   171
1070
     3
1070
   274
1070
     4
1070
   177
1070
     7
1070
   176
1070
     7
1070
   178
1070
     7
1070
    78
1070
     8
1070
    48
1040
-0.1
1070
    41
1040
3.175
1070
   147
1040
1.5
1070
    42
1040
1.5875
1070
    44
1040
2.0
1070
   140
1040
3.0
1002
}
  0
DIMENSION
  5
BF
  8
12
  6
CONTINUOUS
 62
     7
  2
U1
 10
8.0
 20
20.682477
 30
0.0
 11
4.0
 21
20.682477
 31
0.0
 70
   160
  3
STANDARD
 13
0.0
 23
0.0
 33
0.0
 14
8.0
 24
16.5
 34
0.0
 52
90.0
1001
ACAD
1000
DSTYLE
1002
{
1070
   287
1070
     3
1070
   270
1070
     2
1070
     7
1000
CLOSED
1070
     6
1000
CLOSED
1070
   371
1070
    13
1070
   372
1070
    13
1070
   170
1070
     0
1070
   144
1040
1.0
1070
   277
1070
     2
1070
   284
1070
     8
1070
   278
1070
    46
1070
   146
1040
1.0
1070
   345
1005
16
1070
   347
1005
16
1070
   346
1005
16
1070
   172
1070
     1
1070
    76
1070
     0
1070
    75
1070
     0
1070
   282
1070
     0
1070
   281
1070
     0
1070
    71
1070
     0
1070
    74
1070
     0
1070
   279
1070
     0
1070
   173
1070
     1
1070
   340
1005
94
1070
   271
1070
     2
1070
   272
1070
     2
1070
    77
1070
     1
1070
    73
1070
     1
1070
   171
1070
     3
1070
   274
1070
     4
1070
   177
1070
     7
1070
   176
1070
     7
1070
   178
1070
     7
1070
    78
1070
     8
1070
    48
1040
-0.1
1070
    41
1040
3.175
1070
   147
1040
1.5
1070
    42
1040
1.5875
1070
    44
1040
2.0
1070
   140
1040
3.0
1002
}
  0
DIMENSION
  5
DD
  8
12
  6
CONTINUOUS
 62
     7
  2
U2
 10
16.548965
 20
16.5
 30
0.0
 11
16.548965
 21
8.25
 31
0.0
 70
   160
  3
STANDARD
 13
4.764383
 23
0.0
 33
0.0
 14
8.0
 24
16.5
 34
0.0
 50
90.0
 52
90.0
1001
ACAD
1000
DSTYLE
1002
{
1070
   287
1070
     3
1070
   270
1070
     2
1070
     7
1000
CLOSED
1070
     6
1000
CLOSED
1070
   371
1070
    13
1070
   372
1070
    13
1070
   170
1070
     0
1070
   144
1040
1.0
1070
   277
1070
     2
1070
   284
1070
     8
1070
   278
1070
    46
1070
   146
1040
1.0
1070
   345
1005
16
1070
   347
1005
16
1070
   346
1005
16
1070
   172
1070
     1
1070
    76
1070
     0
1070
    75
1070
     0
1070
   282
1070
     0
1070
   281
1070
     0
1070
    71
1070
     0
1070
    74
1070
     0
1070
   279
1070
     0
1070
   173
1070
     1
1070
   340
1005
94
1070
   271
1070
     2
1070
   272
1070
     2
1070
    77
1070
     1
1070
    73
1070
     0
1070
   171
1070
     3
1070
   274
1070
     4
1070
   177
1070
     7
1070
   176
1070
     7
1070
   178
1070
     7
1070
    78
1070
     8
1070
    48
1040
-0.1
1070
    41
1040
3.175
1070
   147
1040
1.5
1070
    42
1040
1.5875
1070
    44
1040
2.0
1070
   140
1040
3.0
1002
}
  0
ENDSEC
  0
EOF
