0
SECTION
2
HEADER
9
$ACADVER
1
AC1015
9
$DWGCODEPAGE
3
ANSI_1252
9
$HANDSEED
5
1f3
9
$ANGBASE
50
0
9
$ANGDIR
70
0
9
$ATTMODE
70
1
9
$AUNITS
70
0
9
$AUPREC
70
0
9
$CECOLOR
62
256
9
$CELTSCALE
40
1
9
$CELTYPE
6
ByLayer
9
$CELWEIGHT
370
18
9
$CLAYER
8
0
9
$CMLJUST
70
0
9
$CMLSCALE
40
1
9
$CMLSTYLE
2
Standard
9
$DIMSTYLE
2
Standard
9
$TEXTSIZE
40
0.2
9
$TEXTSTYLE
7
Standard
9
$LUNITS
70
2
9
$LUPREC
70
4
9
$EXTNAMES
290
1
9
$INSUNITS
70
4
9
$LTSCALE
40
1
9
$LWDISPLAY
290
1
9
$PDMODE
70
0
9
$PDSIZE
40
0
9
$PLINEGEN
70
0
0
ENDSEC
0
SECTION
2
CLASSES
0
CLASS
1
RASTERVARIABLES
2
AcDbRasterVariables
3
ISM
90
0
280
0
281
0
0
ENDSEC
0
SECTION
2
TABLES
0
TABLE
2
VPORT
5
1e9
100
AcDbSymbolTable
0
VPORT
5
1
100
AcDbSymbolTableRecord
100
AcDbViewportTableRecord
2
*Active
70
0
10
0
20
0
11
1
21
1
12
-1
22
1
13
0
23
0
14
0.5
24
0.5
15
10
25
10
16
0
26
0
36
1
17
0
27
0
37
0
0
ENDTAB
0
TABLE
2
LTYPE
5
1ea
100
AcDbSymbolTable
0
LTYPE
5
14
100
AcDbSymbolTableRecord
100
AcDbLinetypeTableRecord
70
0
2
ByBlock
3

72
65
73
0
40
0
0
LTYPE
5
15
100
AcDbSymbolTableRecord
100
AcDbLinetypeTableRecord
70
0
2
ByLayer
3

72
65
73
0
40
0
0
LTYPE
5
16
100
AcDbSymbolTableRecord
100
AcDbLinetypeTableRecord
70
0
2
CONTINUOUS
3
Solid line
72
65
73
0
40
0
0
LTYPE
5
6A
100
AcDbSymbolTableRecord
100
AcDbLinetypeTableRecord
70
0
2
CENTER
3
____ _ ____ _ ____ _ ____
72
65
73
4
40
47.5
49
22
74
0
49
-8.5
74
0
49
8.5
74
0
49
-8.5
74
0
0
LTYPE
5
6B
100
AcDbSymbolTableRecord
100
AcDbLinetypeTableRecord
70
0
2
DASHED
3
__ __ __ __ __ __ __ __ __
72
65
73
2
40
25.72
49
12.86
74
0
49
-12.86
74
0
0
ENDTAB
0
TABLE
2
LAYER
5
1eb
100
AcDbSymbolTable
0
LAYER
5
10
100
AcDbSymbolTableRecord
100
AcDbLayerTableRecord
2
0
70
0
62
7
6
CONTINUOUS
290
1
370
-3
390
0
0
LAYER
5
6D
100
AcDbSymbolTableRecord
100
AcDbLayerTableRecord
2
81
70
0
62
-3
6
CONTINUOUS
290
1
370
-3
390
0
0
LAYER
5
6F
100
AcDbSymbolTableRecord
100
AcDbLayerTableRecord
2
80
70
0
62
-6
6
CONTINUOUS
290
1
370
-3
390
0
0
LAYER
5
71
100
AcDbSymbolTableRecord
100
AcDbLayerTableRecord
2
1
70
0
62
4
6
CONTINUOUS
290
1
370
-3
390
0
0
LAYER
5
CA
100
AcDbSymbolTableRecord
100
AcDbLayerTableRecord
2
4
70
0
62
-2
6
CENTER
290
1
370
-3
390
0
0
LAYER
5
153
100
AcDbSymbolTableRecord
100
AcDbLayerTableRecord
2
2
70
0
62
7
6
CONTINUOUS
290
1
370
-3
390
0
0
LAYER
5
1d5
100
AcDbSymbolTableRecord
100
AcDbLayerTableRecord
2
SK1
70
0
62
4
6
CONTINUOUS
290
1
370
-3
390
0
0
LAYER
5
1d6
100
AcDbSymbolTableRecord
100
AcDbLayerTableRecord
2
SK4
70
0
62
2
6
CENTER
290
1
370
-3
390
0
0
LAYER
5
1d7
100
AcDbSymbolTableRecord
100
AcDbLayerTableRecord
2
SK6
70
0
62
5
6
CONTINUOUS
290
1
370
-3
390
0
0
LAYER
5
1d8
100
AcDbSymbolTableRecord
100
AcDbLayerTableRecord
2
SK2
70
0
62
7
6
CONTINUOUS
290
1
370
-3
390
0
0
ENDTAB
0
TABLE
2
STYLE
5
1ec
100
AcDbSymbolTable
0
STYLE
5
11
100
AcDbSymbolTableRecord
100
AcDbTextStyleTableRecord
2
Standard
3
txt
70
0
71
0
40
0
41
1
42
0
50
0
0
STYLE
5
138
100
AcDbSymbolTableRecord
100
AcDbTextStyleTableRecord
2
iso_b_vert
3
simplex.shx
70
0
71
0
40
0
41
1
42
0
50
0
0
STYLE
5
139
100
AcDbSymbolTableRecord
100
AcDbTextStyleTableRecord
2
DWGDirectTextStyle
3
simplex
70
0
71
0
40
0
41
1
42
0
50
0
0
ENDTAB
0
TABLE
2
DIMSTYLE
5
1ed
100
AcDbSymbolTable
100
AcDbDimStyleTable
0
DIMSTYLE
105
27
100
AcDbSymbolTableRecord
100
AcDbDimStyleTableRecord
2
Standard
70
0
3
<>
41
0.18
42
0.0625
44
0.18
140
0.18
147
0.09
73
0
74
0
77
1
271
2
275
0
278
52
280
0
340
11
0
ENDTAB
0
TABLE
2
VIEW
5
1ee
100
AcDbSymbolTable
0
ENDTAB
0
TABLE
2
UCS
5
1ef
100
AcDbSymbolTable
0
ENDTAB
0
TABLE
2
APPID
5
1f0
100
AcDbSymbolTable
0
APPID
5
12
100
AcDbSymbolTableRecord
100
AcDbRegAppTableRecord
2
ACAD
70
0
0
ENDTAB
0
TABLE
2
BLOCK_RECORD
5
1f1
100
AcDbSymbolTable
0
BLOCK_RECORD
5
1F
100
AcDbSymbolTableRecord
100
AcDbBlockTableRecord
2
*Model_Space
340
0
70
0
0
BLOCK_RECORD
5
1B
100
AcDbSymbolTableRecord
100
AcDbBlockTableRecord
2
*Paper_Space
340
0
70
0
0
BLOCK_RECORD
5
23
100
AcDbSymbolTableRecord
100
AcDbBlockTableRecord
2
*Paper_Space0
340
0
70
0
0
BLOCK_RECORD
5
13B
100
AcDbSymbolTableRecord
100
AcDbBlockTableRecord
2
DimnDraft3D1
340
0
70
0
0
BLOCK_RECORD
5
14A
100
AcDbSymbolTableRecord
100
AcDbBlockTableRecord
2
_CLOSED
340
0
70
0
0
BLOCK_RECORD
5
151
100
AcDbSymbolTableRecord
100
AcDbBlockTableRecord
2
DimnDraft3D2
340
0
70
0
0
BLOCK_RECORD
5
160
100
AcDbSymbolTableRecord
100
AcDbBlockTableRecord
2
DimnDraft3D3
340
0
70
0
0
BLOCK_RECORD
5
16E
100
AcDbSymbolTableRecord
100
AcDbBlockTableRecord
2
DimnDraft3D4
340
0
70
0
0
ENDTAB
0
ENDSEC
0
SECTION
2
BLOCKS
0
BLOCK
5
20
100
AcDbEntity
8
0
100
AcDbBlockBegin
2
*Model_Space
70
0
10
0
20
0
30
0
3
*Model_Space
0
ENDBLK
5
21
100
AcDbEntity
8
0
100
AcDbBlockEnd
0
BLOCK
5
1C
100
AcDbEntity
8
0
100
AcDbBlockBegin
2
*Paper_Space
70
0
10
0
20
0
30
0
3
*Paper_Space
0
ENDBLK
5
1D
100
AcDbEntity
8
0
100
AcDbBlockEnd
0
BLOCK
5
24
100
AcDbEntity
8
0
100
AcDbBlockBegin
2
*Paper_Space0
70
0
10
0
20
0
30
0
3
*Paper_Space0
0
ENDBLK
5
25
100
AcDbEntity
8
0
100
AcDbBlockEnd
0
BLOCK
5
147
100
AcDbEntity
8
0
100
AcDbBlockBegin
2
DimnDraft3D1
70
0
10
0
20
0
30
0
3
DimnDraft3D1
0
MTEXT
5
13C
100
AcDbEntity
8
SK2
62
256
6
ByLayer
370
18
48
1
60
0
100
AcDbMText
10
-111.166052
20
-1.002632
30
0
210
0
220
0
230
1
1
\W0.6563;20
40
3
41
0
44
1.084337
50
90
71
7
72
5
7
iso_b_vert
0
LINE
5
13E
100
AcDbEntity
8
SK2
62
256
6
ByLayer
370
13
48
1
60
0
100
AcDbLine
10
-100.008923
20
-10
30
0
11
-112.416052
21
-10
31
0
39
0
210
0
220
0
230
1
0
LINE
5
13F
100
AcDbEntity
8
SK2
62
256
6
ByLayer
370
13
48
1
60
0
100
AcDbLine
10
-100.008923
20
10
30
0
11
-112.416052
21
10
31
0
39
0
210
0
220
0
230
1
0
LINE
5
140
100
AcDbEntity
8
SK2
62
256
6
ByLayer
370
13
48
1
60
0
100
AcDbLine
10
-110.416052
20
-10
30
0
11
-110.416052
21
10
31
0
39
0
210
0
220
0
230
1
0
LINE
5
141
100
AcDbEntity
8
SK2
62
256
6
ByLayer
370
13
48
1
60
0
100
AcDbLine
10
-110.416052
20
-10
30
0
11
-110.834049
21
-6.825002
31
0
39
0
210
0
220
0
230
1
0
LINE
5
142
100
AcDbEntity
8
SK2
62
256
6
ByLayer
370
13
48
1
60
0
100
AcDbLine
10
-110.416052
20
-10
30
0
11
-109.998055
21
-6.824998
31
0
39
0
210
0
220
0
230
1
0
LINE
5
143
100
AcDbEntity
8
SK2
62
256
6
ByLayer
370
13
48
1
60
0
100
AcDbLine
10
-110.834049
20
-6.825002
30
0
11
-109.998055
21
-6.824998
31
0
39
0
210
0
220
0
230
1
0
LINE
5
144
100
AcDbEntity
8
SK2
62
256
6
ByLayer
370
13
48
1
60
0
100
AcDbLine
10
-110.416052
20
10
30
0
11
-109.998055
21
6.825002
31
0
39
0
210
0
220
0
230
1
0
LINE
5
145
100
AcDbEntity
8
SK2
62
256
6
ByLayer
370
13
48
1
60
0
100
AcDbLine
10
-110.416052
20
10
30
0
11
-110.834049
21
6.824998
31
0
39
0
210
0
220
0
230
1
0
LINE
5
146
100
AcDbEntity
8
SK2
62
256
6
ByLayer
370
13
48
1
60
0
100
AcDbLine
10
-109.998055
20
6.825002
30
0
11
-110.834049
21
6.824998
31
0
39
0
210
0
220
0
230
1
0
ENDBLK
5
148
100
AcDbEntity
8
0
100
AcDbBlockEnd
0
BLOCK
5
14B
100
AcDbEntity
8
0
100
AcDbBlockBegin
2
_CLOSED
70
0
10
0
20
0
30
0
3
_CLOSED
0
LINE
5
14D
100
AcDbEntity
8
0
62
256
6
ByLayer
370
-2
48
1
60
0
100
AcDbLine
10
-1
20
0.166667
30
0
11
0
21
0
31
0
39
0
210
0
220
0
230
1
0
LINE
5
14E
100
AcDbEntity
8
0
62
256
6
ByLayer
370
-2
48
1
60
0
100
AcDbLine
10
0
20
0
30
0
11
-1
21
-0.166667
31
0
39
0
210
0
220
0
230
1
0
LINE
5
14F
100
AcDbEntity
8
0
62
256
6
ByLayer
370
-2
48
1
60
0
100
AcDbLine
10
-1
20
0.166667
30
0
11
-1
21
-0.166667
31
0
39
0
210
0
220
0
230
1
0
LINE
5
150
100
AcDbEntity
8
0
62
256
6
ByLayer
370
-2
48
1
60
0
100
AcDbLine
10
0
20
0
30
0
11
-1
21
0
31
0
39
0
210
0
220
0
230
1
0
ENDBLK
5
14C
100
AcDbEntity
8
0
100
AcDbBlockEnd
0
BLOCK
5
15D
100
AcDbEntity
8
0
100
AcDbBlockBegin
2
DimnDraft3D2
70
0
10
0
20
0
30
0
3
DimnDraft3D2
0
MTEXT
5
152
100
AcDbEntity
8
2
62
256
6
ByLayer
370
18
48
1
60
0
100
AcDbMText
10
95.761036
20
4.206579
30
0
210
0
220
0
230
1
1
\W0.6676;15.25
40
3
41
0
44
1.084337
50
90
71
7
72
5
7
iso_b_vert
0
LINE
5
154
100
AcDbEntity
8
2
62
256
6
ByLayer
370
13
48
1
60
0
100
AcDbLine
10
90.208245
20
0
30
0
11
98.511036
21
0
31
0
39
0
210
0
220
0
230
1
0
LINE
5
155
100
AcDbEntity
8
2
62
256
6
ByLayer
370
13
48
1
60
0
100
AcDbLine
10
82
20
15.25
30
0
11
98.511036
21
15.25
31
0
39
0
210
0
220
0
230
1
0
LINE
5
156
100
AcDbEntity
8
2
62
256
6
ByLayer
370
13
48
1
60
0
100
AcDbLine
10
96.511036
20
-7.5
30
0
11
96.511036
21
22.75
31
0
39
0
210
0
220
0
230
1
0
LINE
5
157
100
AcDbEntity
8
2
62
256
6
ByLayer
370
13
48
1
60
0
100
AcDbLine
10
96.511036
20
0
30
0
11
96.929032
21
-3.174998
31
0
39
0
210
0
220
0
230
1
0
LINE
5
158
100
AcDbEntity
8
2
62
256
6
ByLayer
370
13
48
1
60
0
100
AcDbLine
10
96.511036
20
0
30
0
11
96.093039
21
-3.175002
31
0
39
0
210
0
220
0
230
1
0
LINE
5
159
100
AcDbEntity
8
2
62
256
6
ByLayer
370
13
48
1
60
0
100
AcDbLine
10
96.929032
20
-3.174998
30
0
11
96.093039
21
-3.175002
31
0
39
0
210
0
220
0
230
1
0
LINE
5
15A
100
AcDbEntity
8
2
62
256
6
ByLayer
370
13
48
1
60
0
100
AcDbLine
10
96.511036
20
15.25
30
0
11
96.093039
21
18.424998
31
0
39
0
210
0
220
0
230
1
0
LINE
5
15B
100
AcDbEntity
8
2
62
256
6
ByLayer
370
13
48
1
60
0
100
AcDbLine
10
96.511036
20
15.25
30
0
11
96.929032
21
18.425002
31
0
39
0
210
0
220
0
230
1
0
LINE
5
15C
100
AcDbEntity
8
2
62
256
6
ByLayer
370
13
48
1
60
0
100
AcDbLine
10
96.093039
20
18.424998
30
0
11
96.929032
21
18.425002
31
0
39
0
210
0
220
0
230
1
0
ENDBLK
5
15E
100
AcDbEntity
8
0
100
AcDbBlockEnd
0
BLOCK
5
16B
100
AcDbEntity
8
0
100
AcDbBlockBegin
2
DimnDraft3D3
70
0
10
0
20
0
30
0
3
DimnDraft3D3
0
MTEXT
5
161
100
AcDbEntity
8
2
62
256
6
ByLayer
370
18
48
1
60
0
100
AcDbMText
10
63.992907
20
21.789368
30
0
210
0
220
0
230
1
1
\W0.6562;30
40
3
41
0
44
1.084337
50
0
71
7
72
5
7
iso_b_vert
0
LINE
5
162
100
AcDbEntity
8
2
62
256
6
ByLayer
370
13
48
1
60
0
100
AcDbLine
10
49.991077
20
10.75
30
0
11
49.991077
21
23.039368
31
0
39
0
210
0
220
0
230
1
0
LINE
5
163
100
AcDbEntity
8
2
62
256
6
ByLayer
370
13
48
1
60
0
100
AcDbLine
10
80
20
17.25
30
0
11
80
21
23.039368
31
0
39
0
210
0
220
0
230
1
0
LINE
5
164
100
AcDbEntity
8
2
62
256
6
ByLayer
370
13
48
1
60
0
100
AcDbLine
10
49.991077
20
21.039368
30
0
11
80
21
21.039368
31
0
39
0
210
0
220
0
230
1
0
LINE
5
165
100
AcDbEntity
8
2
62
256
6
ByLayer
370
13
48
1
60
0
100
AcDbLine
10
49.991077
20
21.039368
30
0
11
53.166076
21
21.457365
31
0
39
0
210
0
220
0
230
1
0
LINE
5
166
100
AcDbEntity
8
2
62
256
6
ByLayer
370
13
48
1
60
0
100
AcDbLine
10
49.991077
20
21.039368
30
0
11
53.166079
21
20.621371
31
0
39
0
210
0
220
0
230
1
0
LINE
5
167
100
AcDbEntity
8
2
62
256
6
ByLayer
370
13
48
1
60
0
100
AcDbLine
10
53.166076
20
21.457365
30
0
11
53.166079
21
20.621371
31
0
39
0
210
0
220
0
230
1
0
LINE
5
168
100
AcDbEntity
8
2
62
256
6
ByLayer
370
13
48
1
60
0
100
AcDbLine
10
80
20
21.039368
30
0
11
76.825002
21
20.621371
31
0
39
0
210
0
220
0
230
1
0
LINE
5
169
100
AcDbEntity
8
2
62
256
6
ByLayer
370
13
48
1
60
0
100
AcDbLine
10
80
20
21.039368
30
0
11
76.824998
21
21.457365
31
0
39
0
210
0
220
0
230
1
0
LINE
5
16A
100
AcDbEntity
8
2
62
256
6
ByLayer
370
13
48
1
60
0
100
AcDbLine
10
76.825002
20
20.621371
30
0
11
76.824998
21
21.457365
31
0
39
0
210
0
220
0
230
1
0
ENDBLK
5
16C
100
AcDbEntity
8
0
100
AcDbBlockEnd
0
BLOCK
5
179
100
AcDbEntity
8
0
100
AcDbBlockBegin
2
DimnDraft3D4
70
0
10
0
20
0
30
0
3
DimnDraft3D4
0
MTEXT
5
16F
100
AcDbEntity
8
SK2
62
256
6
ByLayer
370
18
48
1
60
0
100
AcDbMText
10
-11.733409
20
30.9263
30
0
210
0
220
0
230
1
1
\W0.6044;180
40
3
41
0
44
1.084337
50
0
71
7
72
5
7
iso_b_vert
0
LINE
5
170
100
AcDbEntity
8
SK2
62
256
6
ByLayer
370
13
48
1
60
0
100
AcDbLine
10
80
20
17.25
30
0
11
80
21
32.1763
31
0
39
0
210
0
220
0
230
1
0
LINE
5
171
100
AcDbEntity
8
SK2
62
256
6
ByLayer
370
13
48
1
60
0
100
AcDbLine
10
-100.008923
20
10
30
0
11
-100.008923
21
32.1763
31
0
39
0
210
0
220
0
230
1
0
LINE
5
172
100
AcDbEntity
8
SK2
62
256
6
ByLayer
370
13
48
1
60
0
100
AcDbLine
10
80
20
30.1763
30
0
11
-100.008923
21
30.1763
31
0
39
0
210
0
220
0
230
1
0
LINE
5
173
100
AcDbEntity
8
SK2
62
256
6
ByLayer
370
13
48
1
60
0
100
AcDbLine
10
80
20
30.1763
30
0
11
76.825002
21
29.758303
31
0
39
0
210
0
220
0
230
1
0
LINE
5
174
100
AcDbEntity
8
SK2
62
256
6
ByLayer
370
13
48
1
60
0
100
AcDbLine
10
80
20
30.1763
30
0
11
76.824998
21
30.594296
31
0
39
0
210
0
220
0
230
1
0
LINE
5
175
100
AcDbEntity
8
SK2
62
256
6
ByLayer
370
13
48
1
60
0
100
AcDbLine
10
76.825002
20
29.758303
30
0
11
76.824998
21
30.594296
31
0
39
0
210
0
220
0
230
1
0
LINE
5
176
100
AcDbEntity
8
SK2
62
256
6
ByLayer
370
13
48
1
60
0
100
AcDbLine
10
-100.008923
20
30.1763
30
0
11
-96.833924
21
30.594296
31
0
39
0
210
0
220
0
230
1
0
LINE
5
177
100
AcDbEntity
8
SK2
62
256
6
ByLayer
370
13
48
1
60
0
100
AcDbLine
10
-100.008923
20
30.1763
30
0
11
-96.833921
21
29.758303
31
0
39
0
210
0
220
0
230
1
0
LINE
5
178
100
AcDbEntity
8
SK2
62
256
6
ByLayer
370
13
48
1
60
0
100
AcDbLine
10
-96.833924
20
30.594296
30
0
11
-96.833921
21
29.758303
31
0
39
0
210
0
220
0
230
1
0
ENDBLK
5
17A
100
AcDbEntity
8
0
100
AcDbBlockEnd
0
ENDSEC
0
SECTION
2
ENTITIES
0
ARC
5
CC
100
AcDbEntity
8
1
62
256
6
ByLayer
370
18
48
1
60
0
100
AcDbCircle
39
0
10
75.866077
20
-5.25
30
0
40
3.9999999993911
210
0
220
0
230
1
100
AcDbArc
50
278.572997
51
292.605032
0
ELLIPSE
5
CD
100
AcDbEntity
8
1
62
256
6
ByLayer
370
18
48
1
60
0
100
AcDbEllipse
10
73.478532
20
2.857156
30
0
11
1.6112124124018
21
-1.77876208699263
31
0
210
0
220
0
230
1
40
0.916669
41
0
42
6.28318530717959
0
ELLIPSE
5
CE
100
AcDbEntity
8
1
62
256
6
ByLayer
370
18
48
1
60
0
100
AcDbEllipse
10
73.478532
20
2.857156
30
0
11
1.12549900390907
21
-1.24253943285377
31
0
210
0
220
0
230
1
40
0.916669
41
-2.87662275669705
42
-1.82384411013741
0
ELLIPSE
5
CF
100
AcDbEntity
8
1
62
256
6
ByLayer
370
18
48
1
60
0
100
AcDbEllipse
10
73.478532
20
2.857156
30
0
11
1.12549900391162
21
-1.24253943285367
31
0
210
0
220
0
230
1
40
0.916669
41
-1.8238441101385
42
-0.779437106623669
0
ELLIPSE
5
D0
100
AcDbEntity
8
1
62
256
6
ByLayer
370
18
48
1
60
0
100
AcDbEllipse
10
73.478532
20
2.857156
30
0
11
1.12549900391085
21
-1.24253943285455
31
0
210
0
220
0
230
1
40
0.916669
41
-0.779437106622799
42
0.264969896892133
0
ELLIPSE
5
D1
100
AcDbEntity
8
1
62
256
6
ByLayer
370
18
48
1
60
0
100
AcDbEllipse
10
73.478532
20
2.857156
30
0
11
1.12549900388171
21
-1.2425394328683
31
0
210
0
220
0
230
1
40
0.916669
41
0.264969896909397
42
1.31774854347223
0
ELLIPSE
5
D2
100
AcDbEntity
8
1
62
256
6
ByLayer
370
18
48
1
60
0
100
AcDbEllipse
10
73.478532
20
2.857156
30
0
11
1.12549900392183
21
-1.24253943283771
31
0
210
0
220
0
230
1
40
0.916669
41
1.31774854343861
42
2.36215554695646
0
ELLIPSE
5
D3
100
AcDbEntity
8
1
62
256
6
ByLayer
370
18
48
1
60
0
100
AcDbEllipse
10
73.478532
20
2.857156
30
0
11
1.12549900390802
21
-1.24253943286622
31
0
210
0
220
0
230
1
40
0.916669
41
2.36215554697409
42
-2.87662275669278
0
ELLIPSE
5
D4
100
AcDbEntity
8
1
62
256
6
ByLayer
370
18
48
1
60
0
100
AcDbEllipse
10
72.945375
20
2.37422
30
0
11
2.55108631804851
21
-2.81637330684089
31
0
210
0
220
0
230
1
40
0.916669
41
1.88417805767541
42
2.0567428199123
0
ELLIPSE
5
D5
100
AcDbEntity
8
1
62
256
6
ByLayer
370
18
48
1
60
0
100
AcDbEllipse
10
72.945375
20
2.37422
30
0
11
2.55108631962055
21
-2.81637330441208
31
0
210
0
220
0
230
1
40
0.916669
41
0
42
1.08384433181916
0
ELLIPSE
5
D6
100
AcDbEntity
8
1
62
256
6
ByLayer
370
18
48
1
60
0
100
AcDbEllipse
10
72.945375
20
2.37422
30
0
11
2.55108633306233
21
-2.81637329762121
31
0
210
0
220
0
230
1
40
0.916669
41
1.08384432805254
42
1.25292377569349
0
ELLIPSE
5
D7
100
AcDbEntity
8
1
62
256
6
ByLayer
370
18
48
1
60
0
100
AcDbEllipse
10
72.945375
20
2.37422
30
0
11
2.55108632068553
21
-2.81637330421109
31
0
210
0
220
0
230
1
40
0.916669
41
3.14159265337105
42
-2.9408225412453
0
ELLIPSE
5
D8
100
AcDbEntity
8
1
62
256
6
ByLayer
370
18
48
1
60
0
100
AcDbEllipse
10
72.184466
20
4.15443
30
0
11
0.460538214542207
21
-0.508429496535843
31
0
210
0
220
0
230
1
40
0.916669
41
-1.04122424848152
42
-0.257233604861479
0
ELLIPSE
5
D9
100
AcDbEntity
8
1
62
256
6
ByLayer
370
18
48
1
60
0
100
AcDbEllipse
10
72.945375
20
2.37422
30
0
11
2.55108631853041
21
-2.81637329921322
31
0
210
0
220
0
230
1
40
0.916669
41
-0.201009092950226
42
-6.42740747152374E-10
0
ELLIPSE
5
DA
100
AcDbEntity
8
1
62
256
6
ByLayer
370
18
48
1
60
0
100
AcDbEllipse
10
72.945375
20
2.37422
30
0
11
2.55108631963677
21
-2.81637330440407
31
0
210
0
220
0
230
1
40
0.916669
41
2.05674281917516
42
3.14159265358979
0
ELLIPSE
5
DB
100
AcDbEntity
8
1
62
256
6
ByLayer
370
18
48
1
60
0
100
AcDbEllipse
10
74.886062
20
2.34486
30
0
11
0.46053821463255
21
-0.508429496490113
31
0
210
0
220
0
230
1
40
0.916669
41
-2.22861939232661
42
-1.5589720986477
0
ELLIPSE
5
DC
100
AcDbEntity
8
1
62
256
6
ByLayer
370
18
48
1
60
0
100
AcDbEllipse
10
73.086069
20
3.830416
30
0
11
0.196030843508872
21
-0.2164160539179
31
0
210
0
220
0
230
1
40
0.916669
41
1.05596140158807
42
2.37072466208593
0
ELLIPSE
5
DD
100
AcDbEntity
8
1
62
256
6
ByLayer
370
18
48
1
60
0
100
AcDbEllipse
10
73.987673
20
3.997349
30
0
11
0.460538214522009
21
-0.508429496565081
31
0
210
0
220
0
230
1
40
0.916669
41
-1.30164060832153
42
-0.517649964708402
0
ELLIPSE
5
DE
100
AcDbEntity
8
1
62
256
6
ByLayer
370
18
48
1
60
0
100
AcDbEllipse
10
73.987673
20
3.997349
30
0
11
0.460538214578716
21
-0.508429496528681
31
0
210
0
220
0
230
1
40
0.916669
41
-2.08563125203118
42
-1.30164060843447
0
ELLIPSE
5
DF
100
AcDbEntity
8
1
62
256
6
ByLayer
370
18
48
1
60
0
100
AcDbEllipse
10
74.886062
20
2.34486
30
0
11
0.460538214570592
21
-0.508429496518545
31
0
210
0
220
0
230
1
40
0.916669
41
-3.14149476837849
42
-2.47184747467821
0
ELLIPSE
5
E0
100
AcDbEntity
8
1
62
256
6
ByLayer
370
18
48
1
60
0
100
AcDbEllipse
10
74.229428
20
3.069647
30
0
11
0.196030843508655
21
-0.216416053917603
31
0
210
0
220
0
230
1
40
0.916669
41
9.78852491401025E-05
42
2.62394268882905
0
ELLIPSE
5
E1
100
AcDbEntity
8
1
62
256
6
ByLayer
370
18
48
1
60
0
100
AcDbEllipse
10
73.086069
20
2.501661
30
0
11
0.809969906765032
21
-0.89419852359724
31
0
210
0
220
0
230
1
40
0.916669
41
-0.643254598208522
42
-0.32267827684585
0
ELLIPSE
5
E2
100
AcDbEntity
8
1
62
256
6
ByLayer
370
18
48
1
60
0
100
AcDbEllipse
10
73.086069
20
2.501661
30
0
11
0.809969906271274
21
-0.894198523622294
31
0
210
0
220
0
230
1
40
0.916669
41
2.88435904851678
42
-2.99746041269632
0
ELLIPSE
5
E3
100
AcDbEntity
8
1
62
256
6
ByLayer
370
18
48
1
60
0
100
AcDbEllipse
10
73.086069
20
2.501661
30
0
11
0.809969906484249
21
-0.894198524148835
31
0
210
0
220
0
230
1
40
0.916669
41
1.83995204520732
42
2.88435904872255
0
ELLIPSE
5
E4
100
AcDbEntity
8
1
62
256
6
ByLayer
370
18
48
1
60
0
100
AcDbEllipse
10
73.086069
20
2.501661
30
0
11
0.809969906470808
21
-0.894198524154247
31
0
210
0
220
0
230
1
40
0.916669
41
0.860391853591238
42
1.83995204522077
0
ELLIPSE
5
E5
100
AcDbEntity
8
1
62
256
6
ByLayer
370
18
48
1
60
0
100
AcDbEllipse
10
73.086069
20
2.501661
30
0
11
0.809969906249489
21
-0.894198524238151
31
0
210
0
220
0
230
1
40
0.916669
41
0.166360250156436
42
0.722326586964157
0
ELLIPSE
5
E6
100
AcDbEntity
8
1
62
256
6
ByLayer
370
18
48
1
60
0
100
AcDbEllipse
10
79.791077
20
-4.441534
30
0
11
-0.200000000000298
21
2.4492127076484E-17
31
0
210
0
220
0
230
1
40
0.994522
41
1.5707963267949
42
-3.09795942230637
0
ELLIPSE
5
E7
100
AcDbEntity
8
1
62
256
6
ByLayer
370
18
48
1
60
0
100
AcDbEllipse
10
78.191077
20
15.051096
30
0
11
-0.200000000000248
21
2.44921270764779E-17
31
0
210
0
220
0
230
1
40
0.994522
41
-1.5707963267949
42
0.0436332312835672
0
ELLIPSE
5
E8
100
AcDbEntity
8
1
62
256
6
ByLayer
370
18
48
1
60
0
100
AcDbEllipse
10
79.791077
20
15.051096
30
0
11
-0.200000000000248
21
2.44921270764779E-17
31
0
210
0
220
0
230
1
40
0.994522
41
3.09795942230622
42
-1.5707963267949
0
ELLIPSE
5
E9
100
AcDbEntity
8
1
62
256
6
ByLayer
370
18
48
1
60
0
100
AcDbEllipse
10
73.319419
20
2.713031
30
0
11
2.68535402066863
21
-2.96460347832224
31
0
210
0
220
0
230
1
40
0.916669
41
-2.26375609596108
42
-2.42229861514921E-16
0
ELLIPSE
5
EA
100
AcDbEntity
8
1
62
256
6
ByLayer
370
18
48
1
60
0
100
AcDbEllipse
10
73.319419
20
2.713031
30
0
11
2.6853540207014
21
-2.96460347830945
31
0
210
0
220
0
230
1
40
0.916669
41
3.14159265358979
42
-2.2637560959702
0
ELLIPSE
5
EB
100
AcDbEntity
8
1
62
256
6
ByLayer
370
18
48
1
60
0
100
AcDbEllipse
10
73.319419
20
2.713031
30
0
11
2.68535402066959
21
-2.96460347832112
31
0
210
0
220
0
230
1
40
0.916669
41
0
42
3.14159265358979
0
ELLIPSE
5
EC
100
AcDbEntity
8
1
62
256
6
ByLayer
370
18
48
1
60
0
100
AcDbEllipse
10
72.826896
20
2.266901
30
0
11
2.68535402067397
21
-2.96460347831323
31
0
210
0
220
0
230
1
40
0.916669
41
2.25953325188827
42
3.03111586348154
0
ELLIPSE
5
ED
100
AcDbEntity
8
1
62
256
6
ByLayer
370
18
48
1
60
0
100
AcDbEllipse
10
72.826896
20
2.266901
30
0
11
2.68535417901675
21
-2.96460339448953
31
0
210
0
220
0
230
1
40
0.916669
41
0.791359176882456
42
0.889928924183166
0
ELLIPSE
5
EE
100
AcDbEntity
8
1
62
256
6
ByLayer
370
18
48
1
60
0
100
AcDbEllipse
10
72.826896
20
2.266901
30
0
11
2.6853540206064
21
-2.96460347834378
31
0
210
0
220
0
230
1
40
0.916669
41
0.116366496489955
42
0.791359220186675
0
ELLIPSE
5
EF
100
AcDbEntity
8
1
62
256
6
ByLayer
370
18
48
1
60
0
100
AcDbEllipse
10
78.991077
20
9.258863
30
0
11
-0.499999999996841
21
6.1230317690732E-17
31
0
210
0
220
0
230
1
40
0.889993
41
-1.91986217719159
42
-1.22173047639821
0
ELLIPSE
5
F0
100
AcDbEntity
8
1
62
256
6
ByLayer
370
18
48
1
60
0
100
AcDbEllipse
10
78.322448
20
7.559637
30
0
11
-0.227183534411418
21
-1.89001129078401
31
0
210
0
220
0
230
1
40
0.405852
41
-0.497456306313477
42
0.28794185708002
0
ELLIPSE
5
F1
100
AcDbEntity
8
1
62
256
6
ByLayer
370
18
48
1
60
0
100
AcDbEllipse
10
97.868788
20
0
30
0
11
31.185813218029
21
-2.97830530779207
31
0
210
0
220
0
230
1
40
0.295172
41
2.76859235207051
42
-2.16263236971101
0
ELLIPSE
5
F2
100
AcDbEntity
8
1
62
256
6
ByLayer
370
18
48
1
60
0
100
AcDbEllipse
10
100.812656
20
-3.25
30
0
11
38.680078410175
21
-3.69402208724913
31
0
210
0
220
0
230
1
40
0.295172
41
2.27311267063674
42
2.55744567693431
0
ELLIPSE
5
F3
100
AcDbEntity
8
1
62
256
6
ByLayer
370
18
48
1
60
0
100
AcDbEllipse
10
82.493577
20
0
30
0
11
26.5785190342877
21
-1.16336514118376
31
0
210
0
220
0
230
1
40
0.361375
41
-2.15008037291601
42
-2.08551369409805
0
ELLIPSE
5
F4
100
AcDbEntity
8
1
62
256
6
ByLayer
370
18
48
1
60
0
100
AcDbEllipse
10
77.579335
20
-3.25
30
0
11
32.9656053015629
21
-1.44293343273165
31
0
210
0
220
0
230
1
40
0.361375
41
1.60204388740061
42
1.69133244494206
0
ELLIPSE
5
F5
100
AcDbEntity
8
1
62
256
6
ByLayer
370
18
48
1
60
0
100
AcDbEllipse
10
77.579335
20
-3.25
30
0
11
32.9656053095724
21
-1.44293343364624
31
0
210
0
220
0
230
1
40
0.361375
41
1.69133244496022
42
2.18731170816388
0
ELLIPSE
5
F6
100
AcDbEntity
8
1
62
256
6
ByLayer
370
18
48
1
60
0
100
AcDbEllipse
10
83.426943
20
-3.25
30
0
11
32.9656053095557
21
-1.44293343364076
31
0
210
0
220
0
230
1
40
0.361375
41
1.77652742935373
42
2.36195850521425
0
ELLIPSE
5
F7
100
AcDbEntity
8
1
62
256
6
ByLayer
370
18
48
1
60
0
100
AcDbEllipse
10
87.379625
20
-3.25
30
0
11
10.9195352463804
21
-10.9195352463804
31
0
210
0
220
0
230
1
40
0.455726
41
2.92887927554066
42
3.10338645443435
0
ELLIPSE
5
F8
100
AcDbEntity
8
1
62
256
6
ByLayer
370
18
48
1
60
0
100
AcDbEllipse
10
75.856197
20
2.75
30
0
11
32.9656053097508
21
-1.44293343363386
31
0
210
0
220
0
230
1
40
0.361375
41
-1.81535181760076
42
-1.53659365321112
0
ELLIPSE
5
F9
100
AcDbEntity
8
1
62
256
6
ByLayer
370
18
48
1
60
0
100
AcDbEllipse
10
81.703806
20
2.75
30
0
11
32.9656053091825
21
-1.44293343369468
31
0
210
0
220
0
230
1
40
0.361375
41
-1.94910780723966
42
-1.68434094324449
0
POINT
5
6C
100
AcDbEntity
8
81
62
256
6
ByLayer
370
18
48
1
60
0
100
AcDbPoint
10
80
20
15.25
30
0
39
0
210
0
220
0
230
1
50
360
0
POINT
5
6E
100
AcDbEntity
8
80
62
256
6
ByLayer
370
18
48
1
60
0
100
AcDbPoint
10
0
20
0
30
0
39
0
210
0
220
0
230
1
50
360
0
SPLINE
5
FA
100
AcDbEntity
8
1
62
256
6
ByLayer
370
18
48
1
60
0
100
AcDbSpline
70
4
71
3
72
14
73
10
40
0
40
0
40
0
40
0
40
0.0039341257745322
40
0.18419917622977
40
0.365102071020934
40
0.546724533710305
40
0.729112093461204
40
0.912267960417858
40
1
40
1
40
1
40
1
41
1
10
76.1922615915362
20
3.72206806889818
30
-1.1E-15
41
1
10
76.1909249964566
20
3.72488387171617
30
-1.1E-15
41
1
10
76.1281973995243
20
3.85664345655356
30
-1.1E-15
41
1
10
75.9897691292219
20
4.11133782178698
30
-1.1E-15
41
1
10
75.7455224926535
20
4.46618170935506
30
-1.1E-15
41
1
10
75.4641681768525
20
4.7947065836251
30
-1.1E-15
41
1
10
75.1484582360106
20
5.09286429763206
30
-1.1E-15
41
1
10
74.8620018844608
20
5.31085819450772
30
-1.1E-15
41
1
10
74.6816108130235
20
5.42693956349074
30
-1.1E-15
41
1
10
74.6221452565123
20
5.46310277613611
30
-1.1E-15
0
SPLINE
5
FB
100
AcDbEntity
8
1
62
256
6
ByLayer
370
18
48
1
60
0
100
AcDbSpline
70
4
71
3
72
12
73
8
40
0
40
0
40
0
40
0
40
0.0573009716925607
40
0.280031064926594
40
0.505395285878023
40
0.744943740650539
40
1
40
1
40
1
40
1
41
1
10
72.0940314178306
20
2.1693783402973
30
-1.1E-15
41
1
10
72.0977136274714
20
2.16269943788185
30
-1.1E-15
41
1
10
72.1165059831993
20
2.13074093471091
30
-1.1E-15
41
1
10
72.1592200152041
20
2.07718808011502
30
-1.1E-15
41
1
10
72.2278148092218
20
2.02256898961833
30
-1.1E-15
41
1
10
72.3034871023915
20
1.98853199780858
30
-1.1E-15
41
1
10
72.3510828361407
20
1.9819054093482
30
-1.1E-15
41
1
10
72.3750847619518
20
1.98295821455667
30
-1.1E-15
0
SPLINE
5
FC
100
AcDbEntity
8
1
62
256
6
ByLayer
370
18
48
1
60
0
100
AcDbSpline
70
4
71
3
72
11
73
7
40
0
40
0
40
0
40
0
40
0.282400928180179
40
0.566618863982861
40
0.824053620759869
40
1
40
1
40
1
40
1
41
1
10
72.1063388206113
20
2.4758726531395
30
-1.1E-15
41
1
10
72.0877291845341
20
2.45920280730701
30
-1.1E-15
41
1
10
72.0600095543731
20
2.41786812651232
30
-1.1E-15
41
1
10
72.0441934808683
20
2.33102704769352
30
-1.1E-15
41
1
10
72.0597151193673
20
2.24240133229699
30
-1.1E-15
41
1
10
72.0825165121032
20
2.19061108645067
30
-1.1E-15
41
1
10
72.0940314178307
20
2.16937834029712
30
-1.1E-15
0
SPLINE
5
FD
100
AcDbEntity
8
1
62
256
6
ByLayer
370
18
48
1
60
0
100
AcDbSpline
70
4
71
3
72
12
73
8
40
0
40
0
40
0
40
0
40
0.0628011180647062
40
0.283352165783279
40
0.506851807023852
40
0.744678285731738
40
1
40
1
40
1
40
1
41
1
10
72.0940314178306
20
3.7861466355837
30
-1.1E-15
41
1
10
72.0899646251158
20
3.77945456548008
30
-1.1E-15
41
1
10
72.0728777607112
20
3.74848462681552
30
-1.1E-15
41
1
10
72.0519181249764
20
3.68428563328178
30
-1.1E-15
41
1
10
72.0467698124874
20
3.59158765680556
30
-1.1E-15
41
1
10
72.0647651334488
20
3.49625356366981
30
-1.1E-15
41
1
10
72.0896750628947
20
3.43982580689671
30
-1.1E-15
41
1
10
72.1063388206114
20
3.41240427821354
30
-1.1E-15
0
SPLINE
5
FE
100
AcDbEntity
8
1
62
256
6
ByLayer
370
18
48
1
60
0
100
AcDbSpline
70
4
71
3
72
10
73
6
40
0
40
0
40
0
40
0
40
0.420489505399748
40
0.84181661412815
40
1
40
1
40
1
40
1
41
1
10
72.2485417910122
20
2.96436822497886
30
-1.1E-15
41
1
10
72.2419805302035
20
3.03454999610502
30
-1.1E-15
41
1
10
72.2178521900671
20
3.16838150372941
30
-1.1E-15
41
1
10
72.1598726075045
20
3.3170080823669
30
-1.1E-15
41
1
10
72.1183739319469
20
3.39241375726064
30
-1.1E-15
41
1
10
72.1063388206112
20
3.41240427821389
30
-1.1E-15
0
SPLINE
5
FF
100
AcDbEntity
8
1
62
256
6
ByLayer
370
18
48
1
60
0
100
AcDbSpline
70
4
71
3
72
10
73
6
40
0
40
0
40
0
40
0
40
0.494854800060402
40
0.898971594879498
40
1
40
1
40
1
40
1
41
1
10
72.1063388206113
20
2.4758726531395
30
-1.1E-15
41
1
10
72.1450481080214
20
2.50985886732668
30
-1.1E-15
41
1
10
72.2012592667985
20
2.58946290235825
30
-1.1E-15
41
1
10
72.2384709887951
20
2.7167926866023
30
-1.1E-15
41
1
10
72.2471570354743
20
2.7896660611065
30
-1.1E-15
41
1
10
72.2485417910123
20
2.80462640370848
30
-1.1E-15
0
SPLINE
5
100
100
AcDbEntity
8
1
62
256
6
ByLayer
370
18
48
1
60
0
100
AcDbSpline
70
4
71
3
72
11
73
7
40
0
40
0
40
0
40
0
40
0.284186181053575
40
0.569985742254238
40
0.828961092406582
40
1
40
1
40
1
40
1
41
1
10
73.1770726265405
20
1.44933088455342
30
-1.1E-15
41
1
10
73.1910451929501
20
1.42086555255403
30
-1.1E-15
41
1
10
73.2282360616183
20
1.3683152525716
30
-1.1E-15
41
1
10
73.3117820362722
20
1.29954145998379
30
-1.1E-15
41
1
10
73.4015162072446
20
1.260299703246
30
-1.1E-15
41
1
10
73.4562057423734
20
1.25025140889233
30
-1.1E-15
41
1
10
73.4785319706914
20
1.24815824949089
30
-1.1E-15
0
SPLINE
5
101
100
AcDbEntity
8
1
62
256
6
ByLayer
370
18
48
1
60
0
100
AcDbSpline
70
4
71
3
72
13
73
9
40
0
40
0
40
0
40
0
40
0.212275459579557
40
0.386387479227171
40
0.561520337418425
40
0.714816097897475
40
0.917450657559683
40
1
40
1
40
1
40
1
41
1
10
73.1770726265405
20
1.44933088455342
30
-1.1E-15
41
1
10
73.1477392866211
20
1.50831917611194
30
-1.1E-15
41
1
10
73.0783052529661
20
1.61174102351226
30
-1.1E-15
41
1
10
72.9308765466292
20
1.7575344047238
30
-1.1E-15
41
1
10
72.7719521204203
20
1.8688945230525
30
-1.1E-15
41
1
10
72.6020990334353
20
1.95056461406552
30
-1.1E-15
41
1
10
72.4720155785574
20
1.9814992170337
30
-1.1E-15
41
1
10
72.3963610509594
20
1.98382017712189
30
-1.1E-15
41
1
10
72.3750847619512
20
1.98295821455664
30
-1.1E-15
0
SPLINE
5
102
100
AcDbEntity
8
1
62
256
6
ByLayer
370
18
48
1
60
0
100
AcDbSpline
70
4
71
2
72
6
73
3
40
0
40
0
40
0
40
1
40
1
40
1
41
1
10
73.6624972635281
20
1.30105618155988
30
-1.1E-15
41
1
10
73.7082544862471
20
1.34359202678197
30
-1.1E-15
41
1
10
73.7154533989807
20
1.40243148284724
30
-1.1E-15
0
SPLINE
5
103
100
AcDbEntity
8
1
62
256
6
ByLayer
370
18
48
1
60
0
100
AcDbSpline
70
4
71
3
72
11
73
7
40
0
40
0
40
0
40
0
40
0.109167837739575
40
0.492555292075126
40
0.881068313959195
40
1
40
1
40
1
40
1
41
1
10
73.4785319706912
20
1.2481582494909
30
-1.1E-15
41
1
10
73.4866366415848
20
1.24745873955208
30
-1.1E-15
41
1
10
73.5226138399898
20
1.24564967003722
30
-1.1E-15
41
1
10
73.5844445187636
20
1.25370495379201
30
-1.1E-15
41
1
10
73.6348507993728
20
1.27822182716228
30
-1.1E-15
41
1
10
73.6574885838989
20
1.29649371706851
30
-1.1E-15
41
1
10
73.6624972635281
20
1.30105618155993
30
-1.1E-15
0
SPLINE
5
104
100
AcDbEntity
8
1
62
256
6
ByLayer
370
18
48
1
60
0
100
AcDbSpline
70
4
71
3
72
10
73
6
40
0
40
0
40
0
40
0
40
0.352335743638974
40
0.706671357207494
40
1
40
1
40
1
40
1
41
1
10
74.5174412635502
20
1.79633335111096
30
-1.1E-15
41
1
10
74.5551237122195
20
1.78950008989403
30
-1.1E-15
41
1
10
74.6288188927307
20
1.78693368171461
30
-1.1E-15
41
1
10
74.7368125948096
20
1.81458603116182
30
-1.1E-15
41
1
10
74.7928636767686
20
1.85165245708291
30
-1.1E-15
41
1
10
74.8165670932822
20
1.87232681935623
30
-1.1E-15
0
SPLINE
5
105
100
AcDbEntity
8
1
62
256
6
ByLayer
370
18
48
1
60
0
100
AcDbSpline
70
4
71
3
72
11
73
7
40
0
40
0
40
0
40
0
40
0.322760890944428
40
0.587494823440138
40
0.853780920199238
40
1
40
1
40
1
40
1
41
1
10
74.5174412635502
20
1.79633335111096
30
-1.1E-15
41
1
10
74.4382467802993
20
1.81050668605008
30
-1.1E-15
41
1
10
74.2958999058104
20
1.81801093271458
30
-1.1E-15
41
1
10
74.083087872245
20
1.78222004203145
30
-1.1E-15
41
1
10
73.9347559045445
20
1.71643443517934
30
-1.1E-15
41
1
10
73.8665665453428
20
1.66487641665013
30
-1.1E-15
41
1
10
73.8445652643749
20
1.64485152479815
30
-1.1E-15
0
SPLINE
5
106
100
AcDbEntity
8
1
62
256
6
ByLayer
370
18
48
1
60
0
100
AcDbSpline
70
4
71
3
72
10
73
6
40
0
40
0
40
0
40
0
40
0.167946782084619
40
0.75915403040778
40
1
40
1
40
1
40
1
41
1
10
73.8445652643751
20
1.64485152479835
30
-1.1E-15
41
1
10
73.8316517728553
20
1.63300163950467
30
-1.1E-15
41
1
10
73.7775629217542
20
1.57820531152496
30
-1.1E-15
41
1
10
73.7332773689866
20
1.49543035300849
30
-1.1E-15
41
1
10
73.7179724961271
20
1.42367814429386
30
-1.1E-15
41
1
10
73.7154533989806
20
1.40243148284705
30
-1.1E-15
0
SPLINE
5
107
100
AcDbEntity
8
1
62
256
6
ByLayer
370
18
48
1
60
0
100
AcDbSpline
70
4
71
2
72
6
73
3
40
0
40
0
40
0
40
1
40
1
40
1
41
1
10
72.1376203861946
20
3.83937954150174
30
-1.1E-15
41
1
10
72.1129749272295
20
3.81704067103424
30
-1.1E-15
41
1
10
72.0940314178306
20
3.78614663558367
30
-1.1E-15
0
SPLINE
5
108
100
AcDbEntity
8
1
62
256
6
ByLayer
370
18
48
1
60
0
100
AcDbSpline
70
4
71
3
72
10
73
6
40
0
40
0
40
0
40
0
40
0.352335743638922
40
0.706671357207438
40
1
40
1
40
1
40
1
41
1
10
72.3750847619424
20
3.85951972798847
30
-1.1E-15
41
1
10
72.3480772441187
20
3.87602239986229
30
-1.1E-15
41
1
10
72.2933510957097
20
3.89577106091156
30
-1.1E-15
41
1
10
72.2069983035922
20
3.88772116589078
30
-1.1E-15
41
1
10
72.1588052897178
20
3.85777262095441
30
-1.1E-15
41
1
10
72.1376203861945
20
3.83937954150165
30
-1.1E-15
0
SPLINE
5
109
100
AcDbEntity
8
1
62
256
6
ByLayer
370
18
48
1
60
0
100
AcDbSpline
70
4
71
3
72
11
73
7
40
0
40
0
40
0
40
0
40
0.109167837739496
40
0.492555292075063
40
0.881068313959055
40
1
40
1
40
1
40
1
41
1
10
73.4785319706913
20
4.46615362626985
30
-1.1E-15
41
1
10
73.4704258508677
20
4.46685182375998
30
-1.1E-15
41
1
10
73.4339894823406
20
4.4682449744706
30
-1.1E-15
41
1
10
73.3675297084308
20
4.45599663106183
30
-1.1E-15
41
1
10
73.3069695238173
20
4.42228229599276
30
-1.1E-15
41
1
10
73.277023511082
20
4.39739057306364
30
-1.1E-15
41
1
10
73.2702057305689
20
4.39118941511199
30
-1.1E-15
0
SPLINE
5
10A
100
AcDbEntity
8
1
62
256
6
ByLayer
370
18
48
1
60
0
100
AcDbSpline
70
4
71
3
72
11
73
7
40
0
40
0
40
0
40
0
40
0.32276089094442
40
0.587494823440103
40
0.853780920199229
40
1
40
1
40
1
40
1
41
1
10
72.3750847619424
20
3.85951972798847
30
-1.1E-15
41
1
10
72.4307611517267
20
3.82404357555259
30
-1.1E-15
41
1
10
72.5381663945385
20
3.78488900809511
30
-1.1E-15
41
1
10
72.7146574452154
20
3.78778015412513
30
-1.1E-15
41
1
10
72.8592019293117
20
3.85013503764493
30
-1.1E-15
41
1
10
72.9369447089075
20
3.91034659653912
30
-1.1E-15
41
1
10
72.9638215545887
20
3.93478780153445
30
-1.1E-15
0
SPLINE
5
10B
100
AcDbEntity
8
1
62
256
6
ByLayer
370
18
48
1
60
0
100
AcDbSpline
70
4
71
3
72
10
73
6
40
0
40
0
40
0
40
0
40
0.167946782084569
40
0.75915403040779
40
1
40
1
40
1
40
1
41
1
10
72.9638215545884
20
3.9347878015342
30
-1.1E-15
41
1
10
72.9796517805865
20
3.9492796808469
30
-1.1E-15
41
1
10
73.0482107123148
20
4.01718308688133
30
-1.1E-15
41
1
10
73.1225307825751
20
4.12716347536418
30
-1.1E-15
41
1
10
73.1659232742985
20
4.2243576026352
30
-1.1E-15
41
1
10
73.1770726265162
20
4.25342159625629
30
-1.1E-15
0
SPLINE
5
10C
100
AcDbEntity
8
1
62
256
6
ByLayer
370
18
48
1
60
0
100
AcDbSpline
70
4
71
2
72
6
73
3
40
0
40
0
40
0
40
1
40
1
40
1
41
1
10
74.8165670932821
20
1.87232681935613
30
-1.1E-15
41
1
10
74.8440618108041
20
1.89724656378436
30
-1.1E-15
41
1
10
74.8630325235518
20
1.92816524017708
30
-1.1E-15
0
SPLINE
5
10D
100
AcDbEntity
8
1
62
256
6
ByLayer
370
18
48
1
60
0
100
AcDbSpline
70
4
71
3
72
12
73
8
40
0
40
0
40
0
40
0
40
0.0628011180647114
40
0.28335216578329
40
0.50685180702386
40
0.744678285731753
40
1
40
1
40
1
40
1
41
1
10
74.8630325235518
20
1.92816524017705
30
-1.1E-15
41
1
10
74.8670978673222
20
1.93485599781886
30
-1.1E-15
41
1
10
74.8837270611743
20
1.96541137599748
30
-1.1E-15
41
1
10
74.9000360451872
20
2.02539778380406
30
-1.1E-15
41
1
10
74.8917688527767
20
2.10594392267855
30
-1.1E-15
41
1
10
74.8532773227057
20
2.18271243767112
30
-1.1E-15
41
1
10
74.8114786068988
20
2.22384223952696
30
-1.1E-15
41
1
10
74.7851569278636
20
2.24251557033688
30
-1.1E-15
0
SPLINE
5
10E
100
AcDbEntity
8
1
62
256
6
ByLayer
370
18
48
1
60
0
100
AcDbSpline
70
4
71
3
72
10
73
6
40
0
40
0
40
0
40
0
40
0.494854800060429
40
0.898971594879484
40
1
40
1
40
1
40
1
41
1
10
74.7851569278638
20
3.17904719541097
30
-1.1E-15
41
1
10
74.7226966672601
20
3.12354721999859
30
-1.1E-15
41
1
10
74.6312102708985
20
3.01199068212126
30
-1.1E-15
41
1
10
74.5655702185479
20
2.8589103609925
30
-1.1E-15
41
1
10
74.5502565595952
20
2.78003365909684
30
-1.1E-15
41
1
10
74.5477726830072
20
2.76407772664531
30
-1.1E-15
0
SPLINE
5
10F
100
AcDbEntity
8
1
62
256
6
ByLayer
370
18
48
1
60
0
100
AcDbSpline
70
4
71
3
72
11
73
7
40
0
40
0
40
0
40
0
40
0.282400928180151
40
0.566618863982835
40
0.824053620759844
40
1
40
1
40
1
40
1
41
1
10
74.7851569278637
20
3.17904719541097
30
-1.1E-15
41
1
10
74.8145163123503
20
3.20545422205814
30
-1.1E-15
41
1
10
74.8614162896475
20
3.26416256603475
30
-1.1E-15
41
1
10
74.8996108416671
20
3.3712741929035
30
-1.1E-15
41
1
10
74.8953639278586
20
3.47011261549705
30
-1.1E-15
41
1
10
74.8745055292749
20
3.52366283605724
30
-1.1E-15
41
1
10
74.8630325235517
20
3.54493353546363
30
-1.1E-15
0
SPLINE
5
110
100
AcDbEntity
8
1
62
256
6
ByLayer
370
18
48
1
60
0
100
AcDbSpline
70
4
71
3
72
10
73
6
40
0
40
0
40
0
40
0
40
0.420489505399815
40
0.841816614128224
40
1
40
1
40
1
40
1
41
1
10
74.5477726830072
20
2.60433590537495
30
-1.1E-15
41
1
10
74.5601464636968
20
2.53941914649965
30
-1.1E-15
41
1
10
74.6018626435923
20
2.42151880017807
30
-1.1E-15
41
1
10
74.6995573576646
20
2.30886640455036
30
-1.1E-15
41
1
10
74.7659957254768
20
2.25605123909922
30
-1.1E-15
41
1
10
74.7851569278639
20
2.24251557033665
30
-1.1E-15
0
SPLINE
5
111
100
AcDbEntity
8
1
62
256
6
ByLayer
370
18
48
1
60
0
100
AcDbSpline
70
4
71
2
72
6
73
3
40
0
40
0
40
0
40
1
40
1
40
1
41
1
10
73.270205730569
20
4.39118941511207
30
-1.1E-15
41
1
10
73.2076865461871
20
4.33347049347706
30
-1.1E-15
41
1
10
73.1770726265162
20
4.25342159625603
30
-1.1E-15
0
SPLINE
5
112
100
AcDbEntity
8
1
62
256
6
ByLayer
370
18
48
1
60
0
100
AcDbSpline
70
4
71
3
72
11
73
7
40
0
40
0
40
0
40
0
40
0.284186181053535
40
0.569985742254227
40
0.828961092406577
40
1
40
1
40
1
40
1
41
1
10
73.7154533989521
20
4.206522194546
30
-1.1E-15
41
1
10
73.7121557518286
20
4.24465692673164
30
-1.1E-15
41
1
10
73.6939721431341
20
4.31442410659884
30
-1.1E-15
41
1
10
73.6325001693571
20
4.40319264972943
30
-1.1E-15
41
1
10
73.5536702412941
20
4.45231152924359
30
-1.1E-15
41
1
10
73.5008212122517
20
4.46402696406174
30
-1.1E-15
41
1
10
73.478531970691
20
4.46615362626987
30
-1.1E-15
0
SPLINE
5
113
100
AcDbEntity
8
1
62
256
6
ByLayer
370
18
48
1
60
0
100
AcDbSpline
70
4
71
3
72
12
73
8
40
0
40
0
40
0
40
0
40
0.0573009716925096
40
0.280031064926579
40
0.505395285877971
40
0.744943740650497
40
1
40
1
40
1
40
1
41
1
10
74.8630325235519
20
3.54493353546345
30
-1.1E-15
41
1
10
74.8593492452081
20
3.55161146984189
30
-1.1E-15
41
1
10
74.8401517165498
20
3.58320296515969
30
-1.1E-15
41
1
10
74.7929977193516
20
3.63273407503642
30
-1.1E-15
41
1
10
74.7111776000378
20
3.67537359365506
30
-1.1E-15
41
1
10
74.6152550261251
20
3.69106777057885
30
-1.1E-15
41
1
10
74.5509600754374
20
3.6825681171403
30
-1.1E-15
41
1
10
74.5174412635455
20
3.67289486454704
30
-1.1E-15
0
SPLINE
5
114
100
AcDbEntity
8
1
62
256
6
ByLayer
370
18
48
1
60
0
100
AcDbSpline
70
4
71
3
72
13
73
9
40
0
40
0
40
0
40
0
40
0.212275459579554
40
0.386387479227184
40
0.561520337418417
40
0.714816097897485
40
0.917450657559717
40
1
40
1
40
1
40
1
41
1
10
73.715453398952
20
4.206522194546
30
-1.1E-15
41
1
10
73.7212686583809
20
4.1262310972444
30
-1.1E-15
41
1
10
73.7557446260091
20
3.99114404272745
30
-1.1E-15
41
1
10
73.8669154220964
20
3.81250804840362
30
-1.1E-15
41
1
10
74.0213536439437
20
3.69708430166459
30
-1.1E-15
41
1
10
74.2155693624117
20
3.63748201529559
30
-1.1E-15
41
1
10
74.3837574737559
20
3.64106281824823
30
-1.1E-15
41
1
10
74.4875347107194
20
3.66421556188423
30
-1.1E-15
41
1
10
74.5174412635462
20
3.67289486454726
30
-1.1E-15
0
SPLINE
5
115
100
AcDbEntity
8
1
62
256
6
ByLayer
370
18
48
1
60
0
100
AcDbSpline
70
4
71
2
72
6
73
3
40
0
40
0
40
0
40
1
40
1
40
1
41
1
10
79.7910772746065
20
-4.64983477065984
30
-1.1E-15
41
1
10
79.7913187584697
20
-4.69981621617334
30
-1.1E-15
41
1
10
79.7642823553194
20
-4.74749353533534
30
-1.1E-15
0
SPLINE
5
116
100
AcDbEntity
8
1
62
256
6
ByLayer
370
18
48
1
60
0
100
AcDbSpline
70
4
71
3
72
11
73
7
40
0
40
0
40
0
40
0
40
0.300131469786178
40
0.602612762189053
40
0.887113135918174
40
1
40
1
40
1
40
1
41
1
10
49.6660772743855
20
0.233441520294739
30
-1.1E-15
41
1
10
49.6857923173382
20
0.190042072937941
30
-1.1E-15
41
1
10
49.7133487929444
20
0.10005248270755
30
-1.1E-15
41
1
10
49.7204627616927
20
-0.0489548418719139
30
-1.1E-15
41
1
10
49.6955409020198
20
-0.160576396935567
30
-1.1E-15
41
1
10
49.6732030609144
20
-0.217613795898257
30
-1.1E-15
41
1
10
49.6660772743854
20
-0.233441520294958
30
-1.1E-15
0
SPLINE
5
117
100
AcDbEntity
8
1
62
256
6
ByLayer
370
18
48
1
60
0
100
AcDbSpline
70
4
71
1
72
4
73
2
40
0
40
0
40
1
40
1
41
1
10
49.9910772743855
20
-7.78761363636364
30
-1.1E-15
41
1
10
49.6660772743853
20
-8.06238636363663
30
-1.1E-15
0
SPLINE
5
118
100
AcDbEntity
8
1
62
256
6
ByLayer
370
18
48
1
60
0
100
AcDbSpline
70
4
71
1
72
4
73
2
40
0
40
0
40
1
40
1
41
1
10
49.6660772743855
20
6.36048076923079
30
-1.1E-15
41
1
10
49.9910772743857
20
6.12798076923065
30
-1.1E-15
0
SPLINE
5
119
100
AcDbEntity
8
1
62
256
6
ByLayer
370
18
48
1
60
0
100
AcDbSpline
70
4
71
3
72
16
73
12
40
0
40
0
40
0
40
0
40
0.0739721405036926
40
0.197922227745431
40
0.320856648769182
40
0.444181062770971
40
0.567124781887987
40
0.691018289380777
40
0.81529714192305
40
0.939206576439173
40
1
40
1
40
1
40
1
41
1
10
48.7410772747074
20
9.99999999868746
30
-1.1E-15
41
1
10
48.7411686643786
20
9.99954212494268
30
-1.1E-15
41
1
10
48.7460621660077
20
9.97946663444939
30
-1.1E-15
41
1
10
48.7737353107894
20
9.86701386528353
30
-1.1E-15
41
1
10
48.8356640585154
20
9.61531935427894
30
-1.1E-15
41
1
10
48.9255622444406
20
9.2524436292115
30
-1.1E-15
41
1
10
49.0432747335984
20
8.78117114487753
30
-1.1E-15
41
1
10
49.1889590287013
20
8.20354347334336
30
-1.1E-15
41
1
10
49.3608054300479
20
7.53078029680431
30
-1.1E-15
41
1
10
49.5240334049401
20
6.90087215797438
30
-1.1E-15
41
1
10
49.6301850466326
20
6.4966859192051
30
-1.1E-15
41
1
10
49.6660772743864
20
6.36048076922742
30
-1.1E-15
0
SPLINE
5
11A
100
AcDbEntity
8
1
62
256
6
ByLayer
370
18
48
1
60
0
100
AcDbSpline
70
4
71
3
72
17
73
13
40
0
40
0
40
0
40
0
40
0.110313799728277
40
0.220940583178173
40
0.330618613926324
40
0.437476100623049
40
0.541793365594077
40
0.644970783656661
40
0.748815706402413
40
0.854807903948045
40
0.963557824794985
40
1
40
1
40
1
40
1
41
1
10
-30.2589227256145
20
-0.233441520294709
30
-1.1E-15
41
1
10
-30.2872551670811
20
-0.233227163584786
30
-1.1E-15
41
1
10
-30.3405468337445
20
-0.224358672719381
30
-1.1E-15
41
1
10
-30.4140094333736
20
-0.184218779096688
30
-1.1E-15
41
1
10
-30.4684767863966
20
-0.122648088682759
30
-1.1E-15
41
1
10
-30.4983432810099
20
-0.0476069931041186
30
-1.1E-15
41
1
10
-30.5009772419505
20
0.031414317552945
30
-1.1E-15
41
1
10
-30.4774186226898
20
0.106032827609947
30
-1.1E-15
41
1
10
-30.430483887983
20
0.169129108766163
30
-1.1E-15
41
1
10
-30.3646412718273
20
0.214441810512251
30
-1.1E-15
41
1
10
-30.3036268714581
20
0.231498914763651
30
-1.1E-15
41
1
10
-30.2679795678656
20
0.233437183258195
30
-1.1E-15
41
1
10
-30.2589227256141
20
0.233441520294703
30
-1.1E-15
0
SPLINE
5
11B
100
AcDbEntity
8
1
62
256
6
ByLayer
370
18
48
1
60
0
100
AcDbSpline
70
4
71
3
72
13
73
9
40
0
40
0
40
0
40
0
40
0.176470132021065
40
0.349478544674269
40
0.523025032172403
40
0.696022581985899
40
0.870035447476522
40
1
40
1
40
1
40
1
41
1
10
49.6660772743855
20
-8.0623863636365
30
-1.1E-15
41
1
10
49.6170608463884
20
-8.28246593078758
30
-1.1E-15
41
1
10
49.5281942501753
20
-8.68277625091693
30
-1.1E-15
41
1
10
49.4192173859038
20
-9.17923707656646
30
-1.1E-15
41
1
10
49.3355099918214
20
-9.56335231677843
30
-1.1E-15
41
1
10
49.2766310561531
20
-9.83535759623525
30
-1.1E-15
41
1
10
49.247029819571
20
-9.97221256166906
30
-1.1E-15
41
1
10
49.2411675510531
20
-9.99948392713771
30
-1.1E-15
41
1
10
49.2410772756227
20
-9.99999999426377
30
-1.1E-15
0
SPLINE
5
11C
100
AcDbEntity
8
1
62
256
6
ByLayer
370
18
48
1
60
0
100
AcDbSpline
70
4
71
3
72
10
73
6
40
0
40
0
40
0
40
0
40
0.393816623611652
40
0.695142824939536
40
1
40
1
40
1
40
1
41
1
10
78.9580858501405
20
-7.78761363636364
30
-1.1E-15
41
1
10
79.0977587762227
20
-7.61922736166461
30
-1.1E-15
41
1
10
79.3187074358355
20
-7.29802263118181
30
-1.1E-15
41
1
10
79.5779121596151
20
-6.77455936403765
30
-1.1E-15
41
1
10
79.6929421766277
20
-6.42567430389932
30
-1.1E-15
41
1
10
79.7410772743857
20
-6.24215674164836
30
-1.1E-15
0
SPLINE
5
11D
100
AcDbEntity
8
1
62
256
6
ByLayer
370
18
48
1
60
0
100
AcDbSpline
70
4
71
3
72
13
73
9
40
0
40
0
40
0
40
0
40
0.165257192189819
40
0.321175525047112
40
0.4781946351157
40
0.612102197281343
40
0.788390448541652
40
1
40
1
40
1
40
1
41
1
10
66.380602784076
20
-7.78761363636363
30
-1.1E-15
41
1
10
66.3876272020815
20
-7.73218392880005
30
-1.1E-15
41
1
10
66.4263451205405
20
-7.62976710091939
30
-1.1E-15
41
1
10
66.5515202144682
20
-7.48190127305841
30
-1.1E-15
41
1
10
66.7439118071841
20
-7.37787024131141
30
-1.1E-15
41
1
10
66.9906840916796
20
-7.32419798825835
30
-1.1E-15
41
1
10
67.2822886717323
20
-7.3295293270029
30
-1.1E-15
41
1
10
67.483811304476
20
-7.36758796047046
30
-1.1E-15
41
1
10
67.5920105573468
20
-7.40096889854896
30
-1.1E-15
0
SPLINE
5
11E
100
AcDbEntity
8
1
62
256
6
ByLayer
370
18
48
1
60
0
100
AcDbSpline
70
4
71
3
72
10
73
6
40
0
40
0
40
0
40
0
40
0.396694297823038
40
0.789561919437897
40
1
40
1
40
1
40
1
41
1
10
60.264441119311
20
6.12798076923077
30
-1.1E-15
41
1
10
60.1755246377951
20
6.09900945352439
30
-1.1E-15
41
1
10
59.9976801595621
20
6.06366228720024
30
-1.1E-15
41
1
10
59.7597418972097
20
6.08547938291397
30
-1.1E-15
41
1
10
59.6249125089603
20
6.11500390588408
30
-1.1E-15
41
1
10
59.5782446487482
20
6.12798076922976
30
-1.1E-15
0
SPLINE
5
11F
100
AcDbEntity
8
1
62
256
6
ByLayer
370
18
48
1
60
0
100
AcDbSpline
70
4
71
3
72
12
73
8
40
0
40
0
40
0
40
0
40
0.20325200903908
40
0.516173051915433
40
0.704460735885455
40
0.892495837126999
40
1
40
1
40
1
40
1
41
1
10
59.5782446487485
20
6.12798076923077
30
-1.1E-15
41
1
10
59.475747083374
20
6.14866485585224
30
-1.1E-15
41
1
10
59.2291158435881
20
6.21325682081502
30
-1.1E-15
41
1
10
58.9310842808661
20
6.35158182933241
30
-1.1E-15
41
1
10
58.6983045130152
20
6.51353798727938
30
-1.1E-15
41
1
10
58.570761791044
20
6.63988439925942
30
-1.1E-15
41
1
10
58.5174116929676
20
6.72034246069023
30
-1.1E-15
41
1
10
58.5008763031299
20
6.75018731782273
30
-1.1E-15
0
SPLINE
5
120
100
AcDbEntity
8
1
62
256
6
ByLayer
370
18
48
1
60
0
100
AcDbSpline
70
4
71
3
72
22
73
18
40
0
40
0
40
0
40
0
40
0.0304378255767116
40
0.0679648579419302
40
0.128706281626575
40
0.189977759113222
40
0.251413122456705
40
0.378439290045215
40
0.505654660084709
40
0.61923764824345
40
0.732592438138245
40
0.812459546774585
40
0.852756930744443
40
0.892971610641754
40
0.939440306962475
40
0.986361268160082
40
1
40
1
40
1
40
1
41
1
10
70.264333832716
20
8.74999286486166
30
-1.1E-15
41
1
10
70.2633613701794
20
8.74992214586697
30
-1.1E-15
41
1
10
70.2380784329846
20
8.74860160958849
30
-1.1E-15
41
1
10
70.0689792534181
20
8.73975544726498
30
-1.1E-15
41
1
10
69.760476176322
20
8.72461834943412
30
-1.1E-15
41
1
10
69.3545381761673
20
8.70699987053967
30
-1.1E-15
41
1
10
68.7646833877398
20
8.68489338331661
30
-1.1E-15
41
1
10
67.9830230805246
20
8.66393375600727
30
-1.1E-15
41
1
10
67.0514278406368
20
8.65339618899408
30
-1.1E-15
41
1
10
66.1525669365631
20
8.6590034267132
30
-1.1E-15
41
1
10
65.3861312787393
20
8.67672393565748
30
-1.1E-15
41
1
10
64.8305183985699
20
8.69848613968016
30
-1.1E-15
41
1
10
64.4784102279847
20
8.71565358448595
30
-1.1E-15
41
1
10
64.2254353151978
20
8.72949948681734
30
-1.1E-15
41
1
10
64.0063800600597
20
8.74290234622511
30
-1.1E-15
41
1
10
63.9086855549461
20
8.74937283949472
30
-1.1E-15
41
1
10
63.8992728385525
20
8.74998414744422
30
-1.1E-15
41
1
10
63.8990957101157
20
8.74999999999947
30
-1.1E-15
0
SPLINE
5
121
100
AcDbEntity
8
1
62
256
6
ByLayer
370
18
48
1
60
0
100
AcDbSpline
70
4
71
3
72
12
73
8
40
0
40
0
40
0
40
0
40
0.166924522200723
40
0.407288236338073
40
0.649042597497856
40
0.859732757225685
40
1
40
1
40
1
40
1
41
1
10
58.5008763031301
20
6.75018731782231
30
-1.1E-15
41
1
10
58.4794138780378
20
6.78836256927
30
-1.1E-15
41
1
10
58.4456641091666
20
6.88040995100539
30
-1.1E-15
41
1
10
58.4561706623515
20
7.02904154322081
30
-1.1E-15
41
1
10
58.5761965648802
20
7.16898398226041
30
-1.1E-15
41
1
10
58.7595025642335
20
7.25737629585996
30
-1.1E-15
41
1
10
58.8884275978303
20
7.29255337153542
30
-1.1E-15
41
1
10
58.9442087650766
20
7.3040372836166
30
-1.1E-15
0
SPLINE
5
122
100
AcDbEntity
8
1
62
256
6
ByLayer
370
18
48
1
60
0
100
AcDbSpline
70
4
71
2
72
6
73
3
40
0
40
0
40
0
40
1
40
1
40
1
41
1
10
66.3943978722608
20
-8.01985546321777
30
-1.1E-15
41
1
10
66.3313826703264
20
-7.90754744638132
30
-1.1E-15
41
1
10
66.380602784076
20
-7.78761363636351
30
-1.1E-15
0
SPLINE
5
123
100
AcDbEntity
8
1
62
256
6
ByLayer
370
18
48
1
60
0
100
AcDbSpline
70
4
71
1
72
4
73
2
40
0
40
0
40
1
40
1
41
1
10
60.3493499630075
20
6.15119285181483
30
-1.1E-15
41
1
10
60.264441119311
20
6.12798076923075
30
-1.1E-15
0
SPLINE
5
124
100
AcDbEntity
8
1
62
256
6
ByLayer
370
18
48
1
60
0
100
AcDbSpline
70
4
71
3
72
12
73
8
40
0
40
0
40
0
40
0
40
0.203966994999753
40
0.530965432502455
40
0.710189317640491
40
0.889316700861931
40
1
40
1
40
1
40
1
41
1
10
67.368473646596
20
-8.45909268985016
30
-1.1E-15
41
1
10
67.2701586760473
20
-8.44581077891908
30
-1.1E-15
41
1
10
67.030026741975
20
-8.40221078111627
30
-1.1E-15
41
1
10
66.7533070505575
20
-8.31062814894782
30
-1.1E-15
41
1
10
66.552645036643
20
-8.19609158919423
30
-1.1E-15
41
1
10
66.4496308540522
20
-8.1053670236097
30
-1.1E-15
41
1
10
66.4075632105706
20
-8.0440778844114
30
-1.1E-15
41
1
10
66.3943978722608
20
-8.01985546321743
30
-1.1E-15
0
SPLINE
5
125
100
AcDbEntity
8
1
62
256
6
ByLayer
370
18
48
1
60
0
100
AcDbSpline
70
4
71
1
72
4
73
2
40
0
40
0
40
1
40
1
41
1
10
78.2410772743855
20
8.57820607292359
30
-1.1E-15
41
1
10
77.203077274385
20
8.48537293823253
30
-1.1E-15
0
SPLINE
5
126
100
AcDbEntity
8
1
62
256
6
ByLayer
370
18
48
1
60
0
100
AcDbSpline
70
4
71
3
72
10
73
6
40
0
40
0
40
0
40
0
40
0.460775818976238
40
0.791430142850809
40
1
40
1
40
1
40
1
41
1
10
77.756762699335
20
8.47399242154396
30
-1.1E-15
41
1
10
77.8059155951237
20
8.49248302652776
30
-1.1E-15
41
1
10
77.9100970228928
20
8.51855438046129
30
-1.1E-15
41
1
10
78.0883858161013
20
8.54142487026259
30
-1.1E-15
41
1
10
78.1969553344251
20
8.54722291961082
30
-1.1E-15
41
1
10
78.2410772743858
20
8.54864915513781
30
-1.1E-15
0
SPLINE
5
127
100
AcDbEntity
8
1
62
256
6
ByLayer
370
18
48
1
60
0
100
AcDbSpline
70
4
71
1
72
4
73
2
40
0
40
0
40
1
40
1
41
1
10
76.214700245376
20
-9.234778792367
30
-1.1E-15
41
1
10
76.4623545829961
20
-9.20530698824199
30
-1.1E-15
0
SPLINE
5
128
100
AcDbEntity
8
1
62
256
6
ByLayer
370
18
48
1
60
0
100
AcDbSpline
70
4
71
3
72
11
73
7
40
0
40
0
40
0
40
0
40
0.281074805819087
40
0.563537838198671
40
0.781344669006901
40
1
40
1
40
1
40
1
41
1
10
77.450694732287
20
-8.92273569864636
30
-1.1E-15
41
1
10
77.6075532662017
20
-8.85558537705402
30
-1.1E-15
41
1
10
77.9138733246162
20
-8.69902110038996
30
-1.1E-15
41
1
10
78.3189342952571
20
-8.42177436286181
30
-1.1E-15
41
1
10
78.6680870137578
20
-8.11557827248889
30
-1.1E-15
41
1
10
78.8638020250398
20
-7.90170441088537
30
-1.1E-15
41
1
10
78.9580858501411
20
-7.78761363636286
30
-1.1E-15
0
SPLINE
5
129
100
AcDbEntity
8
1
62
256
6
ByLayer
370
18
48
1
60
0
100
AcDbSpline
70
4
71
1
72
4
73
2
40
0
40
0
40
1
40
1
41
1
10
78.2410772743855
20
8.68902569645105
30
-1.1E-15
41
1
10
78.322448124284
20
8.7160920917708
30
-1.1E-15
0
SPLINE
5
12A
100
AcDbEntity
8
1
62
256
6
ByLayer
370
18
48
1
60
0
100
AcDbSpline
70
4
71
1
72
4
73
2
40
0
40
0
40
1
40
1
41
1
10
78.610720838819
20
8.82480264795723
30
-1.1E-15
41
1
10
78.3224481242838
20
8.71609209177073
30
-1.1E-15
0
SPLINE
5
12B
100
AcDbEntity
8
1
62
256
6
ByLayer
370
18
48
1
60
0
100
AcDbSpline
70
4
71
3
72
10
73
6
40
0
40
0
40
0
40
0
40
0.366635283254778
40
0.733589784054586
40
1
40
1
40
1
40
1
41
1
10
79.371433709952
20
8.82480264795723
30
-1.1E-15
41
1
10
79.2815108572461
20
8.85765990918446
30
-1.1E-15
41
1
10
79.0997536899981
20
8.89930994618252
30
-1.1E-15
41
1
10
78.829782797789
20
8.88991393454224
30
-1.1E-15
41
1
10
78.6748689852095
20
8.84852848171599
30
-1.1E-15
41
1
10
78.6107208388186
20
8.82480264795709
30
-1.1E-15
0
SPLINE
5
12C
100
AcDbEntity
8
1
62
256
6
ByLayer
370
18
48
1
60
0
100
AcDbSpline
70
4
71
1
72
4
73
2
40
0
40
0
40
1
40
1
41
1
10
79.7410772743855
20
8.68493645719196
30
-1.1E-15
41
1
10
79.3714337099518
20
8.8248026479573
30
-1.1E-15
0
SPLINE
5
12D
100
AcDbEntity
8
1
62
256
6
ByLayer
370
18
48
1
60
0
100
AcDbSpline
70
4
71
1
72
4
73
2
40
0
40
0
40
1
40
1
41
1
10
78.209134876162
20
8.70664528014028
30
-1.1E-15
41
1
10
78.1574296628015
20
8.56429778677005
30
-1.1E-15
0
SPLINE
5
12E
100
AcDbEntity
8
1
62
256
6
ByLayer
370
18
48
1
60
0
100
AcDbSpline
70
4
71
2
72
6
73
3
40
0
40
0
40
0
40
1
40
1
40
1
41
0.50059616150477
10
72.2485417910121
20
2.80462640370826
30
-1.1E-15
41
0.49940383849523
10
72.2430458411368
20
2.88497607728265
30
-1.1E-15
41
0.50059616150477
10
72.2485417910121
20
2.96436822497885
30
-1.1E-15
0
SPLINE
5
12F
100
AcDbEntity
8
1
62
256
6
ByLayer
370
18
48
1
60
0
100
AcDbSpline
70
4
71
2
72
6
73
3
40
0
40
0
40
0
40
1
40
1
40
1
41
0.500988734182103
10
73.5271346470968
20
1.3573221638965
30
-1.1E-15
41
0.499011265817897
10
73.4856021612849
20
1.31970181143489
30
-1.1E-15
41
0.500988734182103
10
73.4519809872116
20
1.27466274701565
30
-1.1E-15
0
SPLINE
5
130
100
AcDbEntity
8
1
62
256
6
ByLayer
370
18
48
1
60
0
100
AcDbSpline
70
4
71
2
72
6
73
3
40
0
40
0
40
0
40
1
40
1
40
1
41
0.502073499603602
10
72.5112823788402
20
3.55532849431023
30
-1.1E-15
41
0.497926500396398
10
72.5847281294508
20
3.59140188102593
30
-1.1E-15
41
0.502073499603602
10
72.6450042425616
20
3.64600031345575
30
-1.1E-15
0
SPLINE
5
131
100
AcDbEntity
8
1
62
256
6
ByLayer
370
18
48
1
60
0
100
AcDbSpline
70
4
71
2
72
6
73
3
40
0
40
0
40
0
40
1
40
1
40
1
41
0.506557525361551
10
74.4928063013774
20
1.80371046097873
30
-1.1E-15
41
0.493442474638449
10
74.4715156755132
20
1.8669864309496
30
-1.1E-15
41
0.506557525361551
10
74.4254784984554
20
1.91671688473767
30
-1.1E-15
0
SPLINE
5
132
100
AcDbEntity
8
1
62
256
6
ByLayer
370
18
48
1
60
0
100
AcDbSpline
70
4
71
2
72
6
73
3
40
0
40
0
40
0
40
1
40
1
40
1
41
0.50059616150477
10
74.5477726830071
20
2.76407772664555
30
-1.1E-15
41
0.49940383849523
10
74.5532686328825
20
2.68372805307136
30
-1.1E-15
41
0.50059616150477
10
74.5477726830071
20
2.60433590537495
30
-1.1E-15
0
SPLINE
5
133
100
AcDbEntity
8
1
62
256
6
ByLayer
370
18
48
1
60
0
100
AcDbSpline
70
4
71
2
72
6
73
3
40
0
40
0
40
0
40
1
40
1
40
1
41
0.50059616150477
10
74.2356848908267
20
2.48138690014476
30
-1.1E-15
41
0.49940383849523
10
74.241180840702
20
2.40103722657039
30
-1.1E-15
41
0.50059616150477
10
74.2356848908267
20
2.32164507887418
30
-1.1E-15
0
SPLINE
5
134
100
AcDbEntity
8
1
62
256
6
ByLayer
370
18
48
1
60
0
100
AcDbSpline
70
4
71
2
72
6
73
3
40
0
40
0
40
0
40
1
40
1
40
1
41
0.501241267205322
10
79.7642823553829
20
-4.74749353534644
30
-1.1E-15
41
0.498758732794678
10
79.7542925477427
20
-4.7647016028877
30
-1.1E-15
41
0.501241267205322
10
79.7410772743855
20
-4.77960422650465
30
-1.1E-15
0
SPLINE
5
135
100
AcDbEntity
8
1
62
256
6
ByLayer
370
18
48
1
60
0
100
AcDbSpline
70
4
71
2
72
6
73
3
40
0
40
0
40
0
40
1
40
1
40
1
41
0.503827133269664
10
78.415931248779
20
9.54611091425543
30
-1.1E-15
41
0.496172866730336
10
78.3910772744086
20
9.53805993846686
30
-1.1E-15
41
0.503827133269664
10
78.3646282272935
20
9.53805993854438
30
-1.1E-15
0
SPLINE
5
136
100
AcDbEntity
8
1
62
256
6
ByLayer
370
18
48
1
60
0
100
AcDbSpline
70
4
71
2
72
6
73
3
40
0
40
0
40
0
40
1
40
1
40
1
41
0.503827133270205
10
79.5662232999919
20
9.54611091425543
30
-1.1E-15
41
0.496172866729795
10
79.5910772743623
20
9.53805993846686
30
-1.1E-15
41
0.503827133270205
10
79.6175263214775
20
9.53805993854438
30
-1.1E-15
0
LINE
5
70
100
AcDbEntity
8
1
62
256
6
ByLayer
370
18
48
1
60
0
100
AcDbLine
10
73.550684
20
1.253182
30
0
11
73.715453
21
1.402431
31
0
39
0
210
0
220
0
230
1
0
LINE
5
72
100
AcDbEntity
8
1
62
256
6
ByLayer
370
18
48
1
60
0
100
AcDbLine
10
73.846391
20
1.646507
30
0
11
73.527135
21
1.357322
31
0
39
0
210
0
220
0
230
1
0
LINE
5
73
100
AcDbEntity
8
1
62
256
6
ByLayer
370
18
48
1
60
0
100
AcDbLine
10
72.054826
20
3.569428
30
0
11
72.375085
21
3.85952
31
0
39
0
210
0
220
0
230
1
0
LINE
5
74
100
AcDbEntity
8
1
62
256
6
ByLayer
370
18
48
1
60
0
100
AcDbLine
10
72.645004
20
3.646
30
0
11
72.964261
21
3.935185
31
0
39
0
210
0
220
0
230
1
0
LINE
5
75
100
AcDbEntity
8
1
62
256
6
ByLayer
370
18
48
1
60
0
100
AcDbLine
10
74.425478
20
1.916717
30
0
11
74.785157
21
2.242516
31
0
39
0
210
0
220
0
230
1
0
LINE
5
76
100
AcDbEntity
8
1
62
256
6
ByLayer
370
18
48
1
60
0
100
AcDbLine
10
75.377982
20
-0.549473
30
0
11
75.496462
21
-0.442154
31
0
39
0
210
0
220
0
230
1
0
LINE
5
77
100
AcDbEntity
8
1
62
256
6
ByLayer
370
18
48
1
60
0
100
AcDbLine
10
70.394289
20
5.190593
30
0
11
70.27581
21
5.083274
31
0
39
0
210
0
220
0
230
1
0
LINE
5
78
100
AcDbEntity
8
1
62
256
6
ByLayer
370
18
48
1
60
0
100
AcDbLine
10
74.235685
20
2.321645
30
0
11
74.547773
21
2.604336
31
0
39
0
210
0
220
0
230
1
0
LINE
5
79
100
AcDbEntity
8
1
62
256
6
ByLayer
370
18
48
1
60
0
100
AcDbLine
10
73.35526
20
3.880257
30
0
11
73.715453
21
4.206522
31
0
39
0
210
0
220
0
230
1
0
LINE
5
7A
100
AcDbEntity
8
1
62
256
6
ByLayer
370
18
48
1
60
0
100
AcDbLine
10
74.157248
20
3.34663
30
0
11
74.517441
21
3.672895
31
0
39
0
210
0
220
0
230
1
0
LINE
5
7B
100
AcDbEntity
8
1
62
256
6
ByLayer
370
18
48
1
60
0
100
AcDbLine
10
74.547773
20
2.764078
30
0
11
74.235685
21
2.481387
31
0
39
0
210
0
220
0
230
1
0
LINE
5
7C
100
AcDbEntity
8
1
62
256
6
ByLayer
370
18
48
1
60
0
100
AcDbLine
10
74.785157
20
3.179047
30
0
11
74.425533
21
2.853298
31
0
39
0
210
0
220
0
230
1
0
LINE
5
7D
100
AcDbEntity
8
1
62
256
6
ByLayer
370
18
48
1
60
0
100
AcDbLine
10
74.425478
20
2.853249
30
0
11
74.785157
21
3.179047
31
0
39
0
210
0
220
0
230
1
0
LINE
5
7E
100
AcDbEntity
8
1
62
256
6
ByLayer
370
18
48
1
60
0
100
AcDbLine
10
79.741077
20
1.291891
30
0
11
79.791077
21
1.291891
31
0
39
0
210
0
220
0
230
1
0
LINE
5
7F
100
AcDbEntity
8
1
62
256
6
ByLayer
370
18
48
1
60
0
100
AcDbLine
10
79.791077
20
0.133267
30
0
11
79.741077
21
0.133267
31
0
39
0
210
0
220
0
230
1
0
LINE
5
80
100
AcDbEntity
8
1
62
256
6
ByLayer
370
18
48
1
60
0
100
AcDbLine
10
79.791077
20
1.291891
30
0
11
79.791077
21
0.133267
31
0
39
0
210
0
220
0
230
1
0
LINE
5
81
100
AcDbEntity
8
1
62
256
6
ByLayer
370
18
48
1
60
0
100
AcDbLine
10
79.617526
20
9.53806
30
0
11
79.791077
21
9.53806
31
0
39
0
210
0
220
0
230
1
0
LINE
5
82
100
AcDbEntity
8
1
62
256
6
ByLayer
370
18
48
1
60
0
100
AcDbLine
10
79.617526
20
9.53806
30
0
11
79.617526
21
8.731686
31
0
39
0
210
0
220
0
230
1
0
LINE
5
83
100
AcDbEntity
8
1
62
256
6
ByLayer
370
18
48
1
60
0
100
AcDbLine
10
79.791077
20
1.291891
30
0
11
79.791077
21
9.53806
31
0
39
0
210
0
220
0
230
1
0
LINE
5
84
100
AcDbEntity
8
1
62
256
6
ByLayer
370
18
48
1
60
0
100
AcDbLine
10
78.364628
20
9.53806
30
0
11
78.364628
21
8.731999
31
0
39
0
210
0
220
0
230
1
0
LINE
5
85
100
AcDbEntity
8
1
62
256
6
ByLayer
370
18
48
1
60
0
100
AcDbLine
10
78.415931
20
9.546111
30
0
11
78.415931
21
8.751346
31
0
39
0
210
0
220
0
230
1
0
LINE
5
86
100
AcDbEntity
8
1
62
256
6
ByLayer
370
18
48
1
60
0
100
AcDbLine
10
79.566223
20
9.546111
30
0
11
79.566223
21
8.751098
31
0
39
0
210
0
220
0
230
1
0
LINE
5
87
100
AcDbEntity
8
1
62
256
6
ByLayer
370
18
48
1
60
0
100
AcDbLine
10
78.364628
20
9.53806
30
0
11
78.191077
21
9.53806
31
0
39
0
210
0
220
0
230
1
0
LINE
5
88
100
AcDbEntity
8
1
62
256
6
ByLayer
370
18
48
1
60
0
100
AcDbLine
10
78.191077
20
8.573734
30
0
11
78.191077
21
9.53806
31
0
39
0
210
0
220
0
230
1
0
LINE
5
89
100
AcDbEntity
8
1
62
256
6
ByLayer
370
18
48
1
60
0
100
AcDbLine
10
79.162087
20
9.677023
30
0
11
79.162087
21
8.872162
31
0
39
0
210
0
220
0
230
1
0
LINE
5
8A
100
AcDbEntity
8
1
62
256
6
ByLayer
370
18
48
1
60
0
100
AcDbLine
10
79.162087
20
9.677023
30
0
11
79.566223
21
9.546111
31
0
39
0
210
0
220
0
230
1
0
LINE
5
8B
100
AcDbEntity
8
1
62
256
6
ByLayer
370
18
48
1
60
0
100
AcDbLine
10
78.820067
20
9.677023
30
0
11
78.415931
21
9.546111
31
0
39
0
210
0
220
0
230
1
0
LINE
5
8C
100
AcDbEntity
8
1
62
256
6
ByLayer
370
18
48
1
60
0
100
AcDbLine
10
78.820067
20
9.677023
30
0
11
78.820067
21
8.877497
31
0
39
0
210
0
220
0
230
1
0
LINE
5
8D
100
AcDbEntity
8
1
62
256
6
ByLayer
370
18
48
1
60
0
100
AcDbLine
10
79.791077
20
-1.443907
30
0
11
79.869017
21
-1.656872
31
0
39
0
210
0
220
0
230
1
0
LINE
5
8E
100
AcDbEntity
8
1
62
256
6
ByLayer
370
18
48
1
60
0
100
AcDbLine
10
79.869017
20
-1.656872
30
0
11
79.990887
21
-4.432857
31
0
39
0
210
0
220
0
230
1
0
LINE
5
8F
100
AcDbEntity
8
1
62
256
6
ByLayer
370
18
48
1
60
0
100
AcDbLine
10
79.741077
20
-4.640438
30
0
11
79.791077
21
-4.640438
31
0
39
0
210
0
220
0
230
1
0
LINE
5
90
100
AcDbEntity
8
1
62
256
6
ByLayer
370
18
48
1
60
0
100
AcDbLine
10
79.791077
20
-1.443907
30
0
11
79.791077
21
0.133267
31
0
39
0
210
0
220
0
230
1
0
LINE
5
91
100
AcDbEntity
8
1
62
256
6
ByLayer
370
18
48
1
60
0
100
AcDbLine
10
79.791077
20
10.476295
30
0
11
78.191077
21
10.476295
31
0
39
0
210
0
220
0
230
1
0
LINE
5
92
100
AcDbEntity
8
1
62
256
6
ByLayer
370
18
48
1
60
0
100
AcDbLine
10
78.191077
20
9.53806
30
0
11
78.191077
21
10.476295
31
0
39
0
210
0
220
0
230
1
0
LINE
5
93
100
AcDbEntity
8
1
62
256
6
ByLayer
370
18
48
1
60
0
100
AcDbLine
10
79.791077
20
9.53806
30
0
11
79.791077
21
10.476295
31
0
39
0
210
0
220
0
230
1
0
LINE
5
94
100
AcDbEntity
8
1
62
256
6
ByLayer
370
18
48
1
60
0
100
AcDbLine
10
78.191077
20
12.053469
30
0
11
78.113137
21
12.266434
31
0
39
0
210
0
220
0
230
1
0
LINE
5
95
100
AcDbEntity
8
1
62
256
6
ByLayer
370
18
48
1
60
0
100
AcDbLine
10
78.113137
20
12.266434
30
0
11
77.991268
21
15.04242
31
0
39
0
210
0
220
0
230
1
0
LINE
5
96
100
AcDbEntity
8
1
62
256
6
ByLayer
370
18
48
1
60
0
100
AcDbLine
10
78.191077
20
15.25
30
0
11
79.791077
21
15.25
31
0
39
0
210
0
220
0
230
1
0
LINE
5
97
100
AcDbEntity
8
1
62
256
6
ByLayer
370
18
48
1
60
0
100
AcDbLine
10
79.869017
20
12.266434
30
0
11
79.990887
21
15.04242
31
0
39
0
210
0
220
0
230
1
0
LINE
5
98
100
AcDbEntity
8
1
62
256
6
ByLayer
370
18
48
1
60
0
100
AcDbLine
10
79.791077
20
12.053469
30
0
11
79.869017
21
12.266434
31
0
39
0
210
0
220
0
230
1
0
LINE
5
99
100
AcDbEntity
8
1
62
256
6
ByLayer
370
18
48
1
60
0
100
AcDbLine
10
78.191077
20
12.053469
30
0
11
78.191077
21
10.476295
31
0
39
0
210
0
220
0
230
1
0
LINE
5
9A
100
AcDbEntity
8
1
62
256
6
ByLayer
370
18
48
1
60
0
100
AcDbLine
10
79.791077
20
12.053469
30
0
11
79.791077
21
10.476295
31
0
39
0
210
0
220
0
230
1
0
LINE
5
9B
100
AcDbEntity
8
1
62
256
6
ByLayer
370
18
48
1
60
0
100
AcDbLine
10
79.791077
20
-4.649835
30
0
11
79.791077
21
-4.640438
31
0
39
0
210
0
220
0
230
1
0
LINE
5
9C
100
AcDbEntity
8
1
62
256
6
ByLayer
370
18
48
1
60
0
100
AcDbLine
10
49.666077
20
-0.233442
30
0
11
-30.258923
21
-0.233442
31
0
39
0
210
0
220
0
230
1
0
LINE
5
9D
100
AcDbEntity
8
1
62
256
6
ByLayer
370
18
48
1
60
0
100
AcDbLine
10
-30.258923
20
0.233442
30
0
11
49.666077
21
0.233442
31
0
39
0
210
0
220
0
230
1
0
LINE
5
9E
100
AcDbEntity
8
SK1
62
256
6
ByLayer
370
18
48
1
60
0
100
AcDbLine
10
-98.008923
20
10
30
0
11
-100.008923
21
8
31
0
39
0
210
0
220
0
230
1
0
LINE
5
A0
100
AcDbEntity
8
SK1
62
256
6
ByLayer
370
18
48
1
60
0
100
AcDbLine
10
-100.008923
20
-8
30
0
11
-98.008923
21
-10
31
0
39
0
210
0
220
0
230
1
0
LINE
5
A1
100
AcDbEntity
8
1
62
256
6
ByLayer
370
18
48
1
60
0
100
AcDbLine
10
48.744848
20
10
30
0
11
48.741077
21
10
31
0
39
0
210
0
220
0
230
1
0
LINE
5
A2
100
AcDbEntity
8
1
62
256
6
ByLayer
370
18
48
1
60
0
100
AcDbLine
10
48.741077
20
10
30
0
11
0
21
10
31
0
39
0
210
0
220
0
230
1
0
LINE
5
A3
100
AcDbEntity
8
SK1
62
256
6
ByLayer
370
18
48
1
60
0
100
AcDbLine
10
-98.008923
20
-10
30
0
11
0
21
-10
31
0
39
0
210
0
220
0
230
1
0
LINE
5
A4
100
AcDbEntity
8
1
62
256
6
ByLayer
370
18
48
1
60
0
100
AcDbLine
10
49.241077
20
-10
30
0
11
49.243748
21
-10
31
0
39
0
210
0
220
0
230
1
0
LINE
5
A5
100
AcDbEntity
8
1
62
256
6
ByLayer
370
18
48
1
60
0
100
AcDbLine
10
77.756763
20
5.942695
30
0
11
76.658138
21
7.851647
31
0
39
0
210
0
220
0
230
1
0
LINE
5
A6
100
AcDbEntity
8
1
62
256
6
ByLayer
370
18
48
1
60
0
100
AcDbLine
10
79.741077
20
6.516249
30
0
11
78.322448
21
5.721254
31
0
39
0
210
0
220
0
230
1
0
LINE
5
A7
100
AcDbEntity
8
1
62
256
6
ByLayer
370
18
48
1
60
0
100
AcDbLine
10
79.741077
20
-5.977988
30
0
11
79.741077
21
6.516249
31
0
39
0
210
0
220
0
230
1
0
LINE
5
A8
100
AcDbEntity
8
1
62
256
6
ByLayer
370
18
48
1
60
0
100
AcDbLine
10
69.04333
20
-7.787614
30
0
11
78.958086
21
-7.787614
31
0
39
0
210
0
220
0
230
1
0
LINE
5
A9
100
AcDbEntity
8
1
62
256
6
ByLayer
370
18
48
1
60
0
100
AcDbLine
10
49.991077
20
-7.787614
30
0
11
66.380603
21
-7.787614
31
0
39
0
210
0
220
0
230
1
0
LINE
5
AA
100
AcDbEntity
8
1
62
256
6
ByLayer
370
18
48
1
60
0
100
AcDbLine
10
59.578245
20
6.127981
30
0
11
49.991077
21
6.127981
31
0
39
0
210
0
220
0
230
1
0
LINE
5
AB
100
AcDbEntity
8
1
62
256
6
ByLayer
370
18
48
1
60
0
100
AcDbLine
10
69.147726
20
6.127981
30
0
11
60.264441
21
6.127981
31
0
39
0
210
0
220
0
230
1
0
LINE
5
AC
100
AcDbEntity
8
1
62
256
6
ByLayer
370
18
48
1
60
0
100
AcDbLine
10
49.991077
20
8.75
30
0
11
48.741077
21
10
31
0
39
0
210
0
220
0
230
1
0
LINE
5
AD
100
AcDbEntity
8
1
62
256
6
ByLayer
370
18
48
1
60
0
100
AcDbLine
10
63.912208
20
8.75
30
0
11
49.991077
21
8.75
31
0
39
0
210
0
220
0
230
1
0
LINE
5
AE
100
AcDbEntity
8
1
62
256
6
ByLayer
370
18
48
1
60
0
100
AcDbLine
10
74.13306
20
8.75
30
0
11
70.262246
21
8.75
31
0
39
0
210
0
220
0
230
1
0
LINE
5
AF
100
AcDbEntity
8
1
62
256
6
ByLayer
370
18
48
1
60
0
100
AcDbLine
10
67.368474
20
-8.459093
30
0
11
66.789817
21
-7.376336
31
0
39
0
210
0
220
0
230
1
0
LINE
5
B0
100
AcDbEntity
8
1
62
256
6
ByLayer
370
18
48
1
60
0
100
AcDbLine
10
59.571819
20
6.129679
30
0
11
58.944209
21
7.304037
31
0
39
0
210
0
220
0
230
1
0
LINE
5
B1
100
AcDbEntity
8
1
62
256
6
ByLayer
370
18
48
1
60
0
100
AcDbLine
10
49.241077
20
-10
30
0
11
49.991077
21
-9.25
31
0
39
0
210
0
220
0
230
1
0
LINE
5
B2
100
AcDbEntity
8
1
62
256
6
ByLayer
370
18
48
1
60
0
100
AcDbLine
10
49.991077
20
-9.25
30
0
11
76.040721
21
-9.25
31
0
39
0
210
0
220
0
230
1
0
LINE
5
B3
100
AcDbEntity
8
1
62
256
6
ByLayer
370
18
48
1
60
0
100
AcDbLine
10
77.756763
20
5.942695
30
0
11
77.756763
21
8.473992
31
0
39
0
210
0
220
0
230
1
0
LINE
5
B4
100
AcDbEntity
8
1
62
256
6
ByLayer
370
18
48
1
60
0
100
AcDbLine
10
78.241077
20
8.548649
30
0
11
78.241077
21
8.689026
31
0
39
0
210
0
220
0
230
1
0
LINE
5
B5
100
AcDbEntity
8
1
62
256
6
ByLayer
370
18
48
1
60
0
100
AcDbLine
10
78.322448
20
8.716092
30
0
11
78.322448
21
5.721254
31
0
39
0
210
0
220
0
230
1
0
LINE
5
B6
100
AcDbEntity
8
1
62
256
6
ByLayer
370
18
48
1
60
0
100
AcDbLine
10
79.741077
20
8.684936
30
0
11
79.741077
21
6.516249
31
0
39
0
210
0
220
0
230
1
0
LINE
5
B7
100
AcDbEntity
8
1
62
256
6
ByLayer
370
18
48
1
60
0
100
AcDbLine
10
-30.258923
20
-0.233442
30
0
11
-30.258923
21
0.233442
31
0
39
0
210
0
220
0
230
1
0
LINE
5
B8
100
AcDbEntity
8
1
62
256
6
ByLayer
370
18
48
1
60
0
100
AcDbLine
10
49.991077
20
6.127981
30
0
11
49.991077
21
-7.787614
31
0
39
0
210
0
220
0
230
1
0
LINE
5
B9
100
AcDbEntity
8
1
62
256
6
ByLayer
370
18
48
1
60
0
100
AcDbLine
10
49.666077
20
-0.233442
30
0
11
49.666077
21
-8.062386
31
0
39
0
210
0
220
0
230
1
0
LINE
5
BA
100
AcDbEntity
8
1
62
256
6
ByLayer
370
18
48
1
60
0
100
AcDbLine
10
49.666077
20
6.360481
30
0
11
49.666077
21
0.233442
31
0
39
0
210
0
220
0
230
1
0
LINE
5
BB
100
AcDbEntity
8
SK1
62
256
6
ByLayer
370
18
48
1
60
0
100
AcDbLine
10
-100.008923
20
8
30
0
11
-100.008923
21
0
31
0
39
0
210
0
220
0
230
1
0
LINE
5
BC
100
AcDbEntity
8
SK1
62
256
6
ByLayer
370
18
48
1
60
0
100
AcDbLine
10
-98.008923
20
10
30
0
11
-98.008923
21
0
31
0
39
0
210
0
220
0
230
1
0
LINE
5
BD
100
AcDbEntity
8
SK1
62
256
6
ByLayer
370
18
48
1
60
0
100
AcDbLine
10
-100.008923
20
0
30
0
11
-100.008923
21
-8
31
0
39
0
210
0
220
0
230
1
0
LINE
5
BE
100
AcDbEntity
8
SK1
62
256
6
ByLayer
370
18
48
1
60
0
100
AcDbLine
10
-98.008923
20
0
30
0
11
-98.008923
21
-10
31
0
39
0
210
0
220
0
230
1
0
LINE
5
BF
100
AcDbEntity
8
1
62
256
6
ByLayer
370
18
48
1
60
0
100
AcDbLine
10
79.741077
20
-6.242157
30
0
11
79.741077
21
-5.977988
31
0
39
0
210
0
220
0
230
1
0
LINE
5
C0
100
AcDbEntity
8
1
62
256
6
ByLayer
370
18
48
1
60
0
100
AcDbLine
10
49.991077
20
8.75
30
0
11
49.991077
21
6.127981
31
0
39
0
210
0
220
0
230
1
0
LINE
5
C1
100
AcDbEntity
8
1
62
256
6
ByLayer
370
18
48
1
60
0
100
AcDbLine
10
77.203077
20
8.485373
30
0
11
77.203077
21
8.706477
31
0
39
0
210
0
220
0
230
1
0
LINE
5
C2
100
AcDbEntity
8
1
62
256
6
ByLayer
370
18
48
1
60
0
100
AcDbLine
10
49.991077
20
-7.787614
30
0
11
49.991077
21
-9.25
31
0
39
0
210
0
220
0
230
1
0
LINE
5
C3
100
AcDbEntity
8
1
62
256
6
ByLayer
370
18
48
1
60
0
100
AcDbLine
10
76.2147
20
-9.234779
30
0
11
76.040721
21
-9.25
31
0
39
0
210
0
220
0
230
1
0
LINE
5
C4
100
AcDbEntity
8
80
62
256
6
ByLayer
370
18
48
1
60
0
100
AcDbLine
10
0
20
0
30
0
11
-5
21
0
31
0
39
0
210
0
220
0
230
1
0
LINE
5
C5
100
AcDbEntity
8
SK4
62
256
6
ByLayer
370
13
48
0.05
60
0
100
AcDbLine
10
-107.101114
20
0
30
0
11
88.208245
21
0
31
0
39
0
210
0
220
0
230
1
0
LINE
5
C7
100
AcDbEntity
8
SK1
62
256
6
ByLayer
370
18
48
1
60
0
100
AcDbLine
10
0
20
10
30
0
11
-98.008923
21
10
31
0
39
0
210
0
220
0
230
1
0
LINE
5
C8
100
AcDbEntity
8
1
62
256
6
ByLayer
370
18
48
1
60
0
100
AcDbLine
10
0
20
-10
30
0
11
49.241077
21
-10
31
0
39
0
210
0
220
0
230
1
0
LINE
5
C9
100
AcDbEntity
8
4
62
256
6
ByLayer
370
13
48
0.05
60
0
100
AcDbLine
10
-0.008923
20
0
30
0
11
79.991077
21
0
31
0
39
0
210
0
220
0
230
1
0
LINE
5
CB
100
AcDbEntity
8
81
62
256
6
ByLayer
370
18
48
1
60
0
100
AcDbLine
10
85
20
15.25
30
0
11
80
21
15.25
31
0
39
0
210
0
220
0
230
1
0
MTEXT
5
137
100
AcDbEntity
8
SK6
62
256
6
ByLayer
370
18
48
1
60
0
100
AcDbMText
10
-33.281016
20
-33.848452
30
0
210
0
220
0
230
1
1
\W0.7611;RAG123E05-20B
40
3
41
0
44
1.084337
50
0
71
7
72
5
7
iso_b_vert
0
DIMENSION
5
149
100
AcDbEntity
8
SK2
62
256
6
ByLayer
370
13
48
1
60
0
100
AcDbDimension
2
DimnDraft3D1
10
10
20
110.416052
30
0
11
-1.752632
21
110.416052
31
0
70
32
71
5
72
1
41
1
210
0
220
0
230
1
3
Standard
100
AcDbAlignedDimension
13
-10
23
100.008923
33
0
14
10
24
100.008923
34
0
50
0
100
AcDbRotatedDimension
1001
ACAD
1000
DSTYLE
1002
{
1070
   279
1070
     0
1070
   172
1070
     1
1070
   173
1070
     1
1070
   340
1005
138
1070
    77
1070
     1
1070
    73
1070
     0
1070
   171
1070
     3
1070
   274
1070
     4
1070
   177
1070
     7
1070
   176
1070
     7
1070
   178
1070
     7
1070
    78
1070
     8
1070
    41
1041
3.175
1070
   147
1041
1.5
1070
    42
1041
2.0
1070
    44
1041
2.0
1070
   140
1041
3.0
1070
   343
1005
14A
1070
   344
1005
14A
1002
}
0
DIMENSION
5
15F
100
AcDbEntity
8
2
62
256
6
ByLayer
370
13
48
1
60
0
100
AcDbDimension
2
DimnDraft3D2
10
15.25
20
-96.511036
30
0
11
3.456579
21
-96.511036
31
0
70
32
71
5
72
1
41
1
210
0
220
0
230
1
3
Standard
100
AcDbAlignedDimension
13
0
23
-90.208245
33
0
14
15.25
24
-82
34
0
50
0
100
AcDbRotatedDimension
1001
ACAD
1000
DSTYLE
1002
{
1070
   279
1070
     0
1070
   172
1070
     1
1070
   173
1070
     1
1070
   340
1005
138
1070
    77
1070
     1
1070
    73
1070
     0
1070
   171
1070
     3
1070
   274
1070
     4
1070
   177
1070
     7
1070
   176
1070
     7
1070
   178
1070
     7
1070
    78
1070
     8
1070
    41
1041
3.175
1070
   147
1041
1.5
1070
    42
1041
2.0
1070
    44
1041
2.0
1070
   140
1041
3.0
1070
   343
1005
14A
1070
   344
1005
14A
1002
}
0
DIMENSION
5
16D
100
AcDbEntity
8
2
62
256
6
ByLayer
370
13
48
1
60
0
100
AcDbDimension
2
DimnDraft3D3
10
-21.039368
20
80
30
0
11
-21.039368
21
63.242907
31
0
70
32
71
5
72
1
41
1
210
0
220
0
230
1
3
Standard
100
AcDbAlignedDimension
13
-10.75
23
49.991077
33
0
14
-17.25
24
80
34
0
50
90
100
AcDbRotatedDimension
1001
ACAD
1000
DSTYLE
1002
{
1070
    74
1070
     0
1070
   279
1070
     0
1070
   172
1070
     1
1070
   173
1070
     1
1070
   340
1005
138
1070
    77
1070
     1
1070
    73
1070
     0
1070
   171
1070
     3
1070
   274
1070
     4
1070
   177
1070
     7
1070
   176
1070
     7
1070
   178
1070
     7
1070
    78
1070
     8
1070
    41
1041
3.175
1070
   147
1041
1.5
1070
    42
1041
2.0
1070
    44
1041
2.0
1070
   140
1041
3.0
1070
   343
1005
14A
1070
   344
1005
14A
1002
}
0
DIMENSION
5
17B
100
AcDbEntity
8
SK2
62
256
6
ByLayer
370
13
48
1
60
0
100
AcDbDimension
2
DimnDraft3D4
10
-30.1763
20
-100.008923
30
0
11
-30.1763
21
-12.483409
31
0
70
32
71
5
72
1
41
1
210
0
220
0
230
1
3
Standard
100
AcDbAlignedDimension
13
-17.25
23
80
33
0
14
-10
24
-100.008923
34
0
50
90
100
AcDbRotatedDimension
1001
ACAD
1000
DSTYLE
1002
{
1070
    74
1070
     0
1070
   279
1070
     0
1070
   172
1070
     1
1070
   173
1070
     1
1070
   340
1005
138
1070
    77
1070
     1
1070
    73
1070
     0
1070
   171
1070
     3
1070
   274
1070
     4
1070
   177
1070
     7
1070
   176
1070
     7
1070
   178
1070
     7
1070
    78
1070
     8
1070
    41
1041
3.175
1070
   147
1041
1.5
1070
    42
1041
2.0
1070
    44
1041
2.0
1070
   140
1041
3.0
1070
   343
1005
14A
1070
   344
1005
14A
1002
}
0
ENDSEC
0
SECTION
2
OBJECTS
0
DICTIONARY
5
1e6
330
0
100
AcDbDictionary
280
0
281
1
3
ACAD_GROUP
350
1e7
3
ACAD_MLINESTYLE
350
1e8
0
DICTIONARY
5
1e7
330
0
100
AcDbDictionary
280
0
281
1
0
DICTIONARY
5
1e8
330
0
100
AcDbDictionary
280
0
281
1
3
Standard
350
18
0
MLINESTYLE
5
18
330
1e8
100
AcDbMlineStyle
2
Standard
70
0
3

62
256
51
90
52
90
71
2
49
-0.5
62
256
6
ByLayer
49
0.5
62
256
6
ByLayer
0
RASTERVARIABLES
5
1d4
330

100
AcDbRasterVariables
90
0
70
1
71
1
72
1
0
ENDSEC
0
EOF
