  0
SECTION
  2
HEADER
  9
$ACADVER
  1
AC1015
  9
$ACADMAINTVER
 70
     6
  9
$DWGCODEPAGE
  3
ANSI_1252
  9
$INSBASE
 10
0.0
 20
0.0
 30
0.0
  9
$EXTMIN
 10
1.000000000000000E+20
 20
1.000000000000000E+20
 30
1.000000000000000E+20
  9
$EXTMAX
 10
-1.000000000000000E+20
 20
-1.000000000000000E+20
 30
-1.000000000000000E+20
  9
$LIMMIN
 10
-170.0
 20
-170.0
  9
$LIMMAX
 10
519.0
 20
260.0
  9
$ORTHOMODE
 70
     0
  9
$REGENMODE
 70
     1
  9
$FILLMODE
 70
     1
  9
$QTEXTMODE
 70
     0
  9
$MIRRTEXT
 70
     0
  9
$LTSCALE
 40
1.0
  9
$ATTMODE
 70
     1
  9
$TEXTSIZE
 40
3.5
  9
$TRACEWID
 40
1.0
  9
$TEXTSTYLE
  7
SIMPLEX
  9
$CLAYER
  8
1
  9
$CELTYPE
  6
BYLAYER
  9
$CECOLOR
 62
   256
  9
$CELTSCALE
 40
1.0
  9
$DISPSILH
 70
     0
  9
$DIMSCALE
 40
1.0
  9
$DIMASZ
 40
2.5
  9
$DIMEXO
 40
0.0
  9
$DIMDLI
 40
3.75
  9
$DIMRND
 40
0.0
  9
$DIMDLE
 40
0.0
  9
$DIMEXE
 40
1.25
  9
$DIMTP
 40
0.0
  9
$DIMTM
 40
0.0
  9
$DIMTXT
 40
3.5
  9
$DIMCEN
 40
0.0
  9
$DIMTSZ
 40
0.0
  9
$DIMTOL
 70
     0
  9
$DIMLIM
 70
     0
  9
$DIMTIH
 70
     0
  9
$DIMTOH
 70
     0
  9
$DIMSE1
 70
     0
  9
$DIMSE2
 70
     0
  9
$DIMTAD
 70
     1
  9
$DIMZIN
 70
     8
  9
$DIMBLK
  1

  9
$DIMASO
 70
     1
  9
$DIMSHO
 70
     1
  9
$DIMPOST
  1

  9
$DIMAPOST
  1

  9
$DIMALT
 70
     0
  9
$DIMALTD
 70
     3
  9
$DIMALTF
 40
0.039370078
  9
$DIMLFAC
 40
1.0
  9
$DIMTOFL
 70
     0
  9
$DIMTVP
 40
0.0
  9
$DIMTIX
 70
     0
  9
$DIMSOXD
 70
     0
  9
$DIMSAH
 70
     0
  9
$DIMBLK1
  1

  9
$DIMBLK2
  1

  9
$DIMSTYLE
  2
STANDARD
  9
$DIMCLRD
 70
     0
  9
$DIMCLRE
 70
     0
  9
$DIMCLRT
 70
     0
  9
$DIMTFAC
 40
1.0
  9
$DIMGAP
 40
0.625
  9
$DIMJUST
 70
     0
  9
$DIMSD1
 70
     0
  9
$DIMSD2
 70
     0
  9
$DIMTOLJ
 70
     0
  9
$DIMTZIN
 70
     8
  9
$DIMALTZ
 70
     0
  9
$DIMALTTZ
 70
     0
  9
$DIMUPT
 70
     0
  9
$DIMDEC
 70
     2
  9
$DIMTDEC
 70
     2
  9
$DIMALTU
 70
     2
  9
$DIMALTTD
 70
     3
  9
$DIMTXSTY
  7
SIMPLEX
  9
$DIMAUNIT
 70
     0
  9
$DIMADEC
 70
     2
  9
$DIMALTRND
 40
0.0
  9
$DIMAZIN
 70
     2
  9
$DIMDSEP
 70
    46
  9
$DIMATFIT
 70
     3
  9
$DIMFRAC
 70
     0
  9
$DIMLDRBLK
  1

  9
$DIMLUNIT
 70
     2
  9
$DIMLWD
 70
    -2
  9
$DIMLWE
 70
    -2
  9
$DIMTMOVE
 70
     0
  9
$LUNITS
 70
     2
  9
$LUPREC
 70
     4
  9
$SKETCHINC
 40
1.0
  9
$FILLETRAD
 40
0.0
  9
$AUNITS
 70
     0
  9
$AUPREC
 70
     0
  9
$MENU
  1
c:\tdm21\cad\caduti13\tdm13
  9
$ELEVATION
 40
0.0
  9
$PELEVATION
 40
0.0
  9
$THICKNESS
 40
0.0
  9
$LIMCHECK
 70
     0
  9
$CHAMFERA
 40
0.0
  9
$CHAMFERB
 40
0.0
  9
$CHAMFERC
 40
0.0
  9
$CHAMFERD
 40
0.0
  9
$SKPOLY
 70
     0
  9
$TDCREATE
 40
2454957.551975972
  9
$TDUCREATE
 40
2454957.510309306
  9
$TDUPDATE
 40
2457360.438256586
  9
$TDUUPDATE
 40
2457360.396589919
  9
$TDINDWG
 40
0.0009643519
  9
$TDUSRTIMER
 40
0.0009475231
  9
$USRTIMER
 70
     1
  9
$ANGBASE
 50
0.0
  9
$ANGDIR
 70
     0
  9
$PDMODE
 70
     1
  9
$PDSIZE
 40
0.0
  9
$PLINEWID
 40
0.0
  9
$SPLFRAME
 70
     0
  9
$SPLINETYPE
 70
     6
  9
$SPLINESEGS
 70
     8
  9
$HANDSEED
  5
69A
  9
$SURFTAB1
 70
     6
  9
$SURFTAB2
 70
     6
  9
$SURFTYPE
 70
     6
  9
$SURFU
 70
     6
  9
$SURFV
 70
     6
  9
$UCSBASE
  2

  9
$UCSNAME
  2

  9
$UCSORG
 10
0.0
 20
0.0
 30
0.0
  9
$UCSXDIR
 10
1.0
 20
0.0
 30
0.0
  9
$UCSYDIR
 10
0.0
 20
1.0
 30
0.0
  9
$UCSORTHOREF
  2

  9
$UCSORTHOVIEW
 70
     0
  9
$UCSORGTOP
 10
0.0
 20
0.0
 30
0.0
  9
$UCSORGBOTTOM
 10
0.0
 20
0.0
 30
0.0
  9
$UCSORGLEFT
 10
0.0
 20
0.0
 30
0.0
  9
$UCSORGRIGHT
 10
0.0
 20
0.0
 30
0.0
  9
$UCSORGFRONT
 10
0.0
 20
0.0
 30
0.0
  9
$UCSORGBACK
 10
0.0
 20
0.0
 30
0.0
  9
$PUCSBASE
  2

  9
$PUCSNAME
  2

  9
$PUCSORG
 10
0.0
 20
0.0
 30
0.0
  9
$PUCSXDIR
 10
1.0
 20
0.0
 30
0.0
  9
$PUCSYDIR
 10
0.0
 20
1.0
 30
0.0
  9
$PUCSORTHOREF
  2

  9
$PUCSORTHOVIEW
 70
     0
  9
$PUCSORGTOP
 10
0.0
 20
0.0
 30
0.0
  9
$PUCSORGBOTTOM
 10
0.0
 20
0.0
 30
0.0
  9
$PUCSORGLEFT
 10
0.0
 20
0.0
 30
0.0
  9
$PUCSORGRIGHT
 10
0.0
 20
0.0
 30
0.0
  9
$PUCSORGFRONT
 10
0.0
 20
0.0
 30
0.0
  9
$PUCSORGBACK
 10
0.0
 20
0.0
 30
0.0
  9
$USERI1
 70
     0
  9
$USERI2
 70
     0
  9
$USERI3
 70
     0
  9
$USERI4
 70
     0
  9
$USERI5
 70
     0
  9
$USERR1
 40
0.0
  9
$USERR2
 40
0.0
  9
$USERR3
 40
0.0
  9
$USERR4
 40
0.0
  9
$USERR5
 40
0.0
  9
$WORLDVIEW
 70
     1
  9
$SHADEDGE
 70
     3
  9
$SHADEDIF
 70
    70
  9
$TILEMODE
 70
     1
  9
$MAXACTVP
 70
    64
  9
$PINSBASE
 10
0.0
 20
0.0
 30
0.0
  9
$PLIMCHECK
 70
     0
  9
$PEXTMIN
 10
0.0
 20
0.0
 30
0.0
  9
$PEXTMAX
 10
0.0
 20
0.0
 30
0.0
  9
$PLIMMIN
 10
0.0
 20
0.0
  9
$PLIMMAX
 10
12.0
 20
9.0
  9
$UNITMODE
 70
     0
  9
$VISRETAIN
 70
     0
  9
$PLINEGEN
 70
     0
  9
$PSLTSCALE
 70
     1
  9
$TREEDEPTH
 70
  3020
  9
$CMLSTYLE
  2
STANDARD
  9
$CMLJUST
 70
     0
  9
$CMLSCALE
 40
20.0
  9
$PROXYGRAPHICS
 70
     1
  9
$MEASUREMENT
 70
     1
  9
$CELWEIGHT
370
    -1
  9
$ENDCAPS
280
     0
  9
$JOINSTYLE
280
     0
  9
$LWDISPLAY
290
     0
  9
$INSUNITS
 70
     4
  9
$HYPERLINKBASE
  1

  9
$STYLESHEET
  1
MONOCHROME.CTB
  9
$XEDIT
290
     1
  9
$CEPSNTYPE
380
     0
  9
$PSTYLEMODE
290
     1
  9
$FINGERPRINTGUID
  2
{46B44192-1510-48B1-B61B-CBE2ADA013A7}
  9
$VERSIONGUID
  2
{6160D478-9A74-4C97-9D8A-D4A65CE74B12}
  9
$EXTNAMES
290
     1
  9
$PSVPSCALE
 40
0.0
  9
$OLESTARTUP
290
     0
  0
ENDSEC
  0
SECTION
  2
CLASSES
  0
CLASS
  1
ACDBDICTIONARYWDFLT
  2
AcDbDictionaryWithDefault
  3
ObjectDBX Classes
 90
        0
280
     0
281
     0
  0
CLASS
  1
ACDBPLACEHOLDER
  2
AcDbPlaceHolder
  3
ObjectDBX Classes
 90
        0
280
     0
281
     0
  0
CLASS
  1
LAYOUT
  2
AcDbLayout
  3
ObjectDBX Classes
 90
        0
280
     0
281
     0
  0
CLASS
  1
DICTIONARYVAR
  2
AcDbDictionaryVar
  3
ObjectDBX Classes
 90
        0
280
     0
281
     0
  0
CLASS
  1
TABLESTYLE
  2
AcDbTableStyle
  3
ObjectDBX Classes
 90
     4095
280
     0
281
     0
  0
CLASS
  1
SCALE
  2
AcDbScale
  3
ObjectDBX Classes
 90
     1153
280
     0
281
     0
  0
CLASS
  1
VISUALSTYLE
  2
AcDbVisualStyle
  3
ObjectDBX Classes
 90
     4095
280
     0
281
     0
  0
CLASS
  1
MATERIAL
  2
AcDbMaterial
  3
ObjectDBX Classes
 90
     1153
280
     0
281
     0
  0
CLASS
  1
MLEADERSTYLE
  2
AcDbMLeaderStyle
  3
ACDB_MLEADERSTYLE_CLASS
 90
     4095
280
     0
281
     0
  0
ENDSEC
  0
SECTION
  2
TABLES
  0
TABLE
  2
VPORT
  5
8
102
{ACAD_XDICTIONARY
360
65E
102
}
330
0
100
AcDbSymbolTable
 70
     1
  0
VPORT
  5
39A
330
8
100
AcDbSymbolTableRecord
100
AcDbViewportTableRecord
  2
*Active
 70
     0
 10
0.0
 20
0.0
 11
1.0
 21
1.0
 12
218.9201881351169
 22
109.7549380673833
 13
0.0
 23
0.0
 14
5.0
 24
5.0
 15
5.0
 25
5.0
 16
0.0
 26
0.0
 36
1.0
 17
0.0
 27
0.0
 37
0.0
 40
564.6711112651689
 41
1.066073697585768
 42
50.0
 43
0.0
 44
0.0
 50
0.0
 51
0.0
 71
     0
 72
  2000
 73
     1
 74
     1
 75
     0
 76
     0
 77
     0
 78
     0
281
     0
 65
     1
110
0.0
120
0.0
130
0.0
111
1.0
121
0.0
131
0.0
112
0.0
122
1.0
132
0.0
 79
     0
146
0.0
  0
ENDTAB
  0
TABLE
  2
LTYPE
  5
5
330
0
100
AcDbSymbolTable
 70
     3
  0
LTYPE
  5
12
330
5
100
AcDbSymbolTableRecord
100
AcDbLinetypeTableRecord
  2
BYBLOCK
 70
     0
  3

 72
    65
 73
     0
 40
0.0
  0
LTYPE
  5
13
330
5
100
AcDbSymbolTableRecord
100
AcDbLinetypeTableRecord
  2
BYLAYER
 70
     0
  3

 72
    65
 73
     0
 40
0.0
  0
LTYPE
  5
14
330
5
100
AcDbSymbolTableRecord
100
AcDbLinetypeTableRecord
  2
CONTINUOUS
 70
     0
  3
Solid line
 72
    65
 73
     0
 40
0.0
  0
LTYPE
  5
20
330
5
100
AcDbSymbolTableRecord
100
AcDbLinetypeTableRecord
  2
HIDDEN
 70
     0
  3
Hidden __ __ __ __ __ __ __ __ __ __ __ __ __ _
 72
    65
 73
     2
 40
9.524999999999997
 49
6.349999999999998
 74
     0
 49
-3.174999999999998
 74
     0
  0
LTYPE
  5
351
330
5
100
AcDbSymbolTableRecord
100
AcDbLinetypeTableRecord
  2
CENTER
 70
     0
  3
Dash dot __ . __ . __ . __ . __ . __ . __ . __
 72
    65
 73
     4
 40
25.4
 49
12.7
 74
     0
 49
-6.349999999999998
 74
     0
 49
0.0
 74
     0
 49
-6.349999999999998
 74
     0
  0
ENDTAB
  0
TABLE
  2
LAYER
  5
2
330
0
100
AcDbSymbolTable
 70
    16
  0
LAYER
  5
F
330
2
100
AcDbSymbolTableRecord
100
AcDbLayerTableRecord
  2
0
 70
     0
 62
     7
  6
CONTINUOUS
370
    -3
390
300
  0
LAYER
  5
23
330
2
100
AcDbSymbolTableRecord
100
AcDbLayerTableRecord
  2
1
 70
     0
 62
     4
  6
CONTINUOUS
370
    -3
390
300
  0
LAYER
  5
24
330
2
100
AcDbSymbolTableRecord
100
AcDbLayerTableRecord
  2
SK1
 70
     0
 62
     4
  6
CONTINUOUS
370
    -3
390
300
  0
LAYER
  5
25
330
2
100
AcDbSymbolTableRecord
100
AcDbLayerTableRecord
  2
2
 70
     0
 62
     7
  6
CONTINUOUS
370
    -3
390
300
  0
LAYER
  5
26
330
2
100
AcDbSymbolTableRecord
100
AcDbLayerTableRecord
  2
2L
 70
     0
 62
     7
  6
CONTINUOUS
370
    -3
390
300
  0
LAYER
  5
27
330
2
100
AcDbSymbolTableRecord
100
AcDbLayerTableRecord
  2
SK2
 70
     0
 62
     7
  6
CONTINUOUS
370
    -3
390
300
  0
LAYER
  5
28
330
2
100
AcDbSymbolTableRecord
100
AcDbLayerTableRecord
  2
3
 70
     0
 62
     1
  6
HIDDEN
370
    -3
390
300
  0
LAYER
  5
29
330
2
100
AcDbSymbolTableRecord
100
AcDbLayerTableRecord
  2
SK3
 70
     0
 62
     1
  6
HIDDEN
370
    -3
390
300
  0
LAYER
  5
2A
330
2
100
AcDbSymbolTableRecord
100
AcDbLayerTableRecord
  2
4
 70
     0
 62
     2
  6
CENTER
370
    -3
390
300
  0
LAYER
  5
2B
330
2
100
AcDbSymbolTableRecord
100
AcDbLayerTableRecord
  2
SK4
 70
     0
 62
     2
  6
CENTER
370
    -3
390
300
  0
LAYER
  5
2C
330
2
100
AcDbSymbolTableRecord
100
AcDbLayerTableRecord
  2
5
 70
     0
 62
    -7
  6
CONTINUOUS
370
    -3
390
300
  0
LAYER
  5
2D
330
2
100
AcDbSymbolTableRecord
100
AcDbLayerTableRecord
  2
6
 70
     0
 62
     5
  6
CONTINUOUS
370
    -3
390
300
  0
LAYER
  5
2E
330
2
100
AcDbSymbolTableRecord
100
AcDbLayerTableRecord
  2
SK6
 70
     0
 62
     5
  6
CONTINUOUS
370
    -3
390
300
  0
LAYER
  5
2F
330
2
100
AcDbSymbolTableRecord
100
AcDbLayerTableRecord
  2
DEFPOINTS
 70
     0
 62
     7
  6
CONTINUOUS
290
     0
370
    -3
390
300
  0
LAYER
  5
375
330
2
100
AcDbSymbolTableRecord
100
AcDbLayerTableRecord
  2
CUT
 70
     0
 62
     1
  6
CONTINUOUS
370
    -3
390
300
  0
LAYER
  5
376
330
2
100
AcDbSymbolTableRecord
100
AcDbLayerTableRecord
  2
NOCUT
 70
     0
 62
     7
  6
CONTINUOUS
370
    -3
390
300
  0
ENDTAB
  0
TABLE
  2
STYLE
  5
3
330
0
100
AcDbSymbolTable
 70
     4
  0
STYLE
  5
10
330
3
100
AcDbSymbolTableRecord
100
AcDbTextStyleTableRecord
  2
STANDARD
 70
     0
 40
0.0
 41
1.0
 50
0.0
 71
     0
 42
5.0
  3
txt
  4

  0
STYLE
  5
1D
330
3
100
AcDbSymbolTableRecord
100
AcDbTextStyleTableRecord
  2
TXT
 70
     0
 40
8.0
 41
1.0
 50
0.0
 71
     0
 42
8.0
  3
txt
  4

  0
STYLE
  5
1E
330
3
100
AcDbSymbolTableRecord
100
AcDbTextStyleTableRecord
  2
SIMPLEX
 70
     0
 40
0.0
 41
1.0
 50
0.0
 71
     0
 42
3.5
  3
simplex
  4

  0
STYLE
  5
34C
330
3
100
AcDbSymbolTableRecord
100
AcDbTextStyleTableRecord
  2

 70
     1
 40
0.0
 41
1.0
 50
0.0
 71
     0
 42
2.5
  3
ltypeshp.shx
  4

  0
ENDTAB
  0
TABLE
  2
VIEW
  5
6
330
0
100
AcDbSymbolTable
 70
     0
  0
ENDTAB
  0
TABLE
  2
UCS
  5
7
330
0
100
AcDbSymbolTable
 70
     0
  0
ENDTAB
  0
TABLE
  2
APPID
  5
9
330
0
100
AcDbSymbolTable
 70
     2
  0
APPID
  5
11
330
9
100
AcDbSymbolTableRecord
100
AcDbRegAppTableRecord
  2
ACAD
 70
     0
  0
APPID
  5
697
330
9
100
AcDbSymbolTableRecord
100
AcDbRegAppTableRecord
  2
ACAD_MLEADERVER
 70
     0
  0
ENDTAB
  0
TABLE
  2
DIMSTYLE
  5
A
330
0
100
AcDbSymbolTable
 70
     1
100
AcDbDimStyleTable
  0
DIMSTYLE
105
3F
102
{ACAD_REACTORS
330
60B
330
619
330
626
330
633
330
641
330
64E
102
}
330
A
100
AcDbSymbolTableRecord
100
AcDbDimStyleTableRecord
  2
STANDARD
 70
     0
 41
2.5
 42
0.0
 43
3.75
 44
1.25
 73
     0
 74
     0
 77
     1
 78
     8
 79
     2
140
3.5
141
0.0
143
0.039370078
147
0.625
171
     3
178
     0
179
     2
271
     2
272
     2
274
     3
283
     0
284
     8
340
1E
  0
ENDTAB
  0
TABLE
  2
BLOCK_RECORD
  5
1
330
0
100
AcDbSymbolTable
 70
     6
  0
BLOCK_RECORD
  5
18
330
1
100
AcDbSymbolTableRecord
100
AcDbBlockTableRecord
  2
*MODEL_SPACE
340
303
  0
BLOCK_RECORD
  5
338
330
1
100
AcDbSymbolTableRecord
100
AcDbBlockTableRecord
  2
*Paper_Space
340
33B
  0
BLOCK_RECORD
  5
60C
330
1
100
AcDbSymbolTableRecord
100
AcDbBlockTableRecord
  2
*D0
340
0
  0
BLOCK_RECORD
  5
61A
330
1
100
AcDbSymbolTableRecord
100
AcDbBlockTableRecord
  2
*D1
340
0
  0
BLOCK_RECORD
  5
627
330
1
100
AcDbSymbolTableRecord
100
AcDbBlockTableRecord
  2
*D2
340
0
  0
BLOCK_RECORD
  5
634
330
1
100
AcDbSymbolTableRecord
100
AcDbBlockTableRecord
  2
*D3
340
0
  0
BLOCK_RECORD
  5
642
330
1
100
AcDbSymbolTableRecord
100
AcDbBlockTableRecord
  2
*D4
340
0
  0
BLOCK_RECORD
  5
64F
330
1
100
AcDbSymbolTableRecord
100
AcDbBlockTableRecord
  2
*D5
340
0
  0
ENDTAB
  0
ENDSEC
  0
SECTION
  2
BLOCKS
  0
BLOCK
  5
32
330
18
100
AcDbEntity
  8
0
100
AcDbBlockBegin
  2
*MODEL_SPACE
 70
     0
 10
0.0
 20
0.0
 30
0.0
  3
*MODEL_SPACE
  1

  0
ENDBLK
  5
33
330
18
100
AcDbEntity
  8
0
100
AcDbBlockEnd
  0
BLOCK
  5
339
330
338
100
AcDbEntity
 67
     1
  8
0
100
AcDbBlockBegin
  2
*Paper_Space
 70
     0
 10
0.0
 20
0.0
 30
0.0
  3
*Paper_Space
  1

  0
ENDBLK
  5
33A
330
338
100
AcDbEntity
 67
     1
  8
0
100
AcDbBlockEnd
  0
BLOCK
  5
60D
330
60C
100
AcDbEntity
  8
0
100
AcDbBlockBegin
  2
*D0
 70
     1
 10
0.0
 20
0.0
 30
0.0
  3
*D0
  1

  0
LINE
  5
60F
330
60C
100
AcDbEntity
  8
2
 62
     0
370
    -2
100
AcDbLine
 10
69.0
 20
7.9375
 30
0.0
 11
85.24999999999997
 21
7.937500000000057
 31
0.0
  0
LINE
  5
610
330
60C
100
AcDbEntity
  8
2
 62
     0
370
    -2
100
AcDbLine
 10
69.0
 20
-7.9375
 30
0.0
 11
85.25000000000003
 21
-7.937499999999943
 31
0.0
  0
LINE
  5
611
330
60C
100
AcDbEntity
  8
2
 62
     0
370
    -2
100
AcDbLine
 10
84.00000000000003
 20
-7.937499999999948
 30
0.0
 11
84.0000000000001
 21
-28.48749999999996
 31
0.0
  0
LINE
  5
612
330
60C
100
AcDbEntity
  8
2
 62
     0
370
    -2
100
AcDbLine
 10
83.99999999999999
 20
5.437500000000052
 30
0.0
 11
84.00000000000001
 21
-5.437499999999948
 31
0.0
  0
SOLID
  5
613
330
60C
100
AcDbEntity
  8
2
 62
     0
100
AcDbTrace
 10
84.41666666666666
 20
5.437500000000054
 30
0.0
 11
83.58333333333331
 21
5.437500000000051
 31
0.0
 12
83.99999999999997
 22
7.937500000000052
 32
0.0
 13
83.99999999999997
 23
7.937500000000052
 33
0.0
  0
SOLID
  5
614
330
60C
100
AcDbEntity
  8
2
 62
     0
100
AcDbTrace
 10
83.58333333333334
 20
-5.437499999999949
 30
0.0
 11
84.41666666666669
 21
-5.437499999999946
 31
0.0
 12
84.00000000000003
 22
-7.937499999999948
 32
0.0
 13
84.00000000000003
 23
-7.937499999999948
 33
0.0
  0
MTEXT
  5
615
330
60C
100
AcDbEntity
  8
2
 62
     0
100
AcDbMText
 10
81.60225000000007
 20
-19.46249999999996
 30
0.0
 40
3.5
 41
0.0
 71
     5
 72
     1
  1
%%c15.88
  7
SIMPLEX
 11
-3.580687802255623E-15
 21
1.0
 31
0.0
 73
     1
 44
1.0
  0
POINT
  5
616
330
60C
100
AcDbEntity
  8
DEFPOINTS
 62
     0
100
AcDbPoint
 10
69.0
 20
7.9375
 30
0.0
  0
POINT
  5
617
330
60C
100
AcDbEntity
  8
DEFPOINTS
 62
     0
100
AcDbPoint
 10
69.0
 20
-7.9375
 30
0.0
  0
POINT
  5
618
330
60C
100
AcDbEntity
  8
DEFPOINTS
 62
     0
100
AcDbPoint
 10
84.00000000000003
 20
-7.937499999999948
 30
0.0
  0
ENDBLK
  5
60E
330
60C
100
AcDbEntity
  8
0
100
AcDbBlockEnd
  0
BLOCK
  5
61B
330
61A
100
AcDbEntity
  8
0
100
AcDbBlockBegin
  2
*D1
 70
     1
 10
0.0
 20
0.0
 30
0.0
  3
*D1
  1

  0
LINE
  5
61D
330
61A
100
AcDbEntity
  8
2
 62
     0
370
    -2
100
AcDbLine
 10
0.0
 20
0.0
 30
0.0
 11
0.0
 21
76.25
 31
0.0
  0
LINE
  5
61E
330
61A
100
AcDbEntity
  8
2
 62
     0
370
    -2
100
AcDbLine
 10
69.0
 20
0.0
 30
0.0
 11
69.0
 21
76.25
 31
0.0
  0
LINE
  5
61F
330
61A
100
AcDbEntity
  8
2
 62
     0
370
    -2
100
AcDbLine
 10
2.5
 20
75.0
 30
0.0
 11
66.5
 21
75.0
 31
0.0
  0
SOLID
  5
620
330
61A
100
AcDbEntity
  8
2
 62
     0
100
AcDbTrace
 10
2.5
 20
75.41666666666667
 30
0.0
 11
2.5
 21
74.58333333333333
 31
0.0
 12
0.0
 22
75.0
 32
0.0
 13
0.0
 23
75.0
 33
0.0
  0
SOLID
  5
621
330
61A
100
AcDbEntity
  8
2
 62
     0
100
AcDbTrace
 10
66.5
 20
74.58333333333333
 30
0.0
 11
66.5
 21
75.41666666666667
 31
0.0
 12
69.0
 22
75.0
 32
0.0
 13
69.0
 23
75.0
 33
0.0
  0
MTEXT
  5
622
330
61A
100
AcDbEntity
  8
2
 62
     0
100
AcDbMText
 10
34.5
 20
77.39075
 30
0.0
 40
3.5
 41
0.0
 71
     5
 72
     1
  1
69
  7
SIMPLEX
 73
     1
 44
1.0
  0
POINT
  5
623
330
61A
100
AcDbEntity
  8
DEFPOINTS
 62
     0
100
AcDbPoint
 10
0.0
 20
0.0
 30
0.0
  0
POINT
  5
624
330
61A
100
AcDbEntity
  8
DEFPOINTS
 62
     0
100
AcDbPoint
 10
69.0
 20
0.0
 30
0.0
  0
POINT
  5
625
330
61A
100
AcDbEntity
  8
DEFPOINTS
 62
     0
100
AcDbPoint
 10
69.0
 20
75.0
 30
0.0
  0
ENDBLK
  5
61C
330
61A
100
AcDbEntity
  8
0
100
AcDbBlockEnd
  0
BLOCK
  5
628
330
627
100
AcDbEntity
  8
0
100
AcDbBlockBegin
  2
*D2
 70
     1
 10
0.0
 20
0.0
 30
0.0
  3
*D2
  1

  0
LINE
  5
62A
330
627
100
AcDbEntity
  8
2
 62
     0
370
    -2
100
AcDbLine
 10
37.25
 20
7.9375
 30
0.0
 11
37.25
 21
61.25
 31
0.0
  0
LINE
  5
62B
330
627
100
AcDbEntity
  8
2
 62
     0
370
    -2
100
AcDbLine
 10
69.0
 20
7.9375
 30
0.0
 11
69.0
 21
61.25
 31
0.0
  0
LINE
  5
62C
330
627
100
AcDbEntity
  8
2
 62
     0
370
    -2
100
AcDbLine
 10
39.75
 20
60.0
 30
0.0
 11
66.5
 21
60.0
 31
0.0
  0
SOLID
  5
62D
330
627
100
AcDbEntity
  8
2
 62
     0
100
AcDbTrace
 10
39.75
 20
60.41666666666666
 30
0.0
 11
39.75
 21
59.58333333333334
 31
0.0
 12
37.25
 22
60.0
 32
0.0
 13
37.25
 23
60.0
 33
0.0
  0
SOLID
  5
62E
330
627
100
AcDbEntity
  8
2
 62
     0
100
AcDbTrace
 10
66.5
 20
59.58333333333334
 30
0.0
 11
66.5
 21
60.41666666666666
 31
0.0
 12
69.0
 22
60.0
 32
0.0
 13
69.0
 23
60.0
 33
0.0
  0
MTEXT
  5
62F
330
627
100
AcDbEntity
  8
2
 62
     0
100
AcDbMText
 10
53.125
 20
62.39775
 30
0.0
 40
3.5
 41
0.0
 71
     5
 72
     1
  1
31.75
  7
SIMPLEX
 73
     1
 44
1.0
  0
POINT
  5
630
330
627
100
AcDbEntity
  8
DEFPOINTS
 62
     0
100
AcDbPoint
 10
37.25
 20
7.9375
 30
0.0
  0
POINT
  5
631
330
627
100
AcDbEntity
  8
DEFPOINTS
 62
     0
100
AcDbPoint
 10
69.0
 20
7.9375
 30
0.0
  0
POINT
  5
632
330
627
100
AcDbEntity
  8
DEFPOINTS
 62
     0
100
AcDbPoint
 10
69.0
 20
60.0
 30
0.0
  0
ENDBLK
  5
629
330
627
100
AcDbEntity
  8
0
100
AcDbBlockEnd
  0
BLOCK
  5
635
330
634
100
AcDbEntity
  8
0
100
AcDbBlockBegin
  2
*D3
 70
     1
 10
0.0
 20
0.0
 30
0.0
  3
*D3
  1

  0
LINE
  5
637
330
634
100
AcDbEntity
  8
SK2
 62
     0
370
    -2
100
AcDbLine
 10
-45.3
 20
7.9375
 30
0.0
 11
-61.55000000004051
 21
7.93749999991707
 31
0.0
  0
LINE
  5
638
330
634
100
AcDbEntity
  8
SK2
 62
     0
370
    -2
100
AcDbLine
 10
-45.3
 20
-7.9375
 30
0.0
 11
-61.54999999995949
 21
-7.93750000008293
 31
0.0
  0
LINE
  5
639
330
634
100
AcDbEntity
  8
SK2
 62
     0
370
    -2
100
AcDbLine
 10
-60.29999999995949
 20
-7.937500000076551
 30
0.0
 11
-60.29999999985461
 21
-28.48750000007655
 31
0.0
  0
LINE
  5
63A
330
634
100
AcDbEntity
  8
SK2
 62
     0
370
    -2
100
AcDbLine
 10
-60.30000000002774
 20
5.437499999923449
 30
0.0
 11
-60.29999999997225
 21
-5.437500000076551
 31
0.0
  0
SOLID
  5
63B
330
634
100
AcDbEntity
  8
SK2
 62
     0
100
AcDbTrace
 10
-59.88333333336108
 20
5.437499999925575
 30
0.0
 11
-60.71666666669441
 21
5.437499999921322
 31
0.0
 12
-60.30000000004051
 22
7.937499999923449
 32
0.0
 13
-60.30000000004051
 23
7.937499999923449
 33
0.0
  0
SOLID
  5
63C
330
634
100
AcDbEntity
  8
SK2
 62
     0
100
AcDbTrace
 10
-60.71666666663891
 20
-5.437500000078678
 30
0.0
 11
-59.88333333330559
 21
-5.437500000074425
 31
0.0
 12
-60.29999999995949
 22
-7.937500000076551
 32
0.0
 13
-60.29999999995949
 23
-7.937500000076551
 33
0.0
  0
MTEXT
  5
63D
330
634
100
AcDbEntity
  8
SK2
 62
     0
100
AcDbMText
 10
-62.69774999990067
 20
-19.46250000008879
 30
0.0
 40
3.5
 41
0.0
 71
     5
 72
     1
  1
%%c15.88
  7
SIMPLEX
 11
-5.103375290164826E-12
 21
1.0
 31
0.0
 73
     1
 44
1.0
  0
POINT
  5
63E
330
634
100
AcDbEntity
  8
DEFPOINTS
 62
     0
100
AcDbPoint
 10
-45.3
 20
7.9375
 30
0.0
  0
POINT
  5
63F
330
634
100
AcDbEntity
  8
DEFPOINTS
 62
     0
100
AcDbPoint
 10
-45.3
 20
-7.9375
 30
0.0
  0
POINT
  5
640
330
634
100
AcDbEntity
  8
DEFPOINTS
 62
     0
100
AcDbPoint
 10
-60.29999999995949
 20
-7.937500000076551
 30
0.0
  0
ENDBLK
  5
636
330
634
100
AcDbEntity
  8
0
100
AcDbBlockEnd
  0
BLOCK
  5
643
330
642
100
AcDbEntity
  8
0
100
AcDbBlockBegin
  2
*D4
 70
     1
 10
0.0
 20
0.0
 30
0.0
  3
*D4
  1

  0
LINE
  5
645
330
642
100
AcDbEntity
  8
SK2
 62
     0
370
    -2
100
AcDbLine
 10
-45.3
 20
0.0
 30
0.0
 11
-45.3
 21
91.25
 31
0.0
  0
LINE
  5
646
330
642
100
AcDbEntity
  8
SK2
 62
     0
370
    -2
100
AcDbLine
 10
69.0
 20
0.0
 30
0.0
 11
69.0
 21
91.25
 31
0.0
  0
LINE
  5
647
330
642
100
AcDbEntity
  8
SK2
 62
     0
370
    -2
100
AcDbLine
 10
-42.8
 20
90.0
 30
0.0
 11
66.5
 21
90.0
 31
0.0
  0
SOLID
  5
648
330
642
100
AcDbEntity
  8
SK2
 62
     0
100
AcDbTrace
 10
-42.8
 20
90.41666666666667
 30
0.0
 11
-42.8
 21
89.58333333333333
 31
0.0
 12
-45.3
 22
90.0
 32
0.0
 13
-45.3
 23
90.0
 33
0.0
  0
SOLID
  5
649
330
642
100
AcDbEntity
  8
SK2
 62
     0
100
AcDbTrace
 10
66.5
 20
89.58333333333333
 30
0.0
 11
66.5
 21
90.41666666666667
 31
0.0
 12
69.0
 22
90.0
 32
0.0
 13
69.0
 23
90.0
 33
0.0
  0
MTEXT
  5
64A
330
642
100
AcDbEntity
  8
SK2
 62
     0
100
AcDbMText
 10
11.85
 20
92.438
 30
0.0
 40
3.5
 41
0.0
 71
     5
 72
     1
  1
114.3
  7
SIMPLEX
 73
     1
 44
1.0
  0
POINT
  5
64B
330
642
100
AcDbEntity
  8
DEFPOINTS
 62
     0
100
AcDbPoint
 10
-45.3
 20
0.0
 30
0.0
  0
POINT
  5
64C
330
642
100
AcDbEntity
  8
DEFPOINTS
 62
     0
100
AcDbPoint
 10
69.0
 20
0.0
 30
0.0
  0
POINT
  5
64D
330
642
100
AcDbEntity
  8
DEFPOINTS
 62
     0
100
AcDbPoint
 10
69.0
 20
90.0
 30
0.0
  0
ENDBLK
  5
644
330
642
100
AcDbEntity
  8
0
100
AcDbBlockEnd
  0
BLOCK
  5
650
330
64F
100
AcDbEntity
  8
0
100
AcDbBlockBegin
  2
*D5
 70
     1
 10
0.0
 20
0.0
 30
0.0
  3
*D5
  1

  0
LINE
  5
652
330
64F
100
AcDbEntity
  8
2
 62
     0
370
    -2
100
AcDbLine
 10
68.77799709723485
 20
-10.38745673842222
 30
0.0
 11
72.62512911859054
 21
-32.20562662880688
 31
0.0
  0
MTEXT
  5
653
330
64F
100
AcDbEntity
  8
2
 62
     0
100
AcDbMText
 10
73.67545157903471
 20
-24.35420937750209
 30
0.0
 40
3.5
 41
0.0
 71
     5
 72
     1
  1
R0.79
  7
SIMPLEX
 11
0.1736481776669226
 21
-0.9848077530122095
 31
0.0
 73
     1
 44
1.0
  0
SOLID
  5
654
330
64F
100
AcDbEntity
  8
2
 62
     0
100
AcDbTrace
 10
69.18833366098993
 20
-10.315103331061
 30
0.0
 11
68.36766053347976
 21
-10.45981014578343
 31
0.0
 12
68.34387665306754
 22
-7.925437355891693
 32
0.0
 13
68.34387665306754
 23
-7.925437355891693
 33
0.0
  0
POINT
  5
655
330
64F
100
AcDbEntity
  8
DEFPOINTS
 62
     0
100
AcDbPoint
 10
68.34387665306754
 20
-7.925437355891693
 30
0.0
  0
POINT
  5
656
330
64F
100
AcDbEntity
  8
DEFPOINTS
 62
     0
100
AcDbPoint
 10
68.206
 20
-7.1435
 30
0.0
  0
ENDBLK
  5
651
330
64F
100
AcDbEntity
  8
0
100
AcDbBlockEnd
  0
ENDSEC
  0
SECTION
  2
ENTITIES
  0
LINE
  5
3E0
330
18
100
AcDbEntity
  8
SK4
100
AcDbLine
 10
-47.3
 20
0.0
 30
0.0
 11
0.0
 21
0.0
 31
0.0
  0
LINE
  5
3E1
330
18
100
AcDbEntity
  8
4
100
AcDbLine
 10
-2.0
 20
0.0
 30
0.0
 11
71.0
 21
0.0
 31
0.0
  0
LINE
  5
3E2
330
18
100
AcDbEntity
  8
SK4
100
AcDbLine
 10
-2.0
 20
0.0
 30
0.0
 11
71.0
 21
0.0
 31
0.0
  0
ARC
  5
3E3
330
18
100
AcDbEntity
  8
1
100
AcDbCircle
 10
37.35209815991991
 20
-4.681632532925194
 30
0.0
 40
9.491773019783633
100
AcDbArc
 50
90.6163136047752
 51
96.6676874968351
  0
LINE
  5
3E4
330
18
100
AcDbEntity
  8
1
100
AcDbLine
 10
36.25000000000001
 20
7.9375
 30
0.0
 11
36.25000000000001
 21
7.936810676702205
 31
0.0
  0
LINE
  5
3E5
330
18
100
AcDbEntity
  8
1
100
AcDbLine
 10
36.25000000000001
 20
7.936810676702205
 30
0.0
 11
36.25000000000001
 21
7.722614264201769
 31
0.0
  0
LINE
  5
3E6
330
18
100
AcDbEntity
  8
1
100
AcDbLine
 10
36.25000000000001
 20
7.722614264201769
 30
0.0
 11
36.25000000000001
 21
4.66761297295145
 31
0.0
  0
LINE
  5
3E7
330
18
100
AcDbEntity
  8
1
100
AcDbLine
 10
36.25000000000001
 20
-7.831622310445193
 30
0.0
 11
36.25000000000001
 21
-7.937499999999998
 31
0.0
  0
LINE
  5
3E8
330
18
100
AcDbEntity
  8
1
100
AcDbLine
 10
36.25000000000002
 20
1.292129342030858
 30
0.0
 11
36.25000000000001
 21
-6.420069733634933
 31
0.0
  0
ARC
  5
3E9
330
18
100
AcDbEntity
  8
1
100
AcDbCircle
 10
-86.86306758232533
 20
-173.2595963382537
 30
0.0
 40
213.184675765997
100
AcDbArc
 50
54.39558390549416
 51
54.72544002087486
  0
ARC
  5
3EA
330
18
100
AcDbEntity
  8
1
100
AcDbCircle
 10
37.35917433063489
 20
-2.087648565312364
 30
0.0
 40
5.850069072451923
100
AcDbArc
 50
259.0705774501649
 51
268.9306669971267
  0
ARC
  5
3EB
330
18
100
AcDbEntity
  8
1
100
AcDbCircle
 10
42.60059949737773
 20
2.692352333127616
 30
0.0
 40
11.10698647111559
100
AcDbArc
 50
235.1267138189202
 51
241.2005698010643
  0
ARC
  5
3EC
330
18
100
AcDbEntity
  8
1
100
AcDbCircle
 10
-128.3194885483297
 20
-139.8486313987207
 30
0.0
 40
216.8036937559282
100
AcDbArc
 50
40.20999414318826
 51
40.6175874534905
  0
ARC
  5
3ED
330
18
100
AcDbEntity
  8
1
100
AcDbCircle
 10
15.41499169211644
 20
-17.1114803198354
 30
0.0
 40
30.14015105930337
100
AcDbArc
 50
43.57734293991042
 51
46.26913946374672
  0
LINE
  5
3EE
330
18
100
AcDbEntity
  8
1
100
AcDbLine
 10
-0.0000000000000071
 20
7.9375
 30
0.0
 11
36.25
 21
7.9375
 31
0.0
  0
ARC
  5
3EF
330
18
100
AcDbEntity
  8
1
100
AcDbCircle
 10
37.3591742686514
 20
2.087648942711482
 30
0.0
 40
5.850068691304898
100
AcDbArc
 50
91.0693324648843
 51
100.9294226545874
  0
LINE
  5
3F0
330
18
100
AcDbEntity
  8
1
100
AcDbLine
 10
37.25
 20
4.809587508997867
 30
0.0
 11
37.25
 21
7.936624307992317
 31
0.0
  0
LINE
  5
3F1
330
18
100
AcDbEntity
  8
1
100
AcDbLine
 10
37.25
 20
3.665258684786357
 30
0.0
 11
37.25
 21
4.809587508997867
 31
0.0
  0
LINE
  5
3F2
330
18
100
AcDbEntity
  8
1
100
AcDbLine
 10
37.24999999999999
 20
3.665258684786358
 30
0.0
 11
37.25
 21
0.1179466925922732
 31
0.0
  0
LINE
  5
3F3
330
18
100
AcDbEntity
  8
1
100
AcDbLine
 10
37.25
 20
0.0714755940365451
 30
0.0
 11
37.25
 21
0.1179466821997772
 31
0.0
  0
LINE
  5
3F4
330
18
100
AcDbEntity
  8
1
100
AcDbLine
 10
37.25
 20
-7.040581298699577
 30
0.0
 11
37.25
 21
0.0714755940365451
 31
0.0
  0
LINE
  5
3F5
330
18
100
AcDbEntity
  8
1
100
AcDbLine
 10
37.25000000000001
 20
-7.040581298699577
 30
0.0
 11
37.25
 21
-7.9366236417105
 31
0.0
  0
LINE
  5
3F6
330
18
100
AcDbEntity
  8
1
100
AcDbLine
 10
0.0
 20
-7.937499999999998
 30
0.0
 11
36.25
 21
-7.937499999999999
 31
0.0
  0
LINE
  5
3F7
330
18
100
AcDbEntity
  8
1
 62
     1
100
AcDbLine
 10
37.24999999999999
 20
0.1179466821997772
 30
0.0
 11
37.34996227185862
 21
0.0000000000007163
 31
0.0
  0
LINE
  5
3F8
330
18
100
AcDbEntity
  8
1
 62
     1
100
AcDbLine
 10
37.25000000000001
 20
3.665258684786358
 30
0.0
 11
44.14589948178626
 21
-4.115821732874453
 31
0.0
  0
LINE
  5
3F9
330
18
100
AcDbEntity
  8
1
 62
     1
100
AcDbLine
 10
44.14589948178626
 20
-4.115821732874453
 30
0.0
 11
45.00788919192983
 21
-4.949388470535888
 31
0.0
  0
LINE
  5
3FA
330
18
100
AcDbEntity
  8
1
 62
     1
100
AcDbLine
 10
45.00788919192983
 20
-4.949388470535888
 30
0.0
 11
45.86987867137839
 21
-5.701798534288306
 31
0.0
  0
LINE
  5
3FB
330
18
100
AcDbEntity
  8
1
 62
     1
100
AcDbLine
 10
45.86987867137839
 20
-5.701798534288306
 30
0.0
 11
46.30087410231081
 21
-6.043656223546578
 31
0.0
  0
LINE
  5
3FC
330
18
100
AcDbEntity
  8
1
 62
     1
100
AcDbLine
 10
46.30087410231081
 20
-6.043656223546578
 30
0.0
 11
46.73186868027197
 21
-6.36071401354815
 31
0.0
  0
LINE
  5
3FD
330
18
100
AcDbEntity
  8
1
 62
     1
100
AcDbLine
 10
46.73186868027197
 20
-6.36071401354815
 30
0.0
 11
47.16286356849176
 21
-6.651670162623207
 31
0.0
  0
LINE
  5
3FE
330
18
100
AcDbEntity
  8
1
 62
     1
100
AcDbLine
 10
47.16286356849176
 20
-6.651670162623207
 30
0.0
 11
47.59385861420084
 21
-6.915330887275021
 31
0.0
  0
LINE
  5
3FF
330
18
100
AcDbEntity
  8
1
 62
     1
100
AcDbLine
 10
47.59385861420084
 20
-6.915330887275021
 30
0.0
 11
48.02485291104524
 21
-7.150614561155476
 31
0.0
  0
LINE
  5
400
330
18
100
AcDbEntity
  8
1
 62
     1
100
AcDbLine
 10
48.02485291104524
 20
-7.150614561155476
 30
0.0
 11
48.45584823248053
 21
-7.356555041454189
 31
0.0
  0
LINE
  5
401
330
18
100
AcDbEntity
  8
1
 62
     1
100
AcDbLine
 10
48.45584823248053
 20
-7.356555041454189
 30
0.0
 11
48.88684278525542
 21
-7.532307904432566
 31
0.0
  0
LINE
  5
402
330
18
100
AcDbEntity
  8
1
 62
     1
100
AcDbLine
 10
48.88684278525542
 20
-7.532307904432566
 30
0.0
 11
49.31783746561862
 21
-7.6771515855358
 31
0.0
  0
LINE
  5
403
330
18
100
AcDbEntity
  8
1
 62
     1
100
AcDbLine
 10
49.31783746561862
 20
-7.6771515855358
 30
0.0
 11
49.74883249383925
 21
-7.790491768622727
 31
0.0
  0
LINE
  5
404
330
18
100
AcDbEntity
  8
1
 62
     1
100
AcDbLine
 10
49.74883249383925
 20
-7.790491768622727
 30
0.0
 11
49.96432853101766
 21
-7.835198156169933
 31
0.0
  0
LINE
  5
405
330
18
100
AcDbEntity
  8
1
 62
     1
100
AcDbLine
 10
49.96432853101766
 20
-7.835198156169933
 30
0.0
 11
50.1798266687949
 21
-7.871863501066603
 31
0.0
  0
LINE
  5
406
330
18
100
AcDbEntity
  8
1
 62
     1
100
AcDbLine
 10
50.1798266687949
 20
-7.871863501066603
 30
0.0
 11
50.39532304345033
 21
-7.900452120170464
 31
0.0
  0
LINE
  5
407
330
18
100
AcDbEntity
  8
1
 62
     1
100
AcDbLine
 10
50.39532304345033
 20
-7.900452120170464
 30
0.0
 11
50.61082185762812
 21
-7.920932657862448
 31
0.0
  0
LINE
  5
408
330
18
100
AcDbEntity
  8
1
 62
     1
100
AcDbLine
 10
50.61082185762812
 20
-7.920932657862448
 30
0.0
 11
50.82631673717675
 21
-7.933286397001571
 31
0.0
  0
LINE
  5
409
330
18
100
AcDbEntity
  8
1
 62
     1
100
AcDbLine
 10
50.82631673717675
 20
-7.933286397001571
 30
0.0
 11
51.04179683495914
 21
-7.937498786968029
 31
0.0
  0
LINE
  5
40A
330
18
100
AcDbEntity
  8
1
 62
     1
100
AcDbLine
 10
51.04179683495914
 20
-7.937498786968028
 30
0.0
 11
51.04551587523492
 21
-7.937499999994492
 31
0.0
  0
LINE
  5
40B
330
18
100
AcDbEntity
  8
1
 62
     1
100
AcDbLine
 10
40.47883760980653
 20
7.937500000000001
 30
0.0
 11
40.87038192878381
 21
7.924058066152196
 31
0.0
  0
LINE
  5
40C
330
18
100
AcDbEntity
  8
1
 62
     1
100
AcDbLine
 10
40.87038192878381
 20
7.924058066152196
 30
0.0
 11
41.26192612066299
 21
7.883778290439508
 31
0.0
  0
LINE
  5
40D
330
18
100
AcDbEntity
  8
1
 62
     1
100
AcDbLine
 10
41.26192612066299
 20
7.883778290439508
 30
0.0
 11
41.65346724663971
 21
7.816797211322317
 31
0.0
  0
LINE
  5
40E
330
18
100
AcDbEntity
  8
1
 62
     1
100
AcDbLine
 10
41.65346724663971
 20
7.816797211322317
 30
0.0
 11
42.04500865337564
 21
7.723342266887545
 31
0.0
  0
LINE
  5
40F
330
18
100
AcDbEntity
  8
1
 62
     1
100
AcDbLine
 10
42.04500865337564
 20
7.723342266887545
 30
0.0
 11
42.43654871402833
 21
7.603729763070586
 31
0.0
  0
LINE
  5
410
330
18
100
AcDbEntity
  8
1
 62
     1
100
AcDbLine
 10
42.43654871402833
 20
7.603729763070586
 30
0.0
 11
42.82808915602335
 21
7.458365017442373
 31
0.0
  0
LINE
  5
411
330
18
100
AcDbEntity
  8
1
 62
     1
100
AcDbLine
 10
42.82808915602335
 20
7.458365017442373
 30
0.0
 11
43.21962931329728
 21
7.287739976758989
 31
0.0
  0
LINE
  5
412
330
18
100
AcDbEntity
  8
1
 62
     1
100
AcDbLine
 10
43.21962931329728
 20
7.287739976758989
 30
0.0
 11
43.61117020644655
 21
7.092432363479861
 31
0.0
  0
LINE
  5
413
330
18
100
AcDbEntity
  8
1
 62
     1
100
AcDbLine
 10
43.61117020644655
 20
7.092432363479861
 30
0.0
 11
44.00271245773487
 21
6.873103430340034
 31
0.0
  0
LINE
  5
414
330
18
100
AcDbEntity
  8
1
 62
     1
100
AcDbLine
 10
44.00271245773487
 20
6.873103430340034
 30
0.0
 11
44.39425517329158
 21
6.630494995601016
 31
0.0
  0
LINE
  5
415
330
18
100
AcDbEntity
  8
1
 62
     1
100
AcDbLine
 10
44.39425517329158
 20
6.630494995601016
 30
0.0
 11
44.78580101735263
 21
6.36542925856585
 31
0.0
  0
LINE
  5
416
330
18
100
AcDbEntity
  8
1
 62
     1
100
AcDbLine
 10
44.78580101735263
 20
6.36542925856585
 30
0.0
 11
45.17734478524002
 21
6.078803579332305
 31
0.0
  0
LINE
  5
417
330
18
100
AcDbEntity
  8
1
 62
     1
100
AcDbLine
 10
45.17734478524002
 20
6.078803579332305
 30
0.0
 11
45.9604296182806
 21
5.444832717350778
 31
0.0
  0
LINE
  5
418
330
18
100
AcDbEntity
  8
1
 62
     1
100
AcDbLine
 10
45.9604296182806
 20
5.444832717350778
 30
0.0
 11
46.7435108271173
 21
4.737164506469767
 31
0.0
  0
LINE
  5
419
330
18
100
AcDbEntity
  8
1
 62
     1
100
AcDbLine
 10
37.34996227185753
 20
7.9375
 30
0.0
 11
37.6801762137241
 21
7.92793826358673
 31
0.0
  0
LINE
  5
41A
330
18
100
AcDbEntity
  8
1
 62
     1
100
AcDbLine
 10
37.6801762137241
 20
7.92793826358673
 30
0.0
 11
38.01038249742857
 21
7.899277772571828
 31
0.0
  0
LINE
  5
41B
330
18
100
AcDbEntity
  8
1
 62
     1
100
AcDbLine
 10
38.01038249742857
 20
7.899277772571828
 30
0.0
 11
38.34058761245212
 21
7.851588240044402
 31
0.0
  0
LINE
  5
41C
330
18
100
AcDbEntity
  8
1
 62
     1
100
AcDbLine
 10
38.34058761245212
 20
7.851588240044402
 30
0.0
 11
38.67079860370404
 21
7.784982858575136
 31
0.0
  0
LINE
  5
41D
330
18
100
AcDbEntity
  8
1
 62
     1
100
AcDbLine
 10
38.67079860370404
 20
7.784982858575136
 30
0.0
 11
39.00101432538576
 21
7.699620491985578
 31
0.0
  0
LINE
  5
41E
330
18
100
AcDbEntity
  8
1
 62
     1
100
AcDbLine
 10
39.00101432538576
 20
7.699620491985578
 30
0.0
 11
39.33122186245511
 21
7.595710911775399
 31
0.0
  0
LINE
  5
41F
330
18
100
AcDbEntity
  8
1
 62
     1
100
AcDbLine
 10
39.33122186245511
 20
7.595710911775399
 30
0.0
 11
39.66142660304888
 21
7.473504253950857
 31
0.0
  0
LINE
  5
420
330
18
100
AcDbEntity
  8
1
 62
     1
100
AcDbLine
 10
39.66142660304888
 20
7.473504253950857
 30
0.0
 11
39.9916353930635
 21
7.333292339827313
 31
0.0
  0
LINE
  5
421
330
18
100
AcDbEntity
  8
1
 62
     1
100
AcDbLine
 10
39.9916353930635
 20
7.333292339827313
 30
0.0
 11
40.32185154166118
 21
7.175409627317733
 31
0.0
  0
LINE
  5
422
330
18
100
AcDbEntity
  8
1
 62
     1
100
AcDbLine
 10
40.32185154166118
 20
7.175409627317733
 30
0.0
 11
40.6520609100894
 21
7.000243385261522
 31
0.0
  0
LINE
  5
423
330
18
100
AcDbEntity
  8
1
 62
     1
100
AcDbLine
 10
40.6520609100894
 20
7.000243385261522
 30
0.0
 11
40.98226570371295
 21
6.808215893438376
 31
0.0
  0
LINE
  5
424
330
18
100
AcDbEntity
  8
1
 62
     1
100
AcDbLine
 10
40.98226570371295
 20
6.808215893438376
 30
0.0
 11
41.31247262900366
 21
6.599786342900054
 31
0.0
  0
LINE
  5
425
330
18
100
AcDbEntity
  8
1
 62
     1
100
AcDbLine
 10
41.31247262900366
 20
6.599786342900054
 30
0.0
 11
41.97289937638358
 21
6.135759183755736
 31
0.0
  0
LINE
  5
426
330
18
100
AcDbEntity
  8
1
 62
     1
100
AcDbLine
 10
41.97289937638358
 20
6.135759183755736
 30
0.0
 11
42.63331033291036
 21
5.61265294902465
 31
0.0
  0
LINE
  5
427
330
18
100
AcDbEntity
  8
1
 62
     1
100
AcDbLine
 10
42.63331033291036
 20
5.61265294902465
 30
0.0
 11
43.29373701657992
 21
5.035480614454992
 31
0.0
  0
LINE
  5
428
330
18
100
AcDbEntity
  8
1
 62
     1
100
AcDbLine
 10
43.29373701657992
 20
5.035480614454992
 30
0.0
 11
43.9541484611381
 21
4.409827195480241
 31
0.0
  0
LINE
  5
429
330
18
100
AcDbEntity
  8
1
 62
     1
100
AcDbLine
 10
43.9541484611381
 20
4.409827195480241
 30
0.0
 11
45.27498686071822
 21
3.037533219832017
 31
0.0
  0
LINE
  5
42A
330
18
100
AcDbEntity
  8
1
 62
     1
100
AcDbLine
 10
45.27498686071822
 20
3.037533219832017
 30
0.0
 11
47.91664181525088
 21
-0.0000000000000623
 31
0.0
  0
LINE
  5
42B
330
18
100
AcDbEntity
  8
1
 62
     1
100
AcDbLine
 10
69.0
 20
-6.059745568071865
 30
0.0
 11
68.99922069341505
 21
-6.105583359947603
 31
0.0
  0
LINE
  5
42C
330
18
100
AcDbEntity
  8
1
 62
     1
100
AcDbLine
 10
68.99922069341505
 20
-6.105583359947603
 30
0.0
 11
68.996789699544
 21
-6.151568570296679
 31
0.0
  0
LINE
  5
42D
330
18
100
AcDbEntity
  8
1
 62
     1
100
AcDbLine
 10
68.996789699544
 20
-6.151568570296679
 30
0.0
 11
68.99256718380485
 21
-6.197555515174304
 31
0.0
  0
LINE
  5
42E
330
18
100
AcDbEntity
  8
1
 62
     1
100
AcDbLine
 10
68.99256718380485
 20
-6.197555515174304
 30
0.0
 11
68.98639577152278
 21
-6.24345881221938
 31
0.0
  0
LINE
  5
42F
330
18
100
AcDbEntity
  8
1
 62
     1
100
AcDbLine
 10
68.98639577152278
 20
-6.24345881221938
 30
0.0
 11
68.97811235611415
 21
-6.289079536823403
 31
0.0
  0
LINE
  5
430
330
18
100
AcDbEntity
  8
1
 62
     1
100
AcDbLine
 10
68.97811235611415
 20
-6.289079536823403
 30
0.0
 11
68.96753846853167
 21
-6.334232667418803
 31
0.0
  0
LINE
  5
431
330
18
100
AcDbEntity
  8
1
 62
     1
100
AcDbLine
 10
68.96753846853167
 20
-6.334232667418803
 30
0.0
 11
68.95452601110557
 21
-6.378573062318682
 31
0.0
  0
LINE
  5
432
330
18
100
AcDbEntity
  8
1
 62
     1
100
AcDbLine
 10
68.95452601110557
 20
-6.378573062318682
 30
0.0
 11
68.9389164853642
 21
-6.421799535075374
 31
0.0
  0
LINE
  5
433
330
18
100
AcDbEntity
  8
1
 62
     1
100
AcDbLine
 10
68.9389164853642
 20
-6.421799535075374
 30
0.0
 11
68.93012093888743
 21
-6.442830767221016
 31
0.0
  0
LINE
  5
434
330
18
100
AcDbEntity
  8
1
 62
     1
100
AcDbLine
 10
68.93012093888743
 20
-6.442830767221016
 30
0.0
 11
68.92065322037851
 21
-6.463395716368514
 31
0.0
  0
LINE
  5
435
330
18
100
AcDbEntity
  8
1
 62
     1
100
AcDbLine
 10
68.92065322037851
 20
-6.463395716368514
 30
0.0
 11
68.91050895931205
 21
-6.483449980281728
 31
0.0
  0
LINE
  5
436
330
18
100
AcDbEntity
  8
1
 62
     1
100
AcDbLine
 10
68.91050895931205
 20
-6.483449980281728
 30
0.0
 11
68.89970390935751
 21
-6.502908983427595
 31
0.0
  0
LINE
  5
437
330
18
100
AcDbEntity
  8
1
 62
     1
100
AcDbLine
 10
68.89970390935751
 20
-6.502908983427595
 30
0.0
 11
68.88823771838759
 21
-6.521728470957638
 31
0.0
  0
LINE
  5
438
330
18
100
AcDbEntity
  8
1
 62
     1
100
AcDbLine
 10
68.88823771838759
 20
-6.521728470957638
 30
0.0
 11
68.87613939755107
 21
-6.539835217980736
 31
0.0
  0
LINE
  5
439
330
18
100
AcDbEntity
  8
1
 62
     1
100
AcDbLine
 10
68.87613939755107
 20
-6.539835217980736
 30
0.0
 11
68.86343473446851
 21
-6.557162775855489
 31
0.0
  0
LINE
  5
43A
330
18
100
AcDbEntity
  8
1
 62
     1
100
AcDbLine
 10
68.86343473446851
 20
-6.557162775855489
 30
0.0
 11
68.8501459108576
 21
-6.573674701671427
 31
0.0
  0
LINE
  5
43B
330
18
100
AcDbEntity
  8
1
 62
     1
100
AcDbLine
 10
68.8501459108576
 20
-6.573674701671427
 30
0.0
 11
68.83632617574835
 21
-6.589302673018026
 31
0.0
  0
LINE
  5
43C
330
18
100
AcDbEntity
  8
1
 62
     1
100
AcDbLine
 10
68.83632617574835
 20
-6.589302673018026
 30
0.0
 11
68.82200132036938
 21
-6.604020960466026
 31
0.0
  0
LINE
  5
43D
330
18
100
AcDbEntity
  8
1
 62
     1
100
AcDbLine
 10
68.82200132036938
 20
-6.604020960466026
 30
0.0
 11
68.80722362050983
 21
-6.61779604947737
 31
0.0
  0
LINE
  5
43E
330
18
100
AcDbEntity
  8
1
 62
     1
100
AcDbLine
 10
68.80722362050983
 20
-6.61779604947737
 30
0.0
 11
68.79204543973408
 21
-6.630595652272204
 31
0.0
  0
LINE
  5
43F
330
18
100
AcDbEntity
  8
1
 62
     1
100
AcDbLine
 10
68.79204543973408
 20
-6.630595652272204
 30
0.0
 11
68.77649895006482
 21
-6.642422542708616
 31
0.0
  0
LINE
  5
440
330
18
100
AcDbEntity
  8
1
 62
     1
100
AcDbLine
 10
68.77649895006482
 20
-6.642422542708616
 30
0.0
 11
68.76064715281778
 21
-6.653260285855798
 31
0.0
  0
LINE
  5
441
330
18
100
AcDbEntity
  8
1
 62
     1
100
AcDbLine
 10
68.76064715281778
 20
-6.653260285855798
 30
0.0
 11
68.74452312198513
 21
-6.663118567539647
 31
0.0
  0
LINE
  5
442
330
18
100
AcDbEntity
  8
1
 62
     1
100
AcDbLine
 10
68.74452312198513
 20
-6.663118567539647
 30
0.0
 11
68.72817170641676
 21
-6.672009603546162
 31
0.0
  0
LINE
  5
443
330
18
100
AcDbEntity
  8
1
 62
     1
100
AcDbLine
 10
68.72817170641676
 20
-6.672009603546162
 30
0.0
 11
68.71164096137792
 21
-6.679943462048386
 31
0.0
  0
LINE
  5
444
330
18
100
AcDbEntity
  8
1
 62
     1
100
AcDbLine
 10
68.71164096137792
 20
-6.679943462048386
 30
0.0
 11
68.6949536214111
 21
-6.686949065789436
 31
0.0
  0
LINE
  5
445
330
18
100
AcDbEntity
  8
1
 62
     1
100
AcDbLine
 10
68.6949536214111
 20
-6.686949065789436
 30
0.0
 11
68.67815474548279
 21
-6.693046461866071
 31
0.0
  0
LINE
  5
446
330
18
100
AcDbEntity
  8
1
 62
     1
100
AcDbLine
 10
68.67815474548279
 20
-6.693046461866071
 30
0.0
 11
68.66126727524258
 21
-6.698264776556591
 31
0.0
  0
LINE
  5
447
330
18
100
AcDbEntity
  8
1
 62
     1
100
AcDbLine
 10
68.66126727524258
 20
-6.698264776556591
 30
0.0
 11
68.64431713912705
 21
-6.7026341218487
 31
0.0
  0
LINE
  5
448
330
18
100
AcDbEntity
  8
1
 62
     1
100
AcDbLine
 10
68.64431713912705
 20
-6.7026341218487
 30
0.0
 11
68.62733374117937
 21
-6.706182511581126
 31
0.0
  0
LINE
  5
449
330
18
100
AcDbEntity
  8
1
 62
     1
100
AcDbLine
 10
68.62733374117937
 20
-6.706182511581126
 30
0.0
 11
68.61032403476153
 21
-6.708942977936076
 31
0.0
  0
LINE
  5
44A
330
18
100
AcDbEntity
  8
1
 62
     1
100
AcDbLine
 10
68.61032403476153
 20
-6.708942977936076
 30
0.0
 11
68.5933114135992
 21
-6.710944677601349
 31
0.0
  0
LINE
  5
44B
330
18
100
AcDbEntity
  8
1
 62
     1
100
AcDbLine
 10
68.5933114135992
 20
-6.710944677601349
 30
0.0
 11
68.5763211030027
 21
-6.71221634441876
 31
0.0
  0
LINE
  5
44C
330
18
100
AcDbEntity
  8
1
 62
     1
100
AcDbLine
 10
68.5763211030027
 20
-6.71221634441876
 30
0.0
 11
68.55936573053506
 21
-6.712787467443353
 31
0.0
  0
LINE
  5
44D
330
18
100
AcDbEntity
  8
1
 62
     1
100
AcDbLine
 10
68.55936573053506
 20
-6.712787467443353
 30
0.0
 11
68.54244453458833
 21
-6.712686716389998
 31
0.0
  0
LINE
  5
44E
330
18
100
AcDbEntity
  8
1
 62
     1
100
AcDbLine
 10
68.54244453458833
 20
-6.712686716389998
 30
0.0
 11
68.52557298526324
 21
-6.711940632859401
 31
0.0
  0
LINE
  5
44F
330
18
100
AcDbEntity
  8
1
 62
     1
100
AcDbLine
 10
68.52557298526324
 20
-6.711940632859401
 30
0.0
 11
68.50876671365137
 21
-6.710575727212828
 31
0.0
  0
LINE
  5
450
330
18
100
AcDbEntity
  8
1
 62
     1
100
AcDbLine
 10
68.50876671365137
 20
-6.710575727212828
 30
0.0
 11
68.47535592329942
 21
-6.706085728262211
 31
0.0
  0
LINE
  5
451
330
18
100
AcDbEntity
  8
1
 62
     1
100
AcDbLine
 10
68.47535592329942
 20
-6.706085728262211
 30
0.0
 11
68.44225646700731
 21
-6.69939817349711
 31
0.0
  0
LINE
  5
452
330
18
100
AcDbEntity
  8
1
 62
     1
100
AcDbLine
 10
68.44225646700731
 20
-6.69939817349711
 30
0.0
 11
68.40949815297004
 21
-6.690675930551562
 31
0.0
  0
LINE
  5
453
330
18
100
AcDbEntity
  8
1
 62
     1
100
AcDbLine
 10
68.40949815297004
 20
-6.690675930551562
 30
0.0
 11
68.3771088132765
 21
-6.680064574544561
 31
0.0
  0
LINE
  5
454
330
18
100
AcDbEntity
  8
1
 62
     1
100
AcDbLine
 10
68.3771088132765
 20
-6.680064574544561
 30
0.0
 11
68.34509212873809
 21
-6.66768926866519
 31
0.0
  0
LINE
  5
455
330
18
100
AcDbEntity
  8
1
 62
     1
100
AcDbLine
 10
68.34509212873809
 20
-6.66768926866519
 30
0.0
 11
68.31346505107462
 21
-6.653662844486412
 31
0.0
  0
LINE
  5
456
330
18
100
AcDbEntity
  8
1
 62
     1
100
AcDbLine
 10
68.31346505107462
 20
-6.653662844486412
 30
0.0
 11
68.28225303352879
 21
-6.638097487977275
 31
0.0
  0
LINE
  5
457
330
18
100
AcDbEntity
  8
1
 62
     1
100
AcDbLine
 10
68.28225303352879
 20
-6.638097487977275
 30
0.0
 11
68.25144177788151
 21
-6.621074726612376
 31
0.0
  0
LINE
  5
458
330
18
100
AcDbEntity
  8
1
 62
     1
100
AcDbLine
 10
68.25144177788151
 20
-6.621074726612376
 30
0.0
 11
68.206
 21
-6.592986847054503
 31
0.0
  0
LINE
  5
459
330
18
100
AcDbEntity
  8
1
 62
     1
100
AcDbLine
 10
69.0
 20
-7.143302668090335
 30
0.0
 11
68.99843553913267
 21
-7.193104864846285
 31
0.0
  0
LINE
  5
45A
330
18
100
AcDbEntity
  8
1
 62
     1
100
AcDbLine
 10
68.99843553913267
 20
-7.193104864846285
 30
0.0
 11
68.99377690150315
 21
-7.242458346469054
 31
0.0
  0
LINE
  5
45B
330
18
100
AcDbEntity
  8
1
 62
     1
100
AcDbLine
 10
68.99377690150315
 20
-7.242458346469054
 30
0.0
 11
68.98612468906047
 21
-7.290957175862844
 31
0.0
  0
LINE
  5
45C
330
18
100
AcDbEntity
  8
1
 62
     1
100
AcDbLine
 10
68.98612468906047
 20
-7.290957175862844
 30
0.0
 11
68.9756362365091
 21
-7.338232171077042
 31
0.0
  0
LINE
  5
45D
330
18
100
AcDbEntity
  8
1
 62
     1
100
AcDbLine
 10
68.9756362365091
 20
-7.338232171077042
 30
0.0
 11
68.96251186964929
 21
-7.383967805322276
 31
0.0
  0
LINE
  5
45E
330
18
100
AcDbEntity
  8
1
 62
     1
100
AcDbLine
 10
68.96251186964929
 20
-7.383967805322276
 30
0.0
 11
68.94697893476246
 21
-7.427911454135751
 31
0.0
  0
LINE
  5
45F
330
18
100
AcDbEntity
  8
1
 62
     1
100
AcDbLine
 10
68.94697893476246
 20
-7.427911454135751
 30
0.0
 11
68.9292764044251
 21
-7.469874718397284
 31
0.0
  0
LINE
  5
460
330
18
100
AcDbEntity
  8
1
 62
     1
100
AcDbLine
 10
68.9292764044251
 20
-7.469874718397284
 30
0.0
 11
68.90963655992638
 21
-7.509737714716112
 31
0.0
  0
LINE
  5
461
330
18
100
AcDbEntity
  8
1
 62
     1
100
AcDbLine
 10
68.90963655992638
 20
-7.509737714716112
 30
0.0
 11
68.88829073395188
 21
-7.547416339147534
 31
0.0
  0
LINE
  5
462
330
18
100
AcDbEntity
  8
1
 62
     1
100
AcDbLine
 10
68.88829073395188
 20
-7.547416339147534
 30
0.0
 11
68.86544438596106
 21
-7.582876674035482
 31
0.0
  0
LINE
  5
463
330
18
100
AcDbEntity
  8
1
 62
     1
100
AcDbLine
 10
68.86544438596106
 20
-7.582876674035482
 30
0.0
 11
68.84129530408663
 21
-7.616105764347206
 31
0.0
  0
LINE
  5
464
330
18
100
AcDbEntity
  8
1
 62
     1
100
AcDbLine
 10
68.84129530408663
 20
-7.616105764347206
 30
0.0
 11
68.81599966034821
 21
-7.647138904833753
 31
0.0
  0
LINE
  5
465
330
18
100
AcDbEntity
  8
1
 62
     1
100
AcDbLine
 10
68.81599966034821
 20
-7.647138904833753
 30
0.0
 11
68.78971824228299
 21
-7.675996649079436
 31
0.0
  0
LINE
  5
466
330
18
100
AcDbEntity
  8
1
 62
     1
100
AcDbLine
 10
68.78971824228299
 20
-7.675996649079436
 30
0.0
 11
68.76256838553009
 21
-7.702738305895751
 31
0.0
  0
LINE
  5
467
330
18
100
AcDbEntity
  8
1
 62
     1
100
AcDbLine
 10
68.76256838553009
 20
-7.702738305895751
 30
0.0
 11
68.73467150364475
 21
-7.727406370669959
 31
0.0
  0
LINE
  5
468
330
18
100
AcDbEntity
  8
1
 62
     1
100
AcDbLine
 10
68.73467150364475
 20
-7.727406370669959
 30
0.0
 11
68.70612010696156
 21
-7.750060133221755
 31
0.0
  0
LINE
  5
469
330
18
100
AcDbEntity
  8
1
 62
     1
100
AcDbLine
 10
68.70612010696156
 20
-7.750060133221755
 30
0.0
 11
68.67699323987061
 21
-7.770757857768613
 31
0.0
  0
LINE
  5
46A
330
18
100
AcDbEntity
  8
1
 62
     1
100
AcDbLine
 10
68.67699323987061
 20
-7.770757857768613
 30
0.0
 11
68.64736393761609
 21
-7.789551660752224
 31
0.0
  0
LINE
  5
46B
330
18
100
AcDbEntity
  8
1
 62
     1
100
AcDbLine
 10
68.64736393761609
 20
-7.789551660752224
 30
0.0
 11
68.61731670255534
 21
-7.806480997687381
 31
0.0
  0
LINE
  5
46C
330
18
100
AcDbEntity
  8
1
 62
     1
100
AcDbLine
 10
68.61731670255534
 20
-7.806480997687381
 30
0.0
 11
68.58688531737495
 21
-7.82160734537568
 31
0.0
  0
LINE
  5
46D
330
18
100
AcDbEntity
  8
1
 62
     1
100
AcDbLine
 10
68.58688531737495
 20
-7.82160734537568
 30
0.0
 11
68.55613001644616
 21
-7.834969647084018
 31
0.0
  0
LINE
  5
46E
330
18
100
AcDbEntity
  8
1
 62
     1
100
AcDbLine
 10
68.55613001644616
 20
-7.834969647084018
 30
0.0
 11
68.52509881567883
 21
-7.846608872905026
 31
0.0
  0
LINE
  5
46F
330
18
100
AcDbEntity
  8
1
 62
     1
100
AcDbLine
 10
68.52509881567883
 20
-7.846608872905026
 30
0.0
 11
68.49381499475993
 21
-7.856568621658345
 31
0.0
  0
LINE
  5
470
330
18
100
AcDbEntity
  8
1
 62
     1
100
AcDbLine
 10
68.49381499475993
 20
-7.856568621658345
 30
0.0
 11
68.46232934276749
 21
-7.864878447317766
 31
0.0
  0
LINE
  5
471
330
18
100
AcDbEntity
  8
1
 62
     1
100
AcDbLine
 10
68.46232934276749
 20
-7.864878447317766
 30
0.0
 11
68.4306548441467
 21
-7.8715744570474
 31
0.0
  0
LINE
  5
472
330
18
100
AcDbEntity
  8
1
 62
     1
100
AcDbLine
 10
68.4306548441467
 20
-7.8715744570474
 30
0.0
 11
68.39881639066127
 21
-7.8766830599976
 31
0.0
  0
LINE
  5
473
330
18
100
AcDbEntity
  8
1
 62
     1
100
AcDbLine
 10
68.39881639066127
 20
-7.8766830599976
 30
0.0
 11
68.36685511862865
 21
-7.880225621792311
 31
0.0
  0
LINE
  5
474
330
18
100
AcDbEntity
  8
1
 62
     1
100
AcDbLine
 10
68.36685511862865
 20
-7.880225621792311
 30
0.0
 11
68.33481017521628
 21
-7.882223610671243
 31
0.0
  0
LINE
  5
475
330
18
100
AcDbEntity
  8
1
 62
     1
100
AcDbLine
 10
68.33481017521628
 20
-7.882223610671243
 30
0.0
 11
68.302679726243
 21
-7.88269795178857
 31
0.0
  0
LINE
  5
476
330
18
100
AcDbEntity
  8
1
 62
     1
100
AcDbLine
 10
68.302679726243
 20
-7.88269795178857
 30
0.0
 11
68.27048022151021
 21
-7.881662172606945
 31
0.0
  0
LINE
  5
477
330
18
100
AcDbEntity
  8
1
 62
     1
100
AcDbLine
 10
68.27048022151021
 20
-7.881662172606945
 30
0.0
 11
68.23824314982639
 21
-7.879128112863869
 31
0.0
  0
LINE
  5
478
330
18
100
AcDbEntity
  8
1
 62
     1
100
AcDbLine
 10
68.23824314982639
 20
-7.879128112863869
 30
0.0
 11
68.20600000000002
 21
-7.875107612296846
 31
0.0
  0
LINE
  5
479
330
18
100
AcDbEntity
  8
1
 62
     1
100
AcDbLine
 10
69.00000000000001
 20
-6.059745568071859
 30
0.0
 11
69.0
 21
-7.143302668090334
 31
0.0
  0
LINE
  5
47A
330
18
100
AcDbEntity
  8
1
 62
     1
100
AcDbLine
 10
51.04551587523301
 20
7.9375
 30
0.0
 11
51.43706101821439
 21
7.924058102571868
 31
0.0
  0
LINE
  5
47B
330
18
100
AcDbEntity
  8
1
 62
     1
100
AcDbLine
 10
51.43706101821439
 20
7.924058102571868
 30
0.0
 11
51.82860479969075
 21
7.883778309616389
 31
0.0
  0
LINE
  5
47C
330
18
100
AcDbEntity
  8
1
 62
     1
100
AcDbLine
 10
51.82860479969075
 20
7.883778309616389
 30
0.0
 11
52.22014620060812
 21
7.816797262197117
 31
0.0
  0
LINE
  5
47D
330
18
100
AcDbEntity
  8
1
 62
     1
100
AcDbLine
 10
52.22014620060812
 20
7.816797262197117
 30
0.0
 11
52.611687758973
 21
7.723342359158514
 31
0.0
  0
LINE
  5
47E
330
18
100
AcDbEntity
  8
1
 62
     1
100
AcDbLine
 10
52.611687758973
 20
7.723342359158514
 30
0.0
 11
53.00322749565935
 21
7.603729753853127
 31
0.0
  0
LINE
  5
47F
330
18
100
AcDbEntity
  8
1
 62
     1
100
AcDbLine
 10
53.00322749565935
 20
7.603729753853127
 30
0.0
 11
53.39476825836609
 21
7.458365084705946
 31
0.0
  0
LINE
  5
480
330
18
100
AcDbEntity
  8
1
 62
     1
100
AcDbLine
 10
53.39476825836609
 20
7.458365084705946
 30
0.0
 11
53.7863081347984
 21
7.287739918038556
 31
0.0
  0
LINE
  5
481
330
18
100
AcDbEntity
  8
1
 62
     1
100
AcDbLine
 10
53.7863081347984
 20
7.287739918038556
 30
0.0
 11
54.17784980781759
 21
7.092432550718446
 31
0.0
  0
LINE
  5
482
330
18
100
AcDbEntity
  8
1
 62
     1
100
AcDbLine
 10
54.17784980781759
 20
7.092432550718446
 30
0.0
 11
54.56939116754194
 21
6.873103224619868
 31
0.0
  0
LINE
  5
483
330
18
100
AcDbEntity
  8
1
 62
     1
100
AcDbLine
 10
54.56939116754194
 20
6.873103224619868
 30
0.0
 11
54.96093479313217
 21
6.630495140963804
 31
0.0
  0
LINE
  5
484
330
18
100
AcDbEntity
  8
1
 62
     1
100
AcDbLine
 10
54.96093479313217
 20
6.630495140963804
 30
0.0
 11
55.35247981492557
 21
6.365428947898805
 31
0.0
  0
LINE
  5
485
330
18
100
AcDbEntity
  8
1
 62
     1
100
AcDbLine
 10
55.35247981492557
 20
6.365428947898805
 30
0.0
 11
55.74402427013776
 21
6.078803563384003
 31
0.0
  0
LINE
  5
486
330
18
100
AcDbEntity
  8
1
 62
     1
100
AcDbLine
 10
55.74402427013776
 20
6.078803563384003
 30
0.0
 11
56.52710895060333
 21
5.444832472528645
 31
0.0
  0
LINE
  5
487
330
18
100
AcDbEntity
  8
1
 62
     1
100
AcDbLine
 10
56.52710895060333
 20
5.444832472528645
 30
0.0
 11
57.31018998925713
 21
4.737163977981156
 31
0.0
  0
LINE
  5
488
330
18
100
AcDbEntity
  8
1
 62
     1
100
AcDbLine
 10
47.91664181525097
 20
7.9375
 30
0.0
 11
51.04551587523302
 21
7.9375
 31
0.0
  0
LINE
  5
489
330
18
100
AcDbEntity
  8
1
 62
     1
100
AcDbLine
 10
47.91664181525097
 20
7.937499999999998
 30
0.0
 11
48.24685545924055
 21
7.927938250628687
 31
0.0
  0
LINE
  5
48A
330
18
100
AcDbEntity
  8
1
 62
     1
100
AcDbLine
 10
48.24685545924055
 20
7.927938250628687
 30
0.0
 11
48.57706164595469
 21
7.899277742696376
 31
0.0
  0
LINE
  5
48B
330
18
100
AcDbEntity
  8
1
 62
     1
100
AcDbLine
 10
48.57706164595469
 20
7.899277742696376
 30
0.0
 11
48.90726685315454
 21
7.851588207198451
 31
0.0
  0
LINE
  5
48C
330
18
100
AcDbEntity
  8
1
 62
     1
100
AcDbLine
 10
48.90726685315454
 20
7.851588207198451
 30
0.0
 11
49.23747796817585
 21
7.784982837406663
 31
0.0
  0
LINE
  5
48D
330
18
100
AcDbEntity
  8
1
 62
     1
100
AcDbLine
 10
49.23747796817585
 20
7.784982837406663
 30
0.0
 11
49.56769361106593
 21
7.699620451867705
 31
0.0
  0
LINE
  5
48E
330
18
100
AcDbEntity
  8
1
 62
     1
100
AcDbLine
 10
49.56769361106593
 20
7.699620451867705
 30
0.0
 11
49.89790109999882
 21
7.595710856272828
 31
0.0
  0
LINE
  5
48F
330
18
100
AcDbEntity
  8
1
 62
     1
100
AcDbLine
 10
49.89790109999882
 20
7.595710856272828
 30
0.0
 11
50.22810586199449
 21
7.473504197548657
 31
0.0
  0
LINE
  5
490
330
18
100
AcDbEntity
  8
1
 62
     1
100
AcDbLine
 10
50.22810586199449
 20
7.473504197548657
 30
0.0
 11
50.55831462845089
 21
7.333292273177218
 31
0.0
  0
LINE
  5
491
330
18
100
AcDbEntity
  8
1
 62
     1
100
AcDbLine
 10
50.55831462845089
 20
7.333292273177218
 30
0.0
 11
50.88853082733059
 21
7.175409575708281
 31
0.0
  0
LINE
  5
492
330
18
100
AcDbEntity
  8
1
 62
     1
100
AcDbLine
 10
50.88853082733059
 20
7.175409575708281
 30
0.0
 11
51.21874013139465
 21
7.000243307638436
 31
0.0
  0
LINE
  5
493
330
18
100
AcDbEntity
  8
1
 62
     1
100
AcDbLine
 10
51.21874013139465
 20
7.000243307638436
 30
0.0
 11
51.54894496906235
 21
6.808215833261626
 31
0.0
  0
LINE
  5
494
330
18
100
AcDbEntity
  8
1
 62
     1
100
AcDbLine
 10
51.54894496906235
 20
6.808215833261626
 30
0.0
 11
51.87915181680652
 21
6.599786248055135
 31
0.0
  0
LINE
  5
495
330
18
100
AcDbEntity
  8
1
 62
     1
100
AcDbLine
 10
51.87915181680652
 20
6.599786248055135
 30
0.0
 11
52.53957855726988
 21
6.13575908469015
 31
0.0
  0
LINE
  5
496
330
18
100
AcDbEntity
  8
1
 62
     1
100
AcDbLine
 10
52.53957855726988
 20
6.13575908469015
 30
0.0
 11
53.19998952956342
 21
5.612652863998843
 31
0.0
  0
LINE
  5
497
330
18
100
AcDbEntity
  8
1
 62
     1
100
AcDbLine
 10
53.19998952956342
 20
5.612652863998843
 30
0.0
 11
53.86041620303817
 21
5.035480531396662
 31
0.0
  0
LINE
  5
498
330
18
100
AcDbEntity
  8
1
 62
     1
100
AcDbLine
 10
53.86041620303817
 20
5.035480531396662
 30
0.0
 11
54.520827662036
 21
4.409827134192926
 31
0.0
  0
LINE
  5
499
330
18
100
AcDbEntity
  8
1
 62
     1
100
AcDbLine
 10
54.520827662036
 20
4.409827134192926
 30
0.0
 11
55.84166605733719
 21
3.03753318874442
 31
0.0
  0
LINE
  5
49A
330
18
100
AcDbEntity
  8
1
 62
     1
100
AcDbLine
 10
55.84166605733719
 20
3.03753318874442
 30
0.0
 11
58.48332094896999
 21
-0.000000000000103
 31
0.0
  0
LINE
  5
49B
330
18
100
AcDbEntity
  8
1
 62
     1
100
AcDbLine
 10
69.0
 20
3.782733918772709
 30
0.0
 11
68.99995238405072
 21
3.780844750037409
 31
0.0
  0
LINE
  5
49C
330
18
100
AcDbEntity
  8
1
 62
     1
100
AcDbLine
 10
68.99995238405072
 20
3.780844750037409
 30
0.0
 11
68.99980808191991
 21
3.779031217003818
 31
0.0
  0
LINE
  5
49D
330
18
100
AcDbEntity
  8
1
 62
     1
100
AcDbLine
 10
68.99980808191991
 20
3.779031217003818
 30
0.0
 11
68.99956491218288
 21
3.777296063668124
 31
0.0
  0
LINE
  5
49E
330
18
100
AcDbEntity
  8
1
 62
     1
100
AcDbLine
 10
68.99956491218288
 20
3.777296063668124
 30
0.0
 11
68.9992206934151
 21
3.775642034026527
 31
0.0
  0
LINE
  5
49F
330
18
100
AcDbEntity
  8
1
 62
     1
100
AcDbLine
 10
68.9992206934151
 20
3.775642034026527
 30
0.0
 11
68.99901000894944
 21
3.774846298089823
 31
0.0
  0
LINE
  5
4A0
330
18
100
AcDbEntity
  8
1
 62
     1
100
AcDbLine
 10
68.99901000894944
 20
3.774846298089823
 30
0.0
 11
68.9987732441919
 21
3.774071872075218
 31
0.0
  0
LINE
  5
4A1
330
18
100
AcDbEntity
  8
1
 62
     1
100
AcDbLine
 10
68.9987732441919
 20
3.774071872075218
 30
0.0
 11
68.99851012646432
 21
3.773319098982232
 31
0.0
  0
LINE
  5
4A2
330
18
100
AcDbEntity
  8
1
 62
     1
100
AcDbLine
 10
68.99851012646432
 20
3.773319098982232
 30
0.0
 11
68.99822038308872
 21
3.772588321810393
 31
0.0
  0
LINE
  5
4A3
330
18
100
AcDbEntity
  8
1
 62
     1
100
AcDbLine
 10
68.99822038308872
 20
3.772588321810393
 30
0.0
 11
68.99790374138696
 21
3.771879883559224
 31
0.0
  0
LINE
  5
4A4
330
18
100
AcDbEntity
  8
1
 62
     1
100
AcDbLine
 10
68.99790374138696
 20
3.771879883559224
 30
0.0
 11
68.99755992868097
 21
3.771194127228249
 31
0.0
  0
LINE
  5
4A5
330
18
100
AcDbEntity
  8
1
 62
     1
100
AcDbLine
 10
68.99755992868097
 20
3.771194127228249
 30
0.0
 11
68.9971886722927
 21
3.770531395816993
 31
0.0
  0
LINE
  5
4A6
330
18
100
AcDbEntity
  8
1
 62
     1
100
AcDbLine
 10
68.9971886722927
 20
3.770531395816993
 30
0.0
 11
68.99678969954402
 21
3.769892032324976
 31
0.0
  0
LINE
  5
4A7
330
18
100
AcDbEntity
  8
1
 62
     1
100
AcDbLine
 10
68.99678969954402
 20
3.769892032324976
 30
0.0
 11
68.99636273775693
 21
3.76927637975173
 31
0.0
  0
LINE
  5
4A8
330
18
100
AcDbEntity
  8
1
 62
     1
100
AcDbLine
 10
68.99636273775693
 20
3.76927637975173
 30
0.0
 11
68.9959075142533
 21
3.768684781096775
 31
0.0
  0
LINE
  5
4A9
330
18
100
AcDbEntity
  8
1
 62
     1
100
AcDbLine
 10
68.9959075142533
 20
3.768684781096775
 30
0.0
 11
68.9954237563551
 21
3.768117579359636
 31
0.0
  0
LINE
  5
4AA
330
18
100
AcDbEntity
  8
1
 62
     1
100
AcDbLine
 10
68.9954237563551
 20
3.768117579359636
 30
0.0
 11
68.9949111913842
 21
3.767575117539836
 31
0.0
  0
LINE
  5
4AB
330
18
100
AcDbEntity
  8
1
 62
     1
100
AcDbLine
 10
68.9949111913842
 20
3.767575117539836
 30
0.0
 11
68.99436954666255
 21
3.767057738636901
 31
0.0
  0
LINE
  5
4AC
330
18
100
AcDbEntity
  8
1
 62
     1
100
AcDbLine
 10
68.99436954666255
 20
3.767057738636901
 30
0.0
 11
68.99379854951209
 21
3.766565785650354
 31
0.0
  0
LINE
  5
4AD
330
18
100
AcDbEntity
  8
1
 62
     1
100
AcDbLine
 10
68.99379854951209
 20
3.766565785650354
 30
0.0
 11
68.99319792516204
 21
3.766099601176308
 31
0.0
  0
LINE
  5
4AE
330
18
100
AcDbEntity
  8
1
 62
     1
100
AcDbLine
 10
68.99319792516204
 20
3.766099601176308
 30
0.0
 11
68.99256718380488
 21
3.765659505513427
 31
0.0
  0
LINE
  5
4AF
330
18
100
AcDbEntity
  8
1
 62
     1
100
AcDbLine
 10
68.99256718380488
 20
3.765659505513427
 30
0.0
 11
68.99190588614606
 21
3.765245890646336
 31
0.0
  0
LINE
  5
4B0
330
18
100
AcDbEntity
  8
1
 62
     1
100
AcDbLine
 10
68.99190588614606
 20
3.765245890646336
 30
0.0
 11
68.991213729155
 21
3.764859187199987
 31
0.0
  0
LINE
  5
4B1
330
18
100
AcDbEntity
  8
1
 62
     1
100
AcDbLine
 10
68.991213729155
 20
3.764859187199987
 30
0.0
 11
68.99049040980123
 21
3.764499825799324
 31
0.0
  0
LINE
  5
4B2
330
18
100
AcDbEntity
  8
1
 62
     1
100
AcDbLine
 10
68.99049040980123
 20
3.764499825799324
 30
0.0
 11
68.98973562505418
 21
3.764168237069296
 31
0.0
  0
LINE
  5
4B3
330
18
100
AcDbEntity
  8
1
 62
     1
100
AcDbLine
 10
68.98973562505418
 20
3.764168237069296
 30
0.0
 11
68.98894907188334
 21
3.76386485163485
 31
0.0
  0
LINE
  5
4B4
330
18
100
AcDbEntity
  8
1
 62
     1
100
AcDbLine
 10
68.98894907188334
 20
3.76386485163485
 30
0.0
 11
68.98813044725819
 21
3.763590100120933
 31
0.0
  0
LINE
  5
4B5
330
18
100
AcDbEntity
  8
1
 62
     1
100
AcDbLine
 10
68.98813044725819
 20
3.763590100120933
 30
0.0
 11
68.9872794481482
 21
3.763344413152494
 31
0.0
  0
LINE
  5
4B6
330
18
100
AcDbEntity
  8
1
 62
     1
100
AcDbLine
 10
68.9872794481482
 20
3.763344413152494
 30
0.0
 11
68.98639577152281
 21
3.763128221354476
 31
0.0
  0
LINE
  5
4B7
330
18
100
AcDbEntity
  8
1
 62
     1
100
AcDbLine
 10
68.98639577152281
 20
3.763128221354476
 30
0.0
 11
68.98547911435153
 21
3.76294195535183
 31
0.0
  0
LINE
  5
4B8
330
18
100
AcDbEntity
  8
1
 62
     1
100
AcDbLine
 10
68.98547911435153
 20
3.76294195535183
 30
0.0
 11
68.98452917360382
 21
3.762786045769503
 31
0.0
  0
LINE
  5
4B9
330
18
100
AcDbEntity
  8
1
 62
     1
100
AcDbLine
 10
68.98452917360382
 20
3.762786045769503
 30
0.0
 11
68.98354564624915
 21
3.762660923232442
 31
0.0
  0
LINE
  5
4BA
330
18
100
AcDbEntity
  8
1
 62
     1
100
AcDbLine
 10
68.98354564624915
 20
3.762660923232442
 30
0.0
 11
68.98147661959686
 21
3.762504761793906
 31
0.0
  0
LINE
  5
4BB
330
18
100
AcDbEntity
  8
1
 62
     1
100
AcDbLine
 10
68.98147661959686
 20
3.762504761793906
 30
0.0
 11
68.97926932504382
 21
3.762476962261259
 31
0.0
  0
LINE
  5
4BC
330
18
100
AcDbEntity
  8
1
 62
     1
100
AcDbLine
 10
68.97926932504382
 20
3.762476962261259
 30
0.0
 11
68.97691935399995
 21
3.762581364088662
 31
0.0
  0
LINE
  5
4BD
330
18
100
AcDbEntity
  8
1
 62
     1
100
AcDbLine
 10
68.97691935399995
 20
3.762581364088662
 30
0.0
 11
68.97442425300349
 21
3.762821614840341
 31
0.0
  0
LINE
  5
4BE
330
18
100
AcDbEntity
  8
1
 62
     1
100
AcDbLine
 10
68.97442425300349
 20
3.762821614840341
 30
0.0
 11
68.97178202762574
 21
3.763201298288687
 31
0.0
  0
LINE
  5
4BF
330
18
100
AcDbEntity
  8
1
 62
     1
100
AcDbLine
 10
68.97178202762574
 20
3.763201298288687
 30
0.0
 11
68.96899068343814
 21
3.763723998206097
 31
0.0
  0
LINE
  5
4C0
330
18
100
AcDbEntity
  8
1
 62
     1
100
AcDbLine
 10
68.96899068343814
 20
3.763723998206097
 30
0.0
 11
68.96604822601196
 21
3.764393298364964
 31
0.0
  0
LINE
  5
4C1
330
18
100
AcDbEntity
  8
1
 62
     1
100
AcDbLine
 10
68.96604822601196
 20
3.764393298364964
 30
0.0
 11
68.95970199372937
 21
3.766186034496636
 31
0.0
  0
LINE
  5
4C2
330
18
100
AcDbEntity
  8
1
 62
     1
100
AcDbLine
 10
68.95970199372937
 20
3.766186034496636
 30
0.0
 11
68.95271876682096
 21
3.768611577091138
 31
0.0
  0
LINE
  5
4C3
330
18
100
AcDbEntity
  8
1
 62
     1
100
AcDbLine
 10
68.95271876682096
 20
3.768611577091138
 30
0.0
 11
68.94507893715392
 21
3.771698355523235
 31
0.0
  0
LINE
  5
4C4
330
18
100
AcDbEntity
  8
1
 62
     1
100
AcDbLine
 10
68.94507893715392
 20
3.771698355523235
 30
0.0
 11
68.93677971306786
 21
3.775467096461038
 31
0.0
  0
LINE
  5
4C5
330
18
100
AcDbEntity
  8
1
 62
     1
100
AcDbLine
 10
68.93677971306786
 20
3.775467096461038
 30
0.0
 11
68.91817991025906
 21
3.785137587302111
 31
0.0
  0
LINE
  5
4C6
330
18
100
AcDbEntity
  8
1
 62
     1
100
AcDbLine
 10
68.91817991025906
 20
3.785137587302111
 30
0.0
 11
68.89689870623447
 21
3.797756165186188
 31
0.0
  0
LINE
  5
4C7
330
18
100
AcDbEntity
  8
1
 62
     1
100
AcDbLine
 10
68.89689870623447
 20
3.797756165186188
 30
0.0
 11
68.873020458823
 21
3.813361416952513
 31
0.0
  0
LINE
  5
4C8
330
18
100
AcDbEntity
  8
1
 62
     1
100
AcDbLine
 10
68.873020458823
 20
3.813361416952513
 30
0.0
 11
68.8183467838285
 21
3.853108720150366
 31
0.0
  0
LINE
  5
4C9
330
18
100
AcDbEntity
  8
1
 62
     1
100
AcDbLine
 10
68.8183467838285
 20
3.853108720150366
 30
0.0
 11
68.75664064705468
 21
3.902522918035125
 31
0.0
  0
LINE
  5
4CA
330
18
100
AcDbEntity
  8
1
 62
     1
100
AcDbLine
 10
68.75664064705468
 20
3.902522918035125
 30
0.0
 11
68.62308296734136
 21
4.019415049669888
 31
0.0
  0
LINE
  5
4CB
330
18
100
AcDbEntity
  8
1
 62
     1
100
AcDbLine
 10
68.62308296734136
 20
4.019415049669888
 30
0.0
 11
68.206
 21
4.420003471103422
 31
0.0
  0
LINE
  5
4CC
330
18
100
AcDbEntity
  8
1
 62
     1
100
AcDbLine
 10
69.0
 20
0.0530965352305375
 30
0.0
 11
68.9999999040263
 21
0.0530995324605897
 31
0.0
  0
LINE
  5
4CD
330
18
100
AcDbEntity
  8
1
 62
     1
100
AcDbLine
 10
68.9999999040263
 20
0.0530995324605897
 30
0.0
 11
68.99999961612049
 21
0.0531027336092252
 31
0.0
  0
LINE
  5
4CE
330
18
100
AcDbEntity
  8
1
 62
     1
100
AcDbLine
 10
68.99999961612049
 20
0.0531027336092252
 30
0.0
 11
68.99999913630558
 21
0.0531061386825388
 31
0.0
  0
LINE
  5
4CF
330
18
100
AcDbEntity
  8
1
 62
     1
100
AcDbLine
 10
68.99999913630558
 20
0.0531061386825388
 30
0.0
 11
68.99999846460457
 21
0.0531097476866253
 31
0.0
  0
LINE
  5
4D0
330
18
100
AcDbEntity
  8
1
 62
     1
100
AcDbLine
 10
68.99999846460457
 20
0.0531097476866253
 30
0.0
 11
68.99999760104042
 21
0.0531135606275793
 31
0.0
  0
LINE
  5
4D1
330
18
100
AcDbEntity
  8
1
 62
     1
100
AcDbLine
 10
68.99999760104042
 20
0.0531135606275793
 30
0.0
 11
68.99999529841469
 21
0.0531217983444691
 31
0.0
  0
LINE
  5
4D2
330
18
100
AcDbEntity
  8
1
 62
     1
100
AcDbLine
 10
68.99999529841469
 20
0.0531217983444691
 30
0.0
 11
68.99999222861231
 21
0.0531308518819661
 31
0.0
  0
LINE
  5
4D3
330
18
100
AcDbEntity
  8
1
 62
     1
100
AcDbLine
 10
68.99999222861231
 20
0.0531308518819661
 30
0.0
 11
68.99998839181724
 21
0.0531407212888285
 31
0.0
  0
LINE
  5
4D4
330
18
100
AcDbEntity
  8
1
 62
     1
100
AcDbLine
 10
68.99998839181724
 20
0.0531407212888285
 30
0.0
 11
68.99997841798447
 21
0.0531629079056808
 31
0.0
  0
LINE
  5
4D5
330
18
100
AcDbEntity
  8
1
 62
     1
100
AcDbLine
 10
68.99997841798447
 20
0.0531629079056808
 30
0.0
 11
68.99996537838771
 21
0.0531883585850898
 31
0.0
  0
LINE
  5
4D6
330
18
100
AcDbEntity
  8
1
 62
     1
100
AcDbLine
 10
68.99996537838771
 20
0.0531883585850898
 30
0.0
 11
68.99993010778734
 21
0.0532490536918328
 31
0.0
  0
LINE
  5
4D7
330
18
100
AcDbEntity
  8
1
 62
     1
100
AcDbLine
 10
68.99993010778734
 20
0.0532490536918328
 30
0.0
 11
68.9998825917863
 21
0.0533228097295676
 31
0.0
  0
LINE
  5
4D8
330
18
100
AcDbEntity
  8
1
 62
     1
100
AcDbLine
 10
68.9998825917863
 20
0.0533228097295676
 30
0.0
 11
68.99975087066352
 21
0.0535095170800531
 31
0.0
  0
LINE
  5
4D9
330
18
100
AcDbEntity
  8
1
 62
     1
100
AcDbLine
 10
68.99975087066352
 20
0.0535095170800531
 30
0.0
 11
68.9993410015019
 21
0.0540398002553693
 31
0.0
  0
LINE
  5
4DA
330
18
100
AcDbEntity
  8
1
 62
     1
100
AcDbLine
 10
68.9993410015019
 20
0.0540398002553693
 30
0.0
 11
68.9957626450871
 21
0.0582566995496624
 31
0.0
  0
LINE
  5
4DB
330
18
100
AcDbEntity
  8
1
 62
     1
100
AcDbLine
 10
68.9957626450871
 20
0.0582566995496624
 30
0.0
 11
68.20599999999999
 21
0.9932705294854459
 31
0.0
  0
LINE
  5
4DC
330
18
100
AcDbEntity
  8
1
 62
     1
100
AcDbLine
 10
61.61219437981671
 20
7.9375
 30
0.0
 11
62.00374052096939
 21
7.924058135288599
 31
0.0
  0
LINE
  5
4DD
330
18
100
AcDbEntity
  8
1
 62
     1
100
AcDbLine
 10
62.00374052096939
 20
7.924058135288599
 30
0.0
 11
62.39528345699271
 21
7.883778250451282
 31
0.0
  0
LINE
  5
4DE
330
18
100
AcDbEntity
  8
1
 62
     1
100
AcDbLine
 10
62.39528345699271
 20
7.883778250451282
 30
0.0
 11
62.78682580372107
 21
7.816797268350889
 31
0.0
  0
LINE
  5
4DF
330
18
100
AcDbEntity
  8
1
 62
     1
100
AcDbLine
 10
62.78682580372107
 20
7.816797268350889
 30
0.0
 11
63.17836700430234
 21
7.723342221449856
 31
0.0
  0
LINE
  5
4E0
330
18
100
AcDbEntity
  8
1
 62
     1
100
AcDbLine
 10
63.17836700430234
 20
7.723342221449856
 30
0.0
 11
63.56990738064582
 21
7.603729643431643
 31
0.0
  0
LINE
  5
4E1
330
18
100
AcDbEntity
  8
1
 62
     1
100
AcDbLine
 10
63.56990738064582
 20
7.603729643431643
 30
0.0
 11
63.96144790491766
 21
7.458364798670865
 31
0.0
  0
LINE
  5
4E2
330
18
100
AcDbEntity
  8
1
 62
     1
100
AcDbLine
 10
63.96144790491766
 20
7.458364798670865
 30
0.0
 11
64.35298807784658
 21
7.287739546216238
 31
0.0
  0
LINE
  5
4E3
330
18
100
AcDbEntity
  8
1
 62
     1
100
AcDbLine
 10
64.35298807784658
 20
7.287739546216238
 30
0.0
 11
64.74452981555824
 21
7.092432026362368
 31
0.0
  0
LINE
  5
4E4
330
18
100
AcDbEntity
  8
1
 62
     1
100
AcDbLine
 10
64.74452981555824
 20
7.092432026362368
 30
0.0
 11
65.13607122382695
 21
6.873102506232468
 31
0.0
  0
LINE
  5
4E5
330
18
100
AcDbEntity
  8
1
 62
     1
100
AcDbLine
 10
65.13607122382695
 20
6.873102506232468
 30
0.0
 11
65.52761560354787
 21
6.630494533686419
 31
0.0
  0
LINE
  5
4E6
330
18
100
AcDbEntity
  8
1
 62
     1
100
AcDbLine
 10
65.52761560354787
 20
6.630494533686419
 30
0.0
 11
65.91915993111604
 21
6.365427754324034
 31
0.0
  0
LINE
  5
4E7
330
18
100
AcDbEntity
  8
1
 62
     1
100
AcDbLine
 10
65.91915993111604
 20
6.365427754324034
 30
0.0
 11
66.31070538786985
 21
6.078802629102837
 31
0.0
  0
LINE
  5
4E8
330
18
100
AcDbEntity
  8
1
 62
     1
100
AcDbLine
 10
66.31070538786985
 20
6.078802629102837
 30
0.0
 11
67.09379050028772
 21
5.444831236798898
 31
0.0
  0
LINE
  5
4E9
330
18
100
AcDbEntity
  8
1
 62
     1
100
AcDbLine
 10
67.09379050028772
 20
5.444831236798898
 30
0.0
 11
67.87686948945137
 21
4.737160718005637
 31
0.0
  0
LINE
  5
4EA
330
18
100
AcDbEntity
  8
1
 62
     1
100
AcDbLine
 10
58.48332094897012
 20
7.937500000000001
 30
0.0
 11
58.78715898007056
 21
7.929404280035151
 31
0.0
  0
LINE
  5
4EB
330
18
100
AcDbEntity
  8
1
 62
     1
100
AcDbLine
 10
58.78715898007056
 20
7.929404280035151
 30
0.0
 11
59.09098785060388
 21
7.905136028545605
 31
0.0
  0
LINE
  5
4EC
330
18
100
AcDbEntity
  8
1
 62
     1
100
AcDbLine
 10
59.09098785060388
 20
7.905136028545605
 30
0.0
 11
59.39482086155721
 21
7.864744488516318
 31
0.0
  0
LINE
  5
4ED
330
18
100
AcDbEntity
  8
1
 62
     1
100
AcDbLine
 10
59.39482086155721
 20
7.864744488516318
 30
0.0
 11
59.69866261698466
 21
7.808308904085949
 31
0.0
  0
LINE
  5
4EE
330
18
100
AcDbEntity
  8
1
 62
     1
100
AcDbLine
 10
59.69866261698466
 20
7.808308904085949
 30
0.0
 11
60.00249342214514
 21
7.735948676814701
 31
0.0
  0
LINE
  5
4EF
330
18
100
AcDbEntity
  8
1
 62
     1
100
AcDbLine
 10
60.00249342214514
 20
7.735948676814701
 30
0.0
 11
60.30632315789695
 21
7.647811068824935
 31
0.0
  0
LINE
  5
4F0
330
18
100
AcDbEntity
  8
1
 62
     1
100
AcDbLine
 10
60.30632315789695
 20
7.647811068824935
 30
0.0
 11
60.61016407074474
 21
7.544070724732603
 31
0.0
  0
LINE
  5
4F1
330
18
100
AcDbEntity
  8
1
 62
     1
100
AcDbLine
 10
60.61016407074474
 20
7.544070724732603
 30
0.0
 11
60.91399867111912
 21
7.424943891834046
 31
0.0
  0
LINE
  5
4F2
330
18
100
AcDbEntity
  8
1
 62
     1
100
AcDbLine
 10
60.91399867111912
 20
7.424943891834046
 30
0.0
 11
61.21782725162512
 21
7.290675966846109
 31
0.0
  0
LINE
  5
4F3
330
18
100
AcDbEntity
  8
1
 62
     1
100
AcDbLine
 10
61.21782725162512
 20
7.290675966846109
 30
0.0
 11
61.5216629118877
 21
7.141534787624269
 31
0.0
  0
LINE
  5
4F4
330
18
100
AcDbEntity
  8
1
 62
     1
100
AcDbLine
 10
61.5216629118877
 20
7.141534787624269
 30
0.0
 11
61.82550291875452
 21
6.977823636242368
 31
0.0
  0
LINE
  5
4F5
330
18
100
AcDbEntity
  8
1
 62
     1
100
AcDbLine
 10
61.82550291875452
 20
6.977823636242368
 30
0.0
 11
62.43316350134662
 21
6.608078697082022
 31
0.0
  0
LINE
  5
4F6
330
18
100
AcDbEntity
  8
1
 62
     1
100
AcDbLine
 10
62.43316350134662
 20
6.608078697082022
 30
0.0
 11
63.0408375406781
 21
6.184438680159463
 31
0.0
  0
LINE
  5
4F7
330
18
100
AcDbEntity
  8
1
 62
     1
100
AcDbLine
 10
63.0408375406781
 20
6.184438680159463
 30
0.0
 11
63.64850490695225
 21
5.710372755241895
 31
0.0
  0
LINE
  5
4F8
330
18
100
AcDbEntity
  8
1
 62
     1
100
AcDbLine
 10
63.64850490695225
 20
5.710372755241895
 30
0.0
 11
64.25617084735052
 21
5.18974163264742
 31
0.0
  0
LINE
  5
4F9
330
18
100
AcDbEntity
  8
1
 62
     1
100
AcDbLine
 10
64.25617084735052
 20
5.18974163264742
 30
0.0
 11
64.86384524137165
 21
4.62678340832943
 31
0.0
  0
LINE
  5
4FA
330
18
100
AcDbEntity
  8
1
 62
     1
100
AcDbLine
 10
64.86384524137165
 20
4.62678340832943
 30
0.0
 11
66.07918050462581
 21
3.392588562383447
 31
0.0
  0
LINE
  5
4FB
330
18
100
AcDbEntity
  8
1
 62
     1
100
AcDbLine
 10
66.07918050462581
 20
3.392588562383447
 30
0.0
 11
68.20600000000002
 21
0.9932705294854194
 31
0.0
  0
LINE
  5
4FC
330
18
100
AcDbEntity
  8
1
 62
     1
100
AcDbLine
 10
68.99999999999999
 20
7.143302668090335
 30
0.0
 11
68.99843553913269
 21
7.193104864846289
 31
0.0
  0
LINE
  5
4FD
330
18
100
AcDbEntity
  8
1
 62
     1
100
AcDbLine
 10
68.99843553913269
 20
7.193104864846289
 30
0.0
 11
68.99377690150315
 21
7.242458346469053
 31
0.0
  0
LINE
  5
4FE
330
18
100
AcDbEntity
  8
1
 62
     1
100
AcDbLine
 10
68.99377690150315
 20
7.242458346469053
 30
0.0
 11
68.98612468906047
 21
7.290957175862845
 31
0.0
  0
LINE
  5
4FF
330
18
100
AcDbEntity
  8
1
 62
     1
100
AcDbLine
 10
68.98612468906047
 20
7.290957175862845
 30
0.0
 11
68.9756362365091
 21
7.338232171077048
 31
0.0
  0
LINE
  5
500
330
18
100
AcDbEntity
  8
1
 62
     1
100
AcDbLine
 10
68.9756362365091
 20
7.338232171077048
 30
0.0
 11
68.96251186964929
 21
7.383967805322286
 31
0.0
  0
LINE
  5
501
330
18
100
AcDbEntity
  8
1
 62
     1
100
AcDbLine
 10
68.96251186964929
 20
7.383967805322286
 30
0.0
 11
68.94697893476246
 21
7.427911454135773
 31
0.0
  0
LINE
  5
502
330
18
100
AcDbEntity
  8
1
 62
     1
100
AcDbLine
 10
68.94697893476246
 20
7.427911454135773
 30
0.0
 11
68.92927640442511
 21
7.469874718397316
 31
0.0
  0
LINE
  5
503
330
18
100
AcDbEntity
  8
1
 62
     1
100
AcDbLine
 10
68.92927640442511
 20
7.469874718397316
 30
0.0
 11
68.9096365599264
 21
7.509737714716134
 31
0.0
  0
LINE
  5
504
330
18
100
AcDbEntity
  8
1
 62
     1
100
AcDbLine
 10
68.9096365599264
 20
7.509737714716134
 30
0.0
 11
68.88829073395188
 21
7.547416339147548
 31
0.0
  0
LINE
  5
505
330
18
100
AcDbEntity
  8
1
 62
     1
100
AcDbLine
 10
68.88829073395188
 20
7.547416339147548
 30
0.0
 11
68.86544438596107
 21
7.582876674035506
 31
0.0
  0
LINE
  5
506
330
18
100
AcDbEntity
  8
1
 62
     1
100
AcDbLine
 10
68.86544438596107
 20
7.582876674035506
 30
0.0
 11
68.84129530408663
 21
7.616105764347228
 31
0.0
  0
LINE
  5
507
330
18
100
AcDbEntity
  8
1
 62
     1
100
AcDbLine
 10
68.84129530408663
 20
7.616105764347228
 30
0.0
 11
68.81599966034821
 21
7.64713890483377
 31
0.0
  0
LINE
  5
508
330
18
100
AcDbEntity
  8
1
 62
     1
100
AcDbLine
 10
68.81599966034821
 20
7.64713890483377
 30
0.0
 11
68.78971824228299
 21
7.675996649079456
 31
0.0
  0
LINE
  5
509
330
18
100
AcDbEntity
  8
1
 62
     1
100
AcDbLine
 10
68.78971824228299
 20
7.675996649079456
 30
0.0
 11
68.7625683855301
 21
7.702738305895785
 31
0.0
  0
LINE
  5
50A
330
18
100
AcDbEntity
  8
1
 62
     1
100
AcDbLine
 10
68.7625683855301
 20
7.702738305895785
 30
0.0
 11
68.73467150364475
 21
7.727406370669968
 31
0.0
  0
LINE
  5
50B
330
18
100
AcDbEntity
  8
1
 62
     1
100
AcDbLine
 10
68.73467150364475
 20
7.727406370669968
 30
0.0
 11
68.70612010696155
 21
7.75006013322174
 31
0.0
  0
LINE
  5
50C
330
18
100
AcDbEntity
  8
1
 62
     1
100
AcDbLine
 10
68.70612010696155
 20
7.75006013322174
 30
0.0
 11
68.67699323987058
 21
7.770757857768596
 31
0.0
  0
LINE
  5
50D
330
18
100
AcDbEntity
  8
1
 62
     1
100
AcDbLine
 10
68.67699323987058
 20
7.770757857768596
 30
0.0
 11
68.64736393761609
 21
7.78955166075221
 31
0.0
  0
LINE
  5
50E
330
18
100
AcDbEntity
  8
1
 62
     1
100
AcDbLine
 10
68.64736393761609
 20
7.78955166075221
 30
0.0
 11
68.61731670255533
 21
7.80648099768737
 31
0.0
  0
LINE
  5
50F
330
18
100
AcDbEntity
  8
1
 62
     1
100
AcDbLine
 10
68.61731670255533
 20
7.80648099768737
 30
0.0
 11
68.58688531737495
 21
7.821607345375685
 31
0.0
  0
LINE
  5
510
330
18
100
AcDbEntity
  8
1
 62
     1
100
AcDbLine
 10
68.58688531737495
 20
7.821607345375685
 30
0.0
 11
68.55613001644618
 21
7.834969647084032
 31
0.0
  0
LINE
  5
511
330
18
100
AcDbEntity
  8
1
 62
     1
100
AcDbLine
 10
68.55613001644618
 20
7.834969647084032
 30
0.0
 11
68.5250988156788
 21
7.846608872905032
 31
0.0
  0
LINE
  5
512
330
18
100
AcDbEntity
  8
1
 62
     1
100
AcDbLine
 10
68.5250988156788
 20
7.846608872905032
 30
0.0
 11
68.49381499475992
 21
7.856568621658345
 31
0.0
  0
LINE
  5
513
330
18
100
AcDbEntity
  8
1
 62
     1
100
AcDbLine
 10
68.49381499475992
 20
7.856568621658345
 30
0.0
 11
68.46232934276748
 21
7.864878447317762
 31
0.0
  0
LINE
  5
514
330
18
100
AcDbEntity
  8
1
 62
     1
100
AcDbLine
 10
68.46232934276748
 20
7.864878447317762
 30
0.0
 11
68.43065484414672
 21
7.871574457047398
 31
0.0
  0
LINE
  5
515
330
18
100
AcDbEntity
  8
1
 62
     1
100
AcDbLine
 10
68.43065484414672
 20
7.871574457047398
 30
0.0
 11
68.39881639066125
 21
7.876683059997595
 31
0.0
  0
LINE
  5
516
330
18
100
AcDbEntity
  8
1
 62
     1
100
AcDbLine
 10
68.39881639066125
 20
7.876683059997595
 30
0.0
 11
68.36685511862866
 21
7.880225621792307
 31
0.0
  0
LINE
  5
517
330
18
100
AcDbEntity
  8
1
 62
     1
100
AcDbLine
 10
68.36685511862866
 20
7.880225621792307
 30
0.0
 11
68.33481017521628
 21
7.882223610671237
 31
0.0
  0
LINE
  5
518
330
18
100
AcDbEntity
  8
1
 62
     1
100
AcDbLine
 10
68.33481017521628
 20
7.882223610671237
 30
0.0
 11
68.30267972624299
 21
7.882697951788564
 31
0.0
  0
LINE
  5
519
330
18
100
AcDbEntity
  8
1
 62
     1
100
AcDbLine
 10
68.30267972624299
 20
7.882697951788564
 30
0.0
 11
68.27048022151018
 21
7.88166217260694
 31
0.0
  0
LINE
  5
51A
330
18
100
AcDbEntity
  8
1
 62
     1
100
AcDbLine
 10
68.27048022151018
 20
7.88166217260694
 30
0.0
 11
68.23824314982637
 21
7.879128112863867
 31
0.0
  0
LINE
  5
51B
330
18
100
AcDbEntity
  8
1
 62
     1
100
AcDbLine
 10
68.23824314982637
 20
7.879128112863867
 30
0.0
 11
68.206
 21
7.875107612296846
 31
0.0
  0
LINE
  5
51C
330
18
100
AcDbEntity
  8
1
 62
     1
100
AcDbLine
 10
68.99999999999997
 20
4.809998728912197
 30
0.0
 11
69.0
 21
7.143302668090335
 31
0.0
  0
LINE
  5
51D
330
18
100
AcDbEntity
  8
1
 62
     1
100
AcDbLine
 10
68.99999999999997
 20
4.809998728912197
 30
0.0
 11
68.99999999999999
 21
3.782733918772742
 31
0.0
  0
LINE
  5
51E
330
18
100
AcDbEntity
  8
1
 62
     1
100
AcDbLine
 10
69.00000000000001
 20
3.782733918772951
 30
0.0
 11
69.0
 21
0.0530965352305519
 31
0.0
  0
LINE
  5
51F
330
18
100
AcDbEntity
  8
1
 62
     1
100
AcDbLine
 10
68.99999999999997
 20
0.0357529673367538
 30
0.0
 11
69.00000000000001
 21
0.0530965352305514
 31
0.0
  0
LINE
  5
520
330
18
100
AcDbEntity
  8
1
 62
     1
100
AcDbLine
 10
68.99999999999997
 20
0.0357529673367538
 30
0.0
 11
69.0
 21
-6.059745568071856
 31
0.0
  0
LINE
  5
521
330
18
100
AcDbEntity
  8
1
 62
     1
100
AcDbLine
 10
37.25
 20
-7.936623641710499
 30
0.0
 11
37.34996227185922
 21
-7.937499999960766
 31
0.0
  0
LINE
  5
522
330
18
100
AcDbEntity
  8
1
 62
     1
100
AcDbLine
 10
58.48332094897012
 20
7.9375
 30
0.0
 11
61.61219437981671
 21
7.9375
 31
0.0
  0
LINE
  5
523
330
18
100
AcDbEntity
  8
1
 62
     1
100
AcDbLine
 10
37.24999999999999
 20
-7.040581298699577
 30
0.0
 11
37.65360977875385
 21
-7.247688578012847
 31
0.0
  0
LINE
  5
524
330
18
100
AcDbEntity
  8
1
 62
     1
100
AcDbLine
 10
37.65360977875385
 20
-7.247688578012847
 30
0.0
 11
38.05721675091745
 21
-7.428715454749728
 31
0.0
  0
LINE
  5
525
330
18
100
AcDbEntity
  8
1
 62
     1
100
AcDbLine
 10
38.05721675091745
 20
-7.428715454749728
 30
0.0
 11
38.46082365990421
 21
-7.583008761148862
 31
0.0
  0
LINE
  5
526
330
18
100
AcDbEntity
  8
1
 62
     1
100
AcDbLine
 10
38.46082365990421
 20
-7.583008761148862
 30
0.0
 11
38.86443054547473
 21
-7.710013089783011
 31
0.0
  0
LINE
  5
527
330
18
100
AcDbEntity
  8
1
 62
     1
100
AcDbLine
 10
38.86443054547473
 20
-7.710013089783011
 30
0.0
 11
39.2680395346047
 21
-7.809270846158716
 31
0.0
  0
LINE
  5
528
330
18
100
AcDbEntity
  8
1
 62
     1
100
AcDbLine
 10
39.2680395346047
 20
-7.809270846158716
 30
0.0
 11
39.67164846420151
 21
-7.880425067963016
 31
0.0
  0
LINE
  5
529
330
18
100
AcDbEntity
  8
1
 62
     1
100
AcDbLine
 10
39.67164846420151
 20
-7.880425067963016
 30
0.0
 11
40.07525639649273
 21
-7.923219363805147
 31
0.0
  0
LINE
  5
52A
330
18
100
AcDbEntity
  8
1
 62
     1
100
AcDbLine
 10
40.07525639649273
 20
-7.923219363805147
 30
0.0
 11
40.27704845517593
 21
-7.933928991475083
 31
0.0
  0
LINE
  5
52B
330
18
100
AcDbEntity
  8
1
 62
     1
100
AcDbLine
 10
40.27704845517593
 20
-7.933928991475083
 30
0.0
 11
40.4788376098199
 21
-7.937499999963863
 31
0.0
  0
LINE
  5
52C
330
18
100
AcDbEntity
  8
1
 62
     1
100
AcDbLine
 10
37.25
 20
7.936623641710502
 30
0.0
 11
37.34996227185753
 21
7.9375
 31
0.0
  0
LINE
  5
52D
330
18
100
AcDbEntity
  8
1
 62
     1
100
AcDbLine
 10
37.34996227185754
 20
7.9375
 30
0.0
 11
40.47883760980653
 21
7.9375
 31
0.0
  0
ARC
  5
52E
330
18
100
AcDbEntity
  8
1
 62
     1
100
AcDbCircle
 10
69.05236493750576
 20
-4.685094837420376
 30
0.0
 40
9.495247069019902
100
AcDbArc
 50
90.31597998224686
 51
97.11132491321099
  0
LINE
  5
52F
330
18
100
AcDbEntity
  8
1
 62
     1
100
AcDbLine
 10
69.0
 20
0.0357529673367493
 30
0.0
 11
66.07754752649106
 21
2.056964202283802
 31
0.0
  0
LINE
  5
530
330
18
100
AcDbEntity
  8
1
 62
     1
100
AcDbLine
 10
66.07754752649106
 20
2.056964202283802
 30
0.0
 11
64.61632128973656
 21
2.945713947425934
 31
0.0
  0
LINE
  5
531
330
18
100
AcDbEntity
  8
1
 62
     1
100
AcDbLine
 10
64.61632128973656
 20
2.945713947425934
 30
0.0
 11
63.88570817135934
 21
3.340549207446557
 31
0.0
  0
LINE
  5
532
330
18
100
AcDbEntity
  8
1
 62
     1
100
AcDbLine
 10
63.88570817135934
 20
3.340549207446557
 30
0.0
 11
63.15509505298211
 21
3.696017793568343
 31
0.0
  0
LINE
  5
533
330
18
100
AcDbEntity
  8
1
 62
     1
100
AcDbLine
 10
63.15509505298211
 20
3.696017793568343
 30
0.0
 11
62.42448193460487
 21
4.007930693714378
 31
0.0
  0
LINE
  5
534
330
18
100
AcDbEntity
  8
1
 62
     1
100
AcDbLine
 10
62.42448193460487
 20
4.007930693714378
 30
0.0
 11
61.69386881622765
 21
4.272612179203723
 31
0.0
  0
LINE
  5
535
330
18
100
AcDbEntity
  8
1
 62
     1
100
AcDbLine
 10
61.69386881622765
 20
4.272612179203723
 30
0.0
 11
60.96325569785041
 21
4.486943118944636
 31
0.0
  0
LINE
  5
536
330
18
100
AcDbEntity
  8
1
 62
     1
100
AcDbLine
 10
60.96325569785041
 20
4.486943118944636
 30
0.0
 11
60.59794913866179
 21
4.574414696864705
 31
0.0
  0
LINE
  5
537
330
18
100
AcDbEntity
  8
1
 62
     1
100
AcDbLine
 10
60.59794913866179
 20
4.574414696864705
 30
0.0
 11
60.23264257947317
 21
4.648397737121194
 31
0.0
  0
LINE
  5
538
330
18
100
AcDbEntity
  8
1
 62
     1
100
AcDbLine
 10
60.23264257947317
 20
4.648397737121194
 30
0.0
 11
59.86733602028453
 21
4.708677944352253
 31
0.0
  0
LINE
  5
539
330
18
100
AcDbEntity
  8
1
 62
     1
100
AcDbLine
 10
59.86733602028453
 20
4.708677944352253
 30
0.0
 11
59.50202946109592
 21
4.75507337776559
 31
0.0
  0
LINE
  5
53A
330
18
100
AcDbEntity
  8
1
 62
     1
100
AcDbLine
 10
59.50202946109592
 20
4.75507337776559
 30
0.0
 11
59.13672290190731
 21
4.787451831357026
 31
0.0
  0
LINE
  5
53B
330
18
100
AcDbEntity
  8
1
 62
     1
100
AcDbLine
 10
59.13672290190731
 20
4.787451831357026
 30
0.0
 11
58.77141634271869
 21
4.805712926422413
 31
0.0
  0
LINE
  5
53C
330
18
100
AcDbEntity
  8
1
 62
     1
100
AcDbLine
 10
58.77141634271869
 20
4.805712926422413
 30
0.0
 11
58.40610978353007
 21
4.809808042065373
 31
0.0
  0
LINE
  5
53D
330
18
100
AcDbEntity
  8
1
 62
     1
100
AcDbLine
 10
58.40610978353007
 20
4.809808042065373
 30
0.0
 11
58.04080322434145
 21
4.799719624420223
 31
0.0
  0
LINE
  5
53E
330
18
100
AcDbEntity
  8
1
 62
     1
100
AcDbLine
 10
58.04080322434145
 20
4.799719624420223
 30
0.0
 11
57.67549666515283
 21
4.775483114438059
 31
0.0
  0
LINE
  5
53F
330
18
100
AcDbEntity
  8
1
 62
     1
100
AcDbLine
 10
57.67549666515283
 20
4.775483114438059
 30
0.0
 11
57.31019010596423
 21
4.73716410124925
 31
0.0
  0
LINE
  5
540
330
18
100
AcDbEntity
  8
1
 62
     1
100
AcDbLine
 10
37.25000000000001
 20
-7.040581298699577
 30
0.0
 11
37.25
 21
-7.9366236417105
 31
0.0
  0
LINE
  5
541
330
18
100
AcDbEntity
  8
1
 62
     1
100
AcDbLine
 10
37.25
 20
-7.040581298699577
 30
0.0
 11
37.25
 21
0.0714755940365451
 31
0.0
  0
LINE
  5
542
330
18
100
AcDbEntity
  8
1
 62
     1
100
AcDbLine
 10
37.25
 20
0.0714755940365451
 30
0.0
 11
37.25
 21
0.1179466821997772
 31
0.0
  0
LINE
  5
543
330
18
100
AcDbEntity
  8
1
 62
     1
100
AcDbLine
 10
37.24999999999999
 20
3.665258684786358
 30
0.0
 11
37.25
 21
0.1179466925922732
 31
0.0
  0
LINE
  5
544
330
18
100
AcDbEntity
  8
1
 62
     1
100
AcDbLine
 10
37.25
 20
3.665258684786357
 30
0.0
 11
37.25
 21
4.809587508997867
 31
0.0
  0
LINE
  5
545
330
18
100
AcDbEntity
  8
1
 62
     1
100
AcDbLine
 10
37.25
 20
4.809587508997867
 30
0.0
 11
37.25
 21
7.936624307992317
 31
0.0
  0
LINE
  5
546
330
18
100
AcDbEntity
  8
1
 62
     1
100
AcDbLine
 10
51.04551587523492
 20
-7.937499999994492
 30
0.0
 11
51.27794353694107
 21
-7.932761772614129
 31
0.0
  0
LINE
  5
547
330
18
100
AcDbEntity
  8
1
 62
     1
100
AcDbLine
 10
51.27794353694107
 20
-7.932761772614129
 30
0.0
 11
51.51037546349741
 21
-7.9185552834204
 31
0.0
  0
LINE
  5
548
330
18
100
AcDbEntity
  8
1
 62
     1
100
AcDbLine
 10
51.51037546349741
 20
-7.9185552834204
 30
0.0
 11
51.74280810060338
 21
-7.894894610944708
 31
0.0
  0
LINE
  5
549
330
18
100
AcDbEntity
  8
1
 62
     1
100
AcDbLine
 10
51.74280810060338
 20
-7.894894610944708
 30
0.0
 11
51.97523680833213
 21
-7.861811536366202
 31
0.0
  0
LINE
  5
54A
330
18
100
AcDbEntity
  8
1
 62
     1
100
AcDbLine
 10
51.97523680833213
 20
-7.861811536366202
 30
0.0
 11
52.20767253797764
 21
-7.819340667694645
 31
0.0
  0
LINE
  5
54B
330
18
100
AcDbEntity
  8
1
 62
     1
100
AcDbLine
 10
52.20767253797764
 20
-7.819340667694645
 30
0.0
 11
52.44009787175081
 21
-7.767539019850869
 31
0.0
  0
LINE
  5
54C
330
18
100
AcDbEntity
  8
1
 62
     1
100
AcDbLine
 10
52.44009787175081
 20
-7.767539019850869
 30
0.0
 11
52.67253732827477
 21
-7.706460908111982
 31
0.0
  0
LINE
  5
54D
330
18
100
AcDbEntity
  8
1
 62
     1
100
AcDbLine
 10
52.67253732827477
 20
-7.706460908111982
 30
0.0
 11
52.90496071591564
 21
-7.636187818179445
 31
0.0
  0
LINE
  5
54E
330
18
100
AcDbEntity
  8
1
 62
     1
100
AcDbLine
 10
52.90496071591564
 20
-7.636187818179445
 30
0.0
 11
53.13740046060143
 21
-7.556793953206315
 31
0.0
  0
LINE
  5
54F
330
18
100
AcDbEntity
  8
1
 62
     1
100
AcDbLine
 10
53.13740046060143
 20
-7.556793953206315
 30
0.0
 11
53.6022631395556
 21
-7.37105478120053
 31
0.0
  0
LINE
  5
550
330
18
100
AcDbEntity
  8
1
 62
     1
100
AcDbLine
 10
53.6022631395556
 20
-7.37105478120053
 30
0.0
 11
54.0671254612731
 21
-7.150130527504368
 31
0.0
  0
LINE
  5
551
330
18
100
AcDbEntity
  8
1
 62
     1
100
AcDbLine
 10
54.0671254612731
 20
-7.150130527504368
 30
0.0
 11
54.41577331421717
 21
-6.961972473549762
 31
0.0
  0
LINE
  5
552
330
18
100
AcDbEntity
  8
1
 62
     1
100
AcDbLine
 10
54.41577331421717
 20
-6.961972473549762
 30
0.0
 11
54.76441819980801
 21
-6.75512080920149
 31
0.0
  0
LINE
  5
553
330
18
100
AcDbEntity
  8
1
 62
     1
100
AcDbLine
 10
47.9166418152506
 20
-7.937499999999998
 30
0.0
 11
51.0455158752349
 21
-7.937499999999998
 31
0.0
  0
LINE
  5
554
330
18
100
AcDbEntity
  8
1
 62
     1
100
AcDbLine
 10
61.61219437982923
 20
-7.937499999959124
 30
0.0
 11
61.84462394511957
 21
-7.932761719137684
 31
0.0
  0
LINE
  5
555
330
18
100
AcDbEntity
  8
1
 62
     1
100
AcDbLine
 10
61.84462394511957
 20
-7.932761719137684
 30
0.0
 11
62.07705467159645
 21
-7.918555332533998
 31
0.0
  0
LINE
  5
556
330
18
100
AcDbEntity
  8
1
 62
     1
100
AcDbLine
 10
62.07705467159645
 20
-7.918555332533998
 30
0.0
 11
62.30948806245115
 21
-7.89489444610904
 31
0.0
  0
LINE
  5
557
330
18
100
AcDbEntity
  8
1
 62
     1
100
AcDbLine
 10
62.30948806245115
 20
-7.89489444610904
 30
0.0
 11
62.5419156245175
 21
-7.861811475917526
 31
0.0
  0
LINE
  5
558
330
18
100
AcDbEntity
  8
1
 62
     1
100
AcDbLine
 10
62.5419156245175
 20
-7.861811475917526
 30
0.0
 11
62.77435281278662
 21
-7.819340564062916
 31
0.0
  0
LINE
  5
559
330
18
100
AcDbEntity
  8
1
 62
     1
100
AcDbLine
 10
62.77435281278662
 20
-7.819340564062916
 30
0.0
 11
63.00677696541681
 21
-7.767538892815524
 31
0.0
  0
LINE
  5
55A
330
18
100
AcDbEntity
  8
1
 62
     1
100
AcDbLine
 10
63.00677696541681
 20
-7.767538892815524
 30
0.0
 11
63.23921698915685
 21
-7.706460810375297
 31
0.0
  0
LINE
  5
55B
330
18
100
AcDbEntity
  8
1
 62
     1
100
AcDbLine
 10
63.23921698915685
 20
-7.706460810375297
 30
0.0
 11
63.47164062679231
 21
-7.636187773914778
 31
0.0
  0
LINE
  5
55C
330
18
100
AcDbEntity
  8
1
 62
     1
100
AcDbLine
 10
63.47164062679231
 20
-7.636187773914778
 30
0.0
 11
63.70407946049407
 21
-7.556793914808977
 31
0.0
  0
LINE
  5
55D
330
18
100
AcDbEntity
  8
1
 62
     1
100
AcDbLine
 10
63.70407946049407
 20
-7.556793914808977
 30
0.0
 11
64.16894230534795
 21
-7.371055168914104
 31
0.0
  0
LINE
  5
55E
330
18
100
AcDbEntity
  8
1
 62
     1
100
AcDbLine
 10
64.16894230534795
 20
-7.371055168914104
 30
0.0
 11
64.63380313484387
 21
-7.150130934556903
 31
0.0
  0
LINE
  5
55F
330
18
100
AcDbEntity
  8
1
 62
     1
100
AcDbLine
 10
64.63380313484387
 20
-7.150130934556903
 30
0.0
 11
64.98245238510563
 21
-6.961972766728599
 31
0.0
  0
LINE
  5
560
330
18
100
AcDbEntity
  8
1
 62
     1
100
AcDbLine
 10
64.98245238510563
 20
-6.961972766728599
 30
0.0
 11
65.33109723081455
 21
-6.755120782468506
 31
0.0
  0
LINE
  5
561
330
18
100
AcDbEntity
  8
1
 62
     1
100
AcDbLine
 10
58.48332094896797
 20
-7.937499999999998
 30
0.0
 11
61.61219437982925
 21
-7.937499999999998
 31
0.0
  0
LINE
  5
562
330
18
100
AcDbEntity
  8
1
 62
     1
100
AcDbLine
 10
40.47883760981989
 20
-7.937499999963862
 30
0.0
 11
40.71126747802326
 21
-7.932761621916047
 31
0.0
  0
LINE
  5
563
330
18
100
AcDbEntity
  8
1
 62
     1
100
AcDbLine
 10
40.71126747802326
 20
-7.932761621916047
 30
0.0
 11
40.94369648807857
 21
-7.91855524044938
 31
0.0
  0
LINE
  5
564
330
18
100
AcDbEntity
  8
1
 62
     1
100
AcDbLine
 10
40.94369648807857
 20
-7.91855524044938
 30
0.0
 11
41.17613202295242
 21
-7.894894328823941
 31
0.0
  0
LINE
  5
565
330
18
100
AcDbEntity
  8
1
 62
     1
100
AcDbLine
 10
41.17613202295242
 20
-7.894894328823941
 30
0.0
 11
41.40855791575394
 21
-7.861811302180669
 31
0.0
  0
LINE
  5
566
330
18
100
AcDbEntity
  8
1
 62
     1
100
AcDbLine
 10
41.40855791575394
 20
-7.861811302180669
 30
0.0
 11
41.64099547514396
 21
-7.81934028491282
 31
0.0
  0
LINE
  5
567
330
18
100
AcDbEntity
  8
1
 62
     1
100
AcDbLine
 10
41.64099547514396
 20
-7.81934028491282
 30
0.0
 11
41.87342011645128
 21
-7.767538758720758
 31
0.0
  0
LINE
  5
568
330
18
100
AcDbEntity
  8
1
 62
     1
100
AcDbLine
 10
41.87342011645128
 20
-7.767538758720758
 30
0.0
 11
42.10585934994103
 21
-7.706460532530704
 31
0.0
  0
LINE
  5
569
330
18
100
AcDbEntity
  8
1
 62
     1
100
AcDbLine
 10
42.10585934994103
 20
-7.706460532530704
 30
0.0
 11
42.33828252175343
 21
-7.636187336606
 31
0.0
  0
LINE
  5
56A
330
18
100
AcDbEntity
  8
1
 62
     1
100
AcDbLine
 10
42.33828252175343
 20
-7.636187336606
 30
0.0
 11
42.5707223812383
 21
-7.556793993850289
 31
0.0
  0
LINE
  5
56B
330
18
100
AcDbEntity
  8
1
 62
     1
100
AcDbLine
 10
42.5707223812383
 20
-7.556793993850289
 30
0.0
 11
43.03558331159692
 21
-7.37105502807743
 31
0.0
  0
LINE
  5
56C
330
18
100
AcDbEntity
  8
1
 62
     1
100
AcDbLine
 10
43.03558331159692
 20
-7.37105502807743
 30
0.0
 11
43.50044436595147
 21
-7.150131348793731
 31
0.0
  0
LINE
  5
56D
330
18
100
AcDbEntity
  8
1
 62
     1
100
AcDbLine
 10
43.50044436595147
 20
-7.150131348793731
 30
0.0
 11
43.84909397827677
 21
-6.961972816336171
 31
0.0
  0
LINE
  5
56E
330
18
100
AcDbEntity
  8
1
 62
     1
100
AcDbLine
 10
43.84909397827677
 20
-6.961972816336171
 30
0.0
 11
44.1977391153634
 21
-6.755120702601459
 31
0.0
  0
LINE
  5
56F
330
18
100
AcDbEntity
  8
1
 62
     1
100
AcDbLine
 10
37.34996227185922
 20
-7.937499999999999
 30
0.0
 11
40.47883760981989
 21
-7.937499999999998
 31
0.0
  0
LINE
  5
570
330
18
100
AcDbEntity
  8
1
 62
     1
100
AcDbLine
 10
37.34996227185862
 20
0.0000000000007163
 30
0.0
 11
39.99163418471174
 21
-3.037551580991482
 31
0.0
  0
LINE
  5
571
330
18
100
AcDbEntity
  8
1
 62
     1
100
AcDbLine
 10
39.99163418471174
 20
-3.037551580991482
 30
0.0
 11
41.31247074092163
 21
-4.409841954075046
 31
0.0
  0
LINE
  5
572
330
18
100
AcDbEntity
  8
1
 62
     1
100
AcDbLine
 10
41.31247074092163
 20
-4.409841954075046
 30
0.0
 11
41.97289649688391
 21
-5.035507016446918
 31
0.0
  0
LINE
  5
573
330
18
100
AcDbEntity
  8
1
 62
     1
100
AcDbLine
 10
41.97289649688391
 20
-5.035507016446918
 30
0.0
 11
42.63330786855834
 21
-5.61266459779626
 31
0.0
  0
LINE
  5
574
330
18
100
AcDbEntity
  8
1
 62
     1
100
AcDbLine
 10
42.63330786855834
 20
-5.61266459779626
 30
0.0
 11
43.29373462812632
 21
-6.135781384922614
 31
0.0
  0
LINE
  5
575
330
18
100
AcDbEntity
  8
1
 62
     1
100
AcDbLine
 10
43.29373462812632
 20
-6.135781384922614
 30
0.0
 11
43.95414554535694
 21
-6.599795218123614
 31
0.0
  0
LINE
  5
576
330
18
100
AcDbEntity
  8
1
 62
     1
100
AcDbLine
 10
43.95414554535694
 20
-6.599795218123614
 30
0.0
 11
44.2843568243304
 21
-6.808227453025752
 31
0.0
  0
LINE
  5
577
330
18
100
AcDbEntity
  8
1
 62
     1
100
AcDbLine
 10
44.2843568243304
 20
-6.808227453025752
 30
0.0
 11
44.61457187638268
 21
-7.000259491830858
 31
0.0
  0
LINE
  5
578
330
18
100
AcDbEntity
  8
1
 62
     1
100
AcDbLine
 10
44.61457187638268
 20
-7.000259491830858
 30
0.0
 11
44.94477902317095
 21
-7.175422318967595
 31
0.0
  0
LINE
  5
579
330
18
100
AcDbEntity
  8
1
 62
     1
100
AcDbLine
 10
44.94477902317095
 20
-7.175422318967595
 30
0.0
 11
45.27498364276802
 21
-7.333298490948221
 31
0.0
  0
LINE
  5
57A
330
18
100
AcDbEntity
  8
1
 62
     1
100
AcDbLine
 10
45.27498364276802
 20
-7.333298490948221
 30
0.0
 11
45.60519218422623
 21
-7.473510422952947
 31
0.0
  0
LINE
  5
57B
330
18
100
AcDbEntity
  8
1
 62
     1
100
AcDbLine
 10
45.60519218422623
 20
-7.473510422952947
 30
0.0
 11
45.93540796759369
 21
-7.5957201822872
 31
0.0
  0
LINE
  5
57C
330
18
100
AcDbEntity
  8
1
 62
     1
100
AcDbLine
 10
45.93540796759369
 20
-7.5957201822872
 30
0.0
 11
46.26561724632869
 21
-7.699627974938399
 31
0.0
  0
LINE
  5
57D
330
18
100
AcDbEntity
  8
1
 62
     1
100
AcDbLine
 10
46.26561724632869
 20
-7.699627974938399
 30
0.0
 11
46.59582197367818
 21
-7.784985937124665
 31
0.0
  0
LINE
  5
57E
330
18
100
AcDbEntity
  8
1
 62
     1
100
AcDbLine
 10
46.59582197367818
 20
-7.784985937124665
 30
0.0
 11
46.92602838551741
 21
-7.851590451772686
 31
0.0
  0
LINE
  5
57F
330
18
100
AcDbEntity
  8
1
 62
     1
100
AcDbLine
 10
46.92602838551741
 20
-7.851590451772686
 30
0.0
 11
47.25624252535579
 21
-7.899280865078611
 31
0.0
  0
LINE
  5
580
330
18
100
AcDbEntity
  8
1
 62
     1
100
AcDbLine
 10
47.25624252535579
 20
-7.899280865078611
 30
0.0
 11
47.58645468822982
 21
-7.927939770711045
 31
0.0
  0
LINE
  5
581
330
18
100
AcDbEntity
  8
1
 62
     1
100
AcDbLine
 10
47.58645468822982
 20
-7.927939770711045
 30
0.0
 11
47.91664181525059
 21
-7.937499999986229
 31
0.0
  0
LINE
  5
582
330
18
100
AcDbEntity
  8
1
 62
     1
100
AcDbLine
 10
65.33109731616844
 20
6.755120788804962
 30
0.0
 11
65.69046281517132
 21
6.968039495051366
 31
0.0
  0
LINE
  5
583
330
18
100
AcDbEntity
  8
1
 62
     1
100
AcDbLine
 10
65.69046281517132
 20
6.968039495051366
 30
0.0
 11
66.04982539414965
 21
7.161075703826127
 31
0.0
  0
LINE
  5
584
330
18
100
AcDbEntity
  8
1
 62
     1
100
AcDbLine
 10
66.04982539414965
 20
7.161075703826127
 30
0.0
 11
66.40918754692684
 21
7.333680182470506
 31
0.0
  0
LINE
  5
585
330
18
100
AcDbEntity
  8
1
 62
     1
100
AcDbLine
 10
66.40918754692684
 20
7.333680182470506
 30
0.0
 11
66.76855110160137
 21
7.485361532110639
 31
0.0
  0
LINE
  5
586
330
18
100
AcDbEntity
  8
1
 62
     1
100
AcDbLine
 10
66.76855110160137
 20
7.485361532110639
 30
0.0
 11
67.12791838538935
 21
7.615687133373374
 31
0.0
  0
LINE
  5
587
330
18
100
AcDbEntity
  8
1
 62
     1
100
AcDbLine
 10
67.12791838538935
 20
7.615687133373374
 30
0.0
 11
67.48728874143069
 21
7.724283878975244
 31
0.0
  0
LINE
  5
588
330
18
100
AcDbEntity
  8
1
 62
     1
100
AcDbLine
 10
67.48728874143069
 20
7.724283878975244
 30
0.0
 11
67.84665503590311
 21
7.810839813779316
 31
0.0
  0
LINE
  5
589
330
18
100
AcDbEntity
  8
1
 62
     1
100
AcDbLine
 10
67.84665503590311
 20
7.810839813779316
 30
0.0
 11
68.20600000000002
 21
7.875107612296846
 31
0.0
  0
LINE
  5
58A
330
18
100
AcDbEntity
  8
1
 62
     1
100
AcDbLine
 10
37.34996227185763
 20
-0.0000000000000824
 30
0.0
 11
37.25
 21
0.0714755940365531
 31
0.0
  0
ARC
  5
58B
330
18
100
AcDbEntity
  8
1
 62
     1
100
AcDbCircle
 10
49.76645449644278
 20
-14.38558873107521
 30
0.0
 40
26.33755399569493
100
AcDbArc
 50
45.56308707674791
 51
46.55743424761287
  0
LINE
  5
58C
330
18
100
AcDbEntity
  8
1
 62
     1
100
AcDbLine
 10
54.76441832930792
 20
6.755120873406436
 30
0.0
 11
55.22928151735893
 21
7.026796756618733
 31
0.0
  0
LINE
  5
58D
330
18
100
AcDbEntity
  8
1
 62
     1
100
AcDbLine
 10
55.22928151735893
 20
7.026796756618733
 30
0.0
 11
55.69414386992847
 21
7.264929386653569
 31
0.0
  0
LINE
  5
58E
330
18
100
AcDbEntity
  8
1
 62
     1
100
AcDbLine
 10
55.69414386992847
 20
7.264929386653569
 30
0.0
 11
56.15900740297025
 21
7.468383215619552
 31
0.0
  0
LINE
  5
58F
330
18
100
AcDbEntity
  8
1
 62
     1
100
AcDbLine
 10
56.15900740297025
 20
7.468383215619552
 30
0.0
 11
56.62387226096619
 21
7.636186708029609
 31
0.0
  0
LINE
  5
590
330
18
100
AcDbEntity
  8
1
 62
     1
100
AcDbLine
 10
56.62387226096619
 20
7.636186708029609
 30
0.0
 11
56.85631296233601
 21
7.70646470613711
 31
0.0
  0
LINE
  5
591
330
18
100
AcDbEntity
  8
1
 62
     1
100
AcDbLine
 10
56.85631296233601
 20
7.70646470613711
 30
0.0
 11
57.08873811076155
 21
7.76753855613897
 31
0.0
  0
LINE
  5
592
330
18
100
AcDbEntity
  8
1
 62
     1
100
AcDbLine
 10
57.08873811076155
 20
7.76753855613897
 30
0.0
 11
57.32117796766669
 21
7.819343991159232
 31
0.0
  0
LINE
  5
593
330
18
100
AcDbEntity
  8
1
 62
     1
100
AcDbLine
 10
57.32117796766669
 20
7.819343991159232
 30
0.0
 11
57.5536045312599
 21
7.86181152834085
 31
0.0
  0
LINE
  5
594
330
18
100
AcDbEntity
  8
1
 62
     1
100
AcDbLine
 10
57.5536045312599
 20
7.86181152834085
 30
0.0
 11
57.78604174695616
 21
7.894896871525555
 31
0.0
  0
LINE
  5
595
330
18
100
AcDbEntity
  8
1
 62
     1
100
AcDbLine
 10
57.78604174695616
 20
7.894896871525555
 30
0.0
 11
58.01847139582308
 21
7.918555414996129
 31
0.0
  0
LINE
  5
596
330
18
100
AcDbEntity
  8
1
 62
     1
100
AcDbLine
 10
58.01847139582308
 20
7.918555414996129
 30
0.0
 11
58.25090384277985
 21
7.932762938376827
 31
0.0
  0
LINE
  5
597
330
18
100
AcDbEntity
  8
1
 62
     1
100
AcDbLine
 10
58.25090384277985
 20
7.932762938376827
 30
0.0
 11
58.48332094897011
 21
7.937500000000001
 31
0.0
  0
LINE
  5
598
330
18
100
AcDbEntity
  8
1
 62
     1
100
AcDbLine
 10
57.31018998925713
 20
4.737163977981156
 30
0.0
 11
58.67217306678918
 21
3.35969960696958
 31
0.0
  0
LINE
  5
599
330
18
100
AcDbEntity
  8
1
 62
     1
100
AcDbLine
 10
58.67217306678918
 20
3.35969960696958
 30
0.0
 11
60.03415266978003
 21
1.844986116675415
 31
0.0
  0
LINE
  5
59A
330
18
100
AcDbEntity
  8
1
 62
     1
100
AcDbLine
 10
60.03415266978003
 20
1.844986116675415
 30
0.0
 11
62.75809333973875
 21
-1.345577417408995
 31
0.0
  0
LINE
  5
59B
330
18
100
AcDbEntity
  8
1
 62
     1
100
AcDbLine
 10
62.75809333973875
 20
-1.345577417408995
 30
0.0
 11
64.12007604587215
 21
-2.891109914645143
 31
0.0
  0
LINE
  5
59C
330
18
100
AcDbEntity
  8
1
 62
     1
100
AcDbLine
 10
64.12007604587215
 20
-2.891109914645143
 30
0.0
 11
65.48205420423875
 21
-4.318528305256779
 31
0.0
  0
LINE
  5
59D
330
18
100
AcDbEntity
  8
1
 62
     1
100
AcDbLine
 10
65.48205420423875
 20
-4.318528305256779
 30
0.0
 11
66.16304450947383
 21
-4.969469353420471
 31
0.0
  0
LINE
  5
59E
330
18
100
AcDbEntity
  8
1
 62
     1
100
AcDbLine
 10
66.16304450947383
 20
-4.969469353420471
 30
0.0
 11
66.84403000124945
 21
-5.569522389408727
 31
0.0
  0
LINE
  5
59F
330
18
100
AcDbEntity
  8
1
 62
     1
100
AcDbLine
 10
66.84403000124945
 20
-5.569522389408727
 30
0.0
 11
67.5250282958396
 21
-6.112556196467136
 31
0.0
  0
LINE
  5
5A0
330
18
100
AcDbEntity
  8
1
 62
     1
100
AcDbLine
 10
67.5250282958396
 20
-6.112556196467136
 30
0.0
 11
68.20600000000002
 21
-6.592986847054508
 31
0.0
  0
LINE
  5
5A1
330
18
100
AcDbEntity
  8
1
 62
     1
100
AcDbLine
 10
47.91664181525089
 20
-0.000000000000065
 30
0.0
 11
50.55831452408776
 21
-3.037552913267899
 31
0.0
  0
LINE
  5
5A2
330
18
100
AcDbEntity
  8
1
 62
     1
100
AcDbLine
 10
50.55831452408776
 20
-3.037552913267899
 30
0.0
 11
51.87915166906635
 21
-4.409843747626109
 31
0.0
  0
LINE
  5
5A3
330
18
100
AcDbEntity
  8
1
 62
     1
100
AcDbLine
 10
51.87915166906635
 20
-4.409843747626109
 30
0.0
 11
52.5395783650092
 21
-5.03550964882789
 31
0.0
  0
LINE
  5
5A4
330
18
100
AcDbEntity
  8
1
 62
     1
100
AcDbLine
 10
52.5395783650092
 20
-5.03550964882789
 30
0.0
 11
53.19998934709116
 21
-5.612666506461481
 31
0.0
  0
LINE
  5
5A5
330
18
100
AcDbEntity
  8
1
 62
     1
100
AcDbLine
 10
53.19998934709116
 20
-5.612666506461481
 30
0.0
 11
53.86041605938776
 21
-6.135783225732529
 31
0.0
  0
LINE
  5
5A6
330
18
100
AcDbEntity
  8
1
 62
     1
100
AcDbLine
 10
53.86041605938776
 20
-6.135783225732529
 30
0.0
 11
54.5208274553847
 21
-6.599796948788903
 31
0.0
  0
LINE
  5
5A7
330
18
100
AcDbEntity
  8
1
 62
     1
100
AcDbLine
 10
54.5208274553847
 20
-6.599796948788903
 30
0.0
 11
54.8510368689422
 21
-6.808227974722222
 31
0.0
  0
LINE
  5
5A8
330
18
100
AcDbEntity
  8
1
 62
     1
100
AcDbLine
 10
54.8510368689422
 20
-6.808227974722222
 30
0.0
 11
55.1812527384454
 21
-7.000260530788136
 31
0.0
  0
LINE
  5
5A9
330
18
100
AcDbEntity
  8
1
 62
     1
100
AcDbLine
 10
55.1812527384454
 20
-7.000260530788136
 30
0.0
 11
55.51146119191715
 21
-7.175423927712327
 31
0.0
  0
LINE
  5
5AA
330
18
100
AcDbEntity
  8
1
 62
     1
100
AcDbLine
 10
55.51146119191715
 20
-7.175423927712327
 30
0.0
 11
55.84166583765699
 21
-7.333299796789745
 31
0.0
  0
LINE
  5
5AB
330
18
100
AcDbEntity
  8
1
 62
     1
100
AcDbLine
 10
55.84166583765699
 20
-7.333299796789745
 30
0.0
 11
56.17187293012146
 21
-7.473511003022025
 31
0.0
  0
LINE
  5
5AC
330
18
100
AcDbEntity
  8
1
 62
     1
100
AcDbLine
 10
56.17187293012146
 20
-7.473511003022025
 30
0.0
 11
56.50208806710224
 21
-7.595720559893745
 31
0.0
  0
LINE
  5
5AD
330
18
100
AcDbEntity
  8
1
 62
     1
100
AcDbLine
 10
56.50208806710224
 20
-7.595720559893745
 30
0.0
 11
56.83229905760488
 21
-7.699628858702038
 31
0.0
  0
LINE
  5
5AE
330
18
100
AcDbEntity
  8
1
 62
     1
100
AcDbLine
 10
56.83229905760488
 20
-7.699628858702038
 30
0.0
 11
57.16250429068734
 21
-7.784986642158976
 31
0.0
  0
LINE
  5
5AF
330
18
100
AcDbEntity
  8
1
 62
     1
100
AcDbLine
 10
57.16250429068734
 20
-7.784986642158976
 30
0.0
 11
57.4927097573133
 21
-7.851590736360859
 31
0.0
  0
LINE
  5
5B0
330
18
100
AcDbEntity
  8
1
 62
     1
100
AcDbLine
 10
57.4927097573133
 20
-7.851590736360859
 30
0.0
 11
57.82292183427103
 21
-7.899280878898071
 31
0.0
  0
LINE
  5
5B1
330
18
100
AcDbEntity
  8
1
 62
     1
100
AcDbLine
 10
57.82292183427103
 20
-7.899280878898071
 30
0.0
 11
58.15313600790512
 21
-7.927940012769402
 31
0.0
  0
LINE
  5
5B2
330
18
100
AcDbEntity
  8
1
 62
     1
100
AcDbLine
 10
58.15313600790512
 20
-7.927940012769402
 30
0.0
 11
58.48332094896797
 21
-7.937499999959003
 31
0.0
  0
LINE
  5
5B3
330
18
100
AcDbEntity
  8
1
 62
     1
100
AcDbLine
 10
47.91664181525096
 20
0.0000000000000006
 30
0.0
 11
45.2499813614382
 21
1.857251185474886
 31
0.0
  0
LINE
  5
5B4
330
18
100
AcDbEntity
  8
1
 62
     1
100
AcDbLine
 10
45.2499813614382
 20
1.857251185474886
 30
0.0
 11
43.91665113453184
 21
2.694607178019977
 31
0.0
  0
LINE
  5
5B5
330
18
100
AcDbEntity
  8
1
 62
     1
100
AcDbLine
 10
43.91665113453184
 20
2.694607178019977
 30
0.0
 11
42.58332090762548
 21
3.42644912203516
 31
0.0
  0
LINE
  5
5B6
330
18
100
AcDbEntity
  8
1
 62
     1
100
AcDbLine
 10
42.58332090762548
 20
3.42644912203516
 30
0.0
 11
41.91665579417229
 21
3.743653476697506
 31
0.0
  0
LINE
  5
5B7
330
18
100
AcDbEntity
  8
1
 62
     1
100
AcDbLine
 10
41.91665579417229
 20
3.743653476697506
 30
0.0
 11
41.24999068071911
 21
4.024119491906069
 31
0.0
  0
LINE
  5
5B8
330
18
100
AcDbEntity
  8
1
 62
     1
100
AcDbLine
 10
41.24999068071911
 20
4.024119491906069
 30
0.0
 11
40.58332556726592
 21
4.265094763794804
 31
0.0
  0
LINE
  5
5B9
330
18
100
AcDbEntity
  8
1
 62
     1
100
AcDbLine
 10
40.58332556726592
 20
4.265094763794804
 30
0.0
 11
39.91666045381274
 21
4.464214493101009
 31
0.0
  0
LINE
  5
5BA
330
18
100
AcDbEntity
  8
1
 62
     1
100
AcDbLine
 10
39.91666045381274
 20
4.464214493101009
 30
0.0
 11
39.24999534035955
 21
4.619524811948896
 31
0.0
  0
LINE
  5
5BB
330
18
100
AcDbEntity
  8
1
 62
     1
100
AcDbLine
 10
39.24999534035955
 20
4.619524811948896
 30
0.0
 11
38.58333022690638
 21
4.729501024468734
 31
0.0
  0
LINE
  5
5BC
330
18
100
AcDbEntity
  8
1
 62
     1
100
AcDbLine
 10
38.58333022690638
 20
4.729501024468734
 30
0.0
 11
37.91666511345319
 21
4.79306649326411
 31
0.0
  0
LINE
  5
5BD
330
18
100
AcDbEntity
  8
1
 62
     1
100
AcDbLine
 10
37.91666511345319
 20
4.79306649326411
 30
0.0
 11
37.58333255672658
 21
4.807229230605763
 31
0.0
  0
LINE
  5
5BE
330
18
100
AcDbEntity
  8
1
 62
     1
100
AcDbLine
 10
37.58333255672658
 20
4.807229230605763
 30
0.0
 11
37.25
 21
4.809587508997867
 31
0.0
  0
LINE
  5
5BF
330
18
100
AcDbEntity
  8
1
 62
     1
100
AcDbLine
 10
46.7435108271173
 20
4.737164506469767
 30
0.0
 11
47.67280917491826
 21
3.814993077126283
 31
0.0
  0
LINE
  5
5C0
330
18
100
AcDbEntity
  8
1
 62
     1
100
AcDbLine
 10
47.67280917491826
 20
3.814993077126283
 30
0.0
 11
49.53139349283497
 21
1.771546940520369
 31
0.0
  0
LINE
  5
5C1
330
18
100
AcDbEntity
  8
1
 62
     1
100
AcDbLine
 10
49.53139349283497
 20
1.771546940520369
 30
0.0
 11
53.2485540920724
 21
-2.553265153527629
 31
0.0
  0
LINE
  5
5C2
330
18
100
AcDbEntity
  8
1
 62
     1
100
AcDbLine
 10
53.2485540920724
 20
-2.553265153527629
 30
0.0
 11
54.17784932640875
 21
-3.563887743016544
 31
0.0
  0
LINE
  5
5C3
330
18
100
AcDbEntity
  8
1
 62
     1
100
AcDbLine
 10
54.17784932640875
 20
-3.563887743016544
 30
0.0
 11
55.10714660760277
 21
-4.506608579306466
 31
0.0
  0
LINE
  5
5C4
330
18
100
AcDbEntity
  8
1
 62
     1
100
AcDbLine
 10
55.10714660760277
 20
-4.506608579306466
 30
0.0
 11
56.03644585237603
 21
-5.363461551505583
 31
0.0
  0
LINE
  5
5C5
330
18
100
AcDbEntity
  8
1
 62
     1
100
AcDbLine
 10
56.03644585237603
 20
-5.363461551505583
 30
0.0
 11
56.50109467748536
 21
-5.754512934738357
 31
0.0
  0
LINE
  5
5C6
330
18
100
AcDbEntity
  8
1
 62
     1
100
AcDbLine
 10
56.50109467748536
 20
-5.754512934738357
 30
0.0
 11
56.9657438589421
 21
-6.11811935216014
 31
0.0
  0
LINE
  5
5C7
330
18
100
AcDbEntity
  8
1
 62
     1
100
AcDbLine
 10
56.9657438589421
 20
-6.11811935216014
 30
0.0
 11
57.43039112284359
 21
-6.452547688622014
 31
0.0
  0
LINE
  5
5C8
330
18
100
AcDbEntity
  8
1
 62
     1
100
AcDbLine
 10
57.43039112284359
 20
-6.452547688622014
 30
0.0
 11
57.89503763304525
 21
-6.756202187098043
 31
0.0
  0
LINE
  5
5C9
330
18
100
AcDbEntity
  8
1
 62
     1
100
AcDbLine
 10
57.89503763304525
 20
-6.756202187098043
 30
0.0
 11
58.35968364166205
 21
-7.027634544771997
 31
0.0
  0
LINE
  5
5CA
330
18
100
AcDbEntity
  8
1
 62
     1
100
AcDbLine
 10
58.35968364166205
 20
-7.027634544771997
 30
0.0
 11
58.82432750962784
 21
-7.265551932141059
 31
0.0
  0
LINE
  5
5CB
330
18
100
AcDbEntity
  8
1
 62
     1
100
AcDbLine
 10
58.82432750962784
 20
-7.265551932141059
 30
0.0
 11
59.28897378111228
 21
-7.468819617869404
 31
0.0
  0
LINE
  5
5CC
330
18
100
AcDbEntity
  8
1
 62
     1
100
AcDbLine
 10
59.28897378111228
 20
-7.468819617869404
 30
0.0
 11
59.75362152988461
 21
-7.636468191768483
 31
0.0
  0
LINE
  5
5CD
330
18
100
AcDbEntity
  8
1
 62
     1
100
AcDbLine
 10
59.75362152988461
 20
-7.636468191768483
 30
0.0
 11
59.98595288649597
 21
-7.706681130505619
 31
0.0
  0
LINE
  5
5CE
330
18
100
AcDbEntity
  8
1
 62
     1
100
AcDbLine
 10
59.98595288649597
 20
-7.706681130505619
 30
0.0
 11
60.21826907994629
 21
-7.767698135187588
 31
0.0
  0
LINE
  5
5CF
330
18
100
AcDbEntity
  8
1
 62
     1
100
AcDbLine
 10
60.21826907994629
 20
-7.767698135187588
 30
0.0
 11
60.45060060228454
 21
-7.819455055730638
 31
0.0
  0
LINE
  5
5D0
330
18
100
AcDbEntity
  8
1
 62
     1
100
AcDbLine
 10
60.45060060228454
 20
-7.819455055730638
 30
0.0
 11
60.68291823017231
 21
-7.861882902448226
 31
0.0
  0
LINE
  5
5D1
330
18
100
AcDbEntity
  8
1
 62
     1
100
AcDbLine
 10
60.68291823017231
 20
-7.861882902448226
 30
0.0
 11
60.91524552818878
 21
-7.894937201640489
 31
0.0
  0
LINE
  5
5D2
330
18
100
AcDbEntity
  8
1
 62
     1
100
AcDbLine
 10
60.91524552818878
 20
-7.894937201640489
 30
0.0
 11
61.14756747356888
 21
-7.918573461376376
 31
0.0
  0
LINE
  5
5D3
330
18
100
AcDbEntity
  8
1
 62
     1
100
AcDbLine
 10
61.14756747356888
 20
-7.918573461376376
 30
0.0
 11
61.37989027239131
 21
-7.932767504706436
 31
0.0
  0
LINE
  5
5D4
330
18
100
AcDbEntity
  8
1
 62
     1
100
AcDbLine
 10
61.37989027239131
 20
-7.932767504706436
 30
0.0
 11
61.61219437982923
 21
-7.937499999959124
 31
0.0
  0
LINE
  5
5D5
330
18
100
AcDbEntity
  8
1
 62
     1
100
AcDbLine
 10
58.48332094896999
 20
-0.000000000000103
 30
0.0
 11
60.91399846498553
 21
-2.80608319620243
 31
0.0
  0
LINE
  5
5D6
330
18
100
AcDbEntity
  8
1
 62
     1
100
AcDbLine
 10
60.91399846498553
 20
-2.80608319620243
 30
0.0
 11
62.12933213826675
 21
-4.09456260767363
 31
0.0
  0
LINE
  5
5D7
330
18
100
AcDbEntity
  8
1
 62
     1
100
AcDbLine
 10
62.12933213826675
 20
-4.09456260767363
 30
0.0
 11
63.34466631072139
 21
-5.249758299110911
 31
0.0
  0
LINE
  5
5D8
330
18
100
AcDbEntity
  8
1
 62
     1
100
AcDbLine
 10
63.34466631072139
 20
-5.249758299110911
 30
0.0
 11
63.95234201010233
 21
-5.765426092596861
 31
0.0
  0
LINE
  5
5D9
330
18
100
AcDbEntity
  8
1
 62
     1
100
AcDbLine
 10
63.95234201010233
 20
-5.765426092596861
 30
0.0
 11
64.5600037513189
 21
-6.234068416741068
 31
0.0
  0
LINE
  5
5DA
330
18
100
AcDbEntity
  8
1
 62
     1
100
AcDbLine
 10
64.5600037513189
 20
-6.234068416741068
 30
0.0
 11
65.16767568107188
 21
-6.651881392552674
 31
0.0
  0
LINE
  5
5DB
330
18
100
AcDbEntity
  8
1
 62
     1
100
AcDbLine
 10
65.16767568107188
 20
-6.651881392552674
 30
0.0
 11
65.77534583989946
 21
-7.015450743291446
 31
0.0
  0
LINE
  5
5DC
330
18
100
AcDbEntity
  8
1
 62
     1
100
AcDbLine
 10
65.77534583989946
 20
-7.015450743291446
 30
0.0
 11
66.07918040832081
 21
-7.175948609471716
 31
0.0
  0
LINE
  5
5DD
330
18
100
AcDbEntity
  8
1
 62
     1
100
AcDbLine
 10
66.07918040832081
 20
-7.175948609471716
 30
0.0
 11
66.38300897212852
 21
-7.321807458267231
 31
0.0
  0
LINE
  5
5DE
330
18
100
AcDbEntity
  8
1
 62
     1
100
AcDbLine
 10
66.38300897212852
 20
-7.321807458267231
 30
0.0
 11
66.68684390786406
 21
-7.452735962547365
 31
0.0
  0
LINE
  5
5DF
330
18
100
AcDbEntity
  8
1
 62
     1
100
AcDbLine
 10
66.68684390786406
 20
-7.452735962547365
 30
0.0
 11
66.99068399963868
 21
-7.568464155499349
 31
0.0
  0
LINE
  5
5E0
330
18
100
AcDbEntity
  8
1
 62
     1
100
AcDbLine
 10
66.99068399963868
 20
-7.568464155499349
 30
0.0
 11
67.29451333474925
 21
-7.668751247408925
 31
0.0
  0
LINE
  5
5E1
330
18
100
AcDbEntity
  8
1
 62
     1
100
AcDbLine
 10
67.29451333474925
 20
-7.668751247408925
 30
0.0
 11
67.59834407541473
 21
-7.753398050465009
 31
0.0
  0
LINE
  5
5E2
330
18
100
AcDbEntity
  8
1
 62
     1
100
AcDbLine
 10
67.59834407541473
 20
-7.753398050465009
 30
0.0
 11
67.90218560119828
 21
-7.822232582353692
 31
0.0
  0
LINE
  5
5E3
330
18
100
AcDbEntity
  8
1
 62
     1
100
AcDbLine
 10
67.90218560119828
 20
-7.822232582353692
 30
0.0
 11
68.206
 21
-7.875107612296845
 31
0.0
  0
LINE
  5
5E4
330
18
100
AcDbEntity
  8
1
 62
     1
100
AcDbLine
 10
58.48332094897011
 20
-0.0000000000000024
 30
0.0
 11
55.54836844451354
 21
2.032693569418239
 31
0.0
  0
LINE
  5
5E5
330
18
100
AcDbEntity
  8
1
 62
     1
100
AcDbLine
 10
55.54836844451354
 20
2.032693569418239
 30
0.0
 11
54.08089219228525
 21
2.928017587769995
 31
0.0
  0
LINE
  5
5E6
330
18
100
AcDbEntity
  8
1
 62
     1
100
AcDbLine
 10
54.08089219228525
 20
2.928017587769995
 30
0.0
 11
53.34715406617112
 21
3.32605072935552
 31
0.0
  0
LINE
  5
5E7
330
18
100
AcDbEntity
  8
1
 62
     1
100
AcDbLine
 10
53.34715406617112
 20
3.32605072935552
 30
0.0
 11
52.61341594005697
 21
3.684552356575913
 31
0.0
  0
LINE
  5
5E8
330
18
100
AcDbEntity
  8
1
 62
     1
100
AcDbLine
 10
52.61341594005697
 20
3.684552356575913
 30
0.0
 11
51.87967781394284
 21
3.99926152815365
 31
0.0
  0
LINE
  5
5E9
330
18
100
AcDbEntity
  8
1
 62
     1
100
AcDbLine
 10
51.87967781394284
 20
3.99926152815365
 30
0.0
 11
51.14593968782869
 21
4.26643779703383
 31
0.0
  0
LINE
  5
5EA
330
18
100
AcDbEntity
  8
1
 62
     1
100
AcDbLine
 10
51.14593968782869
 20
4.26643779703383
 30
0.0
 11
50.41220156171455
 21
4.482905666585897
 31
0.0
  0
LINE
  5
5EB
330
18
100
AcDbEntity
  8
1
 62
     1
100
AcDbLine
 10
50.41220156171455
 20
4.482905666585897
 30
0.0
 11
50.04533249865749
 21
4.571294713562053
 31
0.0
  0
LINE
  5
5EC
330
18
100
AcDbEntity
  8
1
 62
     1
100
AcDbLine
 10
50.04533249865749
 20
4.571294713562053
 30
0.0
 11
49.67846343560042
 21
4.646092332125851
 31
0.0
  0
LINE
  5
5ED
330
18
100
AcDbEntity
  8
1
 62
     1
100
AcDbLine
 10
49.67846343560042
 20
4.646092332125851
 30
0.0
 11
49.31159437254335
 21
4.707073090007375
 31
0.0
  0
LINE
  5
5EE
330
18
100
AcDbEntity
  8
1
 62
     1
100
AcDbLine
 10
49.31159437254335
 20
4.707073090007375
 30
0.0
 11
48.94472530948627
 21
4.754058259188867
 31
0.0
  0
LINE
  5
5EF
330
18
100
AcDbEntity
  8
1
 62
     1
100
AcDbLine
 10
48.94472530948627
 20
4.754058259188867
 30
0.0
 11
48.57785624642921
 21
4.786905976060898
 31
0.0
  0
LINE
  5
5F0
330
18
100
AcDbEntity
  8
1
 62
     1
100
AcDbLine
 10
48.57785624642921
 20
4.786905976060898
 30
0.0
 11
48.21098718337215
 21
4.805520235138356
 31
0.0
  0
LINE
  5
5F1
330
18
100
AcDbEntity
  8
1
 62
     1
100
AcDbLine
 10
48.21098718337215
 20
4.805520235138356
 30
0.0
 11
47.84411812031508
 21
4.80984452020504
 31
0.0
  0
LINE
  5
5F2
330
18
100
AcDbEntity
  8
1
 62
     1
100
AcDbLine
 10
47.84411812031508
 20
4.80984452020504
 30
0.0
 11
47.47724905725802
 21
4.799866620153006
 31
0.0
  0
LINE
  5
5F3
330
18
100
AcDbEntity
  8
1
 62
     1
100
AcDbLine
 10
47.47724905725802
 20
4.799866620153006
 30
0.0
 11
47.11037999420094
 21
4.775616082565559
 31
0.0
  0
LINE
  5
5F4
330
18
100
AcDbEntity
  8
1
 62
     1
100
AcDbLine
 10
47.11037999420094
 20
4.775616082565559
 30
0.0
 11
46.74351093114387
 21
4.737164616345037
 31
0.0
  0
LINE
  5
5F5
330
18
100
AcDbEntity
  8
1
 62
     1
100
AcDbLine
 10
44.1977391369801
 20
6.755120715995191
 30
0.0
 11
44.66260300799834
 21
7.026797069789985
 31
0.0
  0
LINE
  5
5F6
330
18
100
AcDbEntity
  8
1
 62
     1
100
AcDbLine
 10
44.66260300799834
 20
7.026797069789985
 30
0.0
 11
45.12746552774706
 21
7.264929806804445
 31
0.0
  0
LINE
  5
5F7
330
18
100
AcDbEntity
  8
1
 62
     1
100
AcDbLine
 10
45.12746552774706
 20
7.264929806804445
 30
0.0
 11
45.59232847940486
 21
7.468383330014451
 31
0.0
  0
LINE
  5
5F8
330
18
100
AcDbEntity
  8
1
 62
     1
100
AcDbLine
 10
45.59232847940486
 20
7.468383330014451
 30
0.0
 11
46.05719273895154
 21
7.636186680709874
 31
0.0
  0
LINE
  5
5F9
330
18
100
AcDbEntity
  8
1
 62
     1
100
AcDbLine
 10
46.05719273895154
 20
7.636186680709874
 30
0.0
 11
46.28963322705327
 21
7.706464428279944
 31
0.0
  0
LINE
  5
5FA
330
18
100
AcDbEntity
  8
1
 62
     1
100
AcDbLine
 10
46.28963322705327
 20
7.706464428279944
 30
0.0
 11
46.52205822462083
 21
7.767538454402577
 31
0.0
  0
LINE
  5
5FB
330
18
100
AcDbEntity
  8
1
 62
     1
100
AcDbLine
 10
46.52205822462083
 20
7.767538454402577
 30
0.0
 11
46.7544987040786
 21
7.819343884039343
 31
0.0
  0
LINE
  5
5FC
330
18
100
AcDbEntity
  8
1
 62
     1
100
AcDbLine
 10
46.7544987040786
 20
7.819343884039343
 30
0.0
 11
46.98692443859304
 21
7.861811419782839
 31
0.0
  0
LINE
  5
5FD
330
18
100
AcDbEntity
  8
1
 62
     1
100
AcDbLine
 10
46.98692443859304
 20
7.861811419782839
 30
0.0
 11
47.21936317305054
 21
7.894896879958628
 31
0.0
  0
LINE
  5
5FE
330
18
100
AcDbEntity
  8
1
 62
     1
100
AcDbLine
 10
47.21936317305054
 20
7.894896879958628
 30
0.0
 11
47.45179116286881
 21
7.918555349252071
 31
0.0
  0
LINE
  5
5FF
330
18
100
AcDbEntity
  8
1
 62
     1
100
AcDbLine
 10
47.45179116286881
 20
7.918555349252071
 30
0.0
 11
47.68422610858067
 21
7.932762986164942
 31
0.0
  0
LINE
  5
600
330
18
100
AcDbEntity
  8
1
 62
     1
100
AcDbLine
 10
47.68422610858067
 20
7.932762986164942
 30
0.0
 11
47.91664181525097
 21
7.937499999999998
 31
0.0
  0
LINE
  5
601
330
18
100
AcDbEntity
  8
SK1
100
AcDbLine
 10
-44.50624999999999
 20
7.9375
 30
0.0
 11
-45.3
 21
7.14375
 31
0.0
  0
LINE
  5
602
330
18
100
AcDbEntity
  8
SK1
100
AcDbLine
 10
-45.3
 20
7.14375
 30
0.0
 11
-45.3
 21
7.136647731653629
 31
0.0
  0
LINE
  5
603
330
18
100
AcDbEntity
  8
SK1
100
AcDbLine
 10
-45.3
 20
7.136647731653629
 30
0.0
 11
-45.29999999999999
 21
6.502765513787307
 31
0.0
  0
LINE
  5
604
330
18
100
AcDbEntity
  8
SK1
100
AcDbLine
 10
-45.29999999999999
 20
6.502765513787307
 30
0.0
 11
-45.3
 21
-7.14375
 31
0.0
  0
LINE
  5
605
330
18
100
AcDbEntity
  8
SK1
100
AcDbLine
 10
-44.50624999999999
 20
7.9375
 30
0.0
 11
0.0
 21
7.9375
 31
0.0
  0
LINE
  5
606
330
18
100
AcDbEntity
  8
SK1
100
AcDbLine
 10
-44.50624999999999
 20
7.9375
 30
0.0
 11
-44.50624999999999
 21
7.929608590726255
 31
0.0
  0
LINE
  5
607
330
18
100
AcDbEntity
  8
SK1
100
AcDbLine
 10
-44.50624999999999
 20
7.929608590726255
 30
0.0
 11
-44.50624999999999
 21
7.225295015319229
 31
0.0
  0
LINE
  5
608
330
18
100
AcDbEntity
  8
SK1
100
AcDbLine
 10
-44.50624999999999
 20
7.225295015319229
 30
0.0
 11
-44.50624999999999
 21
-7.9375
 31
0.0
  0
LINE
  5
609
330
18
100
AcDbEntity
  8
SK1
100
AcDbLine
 10
-45.3
 20
-7.14375
 30
0.0
 11
-44.50624999999999
 21
-7.9375
 31
0.0
  0
LINE
  5
60A
330
18
100
AcDbEntity
  8
SK1
100
AcDbLine
 10
-44.50624999999999
 20
-7.937499999999998
 30
0.0
 11
0.0
 21
-7.937499999999998
 31
0.0
  0
DIMENSION
  5
60B
330
18
100
AcDbEntity
  8
2
100
AcDbDimension
  2
*D0
 10
84.00000000000003
 20
-7.937499999999948
 30
0.0
 11
81.60225000000007
 21
-19.46249999999996
 31
0.0
 70
    32
  1
%%c<>
 71
     5
 42
15.875
  3
STANDARD
100
AcDbAlignedDimension
 13
69.0
 23
7.9375
 33
0.0
 14
69.0
 24
-7.9375
 34
0.0
 50
90.0000000000002
100
AcDbRotatedDimension
  0
DIMENSION
  5
619
330
18
100
AcDbEntity
  8
2
100
AcDbDimension
  2
*D1
 10
69.0
 20
75.0
 30
0.0
 11
34.5
 21
77.39075
 31
0.0
 70
    32
  1
<>
 71
     5
 42
69.0
  3
STANDARD
100
AcDbAlignedDimension
 13
0.0
 23
0.0
 33
0.0
 14
69.0
 24
0.0
 34
0.0
100
AcDbRotatedDimension
  0
DIMENSION
  5
626
330
18
100
AcDbEntity
  8
2
100
AcDbDimension
  2
*D2
 10
69.0
 20
60.0
 30
0.0
 11
53.125
 21
62.39775
 31
0.0
 70
    32
  1
<>
 71
     5
 42
31.75
  3
STANDARD
100
AcDbAlignedDimension
 13
37.25
 23
7.9375
 33
0.0
 14
69.0
 24
7.9375
 34
0.0
100
AcDbRotatedDimension
  0
DIMENSION
  5
633
330
18
100
AcDbEntity
  8
SK2
100
AcDbDimension
  2
*D3
 10
-60.29999999995949
 20
-7.937500000076551
 30
0.0
 11
-62.69774999990067
 21
-19.46250000008879
 31
0.0
 70
    32
  1
%%c<>
 71
     5
 42
15.875
  3
STANDARD
100
AcDbAlignedDimension
 13
-45.3
 23
7.9375
 33
0.0
 14
-45.3
 24
-7.9375
 34
0.0
 50
90.0000000002924
100
AcDbRotatedDimension
  0
DIMENSION
  5
641
330
18
100
AcDbEntity
  8
SK2
100
AcDbDimension
  2
*D4
 10
69.0
 20
90.0
 30
0.0
 11
11.85
 21
92.438
 31
0.0
 70
    32
  1
<>
 71
     5
 42
114.3
  3
STANDARD
100
AcDbAlignedDimension
 13
-45.3
 23
0.0
 33
0.0
 14
69.0
 24
0.0
 34
0.0
100
AcDbRotatedDimension
  0
DIMENSION
  5
64E
330
18
100
AcDbEntity
  8
2
100
AcDbDimension
  2
*D5
 10
68.206
 20
-7.1435
 30
0.0
 11
71.3141287892497
 21
-24.77057429550296
 31
0.0
 70
   164
  1
<>
 71
     5
 42
0.7939999999999988
  3
STANDARD
100
AcDbRadialDimension
 15
68.34387665306754
 25
-7.925437355891693
 35
0.0
 40
0.0
  0
ENDSEC
  0
SECTION
  2
OBJECTS
  0
DICTIONARY
  5
C
330
0
100
AcDbDictionary
281
     1
  3
ACAD_COLOR
350
387
  3
ACAD_GROUP
350
D
  3
ACAD_LAYOUT
350
301
  3
ACAD_MATERIAL
350
386
  3
ACAD_MLEADERSTYLE
350
3DE
  3
ACAD_MLINESTYLE
350
E
  3
ACAD_PLOTSETTINGS
350
302
  3
ACAD_PLOTSTYLENAME
350
2FF
  3
ACAD_SCALELIST
350
3A0
  3
ACAD_TABLESTYLE
350
388
  3
ACAD_VISUALSTYLE
350
3C2
  3
ACDBHEADERROUNDTRIPXREC
350
65B
  3
AcDbVariableDictionary
350
357
  0
DICTIONARY
  5
65E
330
8
100
AcDbDictionary
280
     1
281
     1
  3
ACAD_XREC_ROUNDTRIP
360
65F
  0
DICTIONARY
  5
387
102
{ACAD_REACTORS
330
C
102
}
330
C
100
AcDbDictionary
281
     1
  0
DICTIONARY
  5
D
102
{ACAD_REACTORS
330
C
102
}
330
C
100
AcDbDictionary
281
     1
  0
DICTIONARY
  5
301
102
{ACAD_REACTORS
330
C
102
}
330
C
100
AcDbDictionary
281
     1
  3
Layout1
350
33B
  3
Model
350
303
  0
DICTIONARY
  5
386
102
{ACAD_REACTORS
330
C
102
}
330
C
100
AcDbDictionary
281
     1
  3
ByBlock
350
3DC
  3
ByLayer
350
3DB
  3
Global
350
3DD
  0
DICTIONARY
  5
3DE
102
{ACAD_REACTORS
330
C
102
}
330
C
100
AcDbDictionary
281
     1
  3
Standard
350
3DF
  0
DICTIONARY
  5
E
102
{ACAD_REACTORS
330
C
102
}
330
C
100
AcDbDictionary
281
     1
  3
STANDARD
350
1B
  0
DICTIONARY
  5
302
102
{ACAD_REACTORS
330
C
102
}
330
C
100
AcDbDictionary
281
     1
  0
ACDBDICTIONARYWDFLT
  5
2FF
102
{ACAD_REACTORS
330
C
102
}
330
C
100
AcDbDictionary
281
     1
  3
Normal
350
300
100
AcDbDictionaryWithDefault
340
300
  0
DICTIONARY
  5
3A0
102
{ACAD_REACTORS
330
C
102
}
330
C
100
AcDbDictionary
281
     1
  3
A0
350
3A1
  3
A1
350
3A2
  3
A2
350
3A3
  3
A3
350
3A4
  3
A4
350
3A5
  3
A5
350
3A6
  3
A6
350
3A7
  3
A7
350
3A8
  3
A8
350
3A9
  3
A9
350
3AA
  3
B0
350
3AB
  3
B1
350
3AC
  3
B2
350
3AD
  3
B3
350
3AE
  3
B4
350
3AF
  3
B5
350
3B0
  3
B6
350
3B1
  3
B7
350
3B2
  3
B8
350
3B3
  3
B9
350
3B4
  3
C0
350
3B5
  3
C1
350
3B6
  3
C2
350
3B7
  3
C3
350
3B8
  3
C4
350
3B9
  3
C5
350
3BA
  3
C6
350
3BB
  3
C7
350
3BC
  3
C8
350
3BD
  3
C9
350
3BE
  3
D0
350
3BF
  3
D1
350
3C0
  3
D2
350
3C1
  0
DICTIONARY
  5
388
102
{ACAD_REACTORS
330
C
102
}
330
C
100
AcDbDictionary
281
     1
  3
Standard
350
389
  0
DICTIONARY
  5
3C2
102
{ACAD_REACTORS
330
C
102
}
330
C
100
AcDbDictionary
281
     1
  3
2dWireframe
350
3C7
  3
Basic
350
3CA
  3
Brighten
350
3CE
  3
ColorChange
350
3D2
  3
Conceptual
350
3CC
  3
Dim
350
3CD
  3
EdgeColorOff
350
3D5
  3
Facepattern
350
3D1
  3
Flat
350
3C3
  3
FlatWithEdges
350
3C4
  3
Gouraud
350
3C5
  3
GouraudWithEdges
350
3C6
  3
Hidden
350
3C9
  3
JitterOff
350
3D3
  3
Linepattern
350
3D0
  3
OverhangOff
350
3D4
  3
Realistic
350
3CB
  3
Shaded
350
3DA
  3
Shaded with edges
350
3D9
  3
Shades of Gray
350
3D6
  3
Sketchy
350
3D7
  3
Thicken
350
3CF
  3
Wireframe
350
3C8
  3
X-Ray
350
3D8
  0
DICTIONARY
  5
65B
102
{ACAD_REACTORS
330
C
102
}
330
C
100
AcDbDictionary
281
     1
  3
COLORDICT
350
65C
  3
MATERIALDICT
350
65D
  0
DICTIONARY
  5
357
102
{ACAD_REACTORS
330
C
102
}
330
C
100
AcDbDictionary
281
     1
  3
CANNOSCALE
350
660
  3
CMLEADERSTYLE
350
657
  3
CTABLESTYLE
350
38D
  3
DIMASSOC
350
359
  3
HIDETEXT
350
358
  3
MSLTSCALE
350
658
  3
PROJECTNAME
350
38E
  0
XRECORD
  5
65F
102
{ACAD_REACTORS
330
65E
102
}
330
65E
100
AcDbXrecord
280
     1
102
VTR_0.000_0.000_1.000_1.000_VISUALSTYLE
340
3C7
102
VTR_0.000_0.000_1.000_1.000_GRIDDISPLAY
 70
     3
102
VTR_0.000_0.000_1.000_1.000_GRIDMAJOR
 70
     5
102
VTR_0.000_0.000_1.000_1.000_DEFAULTLIGHTING
280
     1
102
VTR_0.000_0.000_1.000_1.000_DEFAULTLIGHTINGTYPE
 70
     1
102
VTR_0.000_0.000_1.000_1.000_BRIGHTNESS
141
0.0
102
VTR_0.000_0.000_1.000_1.000_CONTRAST
142
0.0
  0
LAYOUT
  5
33B
102
{ACAD_REACTORS
330
301
102
}
330
301
100
AcDbPlotSettings
  1

  2
Lexmark Optra PS2
  4

  6

 40
0.0
 41
0.0
 42
0.0
 43
0.0
 44
0.0
 45
0.0
 46
0.0
 47
0.0
 48
0.0
 49
0.0
140
0.0
141
0.0
142
1.0
143
1.0
 70
   688
 72
     0
 73
     0
 74
     5
  7
monochrome.ctb
 75
    16
147
1.0
148
0.0
149
0.0
100
AcDbLayout
  1
Layout1
 70
     1
 71
     1
 10
0.0
 20
0.0
 11
12.0
 21
9.0
 12
0.0
 22
0.0
 32
0.0
 14
0.0
 24
0.0
 34
0.0
 15
0.0
 25
0.0
 35
0.0
146
0.0
 13
0.0
 23
0.0
 33
0.0
 16
1.0
 26
0.0
 36
0.0
 17
0.0
 27
1.0
 37
0.0
 76
     0
330
338
  0
LAYOUT
  5
303
102
{ACAD_REACTORS
330
301
102
}
330
301
100
AcDbPlotSettings
  1

  2
Lexmark Optra Rx
  4
A4
  6

 40
6.805083274841307
 41
5.535083293914794
 42
6.974411010742187
 43
7.14373779296875
 44
209.9733276367186
 45
296.9259948730469
 46
0.0
 47
0.0
 48
0.0
 49
0.0
140
0.0
141
0.0
142
1.0
143
2.976565420630886
 70
 11952
 72
     1
 73
     1
 74
     0
  7
monochrome.ctb
 75
     0
147
0.335957675604539
148
204.1199660668592
149
172.3933209647495
100
AcDbLayout
  1
Model
 70
     1
 71
     0
 10
0.0
 20
0.0
 11
12.0
 21
9.0
 12
0.0
 22
0.0
 32
0.0
 14
0.0
 24
0.0
 34
0.0
 15
0.0
 25
0.0
 35
0.0
146
0.0
 13
0.0
 23
0.0
 33
0.0
 16
1.0
 26
0.0
 36
0.0
 17
0.0
 27
1.0
 37
0.0
 76
     0
330
18
331
39A
  0
MATERIAL
  5
3DC
102
{ACAD_REACTORS
330
386
102
}
102
{ACAD_XDICTIONARY
360
663
102
}
330
386
100
AcDbMaterial
  1
ByBlock
  0
MATERIAL
  5
3DB
102
{ACAD_REACTORS
330
386
102
}
102
{ACAD_XDICTIONARY
360
661
102
}
330
386
100
AcDbMaterial
  1
ByLayer
  0
MATERIAL
  5
3DD
102
{ACAD_REACTORS
330
386
102
}
102
{ACAD_XDICTIONARY
360
665
102
}
330
386
100
AcDbMaterial
  1
Global
  0
MLEADERSTYLE
  5
3DF
102
{ACAD_REACTORS
330
3DE
102
}
102
{ACAD_XDICTIONARY
360
698
102
}
330
3DE
100
AcDbMLeaderStyle
170
     2
171
     1
172
     0
 90
        2
 40
0.0
 41
0.0
173
     1
 91
-1056964608
340
12
 92
       -2
290
     1
 42
2.0
291
     1
 43
8.0
  3
Standard
341
0
 44
4.0
300

342
10
174
     1
178
     6
175
     1
176
     0
 93
-1056964608
 45
4.0
292
     0
297
     0
 46
4.0
343
0
 94
-1056964608
 47
1.0
 49
1.0
140
1.0
293
     1
141
0.0
294
     1
177
     0
142
1.0
295
     0
296
     0
143
3.75
1001
ACAD_MLEADERVER
1070
     2
  0
MLINESTYLE
  5
1B
102
{ACAD_REACTORS
330
E
102
}
330
E
100
AcDbMlineStyle
  2
STANDARD
 70
     0
  3

 62
     0
 51
90.0
 52
90.0
 71
     2
 49
0.5
 62
   256
  6
BYLAYER
 49
-0.5
 62
   256
  6
BYLAYER
  0
ACDBPLACEHOLDER
  5
300
102
{ACAD_REACTORS
330
2FF
102
}
330
2FF
  0
SCALE
  5
3A1
102
{ACAD_REACTORS
330
3A0
102
}
330
3A0
100
AcDbScale
 70
     0
300
1:1
140
1.0
141
1.0
290
     1
  0
SCALE
  5
3A2
102
{ACAD_REACTORS
330
3A0
102
}
330
3A0
100
AcDbScale
 70
     0
300
1:2
140
1.0
141
2.0
290
     0
  0
SCALE
  5
3A3
102
{ACAD_REACTORS
330
3A0
102
}
330
3A0
100
AcDbScale
 70
     0
300
1:4
140
1.0
141
4.0
290
     0
  0
SCALE
  5
3A4
102
{ACAD_REACTORS
330
3A0
102
}
330
3A0
100
AcDbScale
 70
     0
300
1:5
140
1.0
141
5.0
290
     0
  0
SCALE
  5
3A5
102
{ACAD_REACTORS
330
3A0
102
}
330
3A0
100
AcDbScale
 70
     0
300
1:8
140
1.0
141
8.0
290
     0
  0
SCALE
  5
3A6
102
{ACAD_REACTORS
330
3A0
102
}
330
3A0
100
AcDbScale
 70
     0
300
1:10
140
1.0
141
10.0
290
     0
  0
SCALE
  5
3A7
102
{ACAD_REACTORS
330
3A0
102
}
330
3A0
100
AcDbScale
 70
     0
300
1:16
140
1.0
141
16.0
290
     0
  0
SCALE
  5
3A8
102
{ACAD_REACTORS
330
3A0
102
}
330
3A0
100
AcDbScale
 70
     0
300
1:20
140
1.0
141
20.0
290
     0
  0
SCALE
  5
3A9
102
{ACAD_REACTORS
330
3A0
102
}
330
3A0
100
AcDbScale
 70
     0
300
1:30
140
1.0
141
30.0
290
     0
  0
SCALE
  5
3AA
102
{ACAD_REACTORS
330
3A0
102
}
330
3A0
100
AcDbScale
 70
     0
300
1:40
140
1.0
141
40.0
290
     0
  0
SCALE
  5
3AB
102
{ACAD_REACTORS
330
3A0
102
}
330
3A0
100
AcDbScale
 70
     0
300
1:50
140
1.0
141
50.0
290
     0
  0
SCALE
  5
3AC
102
{ACAD_REACTORS
330
3A0
102
}
330
3A0
100
AcDbScale
 70
     0
300
1:100
140
1.0
141
100.0
290
     0
  0
SCALE
  5
3AD
102
{ACAD_REACTORS
330
3A0
102
}
330
3A0
100
AcDbScale
 70
     0
300
2:1
140
2.0
141
1.0
290
     0
  0
SCALE
  5
3AE
102
{ACAD_REACTORS
330
3A0
102
}
330
3A0
100
AcDbScale
 70
     0
300
4:1
140
4.0
141
1.0
290
     0
  0
SCALE
  5
3AF
102
{ACAD_REACTORS
330
3A0
102
}
330
3A0
100
AcDbScale
 70
     0
300
8:1
140
8.0
141
1.0
290
     0
  0
SCALE
  5
3B0
102
{ACAD_REACTORS
330
3A0
102
}
330
3A0
100
AcDbScale
 70
     0
300
10:1
140
10.0
141
1.0
290
     0
  0
SCALE
  5
3B1
102
{ACAD_REACTORS
330
3A0
102
}
330
3A0
100
AcDbScale
 70
     0
300
100:1
140
100.0
141
1.0
290
     0
  0
SCALE
  5
3B2
102
{ACAD_REACTORS
330
3A0
102
}
330
3A0
100
AcDbScale
 70
     0
300
1/128" = 1'-0"
140
0.0078125
141
12.0
290
     0
  0
SCALE
  5
3B3
102
{ACAD_REACTORS
330
3A0
102
}
330
3A0
100
AcDbScale
 70
     0
300
1/64" = 1'-0"
140
0.015625
141
12.0
290
     0
  0
SCALE
  5
3B4
102
{ACAD_REACTORS
330
3A0
102
}
330
3A0
100
AcDbScale
 70
     0
300
1/32" = 1'-0"
140
0.03125
141
12.0
290
     0
  0
SCALE
  5
3B5
102
{ACAD_REACTORS
330
3A0
102
}
330
3A0
100
AcDbScale
 70
     0
300
1/16" = 1'-0"
140
0.0625
141
12.0
290
     0
  0
SCALE
  5
3B6
102
{ACAD_REACTORS
330
3A0
102
}
330
3A0
100
AcDbScale
 70
     0
300
3/32" = 1'-0"
140
0.09375
141
12.0
290
     0
  0
SCALE
  5
3B7
102
{ACAD_REACTORS
330
3A0
102
}
330
3A0
100
AcDbScale
 70
     0
300
1/8" = 1'-0"
140
0.125
141
12.0
290
     0
  0
SCALE
  5
3B8
102
{ACAD_REACTORS
330
3A0
102
}
330
3A0
100
AcDbScale
 70
     0
300
3/16" = 1'-0"
140
0.1875
141
12.0
290
     0
  0
SCALE
  5
3B9
102
{ACAD_REACTORS
330
3A0
102
}
330
3A0
100
AcDbScale
 70
     0
300
1/4" = 1'-0"
140
0.25
141
12.0
290
     0
  0
SCALE
  5
3BA
102
{ACAD_REACTORS
330
3A0
102
}
330
3A0
100
AcDbScale
 70
     0
300
3/8" = 1'-0"
140
0.375
141
12.0
290
     0
  0
SCALE
  5
3BB
102
{ACAD_REACTORS
330
3A0
102
}
330
3A0
100
AcDbScale
 70
     0
300
1/2" = 1'-0"
140
0.5
141
12.0
290
     0
  0
SCALE
  5
3BC
102
{ACAD_REACTORS
330
3A0
102
}
330
3A0
100
AcDbScale
 70
     0
300
3/4" = 1'-0"
140
0.75
141
12.0
290
     0
  0
SCALE
  5
3BD
102
{ACAD_REACTORS
330
3A0
102
}
330
3A0
100
AcDbScale
 70
     0
300
1" = 1'-0"
140
1.0
141
12.0
290
     0
  0
SCALE
  5
3BE
102
{ACAD_REACTORS
330
3A0
102
}
330
3A0
100
AcDbScale
 70
     0
300
1-1/2" = 1'-0"
140
1.5
141
12.0
290
     0
  0
SCALE
  5
3BF
102
{ACAD_REACTORS
330
3A0
102
}
330
3A0
100
AcDbScale
 70
     0
300
3" = 1'-0"
140
3.0
141
12.0
290
     0
  0
SCALE
  5
3C0
102
{ACAD_REACTORS
330
3A0
102
}
330
3A0
100
AcDbScale
 70
     0
300
6" = 1'-0"
140
6.0
141
12.0
290
     0
  0
SCALE
  5
3C1
102
{ACAD_REACTORS
330
3A0
102
}
330
3A0
100
AcDbScale
 70
     0
300
1'-0" = 1'-0"
140
12.0
141
12.0
290
     0
  0
TABLESTYLE
  5
389
102
{ACAD_REACTORS
330
388
102
}
330
388
100
AcDbTableStyle
  3
Standard
 70
     0
 71
     0
 40
1.5
 41
1.5
280
     0
281
     0
  7
STANDARD
140
4.5
170
     2
 62
     0
 63
   257
283
     0
274
    -2
284
     1
 64
     0
275
    -2
285
     1
 65
     0
276
    -2
286
     1
 66
     0
277
    -2
287
     1
 67
     0
278
    -2
288
     1
 68
     0
279
    -2
289
     1
 69
     0
  7
STANDARD
140
6.0
170
     5
 62
     0
 63
   257
283
     0
274
    -2
284
     1
 64
     0
275
    -2
285
     1
 65
     0
276
    -2
286
     1
 66
     0
277
    -2
287
     1
 67
     0
278
    -2
288
     1
 68
     0
279
    -2
289
     1
 69
     0
  7
STANDARD
140
4.5
170
     5
 62
     0
 63
   257
283
     0
274
    -2
284
     1
 64
     0
275
    -2
285
     1
 65
     0
276
    -2
286
     1
 66
     0
277
    -2
287
     1
 67
     0
278
    -2
288
     1
 68
     0
279
    -2
289
     1
 69
     0
  0
VISUALSTYLE
  5
3C7
102
{ACAD_REACTORS
330
3C2
102
}
102
{ACAD_XDICTIONARY
360
66F
102
}
330
3C2
100
AcDbVisualStyle
  2
2dWireframe
 70
     4
 71
     0
 72
     2
 73
     0
 90
        0
 40
0.6
 41
30.0
 62
     5
 63
     7
 74
     1
 91
        4
 64
     7
 65
   257
 75
     1
175
     1
 42
1.0
 92
        0
 66
   257
 43
1.0
 76
     1
 77
     6
 78
     2
 67
     7
 79
     5
170
     0
171
     0
290
     0
174
     0
 93
        1
 44
0.0
173
     0
291
     0
 45
0.0
1001
ACAD
1000
AcDbSavedByObjectVersion
1070
     0
  0
VISUALSTYLE
  5
3CA
102
{ACAD_REACTORS
330
3C2
102
}
102
{ACAD_XDICTIONARY
360
675
102
}
330
3C2
100
AcDbVisualStyle
  2
Basic
 70
     7
 71
     1
 72
     0
 73
     1
 90
        0
 40
0.6
 41
30.0
 62
     5
 63
     7
 74
     0
 91
        4
 64
     7
 65
   257
 75
     1
175
     1
 42
1.0
 92
        8
 66
     7
 43
1.0
 76
     1
 77
     6
 78
     2
 67
     7
 79
     5
170
     0
171
     0
290
     0
174
     0
 93
        1
 44
0.0
173
     0
291
     1
 45
0.0
1001
ACAD
1000
AcDbSavedByObjectVersion
1070
     0
  0
VISUALSTYLE
  5
3CE
102
{ACAD_REACTORS
330
3C2
102
}
102
{ACAD_XDICTIONARY
360
67D
102
}
330
3C2
100
AcDbVisualStyle
  2
Brighten
 70
    12
 71
     2
 72
     2
 73
     0
 90
        0
 40
0.6
 41
30.0
 62
     5
 63
     7
 74
     1
 91
        4
 64
     7
 65
   257
 75
     1
175
     1
 42
1.0
 92
        8
 66
     7
 43
1.0
 76
     1
 77
     6
 78
     2
 67
     7
 79
     5
170
     0
171
     0
290
     0
174
     0
 93
        1
 44
50.0
173
     0
291
     1
 45
0.0
1001
ACAD
1000
AcDbSavedByObjectVersion
1070
     0
  0
VISUALSTYLE
  5
3D2
102
{ACAD_REACTORS
330
3C2
102
}
102
{ACAD_XDICTIONARY
360
685
102
}
330
3C2
100
AcDbVisualStyle
  2
ColorChange
 70
    16
 71
     2
 72
     2
 73
     3
 90
        0
 40
0.6
 41
30.0
 62
     5
 63
     8
 74
     1
 91
        4
 64
     7
 65
   257
 75
     1
175
     1
 42
1.0
 92
        8
 66
     8
 43
1.0
 76
     1
 77
     6
 78
     2
 67
     7
 79
     5
170
     0
171
     0
290
     0
174
     0
 93
        1
 44
0.0
173
     0
291
     1
 45
0.0
1001
ACAD
1000
AcDbSavedByObjectVersion
1070
     0
  0
VISUALSTYLE
  5
3CC
102
{ACAD_REACTORS
330
3C2
102
}
102
{ACAD_XDICTIONARY
360
679
102
}
330
3C2
100
AcDbVisualStyle
  2
Conceptual
 70
     9
 71
     3
 72
     2
 73
     0
 90
        0
 40
0.6
 41
30.0
 62
     5
 63
     7
 74
     2
 91
        2
 64
     7
 65
   257
 75
     1
175
     1
 42
179.0
 92
        8
 66
     7
 43
1.0
 76
     1
 77
     6
 78
     2
 67
     7
 79
     3
170
     0
171
     0
290
     0
174
     0
 93
        1
 44
0.0
173
     0
291
     0
 45
0.0
1001
ACAD
1000
AcDbSavedByObjectVersion
1070
     0
  0
VISUALSTYLE
  5
3CD
102
{ACAD_REACTORS
330
3C2
102
}
102
{ACAD_XDICTIONARY
360
67B
102
}
330
3C2
100
AcDbVisualStyle
  2
Dim
 70
    11
 71
     2
 72
     2
 73
     0
 90
        0
 40
0.6
 41
30.0
 62
     5
 63
     7
 74
     1
 91
        4
 64
     7
 65
   257
 75
     1
175
     1
 42
1.0
 92
        8
 66
     7
 43
1.0
 76
     1
 77
     6
 78
     2
 67
     7
 79
     5
170
     0
171
     0
290
     0
174
     0
 93
        1
 44
-50.0
173
     0
291
     1
 45
0.0
1001
ACAD
1000
AcDbSavedByObjectVersion
1070
     0
  0
VISUALSTYLE
  5
3D5
102
{ACAD_REACTORS
330
3C2
102
}
102
{ACAD_XDICTIONARY
360
68B
102
}
330
3C2
100
AcDbVisualStyle
  2
EdgeColorOff
 70
    22
 71
     2
 72
     2
 73
     0
 90
        0
 40
0.6
 41
30.0
 62
     5
 63
     7
 74
     1
 91
        4
 64
     7
 65
   257
 75
     1
175
     1
 42
1.0
 92
        8
 66
     7
 43
1.0
 76
     1
 77
     6
 78
     2
 67
     7
 79
     5
170
     0
171
     0
290
     0
174
     0
 93
        1
 44
0.0
173
     0
291
     1
 45
0.0
1001
ACAD
1000
AcDbSavedByObjectVersion
1070
     0
  0
VISUALSTYLE
  5
3D1
102
{ACAD_REACTORS
330
3C2
102
}
102
{ACAD_XDICTIONARY
360
683
102
}
330
3C2
100
AcDbVisualStyle
  2
Facepattern
 70
    15
 71
     2
 72
     2
 73
     0
 90
        0
 40
0.6
 41
30.0
 62
     5
 63
     7
 74
     1
 91
        4
 64
     7
 65
   257
 75
     1
175
     1
 42
1.0
 92
        8
 66
     7
 43
1.0
 76
     1
 77
     6
 78
     2
 67
     7
 79
     5
170
     0
171
     0
290
     0
174
     0
 93
        1
 44
0.0
173
     0
291
     1
 45
0.0
1001
ACAD
1000
AcDbSavedByObjectVersion
1070
     0
  0
VISUALSTYLE
  5
3C3
102
{ACAD_REACTORS
330
3C2
102
}
102
{ACAD_XDICTIONARY
360
667
102
}
330
3C2
100
AcDbVisualStyle
  2
Flat
 70
     0
 71
     2
 72
     1
 73
     1
 90
        2
 40
0.6
 41
30.0
 62
     5
 63
     7
 74
     0
 91
        0
 64
     7
 65
   257
 75
     1
175
     1
 42
1.0
 92
        8
 66
     7
 43
1.0
 76
     1
 77
     6
 78
     2
 67
     7
 79
     5
170
     0
171
     0
290
     0
174
     0
 93
       13
 44
0.0
173
     0
291
     1
 45
0.0
1001
ACAD
1000
AcDbSavedByObjectVersion
1070
     0
  0
VISUALSTYLE
  5
3C4
102
{ACAD_REACTORS
330
3C2
102
}
102
{ACAD_XDICTIONARY
360
669
102
}
330
3C2
100
AcDbVisualStyle
  2
FlatWithEdges
 70
     1
 71
     2
 72
     1
 73
     1
 90
        2
 40
0.6
 41
30.0
 62
     5
 63
     7
 74
     1
 91
        0
 64
     7
 65
   257
 75
     1
175
     1
 42
1.0
 92
        0
 66
   257
 43
1.0
 76
     1
 77
     6
 78
     2
 67
     7
 79
     5
170
     0
171
     0
290
     0
174
     0
 93
       13
 44
0.0
173
     0
291
     1
 45
0.0
1001
ACAD
1000
AcDbSavedByObjectVersion
1070
     0
  0
VISUALSTYLE
  5
3C5
102
{ACAD_REACTORS
330
3C2
102
}
102
{ACAD_XDICTIONARY
360
66B
102
}
330
3C2
100
AcDbVisualStyle
  2
Gouraud
 70
     2
 71
     2
 72
     2
 73
     1
 90
        2
 40
0.6
 41
30.0
 62
     5
 63
     7
 74
     0
 91
        0
 64
     7
 65
   257
 75
     1
175
     1
 42
1.0
 92
        0
 66
     7
 43
1.0
 76
     1
 77
     6
 78
     2
 67
     7
 79
     5
170
     0
171
     0
290
     0
174
     0
 93
       13
 44
0.0
173
     0
291
     1
 45
0.0
1001
ACAD
1000
AcDbSavedByObjectVersion
1070
     0
  0
VISUALSTYLE
  5
3C6
102
{ACAD_REACTORS
330
3C2
102
}
102
{ACAD_XDICTIONARY
360
66D
102
}
330
3C2
100
AcDbVisualStyle
  2
GouraudWithEdges
 70
     3
 71
     2
 72
     2
 73
     1
 90
        2
 40
0.6
 41
30.0
 62
     5
 63
     7
 74
     1
 91
        0
 64
     7
 65
   257
 75
     1
175
     1
 42
1.0
 92
        0
 66
   257
 43
1.0
 76
     1
 77
     6
 78
     2
 67
     7
 79
     5
170
     0
171
     0
290
     0
174
     0
 93
       13
 44
0.0
173
     0
291
     1
 45
0.0
1001
ACAD
1000
AcDbSavedByObjectVersion
1070
     0
  0
VISUALSTYLE
  5
3C9
102
{ACAD_REACTORS
330
3C2
102
}
102
{ACAD_XDICTIONARY
360
673
102
}
330
3C2
100
AcDbVisualStyle
  2
Hidden
 70
     6
 71
     1
 72
     2
 73
     2
 90
        0
 40
0.6
 41
30.0
 62
     5
 63
     7
 74
     2
 91
        2
 64
     7
 65
   257
 75
     2
175
     1
 42
40.0
 92
        0
 66
   257
 43
1.0
 76
     1
 77
     6
 78
     2
 67
     7
 79
     3
170
     0
171
     0
290
     0
174
     0
 93
        1
 44
0.0
173
     0
291
     0
 45
0.0
1001
ACAD
1000
AcDbSavedByObjectVersion
1070
     0
  0
VISUALSTYLE
  5
3D3
102
{ACAD_REACTORS
330
3C2
102
}
102
{ACAD_XDICTIONARY
360
687
102
}
330
3C2
100
AcDbVisualStyle
  2
JitterOff
 70
    20
 71
     2
 72
     2
 73
     0
 90
        0
 40
0.6
 41
30.0
 62
     5
 63
     7
 74
     1
 91
        4
 64
     7
 65
   257
 75
     1
175
     1
 42
1.0
 92
       10
 66
     7
 43
1.0
 76
     1
 77
     6
 78
     2
 67
     7
 79
     5
170
     0
171
     0
290
     0
174
     0
 93
        1
 44
0.0
173
     0
291
     1
 45
0.0
1001
ACAD
1000
AcDbSavedByObjectVersion
1070
     0
  0
VISUALSTYLE
  5
3D0
102
{ACAD_REACTORS
330
3C2
102
}
102
{ACAD_XDICTIONARY
360
681
102
}
330
3C2
100
AcDbVisualStyle
  2
Linepattern
 70
    14
 71
     2
 72
     2
 73
     0
 90
        0
 40
0.6
 41
30.0
 62
     5
 63
     7
 74
     1
 91
        4
 64
     7
 65
   257
 75
     7
175
     7
 42
1.0
 92
        8
 66
     7
 43
1.0
 76
     1
 77
     6
 78
     2
 67
     7
 79
     5
170
     0
171
     0
290
     0
174
     0
 93
        1
 44
0.0
173
     0
291
     1
 45
0.0
1001
ACAD
1000
AcDbSavedByObjectVersion
1070
     0
  0
VISUALSTYLE
  5
3D4
102
{ACAD_REACTORS
330
3C2
102
}
102
{ACAD_XDICTIONARY
360
689
102
}
330
3C2
100
AcDbVisualStyle
  2
OverhangOff
 70
    21
 71
     2
 72
     2
 73
     0
 90
        0
 40
0.6
 41
30.0
 62
     5
 63
     7
 74
     1
 91
        4
 64
     7
 65
   257
 75
     1
175
     1
 42
1.0
 92
        9
 66
     7
 43
1.0
 76
     1
 77
     6
 78
     2
 67
     7
 79
     5
170
     0
171
     0
290
     0
174
     0
 93
        1
 44
0.0
173
     0
291
     1
 45
0.0
1001
ACAD
1000
AcDbSavedByObjectVersion
1070
     0
  0
VISUALSTYLE
  5
3CB
102
{ACAD_REACTORS
330
3C2
102
}
102
{ACAD_XDICTIONARY
360
677
102
}
330
3C2
100
AcDbVisualStyle
  2
Realistic
 70
     8
 71
     2
 72
     3
 73
     0
 90
        2
 40
0.6
 41
30.0
 62
     5
 63
     7
 74
     0
 91
        0
 64
     7
 65
   257
 75
     1
175
     1
 42
1.0
 92
        8
 66
   257
 43
1.0
 76
     1
 77
     6
 78
     2
 67
     7
 79
     3
170
     0
171
     0
290
     0
174
     0
 93
       13
 44
0.0
173
     0
291
     0
 45
0.0
1001
ACAD
1000
AcDbSavedByObjectVersion
1070
     0
  0
VISUALSTYLE
  5
3DA
102
{ACAD_REACTORS
330
3C2
102
}
102
{ACAD_XDICTIONARY
360
695
102
}
330
3C2
100
AcDbVisualStyle
  2
Shaded
 70
    27
 71
     2
 72
     2
 73
     1
 90
        2
 40
0.6
 41
30.0
 62
     5
 63
     7
 74
     0
 91
        4
 64
     7
 65
   257
 75
     1
175
     1
 42
1.0
 92
        8
 66
   257
 43
1.0
 76
     1
 77
     6
 78
     2
 67
     8
 79
     3
170
     0
171
     0
290
     0
174
     0
 93
        5
 44
0.0
173
     0
291
     0
 45
0.0
1001
ACAD
1000
AcDbSavedByObjectVersion
1070
     0
  0
VISUALSTYLE
  5
3D9
102
{ACAD_REACTORS
330
3C2
102
}
102
{ACAD_XDICTIONARY
360
693
102
}
330
3C2
100
AcDbVisualStyle
  2
Shaded with edges
 70
    26
 71
     2
 72
     2
 73
     1
 90
        2
 40
0.6
 41
30.0
 62
     5
 63
     7
 74
     1
 91
       10
 64
     7
 65
   257
 75
     2
175
     1
 42
1.0
 92
        8
 66
   257
 43
1.0
 76
     1
 77
     6
 78
     2
 67
     7
 79
     3
170
     0
171
     0
290
     0
174
     0
 93
        5
 44
0.0
173
     0
291
     0
 45
0.0
1001
ACAD
1000
AcDbSavedByObjectVersion
1070
     0
  0
VISUALSTYLE
  5
3D6
102
{ACAD_REACTORS
330
3C2
102
}
102
{ACAD_XDICTIONARY
360
68D
102
}
330
3C2
100
AcDbVisualStyle
  2
Shades of Gray
 70
    23
 71
     2
 72
     2
 73
     3
 90
        0
 40
0.6
 41
30.0
 62
     5
 63
     7
 74
     2
 91
        2
 64
     7
 65
     7
 75
     1
175
     1
 42
40.0
 92
        8
 66
     7
 43
1.0
 76
     1
 77
     6
 78
     2
 67
     7
 79
     3
170
     0
171
     0
290
     0
174
     0
 93
        1
 44
0.0
173
     0
291
     0
 45
0.0
1001
ACAD
1000
AcDbSavedByObjectVersion
1070
     0
  0
VISUALSTYLE
  5
3D7
102
{ACAD_REACTORS
330
3C2
102
}
102
{ACAD_XDICTIONARY
360
68F
102
}
330
3C2
100
AcDbVisualStyle
  2
Sketchy
 70
    24
 71
     1
 72
     2
 73
     2
 90
        0
 40
0.6
 41
30.0
 62
     5
 63
     7
 74
     2
 91
        2
 64
     7
 65
     7
 75
     1
175
     1
 42
40.0
 92
       11
 66
     7
 43
1.0
 76
     1
 77
     6
 78
     2
 67
     7
 79
     6
170
     0
171
     0
290
     0
174
     0
 93
        1
 44
0.0
173
     0
291
     0
 45
0.0
1001
ACAD
1000
AcDbSavedByObjectVersion
1070
     0
  0
VISUALSTYLE
  5
3CF
102
{ACAD_REACTORS
330
3C2
102
}
102
{ACAD_XDICTIONARY
360
67F
102
}
330
3C2
100
AcDbVisualStyle
  2
Thicken
 70
    13
 71
     2
 72
     2
 73
     0
 90
        0
 40
0.6
 41
30.0
 62
     5
 63
     7
 74
     1
 91
        4
 64
     7
 65
   257
 75
     1
175
     1
 42
1.0
 92
       12
 66
     7
 43
1.0
 76
     1
 77
     6
 78
     2
 67
     7
 79
     5
170
     0
171
     0
290
     0
174
     0
 93
        1
 44
0.0
173
     0
291
     1
 45
0.0
1001
ACAD
1000
AcDbSavedByObjectVersion
1070
     0
  0
VISUALSTYLE
  5
3C8
102
{ACAD_REACTORS
330
3C2
102
}
102
{ACAD_XDICTIONARY
360
671
102
}
330
3C2
100
AcDbVisualStyle
  2
Wireframe
 70
     5
 71
     0
 72
     2
 73
     0
 90
        0
 40
0.6
 41
30.0
 62
     5
 63
     7
 74
     1
 91
        4
 64
     7
 65
   257
 75
     1
175
     1
 42
1.0
 92
        0
 66
   257
 43
1.0
 76
     1
 77
     6
 78
     2
 67
     7
 79
     3
170
     0
171
     0
290
     0
174
     0
 93
        1
 44
0.0
173
     0
291
     0
 45
0.0
1001
ACAD
1000
AcDbSavedByObjectVersion
1070
     0
  0
VISUALSTYLE
  5
3D8
102
{ACAD_REACTORS
330
3C2
102
}
102
{ACAD_XDICTIONARY
360
691
102
}
330
3C2
100
AcDbVisualStyle
  2
X-Ray
 70
    25
 71
     2
 72
     2
 73
     1
 90
        1
 40
0.5
 41
30.0
 62
     5
 63
     7
 74
     1
 91
        0
 64
     7
 65
   257
 75
     1
175
     1
 42
1.0
 92
        8
 66
     7
 43
1.0
 76
     1
 77
     6
 78
     2
 67
     7
 79
     3
170
     0
171
     0
290
     0
174
     0
 93
       13
 44
0.0
173
     0
291
     0
 45
0.0
1001
ACAD
1000
AcDbSavedByObjectVersion
1070
     0
  0
XRECORD
  5
65C
102
{ACAD_REACTORS
330
65B
102
}
330
65B
100
AcDbXrecord
280
     1
340
387
  0
XRECORD
  5
65D
102
{ACAD_REACTORS
330
65B
102
}
330
65B
100
AcDbXrecord
280
     1
340
386
  0
DICTIONARYVAR
  5
660
102
{ACAD_REACTORS
330
357
102
}
330
357
100
DictionaryVariables
280
     0
  1
1:1
  0
DICTIONARYVAR
  5
657
102
{ACAD_REACTORS
330
357
102
}
330
357
100
DictionaryVariables
280
     0
  1
Standard
  0
DICTIONARYVAR
  5
38D
102
{ACAD_REACTORS
330
357
102
}
330
357
100
DictionaryVariables
280
     0
  1
Standard
  0
DICTIONARYVAR
  5
359
102
{ACAD_REACTORS
330
357
102
}
330
357
100
DictionaryVariables
280
     0
  1
2
  0
DICTIONARYVAR
  5
358
102
{ACAD_REACTORS
330
357
102
}
330
357
100
DictionaryVariables
280
     0
  1
1
  0
DICTIONARYVAR
  5
658
102
{ACAD_REACTORS
330
357
102
}
330
357
100
DictionaryVariables
280
     0
  1
0
  0
DICTIONARYVAR
  5
38E
102
{ACAD_REACTORS
330
357
102
}
330
357
100
DictionaryVariables
280
     0
  1

  0
DICTIONARY
  5
663
330
3DC
100
AcDbDictionary
280
     1
281
     1
  3
ACAD_XREC_ROUNDTRIP
360
664
  0
DICTIONARY
  5
661
330
3DB
100
AcDbDictionary
280
     1
281
     1
  3
ACAD_XREC_ROUNDTRIP
360
662
  0
DICTIONARY
  5
665
330
3DD
100
AcDbDictionary
280
     1
281
     1
  3
ACAD_XREC_ROUNDTRIP
360
666
  0
DICTIONARY
  5
698
330
3DF
100
AcDbDictionary
280
     1
281
     1
  3
ACAD_XREC_ROUNDTRIP
360
699
  0
DICTIONARY
  5
66F
330
3C7
100
AcDbDictionary
280
     1
281
     1
  3
ACAD_XREC_ROUNDTRIP
360
670
  0
DICTIONARY
  5
675
330
3CA
100
AcDbDictionary
280
     1
281
     1
  3
ACAD_XREC_ROUNDTRIP
360
676
  0
DICTIONARY
  5
67D
330
3CE
100
AcDbDictionary
280
     1
281
     1
  3
ACAD_XREC_ROUNDTRIP
360
67E
  0
DICTIONARY
  5
685
330
3D2
100
AcDbDictionary
280
     1
281
     1
  3
ACAD_XREC_ROUNDTRIP
360
686
  0
DICTIONARY
  5
679
330
3CC
100
AcDbDictionary
280
     1
281
     1
  3
ACAD_XREC_ROUNDTRIP
360
67A
  0
DICTIONARY
  5
67B
330
3CD
100
AcDbDictionary
280
     1
281
     1
  3
ACAD_XREC_ROUNDTRIP
360
67C
  0
DICTIONARY
  5
68B
330
3D5
100
AcDbDictionary
280
     1
281
     1
  3
ACAD_XREC_ROUNDTRIP
360
68C
  0
DICTIONARY
  5
683
330
3D1
100
AcDbDictionary
280
     1
281
     1
  3
ACAD_XREC_ROUNDTRIP
360
684
  0
DICTIONARY
  5
667
330
3C3
100
AcDbDictionary
280
     1
281
     1
  3
ACAD_XREC_ROUNDTRIP
360
668
  0
DICTIONARY
  5
669
330
3C4
100
AcDbDictionary
280
     1
281
     1
  3
ACAD_XREC_ROUNDTRIP
360
66A
  0
DICTIONARY
  5
66B
330
3C5
100
AcDbDictionary
280
     1
281
     1
  3
ACAD_XREC_ROUNDTRIP
360
66C
  0
DICTIONARY
  5
66D
330
3C6
100
AcDbDictionary
280
     1
281
     1
  3
ACAD_XREC_ROUNDTRIP
360
66E
  0
DICTIONARY
  5
673
330
3C9
100
AcDbDictionary
280
     1
281
     1
  3
ACAD_XREC_ROUNDTRIP
360
674
  0
DICTIONARY
  5
687
330
3D3
100
AcDbDictionary
280
     1
281
     1
  3
ACAD_XREC_ROUNDTRIP
360
688
  0
DICTIONARY
  5
681
330
3D0
100
AcDbDictionary
280
     1
281
     1
  3
ACAD_XREC_ROUNDTRIP
360
682
  0
DICTIONARY
  5
689
330
3D4
100
AcDbDictionary
280
     1
281
     1
  3
ACAD_XREC_ROUNDTRIP
360
68A
  0
DICTIONARY
  5
677
330
3CB
100
AcDbDictionary
280
     1
281
     1
  3
ACAD_XREC_ROUNDTRIP
360
678
  0
DICTIONARY
  5
695
330
3DA
100
AcDbDictionary
280
     1
281
     1
  3
ACAD_XREC_ROUNDTRIP
360
696
  0
DICTIONARY
  5
693
330
3D9
100
AcDbDictionary
280
     1
281
     1
  3
ACAD_XREC_ROUNDTRIP
360
694
  0
DICTIONARY
  5
68D
330
3D6
100
AcDbDictionary
280
     1
281
     1
  3
ACAD_XREC_ROUNDTRIP
360
68E
  0
DICTIONARY
  5
68F
330
3D7
100
AcDbDictionary
280
     1
281
     1
  3
ACAD_XREC_ROUNDTRIP
360
690
  0
DICTIONARY
  5
67F
330
3CF
100
AcDbDictionary
280
     1
281
     1
  3
ACAD_XREC_ROUNDTRIP
360
680
  0
DICTIONARY
  5
671
330
3C8
100
AcDbDictionary
280
     1
281
     1
  3
ACAD_XREC_ROUNDTRIP
360
672
  0
DICTIONARY
  5
691
330
3D8
100
AcDbDictionary
280
     1
281
     1
  3
ACAD_XREC_ROUNDTRIP
360
692
  0
XRECORD
  5
664
102
{ACAD_REACTORS
330
663
102
}
330
663
100
AcDbXrecord
280
     1
102
MATERIAL
148
0.0
149
0.0
149
0.0
 93
        0
 94
      127
282
     0
 72
     1
 77
     1
171
     1
175
     1
179
     1
273
     0
  0
XRECORD
  5
662
102
{ACAD_REACTORS
330
661
102
}
330
661
100
AcDbXrecord
280
     1
102
MATERIAL
148
0.0
149
0.0
149
0.0
 93
        0
 94
      127
282
     0
 72
     1
 77
     1
171
     1
175
     1
179
     1
273
     0
  0
XRECORD
  5
666
102
{ACAD_REACTORS
330
665
102
}
330
665
100
AcDbXrecord
280
     1
102
MATERIAL
148
0.0
149
0.0
149
0.0
 93
        0
 94
      127
282
     0
 72
     1
 77
     1
171
     1
175
     1
179
     1
273
     0
  0
XRECORD
  5
699
102
{ACAD_REACTORS
330
698
102
}
330
698
100
AcDbXrecord
280
     1
102
ACAD_ROUNDTRIP_2010_MLEADER_STYLE
  0
XRECORD
  5
670
102
{ACAD_REACTORS
330
66F
102
}
330
66F
100
AcDbXrecord
280
     1
102
RTVSPropertyOp0
 70
     1
102
RTVSPropertyOp1
 70
     1
102
RTVSPropertyOp2
 70
     1
102
RTVSPropertyOp3
 70
     1
102
RTVSPropertyOp4
 70
     1
102
RTVSPropertyOp5
 70
     1
102
RTVSPropertyOp6
 70
     1
102
RTVSPropertyOp7
 70
     1
102
RTVSPropertyOp8
 70
     1
102
RTVSPropertyOp9
 70
     1
102
RTVSPropertyOp10
 70
     1
102
RTVSPropertyOp11
 70
     1
102
RTVSPropertyOp12
 70
     1
102
RTVSPropertyOp13
 70
     1
102
RTVSPropertyOp14
 70
     1
102
RTVSPropertyOp15
 70
     1
102
RTVSPropertyOp16
 70
     1
102
RTVSPropertyOp17
 70
     1
102
RTVSPropertyOp18
 70
     1
102
RTVSPropertyOp19
 70
     1
102
RTVSPropertyOp20
 70
     1
102
RTVSPropertyOp21
 70
     1
102
RTVSPropertyOp22
 70
     1
102
RTVSPropertyOp23
 70
     1
102
RTVSPropertyOp24
 70
     1
102
RTVSPropertyOp25
 70
     1
102
RTVSPropertyOp26
 70
     1
102
RTVSPropertyOp27
 70
     1
102
RTVSPropertyOp28
 70
     1
102
RTVSPropertyOp29
 70
     1
102
RTVSPropertyOp30
 70
     1
102
RTVSPropertyOp31
 70
     1
102
RTVSPropertyOp32
 70
     1
102
RTVSPropertyOp33
 70
     1
102
RTVSPropertyOp34
 70
     1
102
RTVSPropertyOp35
 70
     1
102
RTVSPropertyOp36
 70
     1
102
RTVSPropertyOp37
 70
     1
102
RTVSPropertyOp38
 70
     1
102
RTVSPropertyOp39
 70
     1
102
RTVSPropertyOp40
 70
     1
102
RTVSPropertyOp41
 70
     1
102
RTVSPropertyOp42
 70
     1
102
RTVSPropertyOp43
 70
     1
102
RTVSPropertyOp44
 70
     1
102
RTVSPropertyOp45
 70
     1
102
RTVSPropertyOp46
 70
     1
102
RTVSPropertyOp47
 70
     1
102
RTVSPropertyOp48
 70
     1
102
RTVSPropertyOp49
 70
     1
102
RTVSPropertyOp50
 70
     1
102
RTVSPropertyOp51
 70
     0
102
RTVSPropertyOp52
 70
     0
102
RTVSPropertyOp53
 70
     1
102
RTVSPropertyOp54
 70
     1
102
RTVSPropertyOp55
 70
     1
102
RTVSPropertyOp56
 70
     1
102
RTVSPropertyOp57
 70
     1
102
RTVSPost2010Prop28
280
     1
102
RTVSPost2010PropOp28
 70
     1
102
RTVSPost2010Prop29
280
     1
102
RTVSPost2010PropOp29
 70
     1
102
RTVSPost2010Prop30
280
     0
102
RTVSPost2010PropOp30
 70
     1
102
RTVSPost2010Prop31
280
     0
102
RTVSPost2010PropOp31
 70
     1
102
RTVSPost2010Prop32
280
     0
102
RTVSPost2010PropOp32
 70
     1
102
RTVSPost2010Prop33
280
     0
102
RTVSPost2010PropOp33
 70
     1
102
RTVSPost2010Prop34
280
     0
102
RTVSPost2010PropOp34
 70
     1
102
RTVSPost2010Prop35
280
     0
102
RTVSPost2010PropOp35
 70
     1
102
RTVSPost2010Prop36
280
     0
102
RTVSPost2010PropOp36
 70
     1
102
RTVSPost2010Prop37
 90
       50
102
RTVSPost2010PropOp37
 70
     1
102
RTVSPost2010Prop38
140
0.0
102
RTVSPost2010PropOp38
 70
     1
102
RTVSPost2010Prop39
140
1.0
102
RTVSPost2010PropOp39
 70
     1
102
RTVSPost2010Prop40
 90
        0
102
RTVSPost2010PropOp40
 70
     1
102
RTVSPost2010Prop41ColorIndex
 90
       18
102
RTVSPost2010Prop41ColorRGB
 90
        0
102
RTVSPost2010PropOp41
 70
     1
102
RTVSPost2010Prop42
 90
       50
102
RTVSPost2010PropOp42
 70
     1
102
RTVSPost2010Prop43
 90
        3
102
RTVSPost2010PropOp43
 70
     1
102
RTVSPost2010Prop44ColorIndex
 90
        5
102
RTVSPost2010Prop44ColorRGB
 90
      255
102
RTVSPost2010PropOp44
 70
     1
102
RTVSPost2010Prop45
280
     0
102
RTVSPost2010PropOp45
 70
     1
102
RTVSPost2010Prop46
 90
       50
102
RTVSPost2010PropOp46
 70
     1
102
RTVSPost2010Prop47
 90
       50
102
RTVSPost2010PropOp47
 70
     1
102
RTVSPost2010Prop48
 90
       50
102
RTVSPost2010PropOp48
 70
     1
102
RTVSPost2010Prop49
280
     0
102
RTVSPost2010PropOp49
 70
     1
102
RTVSPost2010Prop50
 90
       50
102
RTVSPost2010PropOp50
 70
     1
102
RTVSPost2010Prop51ColorIndex
 90
      256
102
RTVSPost2010Prop51ColorRGB
 90
-16777216
102
RTVSPost2010PropOp51
 70
     0
102
RTVSPost2010Prop52
140
1.0
102
RTVSPost2010PropOp52
 70
     0
102
RTVSPost2010Prop53
 90
        2
102
RTVSPost2010PropOp53
 70
     1
102
RTVSPost2010Prop54
  1
strokes_ogs.tif
102
RTVSPost2010PropOp54
 70
     1
102
RTVSPost2010Prop55
280
     0
102
RTVSPost2010PropOp55
 70
     1
102
RTVSPost2010Prop56
140
1.0
102
RTVSPost2010PropOp56
 70
     1
102
RTVSPost2010Prop57
140
1.0
102
RTVSPost2010PropOp57
 70
     1
  0
XRECORD
  5
676
102
{ACAD_REACTORS
330
675
102
}
330
675
100
AcDbXrecord
280
     1
102
RTVSPropertyOp0
 70
     1
102
RTVSPropertyOp1
 70
     1
102
RTVSPropertyOp2
 70
     1
102
RTVSPropertyOp3
 70
     1
102
RTVSPropertyOp4
 70
     1
102
RTVSPropertyOp5
 70
     1
102
RTVSPropertyOp6
 70
     1
102
RTVSPropertyOp7
 70
     1
102
RTVSPropertyOp8
 70
     1
102
RTVSPropertyOp9
 70
     1
102
RTVSPropertyOp10
 70
     1
102
RTVSPropertyOp11
 70
     1
102
RTVSPropertyOp12
 70
     1
102
RTVSPropertyOp13
 70
     1
102
RTVSPropertyOp14
 70
     1
102
RTVSPropertyOp15
 70
     1
102
RTVSPropertyOp16
 70
     1
102
RTVSPropertyOp17
 70
     1
102
RTVSPropertyOp18
 70
     1
102
RTVSPropertyOp19
 70
     1
102
RTVSPropertyOp20
 70
     1
102
RTVSPropertyOp21
 70
     1
102
RTVSPropertyOp22
 70
     1
102
RTVSPropertyOp23
 70
     1
102
RTVSPropertyOp24
 70
     1
102
RTVSPropertyOp25
 70
     1
102
RTVSPropertyOp26
 70
     1
102
RTVSPropertyOp27
 70
     1
102
RTVSPropertyOp28
 70
     1
102
RTVSPropertyOp29
 70
     1
102
RTVSPropertyOp30
 70
     1
102
RTVSPropertyOp31
 70
     1
102
RTVSPropertyOp32
 70
     1
102
RTVSPropertyOp33
 70
     1
102
RTVSPropertyOp34
 70
     1
102
RTVSPropertyOp35
 70
     1
102
RTVSPropertyOp36
 70
     1
102
RTVSPropertyOp37
 70
     1
102
RTVSPropertyOp38
 70
     1
102
RTVSPropertyOp39
 70
     1
102
RTVSPropertyOp40
 70
     1
102
RTVSPropertyOp41
 70
     1
102
RTVSPropertyOp42
 70
     1
102
RTVSPropertyOp43
 70
     1
102
RTVSPropertyOp44
 70
     1
102
RTVSPropertyOp45
 70
     1
102
RTVSPropertyOp46
 70
     1
102
RTVSPropertyOp47
 70
     1
102
RTVSPropertyOp48
 70
     1
102
RTVSPropertyOp49
 70
     1
102
RTVSPropertyOp50
 70
     1
102
RTVSPropertyOp51
 70
     0
102
RTVSPropertyOp52
 70
     0
102
RTVSPropertyOp53
 70
     1
102
RTVSPropertyOp54
 70
     1
102
RTVSPropertyOp55
 70
     1
102
RTVSPropertyOp56
 70
     1
102
RTVSPropertyOp57
 70
     1
102
RTVSPost2010Prop28
280
     0
102
RTVSPost2010PropOp28
 70
     1
102
RTVSPost2010Prop29
280
     1
102
RTVSPost2010PropOp29
 70
     1
102
RTVSPost2010Prop30
280
     1
102
RTVSPost2010PropOp30
 70
     1
102
RTVSPost2010Prop31
280
     0
102
RTVSPost2010PropOp31
 70
     1
102
RTVSPost2010Prop32
280
     0
102
RTVSPost2010PropOp32
 70
     1
102
RTVSPost2010Prop33
280
     0
102
RTVSPost2010PropOp33
 70
     1
102
RTVSPost2010Prop34
280
     0
102
RTVSPost2010PropOp34
 70
     1
102
RTVSPost2010Prop35
280
     0
102
RTVSPost2010PropOp35
 70
     1
102
RTVSPost2010Prop36
280
     0
102
RTVSPost2010PropOp36
 70
     1
102
RTVSPost2010Prop37
 90
       50
102
RTVSPost2010PropOp37
 70
     1
102
RTVSPost2010Prop38
140
0.0
102
RTVSPost2010PropOp38
 70
     1
102
RTVSPost2010Prop39
140
1.0
102
RTVSPost2010PropOp39
 70
     1
102
RTVSPost2010Prop40
 90
        0
102
RTVSPost2010PropOp40
 70
     1
102
RTVSPost2010Prop41ColorIndex
 90
       18
102
RTVSPost2010Prop41ColorRGB
 90
        0
102
RTVSPost2010PropOp41
 70
     1
102
RTVSPost2010Prop42
 90
       50
102
RTVSPost2010PropOp42
 70
     1
102
RTVSPost2010Prop43
 90
        3
102
RTVSPost2010PropOp43
 70
     1
102
RTVSPost2010Prop44ColorIndex
 90
        5
102
RTVSPost2010Prop44ColorRGB
 90
      255
102
RTVSPost2010PropOp44
 70
     1
102
RTVSPost2010Prop45
280
     0
102
RTVSPost2010PropOp45
 70
     1
102
RTVSPost2010Prop46
 90
       50
102
RTVSPost2010PropOp46
 70
     1
102
RTVSPost2010Prop47
 90
       50
102
RTVSPost2010PropOp47
 70
     1
102
RTVSPost2010Prop48
 90
       50
102
RTVSPost2010PropOp48
 70
     1
102
RTVSPost2010Prop49
280
     0
102
RTVSPost2010PropOp49
 70
     1
102
RTVSPost2010Prop50
 90
       50
102
RTVSPost2010PropOp50
 70
     1
102
RTVSPost2010Prop51ColorIndex
 90
      256
102
RTVSPost2010Prop51ColorRGB
 90
-16777216
102
RTVSPost2010PropOp51
 70
     0
102
RTVSPost2010Prop52
140
1.0
102
RTVSPost2010PropOp52
 70
     0
102
RTVSPost2010Prop53
 90
        2
102
RTVSPost2010PropOp53
 70
     1
102
RTVSPost2010Prop54
  1
strokes_ogs.tif
102
RTVSPost2010PropOp54
 70
     1
102
RTVSPost2010Prop55
280
     0
102
RTVSPost2010PropOp55
 70
     1
102
RTVSPost2010Prop56
140
1.0
102
RTVSPost2010PropOp56
 70
     1
102
RTVSPost2010Prop57
140
1.0
102
RTVSPost2010PropOp57
 70
     1
  0
XRECORD
  5
67E
102
{ACAD_REACTORS
330
67D
102
}
330
67D
100
AcDbXrecord
280
     1
102
RTVSPropertyOp0
 70
     1
102
RTVSPropertyOp1
 70
     1
102
RTVSPropertyOp2
 70
     1
102
RTVSPropertyOp3
 70
     1
102
RTVSPropertyOp4
 70
     1
102
RTVSPropertyOp5
 70
     1
102
RTVSPropertyOp6
 70
     1
102
RTVSPropertyOp7
 70
     1
102
RTVSPropertyOp8
 70
     1
102
RTVSPropertyOp9
 70
     1
102
RTVSPropertyOp10
 70
     1
102
RTVSPropertyOp11
 70
     1
102
RTVSPropertyOp12
 70
     1
102
RTVSPropertyOp13
 70
     1
102
RTVSPropertyOp14
 70
     1
102
RTVSPropertyOp15
 70
     1
102
RTVSPropertyOp16
 70
     1
102
RTVSPropertyOp17
 70
     1
102
RTVSPropertyOp18
 70
     1
102
RTVSPropertyOp19
 70
     1
102
RTVSPropertyOp20
 70
     1
102
RTVSPropertyOp21
 70
     1
102
RTVSPropertyOp22
 70
     1
102
RTVSPropertyOp23
 70
     1
102
RTVSPropertyOp24
 70
     1
102
RTVSPropertyOp25
 70
     1
102
RTVSPropertyOp26
 70
     1
102
RTVSPropertyOp27
 70
     1
102
RTVSPropertyOp28
 70
     1
102
RTVSPropertyOp29
 70
     1
102
RTVSPropertyOp30
 70
     1
102
RTVSPropertyOp31
 70
     1
102
RTVSPropertyOp32
 70
     1
102
RTVSPropertyOp33
 70
     1
102
RTVSPropertyOp34
 70
     1
102
RTVSPropertyOp35
 70
     1
102
RTVSPropertyOp36
 70
     1
102
RTVSPropertyOp37
 70
     1
102
RTVSPropertyOp38
 70
     1
102
RTVSPropertyOp39
 70
     1
102
RTVSPropertyOp40
 70
     1
102
RTVSPropertyOp41
 70
     1
102
RTVSPropertyOp42
 70
     1
102
RTVSPropertyOp43
 70
     1
102
RTVSPropertyOp44
 70
     1
102
RTVSPropertyOp45
 70
     1
102
RTVSPropertyOp46
 70
     1
102
RTVSPropertyOp47
 70
     1
102
RTVSPropertyOp48
 70
     1
102
RTVSPropertyOp49
 70
     1
102
RTVSPropertyOp50
 70
     1
102
RTVSPropertyOp51
 70
     0
102
RTVSPropertyOp52
 70
     0
102
RTVSPropertyOp53
 70
     1
102
RTVSPropertyOp54
 70
     1
102
RTVSPropertyOp55
 70
     1
102
RTVSPropertyOp56
 70
     1
102
RTVSPropertyOp57
 70
     1
102
RTVSPost2010Prop28
280
     0
102
RTVSPost2010PropOp28
 70
     1
102
RTVSPost2010Prop29
280
     1
102
RTVSPost2010PropOp29
 70
     1
102
RTVSPost2010Prop30
280
     1
102
RTVSPost2010PropOp30
 70
     1
102
RTVSPost2010Prop31
280
     0
102
RTVSPost2010PropOp31
 70
     1
102
RTVSPost2010Prop32
280
     0
102
RTVSPost2010PropOp32
 70
     1
102
RTVSPost2010Prop33
280
     0
102
RTVSPost2010PropOp33
 70
     1
102
RTVSPost2010Prop34
280
     0
102
RTVSPost2010PropOp34
 70
     1
102
RTVSPost2010Prop35
280
     0
102
RTVSPost2010PropOp35
 70
     1
102
RTVSPost2010Prop36
280
     0
102
RTVSPost2010PropOp36
 70
     1
102
RTVSPost2010Prop37
 90
       50
102
RTVSPost2010PropOp37
 70
     1
102
RTVSPost2010Prop38
140
0.0
102
RTVSPost2010PropOp38
 70
     1
102
RTVSPost2010Prop39
140
1.0
102
RTVSPost2010PropOp39
 70
     1
102
RTVSPost2010Prop40
 90
        0
102
RTVSPost2010PropOp40
 70
     1
102
RTVSPost2010Prop41ColorIndex
 90
       18
102
RTVSPost2010Prop41ColorRGB
 90
        0
102
RTVSPost2010PropOp41
 70
     1
102
RTVSPost2010Prop42
 90
       50
102
RTVSPost2010PropOp42
 70
     1
102
RTVSPost2010Prop43
 90
        3
102
RTVSPost2010PropOp43
 70
     1
102
RTVSPost2010Prop44ColorIndex
 90
        5
102
RTVSPost2010Prop44ColorRGB
 90
      255
102
RTVSPost2010PropOp44
 70
     1
102
RTVSPost2010Prop45
280
     0
102
RTVSPost2010PropOp45
 70
     1
102
RTVSPost2010Prop46
 90
       50
102
RTVSPost2010PropOp46
 70
     1
102
RTVSPost2010Prop47
 90
       50
102
RTVSPost2010PropOp47
 70
     1
102
RTVSPost2010Prop48
 90
       50
102
RTVSPost2010PropOp48
 70
     1
102
RTVSPost2010Prop49
280
     0
102
RTVSPost2010PropOp49
 70
     1
102
RTVSPost2010Prop50
 90
       50
102
RTVSPost2010PropOp50
 70
     1
102
RTVSPost2010Prop51ColorIndex
 90
      256
102
RTVSPost2010Prop51ColorRGB
 90
-16777216
102
RTVSPost2010PropOp51
 70
     0
102
RTVSPost2010Prop52
140
1.0
102
RTVSPost2010PropOp52
 70
     0
102
RTVSPost2010Prop53
 90
        2
102
RTVSPost2010PropOp53
 70
     1
102
RTVSPost2010Prop54
  1
strokes_ogs.tif
102
RTVSPost2010PropOp54
 70
     1
102
RTVSPost2010Prop55
280
     0
102
RTVSPost2010PropOp55
 70
     1
102
RTVSPost2010Prop56
140
1.0
102
RTVSPost2010PropOp56
 70
     1
102
RTVSPost2010Prop57
140
1.0
102
RTVSPost2010PropOp57
 70
     1
  0
XRECORD
  5
686
102
{ACAD_REACTORS
330
685
102
}
330
685
100
AcDbXrecord
280
     1
102
RTVSPropertyOp0
 70
     1
102
RTVSPropertyOp1
 70
     1
102
RTVSPropertyOp2
 70
     1
102
RTVSPropertyOp3
 70
     1
102
RTVSPropertyOp4
 70
     1
102
RTVSPropertyOp5
 70
     1
102
RTVSPropertyOp6
 70
     1
102
RTVSPropertyOp7
 70
     1
102
RTVSPropertyOp8
 70
     1
102
RTVSPropertyOp9
 70
     1
102
RTVSPropertyOp10
 70
     1
102
RTVSPropertyOp11
 70
     1
102
RTVSPropertyOp12
 70
     1
102
RTVSPropertyOp13
 70
     1
102
RTVSPropertyOp14
 70
     1
102
RTVSPropertyOp15
 70
     1
102
RTVSPropertyOp16
 70
     1
102
RTVSPropertyOp17
 70
     1
102
RTVSPropertyOp18
 70
     1
102
RTVSPropertyOp19
 70
     1
102
RTVSPropertyOp20
 70
     1
102
RTVSPropertyOp21
 70
     1
102
RTVSPropertyOp22
 70
     1
102
RTVSPropertyOp23
 70
     1
102
RTVSPropertyOp24
 70
     1
102
RTVSPropertyOp25
 70
     1
102
RTVSPropertyOp26
 70
     1
102
RTVSPropertyOp27
 70
     1
102
RTVSPropertyOp28
 70
     1
102
RTVSPropertyOp29
 70
     1
102
RTVSPropertyOp30
 70
     1
102
RTVSPropertyOp31
 70
     1
102
RTVSPropertyOp32
 70
     1
102
RTVSPropertyOp33
 70
     1
102
RTVSPropertyOp34
 70
     1
102
RTVSPropertyOp35
 70
     1
102
RTVSPropertyOp36
 70
     1
102
RTVSPropertyOp37
 70
     1
102
RTVSPropertyOp38
 70
     1
102
RTVSPropertyOp39
 70
     1
102
RTVSPropertyOp40
 70
     1
102
RTVSPropertyOp41
 70
     1
102
RTVSPropertyOp42
 70
     1
102
RTVSPropertyOp43
 70
     1
102
RTVSPropertyOp44
 70
     1
102
RTVSPropertyOp45
 70
     1
102
RTVSPropertyOp46
 70
     1
102
RTVSPropertyOp47
 70
     1
102
RTVSPropertyOp48
 70
     1
102
RTVSPropertyOp49
 70
     1
102
RTVSPropertyOp50
 70
     1
102
RTVSPropertyOp51
 70
     0
102
RTVSPropertyOp52
 70
     0
102
RTVSPropertyOp53
 70
     1
102
RTVSPropertyOp54
 70
     1
102
RTVSPropertyOp55
 70
     1
102
RTVSPropertyOp56
 70
     1
102
RTVSPropertyOp57
 70
     1
102
RTVSPost2010Prop28
280
     0
102
RTVSPost2010PropOp28
 70
     1
102
RTVSPost2010Prop29
280
     1
102
RTVSPost2010PropOp29
 70
     1
102
RTVSPost2010Prop30
280
     1
102
RTVSPost2010PropOp30
 70
     1
102
RTVSPost2010Prop31
280
     0
102
RTVSPost2010PropOp31
 70
     1
102
RTVSPost2010Prop32
280
     0
102
RTVSPost2010PropOp32
 70
     1
102
RTVSPost2010Prop33
280
     0
102
RTVSPost2010PropOp33
 70
     1
102
RTVSPost2010Prop34
280
     0
102
RTVSPost2010PropOp34
 70
     1
102
RTVSPost2010Prop35
280
     0
102
RTVSPost2010PropOp35
 70
     1
102
RTVSPost2010Prop36
280
     0
102
RTVSPost2010PropOp36
 70
     1
102
RTVSPost2010Prop37
 90
       50
102
RTVSPost2010PropOp37
 70
     1
102
RTVSPost2010Prop38
140
0.0
102
RTVSPost2010PropOp38
 70
     1
102
RTVSPost2010Prop39
140
1.0
102
RTVSPost2010PropOp39
 70
     1
102
RTVSPost2010Prop40
 90
        0
102
RTVSPost2010PropOp40
 70
     1
102
RTVSPost2010Prop41ColorIndex
 90
       18
102
RTVSPost2010Prop41ColorRGB
 90
        0
102
RTVSPost2010PropOp41
 70
     1
102
RTVSPost2010Prop42
 90
       50
102
RTVSPost2010PropOp42
 70
     1
102
RTVSPost2010Prop43
 90
        3
102
RTVSPost2010PropOp43
 70
     1
102
RTVSPost2010Prop44ColorIndex
 90
        5
102
RTVSPost2010Prop44ColorRGB
 90
      255
102
RTVSPost2010PropOp44
 70
     1
102
RTVSPost2010Prop45
280
     0
102
RTVSPost2010PropOp45
 70
     1
102
RTVSPost2010Prop46
 90
       50
102
RTVSPost2010PropOp46
 70
     1
102
RTVSPost2010Prop47
 90
       50
102
RTVSPost2010PropOp47
 70
     1
102
RTVSPost2010Prop48
 90
       50
102
RTVSPost2010PropOp48
 70
     1
102
RTVSPost2010Prop49
280
     0
102
RTVSPost2010PropOp49
 70
     1
102
RTVSPost2010Prop50
 90
       50
102
RTVSPost2010PropOp50
 70
     1
102
RTVSPost2010Prop51ColorIndex
 90
      256
102
RTVSPost2010Prop51ColorRGB
 90
-16777216
102
RTVSPost2010PropOp51
 70
     0
102
RTVSPost2010Prop52
140
1.0
102
RTVSPost2010PropOp52
 70
     0
102
RTVSPost2010Prop53
 90
        2
102
RTVSPost2010PropOp53
 70
     1
102
RTVSPost2010Prop54
  1
strokes_ogs.tif
102
RTVSPost2010PropOp54
 70
     1
102
RTVSPost2010Prop55
280
     0
102
RTVSPost2010PropOp55
 70
     1
102
RTVSPost2010Prop56
140
1.0
102
RTVSPost2010PropOp56
 70
     1
102
RTVSPost2010Prop57
140
1.0
102
RTVSPost2010PropOp57
 70
     1
  0
XRECORD
  5
67A
102
{ACAD_REACTORS
330
679
102
}
330
679
100
AcDbXrecord
280
     1
102
RTVSPropertyOp0
 70
     1
102
RTVSPropertyOp1
 70
     1
102
RTVSPropertyOp2
 70
     1
102
RTVSPropertyOp3
 70
     1
102
RTVSPropertyOp4
 70
     1
102
RTVSPropertyOp5
 70
     1
102
RTVSPropertyOp6
 70
     1
102
RTVSPropertyOp7
 70
     1
102
RTVSPropertyOp8
 70
     1
102
RTVSPropertyOp9
 70
     1
102
RTVSPropertyOp10
 70
     1
102
RTVSPropertyOp11
 70
     1
102
RTVSPropertyOp12
 70
     1
102
RTVSPropertyOp13
 70
     1
102
RTVSPropertyOp14
 70
     1
102
RTVSPropertyOp15
 70
     1
102
RTVSPropertyOp16
 70
     1
102
RTVSPropertyOp17
 70
     1
102
RTVSPropertyOp18
 70
     1
102
RTVSPropertyOp19
 70
     1
102
RTVSPropertyOp20
 70
     1
102
RTVSPropertyOp21
 70
     1
102
RTVSPropertyOp22
 70
     1
102
RTVSPropertyOp23
 70
     1
102
RTVSPropertyOp24
 70
     1
102
RTVSPropertyOp25
 70
     1
102
RTVSPropertyOp26
 70
     1
102
RTVSPropertyOp27
 70
     1
102
RTVSPropertyOp28
 70
     1
102
RTVSPropertyOp29
 70
     1
102
RTVSPropertyOp30
 70
     1
102
RTVSPropertyOp31
 70
     1
102
RTVSPropertyOp32
 70
     1
102
RTVSPropertyOp33
 70
     1
102
RTVSPropertyOp34
 70
     1
102
RTVSPropertyOp35
 70
     1
102
RTVSPropertyOp36
 70
     1
102
RTVSPropertyOp37
 70
     1
102
RTVSPropertyOp38
 70
     1
102
RTVSPropertyOp39
 70
     1
102
RTVSPropertyOp40
 70
     1
102
RTVSPropertyOp41
 70
     1
102
RTVSPropertyOp42
 70
     1
102
RTVSPropertyOp43
 70
     1
102
RTVSPropertyOp44
 70
     1
102
RTVSPropertyOp45
 70
     1
102
RTVSPropertyOp46
 70
     1
102
RTVSPropertyOp47
 70
     1
102
RTVSPropertyOp48
 70
     1
102
RTVSPropertyOp49
 70
     1
102
RTVSPropertyOp50
 70
     1
102
RTVSPropertyOp51
 70
     0
102
RTVSPropertyOp52
 70
     0
102
RTVSPropertyOp53
 70
     1
102
RTVSPropertyOp54
 70
     1
102
RTVSPropertyOp55
 70
     1
102
RTVSPropertyOp56
 70
     1
102
RTVSPropertyOp57
 70
     1
102
RTVSPost2010Prop28
280
     0
102
RTVSPost2010PropOp28
 70
     1
102
RTVSPost2010Prop29
280
     1
102
RTVSPost2010PropOp29
 70
     1
102
RTVSPost2010Prop30
280
     1
102
RTVSPost2010PropOp30
 70
     1
102
RTVSPost2010Prop31
280
     0
102
RTVSPost2010PropOp31
 70
     1
102
RTVSPost2010Prop32
280
     0
102
RTVSPost2010PropOp32
 70
     1
102
RTVSPost2010Prop33
280
     0
102
RTVSPost2010PropOp33
 70
     1
102
RTVSPost2010Prop34
280
     0
102
RTVSPost2010PropOp34
 70
     1
102
RTVSPost2010Prop35
280
     0
102
RTVSPost2010PropOp35
 70
     1
102
RTVSPost2010Prop36
280
     0
102
RTVSPost2010PropOp36
 70
     1
102
RTVSPost2010Prop37
 90
       50
102
RTVSPost2010PropOp37
 70
     1
102
RTVSPost2010Prop38
140
0.0
102
RTVSPost2010PropOp38
 70
     1
102
RTVSPost2010Prop39
140
1.0
102
RTVSPost2010PropOp39
 70
     1
102
RTVSPost2010Prop40
 90
        0
102
RTVSPost2010PropOp40
 70
     1
102
RTVSPost2010Prop41ColorIndex
 90
       18
102
RTVSPost2010Prop41ColorRGB
 90
        0
102
RTVSPost2010PropOp41
 70
     1
102
RTVSPost2010Prop42
 90
       50
102
RTVSPost2010PropOp42
 70
     1
102
RTVSPost2010Prop43
 90
        3
102
RTVSPost2010PropOp43
 70
     1
102
RTVSPost2010Prop44ColorIndex
 90
        5
102
RTVSPost2010Prop44ColorRGB
 90
      255
102
RTVSPost2010PropOp44
 70
     1
102
RTVSPost2010Prop45
280
     0
102
RTVSPost2010PropOp45
 70
     1
102
RTVSPost2010Prop46
 90
       50
102
RTVSPost2010PropOp46
 70
     1
102
RTVSPost2010Prop47
 90
       50
102
RTVSPost2010PropOp47
 70
     1
102
RTVSPost2010Prop48
 90
       50
102
RTVSPost2010PropOp48
 70
     1
102
RTVSPost2010Prop49
280
     0
102
RTVSPost2010PropOp49
 70
     1
102
RTVSPost2010Prop50
 90
       50
102
RTVSPost2010PropOp50
 70
     1
102
RTVSPost2010Prop51ColorIndex
 90
      256
102
RTVSPost2010Prop51ColorRGB
 90
-16777216
102
RTVSPost2010PropOp51
 70
     0
102
RTVSPost2010Prop52
140
1.0
102
RTVSPost2010PropOp52
 70
     0
102
RTVSPost2010Prop53
 90
        2
102
RTVSPost2010PropOp53
 70
     1
102
RTVSPost2010Prop54
  1
strokes_ogs.tif
102
RTVSPost2010PropOp54
 70
     1
102
RTVSPost2010Prop55
280
     0
102
RTVSPost2010PropOp55
 70
     1
102
RTVSPost2010Prop56
140
1.0
102
RTVSPost2010PropOp56
 70
     1
102
RTVSPost2010Prop57
140
1.0
102
RTVSPost2010PropOp57
 70
     1
  0
XRECORD
  5
67C
102
{ACAD_REACTORS
330
67B
102
}
330
67B
100
AcDbXrecord
280
     1
102
RTVSPropertyOp0
 70
     1
102
RTVSPropertyOp1
 70
     1
102
RTVSPropertyOp2
 70
     1
102
RTVSPropertyOp3
 70
     1
102
RTVSPropertyOp4
 70
     1
102
RTVSPropertyOp5
 70
     1
102
RTVSPropertyOp6
 70
     1
102
RTVSPropertyOp7
 70
     1
102
RTVSPropertyOp8
 70
     1
102
RTVSPropertyOp9
 70
     1
102
RTVSPropertyOp10
 70
     1
102
RTVSPropertyOp11
 70
     1
102
RTVSPropertyOp12
 70
     1
102
RTVSPropertyOp13
 70
     1
102
RTVSPropertyOp14
 70
     1
102
RTVSPropertyOp15
 70
     1
102
RTVSPropertyOp16
 70
     1
102
RTVSPropertyOp17
 70
     1
102
RTVSPropertyOp18
 70
     1
102
RTVSPropertyOp19
 70
     1
102
RTVSPropertyOp20
 70
     1
102
RTVSPropertyOp21
 70
     1
102
RTVSPropertyOp22
 70
     1
102
RTVSPropertyOp23
 70
     1
102
RTVSPropertyOp24
 70
     1
102
RTVSPropertyOp25
 70
     1
102
RTVSPropertyOp26
 70
     1
102
RTVSPropertyOp27
 70
     1
102
RTVSPropertyOp28
 70
     1
102
RTVSPropertyOp29
 70
     1
102
RTVSPropertyOp30
 70
     1
102
RTVSPropertyOp31
 70
     1
102
RTVSPropertyOp32
 70
     1
102
RTVSPropertyOp33
 70
     1
102
RTVSPropertyOp34
 70
     1
102
RTVSPropertyOp35
 70
     1
102
RTVSPropertyOp36
 70
     1
102
RTVSPropertyOp37
 70
     1
102
RTVSPropertyOp38
 70
     1
102
RTVSPropertyOp39
 70
     1
102
RTVSPropertyOp40
 70
     1
102
RTVSPropertyOp41
 70
     1
102
RTVSPropertyOp42
 70
     1
102
RTVSPropertyOp43
 70
     1
102
RTVSPropertyOp44
 70
     1
102
RTVSPropertyOp45
 70
     1
102
RTVSPropertyOp46
 70
     1
102
RTVSPropertyOp47
 70
     1
102
RTVSPropertyOp48
 70
     1
102
RTVSPropertyOp49
 70
     1
102
RTVSPropertyOp50
 70
     1
102
RTVSPropertyOp51
 70
     0
102
RTVSPropertyOp52
 70
     0
102
RTVSPropertyOp53
 70
     1
102
RTVSPropertyOp54
 70
     1
102
RTVSPropertyOp55
 70
     1
102
RTVSPropertyOp56
 70
     1
102
RTVSPropertyOp57
 70
     1
102
RTVSPost2010Prop28
280
     0
102
RTVSPost2010PropOp28
 70
     1
102
RTVSPost2010Prop29
280
     1
102
RTVSPost2010PropOp29
 70
     1
102
RTVSPost2010Prop30
280
     1
102
RTVSPost2010PropOp30
 70
     1
102
RTVSPost2010Prop31
280
     0
102
RTVSPost2010PropOp31
 70
     1
102
RTVSPost2010Prop32
280
     0
102
RTVSPost2010PropOp32
 70
     1
102
RTVSPost2010Prop33
280
     0
102
RTVSPost2010PropOp33
 70
     1
102
RTVSPost2010Prop34
280
     0
102
RTVSPost2010PropOp34
 70
     1
102
RTVSPost2010Prop35
280
     0
102
RTVSPost2010PropOp35
 70
     1
102
RTVSPost2010Prop36
280
     0
102
RTVSPost2010PropOp36
 70
     1
102
RTVSPost2010Prop37
 90
       50
102
RTVSPost2010PropOp37
 70
     1
102
RTVSPost2010Prop38
140
0.0
102
RTVSPost2010PropOp38
 70
     1
102
RTVSPost2010Prop39
140
1.0
102
RTVSPost2010PropOp39
 70
     1
102
RTVSPost2010Prop40
 90
        0
102
RTVSPost2010PropOp40
 70
     1
102
RTVSPost2010Prop41ColorIndex
 90
       18
102
RTVSPost2010Prop41ColorRGB
 90
        0
102
RTVSPost2010PropOp41
 70
     1
102
RTVSPost2010Prop42
 90
       50
102
RTVSPost2010PropOp42
 70
     1
102
RTVSPost2010Prop43
 90
        3
102
RTVSPost2010PropOp43
 70
     1
102
RTVSPost2010Prop44ColorIndex
 90
        5
102
RTVSPost2010Prop44ColorRGB
 90
      255
102
RTVSPost2010PropOp44
 70
     1
102
RTVSPost2010Prop45
280
     0
102
RTVSPost2010PropOp45
 70
     1
102
RTVSPost2010Prop46
 90
       50
102
RTVSPost2010PropOp46
 70
     1
102
RTVSPost2010Prop47
 90
       50
102
RTVSPost2010PropOp47
 70
     1
102
RTVSPost2010Prop48
 90
       50
102
RTVSPost2010PropOp48
 70
     1
102
RTVSPost2010Prop49
280
     0
102
RTVSPost2010PropOp49
 70
     1
102
RTVSPost2010Prop50
 90
       50
102
RTVSPost2010PropOp50
 70
     1
102
RTVSPost2010Prop51ColorIndex
 90
      256
102
RTVSPost2010Prop51ColorRGB
 90
-16777216
102
RTVSPost2010PropOp51
 70
     0
102
RTVSPost2010Prop52
140
1.0
102
RTVSPost2010PropOp52
 70
     0
102
RTVSPost2010Prop53
 90
        2
102
RTVSPost2010PropOp53
 70
     1
102
RTVSPost2010Prop54
  1
strokes_ogs.tif
102
RTVSPost2010PropOp54
 70
     1
102
RTVSPost2010Prop55
280
     0
102
RTVSPost2010PropOp55
 70
     1
102
RTVSPost2010Prop56
140
1.0
102
RTVSPost2010PropOp56
 70
     1
102
RTVSPost2010Prop57
140
1.0
102
RTVSPost2010PropOp57
 70
     1
  0
XRECORD
  5
68C
102
{ACAD_REACTORS
330
68B
102
}
330
68B
100
AcDbXrecord
280
     1
102
RTVSPropertyOp0
 70
     0
102
RTVSPropertyOp1
 70
     0
102
RTVSPropertyOp2
 70
     0
102
RTVSPropertyOp3
 70
     0
102
RTVSPropertyOp4
 70
     0
102
RTVSPropertyOp5
 70
     0
102
RTVSPropertyOp6
 70
     0
102
RTVSPropertyOp7
 70
     0
102
RTVSPropertyOp8
 70
     0
102
RTVSPropertyOp9
 70
     0
102
RTVSPropertyOp10
 70
     0
102
RTVSPropertyOp11
 70
     0
102
RTVSPropertyOp12
 70
     0
102
RTVSPropertyOp13
 70
     0
102
RTVSPropertyOp14
 70
     2
102
RTVSPropertyOp15
 70
     0
102
RTVSPropertyOp16
 70
     0
102
RTVSPropertyOp17
 70
     0
102
RTVSPropertyOp18
 70
     0
102
RTVSPropertyOp19
 70
     0
102
RTVSPropertyOp20
 70
     0
102
RTVSPropertyOp21
 70
     0
102
RTVSPropertyOp22
 70
     0
102
RTVSPropertyOp23
 70
     0
102
RTVSPropertyOp24
 70
     0
102
RTVSPropertyOp25
 70
     0
102
RTVSPropertyOp26
 70
     0
102
RTVSPropertyOp27
 70
     0
102
RTVSPropertyOp28
 70
     0
102
RTVSPropertyOp29
 70
     0
102
RTVSPropertyOp30
 70
     0
102
RTVSPropertyOp31
 70
     0
102
RTVSPropertyOp32
 70
     0
102
RTVSPropertyOp33
 70
     0
102
RTVSPropertyOp34
 70
     0
102
RTVSPropertyOp35
 70
     0
102
RTVSPropertyOp36
 70
     0
102
RTVSPropertyOp37
 70
     0
102
RTVSPropertyOp38
 70
     0
102
RTVSPropertyOp39
 70
     0
102
RTVSPropertyOp40
 70
     0
102
RTVSPropertyOp41
 70
     0
102
RTVSPropertyOp42
 70
     0
102
RTVSPropertyOp43
 70
     0
102
RTVSPropertyOp44
 70
     0
102
RTVSPropertyOp45
 70
     0
102
RTVSPropertyOp46
 70
     0
102
RTVSPropertyOp47
 70
     0
102
RTVSPropertyOp48
 70
     0
102
RTVSPropertyOp49
 70
     0
102
RTVSPropertyOp50
 70
     0
102
RTVSPropertyOp51
 70
     0
102
RTVSPropertyOp52
 70
     0
102
RTVSPropertyOp53
 70
     0
102
RTVSPropertyOp54
 70
     0
102
RTVSPropertyOp55
 70
     0
102
RTVSPropertyOp56
 70
     0
102
RTVSPropertyOp57
 70
     0
102
RTVSPost2010Prop28
280
     0
102
RTVSPost2010PropOp28
 70
     0
102
RTVSPost2010Prop29
280
     1
102
RTVSPost2010PropOp29
 70
     0
102
RTVSPost2010Prop30
280
     1
102
RTVSPost2010PropOp30
 70
     0
102
RTVSPost2010Prop31
280
     0
102
RTVSPost2010PropOp31
 70
     0
102
RTVSPost2010Prop32
280
     0
102
RTVSPost2010PropOp32
 70
     0
102
RTVSPost2010Prop33
280
     0
102
RTVSPost2010PropOp33
 70
     0
102
RTVSPost2010Prop34
280
     0
102
RTVSPost2010PropOp34
 70
     0
102
RTVSPost2010Prop35
280
     0
102
RTVSPost2010PropOp35
 70
     0
102
RTVSPost2010Prop36
280
     0
102
RTVSPost2010PropOp36
 70
     0
102
RTVSPost2010Prop37
 90
       50
102
RTVSPost2010PropOp37
 70
     0
102
RTVSPost2010Prop38
140
0.0
102
RTVSPost2010PropOp38
 70
     0
102
RTVSPost2010Prop39
140
1.0
102
RTVSPost2010PropOp39
 70
     0
102
RTVSPost2010Prop40
 90
        0
102
RTVSPost2010PropOp40
 70
     0
102
RTVSPost2010Prop41ColorIndex
 90
       18
102
RTVSPost2010Prop41ColorRGB
 90
        0
102
RTVSPost2010PropOp41
 70
     0
102
RTVSPost2010Prop42
 90
       50
102
RTVSPost2010PropOp42
 70
     0
102
RTVSPost2010Prop43
 90
        3
102
RTVSPost2010PropOp43
 70
     0
102
RTVSPost2010Prop44ColorIndex
 90
        5
102
RTVSPost2010Prop44ColorRGB
 90
      255
102
RTVSPost2010PropOp44
 70
     0
102
RTVSPost2010Prop45
280
     0
102
RTVSPost2010PropOp45
 70
     0
102
RTVSPost2010Prop46
 90
       50
102
RTVSPost2010PropOp46
 70
     0
102
RTVSPost2010Prop47
 90
       50
102
RTVSPost2010PropOp47
 70
     0
102
RTVSPost2010Prop48
 90
       50
102
RTVSPost2010PropOp48
 70
     0
102
RTVSPost2010Prop49
280
     0
102
RTVSPost2010PropOp49
 70
     0
102
RTVSPost2010Prop50
 90
       50
102
RTVSPost2010PropOp50
 70
     0
102
RTVSPost2010Prop51ColorIndex
 90
      256
102
RTVSPost2010Prop51ColorRGB
 90
-16777216
102
RTVSPost2010PropOp51
 70
     0
102
RTVSPost2010Prop52
140
1.0
102
RTVSPost2010PropOp52
 70
     0
102
RTVSPost2010Prop53
 90
        2
102
RTVSPost2010PropOp53
 70
     0
102
RTVSPost2010Prop54
  1
strokes_ogs.tif
102
RTVSPost2010PropOp54
 70
     0
102
RTVSPost2010Prop55
280
     0
102
RTVSPost2010PropOp55
 70
     0
102
RTVSPost2010Prop56
140
1.0
102
RTVSPost2010PropOp56
 70
     0
102
RTVSPost2010Prop57
140
1.0
102
RTVSPost2010PropOp57
 70
     0
  0
XRECORD
  5
684
102
{ACAD_REACTORS
330
683
102
}
330
683
100
AcDbXrecord
280
     1
102
RTVSPropertyOp0
 70
     1
102
RTVSPropertyOp1
 70
     1
102
RTVSPropertyOp2
 70
     1
102
RTVSPropertyOp3
 70
     1
102
RTVSPropertyOp4
 70
     1
102
RTVSPropertyOp5
 70
     1
102
RTVSPropertyOp6
 70
     1
102
RTVSPropertyOp7
 70
     1
102
RTVSPropertyOp8
 70
     1
102
RTVSPropertyOp9
 70
     1
102
RTVSPropertyOp10
 70
     1
102
RTVSPropertyOp11
 70
     1
102
RTVSPropertyOp12
 70
     1
102
RTVSPropertyOp13
 70
     1
102
RTVSPropertyOp14
 70
     1
102
RTVSPropertyOp15
 70
     1
102
RTVSPropertyOp16
 70
     1
102
RTVSPropertyOp17
 70
     1
102
RTVSPropertyOp18
 70
     1
102
RTVSPropertyOp19
 70
     1
102
RTVSPropertyOp20
 70
     1
102
RTVSPropertyOp21
 70
     1
102
RTVSPropertyOp22
 70
     1
102
RTVSPropertyOp23
 70
     1
102
RTVSPropertyOp24
 70
     1
102
RTVSPropertyOp25
 70
     1
102
RTVSPropertyOp26
 70
     1
102
RTVSPropertyOp27
 70
     1
102
RTVSPropertyOp28
 70
     1
102
RTVSPropertyOp29
 70
     1
102
RTVSPropertyOp30
 70
     1
102
RTVSPropertyOp31
 70
     1
102
RTVSPropertyOp32
 70
     1
102
RTVSPropertyOp33
 70
     1
102
RTVSPropertyOp34
 70
     1
102
RTVSPropertyOp35
 70
     1
102
RTVSPropertyOp36
 70
     1
102
RTVSPropertyOp37
 70
     1
102
RTVSPropertyOp38
 70
     1
102
RTVSPropertyOp39
 70
     1
102
RTVSPropertyOp40
 70
     1
102
RTVSPropertyOp41
 70
     1
102
RTVSPropertyOp42
 70
     1
102
RTVSPropertyOp43
 70
     1
102
RTVSPropertyOp44
 70
     1
102
RTVSPropertyOp45
 70
     1
102
RTVSPropertyOp46
 70
     1
102
RTVSPropertyOp47
 70
     1
102
RTVSPropertyOp48
 70
     1
102
RTVSPropertyOp49
 70
     1
102
RTVSPropertyOp50
 70
     1
102
RTVSPropertyOp51
 70
     0
102
RTVSPropertyOp52
 70
     0
102
RTVSPropertyOp53
 70
     1
102
RTVSPropertyOp54
 70
     1
102
RTVSPropertyOp55
 70
     1
102
RTVSPropertyOp56
 70
     1
102
RTVSPropertyOp57
 70
     1
102
RTVSPost2010Prop28
280
     0
102
RTVSPost2010PropOp28
 70
     1
102
RTVSPost2010Prop29
280
     1
102
RTVSPost2010PropOp29
 70
     1
102
RTVSPost2010Prop30
280
     1
102
RTVSPost2010PropOp30
 70
     1
102
RTVSPost2010Prop31
280
     0
102
RTVSPost2010PropOp31
 70
     1
102
RTVSPost2010Prop32
280
     0
102
RTVSPost2010PropOp32
 70
     1
102
RTVSPost2010Prop33
280
     0
102
RTVSPost2010PropOp33
 70
     1
102
RTVSPost2010Prop34
280
     0
102
RTVSPost2010PropOp34
 70
     1
102
RTVSPost2010Prop35
280
     0
102
RTVSPost2010PropOp35
 70
     1
102
RTVSPost2010Prop36
280
     0
102
RTVSPost2010PropOp36
 70
     1
102
RTVSPost2010Prop37
 90
       50
102
RTVSPost2010PropOp37
 70
     1
102
RTVSPost2010Prop38
140
0.0
102
RTVSPost2010PropOp38
 70
     1
102
RTVSPost2010Prop39
140
1.0
102
RTVSPost2010PropOp39
 70
     1
102
RTVSPost2010Prop40
 90
        0
102
RTVSPost2010PropOp40
 70
     1
102
RTVSPost2010Prop41ColorIndex
 90
       18
102
RTVSPost2010Prop41ColorRGB
 90
        0
102
RTVSPost2010PropOp41
 70
     1
102
RTVSPost2010Prop42
 90
       50
102
RTVSPost2010PropOp42
 70
     1
102
RTVSPost2010Prop43
 90
        3
102
RTVSPost2010PropOp43
 70
     1
102
RTVSPost2010Prop44ColorIndex
 90
        5
102
RTVSPost2010Prop44ColorRGB
 90
      255
102
RTVSPost2010PropOp44
 70
     1
102
RTVSPost2010Prop45
280
     0
102
RTVSPost2010PropOp45
 70
     1
102
RTVSPost2010Prop46
 90
       50
102
RTVSPost2010PropOp46
 70
     1
102
RTVSPost2010Prop47
 90
       50
102
RTVSPost2010PropOp47
 70
     1
102
RTVSPost2010Prop48
 90
       50
102
RTVSPost2010PropOp48
 70
     1
102
RTVSPost2010Prop49
280
     0
102
RTVSPost2010PropOp49
 70
     1
102
RTVSPost2010Prop50
 90
       50
102
RTVSPost2010PropOp50
 70
     1
102
RTVSPost2010Prop51ColorIndex
 90
      256
102
RTVSPost2010Prop51ColorRGB
 90
-16777216
102
RTVSPost2010PropOp51
 70
     0
102
RTVSPost2010Prop52
140
1.0
102
RTVSPost2010PropOp52
 70
     0
102
RTVSPost2010Prop53
 90
        2
102
RTVSPost2010PropOp53
 70
     1
102
RTVSPost2010Prop54
  1
strokes_ogs.tif
102
RTVSPost2010PropOp54
 70
     1
102
RTVSPost2010Prop55
280
     0
102
RTVSPost2010PropOp55
 70
     1
102
RTVSPost2010Prop56
140
1.0
102
RTVSPost2010PropOp56
 70
     1
102
RTVSPost2010Prop57
140
1.0
102
RTVSPost2010PropOp57
 70
     1
  0
XRECORD
  5
668
102
{ACAD_REACTORS
330
667
102
}
330
667
100
AcDbXrecord
280
     1
102
RTVSPropertyOp0
 70
     1
102
RTVSPropertyOp1
 70
     1
102
RTVSPropertyOp2
 70
     1
102
RTVSPropertyOp3
 70
     1
102
RTVSPropertyOp4
 70
     1
102
RTVSPropertyOp5
 70
     1
102
RTVSPropertyOp6
 70
     1
102
RTVSPropertyOp7
 70
     1
102
RTVSPropertyOp8
 70
     1
102
RTVSPropertyOp9
 70
     1
102
RTVSPropertyOp10
 70
     1
102
RTVSPropertyOp11
 70
     1
102
RTVSPropertyOp12
 70
     1
102
RTVSPropertyOp13
 70
     1
102
RTVSPropertyOp14
 70
     1
102
RTVSPropertyOp15
 70
     1
102
RTVSPropertyOp16
 70
     1
102
RTVSPropertyOp17
 70
     1
102
RTVSPropertyOp18
 70
     1
102
RTVSPropertyOp19
 70
     1
102
RTVSPropertyOp20
 70
     1
102
RTVSPropertyOp21
 70
     1
102
RTVSPropertyOp22
 70
     1
102
RTVSPropertyOp23
 70
     1
102
RTVSPropertyOp24
 70
     1
102
RTVSPropertyOp25
 70
     1
102
RTVSPropertyOp26
 70
     1
102
RTVSPropertyOp27
 70
     1
102
RTVSPropertyOp28
 70
     1
102
RTVSPropertyOp29
 70
     1
102
RTVSPropertyOp30
 70
     1
102
RTVSPropertyOp31
 70
     1
102
RTVSPropertyOp32
 70
     1
102
RTVSPropertyOp33
 70
     1
102
RTVSPropertyOp34
 70
     1
102
RTVSPropertyOp35
 70
     1
102
RTVSPropertyOp36
 70
     1
102
RTVSPropertyOp37
 70
     1
102
RTVSPropertyOp38
 70
     1
102
RTVSPropertyOp39
 70
     1
102
RTVSPropertyOp40
 70
     1
102
RTVSPropertyOp41
 70
     1
102
RTVSPropertyOp42
 70
     1
102
RTVSPropertyOp43
 70
     1
102
RTVSPropertyOp44
 70
     1
102
RTVSPropertyOp45
 70
     1
102
RTVSPropertyOp46
 70
     1
102
RTVSPropertyOp47
 70
     1
102
RTVSPropertyOp48
 70
     1
102
RTVSPropertyOp49
 70
     1
102
RTVSPropertyOp50
 70
     1
102
RTVSPropertyOp51
 70
     0
102
RTVSPropertyOp52
 70
     0
102
RTVSPropertyOp53
 70
     1
102
RTVSPropertyOp54
 70
     1
102
RTVSPropertyOp55
 70
     1
102
RTVSPropertyOp56
 70
     1
102
RTVSPropertyOp57
 70
     1
102
RTVSPost2010Prop28
280
     0
102
RTVSPost2010PropOp28
 70
     1
102
RTVSPost2010Prop29
280
     1
102
RTVSPost2010PropOp29
 70
     1
102
RTVSPost2010Prop30
280
     1
102
RTVSPost2010PropOp30
 70
     1
102
RTVSPost2010Prop31
280
     0
102
RTVSPost2010PropOp31
 70
     1
102
RTVSPost2010Prop32
280
     0
102
RTVSPost2010PropOp32
 70
     1
102
RTVSPost2010Prop33
280
     0
102
RTVSPost2010PropOp33
 70
     1
102
RTVSPost2010Prop34
280
     0
102
RTVSPost2010PropOp34
 70
     1
102
RTVSPost2010Prop35
280
     0
102
RTVSPost2010PropOp35
 70
     1
102
RTVSPost2010Prop36
280
     0
102
RTVSPost2010PropOp36
 70
     1
102
RTVSPost2010Prop37
 90
       50
102
RTVSPost2010PropOp37
 70
     1
102
RTVSPost2010Prop38
140
0.0
102
RTVSPost2010PropOp38
 70
     1
102
RTVSPost2010Prop39
140
1.0
102
RTVSPost2010PropOp39
 70
     1
102
RTVSPost2010Prop40
 90
        0
102
RTVSPost2010PropOp40
 70
     1
102
RTVSPost2010Prop41ColorIndex
 90
       18
102
RTVSPost2010Prop41ColorRGB
 90
        0
102
RTVSPost2010PropOp41
 70
     1
102
RTVSPost2010Prop42
 90
       50
102
RTVSPost2010PropOp42
 70
     1
102
RTVSPost2010Prop43
 90
        3
102
RTVSPost2010PropOp43
 70
     1
102
RTVSPost2010Prop44ColorIndex
 90
        5
102
RTVSPost2010Prop44ColorRGB
 90
      255
102
RTVSPost2010PropOp44
 70
     1
102
RTVSPost2010Prop45
280
     0
102
RTVSPost2010PropOp45
 70
     1
102
RTVSPost2010Prop46
 90
       50
102
RTVSPost2010PropOp46
 70
     1
102
RTVSPost2010Prop47
 90
       50
102
RTVSPost2010PropOp47
 70
     1
102
RTVSPost2010Prop48
 90
       50
102
RTVSPost2010PropOp48
 70
     1
102
RTVSPost2010Prop49
280
     0
102
RTVSPost2010PropOp49
 70
     1
102
RTVSPost2010Prop50
 90
       50
102
RTVSPost2010PropOp50
 70
     1
102
RTVSPost2010Prop51ColorIndex
 90
      256
102
RTVSPost2010Prop51ColorRGB
 90
-16777216
102
RTVSPost2010PropOp51
 70
     0
102
RTVSPost2010Prop52
140
1.0
102
RTVSPost2010PropOp52
 70
     0
102
RTVSPost2010Prop53
 90
        2
102
RTVSPost2010PropOp53
 70
     1
102
RTVSPost2010Prop54
  1
strokes_ogs.tif
102
RTVSPost2010PropOp54
 70
     1
102
RTVSPost2010Prop55
280
     0
102
RTVSPost2010PropOp55
 70
     1
102
RTVSPost2010Prop56
140
1.0
102
RTVSPost2010PropOp56
 70
     1
102
RTVSPost2010Prop57
140
1.0
102
RTVSPost2010PropOp57
 70
     1
  0
XRECORD
  5
66A
102
{ACAD_REACTORS
330
669
102
}
330
669
100
AcDbXrecord
280
     1
102
RTVSPropertyOp0
 70
     1
102
RTVSPropertyOp1
 70
     1
102
RTVSPropertyOp2
 70
     1
102
RTVSPropertyOp3
 70
     1
102
RTVSPropertyOp4
 70
     1
102
RTVSPropertyOp5
 70
     1
102
RTVSPropertyOp6
 70
     1
102
RTVSPropertyOp7
 70
     1
102
RTVSPropertyOp8
 70
     1
102
RTVSPropertyOp9
 70
     1
102
RTVSPropertyOp10
 70
     1
102
RTVSPropertyOp11
 70
     1
102
RTVSPropertyOp12
 70
     1
102
RTVSPropertyOp13
 70
     1
102
RTVSPropertyOp14
 70
     1
102
RTVSPropertyOp15
 70
     1
102
RTVSPropertyOp16
 70
     1
102
RTVSPropertyOp17
 70
     1
102
RTVSPropertyOp18
 70
     1
102
RTVSPropertyOp19
 70
     1
102
RTVSPropertyOp20
 70
     1
102
RTVSPropertyOp21
 70
     1
102
RTVSPropertyOp22
 70
     1
102
RTVSPropertyOp23
 70
     1
102
RTVSPropertyOp24
 70
     1
102
RTVSPropertyOp25
 70
     1
102
RTVSPropertyOp26
 70
     1
102
RTVSPropertyOp27
 70
     1
102
RTVSPropertyOp28
 70
     1
102
RTVSPropertyOp29
 70
     1
102
RTVSPropertyOp30
 70
     1
102
RTVSPropertyOp31
 70
     1
102
RTVSPropertyOp32
 70
     1
102
RTVSPropertyOp33
 70
     1
102
RTVSPropertyOp34
 70
     1
102
RTVSPropertyOp35
 70
     1
102
RTVSPropertyOp36
 70
     1
102
RTVSPropertyOp37
 70
     1
102
RTVSPropertyOp38
 70
     1
102
RTVSPropertyOp39
 70
     1
102
RTVSPropertyOp40
 70
     1
102
RTVSPropertyOp41
 70
     1
102
RTVSPropertyOp42
 70
     1
102
RTVSPropertyOp43
 70
     1
102
RTVSPropertyOp44
 70
     1
102
RTVSPropertyOp45
 70
     1
102
RTVSPropertyOp46
 70
     1
102
RTVSPropertyOp47
 70
     1
102
RTVSPropertyOp48
 70
     1
102
RTVSPropertyOp49
 70
     1
102
RTVSPropertyOp50
 70
     1
102
RTVSPropertyOp51
 70
     0
102
RTVSPropertyOp52
 70
     0
102
RTVSPropertyOp53
 70
     1
102
RTVSPropertyOp54
 70
     1
102
RTVSPropertyOp55
 70
     1
102
RTVSPropertyOp56
 70
     1
102
RTVSPropertyOp57
 70
     1
102
RTVSPost2010Prop28
280
     0
102
RTVSPost2010PropOp28
 70
     1
102
RTVSPost2010Prop29
280
     1
102
RTVSPost2010PropOp29
 70
     1
102
RTVSPost2010Prop30
280
     1
102
RTVSPost2010PropOp30
 70
     1
102
RTVSPost2010Prop31
280
     0
102
RTVSPost2010PropOp31
 70
     1
102
RTVSPost2010Prop32
280
     0
102
RTVSPost2010PropOp32
 70
     1
102
RTVSPost2010Prop33
280
     0
102
RTVSPost2010PropOp33
 70
     1
102
RTVSPost2010Prop34
280
     0
102
RTVSPost2010PropOp34
 70
     1
102
RTVSPost2010Prop35
280
     0
102
RTVSPost2010PropOp35
 70
     1
102
RTVSPost2010Prop36
280
     0
102
RTVSPost2010PropOp36
 70
     1
102
RTVSPost2010Prop37
 90
       50
102
RTVSPost2010PropOp37
 70
     1
102
RTVSPost2010Prop38
140
0.0
102
RTVSPost2010PropOp38
 70
     1
102
RTVSPost2010Prop39
140
1.0
102
RTVSPost2010PropOp39
 70
     1
102
RTVSPost2010Prop40
 90
        0
102
RTVSPost2010PropOp40
 70
     1
102
RTVSPost2010Prop41ColorIndex
 90
       18
102
RTVSPost2010Prop41ColorRGB
 90
        0
102
RTVSPost2010PropOp41
 70
     1
102
RTVSPost2010Prop42
 90
       50
102
RTVSPost2010PropOp42
 70
     1
102
RTVSPost2010Prop43
 90
        3
102
RTVSPost2010PropOp43
 70
     1
102
RTVSPost2010Prop44ColorIndex
 90
        5
102
RTVSPost2010Prop44ColorRGB
 90
      255
102
RTVSPost2010PropOp44
 70
     1
102
RTVSPost2010Prop45
280
     0
102
RTVSPost2010PropOp45
 70
     1
102
RTVSPost2010Prop46
 90
       50
102
RTVSPost2010PropOp46
 70
     1
102
RTVSPost2010Prop47
 90
       50
102
RTVSPost2010PropOp47
 70
     1
102
RTVSPost2010Prop48
 90
       50
102
RTVSPost2010PropOp48
 70
     1
102
RTVSPost2010Prop49
280
     0
102
RTVSPost2010PropOp49
 70
     1
102
RTVSPost2010Prop50
 90
       50
102
RTVSPost2010PropOp50
 70
     1
102
RTVSPost2010Prop51ColorIndex
 90
      256
102
RTVSPost2010Prop51ColorRGB
 90
-16777216
102
RTVSPost2010PropOp51
 70
     0
102
RTVSPost2010Prop52
140
1.0
102
RTVSPost2010PropOp52
 70
     0
102
RTVSPost2010Prop53
 90
        2
102
RTVSPost2010PropOp53
 70
     1
102
RTVSPost2010Prop54
  1
strokes_ogs.tif
102
RTVSPost2010PropOp54
 70
     1
102
RTVSPost2010Prop55
280
     0
102
RTVSPost2010PropOp55
 70
     1
102
RTVSPost2010Prop56
140
1.0
102
RTVSPost2010PropOp56
 70
     1
102
RTVSPost2010Prop57
140
1.0
102
RTVSPost2010PropOp57
 70
     1
  0
XRECORD
  5
66C
102
{ACAD_REACTORS
330
66B
102
}
330
66B
100
AcDbXrecord
280
     1
102
RTVSPropertyOp0
 70
     1
102
RTVSPropertyOp1
 70
     1
102
RTVSPropertyOp2
 70
     1
102
RTVSPropertyOp3
 70
     1
102
RTVSPropertyOp4
 70
     1
102
RTVSPropertyOp5
 70
     1
102
RTVSPropertyOp6
 70
     1
102
RTVSPropertyOp7
 70
     1
102
RTVSPropertyOp8
 70
     1
102
RTVSPropertyOp9
 70
     1
102
RTVSPropertyOp10
 70
     1
102
RTVSPropertyOp11
 70
     1
102
RTVSPropertyOp12
 70
     1
102
RTVSPropertyOp13
 70
     1
102
RTVSPropertyOp14
 70
     1
102
RTVSPropertyOp15
 70
     1
102
RTVSPropertyOp16
 70
     1
102
RTVSPropertyOp17
 70
     1
102
RTVSPropertyOp18
 70
     1
102
RTVSPropertyOp19
 70
     1
102
RTVSPropertyOp20
 70
     1
102
RTVSPropertyOp21
 70
     1
102
RTVSPropertyOp22
 70
     1
102
RTVSPropertyOp23
 70
     1
102
RTVSPropertyOp24
 70
     1
102
RTVSPropertyOp25
 70
     1
102
RTVSPropertyOp26
 70
     1
102
RTVSPropertyOp27
 70
     1
102
RTVSPropertyOp28
 70
     1
102
RTVSPropertyOp29
 70
     1
102
RTVSPropertyOp30
 70
     1
102
RTVSPropertyOp31
 70
     1
102
RTVSPropertyOp32
 70
     1
102
RTVSPropertyOp33
 70
     1
102
RTVSPropertyOp34
 70
     1
102
RTVSPropertyOp35
 70
     1
102
RTVSPropertyOp36
 70
     1
102
RTVSPropertyOp37
 70
     1
102
RTVSPropertyOp38
 70
     1
102
RTVSPropertyOp39
 70
     1
102
RTVSPropertyOp40
 70
     1
102
RTVSPropertyOp41
 70
     1
102
RTVSPropertyOp42
 70
     1
102
RTVSPropertyOp43
 70
     1
102
RTVSPropertyOp44
 70
     1
102
RTVSPropertyOp45
 70
     1
102
RTVSPropertyOp46
 70
     1
102
RTVSPropertyOp47
 70
     1
102
RTVSPropertyOp48
 70
     1
102
RTVSPropertyOp49
 70
     1
102
RTVSPropertyOp50
 70
     1
102
RTVSPropertyOp51
 70
     0
102
RTVSPropertyOp52
 70
     0
102
RTVSPropertyOp53
 70
     1
102
RTVSPropertyOp54
 70
     1
102
RTVSPropertyOp55
 70
     1
102
RTVSPropertyOp56
 70
     1
102
RTVSPropertyOp57
 70
     1
102
RTVSPost2010Prop28
280
     0
102
RTVSPost2010PropOp28
 70
     1
102
RTVSPost2010Prop29
280
     1
102
RTVSPost2010PropOp29
 70
     1
102
RTVSPost2010Prop30
280
     1
102
RTVSPost2010PropOp30
 70
     1
102
RTVSPost2010Prop31
280
     0
102
RTVSPost2010PropOp31
 70
     1
102
RTVSPost2010Prop32
280
     0
102
RTVSPost2010PropOp32
 70
     1
102
RTVSPost2010Prop33
280
     0
102
RTVSPost2010PropOp33
 70
     1
102
RTVSPost2010Prop34
280
     0
102
RTVSPost2010PropOp34
 70
     1
102
RTVSPost2010Prop35
280
     0
102
RTVSPost2010PropOp35
 70
     1
102
RTVSPost2010Prop36
280
     0
102
RTVSPost2010PropOp36
 70
     1
102
RTVSPost2010Prop37
 90
       50
102
RTVSPost2010PropOp37
 70
     1
102
RTVSPost2010Prop38
140
0.0
102
RTVSPost2010PropOp38
 70
     1
102
RTVSPost2010Prop39
140
1.0
102
RTVSPost2010PropOp39
 70
     1
102
RTVSPost2010Prop40
 90
        0
102
RTVSPost2010PropOp40
 70
     1
102
RTVSPost2010Prop41ColorIndex
 90
       18
102
RTVSPost2010Prop41ColorRGB
 90
        0
102
RTVSPost2010PropOp41
 70
     1
102
RTVSPost2010Prop42
 90
       50
102
RTVSPost2010PropOp42
 70
     1
102
RTVSPost2010Prop43
 90
        3
102
RTVSPost2010PropOp43
 70
     1
102
RTVSPost2010Prop44ColorIndex
 90
        5
102
RTVSPost2010Prop44ColorRGB
 90
      255
102
RTVSPost2010PropOp44
 70
     1
102
RTVSPost2010Prop45
280
     0
102
RTVSPost2010PropOp45
 70
     1
102
RTVSPost2010Prop46
 90
       50
102
RTVSPost2010PropOp46
 70
     1
102
RTVSPost2010Prop47
 90
       50
102
RTVSPost2010PropOp47
 70
     1
102
RTVSPost2010Prop48
 90
       50
102
RTVSPost2010PropOp48
 70
     1
102
RTVSPost2010Prop49
280
     0
102
RTVSPost2010PropOp49
 70
     1
102
RTVSPost2010Prop50
 90
       50
102
RTVSPost2010PropOp50
 70
     1
102
RTVSPost2010Prop51ColorIndex
 90
      256
102
RTVSPost2010Prop51ColorRGB
 90
-16777216
102
RTVSPost2010PropOp51
 70
     0
102
RTVSPost2010Prop52
140
1.0
102
RTVSPost2010PropOp52
 70
     0
102
RTVSPost2010Prop53
 90
        2
102
RTVSPost2010PropOp53
 70
     1
102
RTVSPost2010Prop54
  1
strokes_ogs.tif
102
RTVSPost2010PropOp54
 70
     1
102
RTVSPost2010Prop55
280
     0
102
RTVSPost2010PropOp55
 70
     1
102
RTVSPost2010Prop56
140
1.0
102
RTVSPost2010PropOp56
 70
     1
102
RTVSPost2010Prop57
140
1.0
102
RTVSPost2010PropOp57
 70
     1
  0
XRECORD
  5
66E
102
{ACAD_REACTORS
330
66D
102
}
330
66D
100
AcDbXrecord
280
     1
102
RTVSPropertyOp0
 70
     1
102
RTVSPropertyOp1
 70
     1
102
RTVSPropertyOp2
 70
     1
102
RTVSPropertyOp3
 70
     1
102
RTVSPropertyOp4
 70
     1
102
RTVSPropertyOp5
 70
     1
102
RTVSPropertyOp6
 70
     1
102
RTVSPropertyOp7
 70
     1
102
RTVSPropertyOp8
 70
     1
102
RTVSPropertyOp9
 70
     1
102
RTVSPropertyOp10
 70
     1
102
RTVSPropertyOp11
 70
     1
102
RTVSPropertyOp12
 70
     1
102
RTVSPropertyOp13
 70
     1
102
RTVSPropertyOp14
 70
     1
102
RTVSPropertyOp15
 70
     1
102
RTVSPropertyOp16
 70
     1
102
RTVSPropertyOp17
 70
     1
102
RTVSPropertyOp18
 70
     1
102
RTVSPropertyOp19
 70
     1
102
RTVSPropertyOp20
 70
     1
102
RTVSPropertyOp21
 70
     1
102
RTVSPropertyOp22
 70
     1
102
RTVSPropertyOp23
 70
     1
102
RTVSPropertyOp24
 70
     1
102
RTVSPropertyOp25
 70
     1
102
RTVSPropertyOp26
 70
     1
102
RTVSPropertyOp27
 70
     1
102
RTVSPropertyOp28
 70
     1
102
RTVSPropertyOp29
 70
     1
102
RTVSPropertyOp30
 70
     1
102
RTVSPropertyOp31
 70
     1
102
RTVSPropertyOp32
 70
     1
102
RTVSPropertyOp33
 70
     1
102
RTVSPropertyOp34
 70
     1
102
RTVSPropertyOp35
 70
     1
102
RTVSPropertyOp36
 70
     1
102
RTVSPropertyOp37
 70
     1
102
RTVSPropertyOp38
 70
     1
102
RTVSPropertyOp39
 70
     1
102
RTVSPropertyOp40
 70
     1
102
RTVSPropertyOp41
 70
     1
102
RTVSPropertyOp42
 70
     1
102
RTVSPropertyOp43
 70
     1
102
RTVSPropertyOp44
 70
     1
102
RTVSPropertyOp45
 70
     1
102
RTVSPropertyOp46
 70
     1
102
RTVSPropertyOp47
 70
     1
102
RTVSPropertyOp48
 70
     1
102
RTVSPropertyOp49
 70
     1
102
RTVSPropertyOp50
 70
     1
102
RTVSPropertyOp51
 70
     0
102
RTVSPropertyOp52
 70
     0
102
RTVSPropertyOp53
 70
     1
102
RTVSPropertyOp54
 70
     1
102
RTVSPropertyOp55
 70
     1
102
RTVSPropertyOp56
 70
     1
102
RTVSPropertyOp57
 70
     1
102
RTVSPost2010Prop28
280
     0
102
RTVSPost2010PropOp28
 70
     1
102
RTVSPost2010Prop29
280
     1
102
RTVSPost2010PropOp29
 70
     1
102
RTVSPost2010Prop30
280
     1
102
RTVSPost2010PropOp30
 70
     1
102
RTVSPost2010Prop31
280
     0
102
RTVSPost2010PropOp31
 70
     1
102
RTVSPost2010Prop32
280
     0
102
RTVSPost2010PropOp32
 70
     1
102
RTVSPost2010Prop33
280
     0
102
RTVSPost2010PropOp33
 70
     1
102
RTVSPost2010Prop34
280
     0
102
RTVSPost2010PropOp34
 70
     1
102
RTVSPost2010Prop35
280
     0
102
RTVSPost2010PropOp35
 70
     1
102
RTVSPost2010Prop36
280
     0
102
RTVSPost2010PropOp36
 70
     1
102
RTVSPost2010Prop37
 90
       50
102
RTVSPost2010PropOp37
 70
     1
102
RTVSPost2010Prop38
140
0.0
102
RTVSPost2010PropOp38
 70
     1
102
RTVSPost2010Prop39
140
1.0
102
RTVSPost2010PropOp39
 70
     1
102
RTVSPost2010Prop40
 90
        0
102
RTVSPost2010PropOp40
 70
     1
102
RTVSPost2010Prop41ColorIndex
 90
       18
102
RTVSPost2010Prop41ColorRGB
 90
        0
102
RTVSPost2010PropOp41
 70
     1
102
RTVSPost2010Prop42
 90
       50
102
RTVSPost2010PropOp42
 70
     1
102
RTVSPost2010Prop43
 90
        3
102
RTVSPost2010PropOp43
 70
     1
102
RTVSPost2010Prop44ColorIndex
 90
        5
102
RTVSPost2010Prop44ColorRGB
 90
      255
102
RTVSPost2010PropOp44
 70
     1
102
RTVSPost2010Prop45
280
     0
102
RTVSPost2010PropOp45
 70
     1
102
RTVSPost2010Prop46
 90
       50
102
RTVSPost2010PropOp46
 70
     1
102
RTVSPost2010Prop47
 90
       50
102
RTVSPost2010PropOp47
 70
     1
102
RTVSPost2010Prop48
 90
       50
102
RTVSPost2010PropOp48
 70
     1
102
RTVSPost2010Prop49
280
     0
102
RTVSPost2010PropOp49
 70
     1
102
RTVSPost2010Prop50
 90
       50
102
RTVSPost2010PropOp50
 70
     1
102
RTVSPost2010Prop51ColorIndex
 90
      256
102
RTVSPost2010Prop51ColorRGB
 90
-16777216
102
RTVSPost2010PropOp51
 70
     0
102
RTVSPost2010Prop52
140
1.0
102
RTVSPost2010PropOp52
 70
     0
102
RTVSPost2010Prop53
 90
        2
102
RTVSPost2010PropOp53
 70
     1
102
RTVSPost2010Prop54
  1
strokes_ogs.tif
102
RTVSPost2010PropOp54
 70
     1
102
RTVSPost2010Prop55
280
     0
102
RTVSPost2010PropOp55
 70
     1
102
RTVSPost2010Prop56
140
1.0
102
RTVSPost2010PropOp56
 70
     1
102
RTVSPost2010Prop57
140
1.0
102
RTVSPost2010PropOp57
 70
     1
  0
XRECORD
  5
674
102
{ACAD_REACTORS
330
673
102
}
330
673
100
AcDbXrecord
280
     1
102
RTVSPropertyOp0
 70
     1
102
RTVSPropertyOp1
 70
     1
102
RTVSPropertyOp2
 70
     1
102
RTVSPropertyOp3
 70
     1
102
RTVSPropertyOp4
 70
     1
102
RTVSPropertyOp5
 70
     1
102
RTVSPropertyOp6
 70
     1
102
RTVSPropertyOp7
 70
     1
102
RTVSPropertyOp8
 70
     1
102
RTVSPropertyOp9
 70
     1
102
RTVSPropertyOp10
 70
     1
102
RTVSPropertyOp11
 70
     1
102
RTVSPropertyOp12
 70
     1
102
RTVSPropertyOp13
 70
     1
102
RTVSPropertyOp14
 70
     1
102
RTVSPropertyOp15
 70
     1
102
RTVSPropertyOp16
 70
     1
102
RTVSPropertyOp17
 70
     1
102
RTVSPropertyOp18
 70
     1
102
RTVSPropertyOp19
 70
     1
102
RTVSPropertyOp20
 70
     1
102
RTVSPropertyOp21
 70
     1
102
RTVSPropertyOp22
 70
     1
102
RTVSPropertyOp23
 70
     1
102
RTVSPropertyOp24
 70
     1
102
RTVSPropertyOp25
 70
     1
102
RTVSPropertyOp26
 70
     1
102
RTVSPropertyOp27
 70
     1
102
RTVSPropertyOp28
 70
     1
102
RTVSPropertyOp29
 70
     1
102
RTVSPropertyOp30
 70
     1
102
RTVSPropertyOp31
 70
     1
102
RTVSPropertyOp32
 70
     1
102
RTVSPropertyOp33
 70
     1
102
RTVSPropertyOp34
 70
     1
102
RTVSPropertyOp35
 70
     1
102
RTVSPropertyOp36
 70
     1
102
RTVSPropertyOp37
 70
     1
102
RTVSPropertyOp38
 70
     1
102
RTVSPropertyOp39
 70
     1
102
RTVSPropertyOp40
 70
     1
102
RTVSPropertyOp41
 70
     1
102
RTVSPropertyOp42
 70
     1
102
RTVSPropertyOp43
 70
     1
102
RTVSPropertyOp44
 70
     1
102
RTVSPropertyOp45
 70
     1
102
RTVSPropertyOp46
 70
     1
102
RTVSPropertyOp47
 70
     1
102
RTVSPropertyOp48
 70
     1
102
RTVSPropertyOp49
 70
     1
102
RTVSPropertyOp50
 70
     1
102
RTVSPropertyOp51
 70
     0
102
RTVSPropertyOp52
 70
     0
102
RTVSPropertyOp53
 70
     1
102
RTVSPropertyOp54
 70
     1
102
RTVSPropertyOp55
 70
     1
102
RTVSPropertyOp56
 70
     1
102
RTVSPropertyOp57
 70
     1
102
RTVSPost2010Prop28
280
     0
102
RTVSPost2010PropOp28
 70
     1
102
RTVSPost2010Prop29
280
     1
102
RTVSPost2010PropOp29
 70
     1
102
RTVSPost2010Prop30
280
     1
102
RTVSPost2010PropOp30
 70
     1
102
RTVSPost2010Prop31
280
     0
102
RTVSPost2010PropOp31
 70
     1
102
RTVSPost2010Prop32
280
     0
102
RTVSPost2010PropOp32
 70
     1
102
RTVSPost2010Prop33
280
     0
102
RTVSPost2010PropOp33
 70
     1
102
RTVSPost2010Prop34
280
     0
102
RTVSPost2010PropOp34
 70
     1
102
RTVSPost2010Prop35
280
     0
102
RTVSPost2010PropOp35
 70
     1
102
RTVSPost2010Prop36
280
     0
102
RTVSPost2010PropOp36
 70
     1
102
RTVSPost2010Prop37
 90
       50
102
RTVSPost2010PropOp37
 70
     1
102
RTVSPost2010Prop38
140
0.0
102
RTVSPost2010PropOp38
 70
     1
102
RTVSPost2010Prop39
140
1.0
102
RTVSPost2010PropOp39
 70
     1
102
RTVSPost2010Prop40
 90
        0
102
RTVSPost2010PropOp40
 70
     1
102
RTVSPost2010Prop41ColorIndex
 90
       18
102
RTVSPost2010Prop41ColorRGB
 90
        0
102
RTVSPost2010PropOp41
 70
     1
102
RTVSPost2010Prop42
 90
       50
102
RTVSPost2010PropOp42
 70
     1
102
RTVSPost2010Prop43
 90
        3
102
RTVSPost2010PropOp43
 70
     1
102
RTVSPost2010Prop44ColorIndex
 90
        5
102
RTVSPost2010Prop44ColorRGB
 90
      255
102
RTVSPost2010PropOp44
 70
     1
102
RTVSPost2010Prop45
280
     0
102
RTVSPost2010PropOp45
 70
     1
102
RTVSPost2010Prop46
 90
       50
102
RTVSPost2010PropOp46
 70
     1
102
RTVSPost2010Prop47
 90
       50
102
RTVSPost2010PropOp47
 70
     1
102
RTVSPost2010Prop48
 90
       50
102
RTVSPost2010PropOp48
 70
     1
102
RTVSPost2010Prop49
280
     0
102
RTVSPost2010PropOp49
 70
     1
102
RTVSPost2010Prop50
 90
       50
102
RTVSPost2010PropOp50
 70
     1
102
RTVSPost2010Prop51ColorIndex
 90
      256
102
RTVSPost2010Prop51ColorRGB
 90
-16777216
102
RTVSPost2010PropOp51
 70
     0
102
RTVSPost2010Prop52
140
1.0
102
RTVSPost2010PropOp52
 70
     0
102
RTVSPost2010Prop53
 90
        2
102
RTVSPost2010PropOp53
 70
     1
102
RTVSPost2010Prop54
  1
strokes_ogs.tif
102
RTVSPost2010PropOp54
 70
     1
102
RTVSPost2010Prop55
280
     0
102
RTVSPost2010PropOp55
 70
     1
102
RTVSPost2010Prop56
140
1.0
102
RTVSPost2010PropOp56
 70
     1
102
RTVSPost2010Prop57
140
1.0
102
RTVSPost2010PropOp57
 70
     1
  0
XRECORD
  5
688
102
{ACAD_REACTORS
330
687
102
}
330
687
100
AcDbXrecord
280
     1
102
RTVSPropertyOp0
 70
     0
102
RTVSPropertyOp1
 70
     0
102
RTVSPropertyOp2
 70
     0
102
RTVSPropertyOp3
 70
     0
102
RTVSPropertyOp4
 70
     0
102
RTVSPropertyOp5
 70
     0
102
RTVSPropertyOp6
 70
     0
102
RTVSPropertyOp7
 70
     0
102
RTVSPropertyOp8
 70
     0
102
RTVSPropertyOp9
 70
     0
102
RTVSPropertyOp10
 70
     0
102
RTVSPropertyOp11
 70
     0
102
RTVSPropertyOp12
 70
     0
102
RTVSPropertyOp13
 70
     0
102
RTVSPropertyOp14
 70
     2
102
RTVSPropertyOp15
 70
     0
102
RTVSPropertyOp16
 70
     0
102
RTVSPropertyOp17
 70
     0
102
RTVSPropertyOp18
 70
     0
102
RTVSPropertyOp19
 70
     0
102
RTVSPropertyOp20
 70
     0
102
RTVSPropertyOp21
 70
     0
102
RTVSPropertyOp22
 70
     0
102
RTVSPropertyOp23
 70
     0
102
RTVSPropertyOp24
 70
     0
102
RTVSPropertyOp25
 70
     0
102
RTVSPropertyOp26
 70
     0
102
RTVSPropertyOp27
 70
     0
102
RTVSPropertyOp28
 70
     0
102
RTVSPropertyOp29
 70
     0
102
RTVSPropertyOp30
 70
     0
102
RTVSPropertyOp31
 70
     0
102
RTVSPropertyOp32
 70
     0
102
RTVSPropertyOp33
 70
     0
102
RTVSPropertyOp34
 70
     0
102
RTVSPropertyOp35
 70
     0
102
RTVSPropertyOp36
 70
     0
102
RTVSPropertyOp37
 70
     0
102
RTVSPropertyOp38
 70
     0
102
RTVSPropertyOp39
 70
     0
102
RTVSPropertyOp40
 70
     0
102
RTVSPropertyOp41
 70
     0
102
RTVSPropertyOp42
 70
     0
102
RTVSPropertyOp43
 70
     0
102
RTVSPropertyOp44
 70
     0
102
RTVSPropertyOp45
 70
     0
102
RTVSPropertyOp46
 70
     0
102
RTVSPropertyOp47
 70
     0
102
RTVSPropertyOp48
 70
     0
102
RTVSPropertyOp49
 70
     0
102
RTVSPropertyOp50
 70
     0
102
RTVSPropertyOp51
 70
     0
102
RTVSPropertyOp52
 70
     0
102
RTVSPropertyOp53
 70
     0
102
RTVSPropertyOp54
 70
     0
102
RTVSPropertyOp55
 70
     0
102
RTVSPropertyOp56
 70
     0
102
RTVSPropertyOp57
 70
     0
102
RTVSPost2010Prop28
280
     0
102
RTVSPost2010PropOp28
 70
     0
102
RTVSPost2010Prop29
280
     1
102
RTVSPost2010PropOp29
 70
     0
102
RTVSPost2010Prop30
280
     1
102
RTVSPost2010PropOp30
 70
     0
102
RTVSPost2010Prop31
280
     0
102
RTVSPost2010PropOp31
 70
     0
102
RTVSPost2010Prop32
280
     0
102
RTVSPost2010PropOp32
 70
     0
102
RTVSPost2010Prop33
280
     0
102
RTVSPost2010PropOp33
 70
     0
102
RTVSPost2010Prop34
280
     0
102
RTVSPost2010PropOp34
 70
     0
102
RTVSPost2010Prop35
280
     0
102
RTVSPost2010PropOp35
 70
     0
102
RTVSPost2010Prop36
280
     0
102
RTVSPost2010PropOp36
 70
     0
102
RTVSPost2010Prop37
 90
       50
102
RTVSPost2010PropOp37
 70
     0
102
RTVSPost2010Prop38
140
0.0
102
RTVSPost2010PropOp38
 70
     0
102
RTVSPost2010Prop39
140
1.0
102
RTVSPost2010PropOp39
 70
     0
102
RTVSPost2010Prop40
 90
        0
102
RTVSPost2010PropOp40
 70
     0
102
RTVSPost2010Prop41ColorIndex
 90
       18
102
RTVSPost2010Prop41ColorRGB
 90
        0
102
RTVSPost2010PropOp41
 70
     0
102
RTVSPost2010Prop42
 90
       50
102
RTVSPost2010PropOp42
 70
     0
102
RTVSPost2010Prop43
 90
        3
102
RTVSPost2010PropOp43
 70
     0
102
RTVSPost2010Prop44ColorIndex
 90
        5
102
RTVSPost2010Prop44ColorRGB
 90
      255
102
RTVSPost2010PropOp44
 70
     0
102
RTVSPost2010Prop45
280
     0
102
RTVSPost2010PropOp45
 70
     0
102
RTVSPost2010Prop46
 90
       50
102
RTVSPost2010PropOp46
 70
     0
102
RTVSPost2010Prop47
 90
       50
102
RTVSPost2010PropOp47
 70
     0
102
RTVSPost2010Prop48
 90
       50
102
RTVSPost2010PropOp48
 70
     0
102
RTVSPost2010Prop49
280
     0
102
RTVSPost2010PropOp49
 70
     0
102
RTVSPost2010Prop50
 90
       50
102
RTVSPost2010PropOp50
 70
     0
102
RTVSPost2010Prop51ColorIndex
 90
      256
102
RTVSPost2010Prop51ColorRGB
 90
-16777216
102
RTVSPost2010PropOp51
 70
     0
102
RTVSPost2010Prop52
140
1.0
102
RTVSPost2010PropOp52
 70
     0
102
RTVSPost2010Prop53
 90
        2
102
RTVSPost2010PropOp53
 70
     0
102
RTVSPost2010Prop54
  1
strokes_ogs.tif
102
RTVSPost2010PropOp54
 70
     0
102
RTVSPost2010Prop55
280
     0
102
RTVSPost2010PropOp55
 70
     0
102
RTVSPost2010Prop56
140
1.0
102
RTVSPost2010PropOp56
 70
     0
102
RTVSPost2010Prop57
140
1.0
102
RTVSPost2010PropOp57
 70
     0
  0
XRECORD
  5
682
102
{ACAD_REACTORS
330
681
102
}
330
681
100
AcDbXrecord
280
     1
102
RTVSPropertyOp0
 70
     1
102
RTVSPropertyOp1
 70
     1
102
RTVSPropertyOp2
 70
     1
102
RTVSPropertyOp3
 70
     1
102
RTVSPropertyOp4
 70
     1
102
RTVSPropertyOp5
 70
     1
102
RTVSPropertyOp6
 70
     1
102
RTVSPropertyOp7
 70
     1
102
RTVSPropertyOp8
 70
     1
102
RTVSPropertyOp9
 70
     1
102
RTVSPropertyOp10
 70
     1
102
RTVSPropertyOp11
 70
     1
102
RTVSPropertyOp12
 70
     1
102
RTVSPropertyOp13
 70
     1
102
RTVSPropertyOp14
 70
     1
102
RTVSPropertyOp15
 70
     1
102
RTVSPropertyOp16
 70
     1
102
RTVSPropertyOp17
 70
     1
102
RTVSPropertyOp18
 70
     1
102
RTVSPropertyOp19
 70
     1
102
RTVSPropertyOp20
 70
     1
102
RTVSPropertyOp21
 70
     1
102
RTVSPropertyOp22
 70
     1
102
RTVSPropertyOp23
 70
     1
102
RTVSPropertyOp24
 70
     1
102
RTVSPropertyOp25
 70
     1
102
RTVSPropertyOp26
 70
     1
102
RTVSPropertyOp27
 70
     1
102
RTVSPropertyOp28
 70
     1
102
RTVSPropertyOp29
 70
     1
102
RTVSPropertyOp30
 70
     1
102
RTVSPropertyOp31
 70
     1
102
RTVSPropertyOp32
 70
     1
102
RTVSPropertyOp33
 70
     1
102
RTVSPropertyOp34
 70
     1
102
RTVSPropertyOp35
 70
     1
102
RTVSPropertyOp36
 70
     1
102
RTVSPropertyOp37
 70
     1
102
RTVSPropertyOp38
 70
     1
102
RTVSPropertyOp39
 70
     1
102
RTVSPropertyOp40
 70
     1
102
RTVSPropertyOp41
 70
     1
102
RTVSPropertyOp42
 70
     1
102
RTVSPropertyOp43
 70
     1
102
RTVSPropertyOp44
 70
     1
102
RTVSPropertyOp45
 70
     1
102
RTVSPropertyOp46
 70
     1
102
RTVSPropertyOp47
 70
     1
102
RTVSPropertyOp48
 70
     1
102
RTVSPropertyOp49
 70
     1
102
RTVSPropertyOp50
 70
     1
102
RTVSPropertyOp51
 70
     0
102
RTVSPropertyOp52
 70
     0
102
RTVSPropertyOp53
 70
     1
102
RTVSPropertyOp54
 70
     1
102
RTVSPropertyOp55
 70
     1
102
RTVSPropertyOp56
 70
     1
102
RTVSPropertyOp57
 70
     1
102
RTVSPost2010Prop28
280
     0
102
RTVSPost2010PropOp28
 70
     1
102
RTVSPost2010Prop29
280
     1
102
RTVSPost2010PropOp29
 70
     1
102
RTVSPost2010Prop30
280
     1
102
RTVSPost2010PropOp30
 70
     1
102
RTVSPost2010Prop31
280
     0
102
RTVSPost2010PropOp31
 70
     1
102
RTVSPost2010Prop32
280
     0
102
RTVSPost2010PropOp32
 70
     1
102
RTVSPost2010Prop33
280
     0
102
RTVSPost2010PropOp33
 70
     1
102
RTVSPost2010Prop34
280
     0
102
RTVSPost2010PropOp34
 70
     1
102
RTVSPost2010Prop35
280
     0
102
RTVSPost2010PropOp35
 70
     1
102
RTVSPost2010Prop36
280
     0
102
RTVSPost2010PropOp36
 70
     1
102
RTVSPost2010Prop37
 90
       50
102
RTVSPost2010PropOp37
 70
     1
102
RTVSPost2010Prop38
140
0.0
102
RTVSPost2010PropOp38
 70
     1
102
RTVSPost2010Prop39
140
1.0
102
RTVSPost2010PropOp39
 70
     1
102
RTVSPost2010Prop40
 90
        0
102
RTVSPost2010PropOp40
 70
     1
102
RTVSPost2010Prop41ColorIndex
 90
       18
102
RTVSPost2010Prop41ColorRGB
 90
        0
102
RTVSPost2010PropOp41
 70
     1
102
RTVSPost2010Prop42
 90
       50
102
RTVSPost2010PropOp42
 70
     1
102
RTVSPost2010Prop43
 90
        3
102
RTVSPost2010PropOp43
 70
     1
102
RTVSPost2010Prop44ColorIndex
 90
        5
102
RTVSPost2010Prop44ColorRGB
 90
      255
102
RTVSPost2010PropOp44
 70
     1
102
RTVSPost2010Prop45
280
     0
102
RTVSPost2010PropOp45
 70
     1
102
RTVSPost2010Prop46
 90
       50
102
RTVSPost2010PropOp46
 70
     1
102
RTVSPost2010Prop47
 90
       50
102
RTVSPost2010PropOp47
 70
     1
102
RTVSPost2010Prop48
 90
       50
102
RTVSPost2010PropOp48
 70
     1
102
RTVSPost2010Prop49
280
     0
102
RTVSPost2010PropOp49
 70
     1
102
RTVSPost2010Prop50
 90
       50
102
RTVSPost2010PropOp50
 70
     1
102
RTVSPost2010Prop51ColorIndex
 90
      256
102
RTVSPost2010Prop51ColorRGB
 90
-16777216
102
RTVSPost2010PropOp51
 70
     0
102
RTVSPost2010Prop52
140
1.0
102
RTVSPost2010PropOp52
 70
     0
102
RTVSPost2010Prop53
 90
        2
102
RTVSPost2010PropOp53
 70
     1
102
RTVSPost2010Prop54
  1
strokes_ogs.tif
102
RTVSPost2010PropOp54
 70
     1
102
RTVSPost2010Prop55
280
     0
102
RTVSPost2010PropOp55
 70
     1
102
RTVSPost2010Prop56
140
1.0
102
RTVSPost2010PropOp56
 70
     1
102
RTVSPost2010Prop57
140
1.0
102
RTVSPost2010PropOp57
 70
     1
  0
XRECORD
  5
68A
102
{ACAD_REACTORS
330
689
102
}
330
689
100
AcDbXrecord
280
     1
102
RTVSPropertyOp0
 70
     0
102
RTVSPropertyOp1
 70
     0
102
RTVSPropertyOp2
 70
     0
102
RTVSPropertyOp3
 70
     0
102
RTVSPropertyOp4
 70
     0
102
RTVSPropertyOp5
 70
     0
102
RTVSPropertyOp6
 70
     0
102
RTVSPropertyOp7
 70
     0
102
RTVSPropertyOp8
 70
     0
102
RTVSPropertyOp9
 70
     0
102
RTVSPropertyOp10
 70
     0
102
RTVSPropertyOp11
 70
     0
102
RTVSPropertyOp12
 70
     0
102
RTVSPropertyOp13
 70
     0
102
RTVSPropertyOp14
 70
     2
102
RTVSPropertyOp15
 70
     0
102
RTVSPropertyOp16
 70
     0
102
RTVSPropertyOp17
 70
     0
102
RTVSPropertyOp18
 70
     0
102
RTVSPropertyOp19
 70
     0
102
RTVSPropertyOp20
 70
     0
102
RTVSPropertyOp21
 70
     0
102
RTVSPropertyOp22
 70
     0
102
RTVSPropertyOp23
 70
     0
102
RTVSPropertyOp24
 70
     0
102
RTVSPropertyOp25
 70
     0
102
RTVSPropertyOp26
 70
     0
102
RTVSPropertyOp27
 70
     0
102
RTVSPropertyOp28
 70
     0
102
RTVSPropertyOp29
 70
     0
102
RTVSPropertyOp30
 70
     0
102
RTVSPropertyOp31
 70
     0
102
RTVSPropertyOp32
 70
     0
102
RTVSPropertyOp33
 70
     0
102
RTVSPropertyOp34
 70
     0
102
RTVSPropertyOp35
 70
     0
102
RTVSPropertyOp36
 70
     0
102
RTVSPropertyOp37
 70
     0
102
RTVSPropertyOp38
 70
     0
102
RTVSPropertyOp39
 70
     0
102
RTVSPropertyOp40
 70
     0
102
RTVSPropertyOp41
 70
     0
102
RTVSPropertyOp42
 70
     0
102
RTVSPropertyOp43
 70
     0
102
RTVSPropertyOp44
 70
     0
102
RTVSPropertyOp45
 70
     0
102
RTVSPropertyOp46
 70
     0
102
RTVSPropertyOp47
 70
     0
102
RTVSPropertyOp48
 70
     0
102
RTVSPropertyOp49
 70
     0
102
RTVSPropertyOp50
 70
     0
102
RTVSPropertyOp51
 70
     0
102
RTVSPropertyOp52
 70
     0
102
RTVSPropertyOp53
 70
     0
102
RTVSPropertyOp54
 70
     0
102
RTVSPropertyOp55
 70
     0
102
RTVSPropertyOp56
 70
     0
102
RTVSPropertyOp57
 70
     0
102
RTVSPost2010Prop28
280
     0
102
RTVSPost2010PropOp28
 70
     0
102
RTVSPost2010Prop29
280
     1
102
RTVSPost2010PropOp29
 70
     0
102
RTVSPost2010Prop30
280
     1
102
RTVSPost2010PropOp30
 70
     0
102
RTVSPost2010Prop31
280
     0
102
RTVSPost2010PropOp31
 70
     0
102
RTVSPost2010Prop32
280
     0
102
RTVSPost2010PropOp32
 70
     0
102
RTVSPost2010Prop33
280
     0
102
RTVSPost2010PropOp33
 70
     0
102
RTVSPost2010Prop34
280
     0
102
RTVSPost2010PropOp34
 70
     0
102
RTVSPost2010Prop35
280
     0
102
RTVSPost2010PropOp35
 70
     0
102
RTVSPost2010Prop36
280
     0
102
RTVSPost2010PropOp36
 70
     0
102
RTVSPost2010Prop37
 90
       50
102
RTVSPost2010PropOp37
 70
     0
102
RTVSPost2010Prop38
140
0.0
102
RTVSPost2010PropOp38
 70
     0
102
RTVSPost2010Prop39
140
1.0
102
RTVSPost2010PropOp39
 70
     0
102
RTVSPost2010Prop40
 90
        0
102
RTVSPost2010PropOp40
 70
     0
102
RTVSPost2010Prop41ColorIndex
 90
       18
102
RTVSPost2010Prop41ColorRGB
 90
        0
102
RTVSPost2010PropOp41
 70
     0
102
RTVSPost2010Prop42
 90
       50
102
RTVSPost2010PropOp42
 70
     0
102
RTVSPost2010Prop43
 90
        3
102
RTVSPost2010PropOp43
 70
     0
102
RTVSPost2010Prop44ColorIndex
 90
        5
102
RTVSPost2010Prop44ColorRGB
 90
      255
102
RTVSPost2010PropOp44
 70
     0
102
RTVSPost2010Prop45
280
     0
102
RTVSPost2010PropOp45
 70
     0
102
RTVSPost2010Prop46
 90
       50
102
RTVSPost2010PropOp46
 70
     0
102
RTVSPost2010Prop47
 90
       50
102
RTVSPost2010PropOp47
 70
     0
102
RTVSPost2010Prop48
 90
       50
102
RTVSPost2010PropOp48
 70
     0
102
RTVSPost2010Prop49
280
     0
102
RTVSPost2010PropOp49
 70
     0
102
RTVSPost2010Prop50
 90
       50
102
RTVSPost2010PropOp50
 70
     0
102
RTVSPost2010Prop51ColorIndex
 90
      256
102
RTVSPost2010Prop51ColorRGB
 90
-16777216
102
RTVSPost2010PropOp51
 70
     0
102
RTVSPost2010Prop52
140
1.0
102
RTVSPost2010PropOp52
 70
     0
102
RTVSPost2010Prop53
 90
        2
102
RTVSPost2010PropOp53
 70
     0
102
RTVSPost2010Prop54
  1
strokes_ogs.tif
102
RTVSPost2010PropOp54
 70
     0
102
RTVSPost2010Prop55
280
     0
102
RTVSPost2010PropOp55
 70
     0
102
RTVSPost2010Prop56
140
1.0
102
RTVSPost2010PropOp56
 70
     0
102
RTVSPost2010Prop57
140
1.0
102
RTVSPost2010PropOp57
 70
     0
  0
XRECORD
  5
678
102
{ACAD_REACTORS
330
677
102
}
330
677
100
AcDbXrecord
280
     1
102
RTVSPropertyOp0
 70
     1
102
RTVSPropertyOp1
 70
     1
102
RTVSPropertyOp2
 70
     1
102
RTVSPropertyOp3
 70
     1
102
RTVSPropertyOp4
 70
     1
102
RTVSPropertyOp5
 70
     1
102
RTVSPropertyOp6
 70
     1
102
RTVSPropertyOp7
 70
     1
102
RTVSPropertyOp8
 70
     1
102
RTVSPropertyOp9
 70
     1
102
RTVSPropertyOp10
 70
     1
102
RTVSPropertyOp11
 70
     1
102
RTVSPropertyOp12
 70
     1
102
RTVSPropertyOp13
 70
     1
102
RTVSPropertyOp14
 70
     1
102
RTVSPropertyOp15
 70
     1
102
RTVSPropertyOp16
 70
     1
102
RTVSPropertyOp17
 70
     1
102
RTVSPropertyOp18
 70
     1
102
RTVSPropertyOp19
 70
     1
102
RTVSPropertyOp20
 70
     1
102
RTVSPropertyOp21
 70
     1
102
RTVSPropertyOp22
 70
     1
102
RTVSPropertyOp23
 70
     1
102
RTVSPropertyOp24
 70
     1
102
RTVSPropertyOp25
 70
     1
102
RTVSPropertyOp26
 70
     1
102
RTVSPropertyOp27
 70
     1
102
RTVSPropertyOp28
 70
     1
102
RTVSPropertyOp29
 70
     1
102
RTVSPropertyOp30
 70
     1
102
RTVSPropertyOp31
 70
     1
102
RTVSPropertyOp32
 70
     1
102
RTVSPropertyOp33
 70
     1
102
RTVSPropertyOp34
 70
     1
102
RTVSPropertyOp35
 70
     1
102
RTVSPropertyOp36
 70
     1
102
RTVSPropertyOp37
 70
     1
102
RTVSPropertyOp38
 70
     1
102
RTVSPropertyOp39
 70
     1
102
RTVSPropertyOp40
 70
     1
102
RTVSPropertyOp41
 70
     1
102
RTVSPropertyOp42
 70
     1
102
RTVSPropertyOp43
 70
     1
102
RTVSPropertyOp44
 70
     1
102
RTVSPropertyOp45
 70
     1
102
RTVSPropertyOp46
 70
     1
102
RTVSPropertyOp47
 70
     1
102
RTVSPropertyOp48
 70
     1
102
RTVSPropertyOp49
 70
     1
102
RTVSPropertyOp50
 70
     1
102
RTVSPropertyOp51
 70
     0
102
RTVSPropertyOp52
 70
     0
102
RTVSPropertyOp53
 70
     1
102
RTVSPropertyOp54
 70
     1
102
RTVSPropertyOp55
 70
     1
102
RTVSPropertyOp56
 70
     1
102
RTVSPropertyOp57
 70
     1
102
RTVSPost2010Prop28
280
     0
102
RTVSPost2010PropOp28
 70
     1
102
RTVSPost2010Prop29
280
     1
102
RTVSPost2010PropOp29
 70
     1
102
RTVSPost2010Prop30
280
     1
102
RTVSPost2010PropOp30
 70
     1
102
RTVSPost2010Prop31
280
     0
102
RTVSPost2010PropOp31
 70
     1
102
RTVSPost2010Prop32
280
     0
102
RTVSPost2010PropOp32
 70
     1
102
RTVSPost2010Prop33
280
     0
102
RTVSPost2010PropOp33
 70
     1
102
RTVSPost2010Prop34
280
     0
102
RTVSPost2010PropOp34
 70
     1
102
RTVSPost2010Prop35
280
     0
102
RTVSPost2010PropOp35
 70
     1
102
RTVSPost2010Prop36
280
     0
102
RTVSPost2010PropOp36
 70
     1
102
RTVSPost2010Prop37
 90
       50
102
RTVSPost2010PropOp37
 70
     1
102
RTVSPost2010Prop38
140
0.0
102
RTVSPost2010PropOp38
 70
     1
102
RTVSPost2010Prop39
140
1.0
102
RTVSPost2010PropOp39
 70
     1
102
RTVSPost2010Prop40
 90
        0
102
RTVSPost2010PropOp40
 70
     1
102
RTVSPost2010Prop41ColorIndex
 90
       18
102
RTVSPost2010Prop41ColorRGB
 90
        0
102
RTVSPost2010PropOp41
 70
     1
102
RTVSPost2010Prop42
 90
       50
102
RTVSPost2010PropOp42
 70
     1
102
RTVSPost2010Prop43
 90
        3
102
RTVSPost2010PropOp43
 70
     1
102
RTVSPost2010Prop44ColorIndex
 90
        5
102
RTVSPost2010Prop44ColorRGB
 90
      255
102
RTVSPost2010PropOp44
 70
     1
102
RTVSPost2010Prop45
280
     0
102
RTVSPost2010PropOp45
 70
     1
102
RTVSPost2010Prop46
 90
       50
102
RTVSPost2010PropOp46
 70
     1
102
RTVSPost2010Prop47
 90
       50
102
RTVSPost2010PropOp47
 70
     1
102
RTVSPost2010Prop48
 90
       50
102
RTVSPost2010PropOp48
 70
     1
102
RTVSPost2010Prop49
280
     0
102
RTVSPost2010PropOp49
 70
     1
102
RTVSPost2010Prop50
 90
       50
102
RTVSPost2010PropOp50
 70
     1
102
RTVSPost2010Prop51ColorIndex
 90
      256
102
RTVSPost2010Prop51ColorRGB
 90
-16777216
102
RTVSPost2010PropOp51
 70
     0
102
RTVSPost2010Prop52
140
1.0
102
RTVSPost2010PropOp52
 70
     0
102
RTVSPost2010Prop53
 90
        2
102
RTVSPost2010PropOp53
 70
     1
102
RTVSPost2010Prop54
  1
strokes_ogs.tif
102
RTVSPost2010PropOp54
 70
     1
102
RTVSPost2010Prop55
280
     0
102
RTVSPost2010PropOp55
 70
     1
102
RTVSPost2010Prop56
140
1.0
102
RTVSPost2010PropOp56
 70
     1
102
RTVSPost2010Prop57
140
1.0
102
RTVSPost2010PropOp57
 70
     1
  0
XRECORD
  5
696
102
{ACAD_REACTORS
330
695
102
}
330
695
100
AcDbXrecord
280
     1
102
RTVSPropertyOp0
 70
     1
102
RTVSPropertyOp1
 70
     1
102
RTVSPropertyOp2
 70
     1
102
RTVSPropertyOp3
 70
     1
102
RTVSPropertyOp4
 70
     1
102
RTVSPropertyOp5
 70
     1
102
RTVSPropertyOp6
 70
     1
102
RTVSPropertyOp7
 70
     1
102
RTVSPropertyOp8
 70
     1
102
RTVSPropertyOp9
 70
     1
102
RTVSPropertyOp10
 70
     1
102
RTVSPropertyOp11
 70
     1
102
RTVSPropertyOp12
 70
     1
102
RTVSPropertyOp13
 70
     1
102
RTVSPropertyOp14
 70
     1
102
RTVSPropertyOp15
 70
     1
102
RTVSPropertyOp16
 70
     1
102
RTVSPropertyOp17
 70
     1
102
RTVSPropertyOp18
 70
     1
102
RTVSPropertyOp19
 70
     1
102
RTVSPropertyOp20
 70
     1
102
RTVSPropertyOp21
 70
     1
102
RTVSPropertyOp22
 70
     1
102
RTVSPropertyOp23
 70
     1
102
RTVSPropertyOp24
 70
     1
102
RTVSPropertyOp25
 70
     1
102
RTVSPropertyOp26
 70
     1
102
RTVSPropertyOp27
 70
     1
102
RTVSPropertyOp28
 70
     1
102
RTVSPropertyOp29
 70
     1
102
RTVSPropertyOp30
 70
     1
102
RTVSPropertyOp31
 70
     1
102
RTVSPropertyOp32
 70
     1
102
RTVSPropertyOp33
 70
     1
102
RTVSPropertyOp34
 70
     1
102
RTVSPropertyOp35
 70
     1
102
RTVSPropertyOp36
 70
     1
102
RTVSPropertyOp37
 70
     1
102
RTVSPropertyOp38
 70
     1
102
RTVSPropertyOp39
 70
     1
102
RTVSPropertyOp40
 70
     1
102
RTVSPropertyOp41
 70
     1
102
RTVSPropertyOp42
 70
     1
102
RTVSPropertyOp43
 70
     1
102
RTVSPropertyOp44
 70
     1
102
RTVSPropertyOp45
 70
     1
102
RTVSPropertyOp46
 70
     1
102
RTVSPropertyOp47
 70
     1
102
RTVSPropertyOp48
 70
     1
102
RTVSPropertyOp49
 70
     1
102
RTVSPropertyOp50
 70
     1
102
RTVSPropertyOp51
 70
     0
102
RTVSPropertyOp52
 70
     0
102
RTVSPropertyOp53
 70
     1
102
RTVSPropertyOp54
 70
     1
102
RTVSPropertyOp55
 70
     1
102
RTVSPropertyOp56
 70
     1
102
RTVSPropertyOp57
 70
     1
102
RTVSPost2010Prop28
280
     0
102
RTVSPost2010PropOp28
 70
     1
102
RTVSPost2010Prop29
280
     1
102
RTVSPost2010PropOp29
 70
     1
102
RTVSPost2010Prop30
280
     1
102
RTVSPost2010PropOp30
 70
     1
102
RTVSPost2010Prop31
280
     0
102
RTVSPost2010PropOp31
 70
     1
102
RTVSPost2010Prop32
280
     0
102
RTVSPost2010PropOp32
 70
     1
102
RTVSPost2010Prop33
280
     0
102
RTVSPost2010PropOp33
 70
     1
102
RTVSPost2010Prop34
280
     0
102
RTVSPost2010PropOp34
 70
     1
102
RTVSPost2010Prop35
280
     0
102
RTVSPost2010PropOp35
 70
     1
102
RTVSPost2010Prop36
280
     0
102
RTVSPost2010PropOp36
 70
     1
102
RTVSPost2010Prop37
 90
       50
102
RTVSPost2010PropOp37
 70
     1
102
RTVSPost2010Prop38
140
0.0
102
RTVSPost2010PropOp38
 70
     1
102
RTVSPost2010Prop39
140
1.0
102
RTVSPost2010PropOp39
 70
     1
102
RTVSPost2010Prop40
 90
        0
102
RTVSPost2010PropOp40
 70
     1
102
RTVSPost2010Prop41ColorIndex
 90
       18
102
RTVSPost2010Prop41ColorRGB
 90
        0
102
RTVSPost2010PropOp41
 70
     1
102
RTVSPost2010Prop42
 90
       50
102
RTVSPost2010PropOp42
 70
     1
102
RTVSPost2010Prop43
 90
        3
102
RTVSPost2010PropOp43
 70
     1
102
RTVSPost2010Prop44ColorIndex
 90
        5
102
RTVSPost2010Prop44ColorRGB
 90
      255
102
RTVSPost2010PropOp44
 70
     1
102
RTVSPost2010Prop45
280
     0
102
RTVSPost2010PropOp45
 70
     1
102
RTVSPost2010Prop46
 90
       50
102
RTVSPost2010PropOp46
 70
     1
102
RTVSPost2010Prop47
 90
       50
102
RTVSPost2010PropOp47
 70
     1
102
RTVSPost2010Prop48
 90
       50
102
RTVSPost2010PropOp48
 70
     1
102
RTVSPost2010Prop49
280
     0
102
RTVSPost2010PropOp49
 70
     1
102
RTVSPost2010Prop50
 90
       50
102
RTVSPost2010PropOp50
 70
     1
102
RTVSPost2010Prop51ColorIndex
 90
      256
102
RTVSPost2010Prop51ColorRGB
 90
-16777216
102
RTVSPost2010PropOp51
 70
     0
102
RTVSPost2010Prop52
140
1.0
102
RTVSPost2010PropOp52
 70
     0
102
RTVSPost2010Prop53
 90
        2
102
RTVSPost2010PropOp53
 70
     1
102
RTVSPost2010Prop54
  1
strokes_ogs.tif
102
RTVSPost2010PropOp54
 70
     1
102
RTVSPost2010Prop55
280
     0
102
RTVSPost2010PropOp55
 70
     1
102
RTVSPost2010Prop56
140
1.0
102
RTVSPost2010PropOp56
 70
     1
102
RTVSPost2010Prop57
140
1.0
102
RTVSPost2010PropOp57
 70
     1
  0
XRECORD
  5
694
102
{ACAD_REACTORS
330
693
102
}
330
693
100
AcDbXrecord
280
     1
102
RTVSPropertyOp0
 70
     1
102
RTVSPropertyOp1
 70
     1
102
RTVSPropertyOp2
 70
     1
102
RTVSPropertyOp3
 70
     1
102
RTVSPropertyOp4
 70
     1
102
RTVSPropertyOp5
 70
     1
102
RTVSPropertyOp6
 70
     1
102
RTVSPropertyOp7
 70
     1
102
RTVSPropertyOp8
 70
     1
102
RTVSPropertyOp9
 70
     1
102
RTVSPropertyOp10
 70
     1
102
RTVSPropertyOp11
 70
     1
102
RTVSPropertyOp12
 70
     1
102
RTVSPropertyOp13
 70
     1
102
RTVSPropertyOp14
 70
     1
102
RTVSPropertyOp15
 70
     1
102
RTVSPropertyOp16
 70
     1
102
RTVSPropertyOp17
 70
     1
102
RTVSPropertyOp18
 70
     1
102
RTVSPropertyOp19
 70
     1
102
RTVSPropertyOp20
 70
     1
102
RTVSPropertyOp21
 70
     1
102
RTVSPropertyOp22
 70
     1
102
RTVSPropertyOp23
 70
     1
102
RTVSPropertyOp24
 70
     1
102
RTVSPropertyOp25
 70
     1
102
RTVSPropertyOp26
 70
     1
102
RTVSPropertyOp27
 70
     1
102
RTVSPropertyOp28
 70
     1
102
RTVSPropertyOp29
 70
     1
102
RTVSPropertyOp30
 70
     1
102
RTVSPropertyOp31
 70
     1
102
RTVSPropertyOp32
 70
     1
102
RTVSPropertyOp33
 70
     1
102
RTVSPropertyOp34
 70
     1
102
RTVSPropertyOp35
 70
     1
102
RTVSPropertyOp36
 70
     1
102
RTVSPropertyOp37
 70
     1
102
RTVSPropertyOp38
 70
     1
102
RTVSPropertyOp39
 70
     1
102
RTVSPropertyOp40
 70
     1
102
RTVSPropertyOp41
 70
     1
102
RTVSPropertyOp42
 70
     1
102
RTVSPropertyOp43
 70
     1
102
RTVSPropertyOp44
 70
     1
102
RTVSPropertyOp45
 70
     1
102
RTVSPropertyOp46
 70
     1
102
RTVSPropertyOp47
 70
     1
102
RTVSPropertyOp48
 70
     1
102
RTVSPropertyOp49
 70
     1
102
RTVSPropertyOp50
 70
     1
102
RTVSPropertyOp51
 70
     0
102
RTVSPropertyOp52
 70
     0
102
RTVSPropertyOp53
 70
     1
102
RTVSPropertyOp54
 70
     1
102
RTVSPropertyOp55
 70
     1
102
RTVSPropertyOp56
 70
     1
102
RTVSPropertyOp57
 70
     1
102
RTVSPost2010Prop28
280
     0
102
RTVSPost2010PropOp28
 70
     1
102
RTVSPost2010Prop29
280
     1
102
RTVSPost2010PropOp29
 70
     1
102
RTVSPost2010Prop30
280
     1
102
RTVSPost2010PropOp30
 70
     1
102
RTVSPost2010Prop31
280
     0
102
RTVSPost2010PropOp31
 70
     1
102
RTVSPost2010Prop32
280
     0
102
RTVSPost2010PropOp32
 70
     1
102
RTVSPost2010Prop33
280
     0
102
RTVSPost2010PropOp33
 70
     1
102
RTVSPost2010Prop34
280
     0
102
RTVSPost2010PropOp34
 70
     1
102
RTVSPost2010Prop35
280
     0
102
RTVSPost2010PropOp35
 70
     1
102
RTVSPost2010Prop36
280
     0
102
RTVSPost2010PropOp36
 70
     1
102
RTVSPost2010Prop37
 90
       50
102
RTVSPost2010PropOp37
 70
     1
102
RTVSPost2010Prop38
140
0.0
102
RTVSPost2010PropOp38
 70
     1
102
RTVSPost2010Prop39
140
1.0
102
RTVSPost2010PropOp39
 70
     1
102
RTVSPost2010Prop40
 90
        0
102
RTVSPost2010PropOp40
 70
     1
102
RTVSPost2010Prop41ColorIndex
 90
       18
102
RTVSPost2010Prop41ColorRGB
 90
        0
102
RTVSPost2010PropOp41
 70
     1
102
RTVSPost2010Prop42
 90
       50
102
RTVSPost2010PropOp42
 70
     1
102
RTVSPost2010Prop43
 90
        3
102
RTVSPost2010PropOp43
 70
     1
102
RTVSPost2010Prop44ColorIndex
 90
        5
102
RTVSPost2010Prop44ColorRGB
 90
      255
102
RTVSPost2010PropOp44
 70
     1
102
RTVSPost2010Prop45
280
     0
102
RTVSPost2010PropOp45
 70
     1
102
RTVSPost2010Prop46
 90
       50
102
RTVSPost2010PropOp46
 70
     1
102
RTVSPost2010Prop47
 90
       50
102
RTVSPost2010PropOp47
 70
     1
102
RTVSPost2010Prop48
 90
       50
102
RTVSPost2010PropOp48
 70
     1
102
RTVSPost2010Prop49
280
     0
102
RTVSPost2010PropOp49
 70
     1
102
RTVSPost2010Prop50
 90
       50
102
RTVSPost2010PropOp50
 70
     1
102
RTVSPost2010Prop51ColorIndex
 90
      256
102
RTVSPost2010Prop51ColorRGB
 90
-16777216
102
RTVSPost2010PropOp51
 70
     0
102
RTVSPost2010Prop52
140
1.0
102
RTVSPost2010PropOp52
 70
     0
102
RTVSPost2010Prop53
 90
        2
102
RTVSPost2010PropOp53
 70
     1
102
RTVSPost2010Prop54
  1
strokes_ogs.tif
102
RTVSPost2010PropOp54
 70
     1
102
RTVSPost2010Prop55
280
     0
102
RTVSPost2010PropOp55
 70
     1
102
RTVSPost2010Prop56
140
1.0
102
RTVSPost2010PropOp56
 70
     1
102
RTVSPost2010Prop57
140
1.0
102
RTVSPost2010PropOp57
 70
     1
  0
XRECORD
  5
68E
102
{ACAD_REACTORS
330
68D
102
}
330
68D
100
AcDbXrecord
280
     1
102
RTVSPropertyOp0
 70
     1
102
RTVSPropertyOp1
 70
     1
102
RTVSPropertyOp2
 70
     1
102
RTVSPropertyOp3
 70
     1
102
RTVSPropertyOp4
 70
     1
102
RTVSPropertyOp5
 70
     1
102
RTVSPropertyOp6
 70
     1
102
RTVSPropertyOp7
 70
     1
102
RTVSPropertyOp8
 70
     1
102
RTVSPropertyOp9
 70
     1
102
RTVSPropertyOp10
 70
     1
102
RTVSPropertyOp11
 70
     1
102
RTVSPropertyOp12
 70
     1
102
RTVSPropertyOp13
 70
     1
102
RTVSPropertyOp14
 70
     1
102
RTVSPropertyOp15
 70
     1
102
RTVSPropertyOp16
 70
     1
102
RTVSPropertyOp17
 70
     1
102
RTVSPropertyOp18
 70
     1
102
RTVSPropertyOp19
 70
     1
102
RTVSPropertyOp20
 70
     1
102
RTVSPropertyOp21
 70
     1
102
RTVSPropertyOp22
 70
     1
102
RTVSPropertyOp23
 70
     1
102
RTVSPropertyOp24
 70
     1
102
RTVSPropertyOp25
 70
     1
102
RTVSPropertyOp26
 70
     1
102
RTVSPropertyOp27
 70
     1
102
RTVSPropertyOp28
 70
     1
102
RTVSPropertyOp29
 70
     1
102
RTVSPropertyOp30
 70
     1
102
RTVSPropertyOp31
 70
     1
102
RTVSPropertyOp32
 70
     1
102
RTVSPropertyOp33
 70
     1
102
RTVSPropertyOp34
 70
     1
102
RTVSPropertyOp35
 70
     1
102
RTVSPropertyOp36
 70
     1
102
RTVSPropertyOp37
 70
     1
102
RTVSPropertyOp38
 70
     1
102
RTVSPropertyOp39
 70
     1
102
RTVSPropertyOp40
 70
     1
102
RTVSPropertyOp41
 70
     1
102
RTVSPropertyOp42
 70
     1
102
RTVSPropertyOp43
 70
     1
102
RTVSPropertyOp44
 70
     1
102
RTVSPropertyOp45
 70
     1
102
RTVSPropertyOp46
 70
     1
102
RTVSPropertyOp47
 70
     1
102
RTVSPropertyOp48
 70
     1
102
RTVSPropertyOp49
 70
     1
102
RTVSPropertyOp50
 70
     1
102
RTVSPropertyOp51
 70
     0
102
RTVSPropertyOp52
 70
     0
102
RTVSPropertyOp53
 70
     1
102
RTVSPropertyOp54
 70
     1
102
RTVSPropertyOp55
 70
     1
102
RTVSPropertyOp56
 70
     1
102
RTVSPropertyOp57
 70
     1
102
RTVSPost2010Prop28
280
     0
102
RTVSPost2010PropOp28
 70
     1
102
RTVSPost2010Prop29
280
     1
102
RTVSPost2010PropOp29
 70
     1
102
RTVSPost2010Prop30
280
     1
102
RTVSPost2010PropOp30
 70
     1
102
RTVSPost2010Prop31
280
     0
102
RTVSPost2010PropOp31
 70
     1
102
RTVSPost2010Prop32
280
     0
102
RTVSPost2010PropOp32
 70
     1
102
RTVSPost2010Prop33
280
     0
102
RTVSPost2010PropOp33
 70
     1
102
RTVSPost2010Prop34
280
     0
102
RTVSPost2010PropOp34
 70
     1
102
RTVSPost2010Prop35
280
     0
102
RTVSPost2010PropOp35
 70
     1
102
RTVSPost2010Prop36
280
     0
102
RTVSPost2010PropOp36
 70
     1
102
RTVSPost2010Prop37
 90
       50
102
RTVSPost2010PropOp37
 70
     1
102
RTVSPost2010Prop38
140
0.0
102
RTVSPost2010PropOp38
 70
     1
102
RTVSPost2010Prop39
140
1.0
102
RTVSPost2010PropOp39
 70
     1
102
RTVSPost2010Prop40
 90
        0
102
RTVSPost2010PropOp40
 70
     1
102
RTVSPost2010Prop41ColorIndex
 90
       18
102
RTVSPost2010Prop41ColorRGB
 90
        0
102
RTVSPost2010PropOp41
 70
     1
102
RTVSPost2010Prop42
 90
       50
102
RTVSPost2010PropOp42
 70
     1
102
RTVSPost2010Prop43
 90
        3
102
RTVSPost2010PropOp43
 70
     1
102
RTVSPost2010Prop44ColorIndex
 90
        5
102
RTVSPost2010Prop44ColorRGB
 90
      255
102
RTVSPost2010PropOp44
 70
     1
102
RTVSPost2010Prop45
280
     0
102
RTVSPost2010PropOp45
 70
     1
102
RTVSPost2010Prop46
 90
       50
102
RTVSPost2010PropOp46
 70
     1
102
RTVSPost2010Prop47
 90
       50
102
RTVSPost2010PropOp47
 70
     1
102
RTVSPost2010Prop48
 90
       50
102
RTVSPost2010PropOp48
 70
     1
102
RTVSPost2010Prop49
280
     0
102
RTVSPost2010PropOp49
 70
     1
102
RTVSPost2010Prop50
 90
       50
102
RTVSPost2010PropOp50
 70
     1
102
RTVSPost2010Prop51ColorIndex
 90
      256
102
RTVSPost2010Prop51ColorRGB
 90
-16777216
102
RTVSPost2010PropOp51
 70
     0
102
RTVSPost2010Prop52
140
1.0
102
RTVSPost2010PropOp52
 70
     0
102
RTVSPost2010Prop53
 90
        2
102
RTVSPost2010PropOp53
 70
     1
102
RTVSPost2010Prop54
  1
strokes_ogs.tif
102
RTVSPost2010PropOp54
 70
     1
102
RTVSPost2010Prop55
280
     0
102
RTVSPost2010PropOp55
 70
     1
102
RTVSPost2010Prop56
140
1.0
102
RTVSPost2010PropOp56
 70
     1
102
RTVSPost2010Prop57
140
1.0
102
RTVSPost2010PropOp57
 70
     1
  0
XRECORD
  5
690
102
{ACAD_REACTORS
330
68F
102
}
330
68F
100
AcDbXrecord
280
     1
102
RTVSPropertyOp0
 70
     1
102
RTVSPropertyOp1
 70
     1
102
RTVSPropertyOp2
 70
     1
102
RTVSPropertyOp3
 70
     1
102
RTVSPropertyOp4
 70
     1
102
RTVSPropertyOp5
 70
     1
102
RTVSPropertyOp6
 70
     1
102
RTVSPropertyOp7
 70
     1
102
RTVSPropertyOp8
 70
     1
102
RTVSPropertyOp9
 70
     1
102
RTVSPropertyOp10
 70
     1
102
RTVSPropertyOp11
 70
     1
102
RTVSPropertyOp12
 70
     1
102
RTVSPropertyOp13
 70
     1
102
RTVSPropertyOp14
 70
     1
102
RTVSPropertyOp15
 70
     1
102
RTVSPropertyOp16
 70
     1
102
RTVSPropertyOp17
 70
     1
102
RTVSPropertyOp18
 70
     1
102
RTVSPropertyOp19
 70
     1
102
RTVSPropertyOp20
 70
     1
102
RTVSPropertyOp21
 70
     1
102
RTVSPropertyOp22
 70
     1
102
RTVSPropertyOp23
 70
     1
102
RTVSPropertyOp24
 70
     1
102
RTVSPropertyOp25
 70
     1
102
RTVSPropertyOp26
 70
     1
102
RTVSPropertyOp27
 70
     1
102
RTVSPropertyOp28
 70
     1
102
RTVSPropertyOp29
 70
     1
102
RTVSPropertyOp30
 70
     1
102
RTVSPropertyOp31
 70
     1
102
RTVSPropertyOp32
 70
     1
102
RTVSPropertyOp33
 70
     1
102
RTVSPropertyOp34
 70
     1
102
RTVSPropertyOp35
 70
     1
102
RTVSPropertyOp36
 70
     1
102
RTVSPropertyOp37
 70
     1
102
RTVSPropertyOp38
 70
     1
102
RTVSPropertyOp39
 70
     1
102
RTVSPropertyOp40
 70
     1
102
RTVSPropertyOp41
 70
     1
102
RTVSPropertyOp42
 70
     1
102
RTVSPropertyOp43
 70
     1
102
RTVSPropertyOp44
 70
     1
102
RTVSPropertyOp45
 70
     1
102
RTVSPropertyOp46
 70
     1
102
RTVSPropertyOp47
 70
     1
102
RTVSPropertyOp48
 70
     1
102
RTVSPropertyOp49
 70
     1
102
RTVSPropertyOp50
 70
     1
102
RTVSPropertyOp51
 70
     0
102
RTVSPropertyOp52
 70
     0
102
RTVSPropertyOp53
 70
     1
102
RTVSPropertyOp54
 70
     1
102
RTVSPropertyOp55
 70
     1
102
RTVSPropertyOp56
 70
     1
102
RTVSPropertyOp57
 70
     1
102
RTVSPost2010Prop28
280
     0
102
RTVSPost2010PropOp28
 70
     1
102
RTVSPost2010Prop29
280
     1
102
RTVSPost2010PropOp29
 70
     1
102
RTVSPost2010Prop30
280
     1
102
RTVSPost2010PropOp30
 70
     1
102
RTVSPost2010Prop31
280
     0
102
RTVSPost2010PropOp31
 70
     1
102
RTVSPost2010Prop32
280
     0
102
RTVSPost2010PropOp32
 70
     1
102
RTVSPost2010Prop33
280
     0
102
RTVSPost2010PropOp33
 70
     1
102
RTVSPost2010Prop34
280
     0
102
RTVSPost2010PropOp34
 70
     1
102
RTVSPost2010Prop35
280
     0
102
RTVSPost2010PropOp35
 70
     1
102
RTVSPost2010Prop36
280
     0
102
RTVSPost2010PropOp36
 70
     1
102
RTVSPost2010Prop37
 90
       50
102
RTVSPost2010PropOp37
 70
     1
102
RTVSPost2010Prop38
140
0.0
102
RTVSPost2010PropOp38
 70
     1
102
RTVSPost2010Prop39
140
1.0
102
RTVSPost2010PropOp39
 70
     1
102
RTVSPost2010Prop40
 90
        0
102
RTVSPost2010PropOp40
 70
     1
102
RTVSPost2010Prop41ColorIndex
 90
       18
102
RTVSPost2010Prop41ColorRGB
 90
        0
102
RTVSPost2010PropOp41
 70
     1
102
RTVSPost2010Prop42
 90
       50
102
RTVSPost2010PropOp42
 70
     1
102
RTVSPost2010Prop43
 90
        3
102
RTVSPost2010PropOp43
 70
     1
102
RTVSPost2010Prop44ColorIndex
 90
        5
102
RTVSPost2010Prop44ColorRGB
 90
      255
102
RTVSPost2010PropOp44
 70
     1
102
RTVSPost2010Prop45
280
     0
102
RTVSPost2010PropOp45
 70
     1
102
RTVSPost2010Prop46
 90
       50
102
RTVSPost2010PropOp46
 70
     1
102
RTVSPost2010Prop47
 90
       50
102
RTVSPost2010PropOp47
 70
     1
102
RTVSPost2010Prop48
 90
       50
102
RTVSPost2010PropOp48
 70
     1
102
RTVSPost2010Prop49
280
     0
102
RTVSPost2010PropOp49
 70
     1
102
RTVSPost2010Prop50
 90
       50
102
RTVSPost2010PropOp50
 70
     1
102
RTVSPost2010Prop51ColorIndex
 90
      256
102
RTVSPost2010Prop51ColorRGB
 90
-16777216
102
RTVSPost2010PropOp51
 70
     0
102
RTVSPost2010Prop52
140
1.0
102
RTVSPost2010PropOp52
 70
     0
102
RTVSPost2010Prop53
 90
        2
102
RTVSPost2010PropOp53
 70
     1
102
RTVSPost2010Prop54
  1
strokes_ogs.tif
102
RTVSPost2010PropOp54
 70
     1
102
RTVSPost2010Prop55
280
     0
102
RTVSPost2010PropOp55
 70
     1
102
RTVSPost2010Prop56
140
1.0
102
RTVSPost2010PropOp56
 70
     1
102
RTVSPost2010Prop57
140
1.0
102
RTVSPost2010PropOp57
 70
     1
  0
XRECORD
  5
680
102
{ACAD_REACTORS
330
67F
102
}
330
67F
100
AcDbXrecord
280
     1
102
RTVSPropertyOp0
 70
     1
102
RTVSPropertyOp1
 70
     1
102
RTVSPropertyOp2
 70
     1
102
RTVSPropertyOp3
 70
     1
102
RTVSPropertyOp4
 70
     1
102
RTVSPropertyOp5
 70
     1
102
RTVSPropertyOp6
 70
     1
102
RTVSPropertyOp7
 70
     1
102
RTVSPropertyOp8
 70
     1
102
RTVSPropertyOp9
 70
     1
102
RTVSPropertyOp10
 70
     1
102
RTVSPropertyOp11
 70
     1
102
RTVSPropertyOp12
 70
     1
102
RTVSPropertyOp13
 70
     1
102
RTVSPropertyOp14
 70
     1
102
RTVSPropertyOp15
 70
     1
102
RTVSPropertyOp16
 70
     1
102
RTVSPropertyOp17
 70
     1
102
RTVSPropertyOp18
 70
     1
102
RTVSPropertyOp19
 70
     1
102
RTVSPropertyOp20
 70
     1
102
RTVSPropertyOp21
 70
     1
102
RTVSPropertyOp22
 70
     1
102
RTVSPropertyOp23
 70
     1
102
RTVSPropertyOp24
 70
     1
102
RTVSPropertyOp25
 70
     1
102
RTVSPropertyOp26
 70
     1
102
RTVSPropertyOp27
 70
     1
102
RTVSPropertyOp28
 70
     1
102
RTVSPropertyOp29
 70
     1
102
RTVSPropertyOp30
 70
     1
102
RTVSPropertyOp31
 70
     1
102
RTVSPropertyOp32
 70
     1
102
RTVSPropertyOp33
 70
     1
102
RTVSPropertyOp34
 70
     1
102
RTVSPropertyOp35
 70
     1
102
RTVSPropertyOp36
 70
     1
102
RTVSPropertyOp37
 70
     1
102
RTVSPropertyOp38
 70
     1
102
RTVSPropertyOp39
 70
     1
102
RTVSPropertyOp40
 70
     1
102
RTVSPropertyOp41
 70
     1
102
RTVSPropertyOp42
 70
     1
102
RTVSPropertyOp43
 70
     1
102
RTVSPropertyOp44
 70
     1
102
RTVSPropertyOp45
 70
     1
102
RTVSPropertyOp46
 70
     1
102
RTVSPropertyOp47
 70
     1
102
RTVSPropertyOp48
 70
     1
102
RTVSPropertyOp49
 70
     1
102
RTVSPropertyOp50
 70
     1
102
RTVSPropertyOp51
 70
     0
102
RTVSPropertyOp52
 70
     0
102
RTVSPropertyOp53
 70
     1
102
RTVSPropertyOp54
 70
     1
102
RTVSPropertyOp55
 70
     1
102
RTVSPropertyOp56
 70
     1
102
RTVSPropertyOp57
 70
     1
102
RTVSPost2010Prop28
280
     0
102
RTVSPost2010PropOp28
 70
     1
102
RTVSPost2010Prop29
280
     1
102
RTVSPost2010PropOp29
 70
     1
102
RTVSPost2010Prop30
280
     1
102
RTVSPost2010PropOp30
 70
     1
102
RTVSPost2010Prop31
280
     0
102
RTVSPost2010PropOp31
 70
     1
102
RTVSPost2010Prop32
280
     0
102
RTVSPost2010PropOp32
 70
     1
102
RTVSPost2010Prop33
280
     0
102
RTVSPost2010PropOp33
 70
     1
102
RTVSPost2010Prop34
280
     0
102
RTVSPost2010PropOp34
 70
     1
102
RTVSPost2010Prop35
280
     0
102
RTVSPost2010PropOp35
 70
     1
102
RTVSPost2010Prop36
280
     0
102
RTVSPost2010PropOp36
 70
     1
102
RTVSPost2010Prop37
 90
       50
102
RTVSPost2010PropOp37
 70
     1
102
RTVSPost2010Prop38
140
0.0
102
RTVSPost2010PropOp38
 70
     1
102
RTVSPost2010Prop39
140
1.0
102
RTVSPost2010PropOp39
 70
     1
102
RTVSPost2010Prop40
 90
        0
102
RTVSPost2010PropOp40
 70
     1
102
RTVSPost2010Prop41ColorIndex
 90
       18
102
RTVSPost2010Prop41ColorRGB
 90
        0
102
RTVSPost2010PropOp41
 70
     1
102
RTVSPost2010Prop42
 90
       50
102
RTVSPost2010PropOp42
 70
     1
102
RTVSPost2010Prop43
 90
        3
102
RTVSPost2010PropOp43
 70
     1
102
RTVSPost2010Prop44ColorIndex
 90
        5
102
RTVSPost2010Prop44ColorRGB
 90
      255
102
RTVSPost2010PropOp44
 70
     1
102
RTVSPost2010Prop45
280
     0
102
RTVSPost2010PropOp45
 70
     1
102
RTVSPost2010Prop46
 90
       50
102
RTVSPost2010PropOp46
 70
     1
102
RTVSPost2010Prop47
 90
       50
102
RTVSPost2010PropOp47
 70
     1
102
RTVSPost2010Prop48
 90
       50
102
RTVSPost2010PropOp48
 70
     1
102
RTVSPost2010Prop49
280
     0
102
RTVSPost2010PropOp49
 70
     1
102
RTVSPost2010Prop50
 90
       50
102
RTVSPost2010PropOp50
 70
     1
102
RTVSPost2010Prop51ColorIndex
 90
      256
102
RTVSPost2010Prop51ColorRGB
 90
-16777216
102
RTVSPost2010PropOp51
 70
     0
102
RTVSPost2010Prop52
140
1.0
102
RTVSPost2010PropOp52
 70
     0
102
RTVSPost2010Prop53
 90
        2
102
RTVSPost2010PropOp53
 70
     1
102
RTVSPost2010Prop54
  1
strokes_ogs.tif
102
RTVSPost2010PropOp54
 70
     1
102
RTVSPost2010Prop55
280
     0
102
RTVSPost2010PropOp55
 70
     1
102
RTVSPost2010Prop56
140
1.0
102
RTVSPost2010PropOp56
 70
     1
102
RTVSPost2010Prop57
140
1.0
102
RTVSPost2010PropOp57
 70
     1
  0
XRECORD
  5
672
102
{ACAD_REACTORS
330
671
102
}
330
671
100
AcDbXrecord
280
     1
102
RTVSPropertyOp0
 70
     1
102
RTVSPropertyOp1
 70
     1
102
RTVSPropertyOp2
 70
     1
102
RTVSPropertyOp3
 70
     1
102
RTVSPropertyOp4
 70
     1
102
RTVSPropertyOp5
 70
     1
102
RTVSPropertyOp6
 70
     1
102
RTVSPropertyOp7
 70
     1
102
RTVSPropertyOp8
 70
     1
102
RTVSPropertyOp9
 70
     1
102
RTVSPropertyOp10
 70
     1
102
RTVSPropertyOp11
 70
     1
102
RTVSPropertyOp12
 70
     1
102
RTVSPropertyOp13
 70
     1
102
RTVSPropertyOp14
 70
     1
102
RTVSPropertyOp15
 70
     1
102
RTVSPropertyOp16
 70
     1
102
RTVSPropertyOp17
 70
     1
102
RTVSPropertyOp18
 70
     1
102
RTVSPropertyOp19
 70
     1
102
RTVSPropertyOp20
 70
     1
102
RTVSPropertyOp21
 70
     1
102
RTVSPropertyOp22
 70
     1
102
RTVSPropertyOp23
 70
     1
102
RTVSPropertyOp24
 70
     1
102
RTVSPropertyOp25
 70
     1
102
RTVSPropertyOp26
 70
     1
102
RTVSPropertyOp27
 70
     1
102
RTVSPropertyOp28
 70
     1
102
RTVSPropertyOp29
 70
     1
102
RTVSPropertyOp30
 70
     1
102
RTVSPropertyOp31
 70
     1
102
RTVSPropertyOp32
 70
     1
102
RTVSPropertyOp33
 70
     1
102
RTVSPropertyOp34
 70
     1
102
RTVSPropertyOp35
 70
     1
102
RTVSPropertyOp36
 70
     1
102
RTVSPropertyOp37
 70
     1
102
RTVSPropertyOp38
 70
     1
102
RTVSPropertyOp39
 70
     1
102
RTVSPropertyOp40
 70
     1
102
RTVSPropertyOp41
 70
     1
102
RTVSPropertyOp42
 70
     1
102
RTVSPropertyOp43
 70
     1
102
RTVSPropertyOp44
 70
     1
102
RTVSPropertyOp45
 70
     1
102
RTVSPropertyOp46
 70
     1
102
RTVSPropertyOp47
 70
     1
102
RTVSPropertyOp48
 70
     1
102
RTVSPropertyOp49
 70
     1
102
RTVSPropertyOp50
 70
     1
102
RTVSPropertyOp51
 70
     0
102
RTVSPropertyOp52
 70
     0
102
RTVSPropertyOp53
 70
     1
102
RTVSPropertyOp54
 70
     1
102
RTVSPropertyOp55
 70
     1
102
RTVSPropertyOp56
 70
     1
102
RTVSPropertyOp57
 70
     1
102
RTVSPost2010Prop28
280
     0
102
RTVSPost2010PropOp28
 70
     1
102
RTVSPost2010Prop29
280
     1
102
RTVSPost2010PropOp29
 70
     1
102
RTVSPost2010Prop30
280
     1
102
RTVSPost2010PropOp30
 70
     1
102
RTVSPost2010Prop31
280
     0
102
RTVSPost2010PropOp31
 70
     1
102
RTVSPost2010Prop32
280
     0
102
RTVSPost2010PropOp32
 70
     1
102
RTVSPost2010Prop33
280
     0
102
RTVSPost2010PropOp33
 70
     1
102
RTVSPost2010Prop34
280
     0
102
RTVSPost2010PropOp34
 70
     1
102
RTVSPost2010Prop35
280
     0
102
RTVSPost2010PropOp35
 70
     1
102
RTVSPost2010Prop36
280
     0
102
RTVSPost2010PropOp36
 70
     1
102
RTVSPost2010Prop37
 90
       50
102
RTVSPost2010PropOp37
 70
     1
102
RTVSPost2010Prop38
140
0.0
102
RTVSPost2010PropOp38
 70
     1
102
RTVSPost2010Prop39
140
1.0
102
RTVSPost2010PropOp39
 70
     1
102
RTVSPost2010Prop40
 90
        0
102
RTVSPost2010PropOp40
 70
     1
102
RTVSPost2010Prop41ColorIndex
 90
       18
102
RTVSPost2010Prop41ColorRGB
 90
        0
102
RTVSPost2010PropOp41
 70
     1
102
RTVSPost2010Prop42
 90
       50
102
RTVSPost2010PropOp42
 70
     1
102
RTVSPost2010Prop43
 90
        3
102
RTVSPost2010PropOp43
 70
     1
102
RTVSPost2010Prop44ColorIndex
 90
        5
102
RTVSPost2010Prop44ColorRGB
 90
      255
102
RTVSPost2010PropOp44
 70
     1
102
RTVSPost2010Prop45
280
     0
102
RTVSPost2010PropOp45
 70
     1
102
RTVSPost2010Prop46
 90
       50
102
RTVSPost2010PropOp46
 70
     1
102
RTVSPost2010Prop47
 90
       50
102
RTVSPost2010PropOp47
 70
     1
102
RTVSPost2010Prop48
 90
       50
102
RTVSPost2010PropOp48
 70
     1
102
RTVSPost2010Prop49
280
     0
102
RTVSPost2010PropOp49
 70
     1
102
RTVSPost2010Prop50
 90
       50
102
RTVSPost2010PropOp50
 70
     1
102
RTVSPost2010Prop51ColorIndex
 90
      256
102
RTVSPost2010Prop51ColorRGB
 90
-16777216
102
RTVSPost2010PropOp51
 70
     0
102
RTVSPost2010Prop52
140
1.0
102
RTVSPost2010PropOp52
 70
     0
102
RTVSPost2010Prop53
 90
        2
102
RTVSPost2010PropOp53
 70
     1
102
RTVSPost2010Prop54
  1
strokes_ogs.tif
102
RTVSPost2010PropOp54
 70
     1
102
RTVSPost2010Prop55
280
     0
102
RTVSPost2010PropOp55
 70
     1
102
RTVSPost2010Prop56
140
1.0
102
RTVSPost2010PropOp56
 70
     1
102
RTVSPost2010Prop57
140
1.0
102
RTVSPost2010PropOp57
 70
     1
  0
XRECORD
  5
692
102
{ACAD_REACTORS
330
691
102
}
330
691
100
AcDbXrecord
280
     1
102
RTVSPropertyOp0
 70
     1
102
RTVSPropertyOp1
 70
     1
102
RTVSPropertyOp2
 70
     1
102
RTVSPropertyOp3
 70
     1
102
RTVSPropertyOp4
 70
     1
102
RTVSPropertyOp5
 70
     1
102
RTVSPropertyOp6
 70
     1
102
RTVSPropertyOp7
 70
     1
102
RTVSPropertyOp8
 70
     1
102
RTVSPropertyOp9
 70
     1
102
RTVSPropertyOp10
 70
     1
102
RTVSPropertyOp11
 70
     1
102
RTVSPropertyOp12
 70
     1
102
RTVSPropertyOp13
 70
     1
102
RTVSPropertyOp14
 70
     1
102
RTVSPropertyOp15
 70
     1
102
RTVSPropertyOp16
 70
     1
102
RTVSPropertyOp17
 70
     1
102
RTVSPropertyOp18
 70
     1
102
RTVSPropertyOp19
 70
     1
102
RTVSPropertyOp20
 70
     1
102
RTVSPropertyOp21
 70
     1
102
RTVSPropertyOp22
 70
     1
102
RTVSPropertyOp23
 70
     1
102
RTVSPropertyOp24
 70
     1
102
RTVSPropertyOp25
 70
     1
102
RTVSPropertyOp26
 70
     1
102
RTVSPropertyOp27
 70
     1
102
RTVSPropertyOp28
 70
     1
102
RTVSPropertyOp29
 70
     1
102
RTVSPropertyOp30
 70
     1
102
RTVSPropertyOp31
 70
     1
102
RTVSPropertyOp32
 70
     1
102
RTVSPropertyOp33
 70
     1
102
RTVSPropertyOp34
 70
     1
102
RTVSPropertyOp35
 70
     1
102
RTVSPropertyOp36
 70
     1
102
RTVSPropertyOp37
 70
     1
102
RTVSPropertyOp38
 70
     1
102
RTVSPropertyOp39
 70
     1
102
RTVSPropertyOp40
 70
     1
102
RTVSPropertyOp41
 70
     1
102
RTVSPropertyOp42
 70
     1
102
RTVSPropertyOp43
 70
     1
102
RTVSPropertyOp44
 70
     1
102
RTVSPropertyOp45
 70
     1
102
RTVSPropertyOp46
 70
     1
102
RTVSPropertyOp47
 70
     1
102
RTVSPropertyOp48
 70
     1
102
RTVSPropertyOp49
 70
     1
102
RTVSPropertyOp50
 70
     1
102
RTVSPropertyOp51
 70
     0
102
RTVSPropertyOp52
 70
     0
102
RTVSPropertyOp53
 70
     1
102
RTVSPropertyOp54
 70
     1
102
RTVSPropertyOp55
 70
     1
102
RTVSPropertyOp56
 70
     1
102
RTVSPropertyOp57
 70
     1
102
RTVSPost2010Prop28
280
     0
102
RTVSPost2010PropOp28
 70
     1
102
RTVSPost2010Prop29
280
     1
102
RTVSPost2010PropOp29
 70
     1
102
RTVSPost2010Prop30
280
     1
102
RTVSPost2010PropOp30
 70
     1
102
RTVSPost2010Prop31
280
     0
102
RTVSPost2010PropOp31
 70
     1
102
RTVSPost2010Prop32
280
     0
102
RTVSPost2010PropOp32
 70
     1
102
RTVSPost2010Prop33
280
     0
102
RTVSPost2010PropOp33
 70
     1
102
RTVSPost2010Prop34
280
     0
102
RTVSPost2010PropOp34
 70
     1
102
RTVSPost2010Prop35
280
     0
102
RTVSPost2010PropOp35
 70
     1
102
RTVSPost2010Prop36
280
     0
102
RTVSPost2010PropOp36
 70
     1
102
RTVSPost2010Prop37
 90
       50
102
RTVSPost2010PropOp37
 70
     1
102
RTVSPost2010Prop38
140
0.0
102
RTVSPost2010PropOp38
 70
     1
102
RTVSPost2010Prop39
140
1.0
102
RTVSPost2010PropOp39
 70
     1
102
RTVSPost2010Prop40
 90
        0
102
RTVSPost2010PropOp40
 70
     1
102
RTVSPost2010Prop41ColorIndex
 90
       18
102
RTVSPost2010Prop41ColorRGB
 90
        0
102
RTVSPost2010PropOp41
 70
     1
102
RTVSPost2010Prop42
 90
       50
102
RTVSPost2010PropOp42
 70
     1
102
RTVSPost2010Prop43
 90
        3
102
RTVSPost2010PropOp43
 70
     1
102
RTVSPost2010Prop44ColorIndex
 90
        5
102
RTVSPost2010Prop44ColorRGB
 90
      255
102
RTVSPost2010PropOp44
 70
     1
102
RTVSPost2010Prop45
280
     0
102
RTVSPost2010PropOp45
 70
     1
102
RTVSPost2010Prop46
 90
       50
102
RTVSPost2010PropOp46
 70
     1
102
RTVSPost2010Prop47
 90
       50
102
RTVSPost2010PropOp47
 70
     1
102
RTVSPost2010Prop48
 90
       50
102
RTVSPost2010PropOp48
 70
     1
102
RTVSPost2010Prop49
280
     0
102
RTVSPost2010PropOp49
 70
     1
102
RTVSPost2010Prop50
 90
       50
102
RTVSPost2010PropOp50
 70
     1
102
RTVSPost2010Prop51ColorIndex
 90
      256
102
RTVSPost2010Prop51ColorRGB
 90
-16777216
102
RTVSPost2010PropOp51
 70
     0
102
RTVSPost2010Prop52
140
1.0
102
RTVSPost2010PropOp52
 70
     0
102
RTVSPost2010Prop53
 90
        2
102
RTVSPost2010PropOp53
 70
     1
102
RTVSPost2010Prop54
  1
strokes_ogs.tif
102
RTVSPost2010PropOp54
 70
     1
102
RTVSPost2010Prop55
280
     0
102
RTVSPost2010PropOp55
 70
     1
102
RTVSPost2010Prop56
140
1.0
102
RTVSPost2010PropOp56
 70
     1
102
RTVSPost2010Prop57
140
1.0
102
RTVSPost2010PropOp57
 70
     1
  0
ENDSEC
  0
EOF
