  0
SECTION
  2
HEADER
  9
$ACADVER
  1
AC1015
  9
$ACADMAINTVER
 70
     6
  9
$DWGCODEPAGE
  3
ANSI_1252
  9
$INSBASE
 10
0.0
 20
0.0
 30
0.0
  9
$EXTMIN
 10
1.000000000000000E+20
 20
1.000000000000000E+20
 30
1.000000000000000E+20
  9
$EXTMAX
 10
-1.000000000000000E+20
 20
-1.000000000000000E+20
 30
-1.000000000000000E+20
  9
$LIMMIN
 10
-170.0
 20
-170.0
  9
$LIMMAX
 10
519.0
 20
260.0
  9
$ORTHOMODE
 70
     0
  9
$REGENMODE
 70
     1
  9
$FILLMODE
 70
     1
  9
$QTEXTMODE
 70
     0
  9
$MIRRTEXT
 70
     0
  9
$LTSCALE
 40
1.0
  9
$ATTMODE
 70
     1
  9
$TEXTSIZE
 40
3.5
  9
$TRACEWID
 40
1.0
  9
$TEXTSTYLE
  7
SIMPLEX
  9
$CLAYER
  8
1
  9
$CELTYPE
  6
BYLAYER
  9
$CECOLOR
 62
   256
  9
$CELTSCALE
 40
1.0
  9
$DISPSILH
 70
     0
  9
$DIMSCALE
 40
1.0
  9
$DIMASZ
 40
2.5
  9
$DIMEXO
 40
0.0
  9
$DIMDLI
 40
3.75
  9
$DIMRND
 40
0.0
  9
$DIMDLE
 40
0.0
  9
$DIMEXE
 40
1.25
  9
$DIMTP
 40
0.0
  9
$DIMTM
 40
0.0
  9
$DIMTXT
 40
3.5
  9
$DIMCEN
 40
0.0
  9
$DIMTSZ
 40
0.0
  9
$DIMTOL
 70
     0
  9
$DIMLIM
 70
     0
  9
$DIMTIH
 70
     0
  9
$DIMTOH
 70
     0
  9
$DIMSE1
 70
     0
  9
$DIMSE2
 70
     0
  9
$DIMTAD
 70
     1
  9
$DIMZIN
 70
     8
  9
$DIMBLK
  1

  9
$DIMASO
 70
     1
  9
$DIMSHO
 70
     1
  9
$DIMPOST
  1

  9
$DIMAPOST
  1

  9
$DIMALT
 70
     0
  9
$DIMALTD
 70
     3
  9
$DIMALTF
 40
0.039370078
  9
$DIMLFAC
 40
1.0
  9
$DIMTOFL
 70
     0
  9
$DIMTVP
 40
0.0
  9
$DIMTIX
 70
     0
  9
$DIMSOXD
 70
     0
  9
$DIMSAH
 70
     0
  9
$DIMBLK1
  1

  9
$DIMBLK2
  1

  9
$DIMSTYLE
  2
STANDARD
  9
$DIMCLRD
 70
     0
  9
$DIMCLRE
 70
     0
  9
$DIMCLRT
 70
     0
  9
$DIMTFAC
 40
1.0
  9
$DIMGAP
 40
0.625
  9
$DIMJUST
 70
     0
  9
$DIMSD1
 70
     0
  9
$DIMSD2
 70
     0
  9
$DIMTOLJ
 70
     0
  9
$DIMTZIN
 70
     8
  9
$DIMALTZ
 70
     0
  9
$DIMALTTZ
 70
     0
  9
$DIMUPT
 70
     0
  9
$DIMDEC
 70
     2
  9
$DIMTDEC
 70
     2
  9
$DIMALTU
 70
     2
  9
$DIMALTTD
 70
     3
  9
$DIMTXSTY
  7
SIMPLEX
  9
$DIMAUNIT
 70
     0
  9
$DIMADEC
 70
     2
  9
$DIMALTRND
 40
0.0
  9
$DIMAZIN
 70
     2
  9
$DIMDSEP
 70
    46
  9
$DIMATFIT
 70
     3
  9
$DIMFRAC
 70
     0
  9
$DIMLDRBLK
  1

  9
$DIMLUNIT
 70
     2
  9
$DIMLWD
 70
    -2
  9
$DIMLWE
 70
    -2
  9
$DIMTMOVE
 70
     0
  9
$LUNITS
 70
     2
  9
$LUPREC
 70
     4
  9
$SKETCHINC
 40
1.0
  9
$FILLETRAD
 40
0.0
  9
$AUNITS
 70
     0
  9
$AUPREC
 70
     0
  9
$MENU
  1
c:\tdm21\cad\caduti13\tdm13
  9
$ELEVATION
 40
0.0
  9
$PELEVATION
 40
0.0
  9
$THICKNESS
 40
0.0
  9
$LIMCHECK
 70
     0
  9
$CHAMFERA
 40
0.0
  9
$CHAMFERB
 40
0.0
  9
$CHAMFERC
 40
0.0
  9
$CHAMFERD
 40
0.0
  9
$SKPOLY
 70
     0
  9
$TDCREATE
 40
2454957.551975972
  9
$TDUCREATE
 40
2454957.510309306
  9
$TDUPDATE
 40
2457360.435822778
  9
$TDUUPDATE
 40
2457360.394156111
  9
$TDINDWG
 40
0.0009643519
  9
$TDUSRTIMER
 40
0.0009475231
  9
$USRTIMER
 70
     1
  9
$ANGBASE
 50
0.0
  9
$ANGDIR
 70
     0
  9
$PDMODE
 70
     1
  9
$PDSIZE
 40
0.0
  9
$PLINEWID
 40
0.0
  9
$SPLFRAME
 70
     0
  9
$SPLINETYPE
 70
     6
  9
$SPLINESEGS
 70
     8
  9
$HANDSEED
  5
831
  9
$SURFTAB1
 70
     6
  9
$SURFTAB2
 70
     6
  9
$SURFTYPE
 70
     6
  9
$SURFU
 70
     6
  9
$SURFV
 70
     6
  9
$UCSBASE
  2

  9
$UCSNAME
  2

  9
$UCSORG
 10
0.0
 20
0.0
 30
0.0
  9
$UCSXDIR
 10
1.0
 20
0.0
 30
0.0
  9
$UCSYDIR
 10
0.0
 20
1.0
 30
0.0
  9
$UCSORTHOREF
  2

  9
$UCSORTHOVIEW
 70
     0
  9
$UCSORGTOP
 10
0.0
 20
0.0
 30
0.0
  9
$UCSORGBOTTOM
 10
0.0
 20
0.0
 30
0.0
  9
$UCSORGLEFT
 10
0.0
 20
0.0
 30
0.0
  9
$UCSORGRIGHT
 10
0.0
 20
0.0
 30
0.0
  9
$UCSORGFRONT
 10
0.0
 20
0.0
 30
0.0
  9
$UCSORGBACK
 10
0.0
 20
0.0
 30
0.0
  9
$PUCSBASE
  2

  9
$PUCSNAME
  2

  9
$PUCSORG
 10
0.0
 20
0.0
 30
0.0
  9
$PUCSXDIR
 10
1.0
 20
0.0
 30
0.0
  9
$PUCSYDIR
 10
0.0
 20
1.0
 30
0.0
  9
$PUCSORTHOREF
  2

  9
$PUCSORTHOVIEW
 70
     0
  9
$PUCSORGTOP
 10
0.0
 20
0.0
 30
0.0
  9
$PUCSORGBOTTOM
 10
0.0
 20
0.0
 30
0.0
  9
$PUCSORGLEFT
 10
0.0
 20
0.0
 30
0.0
  9
$PUCSORGRIGHT
 10
0.0
 20
0.0
 30
0.0
  9
$PUCSORGFRONT
 10
0.0
 20
0.0
 30
0.0
  9
$PUCSORGBACK
 10
0.0
 20
0.0
 30
0.0
  9
$USERI1
 70
     0
  9
$USERI2
 70
     0
  9
$USERI3
 70
     0
  9
$USERI4
 70
     0
  9
$USERI5
 70
     0
  9
$USERR1
 40
0.0
  9
$USERR2
 40
0.0
  9
$USERR3
 40
0.0
  9
$USERR4
 40
0.0
  9
$USERR5
 40
0.0
  9
$WORLDVIEW
 70
     1
  9
$SHADEDGE
 70
     3
  9
$SHADEDIF
 70
    70
  9
$TILEMODE
 70
     1
  9
$MAXACTVP
 70
    64
  9
$PINSBASE
 10
0.0
 20
0.0
 30
0.0
  9
$PLIMCHECK
 70
     0
  9
$PEXTMIN
 10
0.0
 20
0.0
 30
0.0
  9
$PEXTMAX
 10
0.0
 20
0.0
 30
0.0
  9
$PLIMMIN
 10
0.0
 20
0.0
  9
$PLIMMAX
 10
12.0
 20
9.0
  9
$UNITMODE
 70
     0
  9
$VISRETAIN
 70
     0
  9
$PLINEGEN
 70
     0
  9
$PSLTSCALE
 70
     1
  9
$TREEDEPTH
 70
  3020
  9
$CMLSTYLE
  2
STANDARD
  9
$CMLJUST
 70
     0
  9
$CMLSCALE
 40
20.0
  9
$PROXYGRAPHICS
 70
     1
  9
$MEASUREMENT
 70
     1
  9
$CELWEIGHT
370
    -1
  9
$ENDCAPS
280
     0
  9
$JOINSTYLE
280
     0
  9
$LWDISPLAY
290
     0
  9
$INSUNITS
 70
     4
  9
$HYPERLINKBASE
  1

  9
$STYLESHEET
  1
MONOCHROME.CTB
  9
$XEDIT
290
     1
  9
$CEPSNTYPE
380
     0
  9
$PSTYLEMODE
290
     1
  9
$FINGERPRINTGUID
  2
{46B44192-1510-48B1-B61B-CBE2ADA013A7}
  9
$VERSIONGUID
  2
{6160D478-9A74-4C97-9D8A-D4A65CE74B12}
  9
$EXTNAMES
290
     1
  9
$PSVPSCALE
 40
0.0
  9
$OLESTARTUP
290
     0
  0
ENDSEC
  0
SECTION
  2
CLASSES
  0
CLASS
  1
ACDBDICTIONARYWDFLT
  2
AcDbDictionaryWithDefault
  3
ObjectDBX Classes
 90
        0
280
     0
281
     0
  0
CLASS
  1
ACDBPLACEHOLDER
  2
AcDbPlaceHolder
  3
ObjectDBX Classes
 90
        0
280
     0
281
     0
  0
CLASS
  1
LAYOUT
  2
AcDbLayout
  3
ObjectDBX Classes
 90
        0
280
     0
281
     0
  0
CLASS
  1
DICTIONARYVAR
  2
AcDbDictionaryVar
  3
ObjectDBX Classes
 90
        0
280
     0
281
     0
  0
CLASS
  1
TABLESTYLE
  2
AcDbTableStyle
  3
ObjectDBX Classes
 90
     4095
280
     0
281
     0
  0
CLASS
  1
SCALE
  2
AcDbScale
  3
ObjectDBX Classes
 90
     1153
280
     0
281
     0
  0
CLASS
  1
VISUALSTYLE
  2
AcDbVisualStyle
  3
ObjectDBX Classes
 90
     4095
280
     0
281
     0
  0
CLASS
  1
MATERIAL
  2
AcDbMaterial
  3
ObjectDBX Classes
 90
     1153
280
     0
281
     0
  0
CLASS
  1
MLEADERSTYLE
  2
AcDbMLeaderStyle
  3
ACDB_MLEADERSTYLE_CLASS
 90
     4095
280
     0
281
     0
  0
ENDSEC
  0
SECTION
  2
TABLES
  0
TABLE
  2
VPORT
  5
8
102
{ACAD_XDICTIONARY
360
7F5
102
}
330
0
100
AcDbSymbolTable
 70
     1
  0
VPORT
  5
39A
330
8
100
AcDbSymbolTableRecord
100
AcDbViewportTableRecord
  2
*Active
 70
     0
 10
0.0
 20
0.0
 11
1.0
 21
1.0
 12
218.9201881351169
 22
109.7549380673833
 13
0.0
 23
0.0
 14
5.0
 24
5.0
 15
5.0
 25
5.0
 16
0.0
 26
0.0
 36
1.0
 17
0.0
 27
0.0
 37
0.0
 40
564.6711112651689
 41
1.066073697585768
 42
50.0
 43
0.0
 44
0.0
 50
0.0
 51
0.0
 71
     0
 72
  2000
 73
     1
 74
     1
 75
     0
 76
     0
 77
     0
 78
     0
281
     0
 65
     1
110
0.0
120
0.0
130
0.0
111
1.0
121
0.0
131
0.0
112
0.0
122
1.0
132
0.0
 79
     0
146
0.0
  0
ENDTAB
  0
TABLE
  2
LTYPE
  5
5
330
0
100
AcDbSymbolTable
 70
     3
  0
LTYPE
  5
12
330
5
100
AcDbSymbolTableRecord
100
AcDbLinetypeTableRecord
  2
BYBLOCK
 70
     0
  3

 72
    65
 73
     0
 40
0.0
  0
LTYPE
  5
13
330
5
100
AcDbSymbolTableRecord
100
AcDbLinetypeTableRecord
  2
BYLAYER
 70
     0
  3

 72
    65
 73
     0
 40
0.0
  0
LTYPE
  5
14
330
5
100
AcDbSymbolTableRecord
100
AcDbLinetypeTableRecord
  2
CONTINUOUS
 70
     0
  3
Solid line
 72
    65
 73
     0
 40
0.0
  0
LTYPE
  5
20
330
5
100
AcDbSymbolTableRecord
100
AcDbLinetypeTableRecord
  2
HIDDEN
 70
     0
  3
Hidden __ __ __ __ __ __ __ __ __ __ __ __ __ _
 72
    65
 73
     2
 40
9.524999999999997
 49
6.349999999999998
 74
     0
 49
-3.174999999999998
 74
     0
  0
LTYPE
  5
351
330
5
100
AcDbSymbolTableRecord
100
AcDbLinetypeTableRecord
  2
CENTER
 70
     0
  3
Dash dot __ . __ . __ . __ . __ . __ . __ . __
 72
    65
 73
     4
 40
25.4
 49
12.7
 74
     0
 49
-6.349999999999998
 74
     0
 49
0.0
 74
     0
 49
-6.349999999999998
 74
     0
  0
ENDTAB
  0
TABLE
  2
LAYER
  5
2
330
0
100
AcDbSymbolTable
 70
    16
  0
LAYER
  5
F
330
2
100
AcDbSymbolTableRecord
100
AcDbLayerTableRecord
  2
0
 70
     0
 62
     7
  6
CONTINUOUS
370
    -3
390
300
  0
LAYER
  5
23
330
2
100
AcDbSymbolTableRecord
100
AcDbLayerTableRecord
  2
1
 70
     0
 62
     4
  6
CONTINUOUS
370
    -3
390
300
  0
LAYER
  5
24
330
2
100
AcDbSymbolTableRecord
100
AcDbLayerTableRecord
  2
SK1
 70
     0
 62
     4
  6
CONTINUOUS
370
    -3
390
300
  0
LAYER
  5
25
330
2
100
AcDbSymbolTableRecord
100
AcDbLayerTableRecord
  2
2
 70
     0
 62
     7
  6
CONTINUOUS
370
    -3
390
300
  0
LAYER
  5
26
330
2
100
AcDbSymbolTableRecord
100
AcDbLayerTableRecord
  2
2L
 70
     0
 62
     7
  6
CONTINUOUS
370
    -3
390
300
  0
LAYER
  5
27
330
2
100
AcDbSymbolTableRecord
100
AcDbLayerTableRecord
  2
SK2
 70
     0
 62
     7
  6
CONTINUOUS
370
    -3
390
300
  0
LAYER
  5
28
330
2
100
AcDbSymbolTableRecord
100
AcDbLayerTableRecord
  2
3
 70
     0
 62
     1
  6
HIDDEN
370
    -3
390
300
  0
LAYER
  5
29
330
2
100
AcDbSymbolTableRecord
100
AcDbLayerTableRecord
  2
SK3
 70
     0
 62
     1
  6
HIDDEN
370
    -3
390
300
  0
LAYER
  5
2A
330
2
100
AcDbSymbolTableRecord
100
AcDbLayerTableRecord
  2
4
 70
     0
 62
     2
  6
CENTER
370
    -3
390
300
  0
LAYER
  5
2B
330
2
100
AcDbSymbolTableRecord
100
AcDbLayerTableRecord
  2
SK4
 70
     0
 62
     2
  6
CENTER
370
    -3
390
300
  0
LAYER
  5
2C
330
2
100
AcDbSymbolTableRecord
100
AcDbLayerTableRecord
  2
5
 70
     0
 62
    -7
  6
CONTINUOUS
370
    -3
390
300
  0
LAYER
  5
2D
330
2
100
AcDbSymbolTableRecord
100
AcDbLayerTableRecord
  2
6
 70
     0
 62
     5
  6
CONTINUOUS
370
    -3
390
300
  0
LAYER
  5
2E
330
2
100
AcDbSymbolTableRecord
100
AcDbLayerTableRecord
  2
SK6
 70
     0
 62
     5
  6
CONTINUOUS
370
    -3
390
300
  0
LAYER
  5
2F
330
2
100
AcDbSymbolTableRecord
100
AcDbLayerTableRecord
  2
DEFPOINTS
 70
     0
 62
     7
  6
CONTINUOUS
290
     0
370
    -3
390
300
  0
LAYER
  5
375
330
2
100
AcDbSymbolTableRecord
100
AcDbLayerTableRecord
  2
CUT
 70
     0
 62
     1
  6
CONTINUOUS
370
    -3
390
300
  0
LAYER
  5
376
330
2
100
AcDbSymbolTableRecord
100
AcDbLayerTableRecord
  2
NOCUT
 70
     0
 62
     7
  6
CONTINUOUS
370
    -3
390
300
  0
ENDTAB
  0
TABLE
  2
STYLE
  5
3
330
0
100
AcDbSymbolTable
 70
     4
  0
STYLE
  5
10
330
3
100
AcDbSymbolTableRecord
100
AcDbTextStyleTableRecord
  2
STANDARD
 70
     0
 40
0.0
 41
1.0
 50
0.0
 71
     0
 42
5.0
  3
txt
  4

  0
STYLE
  5
1D
330
3
100
AcDbSymbolTableRecord
100
AcDbTextStyleTableRecord
  2
TXT
 70
     0
 40
8.0
 41
1.0
 50
0.0
 71
     0
 42
8.0
  3
txt
  4

  0
STYLE
  5
1E
330
3
100
AcDbSymbolTableRecord
100
AcDbTextStyleTableRecord
  2
SIMPLEX
 70
     0
 40
0.0
 41
1.0
 50
0.0
 71
     0
 42
3.5
  3
simplex
  4

  0
STYLE
  5
34C
330
3
100
AcDbSymbolTableRecord
100
AcDbTextStyleTableRecord
  2

 70
     1
 40
0.0
 41
1.0
 50
0.0
 71
     0
 42
2.5
  3
ltypeshp.shx
  4

  0
ENDTAB
  0
TABLE
  2
VIEW
  5
6
330
0
100
AcDbSymbolTable
 70
     0
  0
ENDTAB
  0
TABLE
  2
UCS
  5
7
330
0
100
AcDbSymbolTable
 70
     0
  0
ENDTAB
  0
TABLE
  2
APPID
  5
9
330
0
100
AcDbSymbolTable
 70
     2
  0
APPID
  5
11
330
9
100
AcDbSymbolTableRecord
100
AcDbRegAppTableRecord
  2
ACAD
 70
     0
  0
APPID
  5
82E
330
9
100
AcDbSymbolTableRecord
100
AcDbRegAppTableRecord
  2
ACAD_MLEADERVER
 70
     0
  0
ENDTAB
  0
TABLE
  2
DIMSTYLE
  5
A
330
0
100
AcDbSymbolTable
 70
     1
100
AcDbDimStyleTable
  0
DIMSTYLE
105
3F
102
{ACAD_REACTORS
330
7A2
330
7B0
330
7BD
330
7CA
330
7D8
330
7E5
102
}
330
A
100
AcDbSymbolTableRecord
100
AcDbDimStyleTableRecord
  2
STANDARD
 70
     0
 41
2.5
 42
0.0
 43
3.75
 44
1.25
 73
     0
 74
     0
 77
     1
 78
     8
 79
     2
140
3.5
141
0.0
143
0.039370078
147
0.625
171
     3
178
     0
179
     2
271
     2
272
     2
274
     3
283
     0
284
     8
340
1E
  0
ENDTAB
  0
TABLE
  2
BLOCK_RECORD
  5
1
330
0
100
AcDbSymbolTable
 70
     6
  0
BLOCK_RECORD
  5
18
330
1
100
AcDbSymbolTableRecord
100
AcDbBlockTableRecord
  2
*MODEL_SPACE
340
303
  0
BLOCK_RECORD
  5
338
330
1
100
AcDbSymbolTableRecord
100
AcDbBlockTableRecord
  2
*Paper_Space
340
33B
  0
BLOCK_RECORD
  5
7A3
330
1
100
AcDbSymbolTableRecord
100
AcDbBlockTableRecord
  2
*D0
340
0
  0
BLOCK_RECORD
  5
7B1
330
1
100
AcDbSymbolTableRecord
100
AcDbBlockTableRecord
  2
*D1
340
0
  0
BLOCK_RECORD
  5
7BE
330
1
100
AcDbSymbolTableRecord
100
AcDbBlockTableRecord
  2
*D2
340
0
  0
BLOCK_RECORD
  5
7CB
330
1
100
AcDbSymbolTableRecord
100
AcDbBlockTableRecord
  2
*D3
340
0
  0
BLOCK_RECORD
  5
7D9
330
1
100
AcDbSymbolTableRecord
100
AcDbBlockTableRecord
  2
*D4
340
0
  0
BLOCK_RECORD
  5
7E6
330
1
100
AcDbSymbolTableRecord
100
AcDbBlockTableRecord
  2
*D5
340
0
  0
ENDTAB
  0
ENDSEC
  0
SECTION
  2
BLOCKS
  0
BLOCK
  5
32
330
18
100
AcDbEntity
  8
0
100
AcDbBlockBegin
  2
*MODEL_SPACE
 70
     0
 10
0.0
 20
0.0
 30
0.0
  3
*MODEL_SPACE
  1

  0
ENDBLK
  5
33
330
18
100
AcDbEntity
  8
0
100
AcDbBlockEnd
  0
BLOCK
  5
339
330
338
100
AcDbEntity
 67
     1
  8
0
100
AcDbBlockBegin
  2
*Paper_Space
 70
     0
 10
0.0
 20
0.0
 30
0.0
  3
*Paper_Space
  1

  0
ENDBLK
  5
33A
330
338
100
AcDbEntity
 67
     1
  8
0
100
AcDbBlockEnd
  0
BLOCK
  5
7A4
330
7A3
100
AcDbEntity
  8
0
100
AcDbBlockBegin
  2
*D0
 70
     1
 10
0.0
 20
0.0
 30
0.0
  3
*D0
  1

  0
LINE
  5
7A6
330
7A3
100
AcDbEntity
  8
2
 62
     0
370
    -2
100
AcDbLine
 10
69.0
 20
7.9375
 30
0.0
 11
85.24999999999997
 21
7.937500000000057
 31
0.0
  0
LINE
  5
7A7
330
7A3
100
AcDbEntity
  8
2
 62
     0
370
    -2
100
AcDbLine
 10
69.0
 20
-7.9375
 30
0.0
 11
85.25000000000003
 21
-7.937499999999943
 31
0.0
  0
LINE
  5
7A8
330
7A3
100
AcDbEntity
  8
2
 62
     0
370
    -2
100
AcDbLine
 10
84.00000000000003
 20
-7.937499999999948
 30
0.0
 11
84.0000000000001
 21
-28.48749999999996
 31
0.0
  0
LINE
  5
7A9
330
7A3
100
AcDbEntity
  8
2
 62
     0
370
    -2
100
AcDbLine
 10
83.99999999999999
 20
5.437500000000052
 30
0.0
 11
84.00000000000001
 21
-5.437499999999948
 31
0.0
  0
SOLID
  5
7AA
330
7A3
100
AcDbEntity
  8
2
 62
     0
100
AcDbTrace
 10
84.41666666666666
 20
5.437500000000054
 30
0.0
 11
83.58333333333331
 21
5.437500000000051
 31
0.0
 12
83.99999999999997
 22
7.937500000000052
 32
0.0
 13
83.99999999999997
 23
7.937500000000052
 33
0.0
  0
SOLID
  5
7AB
330
7A3
100
AcDbEntity
  8
2
 62
     0
100
AcDbTrace
 10
83.58333333333334
 20
-5.437499999999949
 30
0.0
 11
84.41666666666669
 21
-5.437499999999946
 31
0.0
 12
84.00000000000003
 22
-7.937499999999948
 32
0.0
 13
84.00000000000003
 23
-7.937499999999948
 33
0.0
  0
MTEXT
  5
7AC
330
7A3
100
AcDbEntity
  8
2
 62
     0
100
AcDbMText
 10
81.60225000000007
 20
-19.46249999999996
 30
0.0
 40
3.5
 41
0.0
 71
     5
 72
     1
  1
%%c15.88
  7
SIMPLEX
 11
-3.580687802255623E-15
 21
1.0
 31
0.0
 73
     1
 44
1.0
  0
POINT
  5
7AD
330
7A3
100
AcDbEntity
  8
DEFPOINTS
 62
     0
100
AcDbPoint
 10
69.0
 20
7.9375
 30
0.0
  0
POINT
  5
7AE
330
7A3
100
AcDbEntity
  8
DEFPOINTS
 62
     0
100
AcDbPoint
 10
69.0
 20
-7.9375
 30
0.0
  0
POINT
  5
7AF
330
7A3
100
AcDbEntity
  8
DEFPOINTS
 62
     0
100
AcDbPoint
 10
84.00000000000003
 20
-7.937499999999948
 30
0.0
  0
ENDBLK
  5
7A5
330
7A3
100
AcDbEntity
  8
0
100
AcDbBlockEnd
  0
BLOCK
  5
7B2
330
7B1
100
AcDbEntity
  8
0
100
AcDbBlockBegin
  2
*D1
 70
     1
 10
0.0
 20
0.0
 30
0.0
  3
*D1
  1

  0
LINE
  5
7B4
330
7B1
100
AcDbEntity
  8
2
 62
     0
370
    -2
100
AcDbLine
 10
0.0
 20
0.0
 30
0.0
 11
0.0
 21
76.25
 31
0.0
  0
LINE
  5
7B5
330
7B1
100
AcDbEntity
  8
2
 62
     0
370
    -2
100
AcDbLine
 10
69.0
 20
0.0
 30
0.0
 11
69.0
 21
76.25
 31
0.0
  0
LINE
  5
7B6
330
7B1
100
AcDbEntity
  8
2
 62
     0
370
    -2
100
AcDbLine
 10
2.5
 20
75.0
 30
0.0
 11
66.5
 21
75.0
 31
0.0
  0
SOLID
  5
7B7
330
7B1
100
AcDbEntity
  8
2
 62
     0
100
AcDbTrace
 10
2.5
 20
75.41666666666667
 30
0.0
 11
2.5
 21
74.58333333333333
 31
0.0
 12
0.0
 22
75.0
 32
0.0
 13
0.0
 23
75.0
 33
0.0
  0
SOLID
  5
7B8
330
7B1
100
AcDbEntity
  8
2
 62
     0
100
AcDbTrace
 10
66.5
 20
74.58333333333333
 30
0.0
 11
66.5
 21
75.41666666666667
 31
0.0
 12
69.0
 22
75.0
 32
0.0
 13
69.0
 23
75.0
 33
0.0
  0
MTEXT
  5
7B9
330
7B1
100
AcDbEntity
  8
2
 62
     0
100
AcDbMText
 10
34.5
 20
77.39075
 30
0.0
 40
3.5
 41
0.0
 71
     5
 72
     1
  1
69
  7
SIMPLEX
 73
     1
 44
1.0
  0
POINT
  5
7BA
330
7B1
100
AcDbEntity
  8
DEFPOINTS
 62
     0
100
AcDbPoint
 10
0.0
 20
0.0
 30
0.0
  0
POINT
  5
7BB
330
7B1
100
AcDbEntity
  8
DEFPOINTS
 62
     0
100
AcDbPoint
 10
69.0
 20
0.0
 30
0.0
  0
POINT
  5
7BC
330
7B1
100
AcDbEntity
  8
DEFPOINTS
 62
     0
100
AcDbPoint
 10
69.0
 20
75.0
 30
0.0
  0
ENDBLK
  5
7B3
330
7B1
100
AcDbEntity
  8
0
100
AcDbBlockEnd
  0
BLOCK
  5
7BF
330
7BE
100
AcDbEntity
  8
0
100
AcDbBlockBegin
  2
*D2
 70
     1
 10
0.0
 20
0.0
 30
0.0
  3
*D2
  1

  0
LINE
  5
7C1
330
7BE
100
AcDbEntity
  8
2
 62
     0
370
    -2
100
AcDbLine
 10
21.375
 20
7.9375
 30
0.0
 11
21.375
 21
61.25
 31
0.0
  0
LINE
  5
7C2
330
7BE
100
AcDbEntity
  8
2
 62
     0
370
    -2
100
AcDbLine
 10
69.0
 20
7.9375
 30
0.0
 11
69.0
 21
61.25
 31
0.0
  0
LINE
  5
7C3
330
7BE
100
AcDbEntity
  8
2
 62
     0
370
    -2
100
AcDbLine
 10
23.875
 20
60.0
 30
0.0
 11
66.5
 21
60.0
 31
0.0
  0
SOLID
  5
7C4
330
7BE
100
AcDbEntity
  8
2
 62
     0
100
AcDbTrace
 10
23.875
 20
60.41666666666666
 30
0.0
 11
23.875
 21
59.58333333333334
 31
0.0
 12
21.375
 22
60.0
 32
0.0
 13
21.375
 23
60.0
 33
0.0
  0
SOLID
  5
7C5
330
7BE
100
AcDbEntity
  8
2
 62
     0
100
AcDbTrace
 10
66.5
 20
59.58333333333334
 30
0.0
 11
66.5
 21
60.41666666666666
 31
0.0
 12
69.0
 22
60.0
 32
0.0
 13
69.0
 23
60.0
 33
0.0
  0
MTEXT
  5
7C6
330
7BE
100
AcDbEntity
  8
2
 62
     0
100
AcDbMText
 10
45.1875
 20
62.438
 30
0.0
 40
3.5
 41
0.0
 71
     5
 72
     1
  1
47.63
  7
SIMPLEX
 73
     1
 44
1.0
  0
POINT
  5
7C7
330
7BE
100
AcDbEntity
  8
DEFPOINTS
 62
     0
100
AcDbPoint
 10
21.375
 20
7.9375
 30
0.0
  0
POINT
  5
7C8
330
7BE
100
AcDbEntity
  8
DEFPOINTS
 62
     0
100
AcDbPoint
 10
69.0
 20
7.9375
 30
0.0
  0
POINT
  5
7C9
330
7BE
100
AcDbEntity
  8
DEFPOINTS
 62
     0
100
AcDbPoint
 10
69.0
 20
60.0
 30
0.0
  0
ENDBLK
  5
7C0
330
7BE
100
AcDbEntity
  8
0
100
AcDbBlockEnd
  0
BLOCK
  5
7CC
330
7CB
100
AcDbEntity
  8
0
100
AcDbBlockBegin
  2
*D3
 70
     1
 10
0.0
 20
0.0
 30
0.0
  3
*D3
  1

  0
LINE
  5
7CE
330
7CB
100
AcDbEntity
  8
SK2
 62
     0
370
    -2
100
AcDbLine
 10
-45.3
 20
7.9375
 30
0.0
 11
-61.55000000004051
 21
7.93749999991707
 31
0.0
  0
LINE
  5
7CF
330
7CB
100
AcDbEntity
  8
SK2
 62
     0
370
    -2
100
AcDbLine
 10
-45.3
 20
-7.9375
 30
0.0
 11
-61.54999999995949
 21
-7.93750000008293
 31
0.0
  0
LINE
  5
7D0
330
7CB
100
AcDbEntity
  8
SK2
 62
     0
370
    -2
100
AcDbLine
 10
-60.29999999995949
 20
-7.937500000076551
 30
0.0
 11
-60.29999999985461
 21
-28.48750000007655
 31
0.0
  0
LINE
  5
7D1
330
7CB
100
AcDbEntity
  8
SK2
 62
     0
370
    -2
100
AcDbLine
 10
-60.30000000002774
 20
5.437499999923449
 30
0.0
 11
-60.29999999997225
 21
-5.437500000076551
 31
0.0
  0
SOLID
  5
7D2
330
7CB
100
AcDbEntity
  8
SK2
 62
     0
100
AcDbTrace
 10
-59.88333333336108
 20
5.437499999925575
 30
0.0
 11
-60.71666666669441
 21
5.437499999921322
 31
0.0
 12
-60.30000000004051
 22
7.937499999923449
 32
0.0
 13
-60.30000000004051
 23
7.937499999923449
 33
0.0
  0
SOLID
  5
7D3
330
7CB
100
AcDbEntity
  8
SK2
 62
     0
100
AcDbTrace
 10
-60.71666666663891
 20
-5.437500000078678
 30
0.0
 11
-59.88333333330559
 21
-5.437500000074425
 31
0.0
 12
-60.29999999995949
 22
-7.937500000076551
 32
0.0
 13
-60.29999999995949
 23
-7.937500000076551
 33
0.0
  0
MTEXT
  5
7D4
330
7CB
100
AcDbEntity
  8
SK2
 62
     0
100
AcDbMText
 10
-62.69774999990067
 20
-19.46250000008879
 30
0.0
 40
3.5
 41
0.0
 71
     5
 72
     1
  1
%%c15.88
  7
SIMPLEX
 11
-5.103375290164826E-12
 21
1.0
 31
0.0
 73
     1
 44
1.0
  0
POINT
  5
7D5
330
7CB
100
AcDbEntity
  8
DEFPOINTS
 62
     0
100
AcDbPoint
 10
-45.3
 20
7.9375
 30
0.0
  0
POINT
  5
7D6
330
7CB
100
AcDbEntity
  8
DEFPOINTS
 62
     0
100
AcDbPoint
 10
-45.3
 20
-7.9375
 30
0.0
  0
POINT
  5
7D7
330
7CB
100
AcDbEntity
  8
DEFPOINTS
 62
     0
100
AcDbPoint
 10
-60.29999999995949
 20
-7.937500000076551
 30
0.0
  0
ENDBLK
  5
7CD
330
7CB
100
AcDbEntity
  8
0
100
AcDbBlockEnd
  0
BLOCK
  5
7DA
330
7D9
100
AcDbEntity
  8
0
100
AcDbBlockBegin
  2
*D4
 70
     1
 10
0.0
 20
0.0
 30
0.0
  3
*D4
  1

  0
LINE
  5
7DC
330
7D9
100
AcDbEntity
  8
SK2
 62
     0
370
    -2
100
AcDbLine
 10
-45.3
 20
0.0
 30
0.0
 11
-45.3
 21
91.25
 31
0.0
  0
LINE
  5
7DD
330
7D9
100
AcDbEntity
  8
SK2
 62
     0
370
    -2
100
AcDbLine
 10
69.0
 20
0.0
 30
0.0
 11
69.0
 21
91.25
 31
0.0
  0
LINE
  5
7DE
330
7D9
100
AcDbEntity
  8
SK2
 62
     0
370
    -2
100
AcDbLine
 10
-42.8
 20
90.0
 30
0.0
 11
66.5
 21
90.0
 31
0.0
  0
SOLID
  5
7DF
330
7D9
100
AcDbEntity
  8
SK2
 62
     0
100
AcDbTrace
 10
-42.8
 20
90.41666666666667
 30
0.0
 11
-42.8
 21
89.58333333333333
 31
0.0
 12
-45.3
 22
90.0
 32
0.0
 13
-45.3
 23
90.0
 33
0.0
  0
SOLID
  5
7E0
330
7D9
100
AcDbEntity
  8
SK2
 62
     0
100
AcDbTrace
 10
66.5
 20
89.58333333333333
 30
0.0
 11
66.5
 21
90.41666666666667
 31
0.0
 12
69.0
 22
90.0
 32
0.0
 13
69.0
 23
90.0
 33
0.0
  0
MTEXT
  5
7E1
330
7D9
100
AcDbEntity
  8
SK2
 62
     0
100
AcDbMText
 10
11.85
 20
92.438
 30
0.0
 40
3.5
 41
0.0
 71
     5
 72
     1
  1
114.3
  7
SIMPLEX
 73
     1
 44
1.0
  0
POINT
  5
7E2
330
7D9
100
AcDbEntity
  8
DEFPOINTS
 62
     0
100
AcDbPoint
 10
-45.3
 20
0.0
 30
0.0
  0
POINT
  5
7E3
330
7D9
100
AcDbEntity
  8
DEFPOINTS
 62
     0
100
AcDbPoint
 10
69.0
 20
0.0
 30
0.0
  0
POINT
  5
7E4
330
7D9
100
AcDbEntity
  8
DEFPOINTS
 62
     0
100
AcDbPoint
 10
69.0
 20
90.0
 30
0.0
  0
ENDBLK
  5
7DB
330
7D9
100
AcDbEntity
  8
0
100
AcDbBlockEnd
  0
BLOCK
  5
7E7
330
7E6
100
AcDbEntity
  8
0
100
AcDbBlockBegin
  2
*D5
 70
     1
 10
0.0
 20
0.0
 30
0.0
  3
*D5
  1

  0
LINE
  5
7E9
330
7E6
100
AcDbEntity
  8
2
 62
     0
370
    -2
100
AcDbLine
 10
68.12187375030243
 20
-10.37539409431391
 30
0.0
 11
72.03983161039272
 21
-32.59523727627221
 31
0.0
  0
MTEXT
  5
7EA
330
7E6
100
AcDbEntity
  8
2
 62
     0
100
AcDbMText
 10
73.14728432128925
 20
-25.06782177570843
 30
0.0
 40
3.5
 41
0.0
 71
     5
 72
     1
  1
R1.59
  7
SIMPLEX
 11
0.1736481776669313
 21
-0.9848077530122079
 31
0.0
 73
     1
 44
1.0
  0
SOLID
  5
7EB
330
7E6
100
AcDbEntity
  8
2
 62
     0
100
AcDbTrace
 10
68.53221031405751
 20
-10.30304068695268
 30
0.0
 11
67.71153718654735
 21
-10.44774750167513
 31
0.0
 12
67.6877533061351
 22
-7.913374711783386
 32
0.0
 13
67.6877533061351
 23
-7.913374711783386
 33
0.0
  0
POINT
  5
7EC
330
7E6
100
AcDbEntity
  8
DEFPOINTS
 62
     0
100
AcDbPoint
 10
67.6877533061351
 20
-7.913374711783386
 30
0.0
  0
POINT
  5
7ED
330
7E6
100
AcDbEntity
  8
DEFPOINTS
 62
     0
100
AcDbPoint
 10
67.412
 20
-6.3495
 30
0.0
  0
ENDBLK
  5
7E8
330
7E6
100
AcDbEntity
  8
0
100
AcDbBlockEnd
  0
ENDSEC
  0
SECTION
  2
ENTITIES
  0
LINE
  5
3E0
330
18
100
AcDbEntity
  8
SK4
100
AcDbLine
 10
-47.3
 20
0.0
 30
0.0
 11
0.0
 21
0.0
 31
0.0
  0
LINE
  5
3E1
330
18
100
AcDbEntity
  8
4
100
AcDbLine
 10
-2.0
 20
0.0
 30
0.0
 11
71.0
 21
0.0
 31
0.0
  0
LINE
  5
3E2
330
18
100
AcDbEntity
  8
SK4
100
AcDbLine
 10
-2.0
 20
0.0
 30
0.0
 11
71.0
 21
0.0
 31
0.0
  0
LINE
  5
3E3
330
18
100
AcDbEntity
  8
1
100
AcDbLine
 10
20.37499999999997
 20
-4.60012973651012
 30
0.0
 11
20.37499999999998
 21
-7.712668246498436
 31
0.0
  0
LINE
  5
3E4
330
18
100
AcDbEntity
  8
1
100
AcDbLine
 10
21.375
 20
-7.905430068397295
 30
0.0
 11
21.375
 21
-5.507452459060754
 31
0.0
  0
LINE
  5
3E5
330
18
100
AcDbEntity
  8
1
100
AcDbLine
 10
20.37499999999997
 20
3.30190215172609
 30
0.0
 11
20.37499999999997
 21
-2.231836946553909
 31
0.0
  0
LINE
  5
3E6
330
18
100
AcDbEntity
  8
1
100
AcDbLine
 10
21.375
 20
1.331027595525781
 30
0.0
 11
21.375
 21
2.196417986519538
 31
0.0
  0
LINE
  5
3E7
330
18
100
AcDbEntity
  8
1
100
AcDbLine
 10
21.375
 20
2.196417986519538
 30
0.0
 11
21.375
 21
2.196418662929954
 31
0.0
  0
ARC
  5
3E8
330
18
100
AcDbEntity
  8
1
100
AcDbCircle
 10
-6.03010427000191
 20
-38.48600595576399
 30
0.0
 40
48.33667253073595
100
AcDbArc
 50
55.46130078112338
 51
56.88809606598686
  0
LINE
  5
3E9
330
18
100
AcDbEntity
  8
1
100
AcDbLine
 10
20.375
 20
7.902031888236211
 30
0.0
 11
20.375
 21
5.480831299944529
 31
0.0
  0
LINE
  5
3EA
330
18
100
AcDbEntity
  8
1
100
AcDbLine
 10
21.375
 20
4.6685384795214
 30
0.0
 11
21.25070462766107
 21
4.689146277344774
 31
0.0
  0
ARC
  5
3EB
330
18
100
AcDbEntity
  8
1
100
AcDbCircle
 10
22.03669252430095
 20
-1.788043122361987
 30
0.0
 40
6.153213763950363
100
AcDbArc
 50
254.3326695261246
 51
263.8265532456493
  0
ARC
  5
3EC
330
18
100
AcDbEntity
  8
1
100
AcDbCircle
 10
35.90995661694939
 20
11.51050056435997
 30
0.0
 40
22.38046982119739
100
AcDbArc
 50
226.04216853129
 51
229.4995073069443
  0
ARC
  5
3ED
330
18
100
AcDbEntity
  8
1
100
AcDbCircle
 10
61.67119550754933
 20
34.17416733760499
 30
0.0
 40
55.0524257009734
100
AcDbArc
 50
221.3988372053512
 51
222.9488277496545
  0
ARC
  5
3EE
330
18
100
AcDbEntity
  8
1
100
AcDbCircle
 10
-18.50567662788855
 20
-32.8650123059578
 30
0.0
 40
53.10137304160528
100
AcDbArc
 50
41.32058915272253
 51
42.92905543092559
  0
ARC
  5
3EF
330
18
100
AcDbEntity
  8
1
100
AcDbCircle
 10
6.458923586923705
 20
-10.78734796987908
 30
0.0
 40
21.40822459954851
100
AcDbArc
 50
46.29589435299437
 51
49.45575930746335
  0
ARC
  5
3F0
330
18
100
AcDbEntity
  8
1
100
AcDbCircle
 10
19.69199778511474
 20
1.839511160249902
 30
0.0
 40
6.100904020971067
100
AcDbArc
 50
73.9871384734389
 51
83.57217346832486
  0
LINE
  5
3F1
330
18
100
AcDbEntity
  8
1
100
AcDbLine
 10
-0.0000000000000018
 20
7.9375
 30
0.0
 11
21.375
 21
7.9375
 31
0.0
  0
LINE
  5
3F2
330
18
100
AcDbEntity
  8
1
100
AcDbLine
 10
21.37500000000001
 20
-7.905430068397292
 30
0.0
 11
21.37500000000001
 21
-7.937499999999998
 31
0.0
  0
LINE
  5
3F3
330
18
100
AcDbEntity
  8
1
100
AcDbLine
 10
21.37500000000001
 20
7.9375
 30
0.0
 11
21.37500000000001
 21
7.937447475226878
 31
0.0
  0
LINE
  5
3F4
330
18
100
AcDbEntity
  8
1
100
AcDbLine
 10
21.37500000000001
 20
7.937447475226878
 30
0.0
 11
21.37500000000001
 21
7.9219628005013
 31
0.0
  0
LINE
  5
3F5
330
18
100
AcDbEntity
  8
1
100
AcDbLine
 10
21.37500000000001
 20
7.9219628005013
 30
0.0
 11
21.37500000000001
 21
7.703871135182994
 31
0.0
  0
LINE
  5
3F6
330
18
100
AcDbEntity
  8
1
100
AcDbLine
 10
21.375
 20
4.6685384795214
 30
0.0
 11
21.375
 21
7.703868741450715
 31
0.0
  0
LINE
  5
3F7
330
18
100
AcDbEntity
  8
1
100
AcDbLine
 10
21.375
 20
7.703868741450715
 30
0.0
 11
21.375
 21
7.703871135182994
 31
0.0
  0
LINE
  5
3F8
330
18
100
AcDbEntity
  8
1
100
AcDbLine
 10
21.375
 20
4.570016632090609
 30
0.0
 11
21.375
 21
4.6685384795214
 31
0.0
  0
LINE
  5
3F9
330
18
100
AcDbEntity
  8
1
100
AcDbLine
 10
21.37500000000001
 20
4.570016632090598
 30
0.0
 11
21.37500000000001
 21
2.196418662929954
 31
0.0
  0
LINE
  5
3FA
330
18
100
AcDbEntity
  8
1
100
AcDbLine
 10
21.375
 20
-3.335413436306684
 30
0.0
 11
21.375
 21
1.331027595525781
 31
0.0
  0
LINE
  5
3FB
330
18
100
AcDbEntity
  8
1
100
AcDbLine
 10
21.37500000000001
 20
-3.33541343630669
 30
0.0
 11
21.37500000000001
 21
-5.507450754931175
 31
0.0
  0
LINE
  5
3FC
330
18
100
AcDbEntity
  8
1
100
AcDbLine
 10
21.25070462608995
 20
4.689146275694553
 30
0.0
 11
21.375
 21
4.570016632090597
 31
0.0
  0
LINE
  5
3FD
330
18
100
AcDbEntity
  8
1
100
AcDbLine
 10
0.0
 20
-7.937499999999998
 30
0.0
 11
21.37500000000001
 21
-7.937499999999998
 31
0.0
  0
LINE
  5
3FE
330
18
100
AcDbEntity
  8
1
 62
     1
100
AcDbLine
 10
21.375
 20
7.703868741450715
 30
0.0
 11
21.65408322487446
 21
7.617954322530525
 31
0.0
  0
LINE
  5
3FF
330
18
100
AcDbEntity
  8
1
 62
     1
100
AcDbLine
 10
21.65408322487446
 20
7.617954322530525
 30
0.0
 11
21.9331632010279
 21
7.51893058822191
 31
0.0
  0
LINE
  5
400
330
18
100
AcDbEntity
  8
1
 62
     1
100
AcDbLine
 10
21.9331632010279
 20
7.51893058822191
 30
0.0
 11
22.21223554085674
 21
7.406971395426027
 31
0.0
  0
LINE
  5
401
330
18
100
AcDbEntity
  8
1
 62
     1
100
AcDbLine
 10
22.21223554085674
 20
7.406971395426027
 30
0.0
 11
22.49132086211307
 21
7.282260108416846
 31
0.0
  0
LINE
  5
402
330
18
100
AcDbEntity
  8
1
 62
     1
100
AcDbLine
 10
22.49132086211307
 20
7.282260108416846
 30
0.0
 11
22.77039768691683
 21
7.145019716356775
 31
0.0
  0
LINE
  5
403
330
18
100
AcDbEntity
  8
1
 62
     1
100
AcDbLine
 10
22.77039768691683
 20
7.145019716356775
 30
0.0
 11
23.32855750153218
 21
6.8339074842823
 31
0.0
  0
LINE
  5
404
330
18
100
AcDbEntity
  8
1
 62
     1
100
AcDbLine
 10
23.32855750153218
 20
6.8339074842823
 30
0.0
 11
23.88670692225894
 21
6.475779824377006
 31
0.0
  0
LINE
  5
405
330
18
100
AcDbEntity
  8
1
 62
     1
100
AcDbLine
 10
23.88670692225894
 20
6.475779824377006
 30
0.0
 11
24.44486663622294
 21
6.073087940803164
 31
0.0
  0
LINE
  5
406
330
18
100
AcDbEntity
  8
1
 62
     1
100
AcDbLine
 10
24.44486663622294
 20
6.073087940803164
 30
0.0
 11
25.00302872177769
 21
5.628607874713031
 31
0.0
  0
LINE
  5
407
330
18
100
AcDbEntity
  8
1
 62
     1
100
AcDbLine
 10
25.00302872177769
 20
5.628607874713031
 30
0.0
 11
25.56118014469976
 21
5.145408584156048
 31
0.0
  0
LINE
  5
408
330
18
100
AcDbEntity
  8
1
 62
     1
100
AcDbLine
 10
25.56118014469976
 20
5.145408584156048
 30
0.0
 11
26.6774982495271
 21
4.076353316438698
 31
0.0
  0
LINE
  5
409
330
18
100
AcDbEntity
  8
1
 62
     1
100
AcDbLine
 10
26.6774982495271
 20
4.076353316438698
 30
0.0
 11
27.79380508460084
 21
2.895312121194407
 31
0.0
  0
LINE
  5
40A
330
18
100
AcDbEntity
  8
1
 62
     1
100
AcDbLine
 10
27.79380508460084
 20
2.895312121194407
 30
0.0
 11
30.30550993009261
 21
-0.0000000000002564
 31
0.0
  0
LINE
  5
40B
330
18
100
AcDbEntity
  8
1
 62
     1
100
AcDbLine
 10
36.06881618853281
 20
7.937499999999998
 30
0.0
 11
36.46352195177485
 21
7.923840310377636
 31
0.0
  0
LINE
  5
40C
330
18
100
AcDbEntity
  8
1
 62
     1
100
AcDbLine
 10
36.46352195177485
 20
7.923840310377636
 30
0.0
 11
36.85822565820065
 21
7.882908481937217
 31
0.0
  0
LINE
  5
40D
330
18
100
AcDbEntity
  8
1
 62
     1
100
AcDbLine
 10
36.85822565820065
 20
7.882908481937217
 30
0.0
 11
37.2529291583046
 21
7.814845893277072
 31
0.0
  0
LINE
  5
40E
330
18
100
AcDbEntity
  8
1
 62
     1
100
AcDbLine
 10
37.2529291583046
 20
7.814845893277072
 30
0.0
 11
37.64763032805306
 21
7.719886658052437
 31
0.0
  0
LINE
  5
40F
330
18
100
AcDbEntity
  8
1
 62
     1
100
AcDbLine
 10
37.64763032805306
 20
7.719886658052437
 30
0.0
 11
38.04233213794497
 21
7.598358192501474
 31
0.0
  0
LINE
  5
410
330
18
100
AcDbEntity
  8
1
 62
     1
100
AcDbLine
 10
38.04233213794497
 20
7.598358192501474
 30
0.0
 11
38.43703270308404
 21
7.450678290104074
 31
0.0
  0
LINE
  5
411
330
18
100
AcDbEntity
  8
1
 62
     1
100
AcDbLine
 10
38.43703270308404
 20
7.450678290104074
 30
0.0
 11
38.83173421570297
 21
7.277355624239938
 31
0.0
  0
LINE
  5
412
330
18
100
AcDbEntity
  8
1
 62
     1
100
AcDbLine
 10
38.83173421570297
 20
7.277355624239938
 30
0.0
 11
39.22643516322535
 21
7.078986018308933
 31
0.0
  0
LINE
  5
413
330
18
100
AcDbEntity
  8
1
 62
     1
100
AcDbLine
 10
39.22643516322535
 20
7.078986018308933
 30
0.0
 11
39.62113723314808
 21
6.856252369054011
 31
0.0
  0
LINE
  5
414
330
18
100
AcDbEntity
  8
1
 62
     1
100
AcDbLine
 10
39.62113723314808
 20
6.856252369054011
 30
0.0
 11
40.01584021522562
 21
6.609920793342893
 31
0.0
  0
LINE
  5
415
330
18
100
AcDbEntity
  8
1
 62
     1
100
AcDbLine
 10
40.01584021522562
 20
6.609920793342893
 30
0.0
 11
40.41054380758012
 21
6.340838396372123
 31
0.0
  0
LINE
  5
416
330
18
100
AcDbEntity
  8
1
 62
     1
100
AcDbLine
 10
40.41054380758012
 20
6.340838396372123
 30
0.0
 11
40.80525005654046
 21
6.049931766771658
 31
0.0
  0
LINE
  5
417
330
18
100
AcDbEntity
  8
1
 62
     1
100
AcDbLine
 10
40.80525005654046
 20
6.049931766771658
 30
0.0
 11
41.5946588015625
 21
5.406724335111479
 31
0.0
  0
LINE
  5
418
330
18
100
AcDbEntity
  8
1
 62
     1
100
AcDbLine
 10
41.5946588015625
 20
5.406724335111479
 30
0.0
 11
42.38406274117256
 21
4.68915029420548
 31
0.0
  0
LINE
  5
419
330
18
100
AcDbEntity
  8
1
 62
     1
100
AcDbLine
 10
33.82773630037339
 20
7.9375
 30
0.0
 11
34.15794997620809
 21
7.927938251911218
 31
0.0
  0
LINE
  5
41A
330
18
100
AcDbEntity
  8
1
 62
     1
100
AcDbLine
 10
34.15794997620809
 20
7.927938251911218
 30
0.0
 11
34.48815612182642
 21
7.899277743109408
 31
0.0
  0
LINE
  5
41B
330
18
100
AcDbEntity
  8
1
 62
     1
100
AcDbLine
 10
34.48815612182642
 20
7.899277743109408
 30
0.0
 11
34.81836139058019
 21
7.851588213051338
 31
0.0
  0
LINE
  5
41C
330
18
100
AcDbEntity
  8
1
 62
     1
100
AcDbLine
 10
34.81836139058019
 20
7.851588213051338
 30
0.0
 11
35.14857240683548
 21
7.784982830244542
 31
0.0
  0
LINE
  5
41D
330
18
100
AcDbEntity
  8
1
 62
     1
100
AcDbLine
 10
35.14857240683548
 20
7.784982830244542
 30
0.0
 11
35.47878815966861
 21
7.699620466033576
 31
0.0
  0
LINE
  5
41E
330
18
100
AcDbEntity
  8
1
 62
     1
100
AcDbLine
 10
35.47878815966861
 20
7.699620466033576
 30
0.0
 11
35.80899556331477
 21
7.595710851611436
 31
0.0
  0
LINE
  5
41F
330
18
100
AcDbEntity
  8
1
 62
     1
100
AcDbLine
 10
35.80899556331477
 20
7.595710851611436
 30
0.0
 11
36.13920039918216
 21
7.473504213558154
 31
0.0
  0
LINE
  5
420
330
18
100
AcDbEntity
  8
1
 62
     1
100
AcDbLine
 10
36.13920039918216
 20
7.473504213558154
 30
0.0
 11
36.46940907135714
 21
7.333292261566207
 31
0.0
  0
LINE
  5
421
330
18
100
AcDbEntity
  8
1
 62
     1
100
AcDbLine
 10
36.46940907135714
 20
7.333292261566207
 30
0.0
 11
36.79962536918396
 21
7.175409598834242
 31
0.0
  0
LINE
  5
422
330
18
100
AcDbEntity
  8
1
 62
     1
100
AcDbLine
 10
36.79962536918396
 20
7.175409598834242
 30
0.0
 11
37.12983458831273
 21
7.00024329837458
 31
0.0
  0
LINE
  5
423
330
18
100
AcDbEntity
  8
1
 62
     1
100
AcDbLine
 10
37.12983458831273
 20
7.00024329837458
 30
0.0
 11
37.46003947680664
 21
6.80821584719356
 31
0.0
  0
LINE
  5
424
330
18
100
AcDbEntity
  8
1
 62
     1
100
AcDbLine
 10
37.46003947680664
 20
6.80821584719356
 30
0.0
 11
37.79024630700709
 21
6.599786254556403
 31
0.0
  0
LINE
  5
425
330
18
100
AcDbEntity
  8
1
 62
     1
100
AcDbLine
 10
37.79024630700709
 20
6.599786254556403
 30
0.0
 11
38.45067305037553
 21
6.135759094177191
 31
0.0
  0
LINE
  5
426
330
18
100
AcDbEntity
  8
1
 62
     1
100
AcDbLine
 10
38.45067305037553
 20
6.135759094177191
 30
0.0
 11
39.11108404960091
 21
5.612652891494495
 31
0.0
  0
LINE
  5
427
330
18
100
AcDbEntity
  8
1
 62
     1
100
AcDbLine
 10
39.11108404960091
 20
5.612652891494495
 30
0.0
 11
39.77151073035056
 21
5.035480567762678
 31
0.0
  0
LINE
  5
428
330
18
100
AcDbEntity
  8
1
 62
     1
100
AcDbLine
 10
39.77151073035056
 20
5.035480567762678
 30
0.0
 11
40.43192218792468
 21
4.409827172930012
 31
0.0
  0
LINE
  5
429
330
18
100
AcDbEntity
  8
1
 62
     1
100
AcDbLine
 10
40.43192218792468
 20
4.409827172930012
 30
0.0
 11
41.75276056802926
 21
3.037533222539367
 31
0.0
  0
LINE
  5
42A
330
18
100
AcDbEntity
  8
1
 62
     1
100
AcDbLine
 10
41.75276056802926
 20
3.037533222539367
 30
0.0
 11
44.39441541076897
 21
-0.0000000000001074
 31
0.0
  0
LINE
  5
42B
330
18
100
AcDbEntity
  8
1
 62
     1
100
AcDbLine
 10
43.11326900101575
 20
7.937499999999998
 30
0.0
 11
43.50797468177544
 21
7.923840306686828
 31
0.0
  0
LINE
  5
42C
330
18
100
AcDbEntity
  8
1
 62
     1
100
AcDbLine
 10
43.50797468177544
 20
7.923840306686828
 30
0.0
 11
43.9026784463086
 21
7.882908481595575
 31
0.0
  0
LINE
  5
42D
330
18
100
AcDbEntity
  8
1
 62
     1
100
AcDbLine
 10
43.9026784463086
 20
7.882908481595575
 30
0.0
 11
44.29738191169668
 21
7.814845888731897
 31
0.0
  0
LINE
  5
42E
330
18
100
AcDbEntity
  8
1
 62
     1
100
AcDbLine
 10
44.29738191169668
 20
7.814845888731897
 30
0.0
 11
44.69208309302967
 21
7.719886655749157
 31
0.0
  0
LINE
  5
42F
330
18
100
AcDbEntity
  8
1
 62
     1
100
AcDbLine
 10
44.69208309302967
 20
7.719886655749157
 30
0.0
 11
45.08678490012812
 21
7.598358192707567
 31
0.0
  0
LINE
  5
430
330
18
100
AcDbEntity
  8
1
 62
     1
100
AcDbLine
 10
45.08678490012812
 20
7.598358192707567
 30
0.0
 11
45.48148543596986
 21
7.450678282963702
 31
0.0
  0
LINE
  5
431
330
18
100
AcDbEntity
  8
1
 62
     1
100
AcDbLine
 10
45.48148543596986
 20
7.450678282963702
 30
0.0
 11
45.87618697057636
 21
7.277355627561147
 31
0.0
  0
LINE
  5
432
330
18
100
AcDbEntity
  8
1
 62
     1
100
AcDbLine
 10
45.87618697057636
 20
7.277355627561147
 30
0.0
 11
46.27088788764753
 21
7.07898601406357
 31
0.0
  0
LINE
  5
433
330
18
100
AcDbEntity
  8
1
 62
     1
100
AcDbLine
 10
46.27088788764753
 20
7.07898601406357
 30
0.0
 11
46.66559000778695
 21
6.856252389320038
 31
0.0
  0
LINE
  5
434
330
18
100
AcDbEntity
  8
1
 62
     1
100
AcDbLine
 10
46.66559000778695
 20
6.856252389320038
 30
0.0
 11
47.0602929125891
 21
6.609920784331766
 31
0.0
  0
LINE
  5
435
330
18
100
AcDbEntity
  8
1
 62
     1
100
AcDbLine
 10
47.0602929125891
 20
6.609920784331766
 30
0.0
 11
47.45499656075832
 21
6.340838419657669
 31
0.0
  0
LINE
  5
436
330
18
100
AcDbEntity
  8
1
 62
     1
100
AcDbLine
 10
47.45499656075832
 20
6.340838419657669
 30
0.0
 11
47.84970276285561
 21
6.049931771379297
 31
0.0
  0
LINE
  5
437
330
18
100
AcDbEntity
  8
1
 62
     1
100
AcDbLine
 10
47.84970276285561
 20
6.049931771379297
 30
0.0
 11
48.63911154466827
 21
5.406724375168886
 31
0.0
  0
LINE
  5
438
330
18
100
AcDbEntity
  8
1
 62
     1
100
AcDbLine
 10
48.63911154466827
 20
5.406724375168886
 30
0.0
 11
49.42851547155956
 21
4.68915034294531
 31
0.0
  0
LINE
  5
439
330
18
100
AcDbEntity
  8
1
 62
     1
100
AcDbLine
 10
40.87218904070515
 20
7.9375
 30
0.0
 11
43.11326900101575
 21
7.9375
 31
0.0
  0
LINE
  5
43A
330
18
100
AcDbEntity
  8
1
 62
     1
100
AcDbLine
 10
40.87218904070515
 20
7.937500000000001
 30
0.0
 11
41.20240272280536
 21
7.927938252197058
 31
0.0
  0
LINE
  5
43B
330
18
100
AcDbEntity
  8
1
 62
     1
100
AcDbLine
 10
41.20240272280536
 20
7.927938252197058
 30
0.0
 11
41.53260886401556
 21
7.899277743256265
 31
0.0
  0
LINE
  5
43C
330
18
100
AcDbEntity
  8
1
 62
     1
100
AcDbLine
 10
41.53260886401556
 20
7.899277743256265
 30
0.0
 11
41.86281413698488
 21
7.851588213788344
 31
0.0
  0
LINE
  5
43D
330
18
100
AcDbEntity
  8
1
 62
     1
100
AcDbLine
 10
41.86281413698488
 20
7.851588213788344
 30
0.0
 11
42.19302514722718
 21
7.784982830266182
 31
0.0
  0
LINE
  5
43E
330
18
100
AcDbEntity
  8
1
 62
     1
100
AcDbLine
 10
42.19302514722718
 20
7.784982830266182
 30
0.0
 11
42.52324090614719
 21
7.699620467338713
 31
0.0
  0
LINE
  5
43F
330
18
100
AcDbEntity
  8
1
 62
     1
100
AcDbLine
 10
42.52324090614719
 20
7.699620467338713
 30
0.0
 11
42.85344830496821
 21
7.595710851885882
 31
0.0
  0
LINE
  5
440
330
18
100
AcDbEntity
  8
1
 62
     1
100
AcDbLine
 10
42.85344830496821
 20
7.595710851885882
 30
0.0
 11
43.18365314406203
 21
7.473504214901127
 31
0.0
  0
LINE
  5
441
330
18
100
AcDbEntity
  8
1
 62
     1
100
AcDbLine
 10
43.18365314406203
 20
7.473504214901127
 30
0.0
 11
43.51386181441438
 21
7.333292262485001
 31
0.0
  0
LINE
  5
442
330
18
100
AcDbEntity
  8
1
 62
     1
100
AcDbLine
 10
43.51386181441438
 20
7.333292262485001
 30
0.0
 11
43.84407811389746
 21
7.175409600464661
 31
0.0
  0
LINE
  5
443
330
18
100
AcDbEntity
  8
1
 62
     1
100
AcDbLine
 10
43.84407811389746
 20
7.175409600464661
 30
0.0
 11
44.17428733158895
 21
7.000243299558857
 31
0.0
  0
LINE
  5
444
330
18
100
AcDbEntity
  8
1
 62
     1
100
AcDbLine
 10
44.17428733158895
 20
7.000243299558857
 30
0.0
 11
44.50449221920507
 21
6.808215848216137
 31
0.0
  0
LINE
  5
445
330
18
100
AcDbEntity
  8
1
 62
     1
100
AcDbLine
 10
44.50449221920507
 20
6.808215848216137
 30
0.0
 11
44.83469905250665
 21
6.599786257038991
 31
0.0
  0
LINE
  5
446
330
18
100
AcDbEntity
  8
1
 62
     1
100
AcDbLine
 10
44.83469905250665
 20
6.599786257038991
 30
0.0
 11
45.49512579609782
 21
6.135759097166495
 31
0.0
  0
LINE
  5
447
330
18
100
AcDbEntity
  8
1
 62
     1
100
AcDbLine
 10
45.49512579609782
 20
6.135759097166495
 30
0.0
 11
46.15553679594575
 21
5.612652895181609
 31
0.0
  0
LINE
  5
448
330
18
100
AcDbEntity
  8
1
 62
     1
100
AcDbLine
 10
46.15553679594575
 20
5.612652895181609
 30
0.0
 11
46.81596347703051
 21
5.03548057208048
 31
0.0
  0
LINE
  5
449
330
18
100
AcDbEntity
  8
1
 62
     1
100
AcDbLine
 10
46.81596347703051
 20
5.03548057208048
 30
0.0
 11
47.47637493389377
 21
4.40982717706185
 31
0.0
  0
LINE
  5
44A
330
18
100
AcDbEntity
  8
1
 62
     1
100
AcDbLine
 10
47.47637493389377
 20
4.40982717706185
 30
0.0
 11
48.79721331197533
 21
3.037533225604491
 31
0.0
  0
LINE
  5
44B
330
18
100
AcDbEntity
  8
1
 62
     1
100
AcDbLine
 10
48.79721331197533
 20
3.037533225604491
 30
0.0
 11
51.43886815072734
 21
-0.0000000000000377
 31
0.0
  0
LINE
  5
44C
330
18
100
AcDbEntity
  8
1
 62
     1
100
AcDbLine
 10
69.0
 20
-5.447855958785258
 30
0.0
 11
68.99455115874348
 21
-5.629760654636501
 31
0.0
  0
LINE
  5
44D
330
18
100
AcDbEntity
  8
1
 62
     1
100
AcDbLine
 10
68.99455115874348
 20
-5.629760654636501
 30
0.0
 11
68.98732349581307
 21
-5.721311337899008
 31
0.0
  0
LINE
  5
44E
330
18
100
AcDbEntity
  8
1
 62
     1
100
AcDbLine
 10
68.98732349581307
 20
-5.721311337899008
 30
0.0
 11
68.97667149047547
 21
-5.813132511230986
 31
0.0
  0
LINE
  5
44F
330
18
100
AcDbEntity
  8
1
 62
     1
100
AcDbLine
 10
68.97667149047547
 20
-5.813132511230986
 30
0.0
 11
68.96223992512675
 21
-5.905051361868646
 31
0.0
  0
LINE
  5
450
330
18
100
AcDbEntity
  8
1
 62
     1
100
AcDbLine
 10
68.96223992512675
 20
-5.905051361868646
 30
0.0
 11
68.94363177308367
 21
-5.99682763972109
 31
0.0
  0
LINE
  5
451
330
18
100
AcDbEntity
  8
1
 62
     1
100
AcDbLine
 10
68.94363177308367
 20
-5.99682763972109
 30
0.0
 11
68.92045243468017
 21
-6.088015134422822
 31
0.0
  0
LINE
  5
452
330
18
100
AcDbEntity
  8
1
 62
     1
100
AcDbLine
 10
68.92045243468017
 20
-6.088015134422822
 30
0.0
 11
68.89229051592862
 21
-6.178123851346784
 31
0.0
  0
LINE
  5
453
330
18
100
AcDbEntity
  8
1
 62
     1
100
AcDbLine
 10
68.89229051592862
 20
-6.178123851346784
 30
0.0
 11
68.85877426491125
 21
-6.266466659779965
 31
0.0
  0
LINE
  5
454
330
18
100
AcDbEntity
  8
1
 62
     1
100
AcDbLine
 10
68.85877426491125
 20
-6.266466659779965
 30
0.0
 11
68.81964844958691
 21
-6.352101417983171
 31
0.0
  0
LINE
  5
455
330
18
100
AcDbEntity
  8
1
 62
     1
100
AcDbLine
 10
68.81964844958691
 20
-6.352101417983171
 30
0.0
 11
68.7979577105538
 21
-6.393554874852338
 31
0.0
  0
LINE
  5
456
330
18
100
AcDbEntity
  8
1
 62
     1
100
AcDbLine
 10
68.7979577105538
 20
-6.393554874852338
 30
0.0
 11
68.77485489948047
 21
-6.433897465221174
 31
0.0
  0
LINE
  5
457
330
18
100
AcDbEntity
  8
1
 62
     1
100
AcDbLine
 10
68.77485489948047
 20
-6.433897465221174
 30
0.0
 11
68.75037058843182
 21
-6.472981798297303
 31
0.0
  0
LINE
  5
458
330
18
100
AcDbEntity
  8
1
 62
     1
100
AcDbLine
 10
68.75037058843182
 20
-6.472981798297303
 30
0.0
 11
68.72454023391646
 21
-6.510664453097742
 31
0.0
  0
LINE
  5
459
330
18
100
AcDbEntity
  8
1
 62
     1
100
AcDbLine
 10
68.72454023391646
 20
-6.510664453097742
 30
0.0
 11
68.69744013128081
 21
-6.54678411901335
 31
0.0
  0
LINE
  5
45A
330
18
100
AcDbEntity
  8
1
 62
     1
100
AcDbLine
 10
68.69744013128081
 20
-6.54678411901335
 30
0.0
 11
68.66913279637211
 21
-6.581221963953209
 31
0.0
  0
LINE
  5
45B
330
18
100
AcDbEntity
  8
1
 62
     1
100
AcDbLine
 10
68.66913279637211
 20
-6.581221963953209
 30
0.0
 11
68.63972901397324
 21
-6.613838680002027
 31
0.0
  0
LINE
  5
45C
330
18
100
AcDbEntity
  8
1
 62
     1
100
AcDbLine
 10
68.63972901397324
 20
-6.613838680002027
 30
0.0
 11
68.60931172076056
 21
-6.644554258795558
 31
0.0
  0
LINE
  5
45D
330
18
100
AcDbEntity
  8
1
 62
     1
100
AcDbLine
 10
68.60931172076056
 20
-6.644554258795558
 30
0.0
 11
68.57801043638717
 21
-6.673270881239196
 31
0.0
  0
LINE
  5
45E
330
18
100
AcDbEntity
  8
1
 62
     1
100
AcDbLine
 10
68.57801043638717
 20
-6.673270881239196
 30
0.0
 11
68.54591749061638
 21
-6.699953277356577
 31
0.0
  0
LINE
  5
45F
330
18
100
AcDbEntity
  8
1
 62
     1
100
AcDbLine
 10
68.54591749061638
 20
-6.699953277356577
 30
0.0
 11
68.51316259424628
 21
-6.724553459606452
 31
0.0
  0
LINE
  5
460
330
18
100
AcDbEntity
  8
1
 62
     1
100
AcDbLine
 10
68.51316259424628
 20
-6.724553459606452
 30
0.0
 11
68.47983696115291
 21
-6.747076602833933
 31
0.0
  0
LINE
  5
461
330
18
100
AcDbEntity
  8
1
 62
     1
100
AcDbLine
 10
68.47983696115291
 20
-6.747076602833933
 30
0.0
 11
68.44605505559755
 21
-6.767521286957242
 31
0.0
  0
LINE
  5
462
330
18
100
AcDbEntity
  8
1
 62
     1
100
AcDbLine
 10
68.44605505559755
 20
-6.767521286957242
 30
0.0
 11
68.41190059052306
 21
-6.785922184223715
 31
0.0
  0
LINE
  5
463
330
18
100
AcDbEntity
  8
1
 62
     1
100
AcDbLine
 10
68.41190059052306
 20
-6.785922184223715
 30
0.0
 11
68.37745713689903
 21
-6.802315575231681
 31
0.0
  0
LINE
  5
464
330
18
100
AcDbEntity
  8
1
 62
     1
100
AcDbLine
 10
68.37745713689903
 20
-6.802315575231681
 30
0.0
 11
68.34278875637605
 21
-6.816758379977571
 31
0.0
  0
LINE
  5
465
330
18
100
AcDbEntity
  8
1
 62
     1
100
AcDbLine
 10
68.34278875637605
 20
-6.816758379977571
 30
0.0
 11
68.30799491790356
 21
-6.82929306918086
 31
0.0
  0
LINE
  5
466
330
18
100
AcDbEntity
  8
1
 62
     1
100
AcDbLine
 10
68.30799491790356
 20
-6.82929306918086
 30
0.0
 11
68.27311220332655
 21
-6.839987916699038
 31
0.0
  0
LINE
  5
467
330
18
100
AcDbEntity
  8
1
 62
     1
100
AcDbLine
 10
68.27311220332655
 20
-6.839987916699038
 30
0.0
 11
68.23818716549795
 21
-6.848910355307305
 31
0.0
  0
LINE
  5
468
330
18
100
AcDbEntity
  8
1
 62
     1
100
AcDbLine
 10
68.23818716549795
 20
-6.848910355307305
 30
0.0
 11
68.20328506107091
 21
-6.856120003981414
 31
0.0
  0
LINE
  5
469
330
18
100
AcDbEntity
  8
1
 62
     1
100
AcDbLine
 10
68.20328506107091
 20
-6.856120003981414
 30
0.0
 11
68.16841803311459
 21
-6.861687740373068
 31
0.0
  0
LINE
  5
46A
330
18
100
AcDbEntity
  8
1
 62
     1
100
AcDbLine
 10
68.16841803311459
 20
-6.861687740373068
 30
0.0
 11
68.1336239743705
 21
-6.865676991389236
 31
0.0
  0
LINE
  5
46B
330
18
100
AcDbEntity
  8
1
 62
     1
100
AcDbLine
 10
68.1336239743705
 20
-6.865676991389236
 30
0.0
 11
68.09894055331583
 21
-6.868149431655996
 31
0.0
  0
LINE
  5
46C
330
18
100
AcDbEntity
  8
1
 62
     1
100
AcDbLine
 10
68.09894055331583
 20
-6.868149431655996
 30
0.0
 11
68.06436935354006
 21
-6.869167135991223
 31
0.0
  0
LINE
  5
46D
330
18
100
AcDbEntity
  8
1
 62
     1
100
AcDbLine
 10
68.06436935354006
 20
-6.869167135991223
 30
0.0
 11
68.02993975862937
 21
-6.868787297627869
 31
0.0
  0
LINE
  5
46E
330
18
100
AcDbEntity
  8
1
 62
     1
100
AcDbLine
 10
68.02993975862937
 20
-6.868787297627869
 30
0.0
 11
67.99566910790242
 21
-6.867065722986206
 31
0.0
  0
LINE
  5
46F
330
18
100
AcDbEntity
  8
1
 62
     1
100
AcDbLine
 10
67.99566910790242
 20
-6.867065722986206
 30
0.0
 11
67.96155725621372
 21
-6.864053808309986
 31
0.0
  0
LINE
  5
470
330
18
100
AcDbEntity
  8
1
 62
     1
100
AcDbLine
 10
67.96155725621372
 20
-6.864053808309986
 30
0.0
 11
67.92762595419401
 21
-6.859801944098709
 31
0.0
  0
LINE
  5
471
330
18
100
AcDbEntity
  8
1
 62
     1
100
AcDbLine
 10
67.92762595419401
 20
-6.859801944098709
 30
0.0
 11
67.86030448552297
 21
-6.847758999646826
 31
0.0
  0
LINE
  5
472
330
18
100
AcDbEntity
  8
1
 62
     1
100
AcDbLine
 10
67.86030448552297
 20
-6.847758999646826
 30
0.0
 11
67.79375990966494
 21
-6.831276318685202
 31
0.0
  0
LINE
  5
473
330
18
100
AcDbEntity
  8
1
 62
     1
100
AcDbLine
 10
67.79375990966494
 20
-6.831276318685202
 30
0.0
 11
67.72803609051748
 21
-6.81066335167005
 31
0.0
  0
LINE
  5
474
330
18
100
AcDbEntity
  8
1
 62
     1
100
AcDbLine
 10
67.72803609051748
 20
-6.81066335167005
 30
0.0
 11
67.66313429136443
 21
-6.786180264147243
 31
0.0
  0
LINE
  5
475
330
18
100
AcDbEntity
  8
1
 62
     1
100
AcDbLine
 10
67.66313429136443
 20
-6.786180264147243
 30
0.0
 11
67.59908208683876
 21
-6.758073184678286
 31
0.0
  0
LINE
  5
476
330
18
100
AcDbEntity
  8
1
 62
     1
100
AcDbLine
 10
67.59908208683876
 20
-6.758073184678286
 30
0.0
 11
67.5358668223568
 21
-6.726542962111757
 31
0.0
  0
LINE
  5
477
330
18
100
AcDbEntity
  8
1
 62
     1
100
AcDbLine
 10
67.5358668223568
 20
-6.726542962111757
 30
0.0
 11
67.47351052981107
 21
-6.691788499746914
 31
0.0
  0
LINE
  5
478
330
18
100
AcDbEntity
  8
1
 62
     1
100
AcDbLine
 10
67.47351052981107
 20
-6.691788499746914
 30
0.0
 11
67.412
 21
-6.653969638810949
 31
0.0
  0
LINE
  5
479
330
18
100
AcDbEntity
  8
1
 62
     1
100
AcDbLine
 10
69.0
 20
-6.349324601808368
 30
0.0
 11
68.99690736060697
 21
-6.448342277714598
 31
0.0
  0
LINE
  5
47A
330
18
100
AcDbEntity
  8
1
 62
     1
100
AcDbLine
 10
68.99690736060697
 20
-6.448342277714598
 30
0.0
 11
68.98768995873289
 21
-6.546550748908825
 31
0.0
  0
LINE
  5
47B
330
18
100
AcDbEntity
  8
1
 62
     1
100
AcDbLine
 10
68.98768995873289
 20
-6.546550748908825
 30
0.0
 11
68.97251851542417
 21
-6.643207762098924
 31
0.0
  0
LINE
  5
47C
330
18
100
AcDbEntity
  8
1
 62
     1
100
AcDbLine
 10
68.97251851542417
 20
-6.643207762098924
 30
0.0
 11
68.95166338525863
 21
-6.7375995885813
 31
0.0
  0
LINE
  5
47D
330
18
100
AcDbEntity
  8
1
 62
     1
100
AcDbLine
 10
68.95166338525863
 20
-6.7375995885813
 30
0.0
 11
68.92549011806307
 21
-6.829047491940871
 31
0.0
  0
LINE
  5
47E
330
18
100
AcDbEntity
  8
1
 62
     1
100
AcDbLine
 10
68.92549011806307
 20
-6.829047491940871
 30
0.0
 11
68.89443174852627
 21
-6.916980170354791
 31
0.0
  0
LINE
  5
47F
330
18
100
AcDbEntity
  8
1
 62
     1
100
AcDbLine
 10
68.89443174852627
 20
-6.916980170354791
 30
0.0
 11
68.85894728830012
 21
-7.000958500166323
 31
0.0
  0
LINE
  5
480
330
18
100
AcDbEntity
  8
1
 62
     1
100
AcDbLine
 10
68.85894728830012
 20
-7.000958500166323
 30
0.0
 11
68.81950449779526
 21
-7.080647496108778
 31
0.0
  0
LINE
  5
481
330
18
100
AcDbEntity
  8
1
 62
     1
100
AcDbLine
 10
68.81950449779526
 20
-7.080647496108778
 30
0.0
 11
68.77656961454556
 21
-7.155799308384827
 31
0.0
  0
LINE
  5
482
330
18
100
AcDbEntity
  8
1
 62
     1
100
AcDbLine
 10
68.77656961454556
 20
-7.155799308384827
 30
0.0
 11
68.7305796508441
 21
-7.226269832671667
 31
0.0
  0
LINE
  5
483
330
18
100
AcDbEntity
  8
1
 62
     1
100
AcDbLine
 10
68.7305796508441
 20
-7.226269832671667
 30
0.0
 11
68.681927588747
 21
-7.292000098316933
 31
0.0
  0
LINE
  5
484
330
18
100
AcDbEntity
  8
1
 62
     1
100
AcDbLine
 10
68.681927588747
 20
-7.292000098316933
 30
0.0
 11
68.63096758775576
 21
-7.352984257088814
 31
0.0
  0
LINE
  5
485
330
18
100
AcDbEntity
  8
1
 62
     1
100
AcDbLine
 10
68.63096758775576
 20
-7.352984257088814
 30
0.0
 11
68.57801993438812
 21
-7.409251978614305
 31
0.0
  0
LINE
  5
486
330
18
100
AcDbEntity
  8
1
 62
     1
100
AcDbLine
 10
68.57801993438812
 20
-7.409251978614305
 30
0.0
 11
68.52336281008472
 21
-7.460868946898939
 31
0.0
  0
LINE
  5
487
330
18
100
AcDbEntity
  8
1
 62
     1
100
AcDbLine
 10
68.52336281008472
 20
-7.460868946898939
 30
0.0
 11
68.46723134984599
 21
-7.50792672070342
 31
0.0
  0
LINE
  5
488
330
18
100
AcDbEntity
  8
1
 62
     1
100
AcDbLine
 10
68.46723134984599
 20
-7.50792672070342
 30
0.0
 11
68.40981414391352
 21
-7.550536940514949
 31
0.0
  0
LINE
  5
489
330
18
100
AcDbEntity
  8
1
 62
     1
100
AcDbLine
 10
68.40981414391352
 20
-7.550536940514949
 30
0.0
 11
68.35132355029991
 21
-7.588780248190037
 31
0.0
  0
LINE
  5
48A
330
18
100
AcDbEntity
  8
1
 62
     1
100
AcDbLine
 10
68.35132355029991
 20
-7.588780248190037
 30
0.0
 11
68.29188738567055
 21
-7.622781078277709
 31
0.0
  0
LINE
  5
48B
330
18
100
AcDbEntity
  8
1
 62
     1
100
AcDbLine
 10
68.29188738567055
 20
-7.622781078277709
 30
0.0
 11
68.23166172873601
 21
-7.652633323845079
 31
0.0
  0
LINE
  5
48C
330
18
100
AcDbEntity
  8
1
 62
     1
100
AcDbLine
 10
68.23166172873601
 20
-7.652633323845079
 30
0.0
 11
68.17073741040895
 21
-7.678451891744546
 31
0.0
  0
LINE
  5
48D
330
18
100
AcDbEntity
  8
1
 62
     1
100
AcDbLine
 10
68.17073741040895
 20
-7.678451891744546
 30
0.0
 11
68.10923439434771
 21
-7.700327091476402
 31
0.0
  0
LINE
  5
48E
330
18
100
AcDbEntity
  8
1
 62
     1
100
AcDbLine
 10
68.10923439434771
 20
-7.700327091476402
 30
0.0
 11
68.04721698452738
 21
-7.718359802936718
 31
0.0
  0
LINE
  5
48F
330
18
100
AcDbEntity
  8
1
 62
     1
100
AcDbLine
 10
68.04721698452738
 20
-7.718359802936718
 30
0.0
 11
67.98477805877303
 21
-7.732632261768615
 31
0.0
  0
LINE
  5
490
330
18
100
AcDbEntity
  8
1
 62
     1
100
AcDbLine
 10
67.98477805877303
 20
-7.732632261768615
 30
0.0
 11
67.92194880098774
 21
-7.743231606769426
 31
0.0
  0
LINE
  5
491
330
18
100
AcDbEntity
  8
1
 62
     1
100
AcDbLine
 10
67.92194880098774
 20
-7.743231606769426
 30
0.0
 11
67.85880382196457
 21
-7.750228315796903
 31
0.0
  0
LINE
  5
492
330
18
100
AcDbEntity
  8
1
 62
     1
100
AcDbLine
 10
67.85880382196457
 20
-7.750228315796903
 30
0.0
 11
67.79542924527186
 21
-7.753688258865138
 31
0.0
  0
LINE
  5
493
330
18
100
AcDbEntity
  8
1
 62
     1
100
AcDbLine
 10
67.79542924527186
 20
-7.753688258865138
 30
0.0
 11
67.73182397235509
 21
-7.753677047765916
 31
0.0
  0
LINE
  5
494
330
18
100
AcDbEntity
  8
1
 62
     1
100
AcDbLine
 10
67.73182397235509
 20
-7.753677047765916
 30
0.0
 11
67.66804288321111
 21
-7.750250870343877
 31
0.0
  0
LINE
  5
495
330
18
100
AcDbEntity
  8
1
 62
     1
100
AcDbLine
 10
67.66804288321111
 20
-7.750250870343877
 30
0.0
 11
67.60415419950066
 21
-7.743463192091397
 31
0.0
  0
LINE
  5
496
330
18
100
AcDbEntity
  8
1
 62
     1
100
AcDbLine
 10
67.60415419950066
 20
-7.743463192091397
 30
0.0
 11
67.54014908554633
 21
-7.733355142335264
 31
0.0
  0
LINE
  5
497
330
18
100
AcDbEntity
  8
1
 62
     1
100
AcDbLine
 10
67.54014908554633
 20
-7.733355142335264
 30
0.0
 11
67.47607662023553
 21
-7.719969209480354
 31
0.0
  0
LINE
  5
498
330
18
100
AcDbEntity
  8
1
 62
     1
100
AcDbLine
 10
67.47607662023553
 20
-7.719969209480354
 30
0.0
 11
67.41200000000002
 21
-7.703348356479403
 31
0.0
  0
LINE
  5
499
330
18
100
AcDbEntity
  8
1
 62
     1
100
AcDbLine
 10
69.0
 20
-5.447855958785233
 30
0.0
 11
68.99999999999999
 21
-6.34932460180837
 31
0.0
  0
LINE
  5
49A
330
18
100
AcDbEntity
  8
1
 62
     1
100
AcDbLine
 10
50.15772181366694
 20
7.9375
 30
0.0
 11
50.55242741208562
 21
7.923840303002928
 31
0.0
  0
LINE
  5
49B
330
18
100
AcDbEntity
  8
1
 62
     1
100
AcDbLine
 10
50.55242741208562
 20
7.923840303002928
 30
0.0
 11
50.94713123624113
 21
7.882908481437038
 31
0.0
  0
LINE
  5
49C
330
18
100
AcDbEntity
  8
1
 62
     1
100
AcDbLine
 10
50.94713123624113
 20
7.882908481437038
 30
0.0
 11
51.34183466026201
 21
7.814845883376874
 31
0.0
  0
LINE
  5
49D
330
18
100
AcDbEntity
  8
1
 62
     1
100
AcDbLine
 10
51.34183466026201
 20
7.814845883376874
 30
0.0
 11
51.73653586086824
 21
7.71988665397132
 31
0.0
  0
LINE
  5
49E
330
18
100
AcDbEntity
  8
1
 62
     1
100
AcDbLine
 10
51.73653586086824
 20
7.71988665397132
 30
0.0
 11
52.1312376618186
 21
7.598358192724284
 31
0.0
  0
LINE
  5
49F
330
18
100
AcDbEntity
  8
1
 62
     1
100
AcDbLine
 10
52.1312376618186
 20
7.598358192724284
 30
0.0
 11
52.52593817166703
 21
7.450678276578786
 31
0.0
  0
LINE
  5
4A0
330
18
100
AcDbEntity
  8
1
 62
     1
100
AcDbLine
 10
52.52593817166703
 20
7.450678276578786
 30
0.0
 11
52.92063972247872
 21
7.277355629872251
 31
0.0
  0
LINE
  5
4A1
330
18
100
AcDbEntity
  8
1
 62
     1
100
AcDbLine
 10
52.92063972247872
 20
7.277355629872251
 30
0.0
 11
53.31534061277839
 21
7.078986009929468
 31
0.0
  0
LINE
  5
4A2
330
18
100
AcDbEntity
  8
1
 62
     1
100
AcDbLine
 10
53.31534061277839
 20
7.078986009929468
 30
0.0
 11
53.71004278326078
 21
6.856252409826169
 31
0.0
  0
LINE
  5
4A3
330
18
100
AcDbEntity
  8
1
 62
     1
100
AcDbLine
 10
53.71004278326078
 20
6.856252409826169
 30
0.0
 11
54.10474561020809
 21
6.609920775308537
 31
0.0
  0
LINE
  5
4A4
330
18
100
AcDbEntity
  8
1
 62
     1
100
AcDbLine
 10
54.10474561020809
 20
6.609920775308537
 30
0.0
 11
54.49944931630501
 21
6.340838443998572
 31
0.0
  0
LINE
  5
4A5
330
18
100
AcDbEntity
  8
1
 62
     1
100
AcDbLine
 10
54.49944931630501
 20
6.340838443998572
 30
0.0
 11
54.89415546545882
 21
6.049931773778044
 31
0.0
  0
LINE
  5
4A6
330
18
100
AcDbEntity
  8
1
 62
     1
100
AcDbLine
 10
54.89415546545882
 20
6.049931773778044
 30
0.0
 11
55.68356428545387
 21
5.406724413562934
 31
0.0
  0
LINE
  5
4A7
330
18
100
AcDbEntity
  8
1
 62
     1
100
AcDbLine
 10
55.68356428545387
 20
5.406724413562934
 30
0.0
 11
56.47296820220913
 21
4.689150391635623
 31
0.0
  0
LINE
  5
4A8
330
18
100
AcDbEntity
  8
1
 62
     1
100
AcDbLine
 10
47.91664178077409
 20
7.937500000000001
 30
0.0
 11
48.246855469333
 21
7.927938252493482
 31
0.0
  0
LINE
  5
4A9
330
18
100
AcDbEntity
  8
1
 62
     1
100
AcDbLine
 10
48.246855469333
 20
7.927938252493482
 30
0.0
 11
48.57706160607181
 21
7.899277743406304
 31
0.0
  0
LINE
  5
4AA
330
18
100
AcDbEntity
  8
1
 62
     1
100
AcDbLine
 10
48.57706160607181
 20
7.899277743406304
 30
0.0
 11
48.90726688321885
 21
7.851588214539271
 31
0.0
  0
LINE
  5
4AB
330
18
100
AcDbEntity
  8
1
 62
     1
100
AcDbLine
 10
48.90726688321885
 20
7.851588214539271
 30
0.0
 11
49.23747788770942
 21
7.784982830344473
 31
0.0
  0
LINE
  5
4AC
330
18
100
AcDbEntity
  8
1
 62
     1
100
AcDbLine
 10
49.23747788770942
 20
7.784982830344473
 30
0.0
 11
49.56769365240606
 21
7.699620468649277
 31
0.0
  0
LINE
  5
4AD
330
18
100
AcDbEntity
  8
1
 62
     1
100
AcDbLine
 10
49.56769365240606
 20
7.699620468649277
 30
0.0
 11
49.8979010465698
 21
7.595710852205981
 31
0.0
  0
LINE
  5
4AE
330
18
100
AcDbEntity
  8
1
 62
     1
100
AcDbLine
 10
49.8979010465698
 20
7.595710852205981
 30
0.0
 11
50.22810588859802
 21
7.473504216219553
 31
0.0
  0
LINE
  5
4AF
330
18
100
AcDbEntity
  8
1
 62
     1
100
AcDbLine
 10
50.22810588859802
 20
7.473504216219553
 30
0.0
 11
50.55831455766798
 21
7.333292263544606
 31
0.0
  0
LINE
  5
4B0
330
18
100
AcDbEntity
  8
1
 62
     1
100
AcDbLine
 10
50.55831455766798
 20
7.333292263544606
 30
0.0
 11
50.88853085823531
 21
7.175409602044313
 31
0.0
  0
LINE
  5
4B1
330
18
100
AcDbEntity
  8
1
 62
     1
100
AcDbLine
 10
50.88853085823531
 20
7.175409602044313
 30
0.0
 11
51.21874007506596
 21
7.000243300921066
 31
0.0
  0
LINE
  5
4B2
330
18
100
AcDbEntity
  8
1
 62
     1
100
AcDbLine
 10
51.21874007506596
 20
7.000243300921066
 30
0.0
 11
51.54894496134041
 21
6.808215849226431
 31
0.0
  0
LINE
  5
4B3
330
18
100
AcDbEntity
  8
1
 62
     1
100
AcDbLine
 10
51.54894496134041
 20
6.808215849226431
 30
0.0
 11
51.8791517980918
 21
6.599786259668666
 31
0.0
  0
LINE
  5
4B4
330
18
100
AcDbEntity
  8
1
 62
     1
100
AcDbLine
 10
51.8791517980918
 20
6.599786259668666
 30
0.0
 11
52.53957854189598
 21
6.135759100319893
 31
0.0
  0
LINE
  5
4B5
330
18
100
AcDbEntity
  8
1
 62
     1
100
AcDbLine
 10
52.53957854189598
 20
6.135759100319893
 30
0.0
 11
53.19998954227221
 21
5.612652898990776
 31
0.0
  0
LINE
  5
4B6
330
18
100
AcDbEntity
  8
1
 62
     1
100
AcDbLine
 10
53.19998954227221
 20
5.612652898990776
 30
0.0
 11
53.86041622359611
 21
5.035480576464485
 31
0.0
  0
LINE
  5
4B7
330
18
100
AcDbEntity
  8
1
 62
     1
100
AcDbLine
 10
53.86041622359611
 20
5.035480576464485
 30
0.0
 11
54.520827679646
 21
4.409827181189297
 31
0.0
  0
LINE
  5
4B8
330
18
100
AcDbEntity
  8
1
 62
     1
100
AcDbLine
 10
54.520827679646
 20
4.409827181189297
 30
0.0
 11
55.84166605555769
 21
3.037533228540751
 31
0.0
  0
LINE
  5
4B9
330
18
100
AcDbEntity
  8
1
 62
     1
100
AcDbLine
 10
55.84166605555769
 20
3.037533228540751
 30
0.0
 11
58.48332089051006
 21
0.000000000000038
 31
0.0
  0
LINE
  5
4BA
330
18
100
AcDbEntity
  8
1
 62
     1
100
AcDbLine
 10
69.00000000000001
 20
0.1005652099682564
 30
0.0
 11
68.99868164995334
 21
0.0324084485487225
 31
0.0
  0
LINE
  5
4BB
330
18
100
AcDbEntity
  8
1
 62
     1
100
AcDbLine
 10
68.99868164995334
 20
0.0324084485487225
 30
0.0
 11
68.99455246816254
 21
-0.0343490956339071
 31
0.0
  0
LINE
  5
4BC
330
18
100
AcDbEntity
  8
1
 62
     1
100
AcDbLine
 10
68.99455246816254
 20
-0.0343490956339071
 30
0.0
 11
68.98732485133884
 21
-0.0994047580349
 31
0.0
  0
LINE
  5
4BD
330
18
100
AcDbEntity
  8
1
 62
     1
100
AcDbLine
 10
68.98732485133884
 20
-0.0994047580349
 30
0.0
 11
68.97667307576586
 21
-0.1623209048354533
 31
0.0
  0
LINE
  5
4BE
330
18
100
AcDbEntity
  8
1
 62
     1
100
AcDbLine
 10
68.97667307576586
 20
-0.1623209048354533
 30
0.0
 11
68.96995602614106
 21
-0.1928202159283709
 31
0.0
  0
LINE
  5
4BF
330
18
100
AcDbEntity
  8
1
 62
     1
100
AcDbLine
 10
68.96995602614106
 20
-0.1928202159283709
 30
0.0
 11
68.9622453454792
 21
-0.2225983299696054
 31
0.0
  0
LINE
  5
4C0
330
18
100
AcDbEntity
  8
1
 62
     1
100
AcDbLine
 10
68.9622453454792
 20
-0.2225983299696054
 30
0.0
 11
68.95349420099107
 21
-0.2515642834675221
 31
0.0
  0
LINE
  5
4C1
330
18
100
AcDbEntity
  8
1
 62
     1
100
AcDbLine
 10
68.95349420099107
 20
-0.2515642834675221
 30
0.0
 11
68.94364943131059
 21
-0.2796406362785404
 31
0.0
  0
LINE
  5
4C2
330
18
100
AcDbEntity
  8
1
 62
     1
100
AcDbLine
 10
68.94364943131059
 20
-0.2796406362785404
 30
0.0
 11
68.93265788162726
 21
-0.3067354672066979
 31
0.0
  0
LINE
  5
4C3
330
18
100
AcDbEntity
  8
1
 62
     1
100
AcDbLine
 10
68.93265788162726
 20
-0.3067354672066979
 30
0.0
 11
68.92047405064137
 21
-0.3327318557683421
 31
0.0
  0
LINE
  5
4C4
330
18
100
AcDbEntity
  8
1
 62
     1
100
AcDbLine
 10
68.92047405064137
 20
-0.3327318557683421
 30
0.0
 11
68.90703837480117
 21
-0.3575365065433584
 31
0.0
  0
LINE
  5
4C5
330
18
100
AcDbEntity
  8
1
 62
     1
100
AcDbLine
 10
68.90703837480117
 20
-0.3575365065433584
 30
0.0
 11
68.89230735253727
 21
-0.3810261592435711
 31
0.0
  0
LINE
  5
4C6
330
18
100
AcDbEntity
  8
1
 62
     1
100
AcDbLine
 10
68.89230735253727
 20
-0.3810261592435711
 30
0.0
 11
68.88444584636085
 21
-0.3922334130436939
 31
0.0
  0
LINE
  5
4C7
330
18
100
AcDbEntity
  8
1
 62
     1
100
AcDbLine
 10
68.88444584636085
 20
-0.3922334130436939
 30
0.0
 11
68.87624515454077
 21
-0.4030621853792856
 31
0.0
  0
LINE
  5
4C8
330
18
100
AcDbEntity
  8
1
 62
     1
100
AcDbLine
 10
68.87624515454077
 20
-0.4030621853792856
 30
0.0
 11
68.86769543907151
 21
-0.4135029501613938
 31
0.0
  0
LINE
  5
4C9
330
18
100
AcDbEntity
  8
1
 62
     1
100
AcDbLine
 10
68.86769543907151
 20
-0.4135029501613938
 30
0.0
 11
68.85879596466428
 21
-0.4235368751228357
 31
0.0
  0
LINE
  5
4CA
330
18
100
AcDbEntity
  8
1
 62
     1
100
AcDbLine
 10
68.85879596466428
 20
-0.4235368751228357
 30
0.0
 11
68.8495464017987
 21
-0.4331446821979257
 31
0.0
  0
LINE
  5
4CB
330
18
100
AcDbEntity
  8
1
 62
     1
100
AcDbLine
 10
68.8495464017987
 20
-0.4331446821979257
 30
0.0
 11
68.83994642095442
 21
-0.4423070933209774
 31
0.0
  0
LINE
  5
4CC
330
18
100
AcDbEntity
  8
1
 62
     1
100
AcDbLine
 10
68.83994642095442
 20
-0.4423070933209774
 30
0.0
 11
68.8299955533145
 21
-0.4510049639692191
 31
0.0
  0
LINE
  5
4CD
330
18
100
AcDbEntity
  8
1
 62
     1
100
AcDbLine
 10
68.8299955533145
 20
-0.4510049639692191
 30
0.0
 11
68.81968664780625
 21
-0.4592269431642917
 31
0.0
  0
LINE
  5
4CE
330
18
100
AcDbEntity
  8
1
 62
     1
100
AcDbLine
 10
68.81968664780625
 20
-0.4592269431642917
 30
0.0
 11
68.80901923565494
 21
-0.4669594359329179
 31
0.0
  0
LINE
  5
4CF
330
18
100
AcDbEntity
  8
1
 62
     1
100
AcDbLine
 10
68.80901923565494
 20
-0.4669594359329179
 30
0.0
 11
68.79799805687338
 21
-0.4741846169117745
 31
0.0
  0
LINE
  5
4D0
330
18
100
AcDbEntity
  8
1
 62
     1
100
AcDbLine
 10
68.79799805687338
 20
-0.4741846169117745
 30
0.0
 11
68.7866265034637
 21
-0.4808854661179148
 31
0.0
  0
LINE
  5
4D1
330
18
100
AcDbEntity
  8
1
 62
     1
100
AcDbLine
 10
68.7866265034637
 20
-0.4808854661179148
 30
0.0
 11
68.77489997479299
 21
-0.4870519990905802
 31
0.0
  0
LINE
  5
4D2
330
18
100
AcDbEntity
  8
1
 62
     1
100
AcDbLine
 10
68.77489997479299
 20
-0.4870519990905802
 30
0.0
 11
68.762825447579
 21
-0.4926713501845202
 31
0.0
  0
LINE
  5
4D3
330
18
100
AcDbEntity
  8
1
 62
     1
100
AcDbLine
 10
68.762825447579
 20
-0.4926713501845202
 30
0.0
 11
68.75041259800949
 21
-0.497729405531973
 31
0.0
  0
LINE
  5
4D4
330
18
100
AcDbEntity
  8
1
 62
     1
100
AcDbLine
 10
68.75041259800949
 20
-0.497729405531973
 30
0.0
 11
68.73766672735631
 21
-0.5022139689040327
 31
0.0
  0
LINE
  5
4D5
330
18
100
AcDbEntity
  8
1
 62
     1
100
AcDbLine
 10
68.73766672735631
 20
-0.5022139689040327
 30
0.0
 11
68.72458742384534
 21
-0.5061192134112581
 31
0.0
  0
LINE
  5
4D6
330
18
100
AcDbEntity
  8
1
 62
     1
100
AcDbLine
 10
68.72458742384534
 20
-0.5061192134112581
 30
0.0
 11
68.71118836373071
 21
-0.5094371271234289
 31
0.0
  0
LINE
  5
4D7
330
18
100
AcDbEntity
  8
1
 62
     1
100
AcDbLine
 10
68.71118836373071
 20
-0.5094371271234289
 30
0.0
 11
68.69748405322702
 21
-0.512159449307895
 31
0.0
  0
LINE
  5
4D8
330
18
100
AcDbEntity
  8
1
 62
     1
100
AcDbLine
 10
68.69748405322702
 20
-0.512159449307895
 30
0.0
 11
68.68347930503569
 21
-0.5142807934360007
 31
0.0
  0
LINE
  5
4D9
330
18
100
AcDbEntity
  8
1
 62
     1
100
AcDbLine
 10
68.68347930503569
 20
-0.5142807934360007
 30
0.0
 11
68.66918078501934
 21
-0.5158006128883932
 31
0.0
  0
LINE
  5
4DA
330
18
100
AcDbEntity
  8
1
 62
     1
100
AcDbLine
 10
68.66918078501934
 20
-0.5158006128883932
 30
0.0
 11
68.65460671200755
 21
-0.5167177513197034
 31
0.0
  0
LINE
  5
4DB
330
18
100
AcDbEntity
  8
1
 62
     1
100
AcDbLine
 10
68.65460671200755
 20
-0.5167177513197034
 30
0.0
 11
68.63977451882376
 21
-0.5170310913482291
 31
0.0
  0
LINE
  5
4DC
330
18
100
AcDbEntity
  8
1
 62
     1
100
AcDbLine
 10
68.63977451882376
 20
-0.5170310913482291
 30
0.0
 11
68.62468735712942
 21
-0.516742115177265
 31
0.0
  0
LINE
  5
4DD
330
18
100
AcDbEntity
  8
1
 62
     1
100
AcDbLine
 10
68.62468735712942
 20
-0.516742115177265
 30
0.0
 11
68.60935909554703
 21
-0.5158563177226921
 31
0.0
  0
LINE
  5
4DE
330
18
100
AcDbEntity
  8
1
 62
     1
100
AcDbLine
 10
68.60935909554703
 20
-0.5158563177226921
 30
0.0
 11
68.59380981527633
 21
-0.5143795198213974
 31
0.0
  0
LINE
  5
4DF
330
18
100
AcDbEntity
  8
1
 62
     1
100
AcDbLine
 10
68.59380981527633
 20
-0.5143795198213974
 30
0.0
 11
68.56210136778196
 21
-0.5096767024676062
 31
0.0
  0
LINE
  5
4E0
330
18
100
AcDbEntity
  8
1
 62
     1
100
AcDbLine
 10
68.56210136778196
 20
-0.5096767024676062
 30
0.0
 11
68.52966077718054
 21
-0.5027047995074828
 31
0.0
  0
LINE
  5
4E1
330
18
100
AcDbEntity
  8
1
 62
     1
100
AcDbLine
 10
68.52966077718054
 20
-0.5027047995074828
 30
0.0
 11
68.49660755214845
 21
-0.4935502111457861
 31
0.0
  0
LINE
  5
4E2
330
18
100
AcDbEntity
  8
1
 62
     1
100
AcDbLine
 10
68.49660755214845
 20
-0.4935502111457861
 30
0.0
 11
68.46304070867254
 21
-0.4823152979879725
 31
0.0
  0
LINE
  5
4E3
330
18
100
AcDbEntity
  8
1
 62
     1
100
AcDbLine
 10
68.46304070867254
 20
-0.4823152979879725
 30
0.0
 11
68.42905857584717
 21
-0.469107709136664
 31
0.0
  0
LINE
  5
4E4
330
18
100
AcDbEntity
  8
1
 62
     1
100
AcDbLine
 10
68.42905857584717
 20
-0.469107709136664
 30
0.0
 11
68.39475309784102
 21
-0.4540455921426582
 31
0.0
  0
LINE
  5
4E5
330
18
100
AcDbEntity
  8
1
 62
     1
100
AcDbLine
 10
68.39475309784102
 20
-0.4540455921426582
 30
0.0
 11
68.36018915342731
 21
-0.4372364051481409
 31
0.0
  0
LINE
  5
4E6
330
18
100
AcDbEntity
  8
1
 62
     1
100
AcDbLine
 10
68.36018915342731
 20
-0.4372364051481409
 30
0.0
 11
68.29060005896436
 21
-0.3988619455109077
 31
0.0
  0
LINE
  5
4E7
330
18
100
AcDbEntity
  8
1
 62
     1
100
AcDbLine
 10
68.29060005896436
 20
-0.3988619455109077
 30
0.0
 11
68.22076318777096
 21
-0.3548692525121854
 31
0.0
  0
LINE
  5
4E8
330
18
100
AcDbEntity
  8
1
 62
     1
100
AcDbLine
 10
68.22076318777096
 20
-0.3548692525121854
 30
0.0
 11
68.1510406652751
 21
-0.3060747756336166
 31
0.0
  0
LINE
  5
4E9
330
18
100
AcDbEntity
  8
1
 62
     1
100
AcDbLine
 10
68.1510406652751
 20
-0.3060747756336166
 30
0.0
 11
68.08166615679332
 21
-0.2531757684360554
 31
0.0
  0
LINE
  5
4EA
330
18
100
AcDbEntity
  8
1
 62
     1
100
AcDbLine
 10
68.08166615679332
 20
-0.2531757684360554
 30
0.0
 11
67.94457119545676
 21
-0.137384852105201
 31
0.0
  0
LINE
  5
4EB
330
18
100
AcDbEntity
  8
1
 62
     1
100
AcDbLine
 10
67.94457119545676
 20
-0.137384852105201
 30
0.0
 11
67.81032735207296
 21
-0.0113900450056619
 31
0.0
  0
LINE
  5
4EC
330
18
100
AcDbEntity
  8
1
 62
     1
100
AcDbLine
 10
67.81032735207296
 20
-0.0113900450056619
 30
0.0
 11
67.6792919226706
 21
0.1219735651939687
 31
0.0
  0
LINE
  5
4ED
330
18
100
AcDbEntity
  8
1
 62
     1
100
AcDbLine
 10
67.6792919226706
 20
0.1219735651939687
 30
0.0
 11
67.412
 21
0.4208739988848178
 31
0.0
  0
LINE
  5
4EE
330
18
100
AcDbEntity
  8
1
 62
     1
100
AcDbLine
 10
69.0
 20
-3.133790389360284
 30
0.0
 11
68.99922494898915
 21
-3.157609214795049
 31
0.0
  0
LINE
  5
4EF
330
18
100
AcDbEntity
  8
1
 62
     1
100
AcDbLine
 10
68.99922494898915
 20
-3.157609214795049
 30
0.0
 11
68.99825827101414
 21
-3.169023958349879
 31
0.0
  0
LINE
  5
4F0
330
18
100
AcDbEntity
  8
1
 62
     1
100
AcDbLine
 10
68.99825827101414
 20
-3.169023958349879
 30
0.0
 11
68.9969073898714
 21
-3.18009401572783
 31
0.0
  0
LINE
  5
4F1
330
18
100
AcDbEntity
  8
1
 62
     1
100
AcDbLine
 10
68.9969073898714
 20
-3.18009401572783
 30
0.0
 11
68.99517372941992
 21
-3.190808206877525
 31
0.0
  0
LINE
  5
4F2
330
18
100
AcDbEntity
  8
1
 62
     1
100
AcDbLine
 10
68.99517372941992
 20
-3.190808206877525
 30
0.0
 11
68.99305830293726
 21
-3.201158183048465
 31
0.0
  0
LINE
  5
4F3
330
18
100
AcDbEntity
  8
1
 62
     1
100
AcDbLine
 10
68.99305830293726
 20
-3.201158183048465
 30
0.0
 11
68.99056239072411
 21
-3.211143844760236
 31
0.0
  0
LINE
  5
4F4
330
18
100
AcDbEntity
  8
1
 62
     1
100
AcDbLine
 10
68.99056239072411
 20
-3.211143844760236
 30
0.0
 11
68.987690074826
 21
-3.220757530896407
 31
0.0
  0
LINE
  5
4F5
330
18
100
AcDbEntity
  8
1
 62
     1
100
AcDbLine
 10
68.987690074826
 20
-3.220757530896407
 30
0.0
 11
68.98444561808738
 21
-3.229990796247965
 31
0.0
  0
LINE
  5
4F6
330
18
100
AcDbEntity
  8
1
 62
     1
100
AcDbLine
 10
68.98444561808738
 20
-3.229990796247965
 30
0.0
 11
68.9808332833527
 21
-3.238835195605898
 31
0.0
  0
LINE
  5
4F7
330
18
100
AcDbEntity
  8
1
 62
     1
100
AcDbLine
 10
68.9808332833527
 20
-3.238835195605898
 30
0.0
 11
68.97685712380466
 21
-3.247282772570822
 31
0.0
  0
LINE
  5
4F8
330
18
100
AcDbEntity
  8
1
 62
     1
100
AcDbLine
 10
68.97685712380466
 20
-3.247282772570822
 30
0.0
 11
68.97251877264308
 21
-3.255333769063084
 31
0.0
  0
LINE
  5
4F9
330
18
100
AcDbEntity
  8
1
 62
     1
100
AcDbLine
 10
68.97251877264308
 20
-3.255333769063084
 30
0.0
 11
68.96782357760038
 21
-3.262985547795007
 31
0.0
  0
LINE
  5
4FA
330
18
100
AcDbEntity
  8
1
 62
     1
100
AcDbLine
 10
68.96782357760038
 20
-3.262985547795007
 30
0.0
 11
68.96277822906079
 21
-3.27023308320616
 31
0.0
  0
LINE
  5
4FB
330
18
100
AcDbEntity
  8
1
 62
     1
100
AcDbLine
 10
68.96277822906079
 20
-3.27023308320616
 30
0.0
 11
68.95738941740852
 21
-3.277071349736109
 31
0.0
  0
LINE
  5
4FC
330
18
100
AcDbEntity
  8
1
 62
     1
100
AcDbLine
 10
68.95738941740852
 20
-3.277071349736109
 30
0.0
 11
68.95166383302787
 21
-3.283495321824422
 31
0.0
  0
LINE
  5
4FD
330
18
100
AcDbEntity
  8
1
 62
     1
100
AcDbLine
 10
68.95166383302787
 20
-3.283495321824422
 30
0.0
 11
68.94560526216385
 21
-3.289504013782075
 31
0.0
  0
LINE
  5
4FE
330
18
100
AcDbEntity
  8
1
 62
     1
100
AcDbLine
 10
68.94560526216385
 20
-3.289504013782075
 30
0.0
 11
68.93921801600837
 21
-3.295099391457103
 31
0.0
  0
LINE
  5
4FF
330
18
100
AcDbEntity
  8
1
 62
     1
100
AcDbLine
 10
68.93921801600837
 20
-3.295099391457103
 30
0.0
 11
68.93251041863046
 21
-3.300279920479506
 31
0.0
  0
LINE
  5
500
330
18
100
AcDbEntity
  8
1
 62
     1
100
AcDbLine
 10
68.93251041863046
 20
-3.300279920479506
 30
0.0
 11
68.92549080033679
 21
-3.305044059544008
 31
0.0
  0
LINE
  5
501
330
18
100
AcDbEntity
  8
1
 62
     1
100
AcDbLine
 10
68.92549080033679
 20
-3.305044059544008
 30
0.0
 11
68.91816749143408
 21
-3.309390267345342
 31
0.0
  0
LINE
  5
502
330
18
100
AcDbEntity
  8
1
 62
     1
100
AcDbLine
 10
68.91816749143408
 20
-3.309390267345342
 30
0.0
 11
68.91054727079982
 21
-3.313318045065004
 31
0.0
  0
LINE
  5
503
330
18
100
AcDbEntity
  8
1
 62
     1
100
AcDbLine
 10
68.91054727079982
 20
-3.313318045065004
 30
0.0
 11
68.90263285349616
 21
-3.31683115305906
 31
0.0
  0
LINE
  5
504
330
18
100
AcDbEntity
  8
1
 62
     1
100
AcDbLine
 10
68.90263285349616
 20
-3.31683115305906
 30
0.0
 11
68.89443270101216
 21
-3.319931371761103
 31
0.0
  0
LINE
  5
505
330
18
100
AcDbEntity
  8
1
 62
     1
100
AcDbLine
 10
68.89443270101216
 20
-3.319931371761103
 30
0.0
 11
68.88595587457037
 21
-3.322620162641916
 31
0.0
  0
LINE
  5
506
330
18
100
AcDbEntity
  8
1
 62
     1
100
AcDbLine
 10
68.88595587457037
 20
-3.322620162641916
 30
0.0
 11
68.87721143539338
 21
-3.324898987172282
 31
0.0
  0
LINE
  5
507
330
18
100
AcDbEntity
  8
1
 62
     1
100
AcDbLine
 10
68.87721143539338
 20
-3.324898987172282
 30
0.0
 11
68.8682080753919
 21
-3.326769405662764
 31
0.0
  0
LINE
  5
508
330
18
100
AcDbEntity
  8
1
 62
     1
100
AcDbLine
 10
68.8682080753919
 20
-3.326769405662764
 30
0.0
 11
68.85894854146937
 21
-3.328235178956769
 31
0.0
  0
LINE
  5
509
330
18
100
AcDbEntity
  8
1
 62
     1
100
AcDbLine
 10
68.85894854146937
 20
-3.328235178956769
 30
0.0
 11
68.84943957292019
 21
-3.329300409237933
 31
0.0
  0
LINE
  5
50A
330
18
100
AcDbEntity
  8
1
 62
     1
100
AcDbLine
 10
68.84943957292019
 20
-3.329300409237933
 30
0.0
 11
68.83969017199149
 21
-3.329968779685644
 31
0.0
  0
LINE
  5
50B
330
18
100
AcDbEntity
  8
1
 62
     1
100
AcDbLine
 10
68.83969017199149
 20
-3.329968779685644
 30
0.0
 11
68.82970934093028
 21
-3.330243973479288
 31
0.0
  0
LINE
  5
50C
330
18
100
AcDbEntity
  8
1
 62
     1
100
AcDbLine
 10
68.82970934093028
 20
-3.330243973479288
 30
0.0
 11
68.81950608198372
 21
-3.330129673798255
 31
0.0
  0
LINE
  5
50D
330
18
100
AcDbEntity
  8
1
 62
     1
100
AcDbLine
 10
68.81950608198372
 20
-3.330129673798255
 30
0.0
 11
68.8090851395742
 21
-3.329629791733683
 31
0.0
  0
LINE
  5
50E
330
18
100
AcDbEntity
  8
1
 62
     1
100
AcDbLine
 10
68.8090851395742
 20
-3.329629791733683
 30
0.0
 11
68.78760947170939
 21
-3.327492904072086
 31
0.0
  0
LINE
  5
50F
330
18
100
AcDbEntity
  8
1
 62
     1
100
AcDbLine
 10
68.78760947170939
 20
-3.327492904072086
 30
0.0
 11
68.76534473251937
 21
-3.323873745636486
 31
0.0
  0
LINE
  5
510
330
18
100
AcDbEntity
  8
1
 62
     1
100
AcDbLine
 10
68.76534473251937
 20
-3.323873745636486
 30
0.0
 11
68.74234574180443
 21
-3.31881146310939
 31
0.0
  0
LINE
  5
511
330
18
100
AcDbEntity
  8
1
 62
     1
100
AcDbLine
 10
68.74234574180443
 20
-3.31881146310939
 30
0.0
 11
68.71865170423855
 21
-3.312346881188088
 31
0.0
  0
LINE
  5
512
330
18
100
AcDbEntity
  8
1
 62
     1
100
AcDbLine
 10
68.71865170423855
 20
-3.312346881188088
 30
0.0
 11
68.69432167720946
 21
-3.30452610458049
 31
0.0
  0
LINE
  5
513
330
18
100
AcDbEntity
  8
1
 62
     1
100
AcDbLine
 10
68.69432167720946
 20
-3.30452610458049
 30
0.0
 11
68.66939288211056
 21
-3.295389326800726
 31
0.0
  0
LINE
  5
514
330
18
100
AcDbEntity
  8
1
 62
     1
100
AcDbLine
 10
68.66939288211056
 20
-3.295389326800726
 30
0.0
 11
68.6179109599311
 21
-3.273346483647374
 31
0.0
  0
LINE
  5
515
330
18
100
AcDbEntity
  8
1
 62
     1
100
AcDbLine
 10
68.6179109599311
 20
-3.273346483647374
 30
0.0
 11
68.56450976935363
 21
-3.246560122820534
 31
0.0
  0
LINE
  5
516
330
18
100
AcDbEntity
  8
1
 62
     1
100
AcDbLine
 10
68.56450976935363
 20
-3.246560122820534
 30
0.0
 11
68.50945235737242
 21
-3.21535900624511
 31
0.0
  0
LINE
  5
517
330
18
100
AcDbEntity
  8
1
 62
     1
100
AcDbLine
 10
68.50945235737242
 20
-3.21535900624511
 30
0.0
 11
68.45296775747934
 21
-3.18005883895909
 31
0.0
  0
LINE
  5
518
330
18
100
AcDbEntity
  8
1
 62
     1
100
AcDbLine
 10
68.45296775747934
 20
-3.18005883895909
 30
0.0
 11
68.33652699183392
 21
-3.098350405883797
 31
0.0
  0
LINE
  5
519
330
18
100
AcDbEntity
  8
1
 62
     1
100
AcDbLine
 10
68.33652699183392
 20
-3.098350405883797
 30
0.0
 11
68.2164724878971
 21
-3.003580842729365
 31
0.0
  0
LINE
  5
51A
330
18
100
AcDbEntity
  8
1
 62
     1
100
AcDbLine
 10
68.2164724878971
 20
-3.003580842729365
 30
0.0
 11
68.09375667388892
 21
-2.897598809826421
 31
0.0
  0
LINE
  5
51B
330
18
100
AcDbEntity
  8
1
 62
     1
100
AcDbLine
 10
68.09375667388892
 20
-2.897598809826421
 30
0.0
 11
67.84297998788968
 21
-2.658112602953515
 31
0.0
  0
LINE
  5
51C
330
18
100
AcDbEntity
  8
1
 62
     1
100
AcDbLine
 10
67.84297998788968
 20
-2.658112602953515
 30
0.0
 11
67.412
 21
-2.194342659941528
 31
0.0
  0
LINE
  5
51D
330
18
100
AcDbEntity
  8
1
 62
     1
100
AcDbLine
 10
57.20217462603055
 20
7.9375
 30
0.0
 11
57.59688014284409
 21
7.923840299348854
 31
0.0
  0
LINE
  5
51E
330
18
100
AcDbEntity
  8
1
 62
     1
100
AcDbLine
 10
57.59688014284409
 20
7.923840299348854
 30
0.0
 11
57.99158402782997
 21
7.882908481461329
 31
0.0
  0
LINE
  5
51F
330
18
100
AcDbEntity
  8
1
 62
     1
100
AcDbLine
 10
57.99158402782997
 20
7.882908481461329
 30
0.0
 11
58.38628740360593
 21
7.814845877158248
 31
0.0
  0
LINE
  5
520
330
18
100
AcDbEntity
  8
1
 62
     1
100
AcDbLine
 10
58.38628740360593
 20
7.814845877158248
 30
0.0
 11
58.78098863154504
 21
7.719886652698546
 31
0.0
  0
LINE
  5
521
330
18
100
AcDbEntity
  8
1
 62
     1
100
AcDbLine
 10
58.78098863154504
 20
7.719886652698546
 30
0.0
 11
59.17569042302533
 21
7.598358192495538
 31
0.0
  0
LINE
  5
522
330
18
100
AcDbEntity
  8
1
 62
     1
100
AcDbLine
 10
59.17569042302533
 20
7.598358192495538
 30
0.0
 11
59.57039091038014
 21
7.45067827090755
 31
0.0
  0
LINE
  5
523
330
18
100
AcDbEntity
  8
1
 62
     1
100
AcDbLine
 10
59.57039091038014
 20
7.45067827090755
 30
0.0
 11
59.96509247190178
 21
7.277355631170533
 31
0.0
  0
LINE
  5
524
330
18
100
AcDbEntity
  8
1
 62
     1
100
AcDbLine
 10
59.96509247190178
 20
7.277355631170533
 30
0.0
 11
60.35979333882852
 21
7.078986005747382
 31
0.0
  0
LINE
  5
525
330
18
100
AcDbEntity
  8
1
 62
     1
100
AcDbLine
 10
60.35979333882852
 20
7.078986005747382
 30
0.0
 11
60.75449555964887
 21
6.856252430286182
 31
0.0
  0
LINE
  5
526
330
18
100
AcDbEntity
  8
1
 62
     1
100
AcDbLine
 10
60.75449555964887
 20
6.856252430286182
 30
0.0
 11
61.14919830869939
 21
6.609920766146673
 31
0.0
  0
LINE
  5
527
330
18
100
AcDbEntity
  8
1
 62
     1
100
AcDbLine
 10
61.14919830869939
 20
6.609920766146673
 30
0.0
 11
61.54390207450275
 21
6.340838469020246
 31
0.0
  0
LINE
  5
528
330
18
100
AcDbEntity
  8
1
 62
     1
100
AcDbLine
 10
61.54390207450275
 20
6.340838469020246
 30
0.0
 11
61.93860816527859
 21
6.049931773846002
 31
0.0
  0
LINE
  5
529
330
18
100
AcDbEntity
  8
1
 62
     1
100
AcDbLine
 10
61.93860816527859
 20
6.049931773846002
 30
0.0
 11
62.7280170241782
 21
5.406724449572234
 31
0.0
  0
LINE
  5
52A
330
18
100
AcDbEntity
  8
1
 62
     1
100
AcDbLine
 10
62.7280170241782
 20
5.406724449572234
 30
0.0
 11
63.51742093381334
 21
4.68915043959311
 31
0.0
  0
LINE
  5
52B
330
18
100
AcDbEntity
  8
1
 62
     1
100
AcDbLine
 10
54.96109452063671
 20
7.9375
 30
0.0
 11
57.20217462603054
 21
7.9375
 31
0.0
  0
LINE
  5
52C
330
18
100
AcDbEntity
  8
1
 62
     1
100
AcDbLine
 10
54.96109452063671
 20
7.9375
 30
0.0
 11
55.29130821578442
 21
7.92793825279861
 31
0.0
  0
LINE
  5
52D
330
18
100
AcDbEntity
  8
1
 62
     1
100
AcDbLine
 10
55.29130821578442
 20
7.92793825279861
 30
0.0
 11
55.62151434800848
 21
7.89927774355901
 31
0.0
  0
LINE
  5
52E
330
18
100
AcDbEntity
  8
1
 62
     1
100
AcDbLine
 10
55.62151434800848
 20
7.89927774355901
 30
0.0
 11
55.95171962926118
 21
7.851588215301118
 31
0.0
  0
LINE
  5
52F
330
18
100
AcDbEntity
  8
1
 62
     1
100
AcDbLine
 10
55.95171962926118
 20
7.851588215301118
 30
0.0
 11
56.28193062830031
 21
7.784982830484774
 31
0.0
  0
LINE
  5
530
330
18
100
AcDbEntity
  8
1
 62
     1
100
AcDbLine
 10
56.28193062830031
 20
7.784982830484774
 30
0.0
 11
56.61214639841551
 21
7.699620469965559
 31
0.0
  0
LINE
  5
531
330
18
100
AcDbEntity
  8
1
 62
     1
100
AcDbLine
 10
56.61214639841551
 20
7.699620469965559
 30
0.0
 11
56.94235378812167
 21
7.595710852585218
 31
0.0
  0
LINE
  5
532
330
18
100
AcDbEntity
  8
1
 62
     1
100
AcDbLine
 10
56.94235378812167
 20
7.595710852585218
 30
0.0
 11
57.27255863274728
 21
7.473504217520536
 31
0.0
  0
LINE
  5
533
330
18
100
AcDbEntity
  8
1
 62
     1
100
AcDbLine
 10
57.27255863274728
 20
7.473504217520536
 30
0.0
 11
57.60276730107986
 21
7.333292264760387
 31
0.0
  0
LINE
  5
534
330
18
100
AcDbEntity
  8
1
 62
     1
100
AcDbLine
 10
57.60276730107986
 20
7.333292264760387
 30
0.0
 11
57.93298360214551
 21
7.175409603591761
 31
0.0
  0
LINE
  5
535
330
18
100
AcDbEntity
  8
1
 62
     1
100
AcDbLine
 10
57.93298360214551
 20
7.175409603591761
 30
0.0
 11
58.26319281868497
 21
7.000243302486068
 31
0.0
  0
LINE
  5
536
330
18
100
AcDbEntity
  8
1
 62
     1
100
AcDbLine
 10
58.26319281868497
 20
7.000243302486068
 30
0.0
 11
58.59339770318306
 21
6.808215850271263
 31
0.0
  0
LINE
  5
537
330
18
100
AcDbEntity
  8
1
 62
     1
100
AcDbLine
 10
58.59339770318306
 20
6.808215850271263
 30
0.0
 11
58.92360454368335
 21
6.599786262481995
 31
0.0
  0
LINE
  5
538
330
18
100
AcDbEntity
  8
1
 62
     1
100
AcDbLine
 10
58.92360454368335
 20
6.599786262481995
 30
0.0
 11
59.5840312876703
 21
6.135759103687004
 31
0.0
  0
LINE
  5
539
330
18
100
AcDbEntity
  8
1
 62
     1
100
AcDbLine
 10
59.5840312876703
 20
6.135759103687004
 30
0.0
 11
60.24444228846156
 21
5.612652902987237
 31
0.0
  0
LINE
  5
53A
330
18
100
AcDbEntity
  8
1
 62
     1
100
AcDbLine
 10
60.24444228846156
 20
5.612652902987237
 30
0.0
 11
60.90486896993022
 21
5.035480581009876
 31
0.0
  0
LINE
  5
53B
330
18
100
AcDbEntity
  8
1
 62
     1
100
AcDbLine
 10
60.90486896993022
 20
5.035480581009876
 30
0.0
 11
61.56528042501795
 21
4.40982718540746
 31
0.0
  0
LINE
  5
53C
330
18
100
AcDbEntity
  8
1
 62
     1
100
AcDbLine
 10
61.56528042501795
 20
4.40982718540746
 30
0.0
 11
62.88611879846719
 21
3.037533231394999
 31
0.0
  0
LINE
  5
53D
330
18
100
AcDbEntity
  8
1
 62
     1
100
AcDbLine
 10
62.88611879846719
 20
3.037533231394999
 30
0.0
 11
65.52777362960052
 21
0.0000000000000934
 31
0.0
  0
LINE
  5
53E
330
18
100
AcDbEntity
  8
1
 62
     1
100
AcDbLine
 10
68.99999999999999
 20
5.548421168753507
 30
0.0
 11
68.99967624018754
 21
5.559493511492791
 31
0.0
  0
LINE
  5
53F
330
18
100
AcDbEntity
  8
1
 62
     1
100
AcDbLine
 10
68.99967624018754
 20
5.559493511492791
 30
0.0
 11
68.99868254242155
 21
5.570993414677996
 31
0.0
  0
LINE
  5
540
330
18
100
AcDbEntity
  8
1
 62
     1
100
AcDbLine
 10
68.99868254242155
 20
5.570993414677996
 30
0.0
 11
68.99698527920903
 21
5.582951182465884
 31
0.0
  0
LINE
  5
541
330
18
100
AcDbEntity
  8
1
 62
     1
100
AcDbLine
 10
68.99698527920903
 20
5.582951182465884
 30
0.0
 11
68.99455082305697
 21
5.595397119013222
 31
0.0
  0
LINE
  5
542
330
18
100
AcDbEntity
  8
1
 62
     1
100
AcDbLine
 10
68.99455082305697
 20
5.595397119013222
 30
0.0
 11
68.99134384751689
 21
5.608365900317544
 31
0.0
  0
LINE
  5
543
330
18
100
AcDbEntity
  8
1
 62
     1
100
AcDbLine
 10
68.99134384751689
 20
5.608365900317544
 30
0.0
 11
68.98732270695115
 21
5.621899845460748
 31
0.0
  0
LINE
  5
544
330
18
100
AcDbEntity
  8
1
 62
     1
100
AcDbLine
 10
68.98732270695115
 20
5.621899845460748
 30
0.0
 11
68.98244540389086
 21
5.636034889743507
 31
0.0
  0
LINE
  5
545
330
18
100
AcDbEntity
  8
1
 62
     1
100
AcDbLine
 10
68.98244540389086
 20
5.636034889743507
 30
0.0
 11
68.97666999419285
 21
5.650806720929724
 31
0.0
  0
LINE
  5
546
330
18
100
AcDbEntity
  8
1
 62
     1
100
AcDbLine
 10
68.97666999419285
 20
5.650806720929724
 30
0.0
 11
68.96995269806581
 21
5.666254454933075
 31
0.0
  0
LINE
  5
547
330
18
100
AcDbEntity
  8
1
 62
     1
100
AcDbLine
 10
68.96995269806581
 20
5.666254454933075
 30
0.0
 11
68.9534899083814
 21
5.699367296945484
 31
0.0
  0
LINE
  5
548
330
18
100
AcDbEntity
  8
1
 62
     1
100
AcDbLine
 10
68.9534899083814
 20
5.699367296945484
 30
0.0
 11
68.93265369951192
 21
5.735720930654758
 31
0.0
  0
LINE
  5
549
330
18
100
AcDbEntity
  8
1
 62
     1
100
AcDbLine
 10
68.93265369951192
 20
5.735720930654758
 30
0.0
 11
68.907034652444
 21
5.775649126431476
 31
0.0
  0
LINE
  5
54A
330
18
100
AcDbEntity
  8
1
 62
     1
100
AcDbLine
 10
68.907034652444
 20
5.775649126431476
 30
0.0
 11
68.87624048446267
 21
5.819450236735027
 31
0.0
  0
LINE
  5
54B
330
18
100
AcDbEntity
  8
1
 62
     1
100
AcDbLine
 10
68.87624048446267
 20
5.819450236735027
 30
0.0
 11
68.7979924363645
 21
5.919302884031469
 31
0.0
  0
LINE
  5
54C
330
18
100
AcDbEntity
  8
1
 62
     1
100
AcDbLine
 10
68.7979924363645
 20
5.919302884031469
 30
0.0
 11
68.69747869097839
 21
6.034575048084098
 31
0.0
  0
LINE
  5
54D
330
18
100
AcDbEntity
  8
1
 62
     1
100
AcDbLine
 10
68.69747869097839
 20
6.034575048084098
 30
0.0
 11
68.57805421295834
 21
6.160916199536791
 31
0.0
  0
LINE
  5
54E
330
18
100
AcDbEntity
  8
1
 62
     1
100
AcDbLine
 10
68.57805421295834
 20
6.160916199536791
 30
0.0
 11
68.30803578120342
 21
6.420264001232432
 31
0.0
  0
LINE
  5
54F
330
18
100
AcDbEntity
  8
1
 62
     1
100
AcDbLine
 10
68.30803578120342
 20
6.420264001232432
 30
0.0
 11
68.0299776518238
 21
6.657604946745844
 31
0.0
  0
LINE
  5
550
330
18
100
AcDbEntity
  8
1
 62
     1
100
AcDbLine
 10
68.0299776518238
 20
6.657604946745844
 30
0.0
 11
67.76079821118128
 21
6.859357810583662
 31
0.0
  0
LINE
  5
551
330
18
100
AcDbEntity
  8
1
 62
     1
100
AcDbLine
 10
67.76079821118128
 20
6.859357810583662
 30
0.0
 11
67.58320200325888
 21
6.976059153490633
 31
0.0
  0
LINE
  5
552
330
18
100
AcDbEntity
  8
1
 62
     1
100
AcDbLine
 10
67.58320200325888
 20
6.976059153490633
 30
0.0
 11
67.412
 21
7.074843637695787
 31
0.0
  0
LINE
  5
553
330
18
100
AcDbEntity
  8
1
 62
     1
100
AcDbLine
 10
69.0
 20
3.21553421244808
 30
0.0
 11
68.99922494086987
 21
3.241268317583356
 31
0.0
  0
LINE
  5
554
330
18
100
AcDbEntity
  8
1
 62
     1
100
AcDbLine
 10
68.99922494086987
 20
3.241268317583356
 30
0.0
 11
68.99690735751373
 21
3.268248082965197
 31
0.0
  0
LINE
  5
555
330
18
100
AcDbEntity
  8
1
 62
     1
100
AcDbLine
 10
68.99690735751373
 20
3.268248082965197
 30
0.0
 11
68.993058230367
 21
3.296425572158845
 31
0.0
  0
LINE
  5
556
330
18
100
AcDbEntity
  8
1
 62
     1
100
AcDbLine
 10
68.993058230367
 20
3.296425572158845
 30
0.0
 11
68.98768994647378
 21
3.325792920399831
 31
0.0
  0
LINE
  5
557
330
18
100
AcDbEntity
  8
1
 62
     1
100
AcDbLine
 10
68.98768994647378
 20
3.325792920399831
 30
0.0
 11
68.980833084317
 21
3.356294644871603
 31
0.0
  0
LINE
  5
558
330
18
100
AcDbEntity
  8
1
 62
     1
100
AcDbLine
 10
68.980833084317
 20
3.356294644871603
 30
0.0
 11
68.9627778457909
 21
3.420504635365131
 31
0.0
  0
LINE
  5
559
330
18
100
AcDbEntity
  8
1
 62
     1
100
AcDbLine
 10
68.9627778457909
 20
3.420504635365131
 30
0.0
 11
68.9392173974626
 21
3.488620866895796
 31
0.0
  0
LINE
  5
55A
330
18
100
AcDbEntity
  8
1
 62
     1
100
AcDbLine
 10
68.9392173974626
 20
3.488620866895796
 30
0.0
 11
68.91054637325453
 21
3.560158581743108
 31
0.0
  0
LINE
  5
55B
330
18
100
AcDbEntity
  8
1
 62
     1
100
AcDbLine
 10
68.91054637325453
 20
3.560158581743108
 30
0.0
 11
68.87721022189794
 21
3.63459686925771
 31
0.0
  0
LINE
  5
55C
330
18
100
AcDbEntity
  8
1
 62
     1
100
AcDbLine
 10
68.87721022189794
 20
3.63459686925771
 30
0.0
 11
68.79844821749413
 21
3.790047162577147
 31
0.0
  0
LINE
  5
55D
330
18
100
AcDbEntity
  8
1
 62
     1
100
AcDbLine
 10
68.79844821749413
 20
3.790047162577147
 30
0.0
 11
68.706559889961
 21
3.95113158561369
 31
0.0
  0
LINE
  5
55E
330
18
100
AcDbEntity
  8
1
 62
     1
100
AcDbLine
 10
68.706559889961
 20
3.95113158561369
 30
0.0
 11
68.60472598223173
 21
4.11462232488734
 31
0.0
  0
LINE
  5
55F
330
18
100
AcDbEntity
  8
1
 62
     1
100
AcDbLine
 10
68.60472598223173
 20
4.11462232488734
 30
0.0
 11
68.38069045655625
 21
4.439559158170969
 31
0.0
  0
LINE
  5
560
330
18
100
AcDbEntity
  8
1
 62
     1
100
AcDbLine
 10
68.38069045655625
 20
4.439559158170969
 30
0.0
 11
68.14005100137302
 21
4.751315167879157
 31
0.0
  0
LINE
  5
561
330
18
100
AcDbEntity
  8
1
 62
     1
100
AcDbLine
 10
68.14005100137302
 20
4.751315167879157
 30
0.0
 11
67.89040917582399
 21
5.04172058961786
 31
0.0
  0
LINE
  5
562
330
18
100
AcDbEntity
  8
1
 62
     1
100
AcDbLine
 10
67.89040917582399
 20
5.04172058961786
 30
0.0
 11
67.65207887038324
 21
5.289406863175516
 31
0.0
  0
LINE
  5
563
330
18
100
AcDbEntity
  8
1
 62
     1
100
AcDbLine
 10
67.65207887038324
 20
5.289406863175516
 30
0.0
 11
67.53214171313252
 21
5.402974160700293
 31
0.0
  0
LINE
  5
564
330
18
100
AcDbEntity
  8
1
 62
     1
100
AcDbLine
 10
67.53214171313252
 20
5.402974160700293
 30
0.0
 11
67.412
 21
5.509005696537907
 31
0.0
  0
LINE
  5
565
330
18
100
AcDbEntity
  8
1
 62
     1
100
AcDbLine
 10
26.78328355967166
 20
7.937500000000001
 30
0.0
 11
27.11349722945008
 21
7.927938251636701
 31
0.0
  0
LINE
  5
566
330
18
100
AcDbEntity
  8
1
 62
     1
100
AcDbLine
 10
27.11349722945008
 20
7.927938251636701
 30
0.0
 11
27.44370337945613
 21
7.899277742970414
 31
0.0
  0
LINE
  5
567
330
18
100
AcDbEntity
  8
1
 62
     1
100
AcDbLine
 10
27.44370337945613
 20
7.899277742970414
 30
0.0
 11
27.77390864400622
 21
7.851588212341148
 31
0.0
  0
LINE
  5
568
330
18
100
AcDbEntity
  8
1
 62
     1
100
AcDbLine
 10
27.77390864400622
 20
7.851588212341148
 30
0.0
 11
28.10411966646651
 21
7.784982830285104
 31
0.0
  0
LINE
  5
569
330
18
100
AcDbEntity
  8
1
 62
     1
100
AcDbLine
 10
28.10411966646651
 20
7.784982830285104
 30
0.0
 11
28.43433541293866
 21
7.69962046474812
 31
0.0
  0
LINE
  5
56A
330
18
100
AcDbEntity
  8
1
 62
     1
100
AcDbLine
 10
28.43433541293866
 20
7.69962046474812
 30
0.0
 11
28.76454282154602
 21
7.595710851390585
 31
0.0
  0
LINE
  5
56B
330
18
100
AcDbEntity
  8
1
 62
     1
100
AcDbLine
 10
28.76454282154602
 20
7.595710851390585
 30
0.0
 11
29.09474765393565
 21
7.473504212211711
 31
0.0
  0
LINE
  5
56C
330
18
100
AcDbEntity
  8
1
 62
     1
100
AcDbLine
 10
29.09474765393565
 20
7.473504212211711
 30
0.0
 11
29.42495632845748
 21
7.333292260806521
 31
0.0
  0
LINE
  5
56D
330
18
100
AcDbEntity
  8
1
 62
     1
100
AcDbLine
 10
29.42495632845748
 20
7.333292260806521
 30
0.0
 11
29.75517262406555
 21
7.175409597176395
 31
0.0
  0
LINE
  5
56E
330
18
100
AcDbEntity
  8
1
 62
     1
100
AcDbLine
 10
29.75517262406555
 20
7.175409597176395
 30
0.0
 11
30.08538184520516
 21
7.000243297392173
 31
0.0
  0
LINE
  5
56F
330
18
100
AcDbEntity
  8
1
 62
     1
100
AcDbLine
 10
30.08538184520516
 20
7.000243297392173
 30
0.0
 11
30.41558673407663
 21
6.808215846169131
 31
0.0
  0
LINE
  5
570
330
18
100
AcDbEntity
  8
1
 62
     1
100
AcDbLine
 10
30.41558673407663
 20
6.808215846169131
 30
0.0
 11
30.74579356156912
 21
6.599786252251387
 31
0.0
  0
LINE
  5
571
330
18
100
AcDbEntity
  8
1
 62
     1
100
AcDbLine
 10
30.74579356156912
 20
6.599786252251387
 30
0.0
 11
31.40622030471223
 21
6.135759091389174
 31
0.0
  0
LINE
  5
572
330
18
100
AcDbEntity
  8
1
 62
     1
100
AcDbLine
 10
31.40622030471223
 20
6.135759091389174
 30
0.0
 11
32.06663130321549
 21
5.612652887965664
 31
0.0
  0
LINE
  5
573
330
18
100
AcDbEntity
  8
1
 62
     1
100
AcDbLine
 10
32.06663130321549
 20
5.612652887965664
 30
0.0
 11
32.72705798354102
 21
5.035480563554053
 31
0.0
  0
LINE
  5
574
330
18
100
AcDbEntity
  8
1
 62
     1
100
AcDbLine
 10
32.72705798354102
 20
5.035480563554053
 30
0.0
 11
33.38746944172761
 21
4.409827168840619
 31
0.0
  0
LINE
  5
575
330
18
100
AcDbEntity
  8
1
 62
     1
100
AcDbLine
 10
33.38746944172761
 20
4.409827168840619
 30
0.0
 11
34.70830782370118
 21
3.037533219387027
 31
0.0
  0
LINE
  5
576
330
18
100
AcDbEntity
  8
1
 62
     1
100
AcDbLine
 10
34.70830782370118
 20
3.037533219387027
 30
0.0
 11
37.34996267057528
 21
-0.0000000000001417
 31
0.0
  0
LINE
  5
577
330
18
100
AcDbEntity
  8
1
 62
     1
100
AcDbLine
 10
29.02436337665805
 20
7.9375
 30
0.0
 11
29.41906922195236
 21
7.923840314050163
 31
0.0
  0
LINE
  5
578
330
18
100
AcDbEntity
  8
1
 62
     1
100
AcDbLine
 10
29.41906922195236
 20
7.923840314050163
 30
0.0
 11
29.81377287212307
 21
7.882908482453871
 31
0.0
  0
LINE
  5
579
330
18
100
AcDbEntity
  8
1
 62
     1
100
AcDbLine
 10
29.81377287212307
 20
7.882908482453871
 30
0.0
 11
30.20847640055042
 21
7.814845897048221
 31
0.0
  0
LINE
  5
57A
330
18
100
AcDbEntity
  8
1
 62
     1
100
AcDbLine
 10
30.20847640055042
 20
7.814845897048221
 30
0.0
 11
30.60317756605772
 21
7.719886660869138
 31
0.0
  0
LINE
  5
57B
330
18
100
AcDbEntity
  8
1
 62
     1
100
AcDbLine
 10
30.60317756605772
 20
7.719886660869138
 30
0.0
 11
30.99787937538495
 21
7.59835819211209
 31
0.0
  0
LINE
  5
57C
330
18
100
AcDbEntity
  8
1
 62
     1
100
AcDbLine
 10
30.99787937538495
 20
7.59835819211209
 30
0.0
 11
31.39257997295755
 21
7.450678297969961
 31
0.0
  0
LINE
  5
57D
330
18
100
AcDbEntity
  8
1
 62
     1
100
AcDbLine
 10
31.39257997295755
 20
7.450678297969961
 30
0.0
 11
31.78728145754615
 21
7.277355619814068
 31
0.0
  0
LINE
  5
57E
330
18
100
AcDbEntity
  8
1
 62
     1
100
AcDbLine
 10
31.78728145754615
 20
7.277355619814068
 30
0.0
 11
32.18198243951101
 21
7.078986022699779
 31
0.0
  0
LINE
  5
57F
330
18
100
AcDbEntity
  8
1
 62
     1
100
AcDbLine
 10
32.18198243951101
 20
7.078986022699779
 30
0.0
 11
32.57668445950808
 21
6.856252349159925
 31
0.0
  0
LINE
  5
580
330
18
100
AcDbEntity
  8
1
 62
     1
100
AcDbLine
 10
32.57668445950808
 20
6.856252349159925
 30
0.0
 11
32.97138751776997
 21
6.609920802278605
 31
0.0
  0
LINE
  5
581
330
18
100
AcDbEntity
  8
1
 62
     1
100
AcDbLine
 10
32.97138751776997
 20
6.609920802278605
 30
0.0
 11
33.36609105677664
 21
6.3408383742851
 31
0.0
  0
LINE
  5
582
330
18
100
AcDbEntity
  8
1
 62
     1
100
AcDbLine
 10
33.36609105677664
 20
6.3408383742851
 30
0.0
 11
33.76079734590302
 21
6.049931759806299
 31
0.0
  0
LINE
  5
583
330
18
100
AcDbEntity
  8
1
 62
     1
100
AcDbLine
 10
33.76079734590302
 20
6.049931759806299
 30
0.0
 11
34.5502060562569
 21
5.406724293758153
 31
0.0
  0
LINE
  5
584
330
18
100
AcDbEntity
  8
1
 62
     1
100
AcDbLine
 10
34.5502060562569
 20
5.406724293758153
 30
0.0
 11
35.33961001084356
 21
4.689150245689451
 31
0.0
  0
LINE
  5
585
330
18
100
AcDbEntity
  8
1
 62
     1
100
AcDbLine
 10
64.24662743772781
 20
7.9375
 30
0.0
 11
64.64230320061297
 21
7.923773076119629
 31
0.0
  0
LINE
  5
586
330
18
100
AcDbEntity
  8
1
 62
     1
100
AcDbLine
 10
64.64230320061297
 20
7.923773076119629
 30
0.0
 11
65.03797753201822
 21
7.882640052178598
 31
0.0
  0
LINE
  5
587
330
18
100
AcDbEntity
  8
1
 62
     1
100
AcDbLine
 10
65.03797753201822
 20
7.882640052178598
 30
0.0
 11
65.43365130841718
 21
7.81424361910162
 31
0.0
  0
LINE
  5
588
330
18
100
AcDbEntity
  8
1
 62
     1
100
AcDbLine
 10
65.43365130841718
 20
7.81424361910162
 30
0.0
 11
65.82932304535505
 21
7.71882026805225
 31
0.0
  0
LINE
  5
589
330
18
100
AcDbEntity
  8
1
 62
     1
100
AcDbLine
 10
65.82932304535505
 20
7.71882026805225
 30
0.0
 11
66.2249952803303
 21
7.596700576231624
 31
0.0
  0
LINE
  5
58A
330
18
100
AcDbEntity
  8
1
 62
     1
100
AcDbLine
 10
66.2249952803303
 20
7.596700576231624
 30
0.0
 11
66.62066606771843
 21
7.44830640220526
 31
0.0
  0
LINE
  5
58B
330
18
100
AcDbEntity
  8
1
 62
     1
100
AcDbLine
 10
66.62066606771843
 20
7.44830640220526
 30
0.0
 11
67.01633826208052
 21
7.274151640355003
 31
0.0
  0
LINE
  5
58C
330
18
100
AcDbEntity
  8
1
 62
     1
100
AcDbLine
 10
67.01633826208052
 20
7.274151640355003
 30
0.0
 11
67.412
 21
7.074843637695782
 31
0.0
  0
LINE
  5
58D
330
18
100
AcDbEntity
  8
1
 62
     1
100
AcDbLine
 10
62.00554726035897
 20
7.9375
 30
0.0
 11
64.24662743772781
 21
7.9375
 31
0.0
  0
LINE
  5
58E
330
18
100
AcDbEntity
  8
1
 62
     1
100
AcDbLine
 10
62.00554726035897
 20
7.9375
 30
0.0
 11
62.3434558526988
 21
7.927487585234791
 31
0.0
  0
LINE
  5
58F
330
18
100
AcDbEntity
  8
1
 62
     1
100
AcDbLine
 10
62.3434558526988
 20
7.927487585234791
 30
0.0
 11
62.6813575476049
 21
7.897477091870227
 31
0.0
  0
LINE
  5
590
330
18
100
AcDbEntity
  8
1
 62
     1
100
AcDbLine
 10
62.6813575476049
 20
7.897477091870227
 30
0.0
 11
63.0192576404711
 21
7.847545021004772
 31
0.0
  0
LINE
  5
591
330
18
100
AcDbEntity
  8
1
 62
     1
100
AcDbLine
 10
63.0192576404711
 20
7.847545021004772
 30
0.0
 11
63.35716132569696
 21
7.777816238778646
 31
0.0
  0
LINE
  5
592
330
18
100
AcDbEntity
  8
1
 62
     1
100
AcDbLine
 10
63.35716132569696
 20
7.777816238778646
 30
0.0
 11
63.69507212532712
 21
7.688464307593373
 31
0.0
  0
LINE
  5
593
330
18
100
AcDbEntity
  8
1
 62
     1
100
AcDbLine
 10
63.69507212532712
 20
7.688464307593373
 30
0.0
 11
64.03297732750697
 21
7.579717640545777
 31
0.0
  0
LINE
  5
594
330
18
100
AcDbEntity
  8
1
 62
     1
100
AcDbLine
 10
64.03297732750697
 20
7.579717640545777
 30
0.0
 11
64.3708777689636
 21
7.451852030262481
 31
0.0
  0
LINE
  5
595
330
18
100
AcDbEntity
  8
1
 62
     1
100
AcDbLine
 10
64.3708777689636
 20
7.451852030262481
 30
0.0
 11
64.70877849530854
 21
7.305188641896566
 31
0.0
  0
LINE
  5
596
330
18
100
AcDbEntity
  8
1
 62
     1
100
AcDbLine
 10
64.70877849530854
 20
7.305188641896566
 30
0.0
 11
65.04668485540802
 21
7.140094443479749
 31
0.0
  0
LINE
  5
597
330
18
100
AcDbEntity
  8
1
 62
     1
100
AcDbLine
 10
65.04668485540802
 20
7.140094443479749
 30
0.0
 11
65.38459493930748
 21
6.956985180676947
 31
0.0
  0
LINE
  5
598
330
18
100
AcDbEntity
  8
1
 62
     1
100
AcDbLine
 10
65.38459493930748
 20
6.956985180676947
 30
0.0
 11
65.72249779906807
 21
6.75632957823683
 31
0.0
  0
LINE
  5
599
330
18
100
AcDbEntity
  8
1
 62
     1
100
AcDbLine
 10
65.72249779906807
 20
6.75632957823683
 30
0.0
 11
66.0603976510567
 21
6.538632472152698
 31
0.0
  0
LINE
  5
59A
330
18
100
AcDbEntity
  8
1
 62
     1
100
AcDbLine
 10
66.0603976510567
 20
6.538632472152698
 30
0.0
 11
66.73620897302546
 21
6.054337992386331
 31
0.0
  0
LINE
  5
59B
330
18
100
AcDbEntity
  8
1
 62
     1
100
AcDbLine
 10
66.73620897302546
 20
6.054337992386331
 30
0.0
 11
67.41199999999999
 21
5.509005696537874
 31
0.0
  0
LINE
  5
59C
330
18
100
AcDbEntity
  8
1
 62
     1
100
AcDbLine
 10
69.00000000000001
 20
6.349324601808369
 30
0.0
 11
68.99690736060694
 21
6.448342277714596
 31
0.0
  0
LINE
  5
59D
330
18
100
AcDbEntity
  8
1
 62
     1
100
AcDbLine
 10
68.99690736060694
 20
6.448342277714596
 30
0.0
 11
68.98768995873284
 21
6.546550748908821
 31
0.0
  0
LINE
  5
59E
330
18
100
AcDbEntity
  8
1
 62
     1
100
AcDbLine
 10
68.98768995873284
 20
6.546550748908821
 30
0.0
 11
68.97251851542414
 21
6.643207762098921
 31
0.0
  0
LINE
  5
59F
330
18
100
AcDbEntity
  8
1
 62
     1
100
AcDbLine
 10
68.97251851542414
 20
6.643207762098921
 30
0.0
 11
68.95166338525863
 21
6.737599588581315
 31
0.0
  0
LINE
  5
5A0
330
18
100
AcDbEntity
  8
1
 62
     1
100
AcDbLine
 10
68.95166338525863
 20
6.737599588581315
 30
0.0
 11
68.92549011806308
 21
6.829047491940886
 31
0.0
  0
LINE
  5
5A1
330
18
100
AcDbEntity
  8
1
 62
     1
100
AcDbLine
 10
68.92549011806308
 20
6.829047491940886
 30
0.0
 11
68.89443174852629
 21
6.916980170354809
 31
0.0
  0
LINE
  5
5A2
330
18
100
AcDbEntity
  8
1
 62
     1
100
AcDbLine
 10
68.89443174852629
 20
6.916980170354809
 30
0.0
 11
68.85894728830012
 21
7.000958500166339
 31
0.0
  0
LINE
  5
5A3
330
18
100
AcDbEntity
  8
1
 62
     1
100
AcDbLine
 10
68.85894728830012
 20
7.000958500166339
 30
0.0
 11
68.81950449779526
 21
7.080647496108783
 31
0.0
  0
LINE
  5
5A4
330
18
100
AcDbEntity
  8
1
 62
     1
100
AcDbLine
 10
68.81950449779526
 20
7.080647496108783
 30
0.0
 11
68.77656961454554
 21
7.155799308384811
 31
0.0
  0
LINE
  5
5A5
330
18
100
AcDbEntity
  8
1
 62
     1
100
AcDbLine
 10
68.77656961454554
 20
7.155799308384811
 30
0.0
 11
68.7305796508441
 21
7.226269832671655
 31
0.0
  0
LINE
  5
5A6
330
18
100
AcDbEntity
  8
1
 62
     1
100
AcDbLine
 10
68.7305796508441
 20
7.226269832671655
 30
0.0
 11
68.68192758874702
 21
7.292000098316926
 31
0.0
  0
LINE
  5
5A7
330
18
100
AcDbEntity
  8
1
 62
     1
100
AcDbLine
 10
68.68192758874702
 20
7.292000098316926
 30
0.0
 11
68.63096758775576
 21
7.352984257088812
 31
0.0
  0
LINE
  5
5A8
330
18
100
AcDbEntity
  8
1
 62
     1
100
AcDbLine
 10
68.63096758775576
 20
7.352984257088812
 30
0.0
 11
68.57801993438812
 21
7.409251978614318
 31
0.0
  0
LINE
  5
5A9
330
18
100
AcDbEntity
  8
1
 62
     1
100
AcDbLine
 10
68.57801993438812
 20
7.409251978614318
 30
0.0
 11
68.5233628100847
 21
7.460868946898958
 31
0.0
  0
LINE
  5
5AA
330
18
100
AcDbEntity
  8
1
 62
     1
100
AcDbLine
 10
68.5233628100847
 20
7.460868946898958
 30
0.0
 11
68.46723134984597
 21
7.507926720703445
 31
0.0
  0
LINE
  5
5AB
330
18
100
AcDbEntity
  8
1
 62
     1
100
AcDbLine
 10
68.46723134984597
 20
7.507926720703445
 30
0.0
 11
68.40981414391348
 21
7.550536940514966
 31
0.0
  0
LINE
  5
5AC
330
18
100
AcDbEntity
  8
1
 62
     1
100
AcDbLine
 10
68.40981414391348
 20
7.550536940514966
 30
0.0
 11
68.35132355029987
 21
7.588780248190052
 31
0.0
  0
LINE
  5
5AD
330
18
100
AcDbEntity
  8
1
 62
     1
100
AcDbLine
 10
68.35132355029987
 20
7.588780248190052
 30
0.0
 11
68.29188738567055
 21
7.622781078277721
 31
0.0
  0
LINE
  5
5AE
330
18
100
AcDbEntity
  8
1
 62
     1
100
AcDbLine
 10
68.29188738567055
 20
7.622781078277721
 30
0.0
 11
68.23166172873601
 21
7.652633323845089
 31
0.0
  0
LINE
  5
5AF
330
18
100
AcDbEntity
  8
1
 62
     1
100
AcDbLine
 10
68.23166172873601
 20
7.652633323845089
 30
0.0
 11
68.17073741040895
 21
7.678451891744546
 31
0.0
  0
LINE
  5
5B0
330
18
100
AcDbEntity
  8
1
 62
     1
100
AcDbLine
 10
68.17073741040895
 20
7.678451891744546
 30
0.0
 11
68.10923439434772
 21
7.700327091476401
 31
0.0
  0
LINE
  5
5B1
330
18
100
AcDbEntity
  8
1
 62
     1
100
AcDbLine
 10
68.10923439434772
 20
7.700327091476401
 30
0.0
 11
68.04721698452738
 21
7.718359802936718
 31
0.0
  0
LINE
  5
5B2
330
18
100
AcDbEntity
  8
1
 62
     1
100
AcDbLine
 10
68.04721698452738
 20
7.718359802936718
 30
0.0
 11
67.98477805877302
 21
7.732632261768615
 31
0.0
  0
LINE
  5
5B3
330
18
100
AcDbEntity
  8
1
 62
     1
100
AcDbLine
 10
67.98477805877302
 20
7.732632261768615
 30
0.0
 11
67.92194880098772
 21
7.743231606769429
 31
0.0
  0
LINE
  5
5B4
330
18
100
AcDbEntity
  8
1
 62
     1
100
AcDbLine
 10
67.92194880098772
 20
7.743231606769429
 30
0.0
 11
67.85880382196456
 21
7.750228315796909
 31
0.0
  0
LINE
  5
5B5
330
18
100
AcDbEntity
  8
1
 62
     1
100
AcDbLine
 10
67.85880382196456
 20
7.750228315796909
 30
0.0
 11
67.79542924527188
 21
7.753688258865144
 31
0.0
  0
LINE
  5
5B6
330
18
100
AcDbEntity
  8
1
 62
     1
100
AcDbLine
 10
67.79542924527188
 20
7.753688258865144
 30
0.0
 11
67.73182397235509
 21
7.75367704776592
 31
0.0
  0
LINE
  5
5B7
330
18
100
AcDbEntity
  8
1
 62
     1
100
AcDbLine
 10
67.73182397235509
 20
7.75367704776592
 30
0.0
 11
67.66804288321109
 21
7.750250870343875
 31
0.0
  0
LINE
  5
5B8
330
18
100
AcDbEntity
  8
1
 62
     1
100
AcDbLine
 10
67.66804288321109
 20
7.750250870343875
 30
0.0
 11
67.60415419950064
 21
7.743463192091395
 31
0.0
  0
LINE
  5
5B9
330
18
100
AcDbEntity
  8
1
 62
     1
100
AcDbLine
 10
67.60415419950064
 20
7.743463192091395
 30
0.0
 11
67.54014908554633
 21
7.733355142335265
 31
0.0
  0
LINE
  5
5BA
330
18
100
AcDbEntity
  8
1
 62
     1
100
AcDbLine
 10
67.54014908554633
 20
7.733355142335265
 30
0.0
 11
67.4760766202355
 21
7.719969209480353
 31
0.0
  0
LINE
  5
5BB
330
18
100
AcDbEntity
  8
1
 62
     1
100
AcDbLine
 10
67.4760766202355
 20
7.719969209480353
 30
0.0
 11
67.41200000000002
 21
7.703348356479395
 31
0.0
  0
LINE
  5
5BC
330
18
100
AcDbEntity
  8
1
 62
     1
100
AcDbLine
 10
69.0
 20
5.548421168753507
 30
0.0
 11
69.0
 21
6.349324601808368
 31
0.0
  0
LINE
  5
5BD
330
18
100
AcDbEntity
  8
1
 62
     1
100
AcDbLine
 10
68.99999999999999
 20
5.548421168753499
 30
0.0
 11
68.99999999999999
 21
3.215534212448091
 31
0.0
  0
LINE
  5
5BE
330
18
100
AcDbEntity
  8
1
 62
     1
100
AcDbLine
 10
69.0
 20
2.435962207455487
 30
0.0
 11
69.0
 21
0.1005652099682567
 31
0.0
  0
LINE
  5
5BF
330
18
100
AcDbEntity
  8
1
 62
     1
100
AcDbLine
 10
69.00000000000001
 20
0.1005652099682564
 30
0.0
 11
69.0
 21
-3.133790389360285
 31
0.0
  0
LINE
  5
5C0
330
18
100
AcDbEntity
  8
1
 62
     1
100
AcDbLine
 10
69.0
 20
-3.133790389360287
 30
0.0
 11
69.0
 21
-5.447855958785228
 31
0.0
  0
LINE
  5
5C1
330
18
100
AcDbEntity
  8
1
 62
     1
100
AcDbLine
 10
21.37499999999999
 20
2.196417986519538
 30
0.0
 11
23.26105720781167
 21
-0.0000000000074002
 31
0.0
  0
LINE
  5
5C2
330
18
100
AcDbEntity
  8
1
 62
     1
100
AcDbLine
 10
21.375
 20
4.570016632090597
 30
0.0
 11
22.29337229858501
 21
3.644241348658237
 31
0.0
  0
LINE
  5
5C3
330
18
100
AcDbEntity
  8
1
 62
     1
100
AcDbLine
 10
22.29337229858501
 20
3.644241348658237
 30
0.0
 11
24.13010787194236
 21
1.607729710552848
 31
0.0
  0
LINE
  5
5C4
330
18
100
AcDbEntity
  8
1
 62
     1
100
AcDbLine
 10
24.13010787194236
 20
1.607729710552848
 30
0.0
 11
27.80353845226966
 21
-2.662884592679835
 31
0.0
  0
LINE
  5
5C5
330
18
100
AcDbEntity
  8
1
 62
     1
100
AcDbLine
 10
27.80353845226966
 20
-2.662884592679835
 30
0.0
 11
28.72190776928191
 21
-3.655772362781225
 31
0.0
  0
LINE
  5
5C6
330
18
100
AcDbEntity
  8
1
 62
     1
100
AcDbLine
 10
28.72190776928191
 20
-3.655772362781225
 30
0.0
 11
29.64027695304754
 21
-4.580630577766292
 31
0.0
  0
LINE
  5
5C7
330
18
100
AcDbEntity
  8
1
 62
     1
100
AcDbLine
 10
29.64027695304754
 20
-4.580630577766292
 30
0.0
 11
30.55864469109869
 21
-5.420247511445211
 31
0.0
  0
LINE
  5
5C8
330
18
100
AcDbEntity
  8
1
 62
     1
100
AcDbLine
 10
30.55864469109869
 20
-5.420247511445211
 30
0.0
 11
31.01782863205855
 21
-5.803136884089199
 31
0.0
  0
LINE
  5
5C9
330
18
100
AcDbEntity
  8
1
 62
     1
100
AcDbLine
 10
31.01782863205855
 20
-5.803136884089199
 30
0.0
 11
31.47701084583949
 21
-6.15899735470968
 31
0.0
  0
LINE
  5
5CA
330
18
100
AcDbEntity
  8
1
 62
     1
100
AcDbLine
 10
31.47701084583949
 20
-6.15899735470968
 30
0.0
 11
31.93619229438876
 21
-6.486170771650635
 31
0.0
  0
LINE
  5
5CB
330
18
100
AcDbEntity
  8
1
 62
     1
100
AcDbLine
 10
31.93619229438876
 20
-6.486170771650635
 30
0.0
 11
32.39537369334009
 21
-6.783132942944444
 31
0.0
  0
LINE
  5
5CC
330
18
100
AcDbEntity
  8
1
 62
     1
100
AcDbLine
 10
32.39537369334009
 20
-6.783132942944444
 30
0.0
 11
32.85455365007471
 21
-7.048502662021474
 31
0.0
  0
LINE
  5
5CD
330
18
100
AcDbEntity
  8
1
 62
     1
100
AcDbLine
 10
32.85455365007471
 20
-7.048502662021474
 30
0.0
 11
33.31373535595383
 21
-7.281043436770793
 31
0.0
  0
LINE
  5
5CE
330
18
100
AcDbEntity
  8
1
 62
     1
100
AcDbLine
 10
33.31373535595383
 20
-7.281043436770793
 30
0.0
 11
33.77291846709549
 21
-7.47967209255799
 31
0.0
  0
LINE
  5
5CF
330
18
100
AcDbEntity
  8
1
 62
     1
100
AcDbLine
 10
33.77291846709549
 20
-7.47967209255799
 30
0.0
 11
34.23210103158107
 21
-7.64346379281996
 31
0.0
  0
LINE
  5
5D0
330
18
100
AcDbEntity
  8
1
 62
     1
100
AcDbLine
 10
34.23210103158107
 20
-7.64346379281996
 30
0.0
 11
34.46170092021623
 21
-7.712052847821186
 31
0.0
  0
LINE
  5
5D1
330
18
100
AcDbEntity
  8
1
 62
     1
100
AcDbLine
 10
34.46170092021623
 20
-7.712052847821186
 30
0.0
 11
34.69128501259176
 21
-7.771654872200469
 31
0.0
  0
LINE
  5
5D2
330
18
100
AcDbEntity
  8
1
 62
     1
100
AcDbLine
 10
34.69128501259176
 20
-7.771654872200469
 30
0.0
 11
34.92088223466996
 21
-7.822208818483663
 31
0.0
  0
LINE
  5
5D3
330
18
100
AcDbEntity
  8
1
 62
     1
100
AcDbLine
 10
34.92088223466996
 20
-7.822208818483663
 30
0.0
 11
35.15046928236627
 21
-7.863648431057591
 31
0.0
  0
LINE
  5
5D4
330
18
100
AcDbEntity
  8
1
 62
     1
100
AcDbLine
 10
35.15046928236627
 20
-7.863648431057591
 30
0.0
 11
35.38006359278455
 21
-7.895931574957579
 31
0.0
  0
LINE
  5
5D5
330
18
100
AcDbEntity
  8
1
 62
     1
100
AcDbLine
 10
35.38006359278455
 20
-7.895931574957579
 30
0.0
 11
35.6096531181071
 21
-7.919015911785537
 31
0.0
  0
LINE
  5
5D6
330
18
100
AcDbEntity
  8
1
 62
     1
100
AcDbLine
 10
35.6096531181071
 20
-7.919015911785537
 30
0.0
 11
35.83924404420819
 21
-7.932878156680173
 31
0.0
  0
LINE
  5
5D7
330
18
100
AcDbEntity
  8
1
 62
     1
100
AcDbLine
 10
35.83924404420819
 20
-7.932878156680173
 30
0.0
 11
36.0688161885423
 21
-7.937499999961021
 31
0.0
  0
LINE
  5
5D8
330
18
100
AcDbEntity
  8
1
 62
     1
100
AcDbLine
 10
21.375
 20
-5.507450754931176
 30
0.0
 11
22.05104522196761
 21
-6.053134460188408
 31
0.0
  0
LINE
  5
5D9
330
18
100
AcDbEntity
  8
1
 62
     1
100
AcDbLine
 10
22.05104522196761
 20
-6.053134460188408
 30
0.0
 11
22.7270796847455
 21
-6.537727015010229
 31
0.0
  0
LINE
  5
5DA
330
18
100
AcDbEntity
  8
1
 62
     1
100
AcDbLine
 10
22.7270796847455
 20
-6.537727015010229
 30
0.0
 11
23.06509555057261
 21
-6.755563372551577
 31
0.0
  0
LINE
  5
5DB
330
18
100
AcDbEntity
  8
1
 62
     1
100
AcDbLine
 10
23.06509555057261
 20
-6.755563372551577
 30
0.0
 11
23.4031171675264
 21
-6.956349718617075
 31
0.0
  0
LINE
  5
5DC
330
18
100
AcDbEntity
  8
1
 62
     1
100
AcDbLine
 10
23.4031171675264
 20
-6.956349718617075
 30
0.0
 11
23.74114181077321
 21
-7.139576598683483
 31
0.0
  0
LINE
  5
5DD
330
18
100
AcDbEntity
  8
1
 62
     1
100
AcDbLine
 10
23.74114181077321
 20
-7.139576598683483
 30
0.0
 11
24.07915942872011
 21
-7.304776352266537
 31
0.0
  0
LINE
  5
5DE
330
18
100
AcDbEntity
  8
1
 62
     1
100
AcDbLine
 10
24.07915942872011
 20
-7.304776352266537
 30
0.0
 11
24.4171742269189
 21
-7.451535550472709
 31
0.0
  0
LINE
  5
5DF
330
18
100
AcDbEntity
  8
1
 62
     1
100
AcDbLine
 10
24.4171742269189
 20
-7.451535550472709
 30
0.0
 11
24.75519127537037
 21
-7.579485883316083
 31
0.0
  0
LINE
  5
5E0
330
18
100
AcDbEntity
  8
1
 62
     1
100
AcDbLine
 10
24.75519127537037
 20
-7.579485883316083
 30
0.0
 11
25.09321507248421
 21
-7.688304951843302
 31
0.0
  0
LINE
  5
5E1
330
18
100
AcDbEntity
  8
1
 62
     1
100
AcDbLine
 10
25.09321507248421
 20
-7.688304951843302
 30
0.0
 11
25.43123754022521
 21
-7.777714302249986
 31
0.0
  0
LINE
  5
5E2
330
18
100
AcDbEntity
  8
1
 62
     1
100
AcDbLine
 10
25.43123754022521
 20
-7.777714302249986
 30
0.0
 11
25.76925372528644
 21
-7.847488343001884
 31
0.0
  0
LINE
  5
5E3
330
18
100
AcDbEntity
  8
1
 62
     1
100
AcDbLine
 10
25.76925372528644
 20
-7.847488343001884
 30
0.0
 11
26.1072686703737
 21
-7.897453000940132
 31
0.0
  0
LINE
  5
5E4
330
18
100
AcDbEntity
  8
1
 62
     1
100
AcDbLine
 10
26.1072686703737
 20
-7.897453000940132
 30
0.0
 11
26.44528621156097
 21
-7.92748262019811
 31
0.0
  0
LINE
  5
5E5
330
18
100
AcDbEntity
  8
1
 62
     1
100
AcDbLine
 10
26.44528621156097
 20
-7.92748262019811
 30
0.0
 11
26.78328355966925
 21
-7.93749999996558
 31
0.0
  0
LINE
  5
5E6
330
18
100
AcDbEntity
  8
1
 62
     1
100
AcDbLine
 10
47.91664178077409
 20
7.9375
 30
0.0
 11
50.15772181366692
 21
7.9375
 31
0.0
  0
LINE
  5
5E7
330
18
100
AcDbEntity
  8
1
 62
     1
100
AcDbLine
 10
21.375
 20
-3.335413436306687
 30
0.0
 11
22.33117878212369
 21
-4.322126430824856
 31
0.0
  0
LINE
  5
5E8
330
18
100
AcDbEntity
  8
1
 62
     1
100
AcDbLine
 10
22.33117878212369
 20
-4.322126430824856
 30
0.0
 11
23.28735224126446
 21
-5.221664739853536
 31
0.0
  0
LINE
  5
5E9
330
18
100
AcDbEntity
  8
1
 62
     1
100
AcDbLine
 10
23.28735224126446
 20
-5.221664739853536
 30
0.0
 11
23.76543681716065
 21
-5.632991812787753
 31
0.0
  0
LINE
  5
5EA
330
18
100
AcDbEntity
  8
1
 62
     1
100
AcDbLine
 10
23.76543681716065
 20
-5.632991812787753
 30
0.0
 11
24.24351846508746
 21
-6.015877281240385
 31
0.0
  0
LINE
  5
5EB
330
18
100
AcDbEntity
  8
1
 62
     1
100
AcDbLine
 10
24.24351846508746
 20
-6.015877281240385
 30
0.0
 11
24.72160077653992
 21
-6.368388676954238
 31
0.0
  0
LINE
  5
5EC
330
18
100
AcDbEntity
  8
1
 62
     1
100
AcDbLine
 10
24.72160077653992
 20
-6.368388676954238
 30
0.0
 11
25.19968469846536
 21
-6.688749610893042
 31
0.0
  0
LINE
  5
5ED
330
18
100
AcDbEntity
  8
1
 62
     1
100
AcDbLine
 10
25.19968469846536
 20
-6.688749610893042
 30
0.0
 11
25.67777024481102
 21
-6.975341440577519
 31
0.0
  0
LINE
  5
5EE
330
18
100
AcDbEntity
  8
1
 62
     1
100
AcDbLine
 10
25.67777024481102
 20
-6.975341440577519
 30
0.0
 11
26.15585783271395
 21
-7.226716092018282
 31
0.0
  0
LINE
  5
5EF
330
18
100
AcDbEntity
  8
1
 62
     1
100
AcDbLine
 10
26.15585783271395
 20
-7.226716092018282
 30
0.0
 11
26.63394526953675
 21
-7.441604537064361
 31
0.0
  0
LINE
  5
5F0
330
18
100
AcDbEntity
  8
1
 62
     1
100
AcDbLine
 10
26.63394526953675
 20
-7.441604537064361
 30
0.0
 11
26.87298336216191
 21
-7.535018343836046
 31
0.0
  0
LINE
  5
5F1
330
18
100
AcDbEntity
  8
1
 62
     1
100
AcDbLine
 10
26.87298336216191
 20
-7.535018343836046
 30
0.0
 11
27.1120317855701
 21
-7.618921369850122
 31
0.0
  0
LINE
  5
5F2
330
18
100
AcDbEntity
  8
1
 62
     1
100
AcDbLine
 10
27.1120317855701
 20
-7.618921369850122
 30
0.0
 11
27.35106758901047
 21
-7.693200687858497
 31
0.0
  0
LINE
  5
5F3
330
18
100
AcDbEntity
  8
1
 62
     1
100
AcDbLine
 10
27.35106758901047
 20
-7.693200687858497
 30
0.0
 11
27.59011800330293
 21
-7.757770902495537
 31
0.0
  0
LINE
  5
5F4
330
18
100
AcDbEntity
  8
1
 62
     1
100
AcDbLine
 10
27.59011800330293
 20
-7.757770902495537
 30
0.0
 11
27.82915308690528
 21
-7.812542026979894
 31
0.0
  0
LINE
  5
5F5
330
18
100
AcDbEntity
  8
1
 62
     1
100
AcDbLine
 10
27.82915308690528
 20
-7.812542026979894
 30
0.0
 11
28.06820236671934
 21
-7.857452393984056
 31
0.0
  0
LINE
  5
5F6
330
18
100
AcDbEntity
  8
1
 62
     1
100
AcDbLine
 10
28.06820236671934
 20
-7.857452393984056
 30
0.0
 11
28.30724053298245
 21
-7.892439130777996
 31
0.0
  0
LINE
  5
5F7
330
18
100
AcDbEntity
  8
1
 62
     1
100
AcDbLine
 10
28.30724053298245
 20
-7.892439130777996
 30
0.0
 11
28.54628291857193
 21
-7.917462916802489
 31
0.0
  0
LINE
  5
5F8
330
18
100
AcDbEntity
  8
1
 62
     1
100
AcDbLine
 10
28.54628291857193
 20
-7.917462916802489
 30
0.0
 11
28.7853279542542
 21
-7.932488618128136
 31
0.0
  0
LINE
  5
5F9
330
18
100
AcDbEntity
  8
1
 62
     1
100
AcDbLine
 10
28.7853279542542
 20
-7.932488618128136
 30
0.0
 11
29.02436337665874
 21
-7.937499999997111
 31
0.0
  0
ARC
  5
5FA
330
18
100
AcDbEntity
  8
1
 62
     1
100
AcDbCircle
 10
21.98108239798784
 20
-2.196182153162814
 30
0.0
 40
5.741326125822406
100
AcDbArc
 50
263.9402894002588
 51
269.9883199569171
  0
LINE
  5
5FB
330
18
100
AcDbEntity
  8
1
 62
     1
100
AcDbLine
 10
33.82773630037339
 20
7.9375
 30
0.0
 11
36.06881618853279
 21
7.9375
 31
0.0
  0
LINE
  5
5FC
330
18
100
AcDbEntity
  8
1
 62
     1
100
AcDbLine
 10
24.38159747032323
 20
7.436968623115688
 30
0.0
 11
24.68181099277982
 21
7.553324997726364
 31
0.0
  0
LINE
  5
5FD
330
18
100
AcDbEntity
  8
1
 62
     1
100
AcDbLine
 10
24.68181099277982
 20
7.553324997726364
 30
0.0
 11
24.98202672071616
 21
7.654639704839292
 31
0.0
  0
LINE
  5
5FE
330
18
100
AcDbEntity
  8
1
 62
     1
100
AcDbLine
 10
24.98202672071616
 20
7.654639704839292
 30
0.0
 11
25.28223241911208
 21
7.740708578950232
 31
0.0
  0
LINE
  5
5FF
330
18
100
AcDbEntity
  8
1
 62
     1
100
AcDbLine
 10
25.28223241911208
 20
7.740708578950232
 30
0.0
 11
25.58244167808752
 21
7.811365180928963
 31
0.0
  0
LINE
  5
600
330
18
100
AcDbEntity
  8
1
 62
     1
100
AcDbLine
 10
25.58244167808752
 20
7.811365180928963
 30
0.0
 11
25.88266006509201
 21
7.866467743063472
 31
0.0
  0
LINE
  5
601
330
18
100
AcDbEntity
  8
1
 62
     1
100
AcDbLine
 10
25.88266006509201
 20
7.866467743063472
 30
0.0
 11
26.1828676745054
 21
7.90590324287695
 31
0.0
  0
LINE
  5
602
330
18
100
AcDbEntity
  8
1
 62
     1
100
AcDbLine
 10
26.1828676745054
 20
7.90590324287695
 30
0.0
 11
26.48307363074005
 21
7.929596668960214
 31
0.0
  0
LINE
  5
603
330
18
100
AcDbEntity
  8
1
 62
     1
100
AcDbLine
 10
26.48307363074005
 20
7.929596668960214
 30
0.0
 11
26.78328355967166
 21
7.937500000000001
 31
0.0
  0
LINE
  5
604
330
18
100
AcDbEntity
  8
1
 62
     1
100
AcDbLine
 10
26.78328355967167
 20
7.9375
 30
0.0
 11
29.02436337665804
 21
7.9375
 31
0.0
  0
LINE
  5
605
330
18
100
AcDbEntity
  8
1
 62
     1
100
AcDbLine
 10
21.375
 20
7.9375
 30
0.0
 11
21.97991200042237
 21
7.9375
 31
0.0
  0
LINE
  5
606
330
18
100
AcDbEntity
  8
1
 62
     1
100
AcDbLine
 10
69.0
 20
2.435962207455484
 30
0.0
 11
67.62935531145291
 21
3.224842994903869
 31
0.0
  0
LINE
  5
607
330
18
100
AcDbEntity
  8
1
 62
     1
100
AcDbLine
 10
67.62935531145291
 20
3.224842994903869
 30
0.0
 11
66.94403296717938
 21
3.571091681057044
 31
0.0
  0
LINE
  5
608
330
18
100
AcDbEntity
  8
1
 62
     1
100
AcDbLine
 10
66.94403296717938
 20
3.571091681057044
 30
0.0
 11
66.25871062290584
 21
3.880308288985594
 31
0.0
  0
LINE
  5
609
330
18
100
AcDbEntity
  8
1
 62
     1
100
AcDbLine
 10
66.25871062290584
 20
3.880308288985594
 30
0.0
 11
65.57338827863231
 21
4.14928629914267
 31
0.0
  0
LINE
  5
60A
330
18
100
AcDbEntity
  8
1
 62
     1
100
AcDbLine
 10
65.57338827863231
 20
4.14928629914267
 30
0.0
 11
64.88806593435876
 21
4.375236339175917
 31
0.0
  0
LINE
  5
60B
330
18
100
AcDbEntity
  8
1
 62
     1
100
AcDbLine
 10
64.88806593435876
 20
4.375236339175917
 30
0.0
 11
64.20274359008523
 21
4.555815364728325
 31
0.0
  0
LINE
  5
60C
330
18
100
AcDbEntity
  8
1
 62
     1
100
AcDbLine
 10
64.20274359008523
 20
4.555815364728325
 30
0.0
 11
63.51742124581171
 21
4.689150767307178
 31
0.0
  0
LINE
  5
60D
330
18
100
AcDbEntity
  8
1
 62
     1
100
AcDbLine
 10
69.0
 20
2.435962207455487
 30
0.0
 11
69.0
 21
3.215534212448083
 31
0.0
  0
LINE
  5
60E
330
18
100
AcDbEntity
  8
1
 62
     1
100
AcDbLine
 10
21.375
 20
-3.335413436306684
 30
0.0
 11
21.375
 21
1.331027595525781
 31
0.0
  0
LINE
  5
60F
330
18
100
AcDbEntity
  8
1
 62
     1
100
AcDbLine
 10
21.375
 20
-7.905430068397295
 30
0.0
 11
21.375
 21
-5.507452459060754
 31
0.0
  0
LINE
  5
610
330
18
100
AcDbEntity
  8
1
 62
     1
100
AcDbLine
 10
21.37500000000001
 20
-7.905430068397292
 30
0.0
 11
21.37500000000001
 21
-7.937499999999998
 31
0.0
  0
LINE
  5
611
330
18
100
AcDbEntity
  8
1
 62
     1
100
AcDbLine
 10
21.37500000000001
 20
-3.33541343630669
 30
0.0
 11
21.37500000000001
 21
-5.507450754931175
 31
0.0
  0
LINE
  5
612
330
18
100
AcDbEntity
  8
1
 62
     1
100
AcDbLine
 10
21.375
 20
1.331027595525781
 30
0.0
 11
21.375
 21
2.196417986519541
 31
0.0
  0
LINE
  5
613
330
18
100
AcDbEntity
  8
1
 62
     1
100
AcDbLine
 10
21.37500000000001
 20
4.570016632090598
 30
0.0
 11
21.37500000000001
 21
2.196418662929954
 31
0.0
  0
LINE
  5
614
330
18
100
AcDbEntity
  8
1
 62
     1
100
AcDbLine
 10
21.375
 20
4.570016632090609
 30
0.0
 11
21.375
 21
4.6685384795214
 31
0.0
  0
LINE
  5
615
330
18
100
AcDbEntity
  8
1
 62
     1
100
AcDbLine
 10
21.375
 20
4.6685384795214
 30
0.0
 11
21.375
 21
7.703868741450715
 31
0.0
  0
LINE
  5
616
330
18
100
AcDbEntity
  8
1
 62
     1
100
AcDbLine
 10
21.375
 20
7.703868741450715
 30
0.0
 11
21.375
 21
7.703871135182994
 31
0.0
  0
LINE
  5
617
330
18
100
AcDbEntity
  8
1
 62
     1
100
AcDbLine
 10
21.37500000000001
 20
7.9375
 30
0.0
 11
21.37500000000001
 21
7.937447475226878
 31
0.0
  0
LINE
  5
618
330
18
100
AcDbEntity
  8
1
 62
     1
100
AcDbLine
 10
21.37500000000001
 20
7.937447475226878
 30
0.0
 11
21.37500000000001
 21
7.9219628005013
 31
0.0
  0
LINE
  5
619
330
18
100
AcDbEntity
  8
1
 62
     1
100
AcDbLine
 10
21.37500000000001
 20
7.9219628005013
 30
0.0
 11
21.37500000000001
 21
7.703871135182994
 31
0.0
  0
LINE
  5
61A
330
18
100
AcDbEntity
  8
1
 62
     1
100
AcDbLine
 10
43.11326900102569
 20
-7.937499999958321
 30
0.0
 11
42.8817382984587
 21
-7.932798236988002
 31
0.0
  0
LINE
  5
61B
330
18
100
AcDbEntity
  8
1
 62
     1
100
AcDbLine
 10
42.8817382984587
 20
-7.932798236988002
 30
0.0
 11
42.65020480629551
 21
-7.918701378721421
 31
0.0
  0
LINE
  5
61C
330
18
100
AcDbEntity
  8
1
 62
     1
100
AcDbLine
 10
42.65020480629551
 20
-7.918701378721421
 30
0.0
 11
42.41866988836837
 21
-7.895222746663955
 31
0.0
  0
LINE
  5
61D
330
18
100
AcDbEntity
  8
1
 62
     1
100
AcDbLine
 10
42.41866988836837
 20
-7.895222746663955
 30
0.0
 11
42.18714097339385
 21
-7.862394200736914
 31
0.0
  0
LINE
  5
61E
330
18
100
AcDbEntity
  8
1
 62
     1
100
AcDbLine
 10
42.18714097339385
 20
-7.862394200736914
 30
0.0
 11
41.95560134988329
 21
-7.820249664057573
 31
0.0
  0
LINE
  5
61F
330
18
100
AcDbEntity
  8
1
 62
     1
100
AcDbLine
 10
41.95560134988329
 20
-7.820249664057573
 30
0.0
 11
41.72407477687371
 21
-7.768845144227496
 31
0.0
  0
LINE
  5
620
330
18
100
AcDbEntity
  8
1
 62
     1
100
AcDbLine
 10
41.72407477687371
 20
-7.768845144227496
 30
0.0
 11
41.49253407385345
 21
-7.708233968842197
 31
0.0
  0
LINE
  5
621
330
18
100
AcDbEntity
  8
1
 62
     1
100
AcDbLine
 10
41.49253407385345
 20
-7.708233968842197
 30
0.0
 11
41.26100792875351
 21
-7.638497039135158
 31
0.0
  0
LINE
  5
622
330
18
100
AcDbEntity
  8
1
 62
     1
100
AcDbLine
 10
41.26100792875351
 20
-7.638497039135158
 30
0.0
 11
40.79794125362505
 21
-7.471966996155214
 31
0.0
  0
LINE
  5
623
330
18
100
AcDbEntity
  8
1
 62
     1
100
AcDbLine
 10
40.79794125362505
 20
-7.471966996155214
 30
0.0
 11
40.33487302259459
 21
-7.270044265360366
 31
0.0
  0
LINE
  5
624
330
18
100
AcDbEntity
  8
1
 62
     1
100
AcDbLine
 10
40.33487302259459
 20
-7.270044265360366
 30
0.0
 11
39.87180478160749
 21
-7.033685016507681
 31
0.0
  0
LINE
  5
625
330
18
100
AcDbEntity
  8
1
 62
     1
100
AcDbLine
 10
39.87180478160749
 20
-7.033685016507681
 30
0.0
 11
39.40873697694264
 21
-6.764008709703983
 31
0.0
  0
LINE
  5
626
330
18
100
AcDbEntity
  8
1
 62
     1
100
AcDbLine
 10
39.40873697694264
 20
-6.764008709703983
 30
0.0
 11
38.94566867511824
 21
-6.462293372626281
 31
0.0
  0
LINE
  5
627
330
18
100
AcDbEntity
  8
1
 62
     1
100
AcDbLine
 10
38.94566867511824
 20
-6.462293372626281
 30
0.0
 11
38.48260088296168
 21
-6.129968029444901
 31
0.0
  0
LINE
  5
628
330
18
100
AcDbEntity
  8
1
 62
     1
100
AcDbLine
 10
38.48260088296168
 20
-6.129968029444901
 30
0.0
 11
38.01953444385921
 21
-5.768606650697886
 31
0.0
  0
LINE
  5
629
330
18
100
AcDbEntity
  8
1
 62
     1
100
AcDbLine
 10
38.01953444385921
 20
-5.768606650697886
 30
0.0
 11
37.09340249936904
 21
-4.96575551589536
 31
0.0
  0
LINE
  5
62A
330
18
100
AcDbEntity
  8
1
 62
     1
100
AcDbLine
 10
37.09340249936904
 20
-4.96575551589536
 30
0.0
 11
36.16727477148902
 21
-4.068933749650666
 31
0.0
  0
LINE
  5
62B
330
18
100
AcDbEntity
  8
1
 62
     1
100
AcDbLine
 10
36.16727477148902
 20
-4.068933749650666
 30
0.0
 11
35.24114413374392
 21
-3.095105924031381
 31
0.0
  0
LINE
  5
62C
330
18
100
AcDbEntity
  8
1
 62
     1
100
AcDbLine
 10
35.24114413374392
 20
-3.095105924031381
 30
0.0
 11
33.38887343489177
 21
-0.9912616259886506
 31
0.0
  0
LINE
  5
62D
330
18
100
AcDbEntity
  8
1
 62
     1
100
AcDbLine
 10
33.38887343489177
 20
-0.9912616259886506
 30
0.0
 11
31.5366311184127
 21
1.187233242617191
 31
0.0
  0
LINE
  5
62E
330
18
100
AcDbEntity
  8
1
 62
     1
100
AcDbLine
 10
31.5366311184127
 20
1.187233242617191
 30
0.0
 11
29.9158966210984
 21
3.025578894235148
 31
0.0
  0
LINE
  5
62F
330
18
100
AcDbEntity
  8
1
 62
     1
100
AcDbLine
 10
29.9158966210984
 20
3.025578894235148
 30
0.0
 11
28.29515749232915
 21
4.689150420288929
 31
0.0
  0
LINE
  5
630
330
18
100
AcDbEntity
  8
1
 62
     1
100
AcDbLine
 10
40.87218904070205
 20
-7.937499999999998
 30
0.0
 11
43.11326900102569
 21
-7.937499999999997
 31
0.0
  0
LINE
  5
631
330
18
100
AcDbEntity
  8
1
 62
     1
100
AcDbLine
 10
57.20217462604036
 20
-7.937499999958289
 30
0.0
 11
57.50238583531686
 21
-7.929596217571353
 31
0.0
  0
LINE
  5
632
330
18
100
AcDbEntity
  8
1
 62
     1
100
AcDbLine
 10
57.50238583531686
 20
-7.929596217571353
 30
0.0
 11
57.8025914090809
 21
-7.905903302377083
 31
0.0
  0
LINE
  5
633
330
18
100
AcDbEntity
  8
1
 62
     1
100
AcDbLine
 10
57.8025914090809
 20
-7.905903302377083
 30
0.0
 11
58.1028033737871
 21
-7.866466985506536
 31
0.0
  0
LINE
  5
634
330
18
100
AcDbEntity
  8
1
 62
     1
100
AcDbLine
 10
58.1028033737871
 20
-7.866466985506536
 30
0.0
 11
58.40302034890691
 21
-7.811364147307685
 31
0.0
  0
LINE
  5
635
330
18
100
AcDbEntity
  8
1
 62
     1
100
AcDbLine
 10
58.40302034890691
 20
-7.811364147307685
 30
0.0
 11
58.70322535594465
 21
-7.740708547624815
 31
0.0
  0
LINE
  5
636
330
18
100
AcDbEntity
  8
1
 62
     1
100
AcDbLine
 10
58.70322535594465
 20
-7.740708547624815
 30
0.0
 11
59.0034343044047
 21
-7.654639007924404
 31
0.0
  0
LINE
  5
637
330
18
100
AcDbEntity
  8
1
 62
     1
100
AcDbLine
 10
59.0034343044047
 20
-7.654639007924404
 30
0.0
 11
59.3036529323828
 21
-7.553322658087191
 31
0.0
  0
LINE
  5
638
330
18
100
AcDbEntity
  8
1
 62
     1
100
AcDbLine
 10
59.3036529323828
 20
-7.553322658087191
 30
0.0
 11
59.60385976713961
 21
-7.436968550831095
 31
0.0
  0
LINE
  5
639
330
18
100
AcDbEntity
  8
1
 62
     1
100
AcDbLine
 10
54.96109452063357
 20
-7.937499999999998
 30
0.0
 11
57.20217462604037
 21
-7.937499999999998
 31
0.0
  0
LINE
  5
63A
330
18
100
AcDbEntity
  8
1
 62
     1
100
AcDbLine
 10
64.2466274377375
 20
-7.937499999958258
 30
0.0
 11
64.54683859426952
 21
-7.929596214426957
 31
0.0
  0
LINE
  5
63B
330
18
100
AcDbEntity
  8
1
 62
     1
100
AcDbLine
 10
64.54683859426952
 20
-7.929596214426957
 30
0.0
 11
64.8470441852149
 21
-7.905903297751867
 31
0.0
  0
LINE
  5
63C
330
18
100
AcDbEntity
  8
1
 62
     1
100
AcDbLine
 10
64.8470441852149
 20
-7.905903297751867
 30
0.0
 11
65.14725617279696
 21
-7.866466978612574
 31
0.0
  0
LINE
  5
63D
330
18
100
AcDbEntity
  8
1
 62
     1
100
AcDbLine
 10
65.14725617279696
 20
-7.866466978612574
 30
0.0
 11
65.44747313383999
 21
-7.811364133510437
 31
0.0
  0
LINE
  5
63E
330
18
100
AcDbEntity
  8
1
 62
     1
100
AcDbLine
 10
65.44747313383999
 20
-7.811364133510437
 30
0.0
 11
65.74767820974299
 21
-7.740708539981576
 31
0.0
  0
LINE
  5
63F
330
18
100
AcDbEntity
  8
1
 62
     1
100
AcDbLine
 10
65.74767820974299
 20
-7.740708539981576
 30
0.0
 11
66.0478871071245
 21
-7.654638984432471
 31
0.0
  0
LINE
  5
640
330
18
100
AcDbEntity
  8
1
 62
     1
100
AcDbLine
 10
66.0478871071245
 20
-7.654638984432471
 30
0.0
 11
66.34810574837415
 21
-7.553322630172965
 31
0.0
  0
LINE
  5
641
330
18
100
AcDbEntity
  8
1
 62
     1
100
AcDbLine
 10
66.34810574837415
 20
-7.553322630172965
 30
0.0
 11
66.64831244775964
 21
-7.436968472778199
 31
0.0
  0
LINE
  5
642
330
18
100
AcDbEntity
  8
1
 62
     1
100
AcDbLine
 10
62.00554726035586
 20
-7.937499999999998
 30
0.0
 11
64.24662743773749
 21
-7.937499999999998
 31
0.0
  0
LINE
  5
643
330
18
100
AcDbEntity
  8
1
 62
     1
100
AcDbLine
 10
50.15772181367683
 20
-7.937499999958314
 30
0.0
 11
50.45793308863809
 21
-7.92959622034195
 31
0.0
  0
LINE
  5
644
330
18
100
AcDbEntity
  8
1
 62
     1
100
AcDbLine
 10
50.45793308863809
 20
-7.92959622034195
 30
0.0
 11
50.75813864914504
 21
-7.905903304847427
 31
0.0
  0
LINE
  5
645
330
18
100
AcDbEntity
  8
1
 62
     1
100
AcDbLine
 10
50.75813864914504
 20
-7.905903304847427
 30
0.0
 11
51.05835060268245
 21
-7.866466987819829
 31
0.0
  0
LINE
  5
646
330
18
100
AcDbEntity
  8
1
 62
     1
100
AcDbLine
 10
51.05835060268245
 20
-7.866466987819829
 30
0.0
 11
51.3585675949081
 21
-7.811364151922736
 31
0.0
  0
LINE
  5
647
330
18
100
AcDbEntity
  8
1
 62
     1
100
AcDbLine
 10
51.3585675949081
 20
-7.811364151922736
 30
0.0
 11
51.65877256635128
 21
-7.740708545940485
 31
0.0
  0
LINE
  5
648
330
18
100
AcDbEntity
  8
1
 62
     1
100
AcDbLine
 10
51.65877256635128
 20
-7.740708545940485
 30
0.0
 11
51.95898158372324
 21
-7.654639018986569
 31
0.0
  0
LINE
  5
649
330
18
100
AcDbEntity
  8
1
 62
     1
100
AcDbLine
 10
51.95898158372324
 20
-7.654639018986569
 30
0.0
 11
52.25920014495819
 21
-7.553322651620375
 31
0.0
  0
LINE
  5
64A
330
18
100
AcDbEntity
  8
1
 62
     1
100
AcDbLine
 10
52.25920014495819
 20
-7.553322651620375
 30
0.0
 11
52.55940703719159
 21
-7.436968559415778
 31
0.0
  0
LINE
  5
64B
330
18
100
AcDbEntity
  8
1
 62
     1
100
AcDbLine
 10
47.91664178077104
 20
-7.937499999999998
 30
0.0
 11
50.15772181367682
 21
-7.937499999999998
 31
0.0
  0
LINE
  5
64C
330
18
100
AcDbEntity
  8
1
 62
     1
100
AcDbLine
 10
36.0688161885423
 20
-7.937499999961021
 30
0.0
 11
36.3690274648762
 21
-7.929596228886738
 31
0.0
  0
LINE
  5
64D
330
18
100
AcDbEntity
  8
1
 62
     1
100
AcDbLine
 10
36.3690274648762
 20
-7.929596228886738
 30
0.0
 11
36.66923302697801
 21
-7.905903324945581
 31
0.0
  0
LINE
  5
64E
330
18
100
AcDbEntity
  8
1
 62
     1
100
AcDbLine
 10
36.66923302697801
 20
-7.905903324945581
 30
0.0
 11
36.96944515497916
 21
-7.866466981883111
 31
0.0
  0
LINE
  5
64F
330
18
100
AcDbEntity
  8
1
 62
     1
100
AcDbLine
 10
36.96944515497916
 20
-7.866466981883111
 30
0.0
 11
37.26966206811551
 21
-7.811364153035024
 31
0.0
  0
LINE
  5
650
330
18
100
AcDbEntity
  8
1
 62
     1
100
AcDbLine
 10
37.26966206811551
 20
-7.811364153035024
 30
0.0
 11
37.5698669898857
 21
-7.74070854689764
 31
0.0
  0
LINE
  5
651
330
18
100
AcDbEntity
  8
1
 62
     1
100
AcDbLine
 10
37.5698669898857
 20
-7.74070854689764
 30
0.0
 11
37.87007628550035
 21
-7.654639004217596
 31
0.0
  0
LINE
  5
652
330
18
100
AcDbEntity
  8
1
 62
     1
100
AcDbLine
 10
37.87007628550035
 20
-7.654639004217596
 30
0.0
 11
38.1702947131318
 21
-7.55332257983572
 31
0.0
  0
LINE
  5
653
330
18
100
AcDbEntity
  8
1
 62
     1
100
AcDbLine
 10
38.1702947131318
 20
-7.55332257983572
 30
0.0
 11
38.47050168836035
 21
-7.436968535820196
 31
0.0
  0
LINE
  5
654
330
18
100
AcDbEntity
  8
1
 62
     1
100
AcDbLine
 10
33.82773630037084
 20
-7.937499999999998
 30
0.0
 11
36.06881618854229
 21
-7.937499999999998
 31
0.0
  0
LINE
  5
655
330
18
100
AcDbEntity
  8
1
 62
     1
100
AcDbLine
 10
29.02436337665874
 20
-7.937499999997111
 30
0.0
 11
29.32457723582114
 21
-7.929596188311285
 31
0.0
  0
LINE
  5
656
330
18
100
AcDbEntity
  8
1
 62
     1
100
AcDbLine
 10
29.32457723582114
 20
-7.929596188311285
 30
0.0
 11
29.62478243725256
 21
-7.905903008882705
 31
0.0
  0
LINE
  5
657
330
18
100
AcDbEntity
  8
1
 62
     1
100
AcDbLine
 10
29.62478243725256
 20
-7.905903008882705
 30
0.0
 11
29.92499187690585
 21
-7.86646701073601
 31
0.0
  0
LINE
  5
658
330
18
100
AcDbEntity
  8
1
 62
     1
100
AcDbLine
 10
29.92499187690585
 20
-7.86646701073601
 30
0.0
 11
30.225210159768
 21
-7.811364105047102
 31
0.0
  0
LINE
  5
659
330
18
100
AcDbEntity
  8
1
 62
     1
100
AcDbLine
 10
30.225210159768
 20
-7.811364105047102
 30
0.0
 11
30.52541543410452
 21
-7.740708195233447
 31
0.0
  0
LINE
  5
65A
330
18
100
AcDbEntity
  8
1
 62
     1
100
AcDbLine
 10
30.52541543410452
 20
-7.740708195233447
 30
0.0
 11
30.82562272608475
 21
-7.654639157302916
 31
0.0
  0
LINE
  5
65B
330
18
100
AcDbEntity
  8
1
 62
     1
100
AcDbLine
 10
30.82562272608475
 20
-7.654639157302916
 30
0.0
 11
31.12584083605218
 21
-7.553323090972313
 31
0.0
  0
LINE
  5
65C
330
18
100
AcDbEntity
  8
1
 62
     1
100
AcDbLine
 10
31.12584083605218
 20
-7.553323090972313
 30
0.0
 11
31.42604897044473
 21
-7.436968560722294
 31
0.0
  0
LINE
  5
65D
330
18
100
AcDbEntity
  8
1
 62
     1
100
AcDbLine
 10
26.78328355966924
 20
-7.937499999999998
 30
0.0
 11
29.02436337665874
 21
-7.937499999999998
 31
0.0
  0
LINE
  5
65E
330
18
100
AcDbEntity
  8
1
 62
     1
100
AcDbLine
 10
21.97991200042448
 20
-7.937499999990929
 30
0.0
 11
22.28012529775307
 21
-7.929596183358751
 31
0.0
  0
LINE
  5
65F
330
18
100
AcDbEntity
  8
1
 62
     1
100
AcDbLine
 10
22.28012529775307
 20
-7.929596183358751
 30
0.0
 11
22.58032978465774
 21
-7.905902984566616
 31
0.0
  0
LINE
  5
660
330
18
100
AcDbEntity
  8
1
 62
     1
100
AcDbLine
 10
22.58032978465774
 20
-7.905902984566616
 30
0.0
 11
22.88053949697354
 21
-7.86646690133541
 31
0.0
  0
LINE
  5
661
330
18
100
AcDbEntity
  8
1
 62
     1
100
AcDbLine
 10
22.88053949697354
 20
-7.86646690133541
 30
0.0
 11
23.18075784899199
 21
-7.811363989022968
 31
0.0
  0
LINE
  5
662
330
18
100
AcDbEntity
  8
1
 62
     1
100
AcDbLine
 10
23.18075784899199
 20
-7.811363989022968
 30
0.0
 11
23.4809631117307
 21
-7.74070811212565
 31
0.0
  0
LINE
  5
663
330
18
100
AcDbEntity
  8
1
 62
     1
100
AcDbLine
 10
23.4809631117307
 20
-7.74070811212565
 30
0.0
 11
23.78117068133293
 21
-7.654638990133226
 31
0.0
  0
LINE
  5
664
330
18
100
AcDbEntity
  8
1
 62
     1
100
AcDbLine
 10
23.78117068133293
 20
-7.654638990133226
 30
0.0
 11
24.08138876469275
 21
-7.553322795366077
 31
0.0
  0
LINE
  5
665
330
18
100
AcDbEntity
  8
1
 62
     1
100
AcDbLine
 10
24.08138876469275
 20
-7.553322795366077
 30
0.0
 11
24.38159678124248
 21
-7.436968338955769
 31
0.0
  0
LINE
  5
666
330
18
100
AcDbEntity
  8
1
 62
     1
100
AcDbLine
 10
21.37499999999999
 20
-7.937499999999998
 30
0.0
 11
21.97991200042448
 21
-7.937499999999998
 31
0.0
  0
LINE
  5
667
330
18
100
AcDbEntity
  8
1
 62
     1
100
AcDbLine
 10
37.34996267057528
 20
-0.0000000000001417
 30
0.0
 11
39.99163533815872
 21
-3.037552941047057
 31
0.0
  0
LINE
  5
668
330
18
100
AcDbEntity
  8
1
 62
     1
100
AcDbLine
 10
39.99163533815872
 20
-3.037552941047057
 30
0.0
 11
41.31247253170537
 21
-4.409843736131623
 31
0.0
  0
LINE
  5
669
330
18
100
AcDbEntity
  8
1
 62
     1
100
AcDbLine
 10
41.31247253170537
 20
-4.409843736131623
 30
0.0
 11
41.97289923071838
 21
-5.035509635026601
 31
0.0
  0
LINE
  5
66A
330
18
100
AcDbEntity
  8
1
 62
     1
100
AcDbLine
 10
41.97289923071838
 20
-5.035509635026601
 30
0.0
 11
42.63331024049377
 21
-5.612666476015932
 31
0.0
  0
LINE
  5
66B
330
18
100
AcDbEntity
  8
1
 62
     1
100
AcDbLine
 10
42.63331024049377
 20
-5.612666476015932
 30
0.0
 11
43.29373695981992
 21
-6.135783194466435
 31
0.0
  0
LINE
  5
66C
330
18
100
AcDbEntity
  8
1
 62
     1
100
AcDbLine
 10
43.29373695981992
 20
-6.135783194466435
 30
0.0
 11
43.95414835438415
 21
-6.599796920835951
 31
0.0
  0
LINE
  5
66D
330
18
100
AcDbEntity
  8
1
 62
     1
100
AcDbLine
 10
43.95414835438415
 20
-6.599796920835951
 30
0.0
 11
44.28435768290638
 21
-6.808227986143824
 31
0.0
  0
LINE
  5
66E
330
18
100
AcDbEntity
  8
1
 62
     1
100
AcDbLine
 10
44.28435768290638
 20
-6.808227986143824
 30
0.0
 11
44.61457364249018
 21
-7.000260504988529
 31
0.0
  0
LINE
  5
66F
330
18
100
AcDbEntity
  8
1
 62
     1
100
AcDbLine
 10
44.61457364249018
 20
-7.000260504988529
 30
0.0
 11
44.9447820231934
 21
-7.175423929552628
 31
0.0
  0
LINE
  5
670
330
18
100
AcDbEntity
  8
1
 62
     1
100
AcDbLine
 10
44.9447820231934
 20
-7.175423929552628
 30
0.0
 11
45.27498672038771
 21
-7.333299782390069
 31
0.0
  0
LINE
  5
671
330
18
100
AcDbEntity
  8
1
 62
     1
100
AcDbLine
 10
45.27498672038771
 20
-7.333299782390069
 30
0.0
 11
45.60519377710938
 21
-7.473511000213778
 31
0.0
  0
LINE
  5
672
330
18
100
AcDbEntity
  8
1
 62
     1
100
AcDbLine
 10
45.60519377710938
 20
-7.473511000213778
 30
0.0
 11
45.935408946562
 21
-7.595720549244776
 31
0.0
  0
LINE
  5
673
330
18
100
AcDbEntity
  8
1
 62
     1
100
AcDbLine
 10
45.935408946562
 20
-7.595720549244776
 30
0.0
 11
46.2656199071133
 21
-7.699628855399492
 31
0.0
  0
LINE
  5
674
330
18
100
AcDbEntity
  8
1
 62
     1
100
AcDbLine
 10
46.2656199071133
 20
-7.699628855399492
 30
0.0
 11
46.59582514501678
 21
-7.784986639742496
 31
0.0
  0
LINE
  5
675
330
18
100
AcDbEntity
  8
1
 62
     1
100
AcDbLine
 10
46.59582514501678
 20
-7.784986639742496
 30
0.0
 11
46.92603063273157
 21
-7.851590730794332
 31
0.0
  0
LINE
  5
676
330
18
100
AcDbEntity
  8
1
 62
     1
100
AcDbLine
 10
46.92603063273157
 20
-7.851590730794332
 30
0.0
 11
47.25624267882079
 21
-7.899280877963167
 31
0.0
  0
LINE
  5
677
330
18
100
AcDbEntity
  8
1
 62
     1
100
AcDbLine
 10
47.25624267882079
 20
-7.899280877963167
 30
0.0
 11
47.586456888085
 21
-7.927940010843907
 31
0.0
  0
LINE
  5
678
330
18
100
AcDbEntity
  8
1
 62
     1
100
AcDbLine
 10
47.586456888085
 20
-7.927940010843907
 30
0.0
 11
47.91664178077103
 21
-7.937499999959078
 31
0.0
  0
ARC
  5
679
330
18
100
AcDbEntity
  8
1
 62
     1
100
AcDbCircle
 10
69.38263167915278
 20
0.8292033427407794
 30
0.0
 40
7.151137568693341
100
AcDbArc
 50
105.9961669037304
 51
112.4799641733295
  0
LINE
  5
67A
330
18
100
AcDbEntity
  8
1
 62
     1
100
AcDbLine
 10
37.34996267057543
 20
-0.0000000000000029
 30
0.0
 11
35.08626138369453
 21
1.588287137924118
 31
0.0
  0
LINE
  5
67B
330
18
100
AcDbEntity
  8
1
 62
     1
100
AcDbLine
 10
35.08626138369453
 20
1.588287137924118
 30
0.0
 11
33.95441074025406
 21
2.326196771227076
 31
0.0
  0
LINE
  5
67C
330
18
100
AcDbEntity
  8
1
 62
     1
100
AcDbLine
 10
33.95441074025406
 20
2.326196771227076
 30
0.0
 11
32.82256009681361
 21
2.998406565559888
 31
0.0
  0
LINE
  5
67D
330
18
100
AcDbEntity
  8
1
 62
     1
100
AcDbLine
 10
32.82256009681361
 20
2.998406565559888
 30
0.0
 11
31.69070945337315
 21
3.585932562972473
 31
0.0
  0
LINE
  5
67E
330
18
100
AcDbEntity
  8
1
 62
     1
100
AcDbLine
 10
31.69070945337315
 20
3.585932562972473
 30
0.0
 11
31.12478413165292
 21
3.842645379973999
 31
0.0
  0
LINE
  5
67F
330
18
100
AcDbEntity
  8
1
 62
     1
100
AcDbLine
 10
31.12478413165292
 20
3.842645379973999
 30
0.0
 11
30.55885880993269
 21
4.072177805676577
 31
0.0
  0
LINE
  5
680
330
18
100
AcDbEntity
  8
1
 62
     1
100
AcDbLine
 10
30.55885880993269
 20
4.072177805676577
 30
0.0
 11
29.99293348821247
 21
4.272906986522116
 31
0.0
  0
LINE
  5
681
330
18
100
AcDbEntity
  8
1
 62
     1
100
AcDbLine
 10
29.99293348821247
 20
4.272906986522116
 30
0.0
 11
29.42700816649224
 21
4.443413082385236
 31
0.0
  0
LINE
  5
682
330
18
100
AcDbEntity
  8
1
 62
     1
100
AcDbLine
 10
29.42700816649224
 20
4.443413082385236
 30
0.0
 11
28.861082844772
 21
4.582489101587357
 31
0.0
  0
LINE
  5
683
330
18
100
AcDbEntity
  8
1
 62
     1
100
AcDbLine
 10
28.861082844772
 20
4.582489101587357
 30
0.0
 11
28.29515752305178
 21
4.689150452558852
 31
0.0
  0
LINE
  5
684
330
18
100
AcDbEntity
  8
1
 62
     1
100
AcDbLine
 10
28.29515749232915
 20
4.689150420288929
 30
0.0
 11
27.50574954620868
 21
5.406727406788862
 31
0.0
  0
LINE
  5
685
330
18
100
AcDbEntity
  8
1
 62
     1
100
AcDbLine
 10
27.50574954620868
 20
5.406727406788862
 30
0.0
 11
26.71634382337353
 21
6.049931430740067
 31
0.0
  0
LINE
  5
686
330
18
100
AcDbEntity
  8
1
 62
     1
100
AcDbLine
 10
26.71634382337353
 20
6.049931430740067
 30
0.0
 11
26.32164087917227
 21
6.340836116926992
 31
0.0
  0
LINE
  5
687
330
18
100
AcDbEntity
  8
1
 62
     1
100
AcDbLine
 10
26.32164087917227
 20
6.340836116926992
 30
0.0
 11
25.92693875012178
 21
6.609918008897947
 31
0.0
  0
LINE
  5
688
330
18
100
AcDbEntity
  8
1
 62
     1
100
AcDbLine
 10
25.92693875012178
 20
6.609918008897947
 30
0.0
 11
25.53223517256744
 21
6.85625010553523
 31
0.0
  0
LINE
  5
689
330
18
100
AcDbEntity
  8
1
 62
     1
100
AcDbLine
 10
25.53223517256744
 20
6.85625010553523
 30
0.0
 11
25.13753146483485
 21
7.078985410067581
 31
0.0
  0
LINE
  5
68A
330
18
100
AcDbEntity
  8
1
 62
     1
100
AcDbLine
 10
25.13753146483485
 20
7.078985410067581
 30
0.0
 11
24.74282677808369
 21
7.277356974299618
 31
0.0
  0
LINE
  5
68B
330
18
100
AcDbEntity
  8
1
 62
     1
100
AcDbLine
 10
24.74282677808369
 20
7.277356974299618
 30
0.0
 11
24.34812023645355
 21
7.450681739969258
 31
0.0
  0
LINE
  5
68C
330
18
100
AcDbEntity
  8
1
 62
     1
100
AcDbLine
 10
24.34812023645355
 20
7.450681739969258
 30
0.0
 11
23.95341393683526
 21
7.598363334811539
 31
0.0
  0
LINE
  5
68D
330
18
100
AcDbEntity
  8
1
 62
     1
100
AcDbLine
 10
23.95341393683526
 20
7.598363334811539
 30
0.0
 11
23.55870726908046
 21
7.719891940105436
 31
0.0
  0
LINE
  5
68E
330
18
100
AcDbEntity
  8
1
 62
     1
100
AcDbLine
 10
23.55870726908046
 20
7.719891940105436
 30
0.0
 11
23.16400325611387
 21
7.814850200749959
 31
0.0
  0
LINE
  5
68F
330
18
100
AcDbEntity
  8
1
 62
     1
100
AcDbLine
 10
23.16400325611387
 20
7.814850200749959
 30
0.0
 11
22.76929874891924
 21
7.882911151710974
 31
0.0
  0
LINE
  5
690
330
18
100
AcDbEntity
  8
1
 62
     1
100
AcDbLine
 10
22.76929874891924
 20
7.882911151710974
 30
0.0
 11
22.37459663968277
 21
7.923841164153644
 31
0.0
  0
LINE
  5
691
330
18
100
AcDbEntity
  8
1
 62
     1
100
AcDbLine
 10
22.37459663968277
 20
7.923841164153644
 30
0.0
 11
21.97991200042238
 21
7.937499999999999
 31
0.0
  0
LINE
  5
692
330
18
100
AcDbEntity
  8
1
 62
     1
100
AcDbLine
 10
45.51495502698831
 20
-7.436968864675385
 30
0.0
 11
45.21474013284821
 21
-7.553325056173504
 31
0.0
  0
LINE
  5
693
330
18
100
AcDbEntity
  8
1
 62
     1
100
AcDbLine
 10
45.21474013284821
 20
-7.553325056173504
 30
0.0
 11
44.9145323217779
 21
-7.654637562916609
 31
0.0
  0
LINE
  5
694
330
18
100
AcDbEntity
  8
1
 62
     1
100
AcDbLine
 10
44.9145323217779
 20
-7.654637562916609
 30
0.0
 11
44.61431806859358
 21
-7.740709601373227
 31
0.0
  0
LINE
  5
695
330
18
100
AcDbEntity
  8
1
 62
     1
100
AcDbLine
 10
44.61431806859358
 20
-7.740709601373227
 30
0.0
 11
44.31409880689071
 21
-7.811367552800273
 31
0.0
  0
LINE
  5
696
330
18
100
AcDbEntity
  8
1
 62
     1
100
AcDbLine
 10
44.31409880689071
 20
-7.811367552800273
 30
0.0
 11
44.01388947136677
 21
-7.866467627643438
 31
0.0
  0
LINE
  5
697
330
18
100
AcDbEntity
  8
1
 62
     1
100
AcDbLine
 10
44.01388947136677
 20
-7.866467627643438
 30
0.0
 11
43.71367987656271
 21
-7.905904325589747
 31
0.0
  0
LINE
  5
698
330
18
100
AcDbEntity
  8
1
 62
     1
100
AcDbLine
 10
43.71367987656271
 20
-7.905904325589747
 30
0.0
 11
43.41345832498929
 21
-7.929597854916266
 31
0.0
  0
LINE
  5
699
330
18
100
AcDbEntity
  8
1
 62
     1
100
AcDbLine
 10
43.41345832498929
 20
-7.929597854916266
 30
0.0
 11
43.11326900102569
 21
-7.937499999958321
 31
0.0
  0
LINE
  5
69A
330
18
100
AcDbEntity
  8
1
 62
     1
100
AcDbLine
 10
30.30550993009261
 20
-0.0000000000002564
 30
0.0
 11
32.94718117623253
 21
-3.037551440553909
 31
0.0
  0
LINE
  5
69B
330
18
100
AcDbEntity
  8
1
 62
     1
100
AcDbLine
 10
32.94718117623253
 20
-3.037551440553909
 30
0.0
 11
34.26801741507352
 21
-4.409841506911562
 31
0.0
  0
LINE
  5
69C
330
18
100
AcDbEntity
  8
1
 62
     1
100
AcDbLine
 10
34.26801741507352
 20
-4.409841506911562
 30
0.0
 11
34.92844254356093
 21
-5.035505951273358
 31
0.0
  0
LINE
  5
69D
330
18
100
AcDbEntity
  8
1
 62
     1
100
AcDbLine
 10
34.92844254356093
 20
-5.035505951273358
 30
0.0
 11
35.58885432014701
 21
-5.612663951498254
 31
0.0
  0
LINE
  5
69E
330
18
100
AcDbEntity
  8
1
 62
     1
100
AcDbLine
 10
35.58885432014701
 20
-5.612663951498254
 30
0.0
 11
36.24928087036754
 21
-6.135780571230121
 31
0.0
  0
LINE
  5
69F
330
18
100
AcDbEntity
  8
1
 62
     1
100
AcDbLine
 10
36.24928087036754
 20
-6.135780571230121
 30
0.0
 11
36.90969179829794
 21
-6.59979454543719
 31
0.0
  0
LINE
  5
6A0
330
18
100
AcDbEntity
  8
1
 62
     1
100
AcDbLine
 10
36.90969179829794
 20
-6.59979454543719
 30
0.0
 11
37.23990385512862
 21
-6.808227402686152
 31
0.0
  0
LINE
  5
6A1
330
18
100
AcDbEntity
  8
1
 62
     1
100
AcDbLine
 10
37.23990385512862
 20
-6.808227402686152
 30
0.0
 11
37.57011837257085
 21
-7.00025896898879
 31
0.0
  0
LINE
  5
6A2
330
18
100
AcDbEntity
  8
1
 62
     1
100
AcDbLine
 10
37.57011837257085
 20
-7.00025896898879
 30
0.0
 11
37.90032491107665
 21
-7.175421646507378
 31
0.0
  0
LINE
  5
6A3
330
18
100
AcDbEntity
  8
1
 62
     1
100
AcDbLine
 10
37.90032491107665
 20
-7.175421646507378
 30
0.0
 11
38.2305297157173
 21
-7.333297950764789
 31
0.0
  0
LINE
  5
6A4
330
18
100
AcDbEntity
  8
1
 62
     1
100
AcDbLine
 10
38.2305297157173
 20
-7.333297950764789
 30
0.0
 11
38.56073882855031
 21
-7.473510266061296
 31
0.0
  0
LINE
  5
6A5
330
18
100
AcDbEntity
  8
1
 62
     1
100
AcDbLine
 10
38.56073882855031
 20
-7.473510266061296
 30
0.0
 11
38.89095474512615
 21
-7.595719945215174
 31
0.0
  0
LINE
  5
6A6
330
18
100
AcDbEntity
  8
1
 62
     1
100
AcDbLine
 10
38.89095474512615
 20
-7.595719945215174
 30
0.0
 11
39.22116321130116
 21
-7.699627591738275
 31
0.0
  0
LINE
  5
6A7
330
18
100
AcDbEntity
  8
1
 62
     1
100
AcDbLine
 10
39.22116321130116
 20
-7.699627591738275
 30
0.0
 11
39.55136789587236
 21
-7.784985641945445
 31
0.0
  0
LINE
  5
6A8
330
18
100
AcDbEntity
  8
1
 62
     1
100
AcDbLine
 10
39.55136789587236
 20
-7.784985641945445
 30
0.0
 11
39.88157475875518
 21
-7.851590352110357
 31
0.0
  0
LINE
  5
6A9
330
18
100
AcDbEntity
  8
1
 62
     1
100
AcDbLine
 10
39.88157475875518
 20
-7.851590352110357
 30
0.0
 11
40.21178961877484
 21
-7.899280828198005
 31
0.0
  0
LINE
  5
6AA
330
18
100
AcDbEntity
  8
1
 62
     1
100
AcDbLine
 10
40.21178961877484
 20
-7.899280828198005
 30
0.0
 11
40.5420008541069
 21
-7.927939660009754
 31
0.0
  0
LINE
  5
6AB
330
18
100
AcDbEntity
  8
1
 62
     1
100
AcDbLine
 10
40.5420008541069
 20
-7.927939660009754
 30
0.0
 11
40.87218904070205
 21
-7.937499999958092
 31
0.0
  0
LINE
  5
6AC
330
18
100
AcDbEntity
  8
1
 62
     1
100
AcDbLine
 10
59.6038599092941
 20
7.436968510522267
 30
0.0
 11
59.90407177821779
 21
7.553323285227899
 31
0.0
  0
LINE
  5
6AD
330
18
100
AcDbEntity
  8
1
 62
     1
100
AcDbLine
 10
59.90407177821779
 20
7.553323285227899
 30
0.0
 11
60.20427962457271
 21
7.654636292022966
 31
0.0
  0
LINE
  5
6AE
330
18
100
AcDbEntity
  8
1
 62
     1
100
AcDbLine
 10
60.20427962457271
 20
7.654636292022966
 30
0.0
 11
60.50449711815079
 21
7.74070952374595
 31
0.0
  0
LINE
  5
6AF
330
18
100
AcDbEntity
  8
1
 62
     1
100
AcDbLine
 10
60.50449711815079
 20
7.74070952374595
 30
0.0
 11
60.80471331455415
 21
7.811366436604514
 31
0.0
  0
LINE
  5
6B0
330
18
100
AcDbEntity
  8
1
 62
     1
100
AcDbLine
 10
60.80471331455415
 20
7.811366436604514
 30
0.0
 11
61.10492088901952
 21
7.866466871457976
 31
0.0
  0
LINE
  5
6B1
330
18
100
AcDbEntity
  8
1
 62
     1
100
AcDbLine
 10
61.10492088901952
 20
7.866466871457976
 30
0.0
 11
61.40513369792819
 21
7.905904137204367
 31
0.0
  0
LINE
  5
6B2
330
18
100
AcDbEntity
  8
1
 62
     1
100
AcDbLine
 10
61.40513369792819
 20
7.905904137204367
 30
0.0
 11
61.70535372587233
 21
7.929597491449238
 31
0.0
  0
LINE
  5
6B3
330
18
100
AcDbEntity
  8
1
 62
     1
100
AcDbLine
 10
61.70535372587233
 20
7.929597491449238
 30
0.0
 11
62.00554726035897
 21
7.9375
 31
0.0
  0
LINE
  5
6B4
330
18
100
AcDbEntity
  8
1
 62
     1
100
AcDbLine
 10
30.30550993009297
 20
-0.000000000000006
 30
0.0
 11
28.07288244756972
 21
1.56729719657313
 31
0.0
  0
LINE
  5
6B5
330
18
100
AcDbEntity
  8
1
 62
     1
100
AcDbLine
 10
28.07288244756972
 20
1.56729719657313
 30
0.0
 11
26.9565687063081
 21
2.296968492502785
 31
0.0
  0
LINE
  5
6B6
330
18
100
AcDbEntity
  8
1
 62
     1
100
AcDbLine
 10
26.9565687063081
 20
2.296968492502785
 30
0.0
 11
25.84025496504648
 21
2.963530873607634
 31
0.0
  0
LINE
  5
6B7
330
18
100
AcDbEntity
  8
1
 62
     1
100
AcDbLine
 10
25.84025496504648
 20
2.963530873607634
 30
0.0
 11
24.72394122378486
 21
3.548670411587317
 31
0.0
  0
LINE
  5
6B8
330
18
100
AcDbEntity
  8
1
 62
     1
100
AcDbLine
 10
24.72394122378486
 20
3.548670411587317
 30
0.0
 11
24.16578435315405
 21
3.805581694132869
 31
0.0
  0
LINE
  5
6B9
330
18
100
AcDbEntity
  8
1
 62
     1
100
AcDbLine
 10
24.16578435315405
 20
3.805581694132869
 30
0.0
 11
23.60762748252324
 21
4.036308959161959
 31
0.0
  0
LINE
  5
6BA
330
18
100
AcDbEntity
  8
1
 62
     1
100
AcDbLine
 10
23.60762748252324
 20
4.036308959161959
 30
0.0
 11
23.04947061189243
 21
4.23926449318079
 31
0.0
  0
LINE
  5
6BB
330
18
100
AcDbEntity
  8
1
 62
     1
100
AcDbLine
 10
23.04947061189243
 20
4.23926449318079
 30
0.0
 11
22.49131374126161
 21
4.413051696585502
 31
0.0
  0
LINE
  5
6BC
330
18
100
AcDbEntity
  8
1
 62
     1
100
AcDbLine
 10
22.49131374126161
 20
4.413051696585502
 30
0.0
 11
21.9331568706308
 21
4.556474143918424
 31
0.0
  0
LINE
  5
6BD
330
18
100
AcDbEntity
  8
1
 62
     1
100
AcDbLine
 10
21.9331568706308
 20
4.556474143918424
 30
0.0
 11
21.375
 21
4.6685384795214
 31
0.0
  0
LINE
  5
6BE
330
18
100
AcDbEntity
  8
1
 62
     1
100
AcDbLine
 10
63.51742093381334
 20
4.68915043959311
 30
0.0
 11
64.49106887134096
 21
3.716396551617417
 31
0.0
  0
LINE
  5
6BF
330
18
100
AcDbEntity
  8
1
 62
     1
100
AcDbLine
 10
64.49106887134096
 20
3.716396551617417
 30
0.0
 11
67.412
 21
0.4208739988848088
 31
0.0
  0
LINE
  5
6C0
330
18
100
AcDbEntity
  8
1
 62
     1
100
AcDbLine
 10
65.52777362960052
 20
0.0000000000000934
 30
0.0
 11
67.412
 21
-2.194342659941512
 31
0.0
  0
LINE
  5
6C1
330
18
100
AcDbEntity
  8
1
 62
     1
100
AcDbLine
 10
23.26105720781167
 20
-0.0000000000074002
 30
0.0
 11
25.90272855278867
 21
-3.037551569173927
 31
0.0
  0
LINE
  5
6C2
330
18
100
AcDbEntity
  8
1
 62
     1
100
AcDbLine
 10
25.90272855278867
 20
-3.037551569173927
 30
0.0
 11
27.22356489051877
 21
-4.409841718283906
 31
0.0
  0
LINE
  5
6C3
330
18
100
AcDbEntity
  8
1
 62
     1
100
AcDbLine
 10
27.22356489051877
 20
-4.409841718283906
 30
0.0
 11
27.88399024359374
 21
-5.035506369147331
 31
0.0
  0
LINE
  5
6C4
330
18
100
AcDbEntity
  8
1
 62
     1
100
AcDbLine
 10
27.88399024359374
 20
-5.035506369147331
 30
0.0
 11
28.54440188089115
 21
-5.612664199248568
 31
0.0
  0
LINE
  5
6C5
330
18
100
AcDbEntity
  8
1
 62
     1
100
AcDbLine
 10
28.54440188089115
 20
-5.612664199248568
 30
0.0
 11
29.20482851190108
 21
-6.135780877386267
 31
0.0
  0
LINE
  5
6C6
330
18
100
AcDbEntity
  8
1
 62
     1
100
AcDbLine
 10
29.20482851190108
 20
-6.135780877386267
 30
0.0
 11
29.86523942890838
 21
-6.59979478205576
 31
0.0
  0
LINE
  5
6C7
330
18
100
AcDbEntity
  8
1
 62
     1
100
AcDbLine
 10
29.86523942890838
 20
-6.59979478205576
 30
0.0
 11
30.19545118280242
 21
-6.808227439905013
 31
0.0
  0
LINE
  5
6C8
330
18
100
AcDbEntity
  8
1
 62
     1
100
AcDbLine
 10
30.19545118280242
 20
-6.808227439905013
 30
0.0
 11
30.52566593495965
 21
-7.000259157498194
 31
0.0
  0
LINE
  5
6C9
330
18
100
AcDbEntity
  8
1
 62
     1
100
AcDbLine
 10
30.52566593495965
 20
-7.000259157498194
 30
0.0
 11
30.85587263787163
 21
-7.175421889270217
 31
0.0
  0
LINE
  5
6CA
330
18
100
AcDbEntity
  8
1
 62
     1
100
AcDbLine
 10
30.85587263787163
 20
-7.175421889270217
 30
0.0
 11
31.1860773990735
 21
-7.333298133975954
 31
0.0
  0
LINE
  5
6CB
330
18
100
AcDbEntity
  8
1
 62
     1
100
AcDbLine
 10
31.1860773990735
 20
-7.333298133975954
 30
0.0
 11
31.51628627282154
 21
-7.473510328872525
 31
0.0
  0
LINE
  5
6CC
330
18
100
AcDbEntity
  8
1
 62
     1
100
AcDbLine
 10
31.51628627282154
 20
-7.473510328872525
 30
0.0
 11
31.84650220495536
 21
-7.595720029476909
 31
0.0
  0
LINE
  5
6CD
330
18
100
AcDbEntity
  8
1
 62
     1
100
AcDbLine
 10
31.84650220495536
 20
-7.595720029476909
 30
0.0
 11
32.17671089805516
 21
-7.699627727642474
 31
0.0
  0
LINE
  5
6CE
330
18
100
AcDbEntity
  8
1
 62
     1
100
AcDbLine
 10
32.17671089805516
 20
-7.699627727642474
 30
0.0
 11
32.50691561181005
 21
-7.784985740988537
 31
0.0
  0
LINE
  5
6CF
330
18
100
AcDbEntity
  8
1
 62
     1
100
AcDbLine
 10
32.50691561181005
 20
-7.784985740988537
 30
0.0
 11
32.83712230075204
 21
-7.851590386020205
 31
0.0
  0
LINE
  5
6D0
330
18
100
AcDbEntity
  8
1
 62
     1
100
AcDbLine
 10
32.83712230075204
 20
-7.851590386020205
 30
0.0
 11
33.16733694997567
 21
-7.89928084295856
 31
0.0
  0
LINE
  5
6D1
330
18
100
AcDbEntity
  8
1
 62
     1
100
AcDbLine
 10
33.16733694997567
 20
-7.89928084295856
 30
0.0
 11
33.49754847567971
 21
-7.927939697353388
 31
0.0
  0
LINE
  5
6D2
330
18
100
AcDbEntity
  8
1
 62
     1
100
AcDbLine
 10
33.49754847567971
 20
-7.927939697353388
 30
0.0
 11
33.82773630037084
 21
-7.937499999964952
 31
0.0
  0
LINE
  5
6D3
330
18
100
AcDbEntity
  8
1
 62
     1
100
AcDbLine
 10
65.52777362960038
 20
0.0000000000000009
 30
0.0
 11
63.26407234768392
 21
1.588287061322138
 31
0.0
  0
LINE
  5
6D4
330
18
100
AcDbEntity
  8
1
 62
     1
100
AcDbLine
 10
63.26407234768392
 20
1.588287061322138
 30
0.0
 11
62.13222170672569
 21
2.326196907251403
 31
0.0
  0
LINE
  5
6D5
330
18
100
AcDbEntity
  8
1
 62
     1
100
AcDbLine
 10
62.13222170672569
 20
2.326196907251403
 30
0.0
 11
61.00037106576746
 21
2.998406490759136
 31
0.0
  0
LINE
  5
6D6
330
18
100
AcDbEntity
  8
1
 62
     1
100
AcDbLine
 10
61.00037106576746
 20
2.998406490759136
 30
0.0
 11
59.86852042480923
 21
3.585932580512874
 31
0.0
  0
LINE
  5
6D7
330
18
100
AcDbEntity
  8
1
 62
     1
100
AcDbLine
 10
59.86852042480923
 20
3.585932580512874
 30
0.0
 11
59.30259510433012
 21
3.842645592033155
 31
0.0
  0
LINE
  5
6D8
330
18
100
AcDbEntity
  8
1
 62
     1
100
AcDbLine
 10
59.30259510433012
 20
3.842645592033155
 30
0.0
 11
58.736669783851
 21
4.072177919608302
 31
0.0
  0
LINE
  5
6D9
330
18
100
AcDbEntity
  8
1
 62
     1
100
AcDbLine
 10
58.736669783851
 20
4.072177919608302
 30
0.0
 11
58.1707444633719
 21
4.272906873709815
 31
0.0
  0
LINE
  5
6DA
330
18
100
AcDbEntity
  8
1
 62
     1
100
AcDbLine
 10
58.1707444633719
 20
4.272906873709815
 30
0.0
 11
57.60481914289279
 21
4.443412842728208
 31
0.0
  0
LINE
  5
6DB
330
18
100
AcDbEntity
  8
1
 62
     1
100
AcDbLine
 10
57.60481914289279
 20
4.443412842728208
 30
0.0
 11
57.03889382241366
 21
4.582489101106324
 31
0.0
  0
LINE
  5
6DC
330
18
100
AcDbEntity
  8
1
 62
     1
100
AcDbLine
 10
57.03889382241366
 20
4.582489101106324
 30
0.0
 11
56.47296850193456
 21
4.689150706458304
 31
0.0
  0
LINE
  5
6DD
330
18
100
AcDbEntity
  8
1
 62
     1
100
AcDbLine
 10
52.55940716455773
 20
7.43696852515383
 30
0.0
 11
52.85961930086982
 21
7.553323388732386
 31
0.0
  0
LINE
  5
6DE
330
18
100
AcDbEntity
  8
1
 62
     1
100
AcDbLine
 10
52.85961930086982
 20
7.553323388732386
 30
0.0
 11
53.15982707020334
 21
7.654636338992466
 31
0.0
  0
LINE
  5
6DF
330
18
100
AcDbEntity
  8
1
 62
     1
100
AcDbLine
 10
53.15982707020334
 20
7.654636338992466
 30
0.0
 11
53.46004419901161
 21
7.740709478926635
 31
0.0
  0
LINE
  5
6E0
330
18
100
AcDbEntity
  8
1
 62
     1
100
AcDbLine
 10
53.46004419901161
 20
7.740709478926635
 30
0.0
 11
53.76026076441306
 21
7.811366491887687
 31
0.0
  0
LINE
  5
6E1
330
18
100
AcDbEntity
  8
1
 62
     1
100
AcDbLine
 10
53.76026076441306
 20
7.811366491887687
 30
0.0
 11
54.06046837906766
 21
7.866466899857185
 31
0.0
  0
LINE
  5
6E2
330
18
100
AcDbEntity
  8
1
 62
     1
100
AcDbLine
 10
54.06046837906766
 20
7.866466899857185
 30
0.0
 11
54.36068089631754
 21
7.905904119458543
 31
0.0
  0
LINE
  5
6E3
330
18
100
AcDbEntity
  8
1
 62
     1
100
AcDbLine
 10
54.36068089631754
 20
7.905904119458543
 30
0.0
 11
54.6609010665032
 21
7.92959751280689
 31
0.0
  0
LINE
  5
6E4
330
18
100
AcDbEntity
  8
1
 62
     1
100
AcDbLine
 10
54.6609010665032
 20
7.92959751280689
 30
0.0
 11
54.9610945206367
 21
7.937500000000001
 31
0.0
  0
ARC
  5
6E5
330
18
100
AcDbEntity
  8
1
 62
     1
100
AcDbCircle
 10
-57.04971019071729
 20
-111.715408165815
 30
0.0
 40
137.58676114222
100
AcDbArc
 50
54.28812888701619
 51
55.24945006306914
  0
LINE
  5
6E6
330
18
100
AcDbEntity
  8
1
 62
     1
100
AcDbLine
 10
56.47296820220912
 20
4.689150391635621
 30
0.0
 11
57.84035271771266
 21
3.299746686942721
 31
0.0
  0
LINE
  5
6E7
330
18
100
AcDbEntity
  8
1
 62
     1
100
AcDbLine
 10
57.84035271771266
 20
3.299746686942721
 30
0.0
 11
60.57510787299652
 21
0.1761451940513377
 31
0.0
  0
LINE
  5
6E8
330
18
100
AcDbEntity
  8
1
 62
     1
100
AcDbLine
 10
60.57510787299652
 20
0.1761451940513377
 30
0.0
 11
63.30986431993237
 21
-2.976171569395124
 31
0.0
  0
LINE
  5
6E9
330
18
100
AcDbEntity
  8
1
 62
     1
100
AcDbLine
 10
63.30986431993237
 20
-2.976171569395124
 30
0.0
 11
64.3353993380564
 21
-4.059115224433622
 31
0.0
  0
LINE
  5
6EA
330
18
100
AcDbEntity
  8
1
 62
     1
100
AcDbLine
 10
64.3353993380564
 20
-4.059115224433622
 30
0.0
 11
65.36094413329076
 21
-5.047910189991757
 31
0.0
  0
LINE
  5
6EB
330
18
100
AcDbEntity
  8
1
 62
     1
100
AcDbLine
 10
65.36094413329076
 20
-5.047910189991757
 30
0.0
 11
65.87371054313722
 21
-5.49972580562484
 31
0.0
  0
LINE
  5
6EC
330
18
100
AcDbEntity
  8
1
 62
     1
100
AcDbLine
 10
65.87371054313722
 20
-5.49972580562484
 30
0.0
 11
66.38647437253121
 21
-5.919597885297846
 31
0.0
  0
LINE
  5
6ED
330
18
100
AcDbEntity
  8
1
 62
     1
100
AcDbLine
 10
66.38647437253121
 20
-5.919597885297846
 30
0.0
 11
66.89924397237007
 21
-6.305096468046238
 31
0.0
  0
LINE
  5
6EE
330
18
100
AcDbEntity
  8
1
 62
     1
100
AcDbLine
 10
66.89924397237007
 20
-6.305096468046238
 30
0.0
 11
67.41200000000002
 21
-6.653969638810973
 31
0.0
  0
LINE
  5
6EF
330
18
100
AcDbEntity
  8
1
 62
     1
100
AcDbLine
 10
58.48332089051006
 20
0.000000000000038
 30
0.0
 11
60.71549116289862
 21
-2.585788980991018
 31
0.0
  0
LINE
  5
6F0
330
18
100
AcDbEntity
  8
1
 62
     1
100
AcDbLine
 10
60.71549116289862
 20
-2.585788980991018
 30
0.0
 11
61.83158609169747
 21
-3.789676978477894
 31
0.0
  0
LINE
  5
6F1
330
18
100
AcDbEntity
  8
1
 62
     1
100
AcDbLine
 10
61.83158609169747
 20
-3.789676978477894
 30
0.0
 11
62.94766601234255
 21
-4.889469866609474
 31
0.0
  0
LINE
  5
6F2
330
18
100
AcDbEntity
  8
1
 62
     1
100
AcDbLine
 10
62.94766601234255
 20
-4.889469866609474
 30
0.0
 11
63.50571510139373
 21
-5.390771292466058
 31
0.0
  0
LINE
  5
6F3
330
18
100
AcDbEntity
  8
1
 62
     1
100
AcDbLine
 10
63.50571510139373
 20
-5.390771292466058
 30
0.0
 11
64.06375719752423
 21
-5.854990209629485
 31
0.0
  0
LINE
  5
6F4
330
18
100
AcDbEntity
  8
1
 62
     1
100
AcDbLine
 10
64.06375719752423
 20
-5.854990209629485
 30
0.0
 11
64.62179460151977
 21
-6.278935721495539
 31
0.0
  0
LINE
  5
6F5
330
18
100
AcDbEntity
  8
1
 62
     1
100
AcDbLine
 10
64.62179460151977
 20
-6.278935721495539
 30
0.0
 11
65.17984281332986
 21
-6.659703796657515
 31
0.0
  0
LINE
  5
6F6
330
18
100
AcDbEntity
  8
1
 62
     1
100
AcDbLine
 10
65.17984281332986
 20
-6.659703796657515
 30
0.0
 11
65.73788879246166
 21
-6.994666471015941
 31
0.0
  0
LINE
  5
6F7
330
18
100
AcDbEntity
  8
1
 62
     1
100
AcDbLine
 10
65.73788879246166
 20
-6.994666471015941
 30
0.0
 11
66.29592434588828
 21
-7.281515443736986
 31
0.0
  0
LINE
  5
6F8
330
18
100
AcDbEntity
  8
1
 62
     1
100
AcDbLine
 10
66.29592434588828
 20
-7.281515443736986
 30
0.0
 11
66.57495372489313
 21
-7.406274934941099
 31
0.0
  0
LINE
  5
6F9
330
18
100
AcDbEntity
  8
1
 62
     1
100
AcDbLine
 10
66.57495372489313
 20
-7.406274934941099
 30
0.0
 11
66.85397000776979
 21
-7.518288349311776
 31
0.0
  0
LINE
  5
6FA
330
18
100
AcDbEntity
  8
1
 62
     1
100
AcDbLine
 10
66.85397000776979
 20
-7.518288349311776
 30
0.0
 11
67.13298926968659
 21
-7.61737141044729
 31
0.0
  0
LINE
  5
6FB
330
18
100
AcDbEntity
  8
1
 62
     1
100
AcDbLine
 10
67.13298926968659
 20
-7.61737141044729
 30
0.0
 11
67.412
 21
-7.703348356479403
 31
0.0
  0
LINE
  5
6FC
330
18
100
AcDbEntity
  8
1
 62
     1
100
AcDbLine
 10
58.48332089051001
 20
0.0000000000000007
 30
0.0
 11
56.21961960738722
 21
1.588287080156516
 31
0.0
  0
LINE
  5
6FD
330
18
100
AcDbEntity
  8
1
 62
     1
100
AcDbLine
 10
56.21961960738722
 20
1.588287080156516
 30
0.0
 11
55.08776896582583
 21
2.32619687315953
 31
0.0
  0
LINE
  5
6FE
330
18
100
AcDbEntity
  8
1
 62
     1
100
AcDbLine
 10
55.08776896582583
 20
2.32619687315953
 30
0.0
 11
53.95591832426443
 21
2.998406505009312
 31
0.0
  0
LINE
  5
6FF
330
18
100
AcDbEntity
  8
1
 62
     1
100
AcDbLine
 10
53.95591832426443
 20
2.998406505009312
 30
0.0
 11
52.82406768270304
 21
3.585932585787652
 31
0.0
  0
LINE
  5
700
330
18
100
AcDbEntity
  8
1
 62
     1
100
AcDbLine
 10
52.82406768270304
 20
3.585932585787652
 30
0.0
 11
52.25814236192234
 21
3.8426455392725
 31
0.0
  0
LINE
  5
701
330
18
100
AcDbEntity
  8
1
 62
     1
100
AcDbLine
 10
52.25814236192234
 20
3.8426455392725
 30
0.0
 11
51.69221704114164
 21
4.072177885594434
 31
0.0
  0
LINE
  5
702
330
18
100
AcDbEntity
  8
1
 62
     1
100
AcDbLine
 10
51.69221704114164
 20
4.072177885594434
 30
0.0
 11
51.12629172036096
 21
4.272906895945638
 31
0.0
  0
LINE
  5
703
330
18
100
AcDbEntity
  8
1
 62
     1
100
AcDbLine
 10
51.12629172036096
 20
4.272906895945638
 30
0.0
 11
50.56036639958027
 21
4.443412902708173
 31
0.0
  0
LINE
  5
704
330
18
100
AcDbEntity
  8
1
 62
     1
100
AcDbLine
 10
50.56036639958027
 20
4.443412902708173
 30
0.0
 11
49.99444107879956
 21
4.582489113859794
 31
0.0
  0
LINE
  5
705
330
18
100
AcDbEntity
  8
1
 62
     1
100
AcDbLine
 10
49.99444107879956
 20
4.582489113859794
 30
0.0
 11
49.42851575801885
 21
4.689150643833739
 31
0.0
  0
LINE
  5
706
330
18
100
AcDbEntity
  8
1
 62
     1
100
AcDbLine
 10
45.51495443595294
 20
7.436968534918352
 30
0.0
 11
45.81516659288586
 21
7.553323402201993
 31
0.0
  0
LINE
  5
707
330
18
100
AcDbEntity
  8
1
 62
     1
100
AcDbLine
 10
45.81516659288586
 20
7.553323402201993
 30
0.0
 11
46.11537435092792
 21
7.654636347876848
 31
0.0
  0
LINE
  5
708
330
18
100
AcDbEntity
  8
1
 62
     1
100
AcDbLine
 10
46.11537435092792
 20
7.654636347876848
 30
0.0
 11
46.41559145615884
 21
7.740709478522572
 31
0.0
  0
LINE
  5
709
330
18
100
AcDbEntity
  8
1
 62
     1
100
AcDbLine
 10
46.41559145615884
 20
7.740709478522572
 30
0.0
 11
46.71580804164242
 21
7.811366498293939
 31
0.0
  0
LINE
  5
70A
330
18
100
AcDbEntity
  8
1
 62
     1
100
AcDbLine
 10
46.71580804164242
 20
7.811366498293939
 30
0.0
 11
47.01601565859084
 21
7.866466903392733
 31
0.0
  0
LINE
  5
70B
330
18
100
AcDbEntity
  8
1
 62
     1
100
AcDbLine
 10
47.01601565859084
 20
7.866466903392733
 30
0.0
 11
47.31622815446605
 21
7.905904118823172
 31
0.0
  0
LINE
  5
70C
330
18
100
AcDbEntity
  8
1
 62
     1
100
AcDbLine
 10
47.31622815446605
 20
7.905904118823172
 30
0.0
 11
47.61644832844833
 21
7.929597514616116
 31
0.0
  0
LINE
  5
70D
330
18
100
AcDbEntity
  8
1
 62
     1
100
AcDbLine
 10
47.61644832844833
 20
7.929597514616116
 30
0.0
 11
47.91664178077409
 21
7.937500000000001
 31
0.0
  0
LINE
  5
70E
330
18
100
AcDbEntity
  8
1
 62
     1
100
AcDbLine
 10
49.42851547155956
 20
4.68915034294531
 30
0.0
 11
50.35465058013895
 21
3.765841630712381
 31
0.0
  0
LINE
  5
70F
330
18
100
AcDbEntity
  8
1
 62
     1
100
AcDbLine
 10
50.35465058013895
 20
3.765841630712381
 30
0.0
 11
52.20691265258011
 21
1.724257559547413
 31
0.0
  0
LINE
  5
710
330
18
100
AcDbEntity
  8
1
 62
     1
100
AcDbLine
 10
52.20691265258011
 20
1.724257559547413
 30
0.0
 11
55.91143093302576
 21
-2.585022688824532
 31
0.0
  0
LINE
  5
711
330
18
100
AcDbEntity
  8
1
 62
     1
100
AcDbLine
 10
55.91143093302576
 20
-2.585022688824532
 30
0.0
 11
56.83756681015876
 21
-3.59052268441826
 31
0.0
  0
LINE
  5
712
330
18
100
AcDbEntity
  8
1
 62
     1
100
AcDbLine
 10
56.83756681015876
 20
-3.59052268441826
 30
0.0
 11
57.76370497731322
 21
-4.528075310419005
 31
0.0
  0
LINE
  5
713
330
18
100
AcDbEntity
  8
1
 62
     1
100
AcDbLine
 10
57.76370497731322
 20
-4.528075310419005
 30
0.0
 11
58.68984271615884
 21
-5.379936507543842
 31
0.0
  0
LINE
  5
714
330
18
100
AcDbEntity
  8
1
 62
     1
100
AcDbLine
 10
58.68984271615884
 20
-5.379936507543842
 30
0.0
 11
59.15291170477908
 21
-5.768622035458252
 31
0.0
  0
LINE
  5
715
330
18
100
AcDbEntity
  8
1
 62
     1
100
AcDbLine
 10
59.15291170477908
 20
-5.768622035458252
 30
0.0
 11
59.61597896592666
 21
-6.129983135991836
 31
0.0
  0
LINE
  5
716
330
18
100
AcDbEntity
  8
1
 62
     1
100
AcDbLine
 10
59.61597896592666
 20
-6.129983135991836
 30
0.0
 11
60.07904615612765
 21
-6.462307000348968
 31
0.0
  0
LINE
  5
717
330
18
100
AcDbEntity
  8
1
 62
     1
100
AcDbLine
 10
60.07904615612765
 20
-6.462307000348968
 30
0.0
 11
60.54211259160319
 21
-6.764019779018326
 31
0.0
  0
LINE
  5
718
330
18
100
AcDbEntity
  8
1
 62
     1
100
AcDbLine
 10
60.54211259160319
 20
-6.764019779018326
 30
0.0
 11
61.00517633226232
 21
-7.033693130459341
 31
0.0
  0
LINE
  5
719
330
18
100
AcDbEntity
  8
1
 62
     1
100
AcDbLine
 10
61.00517633226232
 20
-7.033693130459341
 30
0.0
 11
61.46824162582296
 21
-7.270049670258858
 31
0.0
  0
LINE
  5
71A
330
18
100
AcDbEntity
  8
1
 62
     1
100
AcDbLine
 10
61.46824162582296
 20
-7.270049670258858
 30
0.0
 11
61.93130803822606
 21
-7.471970748350713
 31
0.0
  0
LINE
  5
71B
330
18
100
AcDbEntity
  8
1
 62
     1
100
AcDbLine
 10
61.93130803822606
 20
-7.471970748350713
 30
0.0
 11
62.39437460133472
 21
-7.638499762281059
 31
0.0
  0
LINE
  5
71C
330
18
100
AcDbEntity
  8
1
 62
     1
100
AcDbLine
 10
62.39437460133472
 20
-7.638499762281059
 30
0.0
 11
62.62591695750797
 21
-7.708241024122185
 31
0.0
  0
LINE
  5
71D
330
18
100
AcDbEntity
  8
1
 62
     1
100
AcDbLine
 10
62.62591695750797
 20
-7.708241024122185
 30
0.0
 11
62.85744306551824
 21
-7.768847133622757
 31
0.0
  0
LINE
  5
71E
330
18
100
AcDbEntity
  8
1
 62
     1
100
AcDbLine
 10
62.85744306551824
 20
-7.768847133622757
 30
0.0
 11
63.08898285382068
 21
-7.820254895530148
 31
0.0
  0
LINE
  5
71F
330
18
100
AcDbEntity
  8
1
 62
     1
100
AcDbLine
 10
63.08898285382068
 20
-7.820254895530148
 30
0.0
 11
63.32051147853244
 21
-7.862395676775938
 31
0.0
  0
LINE
  5
720
330
18
100
AcDbEntity
  8
1
 62
     1
100
AcDbLine
 10
63.32051147853244
 20
-7.862395676775938
 30
0.0
 11
63.552048813121
 21
-7.895225975705893
 31
0.0
  0
LINE
  5
721
330
18
100
AcDbEntity
  8
1
 62
     1
100
AcDbLine
 10
63.552048813121
 20
-7.895225975705893
 30
0.0
 11
63.78357982973735
 21
-7.918701998786806
 31
0.0
  0
LINE
  5
722
330
18
100
AcDbEntity
  8
1
 62
     1
100
AcDbLine
 10
63.78357982973735
 20
-7.918701998786806
 30
0.0
 11
64.01511301999626
 21
-7.932799649092417
 31
0.0
  0
LINE
  5
723
330
18
100
AcDbEntity
  8
1
 62
     1
100
AcDbLine
 10
64.01511301999626
 20
-7.932799649092417
 30
0.0
 11
64.2466274377375
 21
-7.937499999958258
 31
0.0
  0
LINE
  5
724
330
18
100
AcDbEntity
  8
1
 62
     1
100
AcDbLine
 10
44.39441541076897
 20
-0.0000000000001074
 30
0.0
 11
47.03608808129192
 21
-3.037552938679169
 31
0.0
  0
LINE
  5
725
330
18
100
AcDbEntity
  8
1
 62
     1
100
AcDbLine
 10
47.03608808129192
 20
-3.037552938679169
 30
0.0
 11
48.3569252772531
 21
-4.409843732253456
 31
0.0
  0
LINE
  5
726
330
18
100
AcDbEntity
  8
1
 62
     1
100
AcDbLine
 10
48.3569252772531
 20
-4.409843732253456
 30
0.0
 11
49.01735197646617
 21
-5.035509631298671
 31
0.0
  0
LINE
  5
727
330
18
100
AcDbEntity
  8
1
 62
     1
100
AcDbLine
 10
49.01735197646617
 20
-5.035509631298671
 30
0.0
 11
49.67776298684201
 21
-5.612666472198932
 31
0.0
  0
LINE
  5
728
330
18
100
AcDbEntity
  8
1
 62
     1
100
AcDbLine
 10
49.67776298684201
 20
-5.612666472198932
 30
0.0
 11
50.33818970642798
 21
-6.135783190938692
 31
0.0
  0
LINE
  5
729
330
18
100
AcDbEntity
  8
1
 62
     1
100
AcDbLine
 10
50.33818970642798
 20
-6.135783190938692
 30
0.0
 11
50.99860110025492
 21
-6.599796918062327
 31
0.0
  0
LINE
  5
72A
330
18
100
AcDbEntity
  8
1
 62
     1
100
AcDbLine
 10
50.99860110025492
 20
-6.599796918062327
 30
0.0
 11
51.32881042411922
 21
-6.808227985612963
 31
0.0
  0
LINE
  5
72B
330
18
100
AcDbEntity
  8
1
 62
     1
100
AcDbLine
 10
51.32881042411922
 20
-6.808227985612963
 30
0.0
 11
51.65902638840396
 21
-7.000260502621435
 31
0.0
  0
LINE
  5
72C
330
18
100
AcDbEntity
  8
1
 62
     1
100
AcDbLine
 10
51.65902638840396
 20
-7.000260502621435
 30
0.0
 11
51.9892347647943
 21
-7.175423928897203
 31
0.0
  0
LINE
  5
72D
330
18
100
AcDbEntity
  8
1
 62
     1
100
AcDbLine
 10
51.9892347647943
 20
-7.175423928897203
 30
0.0
 11
52.31943946415657
 21
-7.333299781198952
 31
0.0
  0
LINE
  5
72E
330
18
100
AcDbEntity
  8
1
 62
     1
100
AcDbLine
 10
52.31943946415657
 20
-7.333299781198952
 30
0.0
 11
52.64964652122978
 21
-7.473510999010498
 31
0.0
  0
LINE
  5
72F
330
18
100
AcDbEntity
  8
1
 62
     1
100
AcDbLine
 10
52.64964652122978
 20
-7.473510999010498
 30
0.0
 11
52.97986168995694
 21
-7.595720548389941
 31
0.0
  0
LINE
  5
730
330
18
100
AcDbEntity
  8
1
 62
     1
100
AcDbLine
 10
52.97986168995694
 20
-7.595720548389941
 30
0.0
 11
53.31007265144018
 21
-7.699628854478158
 31
0.0
  0
LINE
  5
731
330
18
100
AcDbEntity
  8
1
 62
     1
100
AcDbLine
 10
53.31007265144018
 20
-7.699628854478158
 30
0.0
 11
53.64027788729128
 21
-7.784986639422234
 31
0.0
  0
LINE
  5
732
330
18
100
AcDbEntity
  8
1
 62
     1
100
AcDbLine
 10
53.64027788729128
 20
-7.784986639422234
 30
0.0
 11
53.97048337843629
 21
-7.851590730024993
 31
0.0
  0
LINE
  5
733
330
18
100
AcDbEntity
  8
1
 62
     1
100
AcDbLine
 10
53.97048337843629
 20
-7.851590730024993
 30
0.0
 11
54.30069541947266
 21
-7.899280877900311
 31
0.0
  0
LINE
  5
734
330
18
100
AcDbEntity
  8
1
 62
     1
100
AcDbLine
 10
54.30069541947266
 20
-7.899280877900311
 30
0.0
 11
54.63090963441224
 21
-7.927940010592359
 31
0.0
  0
LINE
  5
735
330
18
100
AcDbEntity
  8
1
 62
     1
100
AcDbLine
 10
54.63090963441224
 20
-7.927940010592359
 30
0.0
 11
54.96109452063357
 21
-7.937499999959087
 31
0.0
  0
LINE
  5
736
330
18
100
AcDbEntity
  8
1
 62
     1
100
AcDbLine
 10
44.39441541076911
 20
-0.0000000000000091
 30
0.0
 11
42.1307141252232
 21
1.588287118675009
 31
0.0
  0
LINE
  5
737
330
18
100
AcDbEntity
  8
1
 62
     1
100
AcDbLine
 10
42.1307141252232
 20
1.588287118675009
 30
0.0
 11
40.99886348245024
 21
2.326196805026024
 31
0.0
  0
LINE
  5
738
330
18
100
AcDbEntity
  8
1
 62
     1
100
AcDbLine
 10
40.99886348245024
 20
2.326196805026024
 30
0.0
 11
39.86701283967729
 21
2.99840654257259
 31
0.0
  0
LINE
  5
739
330
18
100
AcDbEntity
  8
1
 62
     1
100
AcDbLine
 10
39.86701283967729
 20
2.99840654257259
 30
0.0
 11
38.73516219690436
 21
3.585932576637501
 31
0.0
  0
LINE
  5
73A
330
18
100
AcDbEntity
  8
1
 62
     1
100
AcDbLine
 10
38.73516219690436
 20
3.585932576637501
 30
0.0
 11
38.16923687551788
 21
3.842645432898971
 31
0.0
  0
LINE
  5
73B
330
18
100
AcDbEntity
  8
1
 62
     1
100
AcDbLine
 10
38.16923687551788
 20
3.842645432898971
 30
0.0
 11
37.6033115541314
 21
4.072177828509219
 31
0.0
  0
LINE
  5
73C
330
18
100
AcDbEntity
  8
1
 62
     1
100
AcDbLine
 10
37.6033115541314
 20
4.072177828509219
 30
0.0
 11
37.03738623274494
 21
4.27290695250455
 31
0.0
  0
LINE
  5
73D
330
18
100
AcDbEntity
  8
1
 62
     1
100
AcDbLine
 10
37.03738623274494
 20
4.27290695250455
 30
0.0
 11
36.47146091135846
 21
4.443413022995283
 31
0.0
  0
LINE
  5
73E
330
18
100
AcDbEntity
  8
1
 62
     1
100
AcDbLine
 10
36.47146091135846
 20
4.443413022995283
 30
0.0
 11
35.905535589972
 21
4.582489114037253
 31
0.0
  0
LINE
  5
73F
330
18
100
AcDbEntity
  8
1
 62
     1
100
AcDbLine
 10
35.905535589972
 20
4.582489114037253
 30
0.0
 11
35.33961026858552
 21
4.689150516413849
 31
0.0
  0
LINE
  5
740
330
18
100
AcDbEntity
  8
1
 62
     1
100
AcDbLine
 10
31.42604897309731
 20
7.436968561816165
 30
0.0
 11
31.72626140600967
 21
7.55332351896331
 31
0.0
  0
LINE
  5
741
330
18
100
AcDbEntity
  8
1
 62
     1
100
AcDbLine
 10
31.72626140600967
 20
7.55332351896331
 30
0.0
 11
32.02646908549003
 21
7.654636407498442
 31
0.0
  0
LINE
  5
742
330
18
100
AcDbEntity
  8
1
 62
     1
100
AcDbLine
 10
32.02646908549003
 20
7.654636407498442
 30
0.0
 11
32.32668580308921
 21
7.740709433901916
 31
0.0
  0
LINE
  5
743
330
18
100
AcDbEntity
  8
1
 62
     1
100
AcDbLine
 10
32.32668580308921
 20
7.740709433901916
 30
0.0
 11
32.62690275758384
 21
7.811366557417701
 31
0.0
  0
LINE
  5
744
330
18
100
AcDbEntity
  8
1
 62
     1
100
AcDbLine
 10
32.62690275758384
 20
7.811366557417701
 30
0.0
 11
32.92711042098819
 21
7.866466935117497
 31
0.0
  0
LINE
  5
745
330
18
100
AcDbEntity
  8
1
 62
     1
100
AcDbLine
 10
32.92711042098819
 20
7.866466935117497
 30
0.0
 11
33.22732262464965
 21
7.905904102158938
 31
0.0
  0
LINE
  5
746
330
18
100
AcDbEntity
  8
1
 62
     1
100
AcDbLine
 10
33.22732262464965
 20
7.905904102158938
 30
0.0
 11
33.52754291417472
 21
7.929597535812038
 31
0.0
  0
LINE
  5
747
330
18
100
AcDbEntity
  8
1
 62
     1
100
AcDbLine
 10
33.52754291417472
 20
7.929597535812038
 30
0.0
 11
33.82773630037339
 21
7.9375
 31
0.0
  0
LINE
  5
748
330
18
100
AcDbEntity
  8
1
 62
     1
100
AcDbLine
 10
35.33961001084356
 20
4.689150245689449
 30
0.0
 11
36.2657451508023
 21
3.765841563247716
 31
0.0
  0
LINE
  5
749
330
18
100
AcDbEntity
  8
1
 62
     1
100
AcDbLine
 10
36.2657451508023
 20
3.765841563247716
 30
0.0
 11
38.1180071435599
 21
1.724257450104935
 31
0.0
  0
LINE
  5
74A
330
18
100
AcDbEntity
  8
1
 62
     1
100
AcDbLine
 10
38.1180071435599
 20
1.724257450104935
 30
0.0
 11
41.82252540955693
 21
-2.585022745603821
 31
0.0
  0
LINE
  5
74B
330
18
100
AcDbEntity
  8
1
 62
     1
100
AcDbLine
 10
41.82252540955693
 20
-2.585022745603821
 30
0.0
 11
42.74866136047032
 21
-3.590522667523139
 31
0.0
  0
LINE
  5
74C
330
18
100
AcDbEntity
  8
1
 62
     1
100
AcDbLine
 10
42.74866136047032
 20
-3.590522667523139
 30
0.0
 11
43.67479949411737
 21
-4.528075304041211
 31
0.0
  0
LINE
  5
74D
330
18
100
AcDbEntity
  8
1
 62
     1
100
AcDbLine
 10
43.67479949411737
 20
-4.528075304041211
 30
0.0
 11
44.60093717572192
 21
-5.379936526623346
 31
0.0
  0
LINE
  5
74E
330
18
100
AcDbEntity
  8
1
 62
     1
100
AcDbLine
 10
44.60093717572192
 20
-5.379936526623346
 30
0.0
 11
45.06400617960275
 21
-5.768622038308237
 31
0.0
  0
LINE
  5
74F
330
18
100
AcDbEntity
  8
1
 62
     1
100
AcDbLine
 10
45.06400617960275
 20
-5.768622038308237
 30
0.0
 11
45.52707350714692
 21
-6.129983098655783
 31
0.0
  0
LINE
  5
750
330
18
100
AcDbEntity
  8
1
 62
     1
100
AcDbLine
 10
45.52707350714692
 20
-6.129983098655783
 30
0.0
 11
45.99014058270759
 21
-6.462307017248729
 31
0.0
  0
LINE
  5
751
330
18
100
AcDbEntity
  8
1
 62
     1
100
AcDbLine
 10
45.99014058270759
 20
-6.462307017248729
 30
0.0
 11
46.45320711536402
 21
-6.764019747284356
 31
0.0
  0
LINE
  5
752
330
18
100
AcDbEntity
  8
1
 62
     1
100
AcDbLine
 10
46.45320711536402
 20
-6.764019747284356
 30
0.0
 11
46.91627084957838
 21
-7.033693101084158
 31
0.0
  0
LINE
  5
753
330
18
100
AcDbEntity
  8
1
 62
     1
100
AcDbLine
 10
46.91627084957838
 20
-7.033693101084158
 30
0.0
 11
47.37933602713024
 21
-7.270049681192869
 31
0.0
  0
LINE
  5
754
330
18
100
AcDbEntity
  8
1
 62
     1
100
AcDbLine
 10
47.37933602713024
 20
-7.270049681192869
 30
0.0
 11
47.84240257243637
 21
-7.471970716262295
 31
0.0
  0
LINE
  5
755
330
18
100
AcDbEntity
  8
1
 62
     1
100
AcDbLine
 10
47.84240257243637
 20
-7.471970716262295
 30
0.0
 11
48.3054690870448
 21
-7.638499746152174
 31
0.0
  0
LINE
  5
756
330
18
100
AcDbEntity
  8
1
 62
     1
100
AcDbLine
 10
48.3054690870448
 20
-7.638499746152174
 30
0.0
 11
48.53701146361686
 21
-7.708241004850464
 31
0.0
  0
LINE
  5
757
330
18
100
AcDbEntity
  8
1
 62
     1
100
AcDbLine
 10
48.53701146361686
 20
-7.708241004850464
 30
0.0
 11
48.76853745445953
 21
-7.76884713717509
 31
0.0
  0
LINE
  5
758
330
18
100
AcDbEntity
  8
1
 62
     1
100
AcDbLine
 10
48.76853745445953
 20
-7.76884713717509
 30
0.0
 11
49.00007733594944
 21
-7.820254883802511
 31
0.0
  0
LINE
  5
759
330
18
100
AcDbEntity
  8
1
 62
     1
100
AcDbLine
 10
49.00007733594944
 20
-7.820254883802511
 30
0.0
 11
49.23160596800641
 21
-7.862395664249872
 31
0.0
  0
LINE
  5
75A
330
18
100
AcDbEntity
  8
1
 62
     1
100
AcDbLine
 10
49.23160596800641
 20
-7.862395664249872
 30
0.0
 11
49.4631431948447
 21
-7.89522597639018
 31
0.0
  0
LINE
  5
75B
330
18
100
AcDbEntity
  8
1
 62
     1
100
AcDbLine
 10
49.4631431948447
 20
-7.89522597639018
 30
0.0
 11
49.69467430110274
 21
-7.918701995047849
 31
0.0
  0
LINE
  5
75C
330
18
100
AcDbEntity
  8
1
 62
     1
100
AcDbLine
 10
49.69467430110274
 20
-7.918701995047849
 30
0.0
 11
49.92620754512323
 21
-7.932799644867578
 31
0.0
  0
LINE
  5
75D
330
18
100
AcDbEntity
  8
1
 62
     1
100
AcDbLine
 10
49.92620754512323
 20
-7.932799644867578
 30
0.0
 11
50.15772181367683
 21
-7.937499999958314
 31
0.0
  0
LINE
  5
75E
330
18
100
AcDbEntity
  8
1
 62
     1
100
AcDbLine
 10
42.38406274117256
 20
4.68915029420548
 30
0.0
 11
43.31019786409684
 21
3.765841595854859
 31
0.0
  0
LINE
  5
75F
330
18
100
AcDbEntity
  8
1
 62
     1
100
AcDbLine
 10
43.31019786409684
 20
3.765841595854859
 30
0.0
 11
45.16245989909584
 21
1.724257505543552
 31
0.0
  0
LINE
  5
760
330
18
100
AcDbEntity
  8
1
 62
     1
100
AcDbLine
 10
45.16245989909584
 20
1.724257505543552
 30
0.0
 11
48.86697817025205
 21
-2.585022718217556
 31
0.0
  0
LINE
  5
761
330
18
100
AcDbEntity
  8
1
 62
     1
100
AcDbLine
 10
48.86697817025205
 20
-2.585022718217556
 30
0.0
 11
49.79311408509095
 21
-3.59052267632712
 31
0.0
  0
LINE
  5
762
330
18
100
AcDbEntity
  8
1
 62
     1
100
AcDbLine
 10
49.79311408509095
 20
-3.59052267632712
 30
0.0
 11
50.71925223609294
 21
-4.528075307132741
 31
0.0
  0
LINE
  5
763
330
18
100
AcDbEntity
  8
1
 62
     1
100
AcDbLine
 10
50.71925223609294
 20
-4.528075307132741
 30
0.0
 11
51.64538994647728
 21
-5.379936516872218
 31
0.0
  0
LINE
  5
764
330
18
100
AcDbEntity
  8
1
 62
     1
100
AcDbLine
 10
51.64538994647728
 20
-5.379936516872218
 30
0.0
 11
52.10845894352543
 21
-5.76862203627525
 31
0.0
  0
LINE
  5
765
330
18
100
AcDbEntity
  8
1
 62
     1
100
AcDbLine
 10
52.10845894352543
 20
-5.76862203627525
 30
0.0
 11
52.57152623545726
 21
-6.129983118047564
 31
0.0
  0
LINE
  5
766
330
18
100
AcDbEntity
  8
1
 62
     1
100
AcDbLine
 10
52.57152623545726
 20
-6.129983118047564
 30
0.0
 11
53.03459336886896
 21
-6.462307009200666
 31
0.0
  0
LINE
  5
767
330
18
100
AcDbEntity
  8
1
 62
     1
100
AcDbLine
 10
53.03459336886896
 20
-6.462307009200666
 30
0.0
 11
53.49765985582776
 21
-6.764019762235652
 31
0.0
  0
LINE
  5
768
330
18
100
AcDbEntity
  8
1
 62
     1
100
AcDbLine
 10
53.49765985582776
 20
-6.764019762235652
 30
0.0
 11
53.96072358973544
 21
-7.033693116350149
 31
0.0
  0
LINE
  5
769
330
18
100
AcDbEntity
  8
1
 62
     1
100
AcDbLine
 10
53.96072358973544
 20
-7.033693116350149
 30
0.0
 11
54.42378882626078
 21
-7.270049675898715
 31
0.0
  0
LINE
  5
76A
330
18
100
AcDbEntity
  8
1
 62
     1
100
AcDbLine
 10
54.42378882626078
 20
-7.270049675898715
 30
0.0
 11
54.88685530636035
 21
-7.47197073209028
 31
0.0
  0
LINE
  5
76B
330
18
100
AcDbEntity
  8
1
 62
     1
100
AcDbLine
 10
54.88685530636035
 20
-7.47197073209028
 30
0.0
 11
55.34992184370864
 21
-7.638499754430839
 31
0.0
  0
LINE
  5
76C
330
18
100
AcDbEntity
  8
1
 62
     1
100
AcDbLine
 10
55.34992184370864
 20
-7.638499754430839
 30
0.0
 11
55.5814642136645
 21
-7.708241013947748
 31
0.0
  0
LINE
  5
76D
330
18
100
AcDbEntity
  8
1
 62
     1
100
AcDbLine
 10
55.5814642136645
 20
-7.708241013947748
 30
0.0
 11
55.81299026006506
 21
-7.768847135437989
 31
0.0
  0
LINE
  5
76E
330
18
100
AcDbEntity
  8
1
 62
     1
100
AcDbLine
 10
55.81299026006506
 20
-7.768847135437989
 30
0.0
 11
56.0445300936462
 21
-7.820254889891678
 31
0.0
  0
LINE
  5
76F
330
18
100
AcDbEntity
  8
1
 62
     1
100
AcDbLine
 10
56.0445300936462
 20
-7.820254889891678
 30
0.0
 11
56.27605872348499
 21
-7.862395670539291
 31
0.0
  0
LINE
  5
770
330
18
100
AcDbEntity
  8
1
 62
     1
100
AcDbLine
 10
56.27605872348499
 20
-7.862395670539291
 30
0.0
 11
56.50759600411654
 21
-7.895225976065232
 31
0.0
  0
LINE
  5
771
330
18
100
AcDbEntity
  8
1
 62
     1
100
AcDbLine
 10
56.50759600411654
 20
-7.895225976065232
 30
0.0
 11
56.73912706409828
 21
-7.918701997011107
 31
0.0
  0
LINE
  5
772
330
18
100
AcDbEntity
  8
1
 62
     1
100
AcDbLine
 10
56.73912706409828
 20
-7.918701997011107
 30
0.0
 11
56.97066028354579
 21
-7.93279964696092
 31
0.0
  0
LINE
  5
773
330
18
100
AcDbEntity
  8
1
 62
     1
100
AcDbLine
 10
56.97066028354579
 20
-7.93279964696092
 30
0.0
 11
57.20217462604036
 21
-7.937499999958289
 31
0.0
  0
LINE
  5
774
330
18
100
AcDbEntity
  8
1
 62
     1
100
AcDbLine
 10
51.43886815072734
 20
-0.0000000000000377
 30
0.0
 11
54.08054082463443
 21
-3.037552935980802
 31
0.0
  0
LINE
  5
775
330
18
100
AcDbEntity
  8
1
 62
     1
100
AcDbLine
 10
54.08054082463443
 20
-3.037552935980802
 30
0.0
 11
55.40137802289475
 21
-4.409843728167768
 31
0.0
  0
LINE
  5
776
330
18
100
AcDbEntity
  8
1
 62
     1
100
AcDbLine
 10
55.40137802289475
 20
-4.409843728167768
 30
0.0
 11
56.0618047222931
 21
-5.035509627394274
 31
0.0
  0
LINE
  5
777
330
18
100
AcDbEntity
  8
1
 62
     1
100
AcDbLine
 10
56.0618047222931
 20
-5.035509627394274
 30
0.0
 11
56.72221573317456
 21
-5.612666468281552
 31
0.0
  0
LINE
  5
778
330
18
100
AcDbEntity
  8
1
 62
     1
100
AcDbLine
 10
56.72221573317456
 20
-5.612666468281552
 30
0.0
 11
57.38264245292706
 21
-6.135783187373528
 31
0.0
  0
LINE
  5
779
330
18
100
AcDbEntity
  8
1
 62
     1
100
AcDbLine
 10
57.38264245292706
 20
-6.135783187373528
 30
0.0
 11
58.04305384591222
 21
-6.599796915310329
 31
0.0
  0
LINE
  5
77A
330
18
100
AcDbEntity
  8
1
 62
     1
100
AcDbLine
 10
58.04305384591222
 20
-6.599796915310329
 30
0.0
 11
58.37326316553092
 21
-6.808227984919703
 31
0.0
  0
LINE
  5
77B
330
18
100
AcDbEntity
  8
1
 62
     1
100
AcDbLine
 10
58.37326316553092
 20
-6.808227984919703
 30
0.0
 11
58.70347913405503
 21
-7.000260500290972
 31
0.0
  0
LINE
  5
77C
330
18
100
AcDbEntity
  8
1
 62
     1
100
AcDbLine
 10
58.70347913405503
 20
-7.000260500290972
 30
0.0
 11
59.03368750653007
 21
-7.175423928134814
 31
0.0
  0
LINE
  5
77D
330
18
100
AcDbEntity
  8
1
 62
     1
100
AcDbLine
 10
59.03368750653007
 20
-7.175423928134814
 30
0.0
 11
59.36389220757105
 21
-7.333299780074268
 31
0.0
  0
LINE
  5
77E
330
18
100
AcDbEntity
  8
1
 62
     1
100
AcDbLine
 10
59.36389220757105
 20
-7.333299780074268
 30
0.0
 11
59.69409926553766
 21
-7.473510997705648
 31
0.0
  0
LINE
  5
77F
330
18
100
AcDbEntity
  8
1
 62
     1
100
AcDbLine
 10
59.69409926553766
 20
-7.473510997705648
 30
0.0
 11
60.02431443297458
 21
-7.595720547589044
 31
0.0
  0
LINE
  5
780
330
18
100
AcDbEntity
  8
1
 62
     1
100
AcDbLine
 10
60.02431443297458
 20
-7.595720547589044
 30
0.0
 11
60.35452539596351
 21
-7.699628853487807
 31
0.0
  0
LINE
  5
781
330
18
100
AcDbEntity
  8
1
 62
     1
100
AcDbLine
 10
60.35452539596351
 20
-7.699628853487807
 30
0.0
 11
60.68473062943686
 21
-7.784986639094685
 31
0.0
  0
LINE
  5
782
330
18
100
AcDbEntity
  8
1
 62
     1
100
AcDbLine
 10
60.68473062943686
 20
-7.784986639094685
 30
0.0
 11
61.01493612420567
 21
-7.851590729229065
 31
0.0
  0
LINE
  5
783
330
18
100
AcDbEntity
  8
1
 62
     1
100
AcDbLine
 10
61.01493612420567
 20
-7.851590729229065
 30
0.0
 11
61.3451481598389
 21
-7.899280877849192
 31
0.0
  0
LINE
  5
784
330
18
100
AcDbEntity
  8
1
 62
     1
100
AcDbLine
 10
61.3451481598389
 20
-7.899280877849192
 30
0.0
 11
61.67536238075397
 21
-7.927940010336314
 31
0.0
  0
LINE
  5
785
330
18
100
AcDbEntity
  8
1
 62
     1
100
AcDbLine
 10
61.67536238075397
 20
-7.927940010336314
 30
0.0
 11
62.00554726035589
 21
-7.937499999959098
 31
0.0
  0
LINE
  5
786
330
18
100
AcDbEntity
  8
1
 62
     1
100
AcDbLine
 10
51.43886815072741
 20
-0.0000000000000027
 30
0.0
 11
49.17516686643827
 21
1.588287099367859
 31
0.0
  0
LINE
  5
787
330
18
100
AcDbEntity
  8
1
 62
     1
100
AcDbLine
 10
49.17516686643827
 20
1.588287099367859
 30
0.0
 11
48.04331622429373
 21
2.326196839083544
 31
0.0
  0
LINE
  5
788
330
18
100
AcDbEntity
  8
1
 62
     1
100
AcDbLine
 10
48.04331622429373
 20
2.326196839083544
 30
0.0
 11
46.91146558214916
 21
2.998406522359996
 31
0.0
  0
LINE
  5
789
330
18
100
AcDbEntity
  8
1
 62
     1
100
AcDbLine
 10
46.91146558214916
 20
2.998406522359996
 30
0.0
 11
45.77961494000458
 21
3.585932584427783
 31
0.0
  0
LINE
  5
78A
330
18
100
AcDbEntity
  8
1
 62
     1
100
AcDbLine
 10
45.77961494000458
 20
3.585932584427783
 30
0.0
 11
45.2136896189323
 21
3.842645486123602
 31
0.0
  0
LINE
  5
78B
330
18
100
AcDbEntity
  8
1
 62
     1
100
AcDbLine
 10
45.2136896189323
 20
3.842645486123602
 30
0.0
 11
44.64776429786003
 21
4.0721778551946
 31
0.0
  0
LINE
  5
78C
330
18
100
AcDbEntity
  8
1
 62
     1
100
AcDbLine
 10
44.64776429786003
 20
4.0721778551946
 30
0.0
 11
44.08183897678774
 21
4.272906922264167
 31
0.0
  0
LINE
  5
78D
330
18
100
AcDbEntity
  8
1
 62
     1
100
AcDbLine
 10
44.08183897678774
 20
4.272906922264167
 30
0.0
 11
43.51591365571547
 21
4.443412962950019
 31
0.0
  0
LINE
  5
78E
330
18
100
AcDbEntity
  8
1
 62
     1
100
AcDbLine
 10
43.51591365571547
 20
4.443412962950019
 30
0.0
 11
42.94998833464318
 21
4.582489118314213
 31
0.0
  0
LINE
  5
78F
330
18
100
AcDbEntity
  8
1
 62
     1
100
AcDbLine
 10
42.94998833464318
 20
4.582489118314213
 30
0.0
 11
42.3840630135709
 21
4.689150580324608
 31
0.0
  0
LINE
  5
790
330
18
100
AcDbEntity
  8
1
 62
     1
100
AcDbLine
 10
38.470501710672
 20
7.436968545021134
 30
0.0
 11
38.77071386778664
 21
7.553323408985765
 31
0.0
  0
LINE
  5
791
330
18
100
AcDbEntity
  8
1
 62
     1
100
AcDbLine
 10
38.77071386778664
 20
7.553323408985765
 30
0.0
 11
39.07092161935452
 21
7.654636353988129
 31
0.0
  0
LINE
  5
792
330
18
100
AcDbEntity
  8
1
 62
     1
100
AcDbLine
 10
39.07092161935452
 20
7.654636353988129
 30
0.0
 11
39.37113872905361
 21
7.740709482065448
 31
0.0
  0
LINE
  5
793
330
18
100
AcDbEntity
  8
1
 62
     1
100
AcDbLine
 10
39.37113872905361
 20
7.740709482065448
 30
0.0
 11
39.67135530601878
 21
7.811366501024288
 31
0.0
  0
LINE
  5
794
330
18
100
AcDbEntity
  8
1
 62
     1
100
AcDbLine
 10
39.67135530601878
 20
7.811366501024288
 30
0.0
 11
39.97156292198844
 21
7.866466904991267
 31
0.0
  0
LINE
  5
795
330
18
100
AcDbEntity
  8
1
 62
     1
100
AcDbLine
 10
39.97156292198844
 20
7.866466904991267
 30
0.0
 11
40.2717754171162
 21
7.905904119602534
 31
0.0
  0
LINE
  5
796
330
18
100
AcDbEntity
  8
1
 62
     1
100
AcDbLine
 10
40.2717754171162
 20
7.905904119602534
 30
0.0
 11
40.57199558498798
 21
7.929597514901173
 31
0.0
  0
LINE
  5
797
330
18
100
AcDbEntity
  8
1
 62
     1
100
AcDbLine
 10
40.57199558498798
 20
7.929597514901173
 30
0.0
 11
40.87218904070514
 21
7.9375
 31
0.0
  0
LINE
  5
798
330
18
100
AcDbEntity
  8
SK1
100
AcDbLine
 10
-44.50624999999999
 20
7.9375
 30
0.0
 11
-45.3
 21
7.14375
 31
0.0
  0
LINE
  5
799
330
18
100
AcDbEntity
  8
SK1
100
AcDbLine
 10
-45.3
 20
7.14375
 30
0.0
 11
-45.3
 21
7.136647731653629
 31
0.0
  0
LINE
  5
79A
330
18
100
AcDbEntity
  8
SK1
100
AcDbLine
 10
-45.3
 20
7.136647731653629
 30
0.0
 11
-45.29999999999999
 21
6.502765513787307
 31
0.0
  0
LINE
  5
79B
330
18
100
AcDbEntity
  8
SK1
100
AcDbLine
 10
-45.29999999999999
 20
6.502765513787307
 30
0.0
 11
-45.3
 21
-7.14375
 31
0.0
  0
LINE
  5
79C
330
18
100
AcDbEntity
  8
SK1
100
AcDbLine
 10
-44.50624999999999
 20
7.9375
 30
0.0
 11
-0.0000000000000018
 21
7.9375
 31
0.0
  0
LINE
  5
79D
330
18
100
AcDbEntity
  8
SK1
100
AcDbLine
 10
-44.50624999999999
 20
7.9375
 30
0.0
 11
-44.50624999999999
 21
7.929608590726255
 31
0.0
  0
LINE
  5
79E
330
18
100
AcDbEntity
  8
SK1
100
AcDbLine
 10
-44.50624999999999
 20
7.929608590726255
 30
0.0
 11
-44.50624999999999
 21
7.225295015319229
 31
0.0
  0
LINE
  5
79F
330
18
100
AcDbEntity
  8
SK1
100
AcDbLine
 10
-44.50624999999999
 20
7.225295015319229
 30
0.0
 11
-44.50624999999999
 21
-7.9375
 31
0.0
  0
LINE
  5
7A0
330
18
100
AcDbEntity
  8
SK1
100
AcDbLine
 10
-45.3
 20
-7.14375
 30
0.0
 11
-44.50624999999999
 21
-7.9375
 31
0.0
  0
LINE
  5
7A1
330
18
100
AcDbEntity
  8
SK1
100
AcDbLine
 10
-44.50624999999999
 20
-7.937499999999999
 30
0.0
 11
0.0
 21
-7.937499999999998
 31
0.0
  0
DIMENSION
  5
7A2
330
18
100
AcDbEntity
  8
2
100
AcDbDimension
  2
*D0
 10
84.00000000000003
 20
-7.937499999999948
 30
0.0
 11
81.60225000000007
 21
-19.46249999999996
 31
0.0
 70
    32
  1
%%c<>
 71
     5
 42
15.875
  3
STANDARD
100
AcDbAlignedDimension
 13
69.0
 23
7.9375
 33
0.0
 14
69.0
 24
-7.9375
 34
0.0
 50
90.0000000000002
100
AcDbRotatedDimension
  0
DIMENSION
  5
7B0
330
18
100
AcDbEntity
  8
2
100
AcDbDimension
  2
*D1
 10
69.0
 20
75.0
 30
0.0
 11
34.5
 21
77.39075
 31
0.0
 70
    32
  1
<>
 71
     5
 42
69.0
  3
STANDARD
100
AcDbAlignedDimension
 13
0.0
 23
0.0
 33
0.0
 14
69.0
 24
0.0
 34
0.0
100
AcDbRotatedDimension
  0
DIMENSION
  5
7BD
330
18
100
AcDbEntity
  8
2
100
AcDbDimension
  2
*D2
 10
69.0
 20
60.0
 30
0.0
 11
45.1875
 21
62.438
 31
0.0
 70
    32
  1
<>
 71
     5
 42
47.625
  3
STANDARD
100
AcDbAlignedDimension
 13
21.375
 23
7.9375
 33
0.0
 14
69.0
 24
7.9375
 34
0.0
100
AcDbRotatedDimension
  0
DIMENSION
  5
7CA
330
18
100
AcDbEntity
  8
SK2
100
AcDbDimension
  2
*D3
 10
-60.29999999995949
 20
-7.937500000076551
 30
0.0
 11
-62.69774999990067
 21
-19.46250000008879
 31
0.0
 70
    32
  1
%%c<>
 71
     5
 42
15.875
  3
STANDARD
100
AcDbAlignedDimension
 13
-45.3
 23
7.9375
 33
0.0
 14
-45.3
 24
-7.9375
 34
0.0
 50
90.0000000002924
100
AcDbRotatedDimension
  0
DIMENSION
  5
7D8
330
18
100
AcDbEntity
  8
SK2
100
AcDbDimension
  2
*D4
 10
69.0
 20
90.0
 30
0.0
 11
11.85
 21
92.438
 31
0.0
 70
    32
  1
<>
 71
     5
 42
114.3
  3
STANDARD
100
AcDbAlignedDimension
 13
-45.3
 23
0.0
 33
0.0
 14
69.0
 24
0.0
 34
0.0
100
AcDbRotatedDimension
  0
DIMENSION
  5
7E5
330
18
100
AcDbEntity
  8
2
100
AcDbDimension
  2
*D5
 10
67.412
 20
-6.3495
 30
0.0
 11
70.78596153150423
 21
-25.48418669370931
 31
0.0
 70
   164
  1
<>
 71
     5
 42
1.588
  3
STANDARD
100
AcDbRadialDimension
 15
67.6877533061351
 25
-7.913374711783386
 35
0.0
 40
0.0
  0
ENDSEC
  0
SECTION
  2
OBJECTS
  0
DICTIONARY
  5
C
330
0
100
AcDbDictionary
281
     1
  3
ACAD_COLOR
350
387
  3
ACAD_GROUP
350
D
  3
ACAD_LAYOUT
350
301
  3
ACAD_MATERIAL
350
386
  3
ACAD_MLEADERSTYLE
350
3DE
  3
ACAD_MLINESTYLE
350
E
  3
ACAD_PLOTSETTINGS
350
302
  3
ACAD_PLOTSTYLENAME
350
2FF
  3
ACAD_SCALELIST
350
3A0
  3
ACAD_TABLESTYLE
350
388
  3
ACAD_VISUALSTYLE
350
3C2
  3
ACDBHEADERROUNDTRIPXREC
350
7F2
  3
AcDbVariableDictionary
350
357
  0
DICTIONARY
  5
7F5
330
8
100
AcDbDictionary
280
     1
281
     1
  3
ACAD_XREC_ROUNDTRIP
360
7F6
  0
DICTIONARY
  5
387
102
{ACAD_REACTORS
330
C
102
}
330
C
100
AcDbDictionary
281
     1
  0
DICTIONARY
  5
D
102
{ACAD_REACTORS
330
C
102
}
330
C
100
AcDbDictionary
281
     1
  0
DICTIONARY
  5
301
102
{ACAD_REACTORS
330
C
102
}
330
C
100
AcDbDictionary
281
     1
  3
Layout1
350
33B
  3
Model
350
303
  0
DICTIONARY
  5
386
102
{ACAD_REACTORS
330
C
102
}
330
C
100
AcDbDictionary
281
     1
  3
ByBlock
350
3DC
  3
ByLayer
350
3DB
  3
Global
350
3DD
  0
DICTIONARY
  5
3DE
102
{ACAD_REACTORS
330
C
102
}
330
C
100
AcDbDictionary
281
     1
  3
Standard
350
3DF
  0
DICTIONARY
  5
E
102
{ACAD_REACTORS
330
C
102
}
330
C
100
AcDbDictionary
281
     1
  3
STANDARD
350
1B
  0
DICTIONARY
  5
302
102
{ACAD_REACTORS
330
C
102
}
330
C
100
AcDbDictionary
281
     1
  0
ACDBDICTIONARYWDFLT
  5
2FF
102
{ACAD_REACTORS
330
C
102
}
330
C
100
AcDbDictionary
281
     1
  3
Normal
350
300
100
AcDbDictionaryWithDefault
340
300
  0
DICTIONARY
  5
3A0
102
{ACAD_REACTORS
330
C
102
}
330
C
100
AcDbDictionary
281
     1
  3
A0
350
3A1
  3
A1
350
3A2
  3
A2
350
3A3
  3
A3
350
3A4
  3
A4
350
3A5
  3
A5
350
3A6
  3
A6
350
3A7
  3
A7
350
3A8
  3
A8
350
3A9
  3
A9
350
3AA
  3
B0
350
3AB
  3
B1
350
3AC
  3
B2
350
3AD
  3
B3
350
3AE
  3
B4
350
3AF
  3
B5
350
3B0
  3
B6
350
3B1
  3
B7
350
3B2
  3
B8
350
3B3
  3
B9
350
3B4
  3
C0
350
3B5
  3
C1
350
3B6
  3
C2
350
3B7
  3
C3
350
3B8
  3
C4
350
3B9
  3
C5
350
3BA
  3
C6
350
3BB
  3
C7
350
3BC
  3
C8
350
3BD
  3
C9
350
3BE
  3
D0
350
3BF
  3
D1
350
3C0
  3
D2
350
3C1
  0
DICTIONARY
  5
388
102
{ACAD_REACTORS
330
C
102
}
330
C
100
AcDbDictionary
281
     1
  3
Standard
350
389
  0
DICTIONARY
  5
3C2
102
{ACAD_REACTORS
330
C
102
}
330
C
100
AcDbDictionary
281
     1
  3
2dWireframe
350
3C7
  3
Basic
350
3CA
  3
Brighten
350
3CE
  3
ColorChange
350
3D2
  3
Conceptual
350
3CC
  3
Dim
350
3CD
  3
EdgeColorOff
350
3D5
  3
Facepattern
350
3D1
  3
Flat
350
3C3
  3
FlatWithEdges
350
3C4
  3
Gouraud
350
3C5
  3
GouraudWithEdges
350
3C6
  3
Hidden
350
3C9
  3
JitterOff
350
3D3
  3
Linepattern
350
3D0
  3
OverhangOff
350
3D4
  3
Realistic
350
3CB
  3
Shaded
350
3DA
  3
Shaded with edges
350
3D9
  3
Shades of Gray
350
3D6
  3
Sketchy
350
3D7
  3
Thicken
350
3CF
  3
Wireframe
350
3C8
  3
X-Ray
350
3D8
  0
DICTIONARY
  5
7F2
102
{ACAD_REACTORS
330
C
102
}
330
C
100
AcDbDictionary
281
     1
  3
COLORDICT
350
7F3
  3
MATERIALDICT
350
7F4
  0
DICTIONARY
  5
357
102
{ACAD_REACTORS
330
C
102
}
330
C
100
AcDbDictionary
281
     1
  3
CANNOSCALE
350
7F7
  3
CMLEADERSTYLE
350
7EE
  3
CTABLESTYLE
350
38D
  3
DIMASSOC
350
359
  3
HIDETEXT
350
358
  3
MSLTSCALE
350
7EF
  3
PROJECTNAME
350
38E
  0
XRECORD
  5
7F6
102
{ACAD_REACTORS
330
7F5
102
}
330
7F5
100
AcDbXrecord
280
     1
102
VTR_0.000_0.000_1.000_1.000_VISUALSTYLE
340
3C7
102
VTR_0.000_0.000_1.000_1.000_GRIDDISPLAY
 70
     3
102
VTR_0.000_0.000_1.000_1.000_GRIDMAJOR
 70
     5
102
VTR_0.000_0.000_1.000_1.000_DEFAULTLIGHTING
280
     1
102
VTR_0.000_0.000_1.000_1.000_DEFAULTLIGHTINGTYPE
 70
     1
102
VTR_0.000_0.000_1.000_1.000_BRIGHTNESS
141
0.0
102
VTR_0.000_0.000_1.000_1.000_CONTRAST
142
0.0
  0
LAYOUT
  5
33B
102
{ACAD_REACTORS
330
301
102
}
330
301
100
AcDbPlotSettings
  1

  2
Lexmark Optra PS2
  4

  6

 40
0.0
 41
0.0
 42
0.0
 43
0.0
 44
0.0
 45
0.0
 46
0.0
 47
0.0
 48
0.0
 49
0.0
140
0.0
141
0.0
142
1.0
143
1.0
 70
   688
 72
     0
 73
     0
 74
     5
  7
monochrome.ctb
 75
    16
147
1.0
148
0.0
149
0.0
100
AcDbLayout
  1
Layout1
 70
     1
 71
     1
 10
0.0
 20
0.0
 11
12.0
 21
9.0
 12
0.0
 22
0.0
 32
0.0
 14
0.0
 24
0.0
 34
0.0
 15
0.0
 25
0.0
 35
0.0
146
0.0
 13
0.0
 23
0.0
 33
0.0
 16
1.0
 26
0.0
 36
0.0
 17
0.0
 27
1.0
 37
0.0
 76
     0
330
338
  0
LAYOUT
  5
303
102
{ACAD_REACTORS
330
301
102
}
330
301
100
AcDbPlotSettings
  1

  2
Lexmark Optra Rx
  4
A4
  6

 40
6.805083274841307
 41
5.535083293914794
 42
6.974411010742187
 43
7.14373779296875
 44
209.9733276367186
 45
296.9259948730469
 46
0.0
 47
0.0
 48
0.0
 49
0.0
140
0.0
141
0.0
142
1.0
143
2.976565420630886
 70
 11952
 72
     1
 73
     1
 74
     0
  7
monochrome.ctb
 75
     0
147
0.335957675604539
148
204.1199660668592
149
172.3933209647495
100
AcDbLayout
  1
Model
 70
     1
 71
     0
 10
0.0
 20
0.0
 11
12.0
 21
9.0
 12
0.0
 22
0.0
 32
0.0
 14
0.0
 24
0.0
 34
0.0
 15
0.0
 25
0.0
 35
0.0
146
0.0
 13
0.0
 23
0.0
 33
0.0
 16
1.0
 26
0.0
 36
0.0
 17
0.0
 27
1.0
 37
0.0
 76
     0
330
18
331
39A
  0
MATERIAL
  5
3DC
102
{ACAD_REACTORS
330
386
102
}
102
{ACAD_XDICTIONARY
360
7FA
102
}
330
386
100
AcDbMaterial
  1
ByBlock
  0
MATERIAL
  5
3DB
102
{ACAD_REACTORS
330
386
102
}
102
{ACAD_XDICTIONARY
360
7F8
102
}
330
386
100
AcDbMaterial
  1
ByLayer
  0
MATERIAL
  5
3DD
102
{ACAD_REACTORS
330
386
102
}
102
{ACAD_XDICTIONARY
360
7FC
102
}
330
386
100
AcDbMaterial
  1
Global
  0
MLEADERSTYLE
  5
3DF
102
{ACAD_REACTORS
330
3DE
102
}
102
{ACAD_XDICTIONARY
360
82F
102
}
330
3DE
100
AcDbMLeaderStyle
170
     2
171
     1
172
     0
 90
        2
 40
0.0
 41
0.0
173
     1
 91
-1056964608
340
12
 92
       -2
290
     1
 42
2.0
291
     1
 43
8.0
  3
Standard
341
0
 44
4.0
300

342
10
174
     1
178
     6
175
     1
176
     0
 93
-1056964608
 45
4.0
292
     0
297
     0
 46
4.0
343
0
 94
-1056964608
 47
1.0
 49
1.0
140
1.0
293
     1
141
0.0
294
     1
177
     0
142
1.0
295
     0
296
     0
143
3.75
1001
ACAD_MLEADERVER
1070
     2
  0
MLINESTYLE
  5
1B
102
{ACAD_REACTORS
330
E
102
}
330
E
100
AcDbMlineStyle
  2
STANDARD
 70
     0
  3

 62
     0
 51
90.0
 52
90.0
 71
     2
 49
0.5
 62
   256
  6
BYLAYER
 49
-0.5
 62
   256
  6
BYLAYER
  0
ACDBPLACEHOLDER
  5
300
102
{ACAD_REACTORS
330
2FF
102
}
330
2FF
  0
SCALE
  5
3A1
102
{ACAD_REACTORS
330
3A0
102
}
330
3A0
100
AcDbScale
 70
     0
300
1:1
140
1.0
141
1.0
290
     1
  0
SCALE
  5
3A2
102
{ACAD_REACTORS
330
3A0
102
}
330
3A0
100
AcDbScale
 70
     0
300
1:2
140
1.0
141
2.0
290
     0
  0
SCALE
  5
3A3
102
{ACAD_REACTORS
330
3A0
102
}
330
3A0
100
AcDbScale
 70
     0
300
1:4
140
1.0
141
4.0
290
     0
  0
SCALE
  5
3A4
102
{ACAD_REACTORS
330
3A0
102
}
330
3A0
100
AcDbScale
 70
     0
300
1:5
140
1.0
141
5.0
290
     0
  0
SCALE
  5
3A5
102
{ACAD_REACTORS
330
3A0
102
}
330
3A0
100
AcDbScale
 70
     0
300
1:8
140
1.0
141
8.0
290
     0
  0
SCALE
  5
3A6
102
{ACAD_REACTORS
330
3A0
102
}
330
3A0
100
AcDbScale
 70
     0
300
1:10
140
1.0
141
10.0
290
     0
  0
SCALE
  5
3A7
102
{ACAD_REACTORS
330
3A0
102
}
330
3A0
100
AcDbScale
 70
     0
300
1:16
140
1.0
141
16.0
290
     0
  0
SCALE
  5
3A8
102
{ACAD_REACTORS
330
3A0
102
}
330
3A0
100
AcDbScale
 70
     0
300
1:20
140
1.0
141
20.0
290
     0
  0
SCALE
  5
3A9
102
{ACAD_REACTORS
330
3A0
102
}
330
3A0
100
AcDbScale
 70
     0
300
1:30
140
1.0
141
30.0
290
     0
  0
SCALE
  5
3AA
102
{ACAD_REACTORS
330
3A0
102
}
330
3A0
100
AcDbScale
 70
     0
300
1:40
140
1.0
141
40.0
290
     0
  0
SCALE
  5
3AB
102
{ACAD_REACTORS
330
3A0
102
}
330
3A0
100
AcDbScale
 70
     0
300
1:50
140
1.0
141
50.0
290
     0
  0
SCALE
  5
3AC
102
{ACAD_REACTORS
330
3A0
102
}
330
3A0
100
AcDbScale
 70
     0
300
1:100
140
1.0
141
100.0
290
     0
  0
SCALE
  5
3AD
102
{ACAD_REACTORS
330
3A0
102
}
330
3A0
100
AcDbScale
 70
     0
300
2:1
140
2.0
141
1.0
290
     0
  0
SCALE
  5
3AE
102
{ACAD_REACTORS
330
3A0
102
}
330
3A0
100
AcDbScale
 70
     0
300
4:1
140
4.0
141
1.0
290
     0
  0
SCALE
  5
3AF
102
{ACAD_REACTORS
330
3A0
102
}
330
3A0
100
AcDbScale
 70
     0
300
8:1
140
8.0
141
1.0
290
     0
  0
SCALE
  5
3B0
102
{ACAD_REACTORS
330
3A0
102
}
330
3A0
100
AcDbScale
 70
     0
300
10:1
140
10.0
141
1.0
290
     0
  0
SCALE
  5
3B1
102
{ACAD_REACTORS
330
3A0
102
}
330
3A0
100
AcDbScale
 70
     0
300
100:1
140
100.0
141
1.0
290
     0
  0
SCALE
  5
3B2
102
{ACAD_REACTORS
330
3A0
102
}
330
3A0
100
AcDbScale
 70
     0
300
1/128" = 1'-0"
140
0.0078125
141
12.0
290
     0
  0
SCALE
  5
3B3
102
{ACAD_REACTORS
330
3A0
102
}
330
3A0
100
AcDbScale
 70
     0
300
1/64" = 1'-0"
140
0.015625
141
12.0
290
     0
  0
SCALE
  5
3B4
102
{ACAD_REACTORS
330
3A0
102
}
330
3A0
100
AcDbScale
 70
     0
300
1/32" = 1'-0"
140
0.03125
141
12.0
290
     0
  0
SCALE
  5
3B5
102
{ACAD_REACTORS
330
3A0
102
}
330
3A0
100
AcDbScale
 70
     0
300
1/16" = 1'-0"
140
0.0625
141
12.0
290
     0
  0
SCALE
  5
3B6
102
{ACAD_REACTORS
330
3A0
102
}
330
3A0
100
AcDbScale
 70
     0
300
3/32" = 1'-0"
140
0.09375
141
12.0
290
     0
  0
SCALE
  5
3B7
102
{ACAD_REACTORS
330
3A0
102
}
330
3A0
100
AcDbScale
 70
     0
300
1/8" = 1'-0"
140
0.125
141
12.0
290
     0
  0
SCALE
  5
3B8
102
{ACAD_REACTORS
330
3A0
102
}
330
3A0
100
AcDbScale
 70
     0
300
3/16" = 1'-0"
140
0.1875
141
12.0
290
     0
  0
SCALE
  5
3B9
102
{ACAD_REACTORS
330
3A0
102
}
330
3A0
100
AcDbScale
 70
     0
300
1/4" = 1'-0"
140
0.25
141
12.0
290
     0
  0
SCALE
  5
3BA
102
{ACAD_REACTORS
330
3A0
102
}
330
3A0
100
AcDbScale
 70
     0
300
3/8" = 1'-0"
140
0.375
141
12.0
290
     0
  0
SCALE
  5
3BB
102
{ACAD_REACTORS
330
3A0
102
}
330
3A0
100
AcDbScale
 70
     0
300
1/2" = 1'-0"
140
0.5
141
12.0
290
     0
  0
SCALE
  5
3BC
102
{ACAD_REACTORS
330
3A0
102
}
330
3A0
100
AcDbScale
 70
     0
300
3/4" = 1'-0"
140
0.75
141
12.0
290
     0
  0
SCALE
  5
3BD
102
{ACAD_REACTORS
330
3A0
102
}
330
3A0
100
AcDbScale
 70
     0
300
1" = 1'-0"
140
1.0
141
12.0
290
     0
  0
SCALE
  5
3BE
102
{ACAD_REACTORS
330
3A0
102
}
330
3A0
100
AcDbScale
 70
     0
300
1-1/2" = 1'-0"
140
1.5
141
12.0
290
     0
  0
SCALE
  5
3BF
102
{ACAD_REACTORS
330
3A0
102
}
330
3A0
100
AcDbScale
 70
     0
300
3" = 1'-0"
140
3.0
141
12.0
290
     0
  0
SCALE
  5
3C0
102
{ACAD_REACTORS
330
3A0
102
}
330
3A0
100
AcDbScale
 70
     0
300
6" = 1'-0"
140
6.0
141
12.0
290
     0
  0
SCALE
  5
3C1
102
{ACAD_REACTORS
330
3A0
102
}
330
3A0
100
AcDbScale
 70
     0
300
1'-0" = 1'-0"
140
12.0
141
12.0
290
     0
  0
TABLESTYLE
  5
389
102
{ACAD_REACTORS
330
388
102
}
330
388
100
AcDbTableStyle
  3
Standard
 70
     0
 71
     0
 40
1.5
 41
1.5
280
     0
281
     0
  7
STANDARD
140
4.5
170
     2
 62
     0
 63
   257
283
     0
274
    -2
284
     1
 64
     0
275
    -2
285
     1
 65
     0
276
    -2
286
     1
 66
     0
277
    -2
287
     1
 67
     0
278
    -2
288
     1
 68
     0
279
    -2
289
     1
 69
     0
  7
STANDARD
140
6.0
170
     5
 62
     0
 63
   257
283
     0
274
    -2
284
     1
 64
     0
275
    -2
285
     1
 65
     0
276
    -2
286
     1
 66
     0
277
    -2
287
     1
 67
     0
278
    -2
288
     1
 68
     0
279
    -2
289
     1
 69
     0
  7
STANDARD
140
4.5
170
     5
 62
     0
 63
   257
283
     0
274
    -2
284
     1
 64
     0
275
    -2
285
     1
 65
     0
276
    -2
286
     1
 66
     0
277
    -2
287
     1
 67
     0
278
    -2
288
     1
 68
     0
279
    -2
289
     1
 69
     0
  0
VISUALSTYLE
  5
3C7
102
{ACAD_REACTORS
330
3C2
102
}
102
{ACAD_XDICTIONARY
360
806
102
}
330
3C2
100
AcDbVisualStyle
  2
2dWireframe
 70
     4
 71
     0
 72
     2
 73
     0
 90
        0
 40
0.6
 41
30.0
 62
     5
 63
     7
 74
     1
 91
        4
 64
     7
 65
   257
 75
     1
175
     1
 42
1.0
 92
        0
 66
   257
 43
1.0
 76
     1
 77
     6
 78
     2
 67
     7
 79
     5
170
     0
171
     0
290
     0
174
     0
 93
        1
 44
0.0
173
     0
291
     0
 45
0.0
1001
ACAD
1000
AcDbSavedByObjectVersion
1070
     0
  0
VISUALSTYLE
  5
3CA
102
{ACAD_REACTORS
330
3C2
102
}
102
{ACAD_XDICTIONARY
360
80C
102
}
330
3C2
100
AcDbVisualStyle
  2
Basic
 70
     7
 71
     1
 72
     0
 73
     1
 90
        0
 40
0.6
 41
30.0
 62
     5
 63
     7
 74
     0
 91
        4
 64
     7
 65
   257
 75
     1
175
     1
 42
1.0
 92
        8
 66
     7
 43
1.0
 76
     1
 77
     6
 78
     2
 67
     7
 79
     5
170
     0
171
     0
290
     0
174
     0
 93
        1
 44
0.0
173
     0
291
     1
 45
0.0
1001
ACAD
1000
AcDbSavedByObjectVersion
1070
     0
  0
VISUALSTYLE
  5
3CE
102
{ACAD_REACTORS
330
3C2
102
}
102
{ACAD_XDICTIONARY
360
814
102
}
330
3C2
100
AcDbVisualStyle
  2
Brighten
 70
    12
 71
     2
 72
     2
 73
     0
 90
        0
 40
0.6
 41
30.0
 62
     5
 63
     7
 74
     1
 91
        4
 64
     7
 65
   257
 75
     1
175
     1
 42
1.0
 92
        8
 66
     7
 43
1.0
 76
     1
 77
     6
 78
     2
 67
     7
 79
     5
170
     0
171
     0
290
     0
174
     0
 93
        1
 44
50.0
173
     0
291
     1
 45
0.0
1001
ACAD
1000
AcDbSavedByObjectVersion
1070
     0
  0
VISUALSTYLE
  5
3D2
102
{ACAD_REACTORS
330
3C2
102
}
102
{ACAD_XDICTIONARY
360
81C
102
}
330
3C2
100
AcDbVisualStyle
  2
ColorChange
 70
    16
 71
     2
 72
     2
 73
     3
 90
        0
 40
0.6
 41
30.0
 62
     5
 63
     8
 74
     1
 91
        4
 64
     7
 65
   257
 75
     1
175
     1
 42
1.0
 92
        8
 66
     8
 43
1.0
 76
     1
 77
     6
 78
     2
 67
     7
 79
     5
170
     0
171
     0
290
     0
174
     0
 93
        1
 44
0.0
173
     0
291
     1
 45
0.0
1001
ACAD
1000
AcDbSavedByObjectVersion
1070
     0
  0
VISUALSTYLE
  5
3CC
102
{ACAD_REACTORS
330
3C2
102
}
102
{ACAD_XDICTIONARY
360
810
102
}
330
3C2
100
AcDbVisualStyle
  2
Conceptual
 70
     9
 71
     3
 72
     2
 73
     0
 90
        0
 40
0.6
 41
30.0
 62
     5
 63
     7
 74
     2
 91
        2
 64
     7
 65
   257
 75
     1
175
     1
 42
179.0
 92
        8
 66
     7
 43
1.0
 76
     1
 77
     6
 78
     2
 67
     7
 79
     3
170
     0
171
     0
290
     0
174
     0
 93
        1
 44
0.0
173
     0
291
     0
 45
0.0
1001
ACAD
1000
AcDbSavedByObjectVersion
1070
     0
  0
VISUALSTYLE
  5
3CD
102
{ACAD_REACTORS
330
3C2
102
}
102
{ACAD_XDICTIONARY
360
812
102
}
330
3C2
100
AcDbVisualStyle
  2
Dim
 70
    11
 71
     2
 72
     2
 73
     0
 90
        0
 40
0.6
 41
30.0
 62
     5
 63
     7
 74
     1
 91
        4
 64
     7
 65
   257
 75
     1
175
     1
 42
1.0
 92
        8
 66
     7
 43
1.0
 76
     1
 77
     6
 78
     2
 67
     7
 79
     5
170
     0
171
     0
290
     0
174
     0
 93
        1
 44
-50.0
173
     0
291
     1
 45
0.0
1001
ACAD
1000
AcDbSavedByObjectVersion
1070
     0
  0
VISUALSTYLE
  5
3D5
102
{ACAD_REACTORS
330
3C2
102
}
102
{ACAD_XDICTIONARY
360
822
102
}
330
3C2
100
AcDbVisualStyle
  2
EdgeColorOff
 70
    22
 71
     2
 72
     2
 73
     0
 90
        0
 40
0.6
 41
30.0
 62
     5
 63
     7
 74
     1
 91
        4
 64
     7
 65
   257
 75
     1
175
     1
 42
1.0
 92
        8
 66
     7
 43
1.0
 76
     1
 77
     6
 78
     2
 67
     7
 79
     5
170
     0
171
     0
290
     0
174
     0
 93
        1
 44
0.0
173
     0
291
     1
 45
0.0
1001
ACAD
1000
AcDbSavedByObjectVersion
1070
     0
  0
VISUALSTYLE
  5
3D1
102
{ACAD_REACTORS
330
3C2
102
}
102
{ACAD_XDICTIONARY
360
81A
102
}
330
3C2
100
AcDbVisualStyle
  2
Facepattern
 70
    15
 71
     2
 72
     2
 73
     0
 90
        0
 40
0.6
 41
30.0
 62
     5
 63
     7
 74
     1
 91
        4
 64
     7
 65
   257
 75
     1
175
     1
 42
1.0
 92
        8
 66
     7
 43
1.0
 76
     1
 77
     6
 78
     2
 67
     7
 79
     5
170
     0
171
     0
290
     0
174
     0
 93
        1
 44
0.0
173
     0
291
     1
 45
0.0
1001
ACAD
1000
AcDbSavedByObjectVersion
1070
     0
  0
VISUALSTYLE
  5
3C3
102
{ACAD_REACTORS
330
3C2
102
}
102
{ACAD_XDICTIONARY
360
7FE
102
}
330
3C2
100
AcDbVisualStyle
  2
Flat
 70
     0
 71
     2
 72
     1
 73
     1
 90
        2
 40
0.6
 41
30.0
 62
     5
 63
     7
 74
     0
 91
        0
 64
     7
 65
   257
 75
     1
175
     1
 42
1.0
 92
        8
 66
     7
 43
1.0
 76
     1
 77
     6
 78
     2
 67
     7
 79
     5
170
     0
171
     0
290
     0
174
     0
 93
       13
 44
0.0
173
     0
291
     1
 45
0.0
1001
ACAD
1000
AcDbSavedByObjectVersion
1070
     0
  0
VISUALSTYLE
  5
3C4
102
{ACAD_REACTORS
330
3C2
102
}
102
{ACAD_XDICTIONARY
360
800
102
}
330
3C2
100
AcDbVisualStyle
  2
FlatWithEdges
 70
     1
 71
     2
 72
     1
 73
     1
 90
        2
 40
0.6
 41
30.0
 62
     5
 63
     7
 74
     1
 91
        0
 64
     7
 65
   257
 75
     1
175
     1
 42
1.0
 92
        0
 66
   257
 43
1.0
 76
     1
 77
     6
 78
     2
 67
     7
 79
     5
170
     0
171
     0
290
     0
174
     0
 93
       13
 44
0.0
173
     0
291
     1
 45
0.0
1001
ACAD
1000
AcDbSavedByObjectVersion
1070
     0
  0
VISUALSTYLE
  5
3C5
102
{ACAD_REACTORS
330
3C2
102
}
102
{ACAD_XDICTIONARY
360
802
102
}
330
3C2
100
AcDbVisualStyle
  2
Gouraud
 70
     2
 71
     2
 72
     2
 73
     1
 90
        2
 40
0.6
 41
30.0
 62
     5
 63
     7
 74
     0
 91
        0
 64
     7
 65
   257
 75
     1
175
     1
 42
1.0
 92
        0
 66
     7
 43
1.0
 76
     1
 77
     6
 78
     2
 67
     7
 79
     5
170
     0
171
     0
290
     0
174
     0
 93
       13
 44
0.0
173
     0
291
     1
 45
0.0
1001
ACAD
1000
AcDbSavedByObjectVersion
1070
     0
  0
VISUALSTYLE
  5
3C6
102
{ACAD_REACTORS
330
3C2
102
}
102
{ACAD_XDICTIONARY
360
804
102
}
330
3C2
100
AcDbVisualStyle
  2
GouraudWithEdges
 70
     3
 71
     2
 72
     2
 73
     1
 90
        2
 40
0.6
 41
30.0
 62
     5
 63
     7
 74
     1
 91
        0
 64
     7
 65
   257
 75
     1
175
     1
 42
1.0
 92
        0
 66
   257
 43
1.0
 76
     1
 77
     6
 78
     2
 67
     7
 79
     5
170
     0
171
     0
290
     0
174
     0
 93
       13
 44
0.0
173
     0
291
     1
 45
0.0
1001
ACAD
1000
AcDbSavedByObjectVersion
1070
     0
  0
VISUALSTYLE
  5
3C9
102
{ACAD_REACTORS
330
3C2
102
}
102
{ACAD_XDICTIONARY
360
80A
102
}
330
3C2
100
AcDbVisualStyle
  2
Hidden
 70
     6
 71
     1
 72
     2
 73
     2
 90
        0
 40
0.6
 41
30.0
 62
     5
 63
     7
 74
     2
 91
        2
 64
     7
 65
   257
 75
     2
175
     1
 42
40.0
 92
        0
 66
   257
 43
1.0
 76
     1
 77
     6
 78
     2
 67
     7
 79
     3
170
     0
171
     0
290
     0
174
     0
 93
        1
 44
0.0
173
     0
291
     0
 45
0.0
1001
ACAD
1000
AcDbSavedByObjectVersion
1070
     0
  0
VISUALSTYLE
  5
3D3
102
{ACAD_REACTORS
330
3C2
102
}
102
{ACAD_XDICTIONARY
360
81E
102
}
330
3C2
100
AcDbVisualStyle
  2
JitterOff
 70
    20
 71
     2
 72
     2
 73
     0
 90
        0
 40
0.6
 41
30.0
 62
     5
 63
     7
 74
     1
 91
        4
 64
     7
 65
   257
 75
     1
175
     1
 42
1.0
 92
       10
 66
     7
 43
1.0
 76
     1
 77
     6
 78
     2
 67
     7
 79
     5
170
     0
171
     0
290
     0
174
     0
 93
        1
 44
0.0
173
     0
291
     1
 45
0.0
1001
ACAD
1000
AcDbSavedByObjectVersion
1070
     0
  0
VISUALSTYLE
  5
3D0
102
{ACAD_REACTORS
330
3C2
102
}
102
{ACAD_XDICTIONARY
360
818
102
}
330
3C2
100
AcDbVisualStyle
  2
Linepattern
 70
    14
 71
     2
 72
     2
 73
     0
 90
        0
 40
0.6
 41
30.0
 62
     5
 63
     7
 74
     1
 91
        4
 64
     7
 65
   257
 75
     7
175
     7
 42
1.0
 92
        8
 66
     7
 43
1.0
 76
     1
 77
     6
 78
     2
 67
     7
 79
     5
170
     0
171
     0
290
     0
174
     0
 93
        1
 44
0.0
173
     0
291
     1
 45
0.0
1001
ACAD
1000
AcDbSavedByObjectVersion
1070
     0
  0
VISUALSTYLE
  5
3D4
102
{ACAD_REACTORS
330
3C2
102
}
102
{ACAD_XDICTIONARY
360
820
102
}
330
3C2
100
AcDbVisualStyle
  2
OverhangOff
 70
    21
 71
     2
 72
     2
 73
     0
 90
        0
 40
0.6
 41
30.0
 62
     5
 63
     7
 74
     1
 91
        4
 64
     7
 65
   257
 75
     1
175
     1
 42
1.0
 92
        9
 66
     7
 43
1.0
 76
     1
 77
     6
 78
     2
 67
     7
 79
     5
170
     0
171
     0
290
     0
174
     0
 93
        1
 44
0.0
173
     0
291
     1
 45
0.0
1001
ACAD
1000
AcDbSavedByObjectVersion
1070
     0
  0
VISUALSTYLE
  5
3CB
102
{ACAD_REACTORS
330
3C2
102
}
102
{ACAD_XDICTIONARY
360
80E
102
}
330
3C2
100
AcDbVisualStyle
  2
Realistic
 70
     8
 71
     2
 72
     3
 73
     0
 90
        2
 40
0.6
 41
30.0
 62
     5
 63
     7
 74
     0
 91
        0
 64
     7
 65
   257
 75
     1
175
     1
 42
1.0
 92
        8
 66
   257
 43
1.0
 76
     1
 77
     6
 78
     2
 67
     7
 79
     3
170
     0
171
     0
290
     0
174
     0
 93
       13
 44
0.0
173
     0
291
     0
 45
0.0
1001
ACAD
1000
AcDbSavedByObjectVersion
1070
     0
  0
VISUALSTYLE
  5
3DA
102
{ACAD_REACTORS
330
3C2
102
}
102
{ACAD_XDICTIONARY
360
82C
102
}
330
3C2
100
AcDbVisualStyle
  2
Shaded
 70
    27
 71
     2
 72
     2
 73
     1
 90
        2
 40
0.6
 41
30.0
 62
     5
 63
     7
 74
     0
 91
        4
 64
     7
 65
   257
 75
     1
175
     1
 42
1.0
 92
        8
 66
   257
 43
1.0
 76
     1
 77
     6
 78
     2
 67
     8
 79
     3
170
     0
171
     0
290
     0
174
     0
 93
        5
 44
0.0
173
     0
291
     0
 45
0.0
1001
ACAD
1000
AcDbSavedByObjectVersion
1070
     0
  0
VISUALSTYLE
  5
3D9
102
{ACAD_REACTORS
330
3C2
102
}
102
{ACAD_XDICTIONARY
360
82A
102
}
330
3C2
100
AcDbVisualStyle
  2
Shaded with edges
 70
    26
 71
     2
 72
     2
 73
     1
 90
        2
 40
0.6
 41
30.0
 62
     5
 63
     7
 74
     1
 91
       10
 64
     7
 65
   257
 75
     2
175
     1
 42
1.0
 92
        8
 66
   257
 43
1.0
 76
     1
 77
     6
 78
     2
 67
     7
 79
     3
170
     0
171
     0
290
     0
174
     0
 93
        5
 44
0.0
173
     0
291
     0
 45
0.0
1001
ACAD
1000
AcDbSavedByObjectVersion
1070
     0
  0
VISUALSTYLE
  5
3D6
102
{ACAD_REACTORS
330
3C2
102
}
102
{ACAD_XDICTIONARY
360
824
102
}
330
3C2
100
AcDbVisualStyle
  2
Shades of Gray
 70
    23
 71
     2
 72
     2
 73
     3
 90
        0
 40
0.6
 41
30.0
 62
     5
 63
     7
 74
     2
 91
        2
 64
     7
 65
     7
 75
     1
175
     1
 42
40.0
 92
        8
 66
     7
 43
1.0
 76
     1
 77
     6
 78
     2
 67
     7
 79
     3
170
     0
171
     0
290
     0
174
     0
 93
        1
 44
0.0
173
     0
291
     0
 45
0.0
1001
ACAD
1000
AcDbSavedByObjectVersion
1070
     0
  0
VISUALSTYLE
  5
3D7
102
{ACAD_REACTORS
330
3C2
102
}
102
{ACAD_XDICTIONARY
360
826
102
}
330
3C2
100
AcDbVisualStyle
  2
Sketchy
 70
    24
 71
     1
 72
     2
 73
     2
 90
        0
 40
0.6
 41
30.0
 62
     5
 63
     7
 74
     2
 91
        2
 64
     7
 65
     7
 75
     1
175
     1
 42
40.0
 92
       11
 66
     7
 43
1.0
 76
     1
 77
     6
 78
     2
 67
     7
 79
     6
170
     0
171
     0
290
     0
174
     0
 93
        1
 44
0.0
173
     0
291
     0
 45
0.0
1001
ACAD
1000
AcDbSavedByObjectVersion
1070
     0
  0
VISUALSTYLE
  5
3CF
102
{ACAD_REACTORS
330
3C2
102
}
102
{ACAD_XDICTIONARY
360
816
102
}
330
3C2
100
AcDbVisualStyle
  2
Thicken
 70
    13
 71
     2
 72
     2
 73
     0
 90
        0
 40
0.6
 41
30.0
 62
     5
 63
     7
 74
     1
 91
        4
 64
     7
 65
   257
 75
     1
175
     1
 42
1.0
 92
       12
 66
     7
 43
1.0
 76
     1
 77
     6
 78
     2
 67
     7
 79
     5
170
     0
171
     0
290
     0
174
     0
 93
        1
 44
0.0
173
     0
291
     1
 45
0.0
1001
ACAD
1000
AcDbSavedByObjectVersion
1070
     0
  0
VISUALSTYLE
  5
3C8
102
{ACAD_REACTORS
330
3C2
102
}
102
{ACAD_XDICTIONARY
360
808
102
}
330
3C2
100
AcDbVisualStyle
  2
Wireframe
 70
     5
 71
     0
 72
     2
 73
     0
 90
        0
 40
0.6
 41
30.0
 62
     5
 63
     7
 74
     1
 91
        4
 64
     7
 65
   257
 75
     1
175
     1
 42
1.0
 92
        0
 66
   257
 43
1.0
 76
     1
 77
     6
 78
     2
 67
     7
 79
     3
170
     0
171
     0
290
     0
174
     0
 93
        1
 44
0.0
173
     0
291
     0
 45
0.0
1001
ACAD
1000
AcDbSavedByObjectVersion
1070
     0
  0
VISUALSTYLE
  5
3D8
102
{ACAD_REACTORS
330
3C2
102
}
102
{ACAD_XDICTIONARY
360
828
102
}
330
3C2
100
AcDbVisualStyle
  2
X-Ray
 70
    25
 71
     2
 72
     2
 73
     1
 90
        1
 40
0.5
 41
30.0
 62
     5
 63
     7
 74
     1
 91
        0
 64
     7
 65
   257
 75
     1
175
     1
 42
1.0
 92
        8
 66
     7
 43
1.0
 76
     1
 77
     6
 78
     2
 67
     7
 79
     3
170
     0
171
     0
290
     0
174
     0
 93
       13
 44
0.0
173
     0
291
     0
 45
0.0
1001
ACAD
1000
AcDbSavedByObjectVersion
1070
     0
  0
XRECORD
  5
7F3
102
{ACAD_REACTORS
330
7F2
102
}
330
7F2
100
AcDbXrecord
280
     1
340
387
  0
XRECORD
  5
7F4
102
{ACAD_REACTORS
330
7F2
102
}
330
7F2
100
AcDbXrecord
280
     1
340
386
  0
DICTIONARYVAR
  5
7F7
102
{ACAD_REACTORS
330
357
102
}
330
357
100
DictionaryVariables
280
     0
  1
1:1
  0
DICTIONARYVAR
  5
7EE
102
{ACAD_REACTORS
330
357
102
}
330
357
100
DictionaryVariables
280
     0
  1
Standard
  0
DICTIONARYVAR
  5
38D
102
{ACAD_REACTORS
330
357
102
}
330
357
100
DictionaryVariables
280
     0
  1
Standard
  0
DICTIONARYVAR
  5
359
102
{ACAD_REACTORS
330
357
102
}
330
357
100
DictionaryVariables
280
     0
  1
2
  0
DICTIONARYVAR
  5
358
102
{ACAD_REACTORS
330
357
102
}
330
357
100
DictionaryVariables
280
     0
  1
1
  0
DICTIONARYVAR
  5
7EF
102
{ACAD_REACTORS
330
357
102
}
330
357
100
DictionaryVariables
280
     0
  1
0
  0
DICTIONARYVAR
  5
38E
102
{ACAD_REACTORS
330
357
102
}
330
357
100
DictionaryVariables
280
     0
  1

  0
DICTIONARY
  5
7FA
330
3DC
100
AcDbDictionary
280
     1
281
     1
  3
ACAD_XREC_ROUNDTRIP
360
7FB
  0
DICTIONARY
  5
7F8
330
3DB
100
AcDbDictionary
280
     1
281
     1
  3
ACAD_XREC_ROUNDTRIP
360
7F9
  0
DICTIONARY
  5
7FC
330
3DD
100
AcDbDictionary
280
     1
281
     1
  3
ACAD_XREC_ROUNDTRIP
360
7FD
  0
DICTIONARY
  5
82F
330
3DF
100
AcDbDictionary
280
     1
281
     1
  3
ACAD_XREC_ROUNDTRIP
360
830
  0
DICTIONARY
  5
806
330
3C7
100
AcDbDictionary
280
     1
281
     1
  3
ACAD_XREC_ROUNDTRIP
360
807
  0
DICTIONARY
  5
80C
330
3CA
100
AcDbDictionary
280
     1
281
     1
  3
ACAD_XREC_ROUNDTRIP
360
80D
  0
DICTIONARY
  5
814
330
3CE
100
AcDbDictionary
280
     1
281
     1
  3
ACAD_XREC_ROUNDTRIP
360
815
  0
DICTIONARY
  5
81C
330
3D2
100
AcDbDictionary
280
     1
281
     1
  3
ACAD_XREC_ROUNDTRIP
360
81D
  0
DICTIONARY
  5
810
330
3CC
100
AcDbDictionary
280
     1
281
     1
  3
ACAD_XREC_ROUNDTRIP
360
811
  0
DICTIONARY
  5
812
330
3CD
100
AcDbDictionary
280
     1
281
     1
  3
ACAD_XREC_ROUNDTRIP
360
813
  0
DICTIONARY
  5
822
330
3D5
100
AcDbDictionary
280
     1
281
     1
  3
ACAD_XREC_ROUNDTRIP
360
823
  0
DICTIONARY
  5
81A
330
3D1
100
AcDbDictionary
280
     1
281
     1
  3
ACAD_XREC_ROUNDTRIP
360
81B
  0
DICTIONARY
  5
7FE
330
3C3
100
AcDbDictionary
280
     1
281
     1
  3
ACAD_XREC_ROUNDTRIP
360
7FF
  0
DICTIONARY
  5
800
330
3C4
100
AcDbDictionary
280
     1
281
     1
  3
ACAD_XREC_ROUNDTRIP
360
801
  0
DICTIONARY
  5
802
330
3C5
100
AcDbDictionary
280
     1
281
     1
  3
ACAD_XREC_ROUNDTRIP
360
803
  0
DICTIONARY
  5
804
330
3C6
100
AcDbDictionary
280
     1
281
     1
  3
ACAD_XREC_ROUNDTRIP
360
805
  0
DICTIONARY
  5
80A
330
3C9
100
AcDbDictionary
280
     1
281
     1
  3
ACAD_XREC_ROUNDTRIP
360
80B
  0
DICTIONARY
  5
81E
330
3D3
100
AcDbDictionary
280
     1
281
     1
  3
ACAD_XREC_ROUNDTRIP
360
81F
  0
DICTIONARY
  5
818
330
3D0
100
AcDbDictionary
280
     1
281
     1
  3
ACAD_XREC_ROUNDTRIP
360
819
  0
DICTIONARY
  5
820
330
3D4
100
AcDbDictionary
280
     1
281
     1
  3
ACAD_XREC_ROUNDTRIP
360
821
  0
DICTIONARY
  5
80E
330
3CB
100
AcDbDictionary
280
     1
281
     1
  3
ACAD_XREC_ROUNDTRIP
360
80F
  0
DICTIONARY
  5
82C
330
3DA
100
AcDbDictionary
280
     1
281
     1
  3
ACAD_XREC_ROUNDTRIP
360
82D
  0
DICTIONARY
  5
82A
330
3D9
100
AcDbDictionary
280
     1
281
     1
  3
ACAD_XREC_ROUNDTRIP
360
82B
  0
DICTIONARY
  5
824
330
3D6
100
AcDbDictionary
280
     1
281
     1
  3
ACAD_XREC_ROUNDTRIP
360
825
  0
DICTIONARY
  5
826
330
3D7
100
AcDbDictionary
280
     1
281
     1
  3
ACAD_XREC_ROUNDTRIP
360
827
  0
DICTIONARY
  5
816
330
3CF
100
AcDbDictionary
280
     1
281
     1
  3
ACAD_XREC_ROUNDTRIP
360
817
  0
DICTIONARY
  5
808
330
3C8
100
AcDbDictionary
280
     1
281
     1
  3
ACAD_XREC_ROUNDTRIP
360
809
  0
DICTIONARY
  5
828
330
3D8
100
AcDbDictionary
280
     1
281
     1
  3
ACAD_XREC_ROUNDTRIP
360
829
  0
XRECORD
  5
7FB
102
{ACAD_REACTORS
330
7FA
102
}
330
7FA
100
AcDbXrecord
280
     1
102
MATERIAL
148
0.0
149
0.0
149
0.0
 93
        0
 94
      127
282
     0
 72
     1
 77
     1
171
     1
175
     1
179
     1
273
     0
  0
XRECORD
  5
7F9
102
{ACAD_REACTORS
330
7F8
102
}
330
7F8
100
AcDbXrecord
280
     1
102
MATERIAL
148
0.0
149
0.0
149
0.0
 93
        0
 94
      127
282
     0
 72
     1
 77
     1
171
     1
175
     1
179
     1
273
     0
  0
XRECORD
  5
7FD
102
{ACAD_REACTORS
330
7FC
102
}
330
7FC
100
AcDbXrecord
280
     1
102
MATERIAL
148
0.0
149
0.0
149
0.0
 93
        0
 94
      127
282
     0
 72
     1
 77
     1
171
     1
175
     1
179
     1
273
     0
  0
XRECORD
  5
830
102
{ACAD_REACTORS
330
82F
102
}
330
82F
100
AcDbXrecord
280
     1
102
ACAD_ROUNDTRIP_2010_MLEADER_STYLE
  0
XRECORD
  5
807
102
{ACAD_REACTORS
330
806
102
}
330
806
100
AcDbXrecord
280
     1
102
RTVSPropertyOp0
 70
     1
102
RTVSPropertyOp1
 70
     1
102
RTVSPropertyOp2
 70
     1
102
RTVSPropertyOp3
 70
     1
102
RTVSPropertyOp4
 70
     1
102
RTVSPropertyOp5
 70
     1
102
RTVSPropertyOp6
 70
     1
102
RTVSPropertyOp7
 70
     1
102
RTVSPropertyOp8
 70
     1
102
RTVSPropertyOp9
 70
     1
102
RTVSPropertyOp10
 70
     1
102
RTVSPropertyOp11
 70
     1
102
RTVSPropertyOp12
 70
     1
102
RTVSPropertyOp13
 70
     1
102
RTVSPropertyOp14
 70
     1
102
RTVSPropertyOp15
 70
     1
102
RTVSPropertyOp16
 70
     1
102
RTVSPropertyOp17
 70
     1
102
RTVSPropertyOp18
 70
     1
102
RTVSPropertyOp19
 70
     1
102
RTVSPropertyOp20
 70
     1
102
RTVSPropertyOp21
 70
     1
102
RTVSPropertyOp22
 70
     1
102
RTVSPropertyOp23
 70
     1
102
RTVSPropertyOp24
 70
     1
102
RTVSPropertyOp25
 70
     1
102
RTVSPropertyOp26
 70
     1
102
RTVSPropertyOp27
 70
     1
102
RTVSPropertyOp28
 70
     1
102
RTVSPropertyOp29
 70
     1
102
RTVSPropertyOp30
 70
     1
102
RTVSPropertyOp31
 70
     1
102
RTVSPropertyOp32
 70
     1
102
RTVSPropertyOp33
 70
     1
102
RTVSPropertyOp34
 70
     1
102
RTVSPropertyOp35
 70
     1
102
RTVSPropertyOp36
 70
     1
102
RTVSPropertyOp37
 70
     1
102
RTVSPropertyOp38
 70
     1
102
RTVSPropertyOp39
 70
     1
102
RTVSPropertyOp40
 70
     1
102
RTVSPropertyOp41
 70
     1
102
RTVSPropertyOp42
 70
     1
102
RTVSPropertyOp43
 70
     1
102
RTVSPropertyOp44
 70
     1
102
RTVSPropertyOp45
 70
     1
102
RTVSPropertyOp46
 70
     1
102
RTVSPropertyOp47
 70
     1
102
RTVSPropertyOp48
 70
     1
102
RTVSPropertyOp49
 70
     1
102
RTVSPropertyOp50
 70
     1
102
RTVSPropertyOp51
 70
     0
102
RTVSPropertyOp52
 70
     0
102
RTVSPropertyOp53
 70
     1
102
RTVSPropertyOp54
 70
     1
102
RTVSPropertyOp55
 70
     1
102
RTVSPropertyOp56
 70
     1
102
RTVSPropertyOp57
 70
     1
102
RTVSPost2010Prop28
280
     1
102
RTVSPost2010PropOp28
 70
     1
102
RTVSPost2010Prop29
280
     1
102
RTVSPost2010PropOp29
 70
     1
102
RTVSPost2010Prop30
280
     0
102
RTVSPost2010PropOp30
 70
     1
102
RTVSPost2010Prop31
280
     0
102
RTVSPost2010PropOp31
 70
     1
102
RTVSPost2010Prop32
280
     0
102
RTVSPost2010PropOp32
 70
     1
102
RTVSPost2010Prop33
280
     0
102
RTVSPost2010PropOp33
 70
     1
102
RTVSPost2010Prop34
280
     0
102
RTVSPost2010PropOp34
 70
     1
102
RTVSPost2010Prop35
280
     0
102
RTVSPost2010PropOp35
 70
     1
102
RTVSPost2010Prop36
280
     0
102
RTVSPost2010PropOp36
 70
     1
102
RTVSPost2010Prop37
 90
       50
102
RTVSPost2010PropOp37
 70
     1
102
RTVSPost2010Prop38
140
0.0
102
RTVSPost2010PropOp38
 70
     1
102
RTVSPost2010Prop39
140
1.0
102
RTVSPost2010PropOp39
 70
     1
102
RTVSPost2010Prop40
 90
        0
102
RTVSPost2010PropOp40
 70
     1
102
RTVSPost2010Prop41ColorIndex
 90
       18
102
RTVSPost2010Prop41ColorRGB
 90
        0
102
RTVSPost2010PropOp41
 70
     1
102
RTVSPost2010Prop42
 90
       50
102
RTVSPost2010PropOp42
 70
     1
102
RTVSPost2010Prop43
 90
        3
102
RTVSPost2010PropOp43
 70
     1
102
RTVSPost2010Prop44ColorIndex
 90
        5
102
RTVSPost2010Prop44ColorRGB
 90
      255
102
RTVSPost2010PropOp44
 70
     1
102
RTVSPost2010Prop45
280
     0
102
RTVSPost2010PropOp45
 70
     1
102
RTVSPost2010Prop46
 90
       50
102
RTVSPost2010PropOp46
 70
     1
102
RTVSPost2010Prop47
 90
       50
102
RTVSPost2010PropOp47
 70
     1
102
RTVSPost2010Prop48
 90
       50
102
RTVSPost2010PropOp48
 70
     1
102
RTVSPost2010Prop49
280
     0
102
RTVSPost2010PropOp49
 70
     1
102
RTVSPost2010Prop50
 90
       50
102
RTVSPost2010PropOp50
 70
     1
102
RTVSPost2010Prop51ColorIndex
 90
      256
102
RTVSPost2010Prop51ColorRGB
 90
-16777216
102
RTVSPost2010PropOp51
 70
     0
102
RTVSPost2010Prop52
140
1.0
102
RTVSPost2010PropOp52
 70
     0
102
RTVSPost2010Prop53
 90
        2
102
RTVSPost2010PropOp53
 70
     1
102
RTVSPost2010Prop54
  1
strokes_ogs.tif
102
RTVSPost2010PropOp54
 70
     1
102
RTVSPost2010Prop55
280
     0
102
RTVSPost2010PropOp55
 70
     1
102
RTVSPost2010Prop56
140
1.0
102
RTVSPost2010PropOp56
 70
     1
102
RTVSPost2010Prop57
140
1.0
102
RTVSPost2010PropOp57
 70
     1
  0
XRECORD
  5
80D
102
{ACAD_REACTORS
330
80C
102
}
330
80C
100
AcDbXrecord
280
     1
102
RTVSPropertyOp0
 70
     1
102
RTVSPropertyOp1
 70
     1
102
RTVSPropertyOp2
 70
     1
102
RTVSPropertyOp3
 70
     1
102
RTVSPropertyOp4
 70
     1
102
RTVSPropertyOp5
 70
     1
102
RTVSPropertyOp6
 70
     1
102
RTVSPropertyOp7
 70
     1
102
RTVSPropertyOp8
 70
     1
102
RTVSPropertyOp9
 70
     1
102
RTVSPropertyOp10
 70
     1
102
RTVSPropertyOp11
 70
     1
102
RTVSPropertyOp12
 70
     1
102
RTVSPropertyOp13
 70
     1
102
RTVSPropertyOp14
 70
     1
102
RTVSPropertyOp15
 70
     1
102
RTVSPropertyOp16
 70
     1
102
RTVSPropertyOp17
 70
     1
102
RTVSPropertyOp18
 70
     1
102
RTVSPropertyOp19
 70
     1
102
RTVSPropertyOp20
 70
     1
102
RTVSPropertyOp21
 70
     1
102
RTVSPropertyOp22
 70
     1
102
RTVSPropertyOp23
 70
     1
102
RTVSPropertyOp24
 70
     1
102
RTVSPropertyOp25
 70
     1
102
RTVSPropertyOp26
 70
     1
102
RTVSPropertyOp27
 70
     1
102
RTVSPropertyOp28
 70
     1
102
RTVSPropertyOp29
 70
     1
102
RTVSPropertyOp30
 70
     1
102
RTVSPropertyOp31
 70
     1
102
RTVSPropertyOp32
 70
     1
102
RTVSPropertyOp33
 70
     1
102
RTVSPropertyOp34
 70
     1
102
RTVSPropertyOp35
 70
     1
102
RTVSPropertyOp36
 70
     1
102
RTVSPropertyOp37
 70
     1
102
RTVSPropertyOp38
 70
     1
102
RTVSPropertyOp39
 70
     1
102
RTVSPropertyOp40
 70
     1
102
RTVSPropertyOp41
 70
     1
102
RTVSPropertyOp42
 70
     1
102
RTVSPropertyOp43
 70
     1
102
RTVSPropertyOp44
 70
     1
102
RTVSPropertyOp45
 70
     1
102
RTVSPropertyOp46
 70
     1
102
RTVSPropertyOp47
 70
     1
102
RTVSPropertyOp48
 70
     1
102
RTVSPropertyOp49
 70
     1
102
RTVSPropertyOp50
 70
     1
102
RTVSPropertyOp51
 70
     0
102
RTVSPropertyOp52
 70
     0
102
RTVSPropertyOp53
 70
     1
102
RTVSPropertyOp54
 70
     1
102
RTVSPropertyOp55
 70
     1
102
RTVSPropertyOp56
 70
     1
102
RTVSPropertyOp57
 70
     1
102
RTVSPost2010Prop28
280
     0
102
RTVSPost2010PropOp28
 70
     1
102
RTVSPost2010Prop29
280
     1
102
RTVSPost2010PropOp29
 70
     1
102
RTVSPost2010Prop30
280
     1
102
RTVSPost2010PropOp30
 70
     1
102
RTVSPost2010Prop31
280
     0
102
RTVSPost2010PropOp31
 70
     1
102
RTVSPost2010Prop32
280
     0
102
RTVSPost2010PropOp32
 70
     1
102
RTVSPost2010Prop33
280
     0
102
RTVSPost2010PropOp33
 70
     1
102
RTVSPost2010Prop34
280
     0
102
RTVSPost2010PropOp34
 70
     1
102
RTVSPost2010Prop35
280
     0
102
RTVSPost2010PropOp35
 70
     1
102
RTVSPost2010Prop36
280
     0
102
RTVSPost2010PropOp36
 70
     1
102
RTVSPost2010Prop37
 90
       50
102
RTVSPost2010PropOp37
 70
     1
102
RTVSPost2010Prop38
140
0.0
102
RTVSPost2010PropOp38
 70
     1
102
RTVSPost2010Prop39
140
1.0
102
RTVSPost2010PropOp39
 70
     1
102
RTVSPost2010Prop40
 90
        0
102
RTVSPost2010PropOp40
 70
     1
102
RTVSPost2010Prop41ColorIndex
 90
       18
102
RTVSPost2010Prop41ColorRGB
 90
        0
102
RTVSPost2010PropOp41
 70
     1
102
RTVSPost2010Prop42
 90
       50
102
RTVSPost2010PropOp42
 70
     1
102
RTVSPost2010Prop43
 90
        3
102
RTVSPost2010PropOp43
 70
     1
102
RTVSPost2010Prop44ColorIndex
 90
        5
102
RTVSPost2010Prop44ColorRGB
 90
      255
102
RTVSPost2010PropOp44
 70
     1
102
RTVSPost2010Prop45
280
     0
102
RTVSPost2010PropOp45
 70
     1
102
RTVSPost2010Prop46
 90
       50
102
RTVSPost2010PropOp46
 70
     1
102
RTVSPost2010Prop47
 90
       50
102
RTVSPost2010PropOp47
 70
     1
102
RTVSPost2010Prop48
 90
       50
102
RTVSPost2010PropOp48
 70
     1
102
RTVSPost2010Prop49
280
     0
102
RTVSPost2010PropOp49
 70
     1
102
RTVSPost2010Prop50
 90
       50
102
RTVSPost2010PropOp50
 70
     1
102
RTVSPost2010Prop51ColorIndex
 90
      256
102
RTVSPost2010Prop51ColorRGB
 90
-16777216
102
RTVSPost2010PropOp51
 70
     0
102
RTVSPost2010Prop52
140
1.0
102
RTVSPost2010PropOp52
 70
     0
102
RTVSPost2010Prop53
 90
        2
102
RTVSPost2010PropOp53
 70
     1
102
RTVSPost2010Prop54
  1
strokes_ogs.tif
102
RTVSPost2010PropOp54
 70
     1
102
RTVSPost2010Prop55
280
     0
102
RTVSPost2010PropOp55
 70
     1
102
RTVSPost2010Prop56
140
1.0
102
RTVSPost2010PropOp56
 70
     1
102
RTVSPost2010Prop57
140
1.0
102
RTVSPost2010PropOp57
 70
     1
  0
XRECORD
  5
815
102
{ACAD_REACTORS
330
814
102
}
330
814
100
AcDbXrecord
280
     1
102
RTVSPropertyOp0
 70
     1
102
RTVSPropertyOp1
 70
     1
102
RTVSPropertyOp2
 70
     1
102
RTVSPropertyOp3
 70
     1
102
RTVSPropertyOp4
 70
     1
102
RTVSPropertyOp5
 70
     1
102
RTVSPropertyOp6
 70
     1
102
RTVSPropertyOp7
 70
     1
102
RTVSPropertyOp8
 70
     1
102
RTVSPropertyOp9
 70
     1
102
RTVSPropertyOp10
 70
     1
102
RTVSPropertyOp11
 70
     1
102
RTVSPropertyOp12
 70
     1
102
RTVSPropertyOp13
 70
     1
102
RTVSPropertyOp14
 70
     1
102
RTVSPropertyOp15
 70
     1
102
RTVSPropertyOp16
 70
     1
102
RTVSPropertyOp17
 70
     1
102
RTVSPropertyOp18
 70
     1
102
RTVSPropertyOp19
 70
     1
102
RTVSPropertyOp20
 70
     1
102
RTVSPropertyOp21
 70
     1
102
RTVSPropertyOp22
 70
     1
102
RTVSPropertyOp23
 70
     1
102
RTVSPropertyOp24
 70
     1
102
RTVSPropertyOp25
 70
     1
102
RTVSPropertyOp26
 70
     1
102
RTVSPropertyOp27
 70
     1
102
RTVSPropertyOp28
 70
     1
102
RTVSPropertyOp29
 70
     1
102
RTVSPropertyOp30
 70
     1
102
RTVSPropertyOp31
 70
     1
102
RTVSPropertyOp32
 70
     1
102
RTVSPropertyOp33
 70
     1
102
RTVSPropertyOp34
 70
     1
102
RTVSPropertyOp35
 70
     1
102
RTVSPropertyOp36
 70
     1
102
RTVSPropertyOp37
 70
     1
102
RTVSPropertyOp38
 70
     1
102
RTVSPropertyOp39
 70
     1
102
RTVSPropertyOp40
 70
     1
102
RTVSPropertyOp41
 70
     1
102
RTVSPropertyOp42
 70
     1
102
RTVSPropertyOp43
 70
     1
102
RTVSPropertyOp44
 70
     1
102
RTVSPropertyOp45
 70
     1
102
RTVSPropertyOp46
 70
     1
102
RTVSPropertyOp47
 70
     1
102
RTVSPropertyOp48
 70
     1
102
RTVSPropertyOp49
 70
     1
102
RTVSPropertyOp50
 70
     1
102
RTVSPropertyOp51
 70
     0
102
RTVSPropertyOp52
 70
     0
102
RTVSPropertyOp53
 70
     1
102
RTVSPropertyOp54
 70
     1
102
RTVSPropertyOp55
 70
     1
102
RTVSPropertyOp56
 70
     1
102
RTVSPropertyOp57
 70
     1
102
RTVSPost2010Prop28
280
     0
102
RTVSPost2010PropOp28
 70
     1
102
RTVSPost2010Prop29
280
     1
102
RTVSPost2010PropOp29
 70
     1
102
RTVSPost2010Prop30
280
     1
102
RTVSPost2010PropOp30
 70
     1
102
RTVSPost2010Prop31
280
     0
102
RTVSPost2010PropOp31
 70
     1
102
RTVSPost2010Prop32
280
     0
102
RTVSPost2010PropOp32
 70
     1
102
RTVSPost2010Prop33
280
     0
102
RTVSPost2010PropOp33
 70
     1
102
RTVSPost2010Prop34
280
     0
102
RTVSPost2010PropOp34
 70
     1
102
RTVSPost2010Prop35
280
     0
102
RTVSPost2010PropOp35
 70
     1
102
RTVSPost2010Prop36
280
     0
102
RTVSPost2010PropOp36
 70
     1
102
RTVSPost2010Prop37
 90
       50
102
RTVSPost2010PropOp37
 70
     1
102
RTVSPost2010Prop38
140
0.0
102
RTVSPost2010PropOp38
 70
     1
102
RTVSPost2010Prop39
140
1.0
102
RTVSPost2010PropOp39
 70
     1
102
RTVSPost2010Prop40
 90
        0
102
RTVSPost2010PropOp40
 70
     1
102
RTVSPost2010Prop41ColorIndex
 90
       18
102
RTVSPost2010Prop41ColorRGB
 90
        0
102
RTVSPost2010PropOp41
 70
     1
102
RTVSPost2010Prop42
 90
       50
102
RTVSPost2010PropOp42
 70
     1
102
RTVSPost2010Prop43
 90
        3
102
RTVSPost2010PropOp43
 70
     1
102
RTVSPost2010Prop44ColorIndex
 90
        5
102
RTVSPost2010Prop44ColorRGB
 90
      255
102
RTVSPost2010PropOp44
 70
     1
102
RTVSPost2010Prop45
280
     0
102
RTVSPost2010PropOp45
 70
     1
102
RTVSPost2010Prop46
 90
       50
102
RTVSPost2010PropOp46
 70
     1
102
RTVSPost2010Prop47
 90
       50
102
RTVSPost2010PropOp47
 70
     1
102
RTVSPost2010Prop48
 90
       50
102
RTVSPost2010PropOp48
 70
     1
102
RTVSPost2010Prop49
280
     0
102
RTVSPost2010PropOp49
 70
     1
102
RTVSPost2010Prop50
 90
       50
102
RTVSPost2010PropOp50
 70
     1
102
RTVSPost2010Prop51ColorIndex
 90
      256
102
RTVSPost2010Prop51ColorRGB
 90
-16777216
102
RTVSPost2010PropOp51
 70
     0
102
RTVSPost2010Prop52
140
1.0
102
RTVSPost2010PropOp52
 70
     0
102
RTVSPost2010Prop53
 90
        2
102
RTVSPost2010PropOp53
 70
     1
102
RTVSPost2010Prop54
  1
strokes_ogs.tif
102
RTVSPost2010PropOp54
 70
     1
102
RTVSPost2010Prop55
280
     0
102
RTVSPost2010PropOp55
 70
     1
102
RTVSPost2010Prop56
140
1.0
102
RTVSPost2010PropOp56
 70
     1
102
RTVSPost2010Prop57
140
1.0
102
RTVSPost2010PropOp57
 70
     1
  0
XRECORD
  5
81D
102
{ACAD_REACTORS
330
81C
102
}
330
81C
100
AcDbXrecord
280
     1
102
RTVSPropertyOp0
 70
     1
102
RTVSPropertyOp1
 70
     1
102
RTVSPropertyOp2
 70
     1
102
RTVSPropertyOp3
 70
     1
102
RTVSPropertyOp4
 70
     1
102
RTVSPropertyOp5
 70
     1
102
RTVSPropertyOp6
 70
     1
102
RTVSPropertyOp7
 70
     1
102
RTVSPropertyOp8
 70
     1
102
RTVSPropertyOp9
 70
     1
102
RTVSPropertyOp10
 70
     1
102
RTVSPropertyOp11
 70
     1
102
RTVSPropertyOp12
 70
     1
102
RTVSPropertyOp13
 70
     1
102
RTVSPropertyOp14
 70
     1
102
RTVSPropertyOp15
 70
     1
102
RTVSPropertyOp16
 70
     1
102
RTVSPropertyOp17
 70
     1
102
RTVSPropertyOp18
 70
     1
102
RTVSPropertyOp19
 70
     1
102
RTVSPropertyOp20
 70
     1
102
RTVSPropertyOp21
 70
     1
102
RTVSPropertyOp22
 70
     1
102
RTVSPropertyOp23
 70
     1
102
RTVSPropertyOp24
 70
     1
102
RTVSPropertyOp25
 70
     1
102
RTVSPropertyOp26
 70
     1
102
RTVSPropertyOp27
 70
     1
102
RTVSPropertyOp28
 70
     1
102
RTVSPropertyOp29
 70
     1
102
RTVSPropertyOp30
 70
     1
102
RTVSPropertyOp31
 70
     1
102
RTVSPropertyOp32
 70
     1
102
RTVSPropertyOp33
 70
     1
102
RTVSPropertyOp34
 70
     1
102
RTVSPropertyOp35
 70
     1
102
RTVSPropertyOp36
 70
     1
102
RTVSPropertyOp37
 70
     1
102
RTVSPropertyOp38
 70
     1
102
RTVSPropertyOp39
 70
     1
102
RTVSPropertyOp40
 70
     1
102
RTVSPropertyOp41
 70
     1
102
RTVSPropertyOp42
 70
     1
102
RTVSPropertyOp43
 70
     1
102
RTVSPropertyOp44
 70
     1
102
RTVSPropertyOp45
 70
     1
102
RTVSPropertyOp46
 70
     1
102
RTVSPropertyOp47
 70
     1
102
RTVSPropertyOp48
 70
     1
102
RTVSPropertyOp49
 70
     1
102
RTVSPropertyOp50
 70
     1
102
RTVSPropertyOp51
 70
     0
102
RTVSPropertyOp52
 70
     0
102
RTVSPropertyOp53
 70
     1
102
RTVSPropertyOp54
 70
     1
102
RTVSPropertyOp55
 70
     1
102
RTVSPropertyOp56
 70
     1
102
RTVSPropertyOp57
 70
     1
102
RTVSPost2010Prop28
280
     0
102
RTVSPost2010PropOp28
 70
     1
102
RTVSPost2010Prop29
280
     1
102
RTVSPost2010PropOp29
 70
     1
102
RTVSPost2010Prop30
280
     1
102
RTVSPost2010PropOp30
 70
     1
102
RTVSPost2010Prop31
280
     0
102
RTVSPost2010PropOp31
 70
     1
102
RTVSPost2010Prop32
280
     0
102
RTVSPost2010PropOp32
 70
     1
102
RTVSPost2010Prop33
280
     0
102
RTVSPost2010PropOp33
 70
     1
102
RTVSPost2010Prop34
280
     0
102
RTVSPost2010PropOp34
 70
     1
102
RTVSPost2010Prop35
280
     0
102
RTVSPost2010PropOp35
 70
     1
102
RTVSPost2010Prop36
280
     0
102
RTVSPost2010PropOp36
 70
     1
102
RTVSPost2010Prop37
 90
       50
102
RTVSPost2010PropOp37
 70
     1
102
RTVSPost2010Prop38
140
0.0
102
RTVSPost2010PropOp38
 70
     1
102
RTVSPost2010Prop39
140
1.0
102
RTVSPost2010PropOp39
 70
     1
102
RTVSPost2010Prop40
 90
        0
102
RTVSPost2010PropOp40
 70
     1
102
RTVSPost2010Prop41ColorIndex
 90
       18
102
RTVSPost2010Prop41ColorRGB
 90
        0
102
RTVSPost2010PropOp41
 70
     1
102
RTVSPost2010Prop42
 90
       50
102
RTVSPost2010PropOp42
 70
     1
102
RTVSPost2010Prop43
 90
        3
102
RTVSPost2010PropOp43
 70
     1
102
RTVSPost2010Prop44ColorIndex
 90
        5
102
RTVSPost2010Prop44ColorRGB
 90
      255
102
RTVSPost2010PropOp44
 70
     1
102
RTVSPost2010Prop45
280
     0
102
RTVSPost2010PropOp45
 70
     1
102
RTVSPost2010Prop46
 90
       50
102
RTVSPost2010PropOp46
 70
     1
102
RTVSPost2010Prop47
 90
       50
102
RTVSPost2010PropOp47
 70
     1
102
RTVSPost2010Prop48
 90
       50
102
RTVSPost2010PropOp48
 70
     1
102
RTVSPost2010Prop49
280
     0
102
RTVSPost2010PropOp49
 70
     1
102
RTVSPost2010Prop50
 90
       50
102
RTVSPost2010PropOp50
 70
     1
102
RTVSPost2010Prop51ColorIndex
 90
      256
102
RTVSPost2010Prop51ColorRGB
 90
-16777216
102
RTVSPost2010PropOp51
 70
     0
102
RTVSPost2010Prop52
140
1.0
102
RTVSPost2010PropOp52
 70
     0
102
RTVSPost2010Prop53
 90
        2
102
RTVSPost2010PropOp53
 70
     1
102
RTVSPost2010Prop54
  1
strokes_ogs.tif
102
RTVSPost2010PropOp54
 70
     1
102
RTVSPost2010Prop55
280
     0
102
RTVSPost2010PropOp55
 70
     1
102
RTVSPost2010Prop56
140
1.0
102
RTVSPost2010PropOp56
 70
     1
102
RTVSPost2010Prop57
140
1.0
102
RTVSPost2010PropOp57
 70
     1
  0
XRECORD
  5
811
102
{ACAD_REACTORS
330
810
102
}
330
810
100
AcDbXrecord
280
     1
102
RTVSPropertyOp0
 70
     1
102
RTVSPropertyOp1
 70
     1
102
RTVSPropertyOp2
 70
     1
102
RTVSPropertyOp3
 70
     1
102
RTVSPropertyOp4
 70
     1
102
RTVSPropertyOp5
 70
     1
102
RTVSPropertyOp6
 70
     1
102
RTVSPropertyOp7
 70
     1
102
RTVSPropertyOp8
 70
     1
102
RTVSPropertyOp9
 70
     1
102
RTVSPropertyOp10
 70
     1
102
RTVSPropertyOp11
 70
     1
102
RTVSPropertyOp12
 70
     1
102
RTVSPropertyOp13
 70
     1
102
RTVSPropertyOp14
 70
     1
102
RTVSPropertyOp15
 70
     1
102
RTVSPropertyOp16
 70
     1
102
RTVSPropertyOp17
 70
     1
102
RTVSPropertyOp18
 70
     1
102
RTVSPropertyOp19
 70
     1
102
RTVSPropertyOp20
 70
     1
102
RTVSPropertyOp21
 70
     1
102
RTVSPropertyOp22
 70
     1
102
RTVSPropertyOp23
 70
     1
102
RTVSPropertyOp24
 70
     1
102
RTVSPropertyOp25
 70
     1
102
RTVSPropertyOp26
 70
     1
102
RTVSPropertyOp27
 70
     1
102
RTVSPropertyOp28
 70
     1
102
RTVSPropertyOp29
 70
     1
102
RTVSPropertyOp30
 70
     1
102
RTVSPropertyOp31
 70
     1
102
RTVSPropertyOp32
 70
     1
102
RTVSPropertyOp33
 70
     1
102
RTVSPropertyOp34
 70
     1
102
RTVSPropertyOp35
 70
     1
102
RTVSPropertyOp36
 70
     1
102
RTVSPropertyOp37
 70
     1
102
RTVSPropertyOp38
 70
     1
102
RTVSPropertyOp39
 70
     1
102
RTVSPropertyOp40
 70
     1
102
RTVSPropertyOp41
 70
     1
102
RTVSPropertyOp42
 70
     1
102
RTVSPropertyOp43
 70
     1
102
RTVSPropertyOp44
 70
     1
102
RTVSPropertyOp45
 70
     1
102
RTVSPropertyOp46
 70
     1
102
RTVSPropertyOp47
 70
     1
102
RTVSPropertyOp48
 70
     1
102
RTVSPropertyOp49
 70
     1
102
RTVSPropertyOp50
 70
     1
102
RTVSPropertyOp51
 70
     0
102
RTVSPropertyOp52
 70
     0
102
RTVSPropertyOp53
 70
     1
102
RTVSPropertyOp54
 70
     1
102
RTVSPropertyOp55
 70
     1
102
RTVSPropertyOp56
 70
     1
102
RTVSPropertyOp57
 70
     1
102
RTVSPost2010Prop28
280
     0
102
RTVSPost2010PropOp28
 70
     1
102
RTVSPost2010Prop29
280
     1
102
RTVSPost2010PropOp29
 70
     1
102
RTVSPost2010Prop30
280
     1
102
RTVSPost2010PropOp30
 70
     1
102
RTVSPost2010Prop31
280
     0
102
RTVSPost2010PropOp31
 70
     1
102
RTVSPost2010Prop32
280
     0
102
RTVSPost2010PropOp32
 70
     1
102
RTVSPost2010Prop33
280
     0
102
RTVSPost2010PropOp33
 70
     1
102
RTVSPost2010Prop34
280
     0
102
RTVSPost2010PropOp34
 70
     1
102
RTVSPost2010Prop35
280
     0
102
RTVSPost2010PropOp35
 70
     1
102
RTVSPost2010Prop36
280
     0
102
RTVSPost2010PropOp36
 70
     1
102
RTVSPost2010Prop37
 90
       50
102
RTVSPost2010PropOp37
 70
     1
102
RTVSPost2010Prop38
140
0.0
102
RTVSPost2010PropOp38
 70
     1
102
RTVSPost2010Prop39
140
1.0
102
RTVSPost2010PropOp39
 70
     1
102
RTVSPost2010Prop40
 90
        0
102
RTVSPost2010PropOp40
 70
     1
102
RTVSPost2010Prop41ColorIndex
 90
       18
102
RTVSPost2010Prop41ColorRGB
 90
        0
102
RTVSPost2010PropOp41
 70
     1
102
RTVSPost2010Prop42
 90
       50
102
RTVSPost2010PropOp42
 70
     1
102
RTVSPost2010Prop43
 90
        3
102
RTVSPost2010PropOp43
 70
     1
102
RTVSPost2010Prop44ColorIndex
 90
        5
102
RTVSPost2010Prop44ColorRGB
 90
      255
102
RTVSPost2010PropOp44
 70
     1
102
RTVSPost2010Prop45
280
     0
102
RTVSPost2010PropOp45
 70
     1
102
RTVSPost2010Prop46
 90
       50
102
RTVSPost2010PropOp46
 70
     1
102
RTVSPost2010Prop47
 90
       50
102
RTVSPost2010PropOp47
 70
     1
102
RTVSPost2010Prop48
 90
       50
102
RTVSPost2010PropOp48
 70
     1
102
RTVSPost2010Prop49
280
     0
102
RTVSPost2010PropOp49
 70
     1
102
RTVSPost2010Prop50
 90
       50
102
RTVSPost2010PropOp50
 70
     1
102
RTVSPost2010Prop51ColorIndex
 90
      256
102
RTVSPost2010Prop51ColorRGB
 90
-16777216
102
RTVSPost2010PropOp51
 70
     0
102
RTVSPost2010Prop52
140
1.0
102
RTVSPost2010PropOp52
 70
     0
102
RTVSPost2010Prop53
 90
        2
102
RTVSPost2010PropOp53
 70
     1
102
RTVSPost2010Prop54
  1
strokes_ogs.tif
102
RTVSPost2010PropOp54
 70
     1
102
RTVSPost2010Prop55
280
     0
102
RTVSPost2010PropOp55
 70
     1
102
RTVSPost2010Prop56
140
1.0
102
RTVSPost2010PropOp56
 70
     1
102
RTVSPost2010Prop57
140
1.0
102
RTVSPost2010PropOp57
 70
     1
  0
XRECORD
  5
813
102
{ACAD_REACTORS
330
812
102
}
330
812
100
AcDbXrecord
280
     1
102
RTVSPropertyOp0
 70
     1
102
RTVSPropertyOp1
 70
     1
102
RTVSPropertyOp2
 70
     1
102
RTVSPropertyOp3
 70
     1
102
RTVSPropertyOp4
 70
     1
102
RTVSPropertyOp5
 70
     1
102
RTVSPropertyOp6
 70
     1
102
RTVSPropertyOp7
 70
     1
102
RTVSPropertyOp8
 70
     1
102
RTVSPropertyOp9
 70
     1
102
RTVSPropertyOp10
 70
     1
102
RTVSPropertyOp11
 70
     1
102
RTVSPropertyOp12
 70
     1
102
RTVSPropertyOp13
 70
     1
102
RTVSPropertyOp14
 70
     1
102
RTVSPropertyOp15
 70
     1
102
RTVSPropertyOp16
 70
     1
102
RTVSPropertyOp17
 70
     1
102
RTVSPropertyOp18
 70
     1
102
RTVSPropertyOp19
 70
     1
102
RTVSPropertyOp20
 70
     1
102
RTVSPropertyOp21
 70
     1
102
RTVSPropertyOp22
 70
     1
102
RTVSPropertyOp23
 70
     1
102
RTVSPropertyOp24
 70
     1
102
RTVSPropertyOp25
 70
     1
102
RTVSPropertyOp26
 70
     1
102
RTVSPropertyOp27
 70
     1
102
RTVSPropertyOp28
 70
     1
102
RTVSPropertyOp29
 70
     1
102
RTVSPropertyOp30
 70
     1
102
RTVSPropertyOp31
 70
     1
102
RTVSPropertyOp32
 70
     1
102
RTVSPropertyOp33
 70
     1
102
RTVSPropertyOp34
 70
     1
102
RTVSPropertyOp35
 70
     1
102
RTVSPropertyOp36
 70
     1
102
RTVSPropertyOp37
 70
     1
102
RTVSPropertyOp38
 70
     1
102
RTVSPropertyOp39
 70
     1
102
RTVSPropertyOp40
 70
     1
102
RTVSPropertyOp41
 70
     1
102
RTVSPropertyOp42
 70
     1
102
RTVSPropertyOp43
 70
     1
102
RTVSPropertyOp44
 70
     1
102
RTVSPropertyOp45
 70
     1
102
RTVSPropertyOp46
 70
     1
102
RTVSPropertyOp47
 70
     1
102
RTVSPropertyOp48
 70
     1
102
RTVSPropertyOp49
 70
     1
102
RTVSPropertyOp50
 70
     1
102
RTVSPropertyOp51
 70
     0
102
RTVSPropertyOp52
 70
     0
102
RTVSPropertyOp53
 70
     1
102
RTVSPropertyOp54
 70
     1
102
RTVSPropertyOp55
 70
     1
102
RTVSPropertyOp56
 70
     1
102
RTVSPropertyOp57
 70
     1
102
RTVSPost2010Prop28
280
     0
102
RTVSPost2010PropOp28
 70
     1
102
RTVSPost2010Prop29
280
     1
102
RTVSPost2010PropOp29
 70
     1
102
RTVSPost2010Prop30
280
     1
102
RTVSPost2010PropOp30
 70
     1
102
RTVSPost2010Prop31
280
     0
102
RTVSPost2010PropOp31
 70
     1
102
RTVSPost2010Prop32
280
     0
102
RTVSPost2010PropOp32
 70
     1
102
RTVSPost2010Prop33
280
     0
102
RTVSPost2010PropOp33
 70
     1
102
RTVSPost2010Prop34
280
     0
102
RTVSPost2010PropOp34
 70
     1
102
RTVSPost2010Prop35
280
     0
102
RTVSPost2010PropOp35
 70
     1
102
RTVSPost2010Prop36
280
     0
102
RTVSPost2010PropOp36
 70
     1
102
RTVSPost2010Prop37
 90
       50
102
RTVSPost2010PropOp37
 70
     1
102
RTVSPost2010Prop38
140
0.0
102
RTVSPost2010PropOp38
 70
     1
102
RTVSPost2010Prop39
140
1.0
102
RTVSPost2010PropOp39
 70
     1
102
RTVSPost2010Prop40
 90
        0
102
RTVSPost2010PropOp40
 70
     1
102
RTVSPost2010Prop41ColorIndex
 90
       18
102
RTVSPost2010Prop41ColorRGB
 90
        0
102
RTVSPost2010PropOp41
 70
     1
102
RTVSPost2010Prop42
 90
       50
102
RTVSPost2010PropOp42
 70
     1
102
RTVSPost2010Prop43
 90
        3
102
RTVSPost2010PropOp43
 70
     1
102
RTVSPost2010Prop44ColorIndex
 90
        5
102
RTVSPost2010Prop44ColorRGB
 90
      255
102
RTVSPost2010PropOp44
 70
     1
102
RTVSPost2010Prop45
280
     0
102
RTVSPost2010PropOp45
 70
     1
102
RTVSPost2010Prop46
 90
       50
102
RTVSPost2010PropOp46
 70
     1
102
RTVSPost2010Prop47
 90
       50
102
RTVSPost2010PropOp47
 70
     1
102
RTVSPost2010Prop48
 90
       50
102
RTVSPost2010PropOp48
 70
     1
102
RTVSPost2010Prop49
280
     0
102
RTVSPost2010PropOp49
 70
     1
102
RTVSPost2010Prop50
 90
       50
102
RTVSPost2010PropOp50
 70
     1
102
RTVSPost2010Prop51ColorIndex
 90
      256
102
RTVSPost2010Prop51ColorRGB
 90
-16777216
102
RTVSPost2010PropOp51
 70
     0
102
RTVSPost2010Prop52
140
1.0
102
RTVSPost2010PropOp52
 70
     0
102
RTVSPost2010Prop53
 90
        2
102
RTVSPost2010PropOp53
 70
     1
102
RTVSPost2010Prop54
  1
strokes_ogs.tif
102
RTVSPost2010PropOp54
 70
     1
102
RTVSPost2010Prop55
280
     0
102
RTVSPost2010PropOp55
 70
     1
102
RTVSPost2010Prop56
140
1.0
102
RTVSPost2010PropOp56
 70
     1
102
RTVSPost2010Prop57
140
1.0
102
RTVSPost2010PropOp57
 70
     1
  0
XRECORD
  5
823
102
{ACAD_REACTORS
330
822
102
}
330
822
100
AcDbXrecord
280
     1
102
RTVSPropertyOp0
 70
     0
102
RTVSPropertyOp1
 70
     0
102
RTVSPropertyOp2
 70
     0
102
RTVSPropertyOp3
 70
     0
102
RTVSPropertyOp4
 70
     0
102
RTVSPropertyOp5
 70
     0
102
RTVSPropertyOp6
 70
     0
102
RTVSPropertyOp7
 70
     0
102
RTVSPropertyOp8
 70
     0
102
RTVSPropertyOp9
 70
     0
102
RTVSPropertyOp10
 70
     0
102
RTVSPropertyOp11
 70
     0
102
RTVSPropertyOp12
 70
     0
102
RTVSPropertyOp13
 70
     0
102
RTVSPropertyOp14
 70
     2
102
RTVSPropertyOp15
 70
     0
102
RTVSPropertyOp16
 70
     0
102
RTVSPropertyOp17
 70
     0
102
RTVSPropertyOp18
 70
     0
102
RTVSPropertyOp19
 70
     0
102
RTVSPropertyOp20
 70
     0
102
RTVSPropertyOp21
 70
     0
102
RTVSPropertyOp22
 70
     0
102
RTVSPropertyOp23
 70
     0
102
RTVSPropertyOp24
 70
     0
102
RTVSPropertyOp25
 70
     0
102
RTVSPropertyOp26
 70
     0
102
RTVSPropertyOp27
 70
     0
102
RTVSPropertyOp28
 70
     0
102
RTVSPropertyOp29
 70
     0
102
RTVSPropertyOp30
 70
     0
102
RTVSPropertyOp31
 70
     0
102
RTVSPropertyOp32
 70
     0
102
RTVSPropertyOp33
 70
     0
102
RTVSPropertyOp34
 70
     0
102
RTVSPropertyOp35
 70
     0
102
RTVSPropertyOp36
 70
     0
102
RTVSPropertyOp37
 70
     0
102
RTVSPropertyOp38
 70
     0
102
RTVSPropertyOp39
 70
     0
102
RTVSPropertyOp40
 70
     0
102
RTVSPropertyOp41
 70
     0
102
RTVSPropertyOp42
 70
     0
102
RTVSPropertyOp43
 70
     0
102
RTVSPropertyOp44
 70
     0
102
RTVSPropertyOp45
 70
     0
102
RTVSPropertyOp46
 70
     0
102
RTVSPropertyOp47
 70
     0
102
RTVSPropertyOp48
 70
     0
102
RTVSPropertyOp49
 70
     0
102
RTVSPropertyOp50
 70
     0
102
RTVSPropertyOp51
 70
     0
102
RTVSPropertyOp52
 70
     0
102
RTVSPropertyOp53
 70
     0
102
RTVSPropertyOp54
 70
     0
102
RTVSPropertyOp55
 70
     0
102
RTVSPropertyOp56
 70
     0
102
RTVSPropertyOp57
 70
     0
102
RTVSPost2010Prop28
280
     0
102
RTVSPost2010PropOp28
 70
     0
102
RTVSPost2010Prop29
280
     1
102
RTVSPost2010PropOp29
 70
     0
102
RTVSPost2010Prop30
280
     1
102
RTVSPost2010PropOp30
 70
     0
102
RTVSPost2010Prop31
280
     0
102
RTVSPost2010PropOp31
 70
     0
102
RTVSPost2010Prop32
280
     0
102
RTVSPost2010PropOp32
 70
     0
102
RTVSPost2010Prop33
280
     0
102
RTVSPost2010PropOp33
 70
     0
102
RTVSPost2010Prop34
280
     0
102
RTVSPost2010PropOp34
 70
     0
102
RTVSPost2010Prop35
280
     0
102
RTVSPost2010PropOp35
 70
     0
102
RTVSPost2010Prop36
280
     0
102
RTVSPost2010PropOp36
 70
     0
102
RTVSPost2010Prop37
 90
       50
102
RTVSPost2010PropOp37
 70
     0
102
RTVSPost2010Prop38
140
0.0
102
RTVSPost2010PropOp38
 70
     0
102
RTVSPost2010Prop39
140
1.0
102
RTVSPost2010PropOp39
 70
     0
102
RTVSPost2010Prop40
 90
        0
102
RTVSPost2010PropOp40
 70
     0
102
RTVSPost2010Prop41ColorIndex
 90
       18
102
RTVSPost2010Prop41ColorRGB
 90
        0
102
RTVSPost2010PropOp41
 70
     0
102
RTVSPost2010Prop42
 90
       50
102
RTVSPost2010PropOp42
 70
     0
102
RTVSPost2010Prop43
 90
        3
102
RTVSPost2010PropOp43
 70
     0
102
RTVSPost2010Prop44ColorIndex
 90
        5
102
RTVSPost2010Prop44ColorRGB
 90
      255
102
RTVSPost2010PropOp44
 70
     0
102
RTVSPost2010Prop45
280
     0
102
RTVSPost2010PropOp45
 70
     0
102
RTVSPost2010Prop46
 90
       50
102
RTVSPost2010PropOp46
 70
     0
102
RTVSPost2010Prop47
 90
       50
102
RTVSPost2010PropOp47
 70
     0
102
RTVSPost2010Prop48
 90
       50
102
RTVSPost2010PropOp48
 70
     0
102
RTVSPost2010Prop49
280
     0
102
RTVSPost2010PropOp49
 70
     0
102
RTVSPost2010Prop50
 90
       50
102
RTVSPost2010PropOp50
 70
     0
102
RTVSPost2010Prop51ColorIndex
 90
      256
102
RTVSPost2010Prop51ColorRGB
 90
-16777216
102
RTVSPost2010PropOp51
 70
     0
102
RTVSPost2010Prop52
140
1.0
102
RTVSPost2010PropOp52
 70
     0
102
RTVSPost2010Prop53
 90
        2
102
RTVSPost2010PropOp53
 70
     0
102
RTVSPost2010Prop54
  1
strokes_ogs.tif
102
RTVSPost2010PropOp54
 70
     0
102
RTVSPost2010Prop55
280
     0
102
RTVSPost2010PropOp55
 70
     0
102
RTVSPost2010Prop56
140
1.0
102
RTVSPost2010PropOp56
 70
     0
102
RTVSPost2010Prop57
140
1.0
102
RTVSPost2010PropOp57
 70
     0
  0
XRECORD
  5
81B
102
{ACAD_REACTORS
330
81A
102
}
330
81A
100
AcDbXrecord
280
     1
102
RTVSPropertyOp0
 70
     1
102
RTVSPropertyOp1
 70
     1
102
RTVSPropertyOp2
 70
     1
102
RTVSPropertyOp3
 70
     1
102
RTVSPropertyOp4
 70
     1
102
RTVSPropertyOp5
 70
     1
102
RTVSPropertyOp6
 70
     1
102
RTVSPropertyOp7
 70
     1
102
RTVSPropertyOp8
 70
     1
102
RTVSPropertyOp9
 70
     1
102
RTVSPropertyOp10
 70
     1
102
RTVSPropertyOp11
 70
     1
102
RTVSPropertyOp12
 70
     1
102
RTVSPropertyOp13
 70
     1
102
RTVSPropertyOp14
 70
     1
102
RTVSPropertyOp15
 70
     1
102
RTVSPropertyOp16
 70
     1
102
RTVSPropertyOp17
 70
     1
102
RTVSPropertyOp18
 70
     1
102
RTVSPropertyOp19
 70
     1
102
RTVSPropertyOp20
 70
     1
102
RTVSPropertyOp21
 70
     1
102
RTVSPropertyOp22
 70
     1
102
RTVSPropertyOp23
 70
     1
102
RTVSPropertyOp24
 70
     1
102
RTVSPropertyOp25
 70
     1
102
RTVSPropertyOp26
 70
     1
102
RTVSPropertyOp27
 70
     1
102
RTVSPropertyOp28
 70
     1
102
RTVSPropertyOp29
 70
     1
102
RTVSPropertyOp30
 70
     1
102
RTVSPropertyOp31
 70
     1
102
RTVSPropertyOp32
 70
     1
102
RTVSPropertyOp33
 70
     1
102
RTVSPropertyOp34
 70
     1
102
RTVSPropertyOp35
 70
     1
102
RTVSPropertyOp36
 70
     1
102
RTVSPropertyOp37
 70
     1
102
RTVSPropertyOp38
 70
     1
102
RTVSPropertyOp39
 70
     1
102
RTVSPropertyOp40
 70
     1
102
RTVSPropertyOp41
 70
     1
102
RTVSPropertyOp42
 70
     1
102
RTVSPropertyOp43
 70
     1
102
RTVSPropertyOp44
 70
     1
102
RTVSPropertyOp45
 70
     1
102
RTVSPropertyOp46
 70
     1
102
RTVSPropertyOp47
 70
     1
102
RTVSPropertyOp48
 70
     1
102
RTVSPropertyOp49
 70
     1
102
RTVSPropertyOp50
 70
     1
102
RTVSPropertyOp51
 70
     0
102
RTVSPropertyOp52
 70
     0
102
RTVSPropertyOp53
 70
     1
102
RTVSPropertyOp54
 70
     1
102
RTVSPropertyOp55
 70
     1
102
RTVSPropertyOp56
 70
     1
102
RTVSPropertyOp57
 70
     1
102
RTVSPost2010Prop28
280
     0
102
RTVSPost2010PropOp28
 70
     1
102
RTVSPost2010Prop29
280
     1
102
RTVSPost2010PropOp29
 70
     1
102
RTVSPost2010Prop30
280
     1
102
RTVSPost2010PropOp30
 70
     1
102
RTVSPost2010Prop31
280
     0
102
RTVSPost2010PropOp31
 70
     1
102
RTVSPost2010Prop32
280
     0
102
RTVSPost2010PropOp32
 70
     1
102
RTVSPost2010Prop33
280
     0
102
RTVSPost2010PropOp33
 70
     1
102
RTVSPost2010Prop34
280
     0
102
RTVSPost2010PropOp34
 70
     1
102
RTVSPost2010Prop35
280
     0
102
RTVSPost2010PropOp35
 70
     1
102
RTVSPost2010Prop36
280
     0
102
RTVSPost2010PropOp36
 70
     1
102
RTVSPost2010Prop37
 90
       50
102
RTVSPost2010PropOp37
 70
     1
102
RTVSPost2010Prop38
140
0.0
102
RTVSPost2010PropOp38
 70
     1
102
RTVSPost2010Prop39
140
1.0
102
RTVSPost2010PropOp39
 70
     1
102
RTVSPost2010Prop40
 90
        0
102
RTVSPost2010PropOp40
 70
     1
102
RTVSPost2010Prop41ColorIndex
 90
       18
102
RTVSPost2010Prop41ColorRGB
 90
        0
102
RTVSPost2010PropOp41
 70
     1
102
RTVSPost2010Prop42
 90
       50
102
RTVSPost2010PropOp42
 70
     1
102
RTVSPost2010Prop43
 90
        3
102
RTVSPost2010PropOp43
 70
     1
102
RTVSPost2010Prop44ColorIndex
 90
        5
102
RTVSPost2010Prop44ColorRGB
 90
      255
102
RTVSPost2010PropOp44
 70
     1
102
RTVSPost2010Prop45
280
     0
102
RTVSPost2010PropOp45
 70
     1
102
RTVSPost2010Prop46
 90
       50
102
RTVSPost2010PropOp46
 70
     1
102
RTVSPost2010Prop47
 90
       50
102
RTVSPost2010PropOp47
 70
     1
102
RTVSPost2010Prop48
 90
       50
102
RTVSPost2010PropOp48
 70
     1
102
RTVSPost2010Prop49
280
     0
102
RTVSPost2010PropOp49
 70
     1
102
RTVSPost2010Prop50
 90
       50
102
RTVSPost2010PropOp50
 70
     1
102
RTVSPost2010Prop51ColorIndex
 90
      256
102
RTVSPost2010Prop51ColorRGB
 90
-16777216
102
RTVSPost2010PropOp51
 70
     0
102
RTVSPost2010Prop52
140
1.0
102
RTVSPost2010PropOp52
 70
     0
102
RTVSPost2010Prop53
 90
        2
102
RTVSPost2010PropOp53
 70
     1
102
RTVSPost2010Prop54
  1
strokes_ogs.tif
102
RTVSPost2010PropOp54
 70
     1
102
RTVSPost2010Prop55
280
     0
102
RTVSPost2010PropOp55
 70
     1
102
RTVSPost2010Prop56
140
1.0
102
RTVSPost2010PropOp56
 70
     1
102
RTVSPost2010Prop57
140
1.0
102
RTVSPost2010PropOp57
 70
     1
  0
XRECORD
  5
7FF
102
{ACAD_REACTORS
330
7FE
102
}
330
7FE
100
AcDbXrecord
280
     1
102
RTVSPropertyOp0
 70
     1
102
RTVSPropertyOp1
 70
     1
102
RTVSPropertyOp2
 70
     1
102
RTVSPropertyOp3
 70
     1
102
RTVSPropertyOp4
 70
     1
102
RTVSPropertyOp5
 70
     1
102
RTVSPropertyOp6
 70
     1
102
RTVSPropertyOp7
 70
     1
102
RTVSPropertyOp8
 70
     1
102
RTVSPropertyOp9
 70
     1
102
RTVSPropertyOp10
 70
     1
102
RTVSPropertyOp11
 70
     1
102
RTVSPropertyOp12
 70
     1
102
RTVSPropertyOp13
 70
     1
102
RTVSPropertyOp14
 70
     1
102
RTVSPropertyOp15
 70
     1
102
RTVSPropertyOp16
 70
     1
102
RTVSPropertyOp17
 70
     1
102
RTVSPropertyOp18
 70
     1
102
RTVSPropertyOp19
 70
     1
102
RTVSPropertyOp20
 70
     1
102
RTVSPropertyOp21
 70
     1
102
RTVSPropertyOp22
 70
     1
102
RTVSPropertyOp23
 70
     1
102
RTVSPropertyOp24
 70
     1
102
RTVSPropertyOp25
 70
     1
102
RTVSPropertyOp26
 70
     1
102
RTVSPropertyOp27
 70
     1
102
RTVSPropertyOp28
 70
     1
102
RTVSPropertyOp29
 70
     1
102
RTVSPropertyOp30
 70
     1
102
RTVSPropertyOp31
 70
     1
102
RTVSPropertyOp32
 70
     1
102
RTVSPropertyOp33
 70
     1
102
RTVSPropertyOp34
 70
     1
102
RTVSPropertyOp35
 70
     1
102
RTVSPropertyOp36
 70
     1
102
RTVSPropertyOp37
 70
     1
102
RTVSPropertyOp38
 70
     1
102
RTVSPropertyOp39
 70
     1
102
RTVSPropertyOp40
 70
     1
102
RTVSPropertyOp41
 70
     1
102
RTVSPropertyOp42
 70
     1
102
RTVSPropertyOp43
 70
     1
102
RTVSPropertyOp44
 70
     1
102
RTVSPropertyOp45
 70
     1
102
RTVSPropertyOp46
 70
     1
102
RTVSPropertyOp47
 70
     1
102
RTVSPropertyOp48
 70
     1
102
RTVSPropertyOp49
 70
     1
102
RTVSPropertyOp50
 70
     1
102
RTVSPropertyOp51
 70
     0
102
RTVSPropertyOp52
 70
     0
102
RTVSPropertyOp53
 70
     1
102
RTVSPropertyOp54
 70
     1
102
RTVSPropertyOp55
 70
     1
102
RTVSPropertyOp56
 70
     1
102
RTVSPropertyOp57
 70
     1
102
RTVSPost2010Prop28
280
     0
102
RTVSPost2010PropOp28
 70
     1
102
RTVSPost2010Prop29
280
     1
102
RTVSPost2010PropOp29
 70
     1
102
RTVSPost2010Prop30
280
     1
102
RTVSPost2010PropOp30
 70
     1
102
RTVSPost2010Prop31
280
     0
102
RTVSPost2010PropOp31
 70
     1
102
RTVSPost2010Prop32
280
     0
102
RTVSPost2010PropOp32
 70
     1
102
RTVSPost2010Prop33
280
     0
102
RTVSPost2010PropOp33
 70
     1
102
RTVSPost2010Prop34
280
     0
102
RTVSPost2010PropOp34
 70
     1
102
RTVSPost2010Prop35
280
     0
102
RTVSPost2010PropOp35
 70
     1
102
RTVSPost2010Prop36
280
     0
102
RTVSPost2010PropOp36
 70
     1
102
RTVSPost2010Prop37
 90
       50
102
RTVSPost2010PropOp37
 70
     1
102
RTVSPost2010Prop38
140
0.0
102
RTVSPost2010PropOp38
 70
     1
102
RTVSPost2010Prop39
140
1.0
102
RTVSPost2010PropOp39
 70
     1
102
RTVSPost2010Prop40
 90
        0
102
RTVSPost2010PropOp40
 70
     1
102
RTVSPost2010Prop41ColorIndex
 90
       18
102
RTVSPost2010Prop41ColorRGB
 90
        0
102
RTVSPost2010PropOp41
 70
     1
102
RTVSPost2010Prop42
 90
       50
102
RTVSPost2010PropOp42
 70
     1
102
RTVSPost2010Prop43
 90
        3
102
RTVSPost2010PropOp43
 70
     1
102
RTVSPost2010Prop44ColorIndex
 90
        5
102
RTVSPost2010Prop44ColorRGB
 90
      255
102
RTVSPost2010PropOp44
 70
     1
102
RTVSPost2010Prop45
280
     0
102
RTVSPost2010PropOp45
 70
     1
102
RTVSPost2010Prop46
 90
       50
102
RTVSPost2010PropOp46
 70
     1
102
RTVSPost2010Prop47
 90
       50
102
RTVSPost2010PropOp47
 70
     1
102
RTVSPost2010Prop48
 90
       50
102
RTVSPost2010PropOp48
 70
     1
102
RTVSPost2010Prop49
280
     0
102
RTVSPost2010PropOp49
 70
     1
102
RTVSPost2010Prop50
 90
       50
102
RTVSPost2010PropOp50
 70
     1
102
RTVSPost2010Prop51ColorIndex
 90
      256
102
RTVSPost2010Prop51ColorRGB
 90
-16777216
102
RTVSPost2010PropOp51
 70
     0
102
RTVSPost2010Prop52
140
1.0
102
RTVSPost2010PropOp52
 70
     0
102
RTVSPost2010Prop53
 90
        2
102
RTVSPost2010PropOp53
 70
     1
102
RTVSPost2010Prop54
  1
strokes_ogs.tif
102
RTVSPost2010PropOp54
 70
     1
102
RTVSPost2010Prop55
280
     0
102
RTVSPost2010PropOp55
 70
     1
102
RTVSPost2010Prop56
140
1.0
102
RTVSPost2010PropOp56
 70
     1
102
RTVSPost2010Prop57
140
1.0
102
RTVSPost2010PropOp57
 70
     1
  0
XRECORD
  5
801
102
{ACAD_REACTORS
330
800
102
}
330
800
100
AcDbXrecord
280
     1
102
RTVSPropertyOp0
 70
     1
102
RTVSPropertyOp1
 70
     1
102
RTVSPropertyOp2
 70
     1
102
RTVSPropertyOp3
 70
     1
102
RTVSPropertyOp4
 70
     1
102
RTVSPropertyOp5
 70
     1
102
RTVSPropertyOp6
 70
     1
102
RTVSPropertyOp7
 70
     1
102
RTVSPropertyOp8
 70
     1
102
RTVSPropertyOp9
 70
     1
102
RTVSPropertyOp10
 70
     1
102
RTVSPropertyOp11
 70
     1
102
RTVSPropertyOp12
 70
     1
102
RTVSPropertyOp13
 70
     1
102
RTVSPropertyOp14
 70
     1
102
RTVSPropertyOp15
 70
     1
102
RTVSPropertyOp16
 70
     1
102
RTVSPropertyOp17
 70
     1
102
RTVSPropertyOp18
 70
     1
102
RTVSPropertyOp19
 70
     1
102
RTVSPropertyOp20
 70
     1
102
RTVSPropertyOp21
 70
     1
102
RTVSPropertyOp22
 70
     1
102
RTVSPropertyOp23
 70
     1
102
RTVSPropertyOp24
 70
     1
102
RTVSPropertyOp25
 70
     1
102
RTVSPropertyOp26
 70
     1
102
RTVSPropertyOp27
 70
     1
102
RTVSPropertyOp28
 70
     1
102
RTVSPropertyOp29
 70
     1
102
RTVSPropertyOp30
 70
     1
102
RTVSPropertyOp31
 70
     1
102
RTVSPropertyOp32
 70
     1
102
RTVSPropertyOp33
 70
     1
102
RTVSPropertyOp34
 70
     1
102
RTVSPropertyOp35
 70
     1
102
RTVSPropertyOp36
 70
     1
102
RTVSPropertyOp37
 70
     1
102
RTVSPropertyOp38
 70
     1
102
RTVSPropertyOp39
 70
     1
102
RTVSPropertyOp40
 70
     1
102
RTVSPropertyOp41
 70
     1
102
RTVSPropertyOp42
 70
     1
102
RTVSPropertyOp43
 70
     1
102
RTVSPropertyOp44
 70
     1
102
RTVSPropertyOp45
 70
     1
102
RTVSPropertyOp46
 70
     1
102
RTVSPropertyOp47
 70
     1
102
RTVSPropertyOp48
 70
     1
102
RTVSPropertyOp49
 70
     1
102
RTVSPropertyOp50
 70
     1
102
RTVSPropertyOp51
 70
     0
102
RTVSPropertyOp52
 70
     0
102
RTVSPropertyOp53
 70
     1
102
RTVSPropertyOp54
 70
     1
102
RTVSPropertyOp55
 70
     1
102
RTVSPropertyOp56
 70
     1
102
RTVSPropertyOp57
 70
     1
102
RTVSPost2010Prop28
280
     0
102
RTVSPost2010PropOp28
 70
     1
102
RTVSPost2010Prop29
280
     1
102
RTVSPost2010PropOp29
 70
     1
102
RTVSPost2010Prop30
280
     1
102
RTVSPost2010PropOp30
 70
     1
102
RTVSPost2010Prop31
280
     0
102
RTVSPost2010PropOp31
 70
     1
102
RTVSPost2010Prop32
280
     0
102
RTVSPost2010PropOp32
 70
     1
102
RTVSPost2010Prop33
280
     0
102
RTVSPost2010PropOp33
 70
     1
102
RTVSPost2010Prop34
280
     0
102
RTVSPost2010PropOp34
 70
     1
102
RTVSPost2010Prop35
280
     0
102
RTVSPost2010PropOp35
 70
     1
102
RTVSPost2010Prop36
280
     0
102
RTVSPost2010PropOp36
 70
     1
102
RTVSPost2010Prop37
 90
       50
102
RTVSPost2010PropOp37
 70
     1
102
RTVSPost2010Prop38
140
0.0
102
RTVSPost2010PropOp38
 70
     1
102
RTVSPost2010Prop39
140
1.0
102
RTVSPost2010PropOp39
 70
     1
102
RTVSPost2010Prop40
 90
        0
102
RTVSPost2010PropOp40
 70
     1
102
RTVSPost2010Prop41ColorIndex
 90
       18
102
RTVSPost2010Prop41ColorRGB
 90
        0
102
RTVSPost2010PropOp41
 70
     1
102
RTVSPost2010Prop42
 90
       50
102
RTVSPost2010PropOp42
 70
     1
102
RTVSPost2010Prop43
 90
        3
102
RTVSPost2010PropOp43
 70
     1
102
RTVSPost2010Prop44ColorIndex
 90
        5
102
RTVSPost2010Prop44ColorRGB
 90
      255
102
RTVSPost2010PropOp44
 70
     1
102
RTVSPost2010Prop45
280
     0
102
RTVSPost2010PropOp45
 70
     1
102
RTVSPost2010Prop46
 90
       50
102
RTVSPost2010PropOp46
 70
     1
102
RTVSPost2010Prop47
 90
       50
102
RTVSPost2010PropOp47
 70
     1
102
RTVSPost2010Prop48
 90
       50
102
RTVSPost2010PropOp48
 70
     1
102
RTVSPost2010Prop49
280
     0
102
RTVSPost2010PropOp49
 70
     1
102
RTVSPost2010Prop50
 90
       50
102
RTVSPost2010PropOp50
 70
     1
102
RTVSPost2010Prop51ColorIndex
 90
      256
102
RTVSPost2010Prop51ColorRGB
 90
-16777216
102
RTVSPost2010PropOp51
 70
     0
102
RTVSPost2010Prop52
140
1.0
102
RTVSPost2010PropOp52
 70
     0
102
RTVSPost2010Prop53
 90
        2
102
RTVSPost2010PropOp53
 70
     1
102
RTVSPost2010Prop54
  1
strokes_ogs.tif
102
RTVSPost2010PropOp54
 70
     1
102
RTVSPost2010Prop55
280
     0
102
RTVSPost2010PropOp55
 70
     1
102
RTVSPost2010Prop56
140
1.0
102
RTVSPost2010PropOp56
 70
     1
102
RTVSPost2010Prop57
140
1.0
102
RTVSPost2010PropOp57
 70
     1
  0
XRECORD
  5
803
102
{ACAD_REACTORS
330
802
102
}
330
802
100
AcDbXrecord
280
     1
102
RTVSPropertyOp0
 70
     1
102
RTVSPropertyOp1
 70
     1
102
RTVSPropertyOp2
 70
     1
102
RTVSPropertyOp3
 70
     1
102
RTVSPropertyOp4
 70
     1
102
RTVSPropertyOp5
 70
     1
102
RTVSPropertyOp6
 70
     1
102
RTVSPropertyOp7
 70
     1
102
RTVSPropertyOp8
 70
     1
102
RTVSPropertyOp9
 70
     1
102
RTVSPropertyOp10
 70
     1
102
RTVSPropertyOp11
 70
     1
102
RTVSPropertyOp12
 70
     1
102
RTVSPropertyOp13
 70
     1
102
RTVSPropertyOp14
 70
     1
102
RTVSPropertyOp15
 70
     1
102
RTVSPropertyOp16
 70
     1
102
RTVSPropertyOp17
 70
     1
102
RTVSPropertyOp18
 70
     1
102
RTVSPropertyOp19
 70
     1
102
RTVSPropertyOp20
 70
     1
102
RTVSPropertyOp21
 70
     1
102
RTVSPropertyOp22
 70
     1
102
RTVSPropertyOp23
 70
     1
102
RTVSPropertyOp24
 70
     1
102
RTVSPropertyOp25
 70
     1
102
RTVSPropertyOp26
 70
     1
102
RTVSPropertyOp27
 70
     1
102
RTVSPropertyOp28
 70
     1
102
RTVSPropertyOp29
 70
     1
102
RTVSPropertyOp30
 70
     1
102
RTVSPropertyOp31
 70
     1
102
RTVSPropertyOp32
 70
     1
102
RTVSPropertyOp33
 70
     1
102
RTVSPropertyOp34
 70
     1
102
RTVSPropertyOp35
 70
     1
102
RTVSPropertyOp36
 70
     1
102
RTVSPropertyOp37
 70
     1
102
RTVSPropertyOp38
 70
     1
102
RTVSPropertyOp39
 70
     1
102
RTVSPropertyOp40
 70
     1
102
RTVSPropertyOp41
 70
     1
102
RTVSPropertyOp42
 70
     1
102
RTVSPropertyOp43
 70
     1
102
RTVSPropertyOp44
 70
     1
102
RTVSPropertyOp45
 70
     1
102
RTVSPropertyOp46
 70
     1
102
RTVSPropertyOp47
 70
     1
102
RTVSPropertyOp48
 70
     1
102
RTVSPropertyOp49
 70
     1
102
RTVSPropertyOp50
 70
     1
102
RTVSPropertyOp51
 70
     0
102
RTVSPropertyOp52
 70
     0
102
RTVSPropertyOp53
 70
     1
102
RTVSPropertyOp54
 70
     1
102
RTVSPropertyOp55
 70
     1
102
RTVSPropertyOp56
 70
     1
102
RTVSPropertyOp57
 70
     1
102
RTVSPost2010Prop28
280
     0
102
RTVSPost2010PropOp28
 70
     1
102
RTVSPost2010Prop29
280
     1
102
RTVSPost2010PropOp29
 70
     1
102
RTVSPost2010Prop30
280
     1
102
RTVSPost2010PropOp30
 70
     1
102
RTVSPost2010Prop31
280
     0
102
RTVSPost2010PropOp31
 70
     1
102
RTVSPost2010Prop32
280
     0
102
RTVSPost2010PropOp32
 70
     1
102
RTVSPost2010Prop33
280
     0
102
RTVSPost2010PropOp33
 70
     1
102
RTVSPost2010Prop34
280
     0
102
RTVSPost2010PropOp34
 70
     1
102
RTVSPost2010Prop35
280
     0
102
RTVSPost2010PropOp35
 70
     1
102
RTVSPost2010Prop36
280
     0
102
RTVSPost2010PropOp36
 70
     1
102
RTVSPost2010Prop37
 90
       50
102
RTVSPost2010PropOp37
 70
     1
102
RTVSPost2010Prop38
140
0.0
102
RTVSPost2010PropOp38
 70
     1
102
RTVSPost2010Prop39
140
1.0
102
RTVSPost2010PropOp39
 70
     1
102
RTVSPost2010Prop40
 90
        0
102
RTVSPost2010PropOp40
 70
     1
102
RTVSPost2010Prop41ColorIndex
 90
       18
102
RTVSPost2010Prop41ColorRGB
 90
        0
102
RTVSPost2010PropOp41
 70
     1
102
RTVSPost2010Prop42
 90
       50
102
RTVSPost2010PropOp42
 70
     1
102
RTVSPost2010Prop43
 90
        3
102
RTVSPost2010PropOp43
 70
     1
102
RTVSPost2010Prop44ColorIndex
 90
        5
102
RTVSPost2010Prop44ColorRGB
 90
      255
102
RTVSPost2010PropOp44
 70
     1
102
RTVSPost2010Prop45
280
     0
102
RTVSPost2010PropOp45
 70
     1
102
RTVSPost2010Prop46
 90
       50
102
RTVSPost2010PropOp46
 70
     1
102
RTVSPost2010Prop47
 90
       50
102
RTVSPost2010PropOp47
 70
     1
102
RTVSPost2010Prop48
 90
       50
102
RTVSPost2010PropOp48
 70
     1
102
RTVSPost2010Prop49
280
     0
102
RTVSPost2010PropOp49
 70
     1
102
RTVSPost2010Prop50
 90
       50
102
RTVSPost2010PropOp50
 70
     1
102
RTVSPost2010Prop51ColorIndex
 90
      256
102
RTVSPost2010Prop51ColorRGB
 90
-16777216
102
RTVSPost2010PropOp51
 70
     0
102
RTVSPost2010Prop52
140
1.0
102
RTVSPost2010PropOp52
 70
     0
102
RTVSPost2010Prop53
 90
        2
102
RTVSPost2010PropOp53
 70
     1
102
RTVSPost2010Prop54
  1
strokes_ogs.tif
102
RTVSPost2010PropOp54
 70
     1
102
RTVSPost2010Prop55
280
     0
102
RTVSPost2010PropOp55
 70
     1
102
RTVSPost2010Prop56
140
1.0
102
RTVSPost2010PropOp56
 70
     1
102
RTVSPost2010Prop57
140
1.0
102
RTVSPost2010PropOp57
 70
     1
  0
XRECORD
  5
805
102
{ACAD_REACTORS
330
804
102
}
330
804
100
AcDbXrecord
280
     1
102
RTVSPropertyOp0
 70
     1
102
RTVSPropertyOp1
 70
     1
102
RTVSPropertyOp2
 70
     1
102
RTVSPropertyOp3
 70
     1
102
RTVSPropertyOp4
 70
     1
102
RTVSPropertyOp5
 70
     1
102
RTVSPropertyOp6
 70
     1
102
RTVSPropertyOp7
 70
     1
102
RTVSPropertyOp8
 70
     1
102
RTVSPropertyOp9
 70
     1
102
RTVSPropertyOp10
 70
     1
102
RTVSPropertyOp11
 70
     1
102
RTVSPropertyOp12
 70
     1
102
RTVSPropertyOp13
 70
     1
102
RTVSPropertyOp14
 70
     1
102
RTVSPropertyOp15
 70
     1
102
RTVSPropertyOp16
 70
     1
102
RTVSPropertyOp17
 70
     1
102
RTVSPropertyOp18
 70
     1
102
RTVSPropertyOp19
 70
     1
102
RTVSPropertyOp20
 70
     1
102
RTVSPropertyOp21
 70
     1
102
RTVSPropertyOp22
 70
     1
102
RTVSPropertyOp23
 70
     1
102
RTVSPropertyOp24
 70
     1
102
RTVSPropertyOp25
 70
     1
102
RTVSPropertyOp26
 70
     1
102
RTVSPropertyOp27
 70
     1
102
RTVSPropertyOp28
 70
     1
102
RTVSPropertyOp29
 70
     1
102
RTVSPropertyOp30
 70
     1
102
RTVSPropertyOp31
 70
     1
102
RTVSPropertyOp32
 70
     1
102
RTVSPropertyOp33
 70
     1
102
RTVSPropertyOp34
 70
     1
102
RTVSPropertyOp35
 70
     1
102
RTVSPropertyOp36
 70
     1
102
RTVSPropertyOp37
 70
     1
102
RTVSPropertyOp38
 70
     1
102
RTVSPropertyOp39
 70
     1
102
RTVSPropertyOp40
 70
     1
102
RTVSPropertyOp41
 70
     1
102
RTVSPropertyOp42
 70
     1
102
RTVSPropertyOp43
 70
     1
102
RTVSPropertyOp44
 70
     1
102
RTVSPropertyOp45
 70
     1
102
RTVSPropertyOp46
 70
     1
102
RTVSPropertyOp47
 70
     1
102
RTVSPropertyOp48
 70
     1
102
RTVSPropertyOp49
 70
     1
102
RTVSPropertyOp50
 70
     1
102
RTVSPropertyOp51
 70
     0
102
RTVSPropertyOp52
 70
     0
102
RTVSPropertyOp53
 70
     1
102
RTVSPropertyOp54
 70
     1
102
RTVSPropertyOp55
 70
     1
102
RTVSPropertyOp56
 70
     1
102
RTVSPropertyOp57
 70
     1
102
RTVSPost2010Prop28
280
     0
102
RTVSPost2010PropOp28
 70
     1
102
RTVSPost2010Prop29
280
     1
102
RTVSPost2010PropOp29
 70
     1
102
RTVSPost2010Prop30
280
     1
102
RTVSPost2010PropOp30
 70
     1
102
RTVSPost2010Prop31
280
     0
102
RTVSPost2010PropOp31
 70
     1
102
RTVSPost2010Prop32
280
     0
102
RTVSPost2010PropOp32
 70
     1
102
RTVSPost2010Prop33
280
     0
102
RTVSPost2010PropOp33
 70
     1
102
RTVSPost2010Prop34
280
     0
102
RTVSPost2010PropOp34
 70
     1
102
RTVSPost2010Prop35
280
     0
102
RTVSPost2010PropOp35
 70
     1
102
RTVSPost2010Prop36
280
     0
102
RTVSPost2010PropOp36
 70
     1
102
RTVSPost2010Prop37
 90
       50
102
RTVSPost2010PropOp37
 70
     1
102
RTVSPost2010Prop38
140
0.0
102
RTVSPost2010PropOp38
 70
     1
102
RTVSPost2010Prop39
140
1.0
102
RTVSPost2010PropOp39
 70
     1
102
RTVSPost2010Prop40
 90
        0
102
RTVSPost2010PropOp40
 70
     1
102
RTVSPost2010Prop41ColorIndex
 90
       18
102
RTVSPost2010Prop41ColorRGB
 90
        0
102
RTVSPost2010PropOp41
 70
     1
102
RTVSPost2010Prop42
 90
       50
102
RTVSPost2010PropOp42
 70
     1
102
RTVSPost2010Prop43
 90
        3
102
RTVSPost2010PropOp43
 70
     1
102
RTVSPost2010Prop44ColorIndex
 90
        5
102
RTVSPost2010Prop44ColorRGB
 90
      255
102
RTVSPost2010PropOp44
 70
     1
102
RTVSPost2010Prop45
280
     0
102
RTVSPost2010PropOp45
 70
     1
102
RTVSPost2010Prop46
 90
       50
102
RTVSPost2010PropOp46
 70
     1
102
RTVSPost2010Prop47
 90
       50
102
RTVSPost2010PropOp47
 70
     1
102
RTVSPost2010Prop48
 90
       50
102
RTVSPost2010PropOp48
 70
     1
102
RTVSPost2010Prop49
280
     0
102
RTVSPost2010PropOp49
 70
     1
102
RTVSPost2010Prop50
 90
       50
102
RTVSPost2010PropOp50
 70
     1
102
RTVSPost2010Prop51ColorIndex
 90
      256
102
RTVSPost2010Prop51ColorRGB
 90
-16777216
102
RTVSPost2010PropOp51
 70
     0
102
RTVSPost2010Prop52
140
1.0
102
RTVSPost2010PropOp52
 70
     0
102
RTVSPost2010Prop53
 90
        2
102
RTVSPost2010PropOp53
 70
     1
102
RTVSPost2010Prop54
  1
strokes_ogs.tif
102
RTVSPost2010PropOp54
 70
     1
102
RTVSPost2010Prop55
280
     0
102
RTVSPost2010PropOp55
 70
     1
102
RTVSPost2010Prop56
140
1.0
102
RTVSPost2010PropOp56
 70
     1
102
RTVSPost2010Prop57
140
1.0
102
RTVSPost2010PropOp57
 70
     1
  0
XRECORD
  5
80B
102
{ACAD_REACTORS
330
80A
102
}
330
80A
100
AcDbXrecord
280
     1
102
RTVSPropertyOp0
 70
     1
102
RTVSPropertyOp1
 70
     1
102
RTVSPropertyOp2
 70
     1
102
RTVSPropertyOp3
 70
     1
102
RTVSPropertyOp4
 70
     1
102
RTVSPropertyOp5
 70
     1
102
RTVSPropertyOp6
 70
     1
102
RTVSPropertyOp7
 70
     1
102
RTVSPropertyOp8
 70
     1
102
RTVSPropertyOp9
 70
     1
102
RTVSPropertyOp10
 70
     1
102
RTVSPropertyOp11
 70
     1
102
RTVSPropertyOp12
 70
     1
102
RTVSPropertyOp13
 70
     1
102
RTVSPropertyOp14
 70
     1
102
RTVSPropertyOp15
 70
     1
102
RTVSPropertyOp16
 70
     1
102
RTVSPropertyOp17
 70
     1
102
RTVSPropertyOp18
 70
     1
102
RTVSPropertyOp19
 70
     1
102
RTVSPropertyOp20
 70
     1
102
RTVSPropertyOp21
 70
     1
102
RTVSPropertyOp22
 70
     1
102
RTVSPropertyOp23
 70
     1
102
RTVSPropertyOp24
 70
     1
102
RTVSPropertyOp25
 70
     1
102
RTVSPropertyOp26
 70
     1
102
RTVSPropertyOp27
 70
     1
102
RTVSPropertyOp28
 70
     1
102
RTVSPropertyOp29
 70
     1
102
RTVSPropertyOp30
 70
     1
102
RTVSPropertyOp31
 70
     1
102
RTVSPropertyOp32
 70
     1
102
RTVSPropertyOp33
 70
     1
102
RTVSPropertyOp34
 70
     1
102
RTVSPropertyOp35
 70
     1
102
RTVSPropertyOp36
 70
     1
102
RTVSPropertyOp37
 70
     1
102
RTVSPropertyOp38
 70
     1
102
RTVSPropertyOp39
 70
     1
102
RTVSPropertyOp40
 70
     1
102
RTVSPropertyOp41
 70
     1
102
RTVSPropertyOp42
 70
     1
102
RTVSPropertyOp43
 70
     1
102
RTVSPropertyOp44
 70
     1
102
RTVSPropertyOp45
 70
     1
102
RTVSPropertyOp46
 70
     1
102
RTVSPropertyOp47
 70
     1
102
RTVSPropertyOp48
 70
     1
102
RTVSPropertyOp49
 70
     1
102
RTVSPropertyOp50
 70
     1
102
RTVSPropertyOp51
 70
     0
102
RTVSPropertyOp52
 70
     0
102
RTVSPropertyOp53
 70
     1
102
RTVSPropertyOp54
 70
     1
102
RTVSPropertyOp55
 70
     1
102
RTVSPropertyOp56
 70
     1
102
RTVSPropertyOp57
 70
     1
102
RTVSPost2010Prop28
280
     0
102
RTVSPost2010PropOp28
 70
     1
102
RTVSPost2010Prop29
280
     1
102
RTVSPost2010PropOp29
 70
     1
102
RTVSPost2010Prop30
280
     1
102
RTVSPost2010PropOp30
 70
     1
102
RTVSPost2010Prop31
280
     0
102
RTVSPost2010PropOp31
 70
     1
102
RTVSPost2010Prop32
280
     0
102
RTVSPost2010PropOp32
 70
     1
102
RTVSPost2010Prop33
280
     0
102
RTVSPost2010PropOp33
 70
     1
102
RTVSPost2010Prop34
280
     0
102
RTVSPost2010PropOp34
 70
     1
102
RTVSPost2010Prop35
280
     0
102
RTVSPost2010PropOp35
 70
     1
102
RTVSPost2010Prop36
280
     0
102
RTVSPost2010PropOp36
 70
     1
102
RTVSPost2010Prop37
 90
       50
102
RTVSPost2010PropOp37
 70
     1
102
RTVSPost2010Prop38
140
0.0
102
RTVSPost2010PropOp38
 70
     1
102
RTVSPost2010Prop39
140
1.0
102
RTVSPost2010PropOp39
 70
     1
102
RTVSPost2010Prop40
 90
        0
102
RTVSPost2010PropOp40
 70
     1
102
RTVSPost2010Prop41ColorIndex
 90
       18
102
RTVSPost2010Prop41ColorRGB
 90
        0
102
RTVSPost2010PropOp41
 70
     1
102
RTVSPost2010Prop42
 90
       50
102
RTVSPost2010PropOp42
 70
     1
102
RTVSPost2010Prop43
 90
        3
102
RTVSPost2010PropOp43
 70
     1
102
RTVSPost2010Prop44ColorIndex
 90
        5
102
RTVSPost2010Prop44ColorRGB
 90
      255
102
RTVSPost2010PropOp44
 70
     1
102
RTVSPost2010Prop45
280
     0
102
RTVSPost2010PropOp45
 70
     1
102
RTVSPost2010Prop46
 90
       50
102
RTVSPost2010PropOp46
 70
     1
102
RTVSPost2010Prop47
 90
       50
102
RTVSPost2010PropOp47
 70
     1
102
RTVSPost2010Prop48
 90
       50
102
RTVSPost2010PropOp48
 70
     1
102
RTVSPost2010Prop49
280
     0
102
RTVSPost2010PropOp49
 70
     1
102
RTVSPost2010Prop50
 90
       50
102
RTVSPost2010PropOp50
 70
     1
102
RTVSPost2010Prop51ColorIndex
 90
      256
102
RTVSPost2010Prop51ColorRGB
 90
-16777216
102
RTVSPost2010PropOp51
 70
     0
102
RTVSPost2010Prop52
140
1.0
102
RTVSPost2010PropOp52
 70
     0
102
RTVSPost2010Prop53
 90
        2
102
RTVSPost2010PropOp53
 70
     1
102
RTVSPost2010Prop54
  1
strokes_ogs.tif
102
RTVSPost2010PropOp54
 70
     1
102
RTVSPost2010Prop55
280
     0
102
RTVSPost2010PropOp55
 70
     1
102
RTVSPost2010Prop56
140
1.0
102
RTVSPost2010PropOp56
 70
     1
102
RTVSPost2010Prop57
140
1.0
102
RTVSPost2010PropOp57
 70
     1
  0
XRECORD
  5
81F
102
{ACAD_REACTORS
330
81E
102
}
330
81E
100
AcDbXrecord
280
     1
102
RTVSPropertyOp0
 70
     0
102
RTVSPropertyOp1
 70
     0
102
RTVSPropertyOp2
 70
     0
102
RTVSPropertyOp3
 70
     0
102
RTVSPropertyOp4
 70
     0
102
RTVSPropertyOp5
 70
     0
102
RTVSPropertyOp6
 70
     0
102
RTVSPropertyOp7
 70
     0
102
RTVSPropertyOp8
 70
     0
102
RTVSPropertyOp9
 70
     0
102
RTVSPropertyOp10
 70
     0
102
RTVSPropertyOp11
 70
     0
102
RTVSPropertyOp12
 70
     0
102
RTVSPropertyOp13
 70
     0
102
RTVSPropertyOp14
 70
     2
102
RTVSPropertyOp15
 70
     0
102
RTVSPropertyOp16
 70
     0
102
RTVSPropertyOp17
 70
     0
102
RTVSPropertyOp18
 70
     0
102
RTVSPropertyOp19
 70
     0
102
RTVSPropertyOp20
 70
     0
102
RTVSPropertyOp21
 70
     0
102
RTVSPropertyOp22
 70
     0
102
RTVSPropertyOp23
 70
     0
102
RTVSPropertyOp24
 70
     0
102
RTVSPropertyOp25
 70
     0
102
RTVSPropertyOp26
 70
     0
102
RTVSPropertyOp27
 70
     0
102
RTVSPropertyOp28
 70
     0
102
RTVSPropertyOp29
 70
     0
102
RTVSPropertyOp30
 70
     0
102
RTVSPropertyOp31
 70
     0
102
RTVSPropertyOp32
 70
     0
102
RTVSPropertyOp33
 70
     0
102
RTVSPropertyOp34
 70
     0
102
RTVSPropertyOp35
 70
     0
102
RTVSPropertyOp36
 70
     0
102
RTVSPropertyOp37
 70
     0
102
RTVSPropertyOp38
 70
     0
102
RTVSPropertyOp39
 70
     0
102
RTVSPropertyOp40
 70
     0
102
RTVSPropertyOp41
 70
     0
102
RTVSPropertyOp42
 70
     0
102
RTVSPropertyOp43
 70
     0
102
RTVSPropertyOp44
 70
     0
102
RTVSPropertyOp45
 70
     0
102
RTVSPropertyOp46
 70
     0
102
RTVSPropertyOp47
 70
     0
102
RTVSPropertyOp48
 70
     0
102
RTVSPropertyOp49
 70
     0
102
RTVSPropertyOp50
 70
     0
102
RTVSPropertyOp51
 70
     0
102
RTVSPropertyOp52
 70
     0
102
RTVSPropertyOp53
 70
     0
102
RTVSPropertyOp54
 70
     0
102
RTVSPropertyOp55
 70
     0
102
RTVSPropertyOp56
 70
     0
102
RTVSPropertyOp57
 70
     0
102
RTVSPost2010Prop28
280
     0
102
RTVSPost2010PropOp28
 70
     0
102
RTVSPost2010Prop29
280
     1
102
RTVSPost2010PropOp29
 70
     0
102
RTVSPost2010Prop30
280
     1
102
RTVSPost2010PropOp30
 70
     0
102
RTVSPost2010Prop31
280
     0
102
RTVSPost2010PropOp31
 70
     0
102
RTVSPost2010Prop32
280
     0
102
RTVSPost2010PropOp32
 70
     0
102
RTVSPost2010Prop33
280
     0
102
RTVSPost2010PropOp33
 70
     0
102
RTVSPost2010Prop34
280
     0
102
RTVSPost2010PropOp34
 70
     0
102
RTVSPost2010Prop35
280
     0
102
RTVSPost2010PropOp35
 70
     0
102
RTVSPost2010Prop36
280
     0
102
RTVSPost2010PropOp36
 70
     0
102
RTVSPost2010Prop37
 90
       50
102
RTVSPost2010PropOp37
 70
     0
102
RTVSPost2010Prop38
140
0.0
102
RTVSPost2010PropOp38
 70
     0
102
RTVSPost2010Prop39
140
1.0
102
RTVSPost2010PropOp39
 70
     0
102
RTVSPost2010Prop40
 90
        0
102
RTVSPost2010PropOp40
 70
     0
102
RTVSPost2010Prop41ColorIndex
 90
       18
102
RTVSPost2010Prop41ColorRGB
 90
        0
102
RTVSPost2010PropOp41
 70
     0
102
RTVSPost2010Prop42
 90
       50
102
RTVSPost2010PropOp42
 70
     0
102
RTVSPost2010Prop43
 90
        3
102
RTVSPost2010PropOp43
 70
     0
102
RTVSPost2010Prop44ColorIndex
 90
        5
102
RTVSPost2010Prop44ColorRGB
 90
      255
102
RTVSPost2010PropOp44
 70
     0
102
RTVSPost2010Prop45
280
     0
102
RTVSPost2010PropOp45
 70
     0
102
RTVSPost2010Prop46
 90
       50
102
RTVSPost2010PropOp46
 70
     0
102
RTVSPost2010Prop47
 90
       50
102
RTVSPost2010PropOp47
 70
     0
102
RTVSPost2010Prop48
 90
       50
102
RTVSPost2010PropOp48
 70
     0
102
RTVSPost2010Prop49
280
     0
102
RTVSPost2010PropOp49
 70
     0
102
RTVSPost2010Prop50
 90
       50
102
RTVSPost2010PropOp50
 70
     0
102
RTVSPost2010Prop51ColorIndex
 90
      256
102
RTVSPost2010Prop51ColorRGB
 90
-16777216
102
RTVSPost2010PropOp51
 70
     0
102
RTVSPost2010Prop52
140
1.0
102
RTVSPost2010PropOp52
 70
     0
102
RTVSPost2010Prop53
 90
        2
102
RTVSPost2010PropOp53
 70
     0
102
RTVSPost2010Prop54
  1
strokes_ogs.tif
102
RTVSPost2010PropOp54
 70
     0
102
RTVSPost2010Prop55
280
     0
102
RTVSPost2010PropOp55
 70
     0
102
RTVSPost2010Prop56
140
1.0
102
RTVSPost2010PropOp56
 70
     0
102
RTVSPost2010Prop57
140
1.0
102
RTVSPost2010PropOp57
 70
     0
  0
XRECORD
  5
819
102
{ACAD_REACTORS
330
818
102
}
330
818
100
AcDbXrecord
280
     1
102
RTVSPropertyOp0
 70
     1
102
RTVSPropertyOp1
 70
     1
102
RTVSPropertyOp2
 70
     1
102
RTVSPropertyOp3
 70
     1
102
RTVSPropertyOp4
 70
     1
102
RTVSPropertyOp5
 70
     1
102
RTVSPropertyOp6
 70
     1
102
RTVSPropertyOp7
 70
     1
102
RTVSPropertyOp8
 70
     1
102
RTVSPropertyOp9
 70
     1
102
RTVSPropertyOp10
 70
     1
102
RTVSPropertyOp11
 70
     1
102
RTVSPropertyOp12
 70
     1
102
RTVSPropertyOp13
 70
     1
102
RTVSPropertyOp14
 70
     1
102
RTVSPropertyOp15
 70
     1
102
RTVSPropertyOp16
 70
     1
102
RTVSPropertyOp17
 70
     1
102
RTVSPropertyOp18
 70
     1
102
RTVSPropertyOp19
 70
     1
102
RTVSPropertyOp20
 70
     1
102
RTVSPropertyOp21
 70
     1
102
RTVSPropertyOp22
 70
     1
102
RTVSPropertyOp23
 70
     1
102
RTVSPropertyOp24
 70
     1
102
RTVSPropertyOp25
 70
     1
102
RTVSPropertyOp26
 70
     1
102
RTVSPropertyOp27
 70
     1
102
RTVSPropertyOp28
 70
     1
102
RTVSPropertyOp29
 70
     1
102
RTVSPropertyOp30
 70
     1
102
RTVSPropertyOp31
 70
     1
102
RTVSPropertyOp32
 70
     1
102
RTVSPropertyOp33
 70
     1
102
RTVSPropertyOp34
 70
     1
102
RTVSPropertyOp35
 70
     1
102
RTVSPropertyOp36
 70
     1
102
RTVSPropertyOp37
 70
     1
102
RTVSPropertyOp38
 70
     1
102
RTVSPropertyOp39
 70
     1
102
RTVSPropertyOp40
 70
     1
102
RTVSPropertyOp41
 70
     1
102
RTVSPropertyOp42
 70
     1
102
RTVSPropertyOp43
 70
     1
102
RTVSPropertyOp44
 70
     1
102
RTVSPropertyOp45
 70
     1
102
RTVSPropertyOp46
 70
     1
102
RTVSPropertyOp47
 70
     1
102
RTVSPropertyOp48
 70
     1
102
RTVSPropertyOp49
 70
     1
102
RTVSPropertyOp50
 70
     1
102
RTVSPropertyOp51
 70
     0
102
RTVSPropertyOp52
 70
     0
102
RTVSPropertyOp53
 70
     1
102
RTVSPropertyOp54
 70
     1
102
RTVSPropertyOp55
 70
     1
102
RTVSPropertyOp56
 70
     1
102
RTVSPropertyOp57
 70
     1
102
RTVSPost2010Prop28
280
     0
102
RTVSPost2010PropOp28
 70
     1
102
RTVSPost2010Prop29
280
     1
102
RTVSPost2010PropOp29
 70
     1
102
RTVSPost2010Prop30
280
     1
102
RTVSPost2010PropOp30
 70
     1
102
RTVSPost2010Prop31
280
     0
102
RTVSPost2010PropOp31
 70
     1
102
RTVSPost2010Prop32
280
     0
102
RTVSPost2010PropOp32
 70
     1
102
RTVSPost2010Prop33
280
     0
102
RTVSPost2010PropOp33
 70
     1
102
RTVSPost2010Prop34
280
     0
102
RTVSPost2010PropOp34
 70
     1
102
RTVSPost2010Prop35
280
     0
102
RTVSPost2010PropOp35
 70
     1
102
RTVSPost2010Prop36
280
     0
102
RTVSPost2010PropOp36
 70
     1
102
RTVSPost2010Prop37
 90
       50
102
RTVSPost2010PropOp37
 70
     1
102
RTVSPost2010Prop38
140
0.0
102
RTVSPost2010PropOp38
 70
     1
102
RTVSPost2010Prop39
140
1.0
102
RTVSPost2010PropOp39
 70
     1
102
RTVSPost2010Prop40
 90
        0
102
RTVSPost2010PropOp40
 70
     1
102
RTVSPost2010Prop41ColorIndex
 90
       18
102
RTVSPost2010Prop41ColorRGB
 90
        0
102
RTVSPost2010PropOp41
 70
     1
102
RTVSPost2010Prop42
 90
       50
102
RTVSPost2010PropOp42
 70
     1
102
RTVSPost2010Prop43
 90
        3
102
RTVSPost2010PropOp43
 70
     1
102
RTVSPost2010Prop44ColorIndex
 90
        5
102
RTVSPost2010Prop44ColorRGB
 90
      255
102
RTVSPost2010PropOp44
 70
     1
102
RTVSPost2010Prop45
280
     0
102
RTVSPost2010PropOp45
 70
     1
102
RTVSPost2010Prop46
 90
       50
102
RTVSPost2010PropOp46
 70
     1
102
RTVSPost2010Prop47
 90
       50
102
RTVSPost2010PropOp47
 70
     1
102
RTVSPost2010Prop48
 90
       50
102
RTVSPost2010PropOp48
 70
     1
102
RTVSPost2010Prop49
280
     0
102
RTVSPost2010PropOp49
 70
     1
102
RTVSPost2010Prop50
 90
       50
102
RTVSPost2010PropOp50
 70
     1
102
RTVSPost2010Prop51ColorIndex
 90
      256
102
RTVSPost2010Prop51ColorRGB
 90
-16777216
102
RTVSPost2010PropOp51
 70
     0
102
RTVSPost2010Prop52
140
1.0
102
RTVSPost2010PropOp52
 70
     0
102
RTVSPost2010Prop53
 90
        2
102
RTVSPost2010PropOp53
 70
     1
102
RTVSPost2010Prop54
  1
strokes_ogs.tif
102
RTVSPost2010PropOp54
 70
     1
102
RTVSPost2010Prop55
280
     0
102
RTVSPost2010PropOp55
 70
     1
102
RTVSPost2010Prop56
140
1.0
102
RTVSPost2010PropOp56
 70
     1
102
RTVSPost2010Prop57
140
1.0
102
RTVSPost2010PropOp57
 70
     1
  0
XRECORD
  5
821
102
{ACAD_REACTORS
330
820
102
}
330
820
100
AcDbXrecord
280
     1
102
RTVSPropertyOp0
 70
     0
102
RTVSPropertyOp1
 70
     0
102
RTVSPropertyOp2
 70
     0
102
RTVSPropertyOp3
 70
     0
102
RTVSPropertyOp4
 70
     0
102
RTVSPropertyOp5
 70
     0
102
RTVSPropertyOp6
 70
     0
102
RTVSPropertyOp7
 70
     0
102
RTVSPropertyOp8
 70
     0
102
RTVSPropertyOp9
 70
     0
102
RTVSPropertyOp10
 70
     0
102
RTVSPropertyOp11
 70
     0
102
RTVSPropertyOp12
 70
     0
102
RTVSPropertyOp13
 70
     0
102
RTVSPropertyOp14
 70
     2
102
RTVSPropertyOp15
 70
     0
102
RTVSPropertyOp16
 70
     0
102
RTVSPropertyOp17
 70
     0
102
RTVSPropertyOp18
 70
     0
102
RTVSPropertyOp19
 70
     0
102
RTVSPropertyOp20
 70
     0
102
RTVSPropertyOp21
 70
     0
102
RTVSPropertyOp22
 70
     0
102
RTVSPropertyOp23
 70
     0
102
RTVSPropertyOp24
 70
     0
102
RTVSPropertyOp25
 70
     0
102
RTVSPropertyOp26
 70
     0
102
RTVSPropertyOp27
 70
     0
102
RTVSPropertyOp28
 70
     0
102
RTVSPropertyOp29
 70
     0
102
RTVSPropertyOp30
 70
     0
102
RTVSPropertyOp31
 70
     0
102
RTVSPropertyOp32
 70
     0
102
RTVSPropertyOp33
 70
     0
102
RTVSPropertyOp34
 70
     0
102
RTVSPropertyOp35
 70
     0
102
RTVSPropertyOp36
 70
     0
102
RTVSPropertyOp37
 70
     0
102
RTVSPropertyOp38
 70
     0
102
RTVSPropertyOp39
 70
     0
102
RTVSPropertyOp40
 70
     0
102
RTVSPropertyOp41
 70
     0
102
RTVSPropertyOp42
 70
     0
102
RTVSPropertyOp43
 70
     0
102
RTVSPropertyOp44
 70
     0
102
RTVSPropertyOp45
 70
     0
102
RTVSPropertyOp46
 70
     0
102
RTVSPropertyOp47
 70
     0
102
RTVSPropertyOp48
 70
     0
102
RTVSPropertyOp49
 70
     0
102
RTVSPropertyOp50
 70
     0
102
RTVSPropertyOp51
 70
     0
102
RTVSPropertyOp52
 70
     0
102
RTVSPropertyOp53
 70
     0
102
RTVSPropertyOp54
 70
     0
102
RTVSPropertyOp55
 70
     0
102
RTVSPropertyOp56
 70
     0
102
RTVSPropertyOp57
 70
     0
102
RTVSPost2010Prop28
280
     0
102
RTVSPost2010PropOp28
 70
     0
102
RTVSPost2010Prop29
280
     1
102
RTVSPost2010PropOp29
 70
     0
102
RTVSPost2010Prop30
280
     1
102
RTVSPost2010PropOp30
 70
     0
102
RTVSPost2010Prop31
280
     0
102
RTVSPost2010PropOp31
 70
     0
102
RTVSPost2010Prop32
280
     0
102
RTVSPost2010PropOp32
 70
     0
102
RTVSPost2010Prop33
280
     0
102
RTVSPost2010PropOp33
 70
     0
102
RTVSPost2010Prop34
280
     0
102
RTVSPost2010PropOp34
 70
     0
102
RTVSPost2010Prop35
280
     0
102
RTVSPost2010PropOp35
 70
     0
102
RTVSPost2010Prop36
280
     0
102
RTVSPost2010PropOp36
 70
     0
102
RTVSPost2010Prop37
 90
       50
102
RTVSPost2010PropOp37
 70
     0
102
RTVSPost2010Prop38
140
0.0
102
RTVSPost2010PropOp38
 70
     0
102
RTVSPost2010Prop39
140
1.0
102
RTVSPost2010PropOp39
 70
     0
102
RTVSPost2010Prop40
 90
        0
102
RTVSPost2010PropOp40
 70
     0
102
RTVSPost2010Prop41ColorIndex
 90
       18
102
RTVSPost2010Prop41ColorRGB
 90
        0
102
RTVSPost2010PropOp41
 70
     0
102
RTVSPost2010Prop42
 90
       50
102
RTVSPost2010PropOp42
 70
     0
102
RTVSPost2010Prop43
 90
        3
102
RTVSPost2010PropOp43
 70
     0
102
RTVSPost2010Prop44ColorIndex
 90
        5
102
RTVSPost2010Prop44ColorRGB
 90
      255
102
RTVSPost2010PropOp44
 70
     0
102
RTVSPost2010Prop45
280
     0
102
RTVSPost2010PropOp45
 70
     0
102
RTVSPost2010Prop46
 90
       50
102
RTVSPost2010PropOp46
 70
     0
102
RTVSPost2010Prop47
 90
       50
102
RTVSPost2010PropOp47
 70
     0
102
RTVSPost2010Prop48
 90
       50
102
RTVSPost2010PropOp48
 70
     0
102
RTVSPost2010Prop49
280
     0
102
RTVSPost2010PropOp49
 70
     0
102
RTVSPost2010Prop50
 90
       50
102
RTVSPost2010PropOp50
 70
     0
102
RTVSPost2010Prop51ColorIndex
 90
      256
102
RTVSPost2010Prop51ColorRGB
 90
-16777216
102
RTVSPost2010PropOp51
 70
     0
102
RTVSPost2010Prop52
140
1.0
102
RTVSPost2010PropOp52
 70
     0
102
RTVSPost2010Prop53
 90
        2
102
RTVSPost2010PropOp53
 70
     0
102
RTVSPost2010Prop54
  1
strokes_ogs.tif
102
RTVSPost2010PropOp54
 70
     0
102
RTVSPost2010Prop55
280
     0
102
RTVSPost2010PropOp55
 70
     0
102
RTVSPost2010Prop56
140
1.0
102
RTVSPost2010PropOp56
 70
     0
102
RTVSPost2010Prop57
140
1.0
102
RTVSPost2010PropOp57
 70
     0
  0
XRECORD
  5
80F
102
{ACAD_REACTORS
330
80E
102
}
330
80E
100
AcDbXrecord
280
     1
102
RTVSPropertyOp0
 70
     1
102
RTVSPropertyOp1
 70
     1
102
RTVSPropertyOp2
 70
     1
102
RTVSPropertyOp3
 70
     1
102
RTVSPropertyOp4
 70
     1
102
RTVSPropertyOp5
 70
     1
102
RTVSPropertyOp6
 70
     1
102
RTVSPropertyOp7
 70
     1
102
RTVSPropertyOp8
 70
     1
102
RTVSPropertyOp9
 70
     1
102
RTVSPropertyOp10
 70
     1
102
RTVSPropertyOp11
 70
     1
102
RTVSPropertyOp12
 70
     1
102
RTVSPropertyOp13
 70
     1
102
RTVSPropertyOp14
 70
     1
102
RTVSPropertyOp15
 70
     1
102
RTVSPropertyOp16
 70
     1
102
RTVSPropertyOp17
 70
     1
102
RTVSPropertyOp18
 70
     1
102
RTVSPropertyOp19
 70
     1
102
RTVSPropertyOp20
 70
     1
102
RTVSPropertyOp21
 70
     1
102
RTVSPropertyOp22
 70
     1
102
RTVSPropertyOp23
 70
     1
102
RTVSPropertyOp24
 70
     1
102
RTVSPropertyOp25
 70
     1
102
RTVSPropertyOp26
 70
     1
102
RTVSPropertyOp27
 70
     1
102
RTVSPropertyOp28
 70
     1
102
RTVSPropertyOp29
 70
     1
102
RTVSPropertyOp30
 70
     1
102
RTVSPropertyOp31
 70
     1
102
RTVSPropertyOp32
 70
     1
102
RTVSPropertyOp33
 70
     1
102
RTVSPropertyOp34
 70
     1
102
RTVSPropertyOp35
 70
     1
102
RTVSPropertyOp36
 70
     1
102
RTVSPropertyOp37
 70
     1
102
RTVSPropertyOp38
 70
     1
102
RTVSPropertyOp39
 70
     1
102
RTVSPropertyOp40
 70
     1
102
RTVSPropertyOp41
 70
     1
102
RTVSPropertyOp42
 70
     1
102
RTVSPropertyOp43
 70
     1
102
RTVSPropertyOp44
 70
     1
102
RTVSPropertyOp45
 70
     1
102
RTVSPropertyOp46
 70
     1
102
RTVSPropertyOp47
 70
     1
102
RTVSPropertyOp48
 70
     1
102
RTVSPropertyOp49
 70
     1
102
RTVSPropertyOp50
 70
     1
102
RTVSPropertyOp51
 70
     0
102
RTVSPropertyOp52
 70
     0
102
RTVSPropertyOp53
 70
     1
102
RTVSPropertyOp54
 70
     1
102
RTVSPropertyOp55
 70
     1
102
RTVSPropertyOp56
 70
     1
102
RTVSPropertyOp57
 70
     1
102
RTVSPost2010Prop28
280
     0
102
RTVSPost2010PropOp28
 70
     1
102
RTVSPost2010Prop29
280
     1
102
RTVSPost2010PropOp29
 70
     1
102
RTVSPost2010Prop30
280
     1
102
RTVSPost2010PropOp30
 70
     1
102
RTVSPost2010Prop31
280
     0
102
RTVSPost2010PropOp31
 70
     1
102
RTVSPost2010Prop32
280
     0
102
RTVSPost2010PropOp32
 70
     1
102
RTVSPost2010Prop33
280
     0
102
RTVSPost2010PropOp33
 70
     1
102
RTVSPost2010Prop34
280
     0
102
RTVSPost2010PropOp34
 70
     1
102
RTVSPost2010Prop35
280
     0
102
RTVSPost2010PropOp35
 70
     1
102
RTVSPost2010Prop36
280
     0
102
RTVSPost2010PropOp36
 70
     1
102
RTVSPost2010Prop37
 90
       50
102
RTVSPost2010PropOp37
 70
     1
102
RTVSPost2010Prop38
140
0.0
102
RTVSPost2010PropOp38
 70
     1
102
RTVSPost2010Prop39
140
1.0
102
RTVSPost2010PropOp39
 70
     1
102
RTVSPost2010Prop40
 90
        0
102
RTVSPost2010PropOp40
 70
     1
102
RTVSPost2010Prop41ColorIndex
 90
       18
102
RTVSPost2010Prop41ColorRGB
 90
        0
102
RTVSPost2010PropOp41
 70
     1
102
RTVSPost2010Prop42
 90
       50
102
RTVSPost2010PropOp42
 70
     1
102
RTVSPost2010Prop43
 90
        3
102
RTVSPost2010PropOp43
 70
     1
102
RTVSPost2010Prop44ColorIndex
 90
        5
102
RTVSPost2010Prop44ColorRGB
 90
      255
102
RTVSPost2010PropOp44
 70
     1
102
RTVSPost2010Prop45
280
     0
102
RTVSPost2010PropOp45
 70
     1
102
RTVSPost2010Prop46
 90
       50
102
RTVSPost2010PropOp46
 70
     1
102
RTVSPost2010Prop47
 90
       50
102
RTVSPost2010PropOp47
 70
     1
102
RTVSPost2010Prop48
 90
       50
102
RTVSPost2010PropOp48
 70
     1
102
RTVSPost2010Prop49
280
     0
102
RTVSPost2010PropOp49
 70
     1
102
RTVSPost2010Prop50
 90
       50
102
RTVSPost2010PropOp50
 70
     1
102
RTVSPost2010Prop51ColorIndex
 90
      256
102
RTVSPost2010Prop51ColorRGB
 90
-16777216
102
RTVSPost2010PropOp51
 70
     0
102
RTVSPost2010Prop52
140
1.0
102
RTVSPost2010PropOp52
 70
     0
102
RTVSPost2010Prop53
 90
        2
102
RTVSPost2010PropOp53
 70
     1
102
RTVSPost2010Prop54
  1
strokes_ogs.tif
102
RTVSPost2010PropOp54
 70
     1
102
RTVSPost2010Prop55
280
     0
102
RTVSPost2010PropOp55
 70
     1
102
RTVSPost2010Prop56
140
1.0
102
RTVSPost2010PropOp56
 70
     1
102
RTVSPost2010Prop57
140
1.0
102
RTVSPost2010PropOp57
 70
     1
  0
XRECORD
  5
82D
102
{ACAD_REACTORS
330
82C
102
}
330
82C
100
AcDbXrecord
280
     1
102
RTVSPropertyOp0
 70
     1
102
RTVSPropertyOp1
 70
     1
102
RTVSPropertyOp2
 70
     1
102
RTVSPropertyOp3
 70
     1
102
RTVSPropertyOp4
 70
     1
102
RTVSPropertyOp5
 70
     1
102
RTVSPropertyOp6
 70
     1
102
RTVSPropertyOp7
 70
     1
102
RTVSPropertyOp8
 70
     1
102
RTVSPropertyOp9
 70
     1
102
RTVSPropertyOp10
 70
     1
102
RTVSPropertyOp11
 70
     1
102
RTVSPropertyOp12
 70
     1
102
RTVSPropertyOp13
 70
     1
102
RTVSPropertyOp14
 70
     1
102
RTVSPropertyOp15
 70
     1
102
RTVSPropertyOp16
 70
     1
102
RTVSPropertyOp17
 70
     1
102
RTVSPropertyOp18
 70
     1
102
RTVSPropertyOp19
 70
     1
102
RTVSPropertyOp20
 70
     1
102
RTVSPropertyOp21
 70
     1
102
RTVSPropertyOp22
 70
     1
102
RTVSPropertyOp23
 70
     1
102
RTVSPropertyOp24
 70
     1
102
RTVSPropertyOp25
 70
     1
102
RTVSPropertyOp26
 70
     1
102
RTVSPropertyOp27
 70
     1
102
RTVSPropertyOp28
 70
     1
102
RTVSPropertyOp29
 70
     1
102
RTVSPropertyOp30
 70
     1
102
RTVSPropertyOp31
 70
     1
102
RTVSPropertyOp32
 70
     1
102
RTVSPropertyOp33
 70
     1
102
RTVSPropertyOp34
 70
     1
102
RTVSPropertyOp35
 70
     1
102
RTVSPropertyOp36
 70
     1
102
RTVSPropertyOp37
 70
     1
102
RTVSPropertyOp38
 70
     1
102
RTVSPropertyOp39
 70
     1
102
RTVSPropertyOp40
 70
     1
102
RTVSPropertyOp41
 70
     1
102
RTVSPropertyOp42
 70
     1
102
RTVSPropertyOp43
 70
     1
102
RTVSPropertyOp44
 70
     1
102
RTVSPropertyOp45
 70
     1
102
RTVSPropertyOp46
 70
     1
102
RTVSPropertyOp47
 70
     1
102
RTVSPropertyOp48
 70
     1
102
RTVSPropertyOp49
 70
     1
102
RTVSPropertyOp50
 70
     1
102
RTVSPropertyOp51
 70
     0
102
RTVSPropertyOp52
 70
     0
102
RTVSPropertyOp53
 70
     1
102
RTVSPropertyOp54
 70
     1
102
RTVSPropertyOp55
 70
     1
102
RTVSPropertyOp56
 70
     1
102
RTVSPropertyOp57
 70
     1
102
RTVSPost2010Prop28
280
     0
102
RTVSPost2010PropOp28
 70
     1
102
RTVSPost2010Prop29
280
     1
102
RTVSPost2010PropOp29
 70
     1
102
RTVSPost2010Prop30
280
     1
102
RTVSPost2010PropOp30
 70
     1
102
RTVSPost2010Prop31
280
     0
102
RTVSPost2010PropOp31
 70
     1
102
RTVSPost2010Prop32
280
     0
102
RTVSPost2010PropOp32
 70
     1
102
RTVSPost2010Prop33
280
     0
102
RTVSPost2010PropOp33
 70
     1
102
RTVSPost2010Prop34
280
     0
102
RTVSPost2010PropOp34
 70
     1
102
RTVSPost2010Prop35
280
     0
102
RTVSPost2010PropOp35
 70
     1
102
RTVSPost2010Prop36
280
     0
102
RTVSPost2010PropOp36
 70
     1
102
RTVSPost2010Prop37
 90
       50
102
RTVSPost2010PropOp37
 70
     1
102
RTVSPost2010Prop38
140
0.0
102
RTVSPost2010PropOp38
 70
     1
102
RTVSPost2010Prop39
140
1.0
102
RTVSPost2010PropOp39
 70
     1
102
RTVSPost2010Prop40
 90
        0
102
RTVSPost2010PropOp40
 70
     1
102
RTVSPost2010Prop41ColorIndex
 90
       18
102
RTVSPost2010Prop41ColorRGB
 90
        0
102
RTVSPost2010PropOp41
 70
     1
102
RTVSPost2010Prop42
 90
       50
102
RTVSPost2010PropOp42
 70
     1
102
RTVSPost2010Prop43
 90
        3
102
RTVSPost2010PropOp43
 70
     1
102
RTVSPost2010Prop44ColorIndex
 90
        5
102
RTVSPost2010Prop44ColorRGB
 90
      255
102
RTVSPost2010PropOp44
 70
     1
102
RTVSPost2010Prop45
280
     0
102
RTVSPost2010PropOp45
 70
     1
102
RTVSPost2010Prop46
 90
       50
102
RTVSPost2010PropOp46
 70
     1
102
RTVSPost2010Prop47
 90
       50
102
RTVSPost2010PropOp47
 70
     1
102
RTVSPost2010Prop48
 90
       50
102
RTVSPost2010PropOp48
 70
     1
102
RTVSPost2010Prop49
280
     0
102
RTVSPost2010PropOp49
 70
     1
102
RTVSPost2010Prop50
 90
       50
102
RTVSPost2010PropOp50
 70
     1
102
RTVSPost2010Prop51ColorIndex
 90
      256
102
RTVSPost2010Prop51ColorRGB
 90
-16777216
102
RTVSPost2010PropOp51
 70
     0
102
RTVSPost2010Prop52
140
1.0
102
RTVSPost2010PropOp52
 70
     0
102
RTVSPost2010Prop53
 90
        2
102
RTVSPost2010PropOp53
 70
     1
102
RTVSPost2010Prop54
  1
strokes_ogs.tif
102
RTVSPost2010PropOp54
 70
     1
102
RTVSPost2010Prop55
280
     0
102
RTVSPost2010PropOp55
 70
     1
102
RTVSPost2010Prop56
140
1.0
102
RTVSPost2010PropOp56
 70
     1
102
RTVSPost2010Prop57
140
1.0
102
RTVSPost2010PropOp57
 70
     1
  0
XRECORD
  5
82B
102
{ACAD_REACTORS
330
82A
102
}
330
82A
100
AcDbXrecord
280
     1
102
RTVSPropertyOp0
 70
     1
102
RTVSPropertyOp1
 70
     1
102
RTVSPropertyOp2
 70
     1
102
RTVSPropertyOp3
 70
     1
102
RTVSPropertyOp4
 70
     1
102
RTVSPropertyOp5
 70
     1
102
RTVSPropertyOp6
 70
     1
102
RTVSPropertyOp7
 70
     1
102
RTVSPropertyOp8
 70
     1
102
RTVSPropertyOp9
 70
     1
102
RTVSPropertyOp10
 70
     1
102
RTVSPropertyOp11
 70
     1
102
RTVSPropertyOp12
 70
     1
102
RTVSPropertyOp13
 70
     1
102
RTVSPropertyOp14
 70
     1
102
RTVSPropertyOp15
 70
     1
102
RTVSPropertyOp16
 70
     1
102
RTVSPropertyOp17
 70
     1
102
RTVSPropertyOp18
 70
     1
102
RTVSPropertyOp19
 70
     1
102
RTVSPropertyOp20
 70
     1
102
RTVSPropertyOp21
 70
     1
102
RTVSPropertyOp22
 70
     1
102
RTVSPropertyOp23
 70
     1
102
RTVSPropertyOp24
 70
     1
102
RTVSPropertyOp25
 70
     1
102
RTVSPropertyOp26
 70
     1
102
RTVSPropertyOp27
 70
     1
102
RTVSPropertyOp28
 70
     1
102
RTVSPropertyOp29
 70
     1
102
RTVSPropertyOp30
 70
     1
102
RTVSPropertyOp31
 70
     1
102
RTVSPropertyOp32
 70
     1
102
RTVSPropertyOp33
 70
     1
102
RTVSPropertyOp34
 70
     1
102
RTVSPropertyOp35
 70
     1
102
RTVSPropertyOp36
 70
     1
102
RTVSPropertyOp37
 70
     1
102
RTVSPropertyOp38
 70
     1
102
RTVSPropertyOp39
 70
     1
102
RTVSPropertyOp40
 70
     1
102
RTVSPropertyOp41
 70
     1
102
RTVSPropertyOp42
 70
     1
102
RTVSPropertyOp43
 70
     1
102
RTVSPropertyOp44
 70
     1
102
RTVSPropertyOp45
 70
     1
102
RTVSPropertyOp46
 70
     1
102
RTVSPropertyOp47
 70
     1
102
RTVSPropertyOp48
 70
     1
102
RTVSPropertyOp49
 70
     1
102
RTVSPropertyOp50
 70
     1
102
RTVSPropertyOp51
 70
     0
102
RTVSPropertyOp52
 70
     0
102
RTVSPropertyOp53
 70
     1
102
RTVSPropertyOp54
 70
     1
102
RTVSPropertyOp55
 70
     1
102
RTVSPropertyOp56
 70
     1
102
RTVSPropertyOp57
 70
     1
102
RTVSPost2010Prop28
280
     0
102
RTVSPost2010PropOp28
 70
     1
102
RTVSPost2010Prop29
280
     1
102
RTVSPost2010PropOp29
 70
     1
102
RTVSPost2010Prop30
280
     1
102
RTVSPost2010PropOp30
 70
     1
102
RTVSPost2010Prop31
280
     0
102
RTVSPost2010PropOp31
 70
     1
102
RTVSPost2010Prop32
280
     0
102
RTVSPost2010PropOp32
 70
     1
102
RTVSPost2010Prop33
280
     0
102
RTVSPost2010PropOp33
 70
     1
102
RTVSPost2010Prop34
280
     0
102
RTVSPost2010PropOp34
 70
     1
102
RTVSPost2010Prop35
280
     0
102
RTVSPost2010PropOp35
 70
     1
102
RTVSPost2010Prop36
280
     0
102
RTVSPost2010PropOp36
 70
     1
102
RTVSPost2010Prop37
 90
       50
102
RTVSPost2010PropOp37
 70
     1
102
RTVSPost2010Prop38
140
0.0
102
RTVSPost2010PropOp38
 70
     1
102
RTVSPost2010Prop39
140
1.0
102
RTVSPost2010PropOp39
 70
     1
102
RTVSPost2010Prop40
 90
        0
102
RTVSPost2010PropOp40
 70
     1
102
RTVSPost2010Prop41ColorIndex
 90
       18
102
RTVSPost2010Prop41ColorRGB
 90
        0
102
RTVSPost2010PropOp41
 70
     1
102
RTVSPost2010Prop42
 90
       50
102
RTVSPost2010PropOp42
 70
     1
102
RTVSPost2010Prop43
 90
        3
102
RTVSPost2010PropOp43
 70
     1
102
RTVSPost2010Prop44ColorIndex
 90
        5
102
RTVSPost2010Prop44ColorRGB
 90
      255
102
RTVSPost2010PropOp44
 70
     1
102
RTVSPost2010Prop45
280
     0
102
RTVSPost2010PropOp45
 70
     1
102
RTVSPost2010Prop46
 90
       50
102
RTVSPost2010PropOp46
 70
     1
102
RTVSPost2010Prop47
 90
       50
102
RTVSPost2010PropOp47
 70
     1
102
RTVSPost2010Prop48
 90
       50
102
RTVSPost2010PropOp48
 70
     1
102
RTVSPost2010Prop49
280
     0
102
RTVSPost2010PropOp49
 70
     1
102
RTVSPost2010Prop50
 90
       50
102
RTVSPost2010PropOp50
 70
     1
102
RTVSPost2010Prop51ColorIndex
 90
      256
102
RTVSPost2010Prop51ColorRGB
 90
-16777216
102
RTVSPost2010PropOp51
 70
     0
102
RTVSPost2010Prop52
140
1.0
102
RTVSPost2010PropOp52
 70
     0
102
RTVSPost2010Prop53
 90
        2
102
RTVSPost2010PropOp53
 70
     1
102
RTVSPost2010Prop54
  1
strokes_ogs.tif
102
RTVSPost2010PropOp54
 70
     1
102
RTVSPost2010Prop55
280
     0
102
RTVSPost2010PropOp55
 70
     1
102
RTVSPost2010Prop56
140
1.0
102
RTVSPost2010PropOp56
 70
     1
102
RTVSPost2010Prop57
140
1.0
102
RTVSPost2010PropOp57
 70
     1
  0
XRECORD
  5
825
102
{ACAD_REACTORS
330
824
102
}
330
824
100
AcDbXrecord
280
     1
102
RTVSPropertyOp0
 70
     1
102
RTVSPropertyOp1
 70
     1
102
RTVSPropertyOp2
 70
     1
102
RTVSPropertyOp3
 70
     1
102
RTVSPropertyOp4
 70
     1
102
RTVSPropertyOp5
 70
     1
102
RTVSPropertyOp6
 70
     1
102
RTVSPropertyOp7
 70
     1
102
RTVSPropertyOp8
 70
     1
102
RTVSPropertyOp9
 70
     1
102
RTVSPropertyOp10
 70
     1
102
RTVSPropertyOp11
 70
     1
102
RTVSPropertyOp12
 70
     1
102
RTVSPropertyOp13
 70
     1
102
RTVSPropertyOp14
 70
     1
102
RTVSPropertyOp15
 70
     1
102
RTVSPropertyOp16
 70
     1
102
RTVSPropertyOp17
 70
     1
102
RTVSPropertyOp18
 70
     1
102
RTVSPropertyOp19
 70
     1
102
RTVSPropertyOp20
 70
     1
102
RTVSPropertyOp21
 70
     1
102
RTVSPropertyOp22
 70
     1
102
RTVSPropertyOp23
 70
     1
102
RTVSPropertyOp24
 70
     1
102
RTVSPropertyOp25
 70
     1
102
RTVSPropertyOp26
 70
     1
102
RTVSPropertyOp27
 70
     1
102
RTVSPropertyOp28
 70
     1
102
RTVSPropertyOp29
 70
     1
102
RTVSPropertyOp30
 70
     1
102
RTVSPropertyOp31
 70
     1
102
RTVSPropertyOp32
 70
     1
102
RTVSPropertyOp33
 70
     1
102
RTVSPropertyOp34
 70
     1
102
RTVSPropertyOp35
 70
     1
102
RTVSPropertyOp36
 70
     1
102
RTVSPropertyOp37
 70
     1
102
RTVSPropertyOp38
 70
     1
102
RTVSPropertyOp39
 70
     1
102
RTVSPropertyOp40
 70
     1
102
RTVSPropertyOp41
 70
     1
102
RTVSPropertyOp42
 70
     1
102
RTVSPropertyOp43
 70
     1
102
RTVSPropertyOp44
 70
     1
102
RTVSPropertyOp45
 70
     1
102
RTVSPropertyOp46
 70
     1
102
RTVSPropertyOp47
 70
     1
102
RTVSPropertyOp48
 70
     1
102
RTVSPropertyOp49
 70
     1
102
RTVSPropertyOp50
 70
     1
102
RTVSPropertyOp51
 70
     0
102
RTVSPropertyOp52
 70
     0
102
RTVSPropertyOp53
 70
     1
102
RTVSPropertyOp54
 70
     1
102
RTVSPropertyOp55
 70
     1
102
RTVSPropertyOp56
 70
     1
102
RTVSPropertyOp57
 70
     1
102
RTVSPost2010Prop28
280
     0
102
RTVSPost2010PropOp28
 70
     1
102
RTVSPost2010Prop29
280
     1
102
RTVSPost2010PropOp29
 70
     1
102
RTVSPost2010Prop30
280
     1
102
RTVSPost2010PropOp30
 70
     1
102
RTVSPost2010Prop31
280
     0
102
RTVSPost2010PropOp31
 70
     1
102
RTVSPost2010Prop32
280
     0
102
RTVSPost2010PropOp32
 70
     1
102
RTVSPost2010Prop33
280
     0
102
RTVSPost2010PropOp33
 70
     1
102
RTVSPost2010Prop34
280
     0
102
RTVSPost2010PropOp34
 70
     1
102
RTVSPost2010Prop35
280
     0
102
RTVSPost2010PropOp35
 70
     1
102
RTVSPost2010Prop36
280
     0
102
RTVSPost2010PropOp36
 70
     1
102
RTVSPost2010Prop37
 90
       50
102
RTVSPost2010PropOp37
 70
     1
102
RTVSPost2010Prop38
140
0.0
102
RTVSPost2010PropOp38
 70
     1
102
RTVSPost2010Prop39
140
1.0
102
RTVSPost2010PropOp39
 70
     1
102
RTVSPost2010Prop40
 90
        0
102
RTVSPost2010PropOp40
 70
     1
102
RTVSPost2010Prop41ColorIndex
 90
       18
102
RTVSPost2010Prop41ColorRGB
 90
        0
102
RTVSPost2010PropOp41
 70
     1
102
RTVSPost2010Prop42
 90
       50
102
RTVSPost2010PropOp42
 70
     1
102
RTVSPost2010Prop43
 90
        3
102
RTVSPost2010PropOp43
 70
     1
102
RTVSPost2010Prop44ColorIndex
 90
        5
102
RTVSPost2010Prop44ColorRGB
 90
      255
102
RTVSPost2010PropOp44
 70
     1
102
RTVSPost2010Prop45
280
     0
102
RTVSPost2010PropOp45
 70
     1
102
RTVSPost2010Prop46
 90
       50
102
RTVSPost2010PropOp46
 70
     1
102
RTVSPost2010Prop47
 90
       50
102
RTVSPost2010PropOp47
 70
     1
102
RTVSPost2010Prop48
 90
       50
102
RTVSPost2010PropOp48
 70
     1
102
RTVSPost2010Prop49
280
     0
102
RTVSPost2010PropOp49
 70
     1
102
RTVSPost2010Prop50
 90
       50
102
RTVSPost2010PropOp50
 70
     1
102
RTVSPost2010Prop51ColorIndex
 90
      256
102
RTVSPost2010Prop51ColorRGB
 90
-16777216
102
RTVSPost2010PropOp51
 70
     0
102
RTVSPost2010Prop52
140
1.0
102
RTVSPost2010PropOp52
 70
     0
102
RTVSPost2010Prop53
 90
        2
102
RTVSPost2010PropOp53
 70
     1
102
RTVSPost2010Prop54
  1
strokes_ogs.tif
102
RTVSPost2010PropOp54
 70
     1
102
RTVSPost2010Prop55
280
     0
102
RTVSPost2010PropOp55
 70
     1
102
RTVSPost2010Prop56
140
1.0
102
RTVSPost2010PropOp56
 70
     1
102
RTVSPost2010Prop57
140
1.0
102
RTVSPost2010PropOp57
 70
     1
  0
XRECORD
  5
827
102
{ACAD_REACTORS
330
826
102
}
330
826
100
AcDbXrecord
280
     1
102
RTVSPropertyOp0
 70
     1
102
RTVSPropertyOp1
 70
     1
102
RTVSPropertyOp2
 70
     1
102
RTVSPropertyOp3
 70
     1
102
RTVSPropertyOp4
 70
     1
102
RTVSPropertyOp5
 70
     1
102
RTVSPropertyOp6
 70
     1
102
RTVSPropertyOp7
 70
     1
102
RTVSPropertyOp8
 70
     1
102
RTVSPropertyOp9
 70
     1
102
RTVSPropertyOp10
 70
     1
102
RTVSPropertyOp11
 70
     1
102
RTVSPropertyOp12
 70
     1
102
RTVSPropertyOp13
 70
     1
102
RTVSPropertyOp14
 70
     1
102
RTVSPropertyOp15
 70
     1
102
RTVSPropertyOp16
 70
     1
102
RTVSPropertyOp17
 70
     1
102
RTVSPropertyOp18
 70
     1
102
RTVSPropertyOp19
 70
     1
102
RTVSPropertyOp20
 70
     1
102
RTVSPropertyOp21
 70
     1
102
RTVSPropertyOp22
 70
     1
102
RTVSPropertyOp23
 70
     1
102
RTVSPropertyOp24
 70
     1
102
RTVSPropertyOp25
 70
     1
102
RTVSPropertyOp26
 70
     1
102
RTVSPropertyOp27
 70
     1
102
RTVSPropertyOp28
 70
     1
102
RTVSPropertyOp29
 70
     1
102
RTVSPropertyOp30
 70
     1
102
RTVSPropertyOp31
 70
     1
102
RTVSPropertyOp32
 70
     1
102
RTVSPropertyOp33
 70
     1
102
RTVSPropertyOp34
 70
     1
102
RTVSPropertyOp35
 70
     1
102
RTVSPropertyOp36
 70
     1
102
RTVSPropertyOp37
 70
     1
102
RTVSPropertyOp38
 70
     1
102
RTVSPropertyOp39
 70
     1
102
RTVSPropertyOp40
 70
     1
102
RTVSPropertyOp41
 70
     1
102
RTVSPropertyOp42
 70
     1
102
RTVSPropertyOp43
 70
     1
102
RTVSPropertyOp44
 70
     1
102
RTVSPropertyOp45
 70
     1
102
RTVSPropertyOp46
 70
     1
102
RTVSPropertyOp47
 70
     1
102
RTVSPropertyOp48
 70
     1
102
RTVSPropertyOp49
 70
     1
102
RTVSPropertyOp50
 70
     1
102
RTVSPropertyOp51
 70
     0
102
RTVSPropertyOp52
 70
     0
102
RTVSPropertyOp53
 70
     1
102
RTVSPropertyOp54
 70
     1
102
RTVSPropertyOp55
 70
     1
102
RTVSPropertyOp56
 70
     1
102
RTVSPropertyOp57
 70
     1
102
RTVSPost2010Prop28
280
     0
102
RTVSPost2010PropOp28
 70
     1
102
RTVSPost2010Prop29
280
     1
102
RTVSPost2010PropOp29
 70
     1
102
RTVSPost2010Prop30
280
     1
102
RTVSPost2010PropOp30
 70
     1
102
RTVSPost2010Prop31
280
     0
102
RTVSPost2010PropOp31
 70
     1
102
RTVSPost2010Prop32
280
     0
102
RTVSPost2010PropOp32
 70
     1
102
RTVSPost2010Prop33
280
     0
102
RTVSPost2010PropOp33
 70
     1
102
RTVSPost2010Prop34
280
     0
102
RTVSPost2010PropOp34
 70
     1
102
RTVSPost2010Prop35
280
     0
102
RTVSPost2010PropOp35
 70
     1
102
RTVSPost2010Prop36
280
     0
102
RTVSPost2010PropOp36
 70
     1
102
RTVSPost2010Prop37
 90
       50
102
RTVSPost2010PropOp37
 70
     1
102
RTVSPost2010Prop38
140
0.0
102
RTVSPost2010PropOp38
 70
     1
102
RTVSPost2010Prop39
140
1.0
102
RTVSPost2010PropOp39
 70
     1
102
RTVSPost2010Prop40
 90
        0
102
RTVSPost2010PropOp40
 70
     1
102
RTVSPost2010Prop41ColorIndex
 90
       18
102
RTVSPost2010Prop41ColorRGB
 90
        0
102
RTVSPost2010PropOp41
 70
     1
102
RTVSPost2010Prop42
 90
       50
102
RTVSPost2010PropOp42
 70
     1
102
RTVSPost2010Prop43
 90
        3
102
RTVSPost2010PropOp43
 70
     1
102
RTVSPost2010Prop44ColorIndex
 90
        5
102
RTVSPost2010Prop44ColorRGB
 90
      255
102
RTVSPost2010PropOp44
 70
     1
102
RTVSPost2010Prop45
280
     0
102
RTVSPost2010PropOp45
 70
     1
102
RTVSPost2010Prop46
 90
       50
102
RTVSPost2010PropOp46
 70
     1
102
RTVSPost2010Prop47
 90
       50
102
RTVSPost2010PropOp47
 70
     1
102
RTVSPost2010Prop48
 90
       50
102
RTVSPost2010PropOp48
 70
     1
102
RTVSPost2010Prop49
280
     0
102
RTVSPost2010PropOp49
 70
     1
102
RTVSPost2010Prop50
 90
       50
102
RTVSPost2010PropOp50
 70
     1
102
RTVSPost2010Prop51ColorIndex
 90
      256
102
RTVSPost2010Prop51ColorRGB
 90
-16777216
102
RTVSPost2010PropOp51
 70
     0
102
RTVSPost2010Prop52
140
1.0
102
RTVSPost2010PropOp52
 70
     0
102
RTVSPost2010Prop53
 90
        2
102
RTVSPost2010PropOp53
 70
     1
102
RTVSPost2010Prop54
  1
strokes_ogs.tif
102
RTVSPost2010PropOp54
 70
     1
102
RTVSPost2010Prop55
280
     0
102
RTVSPost2010PropOp55
 70
     1
102
RTVSPost2010Prop56
140
1.0
102
RTVSPost2010PropOp56
 70
     1
102
RTVSPost2010Prop57
140
1.0
102
RTVSPost2010PropOp57
 70
     1
  0
XRECORD
  5
817
102
{ACAD_REACTORS
330
816
102
}
330
816
100
AcDbXrecord
280
     1
102
RTVSPropertyOp0
 70
     1
102
RTVSPropertyOp1
 70
     1
102
RTVSPropertyOp2
 70
     1
102
RTVSPropertyOp3
 70
     1
102
RTVSPropertyOp4
 70
     1
102
RTVSPropertyOp5
 70
     1
102
RTVSPropertyOp6
 70
     1
102
RTVSPropertyOp7
 70
     1
102
RTVSPropertyOp8
 70
     1
102
RTVSPropertyOp9
 70
     1
102
RTVSPropertyOp10
 70
     1
102
RTVSPropertyOp11
 70
     1
102
RTVSPropertyOp12
 70
     1
102
RTVSPropertyOp13
 70
     1
102
RTVSPropertyOp14
 70
     1
102
RTVSPropertyOp15
 70
     1
102
RTVSPropertyOp16
 70
     1
102
RTVSPropertyOp17
 70
     1
102
RTVSPropertyOp18
 70
     1
102
RTVSPropertyOp19
 70
     1
102
RTVSPropertyOp20
 70
     1
102
RTVSPropertyOp21
 70
     1
102
RTVSPropertyOp22
 70
     1
102
RTVSPropertyOp23
 70
     1
102
RTVSPropertyOp24
 70
     1
102
RTVSPropertyOp25
 70
     1
102
RTVSPropertyOp26
 70
     1
102
RTVSPropertyOp27
 70
     1
102
RTVSPropertyOp28
 70
     1
102
RTVSPropertyOp29
 70
     1
102
RTVSPropertyOp30
 70
     1
102
RTVSPropertyOp31
 70
     1
102
RTVSPropertyOp32
 70
     1
102
RTVSPropertyOp33
 70
     1
102
RTVSPropertyOp34
 70
     1
102
RTVSPropertyOp35
 70
     1
102
RTVSPropertyOp36
 70
     1
102
RTVSPropertyOp37
 70
     1
102
RTVSPropertyOp38
 70
     1
102
RTVSPropertyOp39
 70
     1
102
RTVSPropertyOp40
 70
     1
102
RTVSPropertyOp41
 70
     1
102
RTVSPropertyOp42
 70
     1
102
RTVSPropertyOp43
 70
     1
102
RTVSPropertyOp44
 70
     1
102
RTVSPropertyOp45
 70
     1
102
RTVSPropertyOp46
 70
     1
102
RTVSPropertyOp47
 70
     1
102
RTVSPropertyOp48
 70
     1
102
RTVSPropertyOp49
 70
     1
102
RTVSPropertyOp50
 70
     1
102
RTVSPropertyOp51
 70
     0
102
RTVSPropertyOp52
 70
     0
102
RTVSPropertyOp53
 70
     1
102
RTVSPropertyOp54
 70
     1
102
RTVSPropertyOp55
 70
     1
102
RTVSPropertyOp56
 70
     1
102
RTVSPropertyOp57
 70
     1
102
RTVSPost2010Prop28
280
     0
102
RTVSPost2010PropOp28
 70
     1
102
RTVSPost2010Prop29
280
     1
102
RTVSPost2010PropOp29
 70
     1
102
RTVSPost2010Prop30
280
     1
102
RTVSPost2010PropOp30
 70
     1
102
RTVSPost2010Prop31
280
     0
102
RTVSPost2010PropOp31
 70
     1
102
RTVSPost2010Prop32
280
     0
102
RTVSPost2010PropOp32
 70
     1
102
RTVSPost2010Prop33
280
     0
102
RTVSPost2010PropOp33
 70
     1
102
RTVSPost2010Prop34
280
     0
102
RTVSPost2010PropOp34
 70
     1
102
RTVSPost2010Prop35
280
     0
102
RTVSPost2010PropOp35
 70
     1
102
RTVSPost2010Prop36
280
     0
102
RTVSPost2010PropOp36
 70
     1
102
RTVSPost2010Prop37
 90
       50
102
RTVSPost2010PropOp37
 70
     1
102
RTVSPost2010Prop38
140
0.0
102
RTVSPost2010PropOp38
 70
     1
102
RTVSPost2010Prop39
140
1.0
102
RTVSPost2010PropOp39
 70
     1
102
RTVSPost2010Prop40
 90
        0
102
RTVSPost2010PropOp40
 70
     1
102
RTVSPost2010Prop41ColorIndex
 90
       18
102
RTVSPost2010Prop41ColorRGB
 90
        0
102
RTVSPost2010PropOp41
 70
     1
102
RTVSPost2010Prop42
 90
       50
102
RTVSPost2010PropOp42
 70
     1
102
RTVSPost2010Prop43
 90
        3
102
RTVSPost2010PropOp43
 70
     1
102
RTVSPost2010Prop44ColorIndex
 90
        5
102
RTVSPost2010Prop44ColorRGB
 90
      255
102
RTVSPost2010PropOp44
 70
     1
102
RTVSPost2010Prop45
280
     0
102
RTVSPost2010PropOp45
 70
     1
102
RTVSPost2010Prop46
 90
       50
102
RTVSPost2010PropOp46
 70
     1
102
RTVSPost2010Prop47
 90
       50
102
RTVSPost2010PropOp47
 70
     1
102
RTVSPost2010Prop48
 90
       50
102
RTVSPost2010PropOp48
 70
     1
102
RTVSPost2010Prop49
280
     0
102
RTVSPost2010PropOp49
 70
     1
102
RTVSPost2010Prop50
 90
       50
102
RTVSPost2010PropOp50
 70
     1
102
RTVSPost2010Prop51ColorIndex
 90
      256
102
RTVSPost2010Prop51ColorRGB
 90
-16777216
102
RTVSPost2010PropOp51
 70
     0
102
RTVSPost2010Prop52
140
1.0
102
RTVSPost2010PropOp52
 70
     0
102
RTVSPost2010Prop53
 90
        2
102
RTVSPost2010PropOp53
 70
     1
102
RTVSPost2010Prop54
  1
strokes_ogs.tif
102
RTVSPost2010PropOp54
 70
     1
102
RTVSPost2010Prop55
280
     0
102
RTVSPost2010PropOp55
 70
     1
102
RTVSPost2010Prop56
140
1.0
102
RTVSPost2010PropOp56
 70
     1
102
RTVSPost2010Prop57
140
1.0
102
RTVSPost2010PropOp57
 70
     1
  0
XRECORD
  5
809
102
{ACAD_REACTORS
330
808
102
}
330
808
100
AcDbXrecord
280
     1
102
RTVSPropertyOp0
 70
     1
102
RTVSPropertyOp1
 70
     1
102
RTVSPropertyOp2
 70
     1
102
RTVSPropertyOp3
 70
     1
102
RTVSPropertyOp4
 70
     1
102
RTVSPropertyOp5
 70
     1
102
RTVSPropertyOp6
 70
     1
102
RTVSPropertyOp7
 70
     1
102
RTVSPropertyOp8
 70
     1
102
RTVSPropertyOp9
 70
     1
102
RTVSPropertyOp10
 70
     1
102
RTVSPropertyOp11
 70
     1
102
RTVSPropertyOp12
 70
     1
102
RTVSPropertyOp13
 70
     1
102
RTVSPropertyOp14
 70
     1
102
RTVSPropertyOp15
 70
     1
102
RTVSPropertyOp16
 70
     1
102
RTVSPropertyOp17
 70
     1
102
RTVSPropertyOp18
 70
     1
102
RTVSPropertyOp19
 70
     1
102
RTVSPropertyOp20
 70
     1
102
RTVSPropertyOp21
 70
     1
102
RTVSPropertyOp22
 70
     1
102
RTVSPropertyOp23
 70
     1
102
RTVSPropertyOp24
 70
     1
102
RTVSPropertyOp25
 70
     1
102
RTVSPropertyOp26
 70
     1
102
RTVSPropertyOp27
 70
     1
102
RTVSPropertyOp28
 70
     1
102
RTVSPropertyOp29
 70
     1
102
RTVSPropertyOp30
 70
     1
102
RTVSPropertyOp31
 70
     1
102
RTVSPropertyOp32
 70
     1
102
RTVSPropertyOp33
 70
     1
102
RTVSPropertyOp34
 70
     1
102
RTVSPropertyOp35
 70
     1
102
RTVSPropertyOp36
 70
     1
102
RTVSPropertyOp37
 70
     1
102
RTVSPropertyOp38
 70
     1
102
RTVSPropertyOp39
 70
     1
102
RTVSPropertyOp40
 70
     1
102
RTVSPropertyOp41
 70
     1
102
RTVSPropertyOp42
 70
     1
102
RTVSPropertyOp43
 70
     1
102
RTVSPropertyOp44
 70
     1
102
RTVSPropertyOp45
 70
     1
102
RTVSPropertyOp46
 70
     1
102
RTVSPropertyOp47
 70
     1
102
RTVSPropertyOp48
 70
     1
102
RTVSPropertyOp49
 70
     1
102
RTVSPropertyOp50
 70
     1
102
RTVSPropertyOp51
 70
     0
102
RTVSPropertyOp52
 70
     0
102
RTVSPropertyOp53
 70
     1
102
RTVSPropertyOp54
 70
     1
102
RTVSPropertyOp55
 70
     1
102
RTVSPropertyOp56
 70
     1
102
RTVSPropertyOp57
 70
     1
102
RTVSPost2010Prop28
280
     0
102
RTVSPost2010PropOp28
 70
     1
102
RTVSPost2010Prop29
280
     1
102
RTVSPost2010PropOp29
 70
     1
102
RTVSPost2010Prop30
280
     1
102
RTVSPost2010PropOp30
 70
     1
102
RTVSPost2010Prop31
280
     0
102
RTVSPost2010PropOp31
 70
     1
102
RTVSPost2010Prop32
280
     0
102
RTVSPost2010PropOp32
 70
     1
102
RTVSPost2010Prop33
280
     0
102
RTVSPost2010PropOp33
 70
     1
102
RTVSPost2010Prop34
280
     0
102
RTVSPost2010PropOp34
 70
     1
102
RTVSPost2010Prop35
280
     0
102
RTVSPost2010PropOp35
 70
     1
102
RTVSPost2010Prop36
280
     0
102
RTVSPost2010PropOp36
 70
     1
102
RTVSPost2010Prop37
 90
       50
102
RTVSPost2010PropOp37
 70
     1
102
RTVSPost2010Prop38
140
0.0
102
RTVSPost2010PropOp38
 70
     1
102
RTVSPost2010Prop39
140
1.0
102
RTVSPost2010PropOp39
 70
     1
102
RTVSPost2010Prop40
 90
        0
102
RTVSPost2010PropOp40
 70
     1
102
RTVSPost2010Prop41ColorIndex
 90
       18
102
RTVSPost2010Prop41ColorRGB
 90
        0
102
RTVSPost2010PropOp41
 70
     1
102
RTVSPost2010Prop42
 90
       50
102
RTVSPost2010PropOp42
 70
     1
102
RTVSPost2010Prop43
 90
        3
102
RTVSPost2010PropOp43
 70
     1
102
RTVSPost2010Prop44ColorIndex
 90
        5
102
RTVSPost2010Prop44ColorRGB
 90
      255
102
RTVSPost2010PropOp44
 70
     1
102
RTVSPost2010Prop45
280
     0
102
RTVSPost2010PropOp45
 70
     1
102
RTVSPost2010Prop46
 90
       50
102
RTVSPost2010PropOp46
 70
     1
102
RTVSPost2010Prop47
 90
       50
102
RTVSPost2010PropOp47
 70
     1
102
RTVSPost2010Prop48
 90
       50
102
RTVSPost2010PropOp48
 70
     1
102
RTVSPost2010Prop49
280
     0
102
RTVSPost2010PropOp49
 70
     1
102
RTVSPost2010Prop50
 90
       50
102
RTVSPost2010PropOp50
 70
     1
102
RTVSPost2010Prop51ColorIndex
 90
      256
102
RTVSPost2010Prop51ColorRGB
 90
-16777216
102
RTVSPost2010PropOp51
 70
     0
102
RTVSPost2010Prop52
140
1.0
102
RTVSPost2010PropOp52
 70
     0
102
RTVSPost2010Prop53
 90
        2
102
RTVSPost2010PropOp53
 70
     1
102
RTVSPost2010Prop54
  1
strokes_ogs.tif
102
RTVSPost2010PropOp54
 70
     1
102
RTVSPost2010Prop55
280
     0
102
RTVSPost2010PropOp55
 70
     1
102
RTVSPost2010Prop56
140
1.0
102
RTVSPost2010PropOp56
 70
     1
102
RTVSPost2010Prop57
140
1.0
102
RTVSPost2010PropOp57
 70
     1
  0
XRECORD
  5
829
102
{ACAD_REACTORS
330
828
102
}
330
828
100
AcDbXrecord
280
     1
102
RTVSPropertyOp0
 70
     1
102
RTVSPropertyOp1
 70
     1
102
RTVSPropertyOp2
 70
     1
102
RTVSPropertyOp3
 70
     1
102
RTVSPropertyOp4
 70
     1
102
RTVSPropertyOp5
 70
     1
102
RTVSPropertyOp6
 70
     1
102
RTVSPropertyOp7
 70
     1
102
RTVSPropertyOp8
 70
     1
102
RTVSPropertyOp9
 70
     1
102
RTVSPropertyOp10
 70
     1
102
RTVSPropertyOp11
 70
     1
102
RTVSPropertyOp12
 70
     1
102
RTVSPropertyOp13
 70
     1
102
RTVSPropertyOp14
 70
     1
102
RTVSPropertyOp15
 70
     1
102
RTVSPropertyOp16
 70
     1
102
RTVSPropertyOp17
 70
     1
102
RTVSPropertyOp18
 70
     1
102
RTVSPropertyOp19
 70
     1
102
RTVSPropertyOp20
 70
     1
102
RTVSPropertyOp21
 70
     1
102
RTVSPropertyOp22
 70
     1
102
RTVSPropertyOp23
 70
     1
102
RTVSPropertyOp24
 70
     1
102
RTVSPropertyOp25
 70
     1
102
RTVSPropertyOp26
 70
     1
102
RTVSPropertyOp27
 70
     1
102
RTVSPropertyOp28
 70
     1
102
RTVSPropertyOp29
 70
     1
102
RTVSPropertyOp30
 70
     1
102
RTVSPropertyOp31
 70
     1
102
RTVSPropertyOp32
 70
     1
102
RTVSPropertyOp33
 70
     1
102
RTVSPropertyOp34
 70
     1
102
RTVSPropertyOp35
 70
     1
102
RTVSPropertyOp36
 70
     1
102
RTVSPropertyOp37
 70
     1
102
RTVSPropertyOp38
 70
     1
102
RTVSPropertyOp39
 70
     1
102
RTVSPropertyOp40
 70
     1
102
RTVSPropertyOp41
 70
     1
102
RTVSPropertyOp42
 70
     1
102
RTVSPropertyOp43
 70
     1
102
RTVSPropertyOp44
 70
     1
102
RTVSPropertyOp45
 70
     1
102
RTVSPropertyOp46
 70
     1
102
RTVSPropertyOp47
 70
     1
102
RTVSPropertyOp48
 70
     1
102
RTVSPropertyOp49
 70
     1
102
RTVSPropertyOp50
 70
     1
102
RTVSPropertyOp51
 70
     0
102
RTVSPropertyOp52
 70
     0
102
RTVSPropertyOp53
 70
     1
102
RTVSPropertyOp54
 70
     1
102
RTVSPropertyOp55
 70
     1
102
RTVSPropertyOp56
 70
     1
102
RTVSPropertyOp57
 70
     1
102
RTVSPost2010Prop28
280
     0
102
RTVSPost2010PropOp28
 70
     1
102
RTVSPost2010Prop29
280
     1
102
RTVSPost2010PropOp29
 70
     1
102
RTVSPost2010Prop30
280
     1
102
RTVSPost2010PropOp30
 70
     1
102
RTVSPost2010Prop31
280
     0
102
RTVSPost2010PropOp31
 70
     1
102
RTVSPost2010Prop32
280
     0
102
RTVSPost2010PropOp32
 70
     1
102
RTVSPost2010Prop33
280
     0
102
RTVSPost2010PropOp33
 70
     1
102
RTVSPost2010Prop34
280
     0
102
RTVSPost2010PropOp34
 70
     1
102
RTVSPost2010Prop35
280
     0
102
RTVSPost2010PropOp35
 70
     1
102
RTVSPost2010Prop36
280
     0
102
RTVSPost2010PropOp36
 70
     1
102
RTVSPost2010Prop37
 90
       50
102
RTVSPost2010PropOp37
 70
     1
102
RTVSPost2010Prop38
140
0.0
102
RTVSPost2010PropOp38
 70
     1
102
RTVSPost2010Prop39
140
1.0
102
RTVSPost2010PropOp39
 70
     1
102
RTVSPost2010Prop40
 90
        0
102
RTVSPost2010PropOp40
 70
     1
102
RTVSPost2010Prop41ColorIndex
 90
       18
102
RTVSPost2010Prop41ColorRGB
 90
        0
102
RTVSPost2010PropOp41
 70
     1
102
RTVSPost2010Prop42
 90
       50
102
RTVSPost2010PropOp42
 70
     1
102
RTVSPost2010Prop43
 90
        3
102
RTVSPost2010PropOp43
 70
     1
102
RTVSPost2010Prop44ColorIndex
 90
        5
102
RTVSPost2010Prop44ColorRGB
 90
      255
102
RTVSPost2010PropOp44
 70
     1
102
RTVSPost2010Prop45
280
     0
102
RTVSPost2010PropOp45
 70
     1
102
RTVSPost2010Prop46
 90
       50
102
RTVSPost2010PropOp46
 70
     1
102
RTVSPost2010Prop47
 90
       50
102
RTVSPost2010PropOp47
 70
     1
102
RTVSPost2010Prop48
 90
       50
102
RTVSPost2010PropOp48
 70
     1
102
RTVSPost2010Prop49
280
     0
102
RTVSPost2010PropOp49
 70
     1
102
RTVSPost2010Prop50
 90
       50
102
RTVSPost2010PropOp50
 70
     1
102
RTVSPost2010Prop51ColorIndex
 90
      256
102
RTVSPost2010Prop51ColorRGB
 90
-16777216
102
RTVSPost2010PropOp51
 70
     0
102
RTVSPost2010Prop52
140
1.0
102
RTVSPost2010PropOp52
 70
     0
102
RTVSPost2010Prop53
 90
        2
102
RTVSPost2010PropOp53
 70
     1
102
RTVSPost2010Prop54
  1
strokes_ogs.tif
102
RTVSPost2010PropOp54
 70
     1
102
RTVSPost2010Prop55
280
     0
102
RTVSPost2010PropOp55
 70
     1
102
RTVSPost2010Prop56
140
1.0
102
RTVSPost2010PropOp56
 70
     1
102
RTVSPost2010Prop57
140
1.0
102
RTVSPost2010PropOp57
 70
     1
  0
ENDSEC
  0
EOF
