  0
SECTION
  2
HEADER
  9
$ACADVER
  1
AC1015
  9
$ACADMAINTVER
 70
     6
  9
$DWGCODEPAGE
  3
ANSI_1252
  9
$INSBASE
 10
0.0
 20
0.0
 30
0.0
  9
$EXTMIN
 10
1.000000000000000E+20
 20
1.000000000000000E+20
 30
1.000000000000000E+20
  9
$EXTMAX
 10
-1.000000000000000E+20
 20
-1.000000000000000E+20
 30
-1.000000000000000E+20
  9
$LIMMIN
 10
-170.0
 20
-170.0
  9
$LIMMAX
 10
519.0
 20
260.0
  9
$ORTHOMODE
 70
     0
  9
$REGENMODE
 70
     1
  9
$FILLMODE
 70
     1
  9
$QTEXTMODE
 70
     0
  9
$MIRRTEXT
 70
     0
  9
$LTSCALE
 40
1.0
  9
$ATTMODE
 70
     1
  9
$TEXTSIZE
 40
3.5
  9
$TRACEWID
 40
1.0
  9
$TEXTSTYLE
  7
SIMPLEX
  9
$CLAYER
  8
1
  9
$CELTYPE
  6
BYLAYER
  9
$CECOLOR
 62
   256
  9
$CELTSCALE
 40
1.0
  9
$DISPSILH
 70
     0
  9
$DIMSCALE
 40
1.0
  9
$DIMASZ
 40
2.5
  9
$DIMEXO
 40
0.0
  9
$DIMDLI
 40
3.75
  9
$DIMRND
 40
0.0
  9
$DIMDLE
 40
0.0
  9
$DIMEXE
 40
1.25
  9
$DIMTP
 40
0.0
  9
$DIMTM
 40
0.0
  9
$DIMTXT
 40
3.5
  9
$DIMCEN
 40
0.0
  9
$DIMTSZ
 40
0.0
  9
$DIMTOL
 70
     0
  9
$DIMLIM
 70
     0
  9
$DIMTIH
 70
     0
  9
$DIMTOH
 70
     0
  9
$DIMSE1
 70
     0
  9
$DIMSE2
 70
     0
  9
$DIMTAD
 70
     1
  9
$DIMZIN
 70
     8
  9
$DIMBLK
  1

  9
$DIMASO
 70
     1
  9
$DIMSHO
 70
     1
  9
$DIMPOST
  1

  9
$DIMAPOST
  1

  9
$DIMALT
 70
     0
  9
$DIMALTD
 70
     3
  9
$DIMALTF
 40
0.039370078
  9
$DIMLFAC
 40
1.0
  9
$DIMTOFL
 70
     0
  9
$DIMTVP
 40
0.0
  9
$DIMTIX
 70
     0
  9
$DIMSOXD
 70
     0
  9
$DIMSAH
 70
     0
  9
$DIMBLK1
  1

  9
$DIMBLK2
  1

  9
$DIMSTYLE
  2
STANDARD
  9
$DIMCLRD
 70
     0
  9
$DIMCLRE
 70
     0
  9
$DIMCLRT
 70
     0
  9
$DIMTFAC
 40
1.0
  9
$DIMGAP
 40
0.625
  9
$DIMJUST
 70
     0
  9
$DIMSD1
 70
     0
  9
$DIMSD2
 70
     0
  9
$DIMTOLJ
 70
     0
  9
$DIMTZIN
 70
     8
  9
$DIMALTZ
 70
     0
  9
$DIMALTTZ
 70
     0
  9
$DIMUPT
 70
     0
  9
$DIMDEC
 70
     2
  9
$DIMTDEC
 70
     2
  9
$DIMALTU
 70
     2
  9
$DIMALTTD
 70
     3
  9
$DIMTXSTY
  7
SIMPLEX
  9
$DIMAUNIT
 70
     0
  9
$DIMADEC
 70
     2
  9
$DIMALTRND
 40
0.0
  9
$DIMAZIN
 70
     2
  9
$DIMDSEP
 70
    46
  9
$DIMATFIT
 70
     3
  9
$DIMFRAC
 70
     0
  9
$DIMLDRBLK
  1

  9
$DIMLUNIT
 70
     2
  9
$DIMLWD
 70
    -2
  9
$DIMLWE
 70
    -2
  9
$DIMTMOVE
 70
     0
  9
$LUNITS
 70
     2
  9
$LUPREC
 70
     4
  9
$SKETCHINC
 40
1.0
  9
$FILLETRAD
 40
0.0
  9
$AUNITS
 70
     0
  9
$AUPREC
 70
     0
  9
$MENU
  1
c:\tdm21\cad\caduti13\tdm13
  9
$ELEVATION
 40
0.0
  9
$PELEVATION
 40
0.0
  9
$THICKNESS
 40
0.0
  9
$LIMCHECK
 70
     0
  9
$CHAMFERA
 40
0.0
  9
$CHAMFERB
 40
0.0
  9
$CHAMFERC
 40
0.0
  9
$CHAMFERD
 40
0.0
  9
$SKPOLY
 70
     0
  9
$TDCREATE
 40
2454957.551975972
  9
$TDUCREATE
 40
2454957.510309306
  9
$TDUPDATE
 40
2457360.435647292
  9
$TDUUPDATE
 40
2457360.393980625
  9
$TDINDWG
 40
0.0009643519
  9
$TDUSRTIMER
 40
0.0009475231
  9
$USRTIMER
 70
     1
  9
$ANGBASE
 50
0.0
  9
$ANGDIR
 70
     0
  9
$PDMODE
 70
     1
  9
$PDSIZE
 40
0.0
  9
$PLINEWID
 40
0.0
  9
$SPLFRAME
 70
     0
  9
$SPLINETYPE
 70
     6
  9
$SPLINESEGS
 70
     8
  9
$HANDSEED
  5
833
  9
$SURFTAB1
 70
     6
  9
$SURFTAB2
 70
     6
  9
$SURFTYPE
 70
     6
  9
$SURFU
 70
     6
  9
$SURFV
 70
     6
  9
$UCSBASE
  2

  9
$UCSNAME
  2

  9
$UCSORG
 10
0.0
 20
0.0
 30
0.0
  9
$UCSXDIR
 10
1.0
 20
0.0
 30
0.0
  9
$UCSYDIR
 10
0.0
 20
1.0
 30
0.0
  9
$UCSORTHOREF
  2

  9
$UCSORTHOVIEW
 70
     0
  9
$UCSORGTOP
 10
0.0
 20
0.0
 30
0.0
  9
$UCSORGBOTTOM
 10
0.0
 20
0.0
 30
0.0
  9
$UCSORGLEFT
 10
0.0
 20
0.0
 30
0.0
  9
$UCSORGRIGHT
 10
0.0
 20
0.0
 30
0.0
  9
$UCSORGFRONT
 10
0.0
 20
0.0
 30
0.0
  9
$UCSORGBACK
 10
0.0
 20
0.0
 30
0.0
  9
$PUCSBASE
  2

  9
$PUCSNAME
  2

  9
$PUCSORG
 10
0.0
 20
0.0
 30
0.0
  9
$PUCSXDIR
 10
1.0
 20
0.0
 30
0.0
  9
$PUCSYDIR
 10
0.0
 20
1.0
 30
0.0
  9
$PUCSORTHOREF
  2

  9
$PUCSORTHOVIEW
 70
     0
  9
$PUCSORGTOP
 10
0.0
 20
0.0
 30
0.0
  9
$PUCSORGBOTTOM
 10
0.0
 20
0.0
 30
0.0
  9
$PUCSORGLEFT
 10
0.0
 20
0.0
 30
0.0
  9
$PUCSORGRIGHT
 10
0.0
 20
0.0
 30
0.0
  9
$PUCSORGFRONT
 10
0.0
 20
0.0
 30
0.0
  9
$PUCSORGBACK
 10
0.0
 20
0.0
 30
0.0
  9
$USERI1
 70
     0
  9
$USERI2
 70
     0
  9
$USERI3
 70
     0
  9
$USERI4
 70
     0
  9
$USERI5
 70
     0
  9
$USERR1
 40
0.0
  9
$USERR2
 40
0.0
  9
$USERR3
 40
0.0
  9
$USERR4
 40
0.0
  9
$USERR5
 40
0.0
  9
$WORLDVIEW
 70
     1
  9
$SHADEDGE
 70
     3
  9
$SHADEDIF
 70
    70
  9
$TILEMODE
 70
     1
  9
$MAXACTVP
 70
    64
  9
$PINSBASE
 10
0.0
 20
0.0
 30
0.0
  9
$PLIMCHECK
 70
     0
  9
$PEXTMIN
 10
0.0
 20
0.0
 30
0.0
  9
$PEXTMAX
 10
0.0
 20
0.0
 30
0.0
  9
$PLIMMIN
 10
0.0
 20
0.0
  9
$PLIMMAX
 10
12.0
 20
9.0
  9
$UNITMODE
 70
     0
  9
$VISRETAIN
 70
     0
  9
$PLINEGEN
 70
     0
  9
$PSLTSCALE
 70
     1
  9
$TREEDEPTH
 70
  3020
  9
$CMLSTYLE
  2
STANDARD
  9
$CMLJUST
 70
     0
  9
$CMLSCALE
 40
20.0
  9
$PROXYGRAPHICS
 70
     1
  9
$MEASUREMENT
 70
     1
  9
$CELWEIGHT
370
    -1
  9
$ENDCAPS
280
     0
  9
$JOINSTYLE
280
     0
  9
$LWDISPLAY
290
     0
  9
$INSUNITS
 70
     4
  9
$HYPERLINKBASE
  1

  9
$STYLESHEET
  1
MONOCHROME.CTB
  9
$XEDIT
290
     1
  9
$CEPSNTYPE
380
     0
  9
$PSTYLEMODE
290
     1
  9
$FINGERPRINTGUID
  2
{46B44192-1510-48B1-B61B-CBE2ADA013A7}
  9
$VERSIONGUID
  2
{6160D478-9A74-4C97-9D8A-D4A65CE74B12}
  9
$EXTNAMES
290
     1
  9
$PSVPSCALE
 40
0.0
  9
$OLESTARTUP
290
     0
  0
ENDSEC
  0
SECTION
  2
CLASSES
  0
CLASS
  1
ACDBDICTIONARYWDFLT
  2
AcDbDictionaryWithDefault
  3
ObjectDBX Classes
 90
        0
280
     0
281
     0
  0
CLASS
  1
ACDBPLACEHOLDER
  2
AcDbPlaceHolder
  3
ObjectDBX Classes
 90
        0
280
     0
281
     0
  0
CLASS
  1
LAYOUT
  2
AcDbLayout
  3
ObjectDBX Classes
 90
        0
280
     0
281
     0
  0
CLASS
  1
DICTIONARYVAR
  2
AcDbDictionaryVar
  3
ObjectDBX Classes
 90
        0
280
     0
281
     0
  0
CLASS
  1
TABLESTYLE
  2
AcDbTableStyle
  3
ObjectDBX Classes
 90
     4095
280
     0
281
     0
  0
CLASS
  1
SCALE
  2
AcDbScale
  3
ObjectDBX Classes
 90
     1153
280
     0
281
     0
  0
CLASS
  1
VISUALSTYLE
  2
AcDbVisualStyle
  3
ObjectDBX Classes
 90
     4095
280
     0
281
     0
  0
CLASS
  1
MATERIAL
  2
AcDbMaterial
  3
ObjectDBX Classes
 90
     1153
280
     0
281
     0
  0
CLASS
  1
MLEADERSTYLE
  2
AcDbMLeaderStyle
  3
ACDB_MLEADERSTYLE_CLASS
 90
     4095
280
     0
281
     0
  0
ENDSEC
  0
SECTION
  2
TABLES
  0
TABLE
  2
VPORT
  5
8
102
{ACAD_XDICTIONARY
360
7F7
102
}
330
0
100
AcDbSymbolTable
 70
     1
  0
VPORT
  5
39A
330
8
100
AcDbSymbolTableRecord
100
AcDbViewportTableRecord
  2
*Active
 70
     0
 10
0.0
 20
0.0
 11
1.0
 21
1.0
 12
218.9201881351169
 22
109.7549380673833
 13
0.0
 23
0.0
 14
5.0
 24
5.0
 15
5.0
 25
5.0
 16
0.0
 26
0.0
 36
1.0
 17
0.0
 27
0.0
 37
0.0
 40
564.6711112651689
 41
1.066073697585768
 42
50.0
 43
0.0
 44
0.0
 50
0.0
 51
0.0
 71
     0
 72
  2000
 73
     1
 74
     1
 75
     0
 76
     0
 77
     0
 78
     0
281
     0
 65
     1
110
0.0
120
0.0
130
0.0
111
1.0
121
0.0
131
0.0
112
0.0
122
1.0
132
0.0
 79
     0
146
0.0
  0
ENDTAB
  0
TABLE
  2
LTYPE
  5
5
330
0
100
AcDbSymbolTable
 70
     3
  0
LTYPE
  5
12
330
5
100
AcDbSymbolTableRecord
100
AcDbLinetypeTableRecord
  2
BYBLOCK
 70
     0
  3

 72
    65
 73
     0
 40
0.0
  0
LTYPE
  5
13
330
5
100
AcDbSymbolTableRecord
100
AcDbLinetypeTableRecord
  2
BYLAYER
 70
     0
  3

 72
    65
 73
     0
 40
0.0
  0
LTYPE
  5
14
330
5
100
AcDbSymbolTableRecord
100
AcDbLinetypeTableRecord
  2
CONTINUOUS
 70
     0
  3
Solid line
 72
    65
 73
     0
 40
0.0
  0
LTYPE
  5
20
330
5
100
AcDbSymbolTableRecord
100
AcDbLinetypeTableRecord
  2
HIDDEN
 70
     0
  3
Hidden __ __ __ __ __ __ __ __ __ __ __ __ __ _
 72
    65
 73
     2
 40
9.524999999999997
 49
6.349999999999998
 74
     0
 49
-3.174999999999998
 74
     0
  0
LTYPE
  5
351
330
5
100
AcDbSymbolTableRecord
100
AcDbLinetypeTableRecord
  2
CENTER
 70
     0
  3
Dash dot __ . __ . __ . __ . __ . __ . __ . __
 72
    65
 73
     4
 40
25.4
 49
12.7
 74
     0
 49
-6.349999999999998
 74
     0
 49
0.0
 74
     0
 49
-6.349999999999998
 74
     0
  0
ENDTAB
  0
TABLE
  2
LAYER
  5
2
330
0
100
AcDbSymbolTable
 70
    16
  0
LAYER
  5
F
330
2
100
AcDbSymbolTableRecord
100
AcDbLayerTableRecord
  2
0
 70
     0
 62
     7
  6
CONTINUOUS
370
    -3
390
300
  0
LAYER
  5
23
330
2
100
AcDbSymbolTableRecord
100
AcDbLayerTableRecord
  2
1
 70
     0
 62
     4
  6
CONTINUOUS
370
    -3
390
300
  0
LAYER
  5
24
330
2
100
AcDbSymbolTableRecord
100
AcDbLayerTableRecord
  2
SK1
 70
     0
 62
     4
  6
CONTINUOUS
370
    -3
390
300
  0
LAYER
  5
25
330
2
100
AcDbSymbolTableRecord
100
AcDbLayerTableRecord
  2
2
 70
     0
 62
     7
  6
CONTINUOUS
370
    -3
390
300
  0
LAYER
  5
26
330
2
100
AcDbSymbolTableRecord
100
AcDbLayerTableRecord
  2
2L
 70
     0
 62
     7
  6
CONTINUOUS
370
    -3
390
300
  0
LAYER
  5
27
330
2
100
AcDbSymbolTableRecord
100
AcDbLayerTableRecord
  2
SK2
 70
     0
 62
     7
  6
CONTINUOUS
370
    -3
390
300
  0
LAYER
  5
28
330
2
100
AcDbSymbolTableRecord
100
AcDbLayerTableRecord
  2
3
 70
     0
 62
     1
  6
HIDDEN
370
    -3
390
300
  0
LAYER
  5
29
330
2
100
AcDbSymbolTableRecord
100
AcDbLayerTableRecord
  2
SK3
 70
     0
 62
     1
  6
HIDDEN
370
    -3
390
300
  0
LAYER
  5
2A
330
2
100
AcDbSymbolTableRecord
100
AcDbLayerTableRecord
  2
4
 70
     0
 62
     2
  6
CENTER
370
    -3
390
300
  0
LAYER
  5
2B
330
2
100
AcDbSymbolTableRecord
100
AcDbLayerTableRecord
  2
SK4
 70
     0
 62
     2
  6
CENTER
370
    -3
390
300
  0
LAYER
  5
2C
330
2
100
AcDbSymbolTableRecord
100
AcDbLayerTableRecord
  2
5
 70
     0
 62
    -7
  6
CONTINUOUS
370
    -3
390
300
  0
LAYER
  5
2D
330
2
100
AcDbSymbolTableRecord
100
AcDbLayerTableRecord
  2
6
 70
     0
 62
     5
  6
CONTINUOUS
370
    -3
390
300
  0
LAYER
  5
2E
330
2
100
AcDbSymbolTableRecord
100
AcDbLayerTableRecord
  2
SK6
 70
     0
 62
     5
  6
CONTINUOUS
370
    -3
390
300
  0
LAYER
  5
2F
330
2
100
AcDbSymbolTableRecord
100
AcDbLayerTableRecord
  2
DEFPOINTS
 70
     0
 62
     7
  6
CONTINUOUS
290
     0
370
    -3
390
300
  0
LAYER
  5
375
330
2
100
AcDbSymbolTableRecord
100
AcDbLayerTableRecord
  2
CUT
 70
     0
 62
     1
  6
CONTINUOUS
370
    -3
390
300
  0
LAYER
  5
376
330
2
100
AcDbSymbolTableRecord
100
AcDbLayerTableRecord
  2
NOCUT
 70
     0
 62
     7
  6
CONTINUOUS
370
    -3
390
300
  0
ENDTAB
  0
TABLE
  2
STYLE
  5
3
330
0
100
AcDbSymbolTable
 70
     4
  0
STYLE
  5
10
330
3
100
AcDbSymbolTableRecord
100
AcDbTextStyleTableRecord
  2
STANDARD
 70
     0
 40
0.0
 41
1.0
 50
0.0
 71
     0
 42
5.0
  3
txt
  4

  0
STYLE
  5
1D
330
3
100
AcDbSymbolTableRecord
100
AcDbTextStyleTableRecord
  2
TXT
 70
     0
 40
8.0
 41
1.0
 50
0.0
 71
     0
 42
8.0
  3
txt
  4

  0
STYLE
  5
1E
330
3
100
AcDbSymbolTableRecord
100
AcDbTextStyleTableRecord
  2
SIMPLEX
 70
     0
 40
0.0
 41
1.0
 50
0.0
 71
     0
 42
3.5
  3
simplex
  4

  0
STYLE
  5
34C
330
3
100
AcDbSymbolTableRecord
100
AcDbTextStyleTableRecord
  2

 70
     1
 40
0.0
 41
1.0
 50
0.0
 71
     0
 42
2.5
  3
ltypeshp.shx
  4

  0
ENDTAB
  0
TABLE
  2
VIEW
  5
6
330
0
100
AcDbSymbolTable
 70
     0
  0
ENDTAB
  0
TABLE
  2
UCS
  5
7
330
0
100
AcDbSymbolTable
 70
     0
  0
ENDTAB
  0
TABLE
  2
APPID
  5
9
330
0
100
AcDbSymbolTable
 70
     2
  0
APPID
  5
11
330
9
100
AcDbSymbolTableRecord
100
AcDbRegAppTableRecord
  2
ACAD
 70
     0
  0
APPID
  5
830
330
9
100
AcDbSymbolTableRecord
100
AcDbRegAppTableRecord
  2
ACAD_MLEADERVER
 70
     0
  0
ENDTAB
  0
TABLE
  2
DIMSTYLE
  5
A
330
0
100
AcDbSymbolTable
 70
     1
100
AcDbDimStyleTable
  0
DIMSTYLE
105
3F
102
{ACAD_REACTORS
330
7A4
330
7B2
330
7BF
330
7CC
330
7DA
330
7E7
102
}
330
A
100
AcDbSymbolTableRecord
100
AcDbDimStyleTableRecord
  2
STANDARD
 70
     0
 41
2.5
 42
0.0
 43
3.75
 44
1.25
 73
     0
 74
     0
 77
     1
 78
     8
 79
     2
140
3.5
141
0.0
143
0.039370078
147
0.625
171
     3
178
     0
179
     2
271
     2
272
     2
274
     3
283
     0
284
     8
340
1E
  0
ENDTAB
  0
TABLE
  2
BLOCK_RECORD
  5
1
330
0
100
AcDbSymbolTable
 70
     6
  0
BLOCK_RECORD
  5
18
330
1
100
AcDbSymbolTableRecord
100
AcDbBlockTableRecord
  2
*MODEL_SPACE
340
303
  0
BLOCK_RECORD
  5
338
330
1
100
AcDbSymbolTableRecord
100
AcDbBlockTableRecord
  2
*Paper_Space
340
33B
  0
BLOCK_RECORD
  5
7A5
330
1
100
AcDbSymbolTableRecord
100
AcDbBlockTableRecord
  2
*D0
340
0
  0
BLOCK_RECORD
  5
7B3
330
1
100
AcDbSymbolTableRecord
100
AcDbBlockTableRecord
  2
*D1
340
0
  0
BLOCK_RECORD
  5
7C0
330
1
100
AcDbSymbolTableRecord
100
AcDbBlockTableRecord
  2
*D2
340
0
  0
BLOCK_RECORD
  5
7CD
330
1
100
AcDbSymbolTableRecord
100
AcDbBlockTableRecord
  2
*D3
340
0
  0
BLOCK_RECORD
  5
7DB
330
1
100
AcDbSymbolTableRecord
100
AcDbBlockTableRecord
  2
*D4
340
0
  0
BLOCK_RECORD
  5
7E8
330
1
100
AcDbSymbolTableRecord
100
AcDbBlockTableRecord
  2
*D5
340
0
  0
ENDTAB
  0
ENDSEC
  0
SECTION
  2
BLOCKS
  0
BLOCK
  5
32
330
18
100
AcDbEntity
  8
0
100
AcDbBlockBegin
  2
*MODEL_SPACE
 70
     0
 10
0.0
 20
0.0
 30
0.0
  3
*MODEL_SPACE
  1

  0
ENDBLK
  5
33
330
18
100
AcDbEntity
  8
0
100
AcDbBlockEnd
  0
BLOCK
  5
339
330
338
100
AcDbEntity
 67
     1
  8
0
100
AcDbBlockBegin
  2
*Paper_Space
 70
     0
 10
0.0
 20
0.0
 30
0.0
  3
*Paper_Space
  1

  0
ENDBLK
  5
33A
330
338
100
AcDbEntity
 67
     1
  8
0
100
AcDbBlockEnd
  0
BLOCK
  5
7A6
330
7A5
100
AcDbEntity
  8
0
100
AcDbBlockBegin
  2
*D0
 70
     1
 10
0.0
 20
0.0
 30
0.0
  3
*D0
  1

  0
LINE
  5
7A8
330
7A5
100
AcDbEntity
  8
2
 62
     0
370
    -2
100
AcDbLine
 10
56.3
 20
6.35
 30
0.0
 11
72.54999999999998
 21
6.350000000000056
 31
0.0
  0
LINE
  5
7A9
330
7A5
100
AcDbEntity
  8
2
 62
     0
370
    -2
100
AcDbLine
 10
56.3
 20
-6.35
 30
0.0
 11
72.55000000000003
 21
-6.349999999999943
 31
0.0
  0
LINE
  5
7AA
330
7A5
100
AcDbEntity
  8
2
 62
     0
370
    -2
100
AcDbLine
 10
71.30000000000003
 20
-6.349999999999947
 30
0.0
 11
71.30000000000008
 21
-23.64849999999994
 31
0.0
  0
LINE
  5
7AB
330
7A5
100
AcDbEntity
  8
2
 62
     0
370
    -2
100
AcDbLine
 10
71.3
 20
3.850000000000052
 30
0.0
 11
71.30000000000001
 21
-3.849999999999947
 31
0.0
  0
SOLID
  5
7AC
330
7A5
100
AcDbEntity
  8
2
 62
     0
100
AcDbTrace
 10
71.71666666666667
 20
3.850000000000053
 30
0.0
 11
70.88333333333333
 21
3.850000000000051
 31
0.0
 12
71.29999999999998
 22
6.350000000000052
 32
0.0
 13
71.29999999999998
 23
6.350000000000052
 33
0.0
  0
SOLID
  5
7AD
330
7A5
100
AcDbEntity
  8
2
 62
     0
100
AcDbTrace
 10
70.88333333333334
 20
-3.849999999999949
 30
0.0
 11
71.71666666666668
 21
-3.849999999999946
 31
0.0
 12
71.30000000000003
 22
-6.349999999999947
 32
0.0
 13
71.30000000000003
 23
-6.349999999999947
 33
0.0
  0
MTEXT
  5
7AE
330
7A5
100
AcDbEntity
  8
2
 62
     0
100
AcDbMText
 10
68.90225000000005
 20
-16.24924999999995
 30
0.0
 40
3.5
 41
0.0
 71
     5
 72
     1
  1
%%c12.7
  7
SIMPLEX
 11
-3.356894814614647E-15
 21
1.0
 31
0.0
 73
     1
 44
1.0
  0
POINT
  5
7AF
330
7A5
100
AcDbEntity
  8
DEFPOINTS
 62
     0
100
AcDbPoint
 10
56.3
 20
6.35
 30
0.0
  0
POINT
  5
7B0
330
7A5
100
AcDbEntity
  8
DEFPOINTS
 62
     0
100
AcDbPoint
 10
56.3
 20
-6.35
 30
0.0
  0
POINT
  5
7B1
330
7A5
100
AcDbEntity
  8
DEFPOINTS
 62
     0
100
AcDbPoint
 10
71.30000000000003
 20
-6.349999999999947
 30
0.0
  0
ENDBLK
  5
7A7
330
7A5
100
AcDbEntity
  8
0
100
AcDbBlockEnd
  0
BLOCK
  5
7B4
330
7B3
100
AcDbEntity
  8
0
100
AcDbBlockBegin
  2
*D1
 70
     1
 10
0.0
 20
0.0
 30
0.0
  3
*D1
  1

  0
LINE
  5
7B6
330
7B3
100
AcDbEntity
  8
2
 62
     0
370
    -2
100
AcDbLine
 10
0.0
 20
0.0
 30
0.0
 11
0.0
 21
76.25
 31
0.0
  0
LINE
  5
7B7
330
7B3
100
AcDbEntity
  8
2
 62
     0
370
    -2
100
AcDbLine
 10
56.3
 20
0.0
 30
0.0
 11
56.3
 21
76.25
 31
0.0
  0
LINE
  5
7B8
330
7B3
100
AcDbEntity
  8
2
 62
     0
370
    -2
100
AcDbLine
 10
2.5
 20
75.0
 30
0.0
 11
53.8
 21
75.0
 31
0.0
  0
SOLID
  5
7B9
330
7B3
100
AcDbEntity
  8
2
 62
     0
100
AcDbTrace
 10
2.5
 20
75.41666666666667
 30
0.0
 11
2.5
 21
74.58333333333333
 31
0.0
 12
0.0
 22
75.0
 32
0.0
 13
0.0
 23
75.0
 33
0.0
  0
SOLID
  5
7BA
330
7B3
100
AcDbEntity
  8
2
 62
     0
100
AcDbTrace
 10
53.8
 20
74.58333333333333
 30
0.0
 11
53.8
 21
75.41666666666667
 31
0.0
 12
56.3
 22
75.0
 32
0.0
 13
56.3
 23
75.0
 33
0.0
  0
MTEXT
  5
7BB
330
7B3
100
AcDbEntity
  8
2
 62
     0
100
AcDbMText
 10
28.15
 20
77.39775
 30
0.0
 40
3.5
 41
0.0
 71
     5
 72
     1
  1
56.3
  7
SIMPLEX
 73
     1
 44
1.0
  0
POINT
  5
7BC
330
7B3
100
AcDbEntity
  8
DEFPOINTS
 62
     0
100
AcDbPoint
 10
0.0
 20
0.0
 30
0.0
  0
POINT
  5
7BD
330
7B3
100
AcDbEntity
  8
DEFPOINTS
 62
     0
100
AcDbPoint
 10
56.3
 20
0.0
 30
0.0
  0
POINT
  5
7BE
330
7B3
100
AcDbEntity
  8
DEFPOINTS
 62
     0
100
AcDbPoint
 10
56.3
 20
75.0
 30
0.0
  0
ENDBLK
  5
7B5
330
7B3
100
AcDbEntity
  8
0
100
AcDbBlockEnd
  0
BLOCK
  5
7C1
330
7C0
100
AcDbEntity
  8
0
100
AcDbBlockBegin
  2
*D2
 70
     1
 10
0.0
 20
0.0
 30
0.0
  3
*D2
  1

  0
LINE
  5
7C3
330
7C0
100
AcDbEntity
  8
2
 62
     0
370
    -2
100
AcDbLine
 10
18.2
 20
6.35
 30
0.0
 11
18.2
 21
61.25
 31
0.0
  0
LINE
  5
7C4
330
7C0
100
AcDbEntity
  8
2
 62
     0
370
    -2
100
AcDbLine
 10
56.3
 20
6.35
 30
0.0
 11
56.3
 21
61.25
 31
0.0
  0
LINE
  5
7C5
330
7C0
100
AcDbEntity
  8
2
 62
     0
370
    -2
100
AcDbLine
 10
20.7
 20
60.0
 30
0.0
 11
53.8
 21
60.0
 31
0.0
  0
SOLID
  5
7C6
330
7C0
100
AcDbEntity
  8
2
 62
     0
100
AcDbTrace
 10
20.7
 20
60.41666666666666
 30
0.0
 11
20.7
 21
59.58333333333334
 31
0.0
 12
18.2
 22
60.0
 32
0.0
 13
18.2
 23
60.0
 33
0.0
  0
SOLID
  5
7C7
330
7C0
100
AcDbEntity
  8
2
 62
     0
100
AcDbTrace
 10
53.8
 20
59.58333333333334
 30
0.0
 11
53.8
 21
60.41666666666666
 31
0.0
 12
56.3
 22
60.0
 32
0.0
 13
56.3
 23
60.0
 33
0.0
  0
MTEXT
  5
7C8
330
7C0
100
AcDbEntity
  8
2
 62
     0
100
AcDbMText
 10
37.25
 20
62.39775
 30
0.0
 40
3.5
 41
0.0
 71
     5
 72
     1
  1
38.1
  7
SIMPLEX
 73
     1
 44
1.0
  0
POINT
  5
7C9
330
7C0
100
AcDbEntity
  8
DEFPOINTS
 62
     0
100
AcDbPoint
 10
18.2
 20
6.35
 30
0.0
  0
POINT
  5
7CA
330
7C0
100
AcDbEntity
  8
DEFPOINTS
 62
     0
100
AcDbPoint
 10
56.3
 20
6.35
 30
0.0
  0
POINT
  5
7CB
330
7C0
100
AcDbEntity
  8
DEFPOINTS
 62
     0
100
AcDbPoint
 10
56.3
 20
60.0
 30
0.0
  0
ENDBLK
  5
7C2
330
7C0
100
AcDbEntity
  8
0
100
AcDbBlockEnd
  0
BLOCK
  5
7CE
330
7CD
100
AcDbEntity
  8
0
100
AcDbBlockBegin
  2
*D3
 70
     1
 10
0.0
 20
0.0
 30
0.0
  3
*D3
  1

  0
LINE
  5
7D0
330
7CD
100
AcDbEntity
  8
SK2
 62
     0
370
    -2
100
AcDbLine
 10
-45.3
 20
6.35
 30
0.0
 11
-61.55000000003241
 21
6.34999999991707
 31
0.0
  0
LINE
  5
7D1
330
7CD
100
AcDbEntity
  8
SK2
 62
     0
370
    -2
100
AcDbLine
 10
-45.3
 20
-6.35
 30
0.0
 11
-61.54999999996759
 21
-6.35000000008293
 31
0.0
  0
LINE
  5
7D2
330
7CD
100
AcDbEntity
  8
SK2
 62
     0
370
    -2
100
AcDbLine
 10
-60.29999999996759
 20
-6.350000000076551
 30
0.0
 11
-60.2999999998793
 21
-23.64850000007655
 31
0.0
  0
LINE
  5
7D3
330
7CD
100
AcDbEntity
  8
SK2
 62
     0
370
    -2
100
AcDbLine
 10
-60.30000000001964
 20
3.849999999923448
 30
0.0
 11
-60.29999999998035
 21
-3.850000000076551
 31
0.0
  0
SOLID
  5
7D4
330
7CD
100
AcDbEntity
  8
SK2
 62
     0
100
AcDbTrace
 10
-59.88333333335298
 20
3.849999999925575
 30
0.0
 11
-60.71666666668631
 21
3.849999999921322
 31
0.0
 12
-60.30000000003241
 22
6.349999999923448
 32
0.0
 13
-60.30000000003241
 23
6.349999999923448
 33
0.0
  0
SOLID
  5
7D5
330
7CD
100
AcDbEntity
  8
SK2
 62
     0
100
AcDbTrace
 10
-60.71666666664701
 20
-3.850000000078677
 30
0.0
 11
-59.88333333331369
 21
-3.850000000074425
 31
0.0
 12
-60.29999999996759
 22
-6.350000000076551
 32
0.0
 13
-60.29999999996759
 23
-6.350000000076551
 33
0.0
  0
MTEXT
  5
7D6
330
7CD
100
AcDbEntity
  8
SK2
 62
     0
100
AcDbMText
 10
-62.69774999991707
 20
-16.24925000008879
 30
0.0
 40
3.5
 41
0.0
 71
     5
 72
     1
  1
%%c12.7
  7
SIMPLEX
 11
-5.103599083152468E-12
 21
1.0
 31
0.0
 73
     1
 44
1.0
  0
POINT
  5
7D7
330
7CD
100
AcDbEntity
  8
DEFPOINTS
 62
     0
100
AcDbPoint
 10
-45.3
 20
6.35
 30
0.0
  0
POINT
  5
7D8
330
7CD
100
AcDbEntity
  8
DEFPOINTS
 62
     0
100
AcDbPoint
 10
-45.3
 20
-6.35
 30
0.0
  0
POINT
  5
7D9
330
7CD
100
AcDbEntity
  8
DEFPOINTS
 62
     0
100
AcDbPoint
 10
-60.29999999996759
 20
-6.350000000076551
 30
0.0
  0
ENDBLK
  5
7CF
330
7CD
100
AcDbEntity
  8
0
100
AcDbBlockEnd
  0
BLOCK
  5
7DC
330
7DB
100
AcDbEntity
  8
0
100
AcDbBlockBegin
  2
*D4
 70
     1
 10
0.0
 20
0.0
 30
0.0
  3
*D4
  1

  0
LINE
  5
7DE
330
7DB
100
AcDbEntity
  8
SK2
 62
     0
370
    -2
100
AcDbLine
 10
-45.3
 20
0.0
 30
0.0
 11
-45.3
 21
91.25
 31
0.0
  0
LINE
  5
7DF
330
7DB
100
AcDbEntity
  8
SK2
 62
     0
370
    -2
100
AcDbLine
 10
56.3
 20
0.0
 30
0.0
 11
56.3
 21
91.25
 31
0.0
  0
LINE
  5
7E0
330
7DB
100
AcDbEntity
  8
SK2
 62
     0
370
    -2
100
AcDbLine
 10
-42.8
 20
90.0
 30
0.0
 11
53.8
 21
90.0
 31
0.0
  0
SOLID
  5
7E1
330
7DB
100
AcDbEntity
  8
SK2
 62
     0
100
AcDbTrace
 10
-42.8
 20
90.41666666666667
 30
0.0
 11
-42.8
 21
89.58333333333333
 31
0.0
 12
-45.3
 22
90.0
 32
0.0
 13
-45.3
 23
90.0
 33
0.0
  0
SOLID
  5
7E2
330
7DB
100
AcDbEntity
  8
SK2
 62
     0
100
AcDbTrace
 10
53.8
 20
89.58333333333333
 30
0.0
 11
53.8
 21
90.41666666666667
 31
0.0
 12
56.3
 22
90.0
 32
0.0
 13
56.3
 23
90.0
 33
0.0
  0
MTEXT
  5
7E3
330
7DB
100
AcDbEntity
  8
SK2
 62
     0
100
AcDbMText
 10
5.5
 20
92.39775
 30
0.0
 40
3.5
 41
0.0
 71
     5
 72
     1
  1
101.6
  7
SIMPLEX
 73
     1
 44
1.0
  0
POINT
  5
7E4
330
7DB
100
AcDbEntity
  8
DEFPOINTS
 62
     0
100
AcDbPoint
 10
-45.3
 20
0.0
 30
0.0
  0
POINT
  5
7E5
330
7DB
100
AcDbEntity
  8
DEFPOINTS
 62
     0
100
AcDbPoint
 10
56.3
 20
0.0
 30
0.0
  0
POINT
  5
7E6
330
7DB
100
AcDbEntity
  8
DEFPOINTS
 62
     0
100
AcDbPoint
 10
56.3
 20
90.0
 30
0.0
  0
ENDBLK
  5
7DD
330
7DB
100
AcDbEntity
  8
0
100
AcDbBlockEnd
  0
BLOCK
  5
7E9
330
7E8
100
AcDbEntity
  8
0
100
AcDbBlockBegin
  2
*D5
 70
     1
 10
0.0
 20
0.0
 30
0.0
  3
*D5
  1

  0
LINE
  5
7EB
330
7E8
100
AcDbEntity
  8
2
 62
     0
370
    -2
100
AcDbLine
 10
55.42187375030241
 20
-8.787894094313906
 30
0.0
 11
59.33983161039271
 21
-31.00773727627221
 31
0.0
  0
MTEXT
  5
7EC
330
7E8
100
AcDbEntity
  8
2
 62
     0
100
AcDbMText
 10
60.44728432128924
 20
-23.48032177570842
 30
0.0
 40
3.5
 41
0.0
 71
     5
 72
     1
  1
R1.59
  7
SIMPLEX
 11
0.1736481776669313
 21
-0.9848077530122079
 31
0.0
 73
     1
 44
1.0
  0
SOLID
  5
7ED
330
7E8
100
AcDbEntity
  8
2
 62
     0
100
AcDbTrace
 10
55.8322103140575
 20
-8.715540686952684
 30
0.0
 11
55.01153718654732
 21
-8.860247501675127
 31
0.0
 12
54.98775330613508
 22
-6.325874711783386
 32
0.0
 13
54.98775330613508
 23
-6.325874711783386
 33
0.0
  0
POINT
  5
7EE
330
7E8
100
AcDbEntity
  8
DEFPOINTS
 62
     0
100
AcDbPoint
 10
54.98775330613508
 20
-6.325874711783386
 30
0.0
  0
POINT
  5
7EF
330
7E8
100
AcDbEntity
  8
DEFPOINTS
 62
     0
100
AcDbPoint
 10
54.712
 20
-4.762
 30
0.0
  0
ENDBLK
  5
7EA
330
7E8
100
AcDbEntity
  8
0
100
AcDbBlockEnd
  0
ENDSEC
  0
SECTION
  2
ENTITIES
  0
LINE
  5
3E0
330
18
100
AcDbEntity
  8
SK4
100
AcDbLine
 10
-47.3
 20
0.0
 30
0.0
 11
0.0
 21
0.0
 31
0.0
  0
LINE
  5
3E1
330
18
100
AcDbEntity
  8
4
100
AcDbLine
 10
-2.0
 20
0.0
 30
0.0
 11
58.3
 21
0.0
 31
0.0
  0
LINE
  5
3E2
330
18
100
AcDbEntity
  8
SK4
100
AcDbLine
 10
-2.0
 20
0.0
 30
0.0
 11
58.3
 21
0.0
 31
0.0
  0
LINE
  5
3E3
330
18
100
AcDbEntity
  8
1
100
AcDbLine
 10
17.19999999999998
 20
-3.475418976244789
 30
0.0
 11
17.19999999999998
 21
-6.106893975712381
 31
0.0
  0
LINE
  5
3E4
330
18
100
AcDbEntity
  8
1
100
AcDbLine
 10
17.19999999999999
 20
2.864786813306669
 30
0.0
 11
17.19999999999999
 21
-1.546377156343452
 31
0.0
  0
LINE
  5
3E5
330
18
100
AcDbEntity
  8
1
100
AcDbLine
 10
18.2
 20
1.071692178364784
 30
0.0
 11
18.2
 21
1.768470079286061
 31
0.0
  0
ARC
  5
3E6
330
18
100
AcDbEntity
  8
1
100
AcDbCircle
 10
-2.537952653059211
 20
-29.04684929092436
 30
0.0
 40
36.5675657047387
100
AcDbArc
 50
55.45086348993225
 51
57.33207232877174
  0
LINE
  5
3E7
330
18
100
AcDbEntity
  8
1
100
AcDbLine
 10
17.2
 20
6.340205789551459
 30
0.0
 11
17.2
 21
4.560516819368861
 31
0.0
  0
LINE
  5
3E8
330
18
100
AcDbEntity
  8
1
100
AcDbLine
 10
18.19999999999937
 20
3.736548796296856
 30
0.0
 11
18.11056346078249
 21
3.751316876142451
 31
0.0
  0
ARC
  5
3E9
330
18
100
AcDbEntity
  8
1
100
AcDbCircle
 10
18.75875373427957
 20
-1.328907184624514
 30
0.0
 40
5.025769679036329
100
AcDbArc
 50
251.9317832054044
 51
263.6164757165142
  0
ARC
  5
3EA
330
18
100
AcDbEntity
  8
1
100
AcDbCircle
 10
30.48191275399141
 20
9.918114595527562
 30
0.0
 40
18.86249075220489
100
AcDbArc
 50
225.2397472327456
 51
229.372358682014
  0
ARC
  5
3EB
330
18
100
AcDbEntity
  8
1
100
AcDbCircle
 10
52.96030811292945
 20
29.61632399665896
 30
0.0
 40
47.43320784331636
100
AcDbArc
 50
221.069958267757
 51
222.8758155593286
  0
ARC
  5
3EC
330
18
100
AcDbEntity
  8
1
100
AcDbCircle
 10
-11.50969036020178
 20
-24.31625735780971
 30
0.0
 40
39.53554311294044
100
AcDbArc
 50
41.28271808211245
 51
43.43331553905282
  0
ARC
  5
3ED
330
18
100
AcDbEntity
  8
1
100
AcDbCircle
 10
6.826393294704282
 20
-8.022866507656941
 30
0.0
 40
16.30812492670625
100
AcDbArc
 50
46.21740973320813
 51
50.49819456400709
  0
ARC
  5
3EE
330
18
100
AcDbEntity
  8
1
100
AcDbCircle
 10
16.8782891498451
 20
1.546412907676459
 30
0.0
 40
4.804619494174777
100
AcDbArc
 50
74.0333931746219
 51
86.16064419876967
  0
LINE
  5
3EF
330
18
100
AcDbEntity
  8
1
100
AcDbLine
 10
-0.0000000000000089
 20
6.35
 30
0.0
 11
18.2
 21
6.35
 31
0.0
  0
LINE
  5
3F0
330
18
100
AcDbEntity
  8
1
100
AcDbLine
 10
18.19999999999999
 20
-6.323273256470383
 30
0.0
 11
18.19999999999999
 21
-4.397455994864995
 31
0.0
  0
LINE
  5
3F1
330
18
100
AcDbEntity
  8
1
100
AcDbLine
 10
18.2
 20
-6.323273256470377
 30
0.0
 11
18.2
 21
-6.349999999999996
 31
0.0
  0
LINE
  5
3F2
330
18
100
AcDbEntity
  8
1
100
AcDbLine
 10
18.2
 20
6.35
 30
0.0
 11
18.2
 21
6.349958595292724
 31
0.0
  0
LINE
  5
3F3
330
18
100
AcDbEntity
  8
1
100
AcDbLine
 10
18.2
 20
6.349958595292724
 30
0.0
 11
18.20000000000001
 21
6.337754213196412
 31
0.0
  0
LINE
  5
3F4
330
18
100
AcDbEntity
  8
1
100
AcDbLine
 10
18.20000000000001
 20
6.337754213196412
 30
0.0
 11
18.2
 21
6.165926074151057
 31
0.0
  0
LINE
  5
3F5
330
18
100
AcDbEntity
  8
1
100
AcDbLine
 10
18.2
 20
3.736548796296748
 30
0.0
 11
18.2
 21
6.165926074151058
 31
0.0
  0
LINE
  5
3F6
330
18
100
AcDbEntity
  8
1
100
AcDbLine
 10
18.2
 20
3.665656958187111
 30
0.0
 11
18.2
 21
3.736548796296748
 31
0.0
  0
LINE
  5
3F7
330
18
100
AcDbEntity
  8
1
100
AcDbLine
 10
18.2
 20
3.665656958187115
 30
0.0
 11
18.2
 21
1.768470079286071
 31
0.0
  0
LINE
  5
3F8
330
18
100
AcDbEntity
  8
1
100
AcDbLine
 10
18.19999999999999
 20
-2.65761629828327
 30
0.0
 11
18.19999999999999
 21
1.071692178364784
 31
0.0
  0
LINE
  5
3F9
330
18
100
AcDbEntity
  8
1
100
AcDbLine
 10
18.20000000000001
 20
-2.657616298283278
 30
0.0
 11
18.2
 21
-4.397455994864995
 31
0.0
  0
LINE
  5
3FA
330
18
100
AcDbEntity
  8
1
100
AcDbLine
 10
18.11056344521284
 20
3.751316859788306
 30
0.0
 11
18.19999999999998
 21
3.665656958187111
 31
0.0
  0
LINE
  5
3FB
330
18
100
AcDbEntity
  8
1
100
AcDbLine
 10
-0.0000000000000062
 20
-6.349999999999996
 30
0.0
 11
18.20000000000001
 21
-6.349999999999996
 31
0.0
  0
LINE
  5
3FC
330
18
100
AcDbEntity
  8
1
 62
     1
100
AcDbLine
 10
18.19999999999999
 20
6.165926074151058
 30
0.0
 11
18.42358581585627
 21
6.097561913420966
 31
0.0
  0
LINE
  5
3FD
330
18
100
AcDbEntity
  8
1
 62
     1
100
AcDbLine
 10
18.42358581585627
 20
6.097561913420966
 30
0.0
 11
18.64715441767468
 21
6.018679925284429
 31
0.0
  0
LINE
  5
3FE
330
18
100
AcDbEntity
  8
1
 62
     1
100
AcDbLine
 10
18.64715441767468
 20
6.018679925284429
 30
0.0
 11
18.87074101254529
 21
5.929406127174536
 31
0.0
  0
LINE
  5
3FF
330
18
100
AcDbEntity
  8
1
 62
     1
100
AcDbLine
 10
18.87074101254529
 20
5.929406127174536
 30
0.0
 11
19.09430849865193
 21
5.829905995624158
 31
0.0
  0
LINE
  5
400
330
18
100
AcDbEntity
  8
1
 62
     1
100
AcDbLine
 10
19.09430849865193
 20
5.829905995624158
 30
0.0
 11
19.3178930791733
 21
5.720339107581151
 31
0.0
  0
LINE
  5
401
330
18
100
AcDbEntity
  8
1
 62
     1
100
AcDbLine
 10
19.3178930791733
 20
5.720339107581151
 30
0.0
 11
19.76504474995916
 21
5.471802608661543
 31
0.0
  0
LINE
  5
402
330
18
100
AcDbEntity
  8
1
 62
     1
100
AcDbLine
 10
19.76504474995916
 20
5.471802608661543
 30
0.0
 11
20.21219573205104
 21
5.185511596427924
 31
0.0
  0
LINE
  5
403
330
18
100
AcDbEntity
  8
1
 62
     1
100
AcDbLine
 10
20.21219573205104
 20
5.185511596427924
 30
0.0
 11
20.65934627350067
 21
4.863441468969587
 31
0.0
  0
LINE
  5
404
330
18
100
AcDbEntity
  8
1
 62
     1
100
AcDbLine
 10
20.65934627350067
 20
4.863441468969587
 30
0.0
 11
21.10649719033443
 21
4.507813851672538
 31
0.0
  0
LINE
  5
405
330
18
100
AcDbEntity
  8
1
 62
     1
100
AcDbLine
 10
21.10649719033443
 20
4.507813851672538
 30
0.0
 11
21.5536486178898
 21
4.121082464013167
 31
0.0
  0
LINE
  5
406
330
18
100
AcDbEntity
  8
1
 62
     1
100
AcDbLine
 10
21.5536486178898
 20
4.121082464013167
 30
0.0
 11
22.44795280267921
 21
3.265178015078202
 31
0.0
  0
LINE
  5
407
330
18
100
AcDbEntity
  8
1
 62
     1
100
AcDbLine
 10
22.44795280267921
 20
3.265178015078202
 30
0.0
 11
23.34225830046211
 21
2.319309731306482
 31
0.0
  0
LINE
  5
408
330
18
100
AcDbEntity
  8
1
 62
     1
100
AcDbLine
 10
23.34225830046211
 20
2.319309731306482
 30
0.0
 11
25.3544079560705
 21
-0.0000000000000503
 31
0.0
  0
LINE
  5
409
330
18
100
AcDbEntity
  8
1
 62
     1
100
AcDbLine
 10
50.71443782825958
 20
6.35
 30
0.0
 11
52.50730180117318
 21
6.35
 31
0.0
  0
LINE
  5
40A
330
18
100
AcDbEntity
  8
1
 62
     1
100
AcDbLine
 10
18.2
 20
6.35
 30
0.0
 11
18.69392900496656
 21
6.35
 31
0.0
  0
LINE
  5
40B
330
18
100
AcDbEntity
  8
1
 62
     1
100
AcDbLine
 10
29.96505231311898
 20
6.35
 30
0.0
 11
30.2808212055723
 21
6.33907115204774
 31
0.0
  0
LINE
  5
40C
330
18
100
AcDbEntity
  8
1
 62
     1
100
AcDbLine
 10
30.2808212055723
 20
6.33907115204774
 30
0.0
 11
30.59657582090837
 21
6.306326228263627
 31
0.0
  0
LINE
  5
40D
330
18
100
AcDbEntity
  8
1
 62
     1
100
AcDbLine
 10
30.59657582090837
 20
6.306326228263627
 30
0.0
 11
30.91233315713134
 21
6.251878569665038
 31
0.0
  0
LINE
  5
40E
330
18
100
AcDbEntity
  8
1
 62
     1
100
AcDbLine
 10
30.91233315713134
 20
6.251878569665038
 30
0.0
 11
31.22810532350705
 21
6.175909475211236
 31
0.0
  0
LINE
  5
40F
330
18
100
AcDbEntity
  8
1
 62
     1
100
AcDbLine
 10
31.22810532350705
 20
6.175909475211236
 30
0.0
 11
31.54386817078523
 21
6.078684924147349
 31
0.0
  0
LINE
  5
410
330
18
100
AcDbEntity
  8
1
 62
     1
100
AcDbLine
 10
31.54386817078523
 20
6.078684924147349
 30
0.0
 11
31.85962201404467
 21
5.960543706790594
 31
0.0
  0
LINE
  5
411
330
18
100
AcDbEntity
  8
1
 62
     1
100
AcDbLine
 10
31.85962201404467
 20
5.960543706790594
 30
0.0
 11
32.17538201843166
 21
5.821886949254949
 31
0.0
  0
LINE
  5
412
330
18
100
AcDbEntity
  8
1
 62
     1
100
AcDbLine
 10
32.17538201843166
 20
5.821886949254949
 30
0.0
 11
32.49115594652001
 21
5.663185172479219
 31
0.0
  0
LINE
  5
413
330
18
100
AcDbEntity
  8
1
 62
     1
100
AcDbLine
 10
32.49115594652001
 20
5.663185172479219
 30
0.0
 11
32.80691434057941
 21
5.484998140046564
 31
0.0
  0
LINE
  5
414
330
18
100
AcDbEntity
  8
1
 62
     1
100
AcDbLine
 10
32.80691434057941
 20
5.484998140046564
 30
0.0
 11
33.12266855629419
 21
5.287938336380272
 31
0.0
  0
LINE
  5
415
330
18
100
AcDbEntity
  8
1
 62
     1
100
AcDbLine
 10
33.12266855629419
 20
5.287938336380272
 30
0.0
 11
33.43843207135887
 21
5.072672761224085
 31
0.0
  0
LINE
  5
416
330
18
100
AcDbEntity
  8
1
 62
     1
100
AcDbLine
 10
33.43843207135887
 20
5.072672761224085
 30
0.0
 11
33.75420372994162
 21
4.839941636715384
 31
0.0
  0
LINE
  5
417
330
18
100
AcDbEntity
  8
1
 62
     1
100
AcDbLine
 10
33.75420372994162
 20
4.839941636715384
 30
0.0
 11
34.38571480508021
 21
4.325389267110888
 31
0.0
  0
LINE
  5
418
330
18
100
AcDbEntity
  8
1
 62
     1
100
AcDbLine
 10
34.38571480508021
 20
4.325389267110888
 30
0.0
 11
35.01725013995626
 21
3.751319566280578
 31
0.0
  0
LINE
  5
419
330
18
100
AcDbEntity
  8
1
 62
     1
100
AcDbLine
 10
28.17218906211562
 20
6.35
 30
0.0
 11
28.43636111440057
 21
6.342349509357764
 31
0.0
  0
LINE
  5
41A
330
18
100
AcDbEntity
  8
1
 62
     1
100
AcDbLine
 10
28.43636111440057
 20
6.342349509357764
 30
0.0
 11
28.70051959440939
 21
6.319422701870805
 31
0.0
  0
LINE
  5
41B
330
18
100
AcDbEntity
  8
1
 62
     1
100
AcDbLine
 10
28.70051959440939
 20
6.319422701870805
 30
0.0
 11
28.96470068775071
 21
6.281268522366965
 31
0.0
  0
LINE
  5
41C
330
18
100
AcDbEntity
  8
1
 62
     1
100
AcDbLine
 10
28.96470068775071
 20
6.281268522366965
 30
0.0
 11
29.22886116549471
 21
6.227984137797664
 31
0.0
  0
LINE
  5
41D
330
18
100
AcDbEntity
  8
1
 62
     1
100
AcDbLine
 10
29.22886116549471
 20
6.227984137797664
 30
0.0
 11
29.49302801966494
 21
6.159697194158202
 31
0.0
  0
LINE
  5
41E
330
18
100
AcDbEntity
  8
1
 62
     1
100
AcDbLine
 10
29.49302801966494
 20
6.159697194158202
 30
0.0
 11
29.75720482392861
 21
6.076565266891324
 31
0.0
  0
LINE
  5
41F
330
18
100
AcDbEntity
  8
1
 62
     1
100
AcDbLine
 10
29.75720482392861
 20
6.076565266891324
 30
0.0
 11
30.02136218744943
 21
5.978802179481639
 31
0.0
  0
LINE
  5
420
330
18
100
AcDbEntity
  8
1
 62
     1
100
AcDbLine
 10
30.02136218744943
 20
5.978802179481639
 30
0.0
 11
30.28554134966462
 21
5.866627402182188
 31
0.0
  0
LINE
  5
421
330
18
100
AcDbEntity
  8
1
 62
     1
100
AcDbLine
 10
30.28554134966462
 20
5.866627402182188
 30
0.0
 11
30.54970504485789
 21
5.740324006004974
 31
0.0
  0
LINE
  5
422
330
18
100
AcDbEntity
  8
1
 62
     1
100
AcDbLine
 10
30.54970504485789
 20
5.740324006004974
 30
0.0
 11
30.81386754788225
 21
5.600194913815533
 31
0.0
  0
LINE
  5
423
330
18
100
AcDbEntity
  8
1
 62
     1
100
AcDbLine
 10
30.81386754788225
 20
5.600194913815533
 30
0.0
 11
31.07804738567449
 21
5.446562791607693
 31
0.0
  0
LINE
  5
424
330
18
100
AcDbEntity
  8
1
 62
     1
100
AcDbLine
 10
31.07804738567449
 20
5.446562791607693
 30
0.0
 11
31.34220491094924
 21
5.279823044143319
 31
0.0
  0
LINE
  5
425
330
18
100
AcDbEntity
  8
1
 62
     1
100
AcDbLine
 10
31.34220491094924
 20
5.279823044143319
 30
0.0
 11
31.87054840903118
 21
4.908599056854928
 31
0.0
  0
LINE
  5
426
330
18
100
AcDbEntity
  8
1
 62
     1
100
AcDbLine
 10
31.87054840903118
 20
4.908599056854928
 30
0.0
 11
32.39888852975069
 21
4.490104359965124
 31
0.0
  0
LINE
  5
427
330
18
100
AcDbEntity
  8
1
 62
     1
100
AcDbLine
 10
32.39888852975069
 20
4.490104359965124
 30
0.0
 11
32.92721628181883
 21
4.028377528342622
 31
0.0
  0
LINE
  5
428
330
18
100
AcDbEntity
  8
1
 62
     1
100
AcDbLine
 10
32.92721628181883
 20
4.028377528342622
 30
0.0
 11
33.45554842110955
 21
3.527851014527515
 31
0.0
  0
LINE
  5
429
330
18
100
AcDbEntity
  8
1
 62
     1
100
AcDbLine
 10
33.45554842110955
 20
3.527851014527515
 30
0.0
 11
34.51223238972793
 21
2.430000271210754
 31
0.0
  0
LINE
  5
42A
330
18
100
AcDbEntity
  8
1
 62
     1
100
AcDbLine
 10
34.51223238972793
 20
2.430000271210754
 30
0.0
 11
36.62553236761805
 21
-0.0000000000026712
 31
0.0
  0
LINE
  5
42B
330
18
100
AcDbEntity
  8
1
 62
     1
100
AcDbLine
 10
35.60061458160321
 20
6.350000000000001
 30
0.0
 11
35.91638352486588
 21
6.339071157435283
 31
0.0
  0
LINE
  5
42C
330
18
100
AcDbEntity
  8
1
 62
     1
100
AcDbLine
 10
35.91638352486588
 20
6.339071157435283
 30
0.0
 11
36.23213798236498
 21
6.306326214696588
 31
0.0
  0
LINE
  5
42D
330
18
100
AcDbEntity
  8
1
 62
     1
100
AcDbLine
 10
36.23213798236498
 20
6.306326214696588
 30
0.0
 11
36.5478954601183
 21
6.251878579977927
 31
0.0
  0
LINE
  5
42E
330
18
100
AcDbEntity
  8
1
 62
     1
100
AcDbLine
 10
36.5478954601183
 20
6.251878579977927
 30
0.0
 11
36.86366739864333
 21
6.175909449046831
 31
0.0
  0
LINE
  5
42F
330
18
100
AcDbEntity
  8
1
 62
     1
100
AcDbLine
 10
36.86366739864333
 20
6.175909449046831
 30
0.0
 11
37.17943040313019
 21
6.078684938203076
 31
0.0
  0
LINE
  5
430
330
18
100
AcDbEntity
  8
1
 62
     1
100
AcDbLine
 10
37.17943040313019
 20
6.078684938203076
 30
0.0
 11
37.49518418171277
 21
5.96054370847437
 31
0.0
  0
LINE
  5
431
330
18
100
AcDbEntity
  8
1
 62
     1
100
AcDbLine
 10
37.49518418171277
 20
5.96054370847437
 30
0.0
 11
37.81094431456923
 21
5.821886994864834
 31
0.0
  0
LINE
  5
432
330
18
100
AcDbEntity
  8
1
 62
     1
100
AcDbLine
 10
37.81094431456923
 20
5.821886994864834
 30
0.0
 11
38.1267180376159
 21
5.663185151326973
 31
0.0
  0
LINE
  5
433
330
18
100
AcDbEntity
  8
1
 62
     1
100
AcDbLine
 10
38.1267180376159
 20
5.663185151326973
 30
0.0
 11
38.44247653391758
 21
5.484998163394833
 31
0.0
  0
LINE
  5
434
330
18
100
AcDbEntity
  8
1
 62
     1
100
AcDbLine
 10
38.44247653391758
 20
5.484998163394833
 30
0.0
 11
38.75823062610816
 21
5.287938318956905
 31
0.0
  0
LINE
  5
435
330
18
100
AcDbEntity
  8
1
 62
     1
100
AcDbLine
 10
38.75823062610816
 20
5.287938318956905
 30
0.0
 11
39.07399417690572
 21
5.072672765971522
 31
0.0
  0
LINE
  5
436
330
18
100
AcDbEntity
  8
1
 62
     1
100
AcDbLine
 10
39.07399417690572
 20
5.072672765971522
 30
0.0
 11
39.38976601090205
 21
4.83994174825486
 31
0.0
  0
LINE
  5
437
330
18
100
AcDbEntity
  8
1
 62
     1
100
AcDbLine
 10
39.38976601090205
 20
4.83994174825486
 30
0.0
 11
40.02127708417667
 21
4.325389407209732
 31
0.0
  0
LINE
  5
438
330
18
100
AcDbEntity
  8
1
 62
     1
100
AcDbLine
 10
40.02127708417667
 20
4.325389407209732
 30
0.0
 11
40.65281228421294
 21
3.751319653468573
 31
0.0
  0
LINE
  5
439
330
18
100
AcDbEntity
  8
1
 62
     1
100
AcDbLine
 10
33.80775126812924
 20
6.35
 30
0.0
 11
34.07192330780768
 21
6.34234950834436
 31
0.0
  0
LINE
  5
43A
330
18
100
AcDbEntity
  8
1
 62
     1
100
AcDbLine
 10
34.07192330780768
 20
6.34234950834436
 30
0.0
 11
34.33608178974353
 21
6.319422701144429
 31
0.0
  0
LINE
  5
43B
330
18
100
AcDbEntity
  8
1
 62
     1
100
AcDbLine
 10
34.33608178974353
 20
6.319422701144429
 30
0.0
 11
34.60026288987558
 21
6.28126852210724
 31
0.0
  0
LINE
  5
43C
330
18
100
AcDbEntity
  8
1
 62
     1
100
AcDbLine
 10
34.60026288987558
 20
6.28126852210724
 30
0.0
 11
34.86442336137543
 21
6.227984136953649
 31
0.0
  0
LINE
  5
43D
330
18
100
AcDbEntity
  8
1
 62
     1
100
AcDbLine
 10
34.86442336137543
 20
6.227984136953649
 30
0.0
 11
35.12859022936829
 21
6.159697195393169
 31
0.0
  0
LINE
  5
43E
330
18
100
AcDbEntity
  8
1
 62
     1
100
AcDbLine
 10
35.12859022936829
 20
6.159697195393169
 30
0.0
 11
35.39276702338863
 21
6.076565265879248
 31
0.0
  0
LINE
  5
43F
330
18
100
AcDbEntity
  8
1
 62
     1
100
AcDbLine
 10
35.39276702338863
 20
6.076565265879248
 30
0.0
 11
35.65692439536201
 21
5.978802180573825
 31
0.0
  0
LINE
  5
440
330
18
100
AcDbEntity
  8
1
 62
     1
100
AcDbLine
 10
35.65692439536201
 20
5.978802180573825
 30
0.0
 11
35.92110353461179
 21
5.866627396444245
 31
0.0
  0
LINE
  5
441
330
18
100
AcDbEntity
  8
1
 62
     1
100
AcDbLine
 10
35.92110353461179
 20
5.866627396444245
 30
0.0
 11
36.18526724769945
 21
5.74032400637384
 31
0.0
  0
LINE
  5
442
330
18
100
AcDbEntity
  8
1
 62
     1
100
AcDbLine
 10
36.18526724769945
 20
5.74032400637384
 30
0.0
 11
36.44942973341971
 21
5.600194907545804
 31
0.0
  0
LINE
  5
443
330
18
100
AcDbEntity
  8
1
 62
     1
100
AcDbLine
 10
36.44942973341971
 20
5.600194907545804
 30
0.0
 11
36.71360959377688
 21
5.446562795025326
 31
0.0
  0
LINE
  5
444
330
18
100
AcDbEntity
  8
1
 62
     1
100
AcDbLine
 10
36.71360959377688
 20
5.446562795025326
 30
0.0
 11
36.97776711033289
 21
5.279823043635092
 31
0.0
  0
LINE
  5
445
330
18
100
AcDbEntity
  8
1
 62
     1
100
AcDbLine
 10
36.97776711033289
 20
5.279823043635092
 30
0.0
 11
37.50611060134763
 21
4.90859905250505
 31
0.0
  0
LINE
  5
446
330
18
100
AcDbEntity
  8
1
 62
     1
100
AcDbLine
 10
37.50611060134763
 20
4.90859905250505
 30
0.0
 11
38.034450724289
 21
4.490104357427887
 31
0.0
  0
LINE
  5
447
330
18
100
AcDbEntity
  8
1
 62
     1
100
AcDbLine
 10
38.034450724289
 20
4.490104357427887
 30
0.0
 11
38.56277848541168
 21
4.028377532176619
 31
0.0
  0
LINE
  5
448
330
18
100
AcDbEntity
  8
1
 62
     1
100
AcDbLine
 10
38.56277848541168
 20
4.028377532176619
 30
0.0
 11
39.0911106274737
 21
3.527851021062156
 31
0.0
  0
LINE
  5
449
330
18
100
AcDbEntity
  8
1
 62
     1
100
AcDbLine
 10
39.0911106274737
 20
3.527851021062156
 30
0.0
 11
40.14779459427439
 21
2.430000278814901
 31
0.0
  0
LINE
  5
44A
330
18
100
AcDbEntity
  8
1
 62
     1
100
AcDbLine
 10
40.14779459427439
 20
2.430000278814901
 30
0.0
 11
42.26109455895944
 21
-0.0000000000002383
 31
0.0
  0
LINE
  5
44B
330
18
100
AcDbEntity
  8
1
 62
     1
100
AcDbLine
 10
56.3
 20
-3.882291829482738
 30
0.0
 11
56.29525334360513
 21
-4.067025902572277
 31
0.0
  0
LINE
  5
44C
330
18
100
AcDbEntity
  8
1
 62
     1
100
AcDbLine
 10
56.29525334360513
 20
-4.067025902572277
 30
0.0
 11
56.27946402941811
 21
-4.253014629388221
 31
0.0
  0
LINE
  5
44D
330
18
100
AcDbEntity
  8
1
 62
     1
100
AcDbLine
 10
56.27946402941811
 20
-4.253014629388221
 30
0.0
 11
56.26658153823056
 21
-4.346302033040346
 31
0.0
  0
LINE
  5
44E
330
18
100
AcDbEntity
  8
1
 62
     1
100
AcDbLine
 10
56.26658153823056
 20
-4.346302033040346
 30
0.0
 11
56.24983484844356
 21
-4.439567284733311
 31
0.0
  0
LINE
  5
44F
330
18
100
AcDbEntity
  8
1
 62
     1
100
AcDbLine
 10
56.24983484844356
 20
-4.439567284733311
 30
0.0
 11
56.22878612621361
 21
-4.532492200730141
 31
0.0
  0
LINE
  5
450
330
18
100
AcDbEntity
  8
1
 62
     1
100
AcDbLine
 10
56.22878612621361
 20
-4.532492200730141
 30
0.0
 11
56.20296038897709
 21
-4.62467165212187
 31
0.0
  0
LINE
  5
451
330
18
100
AcDbEntity
  8
1
 62
     1
100
AcDbLine
 10
56.20296038897709
 20
-4.62467165212187
 30
0.0
 11
56.17189057679755
 21
-4.715510355285847
 31
0.0
  0
LINE
  5
452
330
18
100
AcDbEntity
  8
1
 62
     1
100
AcDbLine
 10
56.17189057679755
 20
-4.715510355285847
 30
0.0
 11
56.13516483807962
 21
-4.804180680282899
 31
0.0
  0
LINE
  5
453
330
18
100
AcDbEntity
  8
1
 62
     1
100
AcDbLine
 10
56.13516483807962
 20
-4.804180680282899
 30
0.0
 11
56.11460765248296
 21
-4.84734013291509
 31
0.0
  0
LINE
  5
454
330
18
100
AcDbEntity
  8
1
 62
     1
100
AcDbLine
 10
56.11460765248296
 20
-4.84734013291509
 30
0.0
 11
56.09255207530327
 21
-4.889536570085379
 31
0.0
  0
LINE
  5
455
330
18
100
AcDbEntity
  8
1
 62
     1
100
AcDbLine
 10
56.09255207530327
 20
-4.889536570085379
 30
0.0
 11
56.0690132828333
 21
-4.93058342323266
 31
0.0
  0
LINE
  5
456
330
18
100
AcDbEntity
  8
1
 62
     1
100
AcDbLine
 10
56.0690132828333
 20
-4.93058342323266
 30
0.0
 11
56.04400082079012
 21
-4.970331425599343
 31
0.0
  0
LINE
  5
457
330
18
100
AcDbEntity
  8
1
 62
     1
100
AcDbLine
 10
56.04400082079012
 20
-4.970331425599343
 30
0.0
 11
56.01757239331135
 21
-5.008581080933213
 31
0.0
  0
LINE
  5
458
330
18
100
AcDbEntity
  8
1
 62
     1
100
AcDbLine
 10
56.01757239331135
 20
-5.008581080933213
 30
0.0
 11
55.98978080647554
 21
-5.045184723332053
 31
0.0
  0
LINE
  5
459
330
18
100
AcDbEntity
  8
1
 62
     1
100
AcDbLine
 10
55.98978080647554
 20
-5.045184723332053
 30
0.0
 11
55.96072052554074
 21
-5.079965250232064
 31
0.0
  0
LINE
  5
45A
330
18
100
AcDbEntity
  8
1
 62
     1
100
AcDbLine
 10
55.96072052554074
 20
-5.079965250232064
 30
0.0
 11
55.93048779980602
 21
-5.112796151970512
 31
0.0
  0
LINE
  5
45B
330
18
100
AcDbEntity
  8
1
 62
     1
100
AcDbLine
 10
55.93048779980602
 20
-5.112796151970512
 30
0.0
 11
55.8991969806312
 21
-5.143553607017099
 31
0.0
  0
LINE
  5
45C
330
18
100
AcDbEntity
  8
1
 62
     1
100
AcDbLine
 10
55.8991969806312
 20
-5.143553607017099
 30
0.0
 11
55.86697679836919
 21
-5.172148573433135
 31
0.0
  0
LINE
  5
45D
330
18
100
AcDbEntity
  8
1
 62
     1
100
AcDbLine
 10
55.86697679836919
 20
-5.172148573433135
 30
0.0
 11
55.83394223012719
 21
-5.198524061540027
 31
0.0
  0
LINE
  5
45E
330
18
100
AcDbEntity
  8
1
 62
     1
100
AcDbLine
 10
55.83394223012719
 20
-5.198524061540027
 30
0.0
 11
55.80023337983329
 21
-5.222638456777382
 31
0.0
  0
LINE
  5
45F
330
18
100
AcDbEntity
  8
1
 62
     1
100
AcDbLine
 10
55.80023337983329
 20
-5.222638456777382
 30
0.0
 11
55.76595258779072
 21
-5.244494542013026
 31
0.0
  0
LINE
  5
460
330
18
100
AcDbEntity
  8
1
 62
     1
100
AcDbLine
 10
55.76595258779072
 20
-5.244494542013026
 30
0.0
 11
55.73123036301721
 21
-5.264097033416038
 31
0.0
  0
LINE
  5
461
330
18
100
AcDbEntity
  8
1
 62
     1
100
AcDbLine
 10
55.73123036301721
 20
-5.264097033416038
 30
0.0
 11
55.6961505617268
 21
-5.281490633765252
 31
0.0
  0
LINE
  5
462
330
18
100
AcDbEntity
  8
1
 62
     1
100
AcDbLine
 10
55.6961505617268
 20
-5.281490633765252
 30
0.0
 11
55.66081780580917
 21
-5.296716638826
 31
0.0
  0
LINE
  5
463
330
18
100
AcDbEntity
  8
1
 62
     1
100
AcDbLine
 10
55.66081780580917
 20
-5.296716638826
 30
0.0
 11
55.62528562957803
 21
-5.309846765927048
 31
0.0
  0
LINE
  5
464
330
18
100
AcDbEntity
  8
1
 62
     1
100
AcDbLine
 10
55.62528562957803
 20
-5.309846765927048
 30
0.0
 11
55.58965500020028
 21
-5.320938091562359
 31
0.0
  0
LINE
  5
465
330
18
100
AcDbEntity
  8
1
 62
     1
100
AcDbLine
 10
55.58965500020028
 20
-5.320938091562359
 30
0.0
 11
55.55398420260452
 21
-5.330061707673015
 31
0.0
  0
LINE
  5
466
330
18
100
AcDbEntity
  8
1
 62
     1
100
AcDbLine
 10
55.55398420260452
 20
-5.330061707673015
 30
0.0
 11
55.51830175227784
 21
-5.33730048358828
 31
0.0
  0
LINE
  5
467
330
18
100
AcDbEntity
  8
1
 62
     1
100
AcDbLine
 10
55.51830175227784
 20
-5.33730048358828
 30
0.0
 11
55.48267730730139
 21
-5.342724246709889
 31
0.0
  0
LINE
  5
468
330
18
100
AcDbEntity
  8
1
 62
     1
100
AcDbLine
 10
55.48267730730139
 20
-5.342724246709889
 30
0.0
 11
55.44712848708267
 21
-5.346410304362605
 31
0.0
  0
LINE
  5
469
330
18
100
AcDbEntity
  8
1
 62
     1
100
AcDbLine
 10
55.44712848708267
 20
-5.346410304362605
 30
0.0
 11
55.41168306139216
 21
-5.348431603676268
 31
0.0
  0
LINE
  5
46A
330
18
100
AcDbEntity
  8
1
 62
     1
100
AcDbLine
 10
55.41168306139216
 20
-5.348431603676268
 30
0.0
 11
55.37638206559376
 21
-5.348857523925798
 31
0.0
  0
LINE
  5
46B
330
18
100
AcDbEntity
  8
1
 62
     1
100
AcDbLine
 10
55.37638206559376
 20
-5.348857523925798
 30
0.0
 11
55.34122497920544
 21
-5.34775552784415
 31
0.0
  0
LINE
  5
46C
330
18
100
AcDbEntity
  8
1
 62
     1
100
AcDbLine
 10
55.34122497920544
 20
-5.34775552784415
 30
0.0
 11
55.30623614007162
 21
-5.345189019399339
 31
0.0
  0
LINE
  5
46D
330
18
100
AcDbEntity
  8
1
 62
     1
100
AcDbLine
 10
55.30623614007162
 20
-5.345189019399339
 30
0.0
 11
55.27143489655227
 21
-5.341219434696669
 31
0.0
  0
LINE
  5
46E
330
18
100
AcDbEntity
  8
1
 62
     1
100
AcDbLine
 10
55.27143489655227
 20
-5.341219434696669
 30
0.0
 11
55.23681671141149
 21
-5.335901704980812
 31
0.0
  0
LINE
  5
46F
330
18
100
AcDbEntity
  8
1
 62
     1
100
AcDbLine
 10
55.23681671141149
 20
-5.335901704980812
 30
0.0
 11
55.20240121256542
 21
-5.32929078057396
 31
0.0
  0
LINE
  5
470
330
18
100
AcDbEntity
  8
1
 62
     1
100
AcDbLine
 10
55.20240121256542
 20
-5.32929078057396
 30
0.0
 11
55.16818889341216
 21
-5.321436556624557
 31
0.0
  0
LINE
  5
471
330
18
100
AcDbEntity
  8
1
 62
     1
100
AcDbLine
 10
55.16818889341216
 20
-5.321436556624557
 30
0.0
 11
55.1003733754863
 21
-5.30217450508805
 31
0.0
  0
LINE
  5
472
330
18
100
AcDbEntity
  8
1
 62
     1
100
AcDbLine
 10
55.1003733754863
 20
-5.30217450508805
 30
0.0
 11
55.03344391984282
 21
-5.27847170699915
 31
0.0
  0
LINE
  5
473
330
18
100
AcDbEntity
  8
1
 62
     1
100
AcDbLine
 10
55.03344391984282
 20
-5.27847170699915
 30
0.0
 11
54.96737744284476
 21
-5.250618431868013
 31
0.0
  0
LINE
  5
474
330
18
100
AcDbEntity
  8
1
 62
     1
100
AcDbLine
 10
54.96737744284476
 20
-5.250618431868013
 30
0.0
 11
54.90221036133688
 21
-5.218893881135411
 31
0.0
  0
LINE
  5
475
330
18
100
AcDbEntity
  8
1
 62
     1
100
AcDbLine
 10
54.90221036133688
 20
-5.218893881135411
 30
0.0
 11
54.8379160407974
 21
-5.183522197312145
 31
0.0
  0
LINE
  5
476
330
18
100
AcDbEntity
  8
1
 62
     1
100
AcDbLine
 10
54.8379160407974
 20
-5.183522197312145
 30
0.0
 11
54.77451716354977
 21
-5.144726564483569
 31
0.0
  0
LINE
  5
477
330
18
100
AcDbEntity
  8
1
 62
     1
100
AcDbLine
 10
54.77451716354977
 20
-5.144726564483569
 30
0.0
 11
54.71199999999999
 21
-5.102690750112187
 31
0.0
  0
LINE
  5
478
330
18
100
AcDbEntity
  8
1
 62
     1
100
AcDbLine
 10
56.30000000000001
 20
-4.761794461381859
 30
0.0
 11
56.29692610443073
 21
-4.860507242737022
 31
0.0
  0
LINE
  5
479
330
18
100
AcDbEntity
  8
1
 62
     1
100
AcDbLine
 10
56.29692610443073
 20
-4.860507242737022
 30
0.0
 11
56.28775934206833
 21
-4.958445720621632
 31
0.0
  0
LINE
  5
47A
330
18
100
AcDbEntity
  8
1
 62
     1
100
AcDbLine
 10
56.28775934206833
 20
-4.958445720621632
 30
0.0
 11
56.27265634955314
 21
-5.054894382603166
 31
0.0
  0
LINE
  5
47B
330
18
100
AcDbEntity
  8
1
 62
     1
100
AcDbLine
 10
56.27265634955314
 20
-5.054894382603166
 30
0.0
 11
56.2518687012516
 21
-5.149149421473538
 31
0.0
  0
LINE
  5
47C
330
18
100
AcDbEntity
  8
1
 62
     1
100
AcDbLine
 10
56.2518687012516
 20
-5.149149421473538
 30
0.0
 11
56.22574348630268
 21
-5.240521572718427
 31
0.0
  0
LINE
  5
47D
330
18
100
AcDbEntity
  8
1
 62
     1
100
AcDbLine
 10
56.22574348630268
 20
-5.240521572718427
 30
0.0
 11
56.19469876507178
 21
-5.3284148405003
 31
0.0
  0
LINE
  5
47E
330
18
100
AcDbEntity
  8
1
 62
     1
100
AcDbLine
 10
56.19469876507178
 20
-5.3284148405003
 30
0.0
 11
56.15918467869717
 21
-5.412353736324277
 31
0.0
  0
LINE
  5
47F
330
18
100
AcDbEntity
  8
1
 62
     1
100
AcDbLine
 10
56.15918467869717
 20
-5.412353736324277
 30
0.0
 11
56.11966645149153
 21
-5.491961803552149
 31
0.0
  0
LINE
  5
480
330
18
100
AcDbEntity
  8
1
 62
     1
100
AcDbLine
 10
56.11966645149153
 20
-5.491961803552149
 30
0.0
 11
56.07661531770486
 21
-5.566946826267501
 31
0.0
  0
LINE
  5
481
330
18
100
AcDbEntity
  8
1
 62
     1
100
AcDbLine
 10
56.07661531770486
 20
-5.566946826267501
 30
0.0
 11
56.03047515641747
 21
-5.637128783870606
 31
0.0
  0
LINE
  5
482
330
18
100
AcDbEntity
  8
1
 62
     1
100
AcDbLine
 10
56.03047515641747
 20
-5.637128783870606
 30
0.0
 11
55.98164858995243
 21
-5.702416829580883
 31
0.0
  0
LINE
  5
483
330
18
100
AcDbEntity
  8
1
 62
     1
100
AcDbLine
 10
55.98164858995243
 20
-5.702416829580883
 30
0.0
 11
55.9305003705829
 21
-5.762779452596559
 31
0.0
  0
LINE
  5
484
330
18
100
AcDbEntity
  8
1
 62
     1
100
AcDbLine
 10
55.9305003705829
 20
-5.762779452596559
 30
0.0
 11
55.87736298917015
 21
-5.818225501700803
 31
0.0
  0
LINE
  5
485
330
18
100
AcDbEntity
  8
1
 62
     1
100
AcDbLine
 10
55.87736298917015
 20
-5.818225501700803
 30
0.0
 11
55.82252248283097
 21
-5.868809510701901
 31
0.0
  0
LINE
  5
486
330
18
100
AcDbEntity
  8
1
 62
     1
100
AcDbLine
 10
55.82252248283097
 20
-5.868809510701901
 30
0.0
 11
55.76622171163903
 21
-5.914614775262974
 31
0.0
  0
LINE
  5
487
330
18
100
AcDbEntity
  8
1
 62
     1
100
AcDbLine
 10
55.76622171163903
 20
-5.914614775262974
 30
0.0
 11
55.70865446128577
 21
-5.955748679243118
 31
0.0
  0
LINE
  5
488
330
18
100
AcDbEntity
  8
1
 62
     1
100
AcDbLine
 10
55.70865446128577
 20
-5.955748679243118
 30
0.0
 11
55.65003847381609
 21
-5.992291733915803
 31
0.0
  0
LINE
  5
489
330
18
100
AcDbEntity
  8
1
 62
     1
100
AcDbLine
 10
55.65003847381609
 20
-5.992291733915803
 30
0.0
 11
55.59050573606417
 21
-6.024367878598824
 31
0.0
  0
LINE
  5
48A
330
18
100
AcDbEntity
  8
1
 62
     1
100
AcDbLine
 10
55.59050573606417
 20
-6.024367878598824
 30
0.0
 11
55.53021310013531
 21
-6.052076513821407
 31
0.0
  0
LINE
  5
48B
330
18
100
AcDbEntity
  8
1
 62
     1
100
AcDbLine
 10
55.53021310013531
 20
-6.052076513821407
 30
0.0
 11
55.46925331481052
 21
-6.075535582188567
 31
0.0
  0
LINE
  5
48C
330
18
100
AcDbEntity
  8
1
 62
     1
100
AcDbLine
 10
55.46925331481052
 20
-6.075535582188567
 30
0.0
 11
55.4077450961132
 21
-6.094843120799867
 31
0.0
  0
LINE
  5
48D
330
18
100
AcDbEntity
  8
1
 62
     1
100
AcDbLine
 10
55.4077450961132
 20
-6.094843120799867
 30
0.0
 11
55.34575304057424
 21
-6.110105149855573
 31
0.0
  0
LINE
  5
48E
330
18
100
AcDbEntity
  8
1
 62
     1
100
AcDbLine
 10
55.34575304057424
 20
-6.110105149855573
 30
0.0
 11
55.28336871177743
 21
-6.121412677543616
 31
0.0
  0
LINE
  5
48F
330
18
100
AcDbEntity
  8
1
 62
     1
100
AcDbLine
 10
55.28336871177743
 20
-6.121412677543616
 30
0.0
 11
55.2206368918381
 21
-6.128857796595534
 31
0.0
  0
LINE
  5
490
330
18
100
AcDbEntity
  8
1
 62
     1
100
AcDbLine
 10
55.2206368918381
 20
-6.128857796595534
 30
0.0
 11
55.15762934828182
 21
-6.132522291401133
 31
0.0
  0
LINE
  5
491
330
18
100
AcDbEntity
  8
1
 62
     1
100
AcDbLine
 10
55.15762934828182
 20
-6.132522291401133
 30
0.0
 11
55.09436269800303
 21
-6.132483170485429
 31
0.0
  0
LINE
  5
492
330
18
100
AcDbEntity
  8
1
 62
     1
100
AcDbLine
 10
55.09436269800303
 20
-6.132483170485429
 30
0.0
 11
55.03089295176213
 21
-6.128811422192197
 31
0.0
  0
LINE
  5
493
330
18
100
AcDbEntity
  8
1
 62
     1
100
AcDbLine
 10
55.03089295176213
 20
-6.128811422192197
 30
0.0
 11
54.96729712587744
 21
-6.121575983977187
 31
0.0
  0
LINE
  5
494
330
18
100
AcDbEntity
  8
1
 62
     1
100
AcDbLine
 10
54.96729712587744
 20
-6.121575983977187
 30
0.0
 11
54.90356472074565
 21
-6.11083259941198
 31
0.0
  0
LINE
  5
495
330
18
100
AcDbEntity
  8
1
 62
     1
100
AcDbLine
 10
54.90356472074565
 20
-6.11083259941198
 30
0.0
 11
54.83973635085233
 21
-6.096638940466836
 31
0.0
  0
LINE
  5
496
330
18
100
AcDbEntity
  8
1
 62
     1
100
AcDbLine
 10
54.83973635085233
 20
-6.096638940466836
 30
0.0
 11
54.7758788351612
 21
-6.079054879774596
 31
0.0
  0
LINE
  5
497
330
18
100
AcDbEntity
  8
1
 62
     1
100
AcDbLine
 10
54.7758788351612
 20
-6.079054879774596
 30
0.0
 11
54.71199999999999
 21
-6.058123710211436
 31
0.0
  0
LINE
  5
498
330
18
100
AcDbEntity
  8
1
 62
     1
100
AcDbLine
 10
56.3
 20
-3.882291829482737
 30
0.0
 11
56.29999999999999
 21
-4.761794461381858
 31
0.0
  0
LINE
  5
499
330
18
100
AcDbEntity
  8
1
 62
     1
100
AcDbLine
 10
41.2361769331508
 20
6.35
 30
0.0
 11
41.55194583291292
 21
6.339071157321683
 31
0.0
  0
LINE
  5
49A
330
18
100
AcDbEntity
  8
1
 62
     1
100
AcDbLine
 10
41.55194583291292
 20
6.339071157321683
 30
0.0
 11
41.8677002180642
 21
6.30632620246962
 31
0.0
  0
LINE
  5
49B
330
18
100
AcDbEntity
  8
1
 62
     1
100
AcDbLine
 10
41.8677002180642
 20
6.30632620246962
 30
0.0
 11
42.1834576689933
 21
6.25187857026873
 31
0.0
  0
LINE
  5
49C
330
18
100
AcDbEntity
  8
1
 62
     1
100
AcDbLine
 10
42.1834576689933
 20
6.25187857026873
 30
0.0
 11
42.4992295283945
 21
6.175909426231264
 31
0.0
  0
LINE
  5
49D
330
18
100
AcDbEntity
  8
1
 62
     1
100
AcDbLine
 10
42.4992295283945
 20
6.175909426231264
 30
0.0
 11
42.81499267049337
 21
6.078684954641588
 31
0.0
  0
LINE
  5
49E
330
18
100
AcDbEntity
  8
1
 62
     1
100
AcDbLine
 10
42.81499267049337
 20
6.078684954641588
 30
0.0
 11
43.13074637417829
 21
5.960543710953391
 31
0.0
  0
LINE
  5
49F
330
18
100
AcDbEntity
  8
1
 62
     1
100
AcDbLine
 10
43.13074637417829
 20
5.960543710953391
 30
0.0
 11
43.44650663764233
 21
5.821887047332782
 31
0.0
  0
LINE
  5
4A0
330
18
100
AcDbEntity
  8
1
 62
     1
100
AcDbLine
 10
43.44650663764233
 20
5.821887047332782
 30
0.0
 11
43.76228005812587
 21
5.663185104711199
 31
0.0
  0
LINE
  5
4A1
330
18
100
AcDbEntity
  8
1
 62
     1
100
AcDbLine
 10
43.76228005812587
 20
5.663185104711199
 30
0.0
 11
44.07803871866113
 21
5.484998191999948
 31
0.0
  0
LINE
  5
4A2
330
18
100
AcDbEntity
  8
1
 62
     1
100
AcDbLine
 10
44.07803871866113
 20
5.484998191999948
 30
0.0
 11
44.39379267467876
 21
5.28793830511113
 31
0.0
  0
LINE
  5
4A3
330
18
100
AcDbEntity
  8
1
 62
     1
100
AcDbLine
 10
44.39379267467876
 20
5.28793830511113
 30
0.0
 11
44.70955631999495
 21
5.072672809262467
 31
0.0
  0
LINE
  5
4A4
330
18
100
AcDbEntity
  8
1
 62
     1
100
AcDbLine
 10
44.70955631999495
 20
5.072672809262467
 30
0.0
 11
45.0253282586686
 21
4.839941868070813
 31
0.0
  0
LINE
  5
4A5
330
18
100
AcDbEntity
  8
1
 62
     1
100
AcDbLine
 10
45.0253282586686
 20
4.839941868070813
 30
0.0
 11
45.65683930812891
 21
4.325389557572575
 31
0.0
  0
LINE
  5
4A6
330
18
100
AcDbEntity
  8
1
 62
     1
100
AcDbLine
 10
45.65683930812891
 20
4.325389557572575
 30
0.0
 11
46.28837442211064
 21
3.751319800730863
 31
0.0
  0
LINE
  5
4A7
330
18
100
AcDbEntity
  8
1
 62
     1
100
AcDbLine
 10
39.44331346456769
 20
6.35
 30
0.0
 11
39.70748550051233
 21
6.34234950784334
 31
0.0
  0
LINE
  5
4A8
330
18
100
AcDbEntity
  8
1
 62
     1
100
AcDbLine
 10
39.70748550051233
 20
6.34234950784334
 30
0.0
 11
39.97164397529281
 21
6.319422700512531
 31
0.0
  0
LINE
  5
4A9
330
18
100
AcDbEntity
  8
1
 62
     1
100
AcDbLine
 10
39.97164397529281
 20
6.319422700512531
 30
0.0
 11
40.23582509256373
 21
6.281268523186149
 31
0.0
  0
LINE
  5
4AA
330
18
100
AcDbEntity
  8
1
 62
     1
100
AcDbLine
 10
40.23582509256373
 20
6.281268523186149
 30
0.0
 11
40.49998555471075
 21
6.227984137157224
 31
0.0
  0
LINE
  5
4AB
330
18
100
AcDbEntity
  8
1
 62
     1
100
AcDbLine
 10
40.49998555471075
 20
6.227984137157224
 30
0.0
 11
40.76415243774328
 21
6.159697198328557
 31
0.0
  0
LINE
  5
4AC
330
18
100
AcDbEntity
  8
1
 62
     1
100
AcDbLine
 10
40.76415243774328
 20
6.159697198328557
 30
0.0
 11
41.0283292151769
 21
6.076565265188798
 31
0.0
  0
LINE
  5
4AD
330
18
100
AcDbEntity
  8
1
 62
     1
100
AcDbLine
 10
41.0283292151769
 20
6.076565265188798
 30
0.0
 11
41.29248659820314
 21
5.978802183009409
 31
0.0
  0
LINE
  5
4AE
330
18
100
AcDbEntity
  8
1
 62
     1
100
AcDbLine
 10
41.29248659820314
 20
5.978802183009409
 30
0.0
 11
41.55666571447102
 21
5.866627392190255
 31
0.0
  0
LINE
  5
4AF
330
18
100
AcDbEntity
  8
1
 62
     1
100
AcDbLine
 10
41.55666571447102
 20
5.866627392190255
 30
0.0
 11
41.82082944530408
 21
5.740324008550656
 31
0.0
  0
LINE
  5
4B0
330
18
100
AcDbEntity
  8
1
 62
     1
100
AcDbLine
 10
41.82082944530408
 20
5.740324008550656
 30
0.0
 11
42.08499191942347
 21
5.600194905318454
 31
0.0
  0
LINE
  5
4B1
330
18
100
AcDbEntity
  8
1
 62
     1
100
AcDbLine
 10
42.08499191942347
 20
5.600194905318454
 30
0.0
 11
42.34917179766676
 21
5.446562800777656
 31
0.0
  0
LINE
  5
4B2
330
18
100
AcDbEntity
  8
1
 62
     1
100
AcDbLine
 10
42.34917179766676
 20
5.446562800777656
 30
0.0
 11
42.61332930820803
 21
5.279823046812928
 31
0.0
  0
LINE
  5
4B3
330
18
100
AcDbEntity
  8
1
 62
     1
100
AcDbLine
 10
42.61332930820803
 20
5.279823046812928
 30
0.0
 11
43.14167278974652
 21
4.908599051243945
 31
0.0
  0
LINE
  5
4B4
330
18
100
AcDbEntity
  8
1
 62
     1
100
AcDbLine
 10
43.14167278974652
 20
4.908599051243945
 30
0.0
 11
43.67001292022421
 21
4.490104361607863
 31
0.0
  0
LINE
  5
4B5
330
18
100
AcDbEntity
  8
1
 62
     1
100
AcDbLine
 10
43.67001292022421
 20
4.490104361607863
 30
0.0
 11
44.19834068911032
 21
4.028377542440425
 31
0.0
  0
LINE
  5
4B6
330
18
100
AcDbEntity
  8
1
 62
     1
100
AcDbLine
 10
44.19834068911032
 20
4.028377542440425
 30
0.0
 11
44.72667282950534
 21
3.527851031352617
 31
0.0
  0
LINE
  5
4B7
330
18
100
AcDbEntity
  8
1
 62
     1
100
AcDbLine
 10
44.72667282950534
 20
3.527851031352617
 30
0.0
 11
45.78335679548021
 21
2.430000291420668
 31
0.0
  0
LINE
  5
4B8
330
18
100
AcDbEntity
  8
1
 62
     1
100
AcDbLine
 10
45.78335679548021
 20
2.430000291420668
 30
0.0
 11
47.89665674052941
 21
-0.0000000000048799
 31
0.0
  0
LINE
  5
4B9
330
18
100
AcDbEntity
  8
1
 62
     1
100
AcDbLine
 10
56.3
 20
0.4470208744608991
 30
0.0
 11
56.29885868426255
 21
0.3777152139595736
 31
0.0
  0
LINE
  5
4BA
330
18
100
AcDbEntity
  8
1
 62
     1
100
AcDbLine
 10
56.29885868426255
 20
0.3777152139595736
 30
0.0
 11
56.29525356140247
 21
0.3094849395449476
 31
0.0
  0
LINE
  5
4BB
330
18
100
AcDbEntity
  8
1
 62
     1
100
AcDbLine
 10
56.29525356140247
 20
0.3094849395449476
 30
0.0
 11
56.28890024623701
 21
0.2426116241242889
 31
0.0
  0
LINE
  5
4BC
330
18
100
AcDbEntity
  8
1
 62
     1
100
AcDbLine
 10
56.28890024623701
 20
0.2426116241242889
 30
0.0
 11
56.27946502052691
 21
0.1774745612118404
 31
0.0
  0
LINE
  5
4BD
330
18
100
AcDbEntity
  8
1
 62
     1
100
AcDbLine
 10
56.27946502052691
 20
0.1774745612118404
 30
0.0
 11
56.26658315583112
 21
0.1145084775024787
 31
0.0
  0
LINE
  5
4BE
330
18
100
AcDbEntity
  8
1
 62
     1
100
AcDbLine
 10
56.26658315583112
 20
0.1145084775024787
 30
0.0
 11
56.25871921193217
 21
0.0840071899562082
 31
0.0
  0
LINE
  5
4BF
330
18
100
AcDbEntity
  8
1
 62
     1
100
AcDbLine
 10
56.25871921193217
 20
0.0840071899562082
 30
0.0
 11
56.24983740981716
 21
0.0542805067601771
 31
0.0
  0
LINE
  5
4C0
330
18
100
AcDbEntity
  8
1
 62
     1
100
AcDbLine
 10
56.24983740981716
 20
0.0542805067601771
 30
0.0
 11
56.23988372645552
 21
0.0254160231882689
 31
0.0
  0
LINE
  5
4C1
330
18
100
AcDbEntity
  8
1
 62
     1
100
AcDbLine
 10
56.23988372645552
 20
0.0254160231882689
 30
0.0
 11
56.22879625559603
 21
-0.0024964022372908
 31
0.0
  0
LINE
  5
4C2
330
18
100
AcDbEntity
  8
1
 62
     1
100
AcDbLine
 10
56.22879625559603
 20
-0.0024964022372908
 30
0.0
 11
56.21651498426912
 21
-0.0293494231532464
 31
0.0
  0
LINE
  5
4C3
330
18
100
AcDbEntity
  8
1
 62
     1
100
AcDbLine
 10
56.21651498426912
 20
-0.0293494231532464
 30
0.0
 11
56.20297396363875
 21
-0.0550357889911715
 31
0.0
  0
LINE
  5
4C4
330
18
100
AcDbEntity
  8
1
 62
     1
100
AcDbLine
 10
56.20297396363875
 20
-0.0550357889911715
 30
0.0
 11
56.18812127355662
 21
-0.079417681223497
 31
0.0
  0
LINE
  5
4C5
330
18
100
AcDbEntity
  8
1
 62
     1
100
AcDbLine
 10
56.18812127355662
 20
-0.079417681223497
 30
0.0
 11
56.18018952337756
 21
-0.0910713468563194
 31
0.0
  0
LINE
  5
4C6
330
18
100
AcDbEntity
  8
1
 62
     1
100
AcDbLine
 10
56.18018952337756
 20
-0.0910713468563194
 30
0.0
 11
56.17190974746821
 21
-0.1023457925687877
 31
0.0
  0
LINE
  5
4C7
330
18
100
AcDbEntity
  8
1
 62
     1
100
AcDbLine
 10
56.17190974746821
 20
-0.1023457925687877
 30
0.0
 11
56.16327167003577
 21
-0.1132286290055592
 31
0.0
  0
LINE
  5
4C8
330
18
100
AcDbEntity
  8
1
 62
     1
100
AcDbLine
 10
56.16327167003577
 20
-0.1132286290055592
 30
0.0
 11
56.15427341137449
 21
-0.123698247933263
 31
0.0
  0
LINE
  5
4C9
330
18
100
AcDbEntity
  8
1
 62
     1
100
AcDbLine
 10
56.15427341137449
 20
-0.123698247933263
 30
0.0
 11
56.14491324622509
 21
-0.1337328646646239
 31
0.0
  0
LINE
  5
4CA
330
18
100
AcDbEntity
  8
1
 62
     1
100
AcDbLine
 10
56.14491324622509
 20
-0.1337328646646239
 30
0.0
 11
56.13518944932827
 21
-0.1433106945123668
 31
0.0
  0
LINE
  5
4CB
330
18
100
AcDbEntity
  8
1
 62
     1
100
AcDbLine
 10
56.13518944932827
 20
-0.1433106945123668
 30
0.0
 11
56.12509959047242
 21
-0.1524106567369719
 31
0.0
  0
LINE
  5
4CC
330
18
100
AcDbEntity
  8
1
 62
     1
100
AcDbLine
 10
56.12509959047242
 20
-0.1524106567369719
 30
0.0
 11
56.114634402131
 21
-0.1610203200509447
 31
0.0
  0
LINE
  5
4CD
330
18
100
AcDbEntity
  8
1
 62
     1
100
AcDbLine
 10
56.114634402131
 20
-0.1610203200509447
 30
0.0
 11
56.103794391961
 21
-0.1691213625667932
 31
0.0
  0
LINE
  5
4CE
330
18
100
AcDbEntity
  8
1
 62
     1
100
AcDbLine
 10
56.103794391961
 20
-0.1691213625667932
 30
0.0
 11
56.09258328827811
 21
-0.1766927015572453
 31
0.0
  0
LINE
  5
4CF
330
18
100
AcDbEntity
  8
1
 62
     1
100
AcDbLine
 10
56.09258328827811
 20
-0.1766927015572453
 30
0.0
 11
56.08100140886184
 21
-0.1837154987052319
 31
0.0
  0
LINE
  5
4D0
330
18
100
AcDbEntity
  8
1
 62
     1
100
AcDbLine
 10
56.08100140886184
 20
-0.1837154987052319
 30
0.0
 11
56.06904419578845
 21
-0.1901775238846924
 31
0.0
  0
LINE
  5
4D1
330
18
100
AcDbEntity
  8
1
 62
     1
100
AcDbLine
 10
56.06904419578845
 20
-0.1901775238846924
 30
0.0
 11
56.05672012963443
 21
-0.1960617418770655
 31
0.0
  0
LINE
  5
4D2
330
18
100
AcDbEntity
  8
1
 62
     1
100
AcDbLine
 10
56.05672012963443
 20
-0.1960617418770655
 30
0.0
 11
56.0440386142602
 21
-0.201350641640214
 31
0.0
  0
LINE
  5
4D3
330
18
100
AcDbEntity
  8
1
 62
     1
100
AcDbLine
 10
56.0440386142602
 20
-0.201350641640214
 30
0.0
 11
56.03099973232914
 21
-0.2060314618620111
 31
0.0
  0
LINE
  5
4D4
330
18
100
AcDbEntity
  8
1
 62
     1
100
AcDbLine
 10
56.03099973232914
 20
-0.2060314618620111
 30
0.0
 11
56.01760780953812
 21
-0.2100955799616494
 31
0.0
  0
LINE
  5
4D5
330
18
100
AcDbEntity
  8
1
 62
     1
100
AcDbLine
 10
56.01760780953812
 20
-0.2100955799616494
 30
0.0
 11
56.00387811466223
 21
-0.2135318709408701
 31
0.0
  0
LINE
  5
4D6
330
18
100
AcDbEntity
  8
1
 62
     1
100
AcDbLine
 10
56.00387811466223
 20
-0.2135318709408701
 30
0.0
 11
55.98982454277019
 21
-0.2163295219090552
 31
0.0
  0
LINE
  5
4D7
330
18
100
AcDbEntity
  8
1
 62
     1
100
AcDbLine
 10
55.98982454277019
 20
-0.2163295219090552
 30
0.0
 11
55.97544713935503
 21
-0.2184836994401874
 31
0.0
  0
LINE
  5
4D8
330
18
100
AcDbEntity
  8
1
 62
     1
100
AcDbLine
 10
55.97544713935503
 20
-0.2184836994401874
 30
0.0
 11
55.9607606921364
 21
-0.2199920999981739
 31
0.0
  0
LINE
  5
4D9
330
18
100
AcDbEntity
  8
1
 62
     1
100
AcDbLine
 10
55.9607606921364
 20
-0.2199920999981739
 30
0.0
 11
55.9457852333105
 21
-0.2208518970731302
 31
0.0
  0
LINE
  5
4DA
330
18
100
AcDbEntity
  8
1
 62
     1
100
AcDbLine
 10
55.9457852333105
 20
-0.2208518970731302
 30
0.0
 11
55.93053498694008
 21
-0.2210608977788805
 31
0.0
  0
LINE
  5
4DB
330
18
100
AcDbEntity
  8
1
 62
     1
100
AcDbLine
 10
55.93053498694008
 20
-0.2210608977788805
 30
0.0
 11
55.91501345732715
 21
-0.2206222328383962
 31
0.0
  0
LINE
  5
4DC
330
18
100
AcDbEntity
  8
1
 62
     1
100
AcDbLine
 10
55.91501345732715
 20
-0.2206222328383962
 30
0.0
 11
55.8992419886398
 21
-0.2195415711965405
 31
0.0
  0
LINE
  5
4DD
330
18
100
AcDbEntity
  8
1
 62
     1
100
AcDbLine
 10
55.8992419886398
 20
-0.2195415711965405
 30
0.0
 11
55.883243195011
 21
-0.2178245874736757
 31
0.0
  0
LINE
  5
4DE
330
18
100
AcDbEntity
  8
1
 62
     1
100
AcDbLine
 10
55.883243195011
 20
-0.2178245874736757
 30
0.0
 11
55.86702625811585
 21
-0.215476795461023
 31
0.0
  0
LINE
  5
4DF
330
18
100
AcDbEntity
  8
1
 62
     1
100
AcDbLine
 10
55.86702625811585
 20
-0.215476795461023
 30
0.0
 11
55.8339920203869
 21
-0.2089323108105487
 31
0.0
  0
LINE
  5
4E0
330
18
100
AcDbEntity
  8
1
 62
     1
100
AcDbLine
 10
55.8339920203869
 20
-0.2089323108105487
 30
0.0
 11
55.80028506511831
 21
-0.2000036996514735
 31
0.0
  0
LINE
  5
4E1
330
18
100
AcDbEntity
  8
1
 62
     1
100
AcDbLine
 10
55.80028506511831
 20
-0.2000036996514735
 30
0.0
 11
55.76600696637649
 21
-0.1887989857237766
 31
0.0
  0
LINE
  5
4E2
330
18
100
AcDbEntity
  8
1
 62
     1
100
AcDbLine
 10
55.76600696637649
 20
-0.1887989857237766
 30
0.0
 11
55.73128423222842
 21
-0.1754446083285077
 31
0.0
  0
LINE
  5
4E3
330
18
100
AcDbEntity
  8
1
 62
     1
100
AcDbLine
 10
55.73128423222842
 20
-0.1754446083285077
 30
0.0
 11
55.69620916550176
 21
-0.1600705892994457
 31
0.0
  0
LINE
  5
4E4
330
18
100
AcDbEntity
  8
1
 62
     1
100
AcDbLine
 10
55.69620916550176
 20
-0.1600705892994457
 30
0.0
 11
55.660869459574
 21
-0.1428067260466351
 31
0.0
  0
LINE
  5
4E5
330
18
100
AcDbEntity
  8
1
 62
     1
100
AcDbLine
 10
55.660869459574
 20
-0.1428067260466351
 30
0.0
 11
55.62533625652101
 21
-0.1237842243508905
 31
0.0
  0
LINE
  5
4E6
330
18
100
AcDbEntity
  8
1
 62
     1
100
AcDbLine
 10
55.62533625652101
 20
-0.1237842243508905
 30
0.0
 11
55.55403760499085
 21
-0.0810202498373465
 31
0.0
  0
LINE
  5
4E7
330
18
100
AcDbEntity
  8
1
 62
     1
100
AcDbLine
 10
55.55403760499085
 20
-0.0810202498373465
 30
0.0
 11
55.48273753515105
 21
-0.0327457235618629
 31
0.0
  0
LINE
  5
4E8
330
18
100
AcDbEntity
  8
1
 62
     1
100
AcDbLine
 10
55.48273753515105
 20
-0.0327457235618629
 30
0.0
 11
55.41176037755839
 21
0.0201667634654083
 31
0.0
  0
LINE
  5
4E9
330
18
100
AcDbEntity
  8
1
 62
     1
100
AcDbLine
 10
55.41176037755839
 20
0.0201667634654083
 30
0.0
 11
55.34125712925467
 21
0.0770239229884449
 31
0.0
  0
LINE
  5
4EA
330
18
100
AcDbEntity
  8
1
 62
     1
100
AcDbLine
 10
55.34125712925467
 20
0.0770239229884449
 30
0.0
 11
55.20239340708984
 21
0.1999840571248577
 31
0.0
  0
LINE
  5
4EB
330
18
100
AcDbEntity
  8
1
 62
     1
100
AcDbLine
 10
55.20239340708984
 20
0.1999840571248577
 30
0.0
 11
55.06679362357501
 21
0.332130290014623
 31
0.0
  0
LINE
  5
4EC
330
18
100
AcDbEntity
  8
1
 62
     1
100
AcDbLine
 10
55.06679362357501
 20
0.332130290014623
 30
0.0
 11
54.93468088778739
 21
0.4705793958256415
 31
0.0
  0
LINE
  5
4ED
330
18
100
AcDbEntity
  8
1
 62
     1
100
AcDbLine
 10
54.93468088778739
 20
0.4705793958256415
 30
0.0
 11
54.71199999999999
 21
0.7218465428643459
 31
0.0
  0
LINE
  5
4EE
330
18
100
AcDbEntity
  8
1
 62
     1
100
AcDbLine
 10
56.3
 20
-2.342581037445966
 30
0.0
 11
56.29922979081109
 21
-2.366286668482505
 31
0.0
  0
LINE
  5
4EF
330
18
100
AcDbEntity
  8
1
 62
     1
100
AcDbLine
 10
56.29922979081109
 20
-2.366286668482505
 30
0.0
 11
56.29826898008582
 21
-2.377675182040036
 31
0.0
  0
LINE
  5
4F0
330
18
100
AcDbEntity
  8
1
 62
     1
100
AcDbLine
 10
56.29826898008582
 20
-2.377675182040036
 30
0.0
 11
56.29692609928296
 21
-2.388738535773252
 31
0.0
  0
LINE
  5
4F1
330
18
100
AcDbEntity
  8
1
 62
     1
100
AcDbLine
 10
56.29692609928296
 20
-2.388738535773252
 30
0.0
 11
56.29520244890978
 21
-2.399465010794287
 31
0.0
  0
LINE
  5
4F2
330
18
100
AcDbEntity
  8
1
 62
     1
100
AcDbLine
 10
56.29520244890978
 20
-2.399465010794287
 30
0.0
 11
56.29309894191194
 21
-2.409845440477448
 31
0.0
  0
LINE
  5
4F3
330
18
100
AcDbEntity
  8
1
 62
     1
100
AcDbLine
 10
56.29309894191194
 20
-2.409845440477448
 30
0.0
 11
56.29061663922766
 21
-2.419878518428778
 31
0.0
  0
LINE
  5
4F4
330
18
100
AcDbEntity
  8
1
 62
     1
100
AcDbLine
 10
56.29061663922766
 20
-2.419878518428778
 30
0.0
 11
56.28775932165506
 21
-2.429555660209309
 31
0.0
  0
LINE
  5
4F5
330
18
100
AcDbEntity
  8
1
 62
     1
100
AcDbLine
 10
56.28775932165506
 20
-2.429555660209309
 30
0.0
 11
56.2845309627435
 21
-2.438867463328068
 31
0.0
  0
LINE
  5
4F6
330
18
100
AcDbEntity
  8
1
 62
     1
100
AcDbLine
 10
56.2845309627435
 20
-2.438867463328068
 30
0.0
 11
56.28093553604243
 21
-2.447804525294079
 31
0.0
  0
LINE
  5
4F7
330
18
100
AcDbEntity
  8
1
 62
     1
100
AcDbLine
 10
56.28093553604243
 20
-2.447804525294079
 30
0.0
 11
56.27697684959035
 21
-2.456357822362624
 31
0.0
  0
LINE
  5
4F8
330
18
100
AcDbEntity
  8
1
 62
     1
100
AcDbLine
 10
56.27697684959035
 20
-2.456357822362624
 30
0.0
 11
56.27265630431963
 21
-2.464526163166067
 31
0.0
  0
LINE
  5
4F9
330
18
100
AcDbEntity
  8
1
 62
     1
100
AcDbLine
 10
56.27265630431963
 20
-2.464526163166067
 30
0.0
 11
56.26797882696796
 21
-2.472305866664418
 31
0.0
  0
LINE
  5
4FA
330
18
100
AcDbEntity
  8
1
 62
     1
100
AcDbLine
 10
56.26797882696796
 20
-2.472305866664418
 30
0.0
 11
56.26295079959959
 21
-2.4796906974389
 31
0.0
  0
LINE
  5
4FB
330
18
100
AcDbEntity
  8
1
 62
     1
100
AcDbLine
 10
56.26295079959959
 20
-2.4796906974389
 30
0.0
 11
56.25757860427871
 21
-2.486674420070737
 31
0.0
  0
LINE
  5
4FC
330
18
100
AcDbEntity
  8
1
 62
     1
100
AcDbLine
 10
56.25757860427871
 20
-2.486674420070737
 30
0.0
 11
56.25186862306947
 21
-2.493250799141151
 31
0.0
  0
LINE
  5
4FD
330
18
100
AcDbEntity
  8
1
 62
     1
100
AcDbLine
 10
56.25186862306947
 20
-2.493250799141151
 30
0.0
 11
56.24582461876072
 21
-2.499417225375843
 31
0.0
  0
LINE
  5
4FE
330
18
100
AcDbEntity
  8
1
 62
     1
100
AcDbLine
 10
56.24582461876072
 20
-2.499417225375843
 30
0.0
 11
56.23945033579616
 21
-2.505174691990178
 31
0.0
  0
LINE
  5
4FF
330
18
100
AcDbEntity
  8
1
 62
     1
100
AcDbLine
 10
56.23945033579616
 20
-2.505174691990178
 30
0.0
 11
56.23275387551365
 21
-2.5105204667312
 31
0.0
  0
LINE
  5
500
330
18
100
AcDbEntity
  8
1
 62
     1
100
AcDbLine
 10
56.23275387551365
 20
-2.5105204667312
 30
0.0
 11
56.22574336815509
 21
-2.515451785524948
 31
0.0
  0
LINE
  5
501
330
18
100
AcDbEntity
  8
1
 62
     1
100
AcDbLine
 10
56.22574336815509
 20
-2.515451785524948
 30
0.0
 11
56.21842694396233
 21
-2.519965884297452
 31
0.0
  0
LINE
  5
502
330
18
100
AcDbEntity
  8
1
 62
     1
100
AcDbLine
 10
56.21842694396233
 20
-2.519965884297452
 30
0.0
 11
56.21081147032147
 21
-2.524060851998489
 31
0.0
  0
LINE
  5
503
330
18
100
AcDbEntity
  8
1
 62
     1
100
AcDbLine
 10
56.21081147032147
 20
-2.524060851998489
 30
0.0
 11
56.20289929571868
 21
-2.527739362663679
 31
0.0
  0
LINE
  5
504
330
18
100
AcDbEntity
  8
1
 62
     1
100
AcDbLine
 10
56.20289929571868
 20
-2.527739362663679
 30
0.0
 11
56.19469860066102
 21
-2.531002299164591
 31
0.0
  0
LINE
  5
505
330
18
100
AcDbEntity
  8
1
 62
     1
100
AcDbLine
 10
56.19469860066102
 20
-2.531002299164591
 30
0.0
 11
56.18621841236713
 21
-2.53385009852907
 31
0.0
  0
LINE
  5
506
330
18
100
AcDbEntity
  8
1
 62
     1
100
AcDbLine
 10
56.18621841236713
 20
-2.53385009852907
 30
0.0
 11
56.17746775805551
 21
-2.536283197784963
 31
0.0
  0
LINE
  5
507
330
18
100
AcDbEntity
  8
1
 62
     1
100
AcDbLine
 10
56.17746775805551
 20
-2.536283197784963
 30
0.0
 11
56.16845547217454
 21
-2.538302086069396
 31
0.0
  0
LINE
  5
508
330
18
100
AcDbEntity
  8
1
 62
     1
100
AcDbLine
 10
56.16845547217454
 20
-2.538302086069396
 30
0.0
 11
56.15918446590119
 21
-2.539909472444885
 31
0.0
  0
LINE
  5
509
330
18
100
AcDbEntity
  8
1
 62
     1
100
AcDbLine
 10
56.15918446590119
 20
-2.539909472444885
 30
0.0
 11
56.14966091402047
 21
-2.541108855735403
 31
0.0
  0
LINE
  5
50A
330
18
100
AcDbEntity
  8
1
 62
     1
100
AcDbLine
 10
56.14966091402047
 20
-2.541108855735403
 30
0.0
 11
56.13989393772099
 21
-2.541903208799914
 31
0.0
  0
LINE
  5
50B
330
18
100
AcDbEntity
  8
1
 62
     1
100
AcDbLine
 10
56.13989393772099
 20
-2.541903208799914
 30
0.0
 11
56.12989265819141
 21
-2.542295504497382
 31
0.0
  0
LINE
  5
50C
330
18
100
AcDbEntity
  8
1
 62
     1
100
AcDbLine
 10
56.12989265819141
 20
-2.542295504497382
 30
0.0
 11
56.11966619662044
 21
-2.542288715686774
 31
0.0
  0
LINE
  5
50D
330
18
100
AcDbEntity
  8
1
 62
     1
100
AcDbLine
 10
56.11966619662044
 20
-2.542288715686774
 30
0.0
 11
56.10922010603728
 21
-2.541886033301695
 31
0.0
  0
LINE
  5
50E
330
18
100
AcDbEntity
  8
1
 62
     1
100
AcDbLine
 10
56.10922010603728
 20
-2.541886033301695
 30
0.0
 11
56.08768594039522
 21
-2.539910703930875
 31
0.0
  0
LINE
  5
50F
330
18
100
AcDbEntity
  8
1
 62
     1
100
AcDbLine
 10
56.08768594039522
 20
-2.539910703930875
 30
0.0
 11
56.06535299374792
 21
-2.536406781540715
 31
0.0
  0
LINE
  5
510
330
18
100
AcDbEntity
  8
1
 62
     1
100
AcDbLine
 10
56.06535299374792
 20
-2.536406781540715
 30
0.0
 11
56.04227896829801
 21
-2.53141061087096
 31
0.0
  0
LINE
  5
511
330
18
100
AcDbEntity
  8
1
 62
     1
100
AcDbLine
 10
56.04227896829801
 20
-2.53141061087096
 30
0.0
 11
56.01850249008749
 21
-2.524960830765207
 31
0.0
  0
LINE
  5
512
330
18
100
AcDbEntity
  8
1
 62
     1
100
AcDbLine
 10
56.01850249008749
 20
-2.524960830765207
 30
0.0
 11
55.99408447871467
 21
-2.517102739144407
 31
0.0
  0
LINE
  5
513
330
18
100
AcDbEntity
  8
1
 62
     1
100
AcDbLine
 10
55.99408447871467
 20
-2.517102739144407
 30
0.0
 11
55.96906479611671
 21
-2.507876032692659
 31
0.0
  0
LINE
  5
514
330
18
100
AcDbEntity
  8
1
 62
     1
100
AcDbLine
 10
55.96906479611671
 20
-2.507876032692659
 30
0.0
 11
55.94348389438318
 21
-2.497324440505048
 31
0.0
  0
LINE
  5
515
330
18
100
AcDbEntity
  8
1
 62
     1
100
AcDbLine
 10
55.94348389438318
 20
-2.497324440505048
 30
0.0
 11
55.89081856352385
 21
-2.472427613405656
 31
0.0
  0
LINE
  5
516
330
18
100
AcDbEntity
  8
1
 62
     1
100
AcDbLine
 10
55.89081856352385
 20
-2.472427613405656
 30
0.0
 11
55.83637943239832
 21
-2.442758595782436
 31
0.0
  0
LINE
  5
517
330
18
100
AcDbEntity
  8
1
 62
     1
100
AcDbLine
 10
55.83637943239832
 20
-2.442758595782436
 30
0.0
 11
55.78042045942424
 21
-2.408653804989342
 31
0.0
  0
LINE
  5
518
330
18
100
AcDbEntity
  8
1
 62
     1
100
AcDbLine
 10
55.78042045942424
 20
-2.408653804989342
 30
0.0
 11
55.72315319153719
 21
-2.370429100946547
 31
0.0
  0
LINE
  5
519
330
18
100
AcDbEntity
  8
1
 62
     1
100
AcDbLine
 10
55.72315319153719
 20
-2.370429100946547
 30
0.0
 11
55.60546656866514
 21
-2.282855658966719
 31
0.0
  0
LINE
  5
51A
330
18
100
AcDbEntity
  8
1
 62
     1
100
AcDbLine
 10
55.60546656866514
 20
-2.282855658966719
 30
0.0
 11
55.48454946618388
 21
-2.182276553317502
 31
0.0
  0
LINE
  5
51B
330
18
100
AcDbEntity
  8
1
 62
     1
100
AcDbLine
 10
55.48454946618388
 20
-2.182276553317502
 30
0.0
 11
55.36129144600751
 21
-2.070634901700899
 31
0.0
  0
LINE
  5
51C
330
18
100
AcDbEntity
  8
1
 62
     1
100
AcDbLine
 10
55.36129144600751
 20
-2.070634901700899
 30
0.0
 11
55.11020048644406
 21
-1.820714636060285
 31
0.0
  0
LINE
  5
51D
330
18
100
AcDbEntity
  8
1
 62
     1
100
AcDbLine
 10
55.11020048644406
 20
-1.820714636060285
 30
0.0
 11
54.71199999999999
 21
-1.380963607478934
 31
0.0
  0
LINE
  5
51E
330
18
100
AcDbEntity
  8
1
 62
     1
100
AcDbLine
 10
46.87173934901945
 20
6.35
 30
0.0
 11
47.18750809303445
 21
6.33907115025044
 31
0.0
  0
LINE
  5
51F
330
18
100
AcDbEntity
  8
1
 62
     1
100
AcDbLine
 10
47.18750809303445
 20
6.33907115025044
 30
0.0
 11
47.50326252655967
 21
6.306326192833024
 31
0.0
  0
LINE
  5
520
330
18
100
AcDbEntity
  8
1
 62
     1
100
AcDbLine
 10
47.50326252655967
 20
6.306326192833024
 30
0.0
 11
47.81901981889516
 21
6.251878546819816
 31
0.0
  0
LINE
  5
521
330
18
100
AcDbEntity
  8
1
 62
     1
100
AcDbLine
 10
47.81901981889516
 20
6.251878546819816
 30
0.0
 11
48.13479172076863
 21
6.175909409402949
 31
0.0
  0
LINE
  5
522
330
18
100
AcDbEntity
  8
1
 62
     1
100
AcDbLine
 10
48.13479172076863
 20
6.175909409402949
 30
0.0
 11
48.4505549666662
 21
6.078684971911523
 31
0.0
  0
LINE
  5
523
330
18
100
AcDbEntity
  8
1
 62
     1
100
AcDbLine
 10
48.4505549666662
 20
6.078684971911523
 30
0.0
 11
48.76630858245795
 21
5.960543710753563
 31
0.0
  0
LINE
  5
524
330
18
100
AcDbEntity
  8
1
 62
     1
100
AcDbLine
 10
48.76630858245795
 20
5.960543710753563
 30
0.0
 11
49.08206897490289
 21
5.821887101167885
 31
0.0
  0
LINE
  5
525
330
18
100
AcDbEntity
  8
1
 62
     1
100
AcDbLine
 10
49.08206897490289
 20
5.821887101167885
 30
0.0
 11
49.39784207473571
 21
5.663185055677841
 31
0.0
  0
LINE
  5
526
330
18
100
AcDbEntity
  8
1
 62
     1
100
AcDbLine
 10
49.39784207473571
 20
5.663185055677841
 30
0.0
 11
49.71360088140592
 21
5.484998216253696
 31
0.0
  0
LINE
  5
527
330
18
100
AcDbEntity
  8
1
 62
     1
100
AcDbLine
 10
49.71360088140592
 20
5.484998216253696
 30
0.0
 11
50.02935472717827
 21
5.287938299546231
 31
0.0
  0
LINE
  5
528
330
18
100
AcDbEntity
  8
1
 62
     1
100
AcDbLine
 10
50.02935472717827
 20
5.287938299546231
 30
0.0
 11
50.34511850665358
 21
5.072672885280437
 31
0.0
  0
LINE
  5
529
330
18
100
AcDbEntity
  8
1
 62
     1
100
AcDbLine
 10
50.34511850665358
 20
5.072672885280437
 30
0.0
 11
50.66089045547896
 21
4.839941974831822
 31
0.0
  0
LINE
  5
52A
330
18
100
AcDbEntity
  8
1
 62
     1
100
AcDbLine
 10
50.66089045547896
 20
4.839941974831822
 30
0.0
 11
51.29240140323111
 21
4.325389656602217
 31
0.0
  0
LINE
  5
52B
330
18
100
AcDbEntity
  8
1
 62
     1
100
AcDbLine
 10
51.29240140323111
 20
4.325389656602217
 30
0.0
 11
51.92393656512555
 21
3.751319992477718
 31
0.0
  0
LINE
  5
52C
330
18
100
AcDbEntity
  8
1
 62
     1
100
AcDbLine
 10
45.07887565087709
 20
6.35
 30
0.0
 11
45.34304769348009
 21
6.34234950798335
 31
0.0
  0
LINE
  5
52D
330
18
100
AcDbEntity
  8
1
 62
     1
100
AcDbLine
 10
45.34304769348009
 20
6.34234950798335
 30
0.0
 11
45.60720615359412
 21
6.319422700192702
 31
0.0
  0
LINE
  5
52E
330
18
100
AcDbEntity
  8
1
 62
     1
100
AcDbLine
 10
45.60720615359412
 20
6.319422700192702
 30
0.0
 11
45.87138729438477
 21
6.281268525463382
 31
0.0
  0
LINE
  5
52F
330
18
100
AcDbEntity
  8
1
 62
     1
100
AcDbLine
 10
45.87138729438477
 20
6.281268525463382
 30
0.0
 11
46.13554774548209
 21
6.227984138429072
 31
0.0
  0
LINE
  5
530
330
18
100
AcDbEntity
  8
1
 62
     1
100
AcDbLine
 10
46.13554774548209
 20
6.227984138429072
 30
0.0
 11
46.39971464261039
 21
6.159697202613319
 31
0.0
  0
LINE
  5
531
330
18
100
AcDbEntity
  8
1
 62
     1
100
AcDbLine
 10
46.39971464261039
 20
6.159697202613319
 30
0.0
 11
46.66389139924797
 21
6.076565264955708
 31
0.0
  0
LINE
  5
532
330
18
100
AcDbEntity
  8
1
 62
     1
100
AcDbLine
 10
46.66389139924797
 20
6.076565264955708
 30
0.0
 11
46.92804879522895
 21
5.978802186784256
 31
0.0
  0
LINE
  5
533
330
18
100
AcDbEntity
  8
1
 62
     1
100
AcDbLine
 10
46.92804879522895
 20
5.978802186784256
 30
0.0
 11
47.19222789308593
 21
5.8666273908291
 31
0.0
  0
LINE
  5
534
330
18
100
AcDbEntity
  8
1
 62
     1
100
AcDbLine
 10
47.19222789308593
 20
5.8666273908291
 30
0.0
 11
47.45639163610213
 21
5.740324012108847
 31
0.0
  0
LINE
  5
535
330
18
100
AcDbEntity
  8
1
 62
     1
100
AcDbLine
 10
47.45639163610213
 20
5.740324012108847
 30
0.0
 11
47.72055410686681
 21
5.600194907674777
 31
0.0
  0
LINE
  5
536
330
18
100
AcDbEntity
  8
1
 62
     1
100
AcDbLine
 10
47.72055410686681
 20
5.600194907674777
 30
0.0
 11
47.98473399582583
 21
5.44656280833918
 31
0.0
  0
LINE
  5
537
330
18
100
AcDbEntity
  8
1
 62
     1
100
AcDbLine
 10
47.98473399582583
 20
5.44656280833918
 30
0.0
 11
48.24889150352247
 21
5.279823053386209
 31
0.0
  0
LINE
  5
538
330
18
100
AcDbEntity
  8
1
 62
     1
100
AcDbLine
 10
48.24889150352247
 20
5.279823053386209
 30
0.0
 11
48.77723497663673
 21
4.908599054667239
 31
0.0
  0
LINE
  5
539
330
18
100
AcDbEntity
  8
1
 62
     1
100
AcDbLine
 10
48.77723497663673
 20
4.908599054667239
 30
0.0
 11
49.30557511621471
 21
4.490104371917409
 31
0.0
  0
LINE
  5
53A
330
18
100
AcDbEntity
  8
1
 62
     1
100
AcDbLine
 10
49.30557511621471
 20
4.490104371917409
 30
0.0
 11
49.8339028910368
 21
4.028377558118553
 31
0.0
  0
LINE
  5
53B
330
18
100
AcDbEntity
  8
1
 62
     1
100
AcDbLine
 10
49.8339028910368
 20
4.028377558118553
 30
0.0
 11
50.36223502609104
 21
3.527851044875856
 31
0.0
  0
LINE
  5
53C
330
18
100
AcDbEntity
  8
1
 62
     1
100
AcDbLine
 10
50.36223502609104
 20
3.527851044875856
 30
0.0
 11
51.41891899200163
 21
2.430000308168774
 31
0.0
  0
LINE
  5
53D
330
18
100
AcDbEntity
  8
1
 62
     1
100
AcDbLine
 10
51.41891899200163
 20
2.430000308168774
 30
0.0
 11
53.53221891213337
 21
-0.0000000000003378
 31
0.0
  0
LINE
  5
53E
330
18
100
AcDbEntity
  8
1
 62
     1
100
AcDbLine
 10
56.30000000000001
 20
4.329312703943636
 30
0.0
 11
56.29972032587937
 21
4.340596210217399
 31
0.0
  0
LINE
  5
53F
330
18
100
AcDbEntity
  8
1
 62
     1
100
AcDbLine
 10
56.29972032587937
 20
4.340596210217399
 30
0.0
 11
56.29885864729642
 21
4.352202649012996
 31
0.0
  0
LINE
  5
540
330
18
100
AcDbEntity
  8
1
 62
     1
100
AcDbLine
 10
56.29885864729642
 20
4.352202649012996
 30
0.0
 11
56.29738097991952
 21
4.364162903016921
 31
0.0
  0
LINE
  5
541
330
18
100
AcDbEntity
  8
1
 62
     1
100
AcDbLine
 10
56.29738097991952
 20
4.364162903016921
 30
0.0
 11
56.29525333941706
 21
4.376507854915671
 31
0.0
  0
LINE
  5
542
330
18
100
AcDbEntity
  8
1
 62
     1
100
AcDbLine
 10
56.29525333941706
 20
4.376507854915671
 30
0.0
 11
56.29244020815971
 21
4.389272189095489
 31
0.0
  0
LINE
  5
543
330
18
100
AcDbEntity
  8
1
 62
     1
100
AcDbLine
 10
56.29244020815971
 20
4.389272189095489
 30
0.0
 11
56.28889973363572
 21
4.402497373310331
 31
0.0
  0
LINE
  5
544
330
18
100
AcDbEntity
  8
1
 62
     1
100
AcDbLine
 10
56.28889973363572
 20
4.402497373310331
 30
0.0
 11
56.28458872473729
 21
4.416221726536182
 31
0.0
  0
LINE
  5
545
330
18
100
AcDbEntity
  8
1
 62
     1
100
AcDbLine
 10
56.28458872473729
 20
4.416221726536182
 30
0.0
 11
56.2794640004253
 21
4.430483493894421
 31
0.0
  0
LINE
  5
546
330
18
100
AcDbEntity
  8
1
 62
     1
100
AcDbLine
 10
56.2794640004253
 20
4.430483493894421
 30
0.0
 11
56.27347975981601
 21
4.445326044172129
 31
0.0
  0
LINE
  5
547
330
18
100
AcDbEntity
  8
1
 62
     1
100
AcDbLine
 10
56.27347975981601
 20
4.445326044172129
 30
0.0
 11
56.25871713354562
 21
4.476960684867936
 31
0.0
  0
LINE
  5
548
330
18
100
AcDbEntity
  8
1
 62
     1
100
AcDbLine
 10
56.25871713354562
 20
4.476960684867936
 30
0.0
 11
56.23987946038095
 21
4.51148966913665
 31
0.0
  0
LINE
  5
549
330
18
100
AcDbEntity
  8
1
 62
     1
100
AcDbLine
 10
56.23987946038095
 20
4.51148966913665
 30
0.0
 11
56.21650011199584
 21
4.5493289006873
 31
0.0
  0
LINE
  5
54A
330
18
100
AcDbEntity
  8
1
 62
     1
100
AcDbLine
 10
56.21650011199584
 20
4.5493289006873
 30
0.0
 11
56.1881041261423
 21
4.590874392396709
 31
0.0
  0
LINE
  5
54B
330
18
100
AcDbEntity
  8
1
 62
     1
100
AcDbLine
 10
56.1881041261423
 20
4.590874392396709
 30
0.0
 11
56.15425514979968
 21
4.63645784152656
 31
0.0
  0
LINE
  5
54C
330
18
100
AcDbEntity
  8
1
 62
     1
100
AcDbLine
 10
56.15425514979968
 20
4.63645784152656
 30
0.0
 11
56.06901284281177
 21
4.740390236523335
 31
0.0
  0
LINE
  5
54D
330
18
100
AcDbEntity
  8
1
 62
     1
100
AcDbLine
 10
56.06901284281177
 20
4.740390236523335
 30
0.0
 11
55.96072004387415
 21
4.8599706833877
 31
0.0
  0
LINE
  5
54E
330
18
100
AcDbEntity
  8
1
 62
     1
100
AcDbLine
 10
55.96072004387415
 20
4.8599706833877
 30
0.0
 11
55.833941654164
 21
4.989604388968766
 31
0.0
  0
LINE
  5
54F
330
18
100
AcDbEntity
  8
1
 62
     1
100
AcDbLine
 10
55.833941654164
 20
4.989604388968766
 30
0.0
 11
55.55398380864613
 21
5.249075873636608
 31
0.0
  0
LINE
  5
550
330
18
100
AcDbEntity
  8
1
 62
     1
100
AcDbLine
 10
55.55398380864613
 20
5.249075873636608
 30
0.0
 11
55.41168266135186
 21
5.368659123923461
 31
0.0
  0
LINE
  5
551
330
18
100
AcDbEntity
  8
1
 62
     1
100
AcDbLine
 10
55.41168266135186
 20
5.368659123923461
 30
0.0
 11
55.27143451922248
 21
5.478365331224931
 31
0.0
  0
LINE
  5
552
330
18
100
AcDbEntity
  8
1
 62
     1
100
AcDbLine
 10
55.27143451922248
 20
5.478365331224931
 30
0.0
 11
55.13417500829183
 21
5.577483406205286
 31
0.0
  0
LINE
  5
553
330
18
100
AcDbEntity
  8
1
 62
     1
100
AcDbLine
 10
55.13417500829183
 20
5.577483406205286
 30
0.0
 11
55.00030122198278
 21
5.665755747477446
 31
0.0
  0
LINE
  5
554
330
18
100
AcDbEntity
  8
1
 62
     1
100
AcDbLine
 10
55.00030122198278
 20
5.665755747477446
 30
0.0
 11
54.86995361408468
 21
5.743123199388999
 31
0.0
  0
LINE
  5
555
330
18
100
AcDbEntity
  8
1
 62
     1
100
AcDbLine
 10
54.86995361408468
 20
5.743123199388999
 30
0.0
 11
54.79028313765524
 21
5.785952136044937
 31
0.0
  0
LINE
  5
556
330
18
100
AcDbEntity
  8
1
 62
     1
100
AcDbLine
 10
54.79028313765524
 20
5.785952136044937
 30
0.0
 11
54.712
 21
5.824537292976528
 31
0.0
  0
LINE
  5
557
330
18
100
AcDbEntity
  8
1
 62
     1
100
AcDbLine
 10
56.3
 20
2.419213423935893
 30
0.0
 11
56.29922979144544
 21
2.444906959388482
 31
0.0
  0
LINE
  5
558
330
18
100
AcDbEntity
  8
1
 62
     1
100
AcDbLine
 10
56.29922979144544
 20
2.444906959388482
 30
0.0
 11
56.29692610181185
 21
2.471768766968208
 31
0.0
  0
LINE
  5
559
330
18
100
AcDbEntity
  8
1
 62
     1
100
AcDbLine
 10
56.29692610181185
 20
2.471768766968208
 30
0.0
 11
56.29309894758453
 21
2.49976259687822
 31
0.0
  0
LINE
  5
55A
330
18
100
AcDbEntity
  8
1
 62
     1
100
AcDbLine
 10
56.29309894758453
 20
2.49976259687822
 30
0.0
 11
56.28775933168347
 21
2.528890174806435
 31
0.0
  0
LINE
  5
55B
330
18
100
AcDbEntity
  8
1
 62
     1
100
AcDbLine
 10
56.28775933168347
 20
2.528890174806435
 30
0.0
 11
56.2809355515937
 21
2.559107610445881
 31
0.0
  0
LINE
  5
55C
330
18
100
AcDbEntity
  8
1
 62
     1
100
AcDbLine
 10
56.2809355515937
 20
2.559107610445881
 30
0.0
 11
56.27265632654183
 21
2.590368380944786
 31
0.0
  0
LINE
  5
55D
330
18
100
AcDbEntity
  8
1
 62
     1
100
AcDbLine
 10
56.27265632654183
 20
2.590368380944786
 30
0.0
 11
56.25186866148341
 21
2.655898821121951
 31
0.0
  0
LINE
  5
55E
330
18
100
AcDbEntity
  8
1
 62
     1
100
AcDbLine
 10
56.25186866148341
 20
2.655898821121951
 30
0.0
 11
56.22574342621363
 21
2.725070014416697
 31
0.0
  0
LINE
  5
55F
330
18
100
AcDbEntity
  8
1
 62
     1
100
AcDbLine
 10
56.22574342621363
 20
2.725070014416697
 30
0.0
 11
56.19469868145838
 21
2.79741278722314
 31
0.0
  0
LINE
  5
560
330
18
100
AcDbEntity
  8
1
 62
     1
100
AcDbLine
 10
56.19469868145838
 20
2.79741278722314
 30
0.0
 11
56.1196663219994
 21
2.949673327878101
 31
0.0
  0
LINE
  5
561
330
18
100
AcDbEntity
  8
1
 62
     1
100
AcDbLine
 10
56.1196663219994
 20
2.949673327878101
 30
0.0
 11
56.03047496911988
 21
3.108764400768739
 31
0.0
  0
LINE
  5
562
330
18
100
AcDbEntity
  8
1
 62
     1
100
AcDbLine
 10
56.03047496911988
 20
3.108764400768739
 30
0.0
 11
55.93050015104473
 21
3.271212517973727
 31
0.0
  0
LINE
  5
563
330
18
100
AcDbEntity
  8
1
 62
     1
100
AcDbLine
 10
55.93050015104473
 20
3.271212517973727
 30
0.0
 11
55.70865411308858
 21
3.595483755591994
 31
0.0
  0
LINE
  5
564
330
18
100
AcDbEntity
  8
1
 62
     1
100
AcDbLine
 10
55.70865411308858
 20
3.595483755591994
 30
0.0
 11
55.4692529495851
 21
3.9066479731205
 31
0.0
  0
LINE
  5
565
330
18
100
AcDbEntity
  8
1
 62
     1
100
AcDbLine
 10
55.4692529495851
 20
3.9066479731205
 30
0.0
 11
55.22063651108071
 21
4.194945994354255
 31
0.0
  0
LINE
  5
566
330
18
100
AcDbEntity
  8
1
 62
     1
100
AcDbLine
 10
55.22063651108071
 20
4.194945994354255
 30
0.0
 11
54.96729697670265
 21
4.453690346086309
 31
0.0
  0
LINE
  5
567
330
18
100
AcDbEntity
  8
1
 62
     1
100
AcDbLine
 10
54.96729697670265
 20
4.453690346086309
 30
0.0
 11
54.8397361360396
 21
4.570200678320449
 31
0.0
  0
LINE
  5
568
330
18
100
AcDbEntity
  8
1
 62
     1
100
AcDbLine
 10
54.8397361360396
 20
4.570200678320449
 30
0.0
 11
54.71199999999999
 21
4.677160102732509
 31
0.0
  0
LINE
  5
569
330
18
100
AcDbEntity
  8
1
 62
     1
100
AcDbLine
 10
22.53662684831568
 20
6.35
 30
0.0
 11
22.80079891799877
 21
6.342349510598338
 31
0.0
  0
LINE
  5
56A
330
18
100
AcDbEntity
  8
1
 62
     1
100
AcDbLine
 10
22.80079891799877
 20
6.342349510598338
 30
0.0
 11
23.06495739019217
 21
6.319422702629827
 31
0.0
  0
LINE
  5
56B
330
18
100
AcDbEntity
  8
1
 62
     1
100
AcDbLine
 10
23.06495739019217
 20
6.319422702629827
 30
0.0
 11
23.32913848789904
 21
6.281268523979863
 31
0.0
  0
LINE
  5
56C
330
18
100
AcDbEntity
  8
1
 62
     1
100
AcDbLine
 10
23.32913848789904
 20
6.281268523979863
 30
0.0
 11
23.59329896679487
 21
6.227984139476164
 31
0.0
  0
LINE
  5
56D
330
18
100
AcDbEntity
  8
1
 62
     1
100
AcDbLine
 10
23.59329896679487
 20
6.227984139476164
 30
0.0
 11
23.85746581092733
 21
6.159697194793674
 31
0.0
  0
LINE
  5
56E
330
18
100
AcDbEntity
  8
1
 62
     1
100
AcDbLine
 10
23.85746581092733
 20
6.159697194793674
 30
0.0
 11
24.12164261785819
 21
6.076565268131548
 31
0.0
  0
LINE
  5
56F
330
18
100
AcDbEntity
  8
1
 62
     1
100
AcDbLine
 10
24.12164261785819
 20
6.076565268131548
 30
0.0
 11
24.38579997584341
 21
5.978802179672576
 31
0.0
  0
LINE
  5
570
330
18
100
AcDbEntity
  8
1
 62
     1
100
AcDbLine
 10
24.38579997584341
 20
5.978802179672576
 30
0.0
 11
24.64997915724977
 21
5.866627408201356
 31
0.0
  0
LINE
  5
571
330
18
100
AcDbEntity
  8
1
 62
     1
100
AcDbLine
 10
24.64997915724977
 20
5.866627408201356
 30
0.0
 11
24.91414283935639
 21
5.740324007937607
 31
0.0
  0
LINE
  5
572
330
18
100
AcDbEntity
  8
1
 62
     1
100
AcDbLine
 10
24.91414283935639
 20
5.740324007937607
 30
0.0
 11
25.1783053608379
 21
5.600194922895014
 31
0.0
  0
LINE
  5
573
330
18
100
AcDbEntity
  8
1
 62
     1
100
AcDbLine
 10
25.1783053608379
 20
5.600194922895014
 30
0.0
 11
25.44248517494409
 21
5.446562790799243
 31
0.0
  0
LINE
  5
574
330
18
100
AcDbEntity
  8
1
 62
     1
100
AcDbLine
 10
25.44248517494409
 20
5.446562790799243
 30
0.0
 11
25.70664271110868
 21
5.279823048358153
 31
0.0
  0
LINE
  5
575
330
18
100
AcDbEntity
  8
1
 62
     1
100
AcDbLine
 10
25.70664271110868
 20
5.279823048358153
 30
0.0
 11
26.23498621165715
 21
4.908599063130231
 31
0.0
  0
LINE
  5
576
330
18
100
AcDbEntity
  8
1
 62
     1
100
AcDbLine
 10
26.23498621165715
 20
4.908599063130231
 30
0.0
 11
26.7633263373814
 21
4.49010436922026
 31
0.0
  0
LINE
  5
577
330
18
100
AcDbEntity
  8
1
 62
     1
100
AcDbLine
 10
26.7633263373814
 20
4.49010436922026
 30
0.0
 11
27.29165407984289
 21
4.028377531508895
 31
0.0
  0
LINE
  5
578
330
18
100
AcDbEntity
  8
1
 62
     1
100
AcDbLine
 10
27.29165407984289
 20
4.028377531508895
 30
0.0
 11
27.81998621189557
 21
3.527851012414295
 31
0.0
  0
LINE
  5
579
330
18
100
AcDbEntity
  8
1
 62
     1
100
AcDbLine
 10
27.81998621189557
 20
3.527851012414295
 30
0.0
 11
28.87667018261639
 21
2.43000026906123
 31
0.0
  0
LINE
  5
57A
330
18
100
AcDbEntity
  8
1
 62
     1
100
AcDbLine
 10
28.87667018261639
 20
2.43000026906123
 30
0.0
 11
30.98997016623371
 21
-0.0000000000077162
 31
0.0
  0
LINE
  5
57B
330
18
100
AcDbEntity
  8
1
 62
     1
100
AcDbLine
 10
24.32949013664737
 20
6.35
 30
0.0
 11
24.64525890355156
 21
6.339071142633639
 31
0.0
  0
LINE
  5
57C
330
18
100
AcDbEntity
  8
1
 62
     1
100
AcDbLine
 10
24.64525890355156
 20
6.339071142633639
 30
0.0
 11
24.96101366323326
 21
6.306326232909547
 31
0.0
  0
LINE
  5
57D
330
18
100
AcDbEntity
  8
1
 62
     1
100
AcDbLine
 10
24.96101366323326
 20
6.306326232909547
 30
0.0
 11
25.27677082709713
 21
6.251878547761679
 31
0.0
  0
LINE
  5
57E
330
18
100
AcDbEntity
  8
1
 62
     1
100
AcDbLine
 10
25.27677082709713
 20
6.251878547761679
 30
0.0
 11
25.59254329104914
 21
6.175909501721431
 31
0.0
  0
LINE
  5
57F
330
18
100
AcDbEntity
  8
1
 62
     1
100
AcDbLine
 10
25.59254329104914
 20
6.175909501721431
 30
0.0
 11
25.90830597312867
 21
6.078684912835335
 31
0.0
  0
LINE
  5
580
330
18
100
AcDbEntity
  8
1
 62
     1
100
AcDbLine
 10
25.90830597312867
 20
6.078684912835335
 30
0.0
 11
26.22405987448878
 21
5.960543707728152
 31
0.0
  0
LINE
  5
581
330
18
100
AcDbEntity
  8
1
 62
     1
100
AcDbLine
 10
26.22405987448878
 20
5.960543707728152
 30
0.0
 11
26.53981975683999
 21
5.821886913611796
 31
0.0
  0
LINE
  5
582
330
18
100
AcDbEntity
  8
1
 62
     1
100
AcDbLine
 10
26.53981975683999
 20
5.821886913611796
 30
0.0
 11
26.85559374407948
 21
5.663185153707951
 31
0.0
  0
LINE
  5
583
330
18
100
AcDbEntity
  8
1
 62
     1
100
AcDbLine
 10
26.85559374407948
 20
5.663185153707951
 30
0.0
 11
27.17135219117279
 21
5.484998144985837
 31
0.0
  0
LINE
  5
584
330
18
100
AcDbEntity
  8
1
 62
     1
100
AcDbLine
 10
27.17135219117279
 20
5.484998144985837
 30
0.0
 11
27.48710643607273
 21
5.287938347708937
 31
0.0
  0
LINE
  5
585
330
18
100
AcDbEntity
  8
1
 62
     1
100
AcDbLine
 10
27.48710643607273
 20
5.287938347708937
 30
0.0
 11
27.80286999468395
 21
5.072672795278434
 31
0.0
  0
LINE
  5
586
330
18
100
AcDbEntity
  8
1
 62
     1
100
AcDbLine
 10
27.80286999468395
 20
5.072672795278434
 30
0.0
 11
28.11864143272748
 21
4.839941548902565
 31
0.0
  0
LINE
  5
587
330
18
100
AcDbEntity
  8
1
 62
     1
100
AcDbLine
 10
28.11864143272748
 20
4.839941548902565
 30
0.0
 11
28.75015250965241
 21
4.325389169784792
 31
0.0
  0
LINE
  5
588
330
18
100
AcDbEntity
  8
1
 62
     1
100
AcDbLine
 10
28.75015250965241
 20
4.325389169784792
 30
0.0
 11
29.38168797882969
 21
3.751319544126948
 31
0.0
  0
LINE
  5
589
330
18
100
AcDbEntity
  8
1
 62
     1
100
AcDbLine
 10
52.50730180117317
 20
6.349999999999999
 30
0.0
 11
52.78289436506891
 21
6.341674082942009
 31
0.0
  0
LINE
  5
58A
330
18
100
AcDbEntity
  8
1
 62
     1
100
AcDbLine
 10
52.78289436506891
 20
6.341674082942009
 30
0.0
 11
53.05847241185383
 21
6.316724028384462
 31
0.0
  0
LINE
  5
58B
330
18
100
AcDbEntity
  8
1
 62
     1
100
AcDbLine
 10
53.05847241185383
 20
6.316724028384462
 30
0.0
 11
53.3340705704902
 21
6.275210350106907
 31
0.0
  0
LINE
  5
58C
330
18
100
AcDbEntity
  8
1
 62
     1
100
AcDbLine
 10
53.3340705704902
 20
6.275210350106907
 30
0.0
 11
53.60965623706748
 21
6.217243840088504
 31
0.0
  0
LINE
  5
58D
330
18
100
AcDbEntity
  8
1
 62
     1
100
AcDbLine
 10
53.60965623706748
 20
6.217243840088504
 30
0.0
 11
53.88523595415069
 21
6.14298067789809
 31
0.0
  0
LINE
  5
58E
330
18
100
AcDbEntity
  8
1
 62
     1
100
AcDbLine
 10
53.88523595415069
 20
6.14298067789809
 30
0.0
 11
54.1608370790531
 21
6.052604377290885
 31
0.0
  0
LINE
  5
58F
330
18
100
AcDbEntity
  8
1
 62
     1
100
AcDbLine
 10
54.1608370790531
 20
6.052604377290885
 30
0.0
 11
54.43641763736301
 21
5.946364671639417
 31
0.0
  0
LINE
  5
590
330
18
100
AcDbEntity
  8
1
 62
     1
100
AcDbLine
 10
54.43641763736301
 20
5.946364671639417
 30
0.0
 11
54.71199999999999
 21
5.82453729297653
 31
0.0
  0
LINE
  5
591
330
18
100
AcDbEntity
  8
1
 62
     1
100
AcDbLine
 10
50.71443782825959
 20
6.350000000000001
 30
0.0
 11
50.9642892418435
 21
6.343156127249895
 31
0.0
  0
LINE
  5
592
330
18
100
AcDbEntity
  8
1
 62
     1
100
AcDbLine
 10
50.9642892418435
 20
6.343156127249895
 30
0.0
 11
51.21412938004376
 21
6.322645733369939
 31
0.0
  0
LINE
  5
593
330
18
100
AcDbEntity
  8
1
 62
     1
100
AcDbLine
 10
51.21412938004376
 20
6.322645733369939
 30
0.0
 11
51.46399050398514
 21
6.288505694280763
 31
0.0
  0
LINE
  5
594
330
18
100
AcDbEntity
  8
1
 62
     1
100
AcDbLine
 10
51.46399050398514
 20
6.288505694280763
 30
0.0
 11
51.71382771135853
 21
6.240817702726722
 31
0.0
  0
LINE
  5
595
330
18
100
AcDbEntity
  8
1
 62
     1
100
AcDbLine
 10
51.71382771135853
 20
6.240817702726722
 30
0.0
 11
51.96368696861727
 21
6.179676721700687
 31
0.0
  0
LINE
  5
596
330
18
100
AcDbEntity
  8
1
 62
     1
100
AcDbLine
 10
51.96368696861727
 20
6.179676721700687
 30
0.0
 11
52.21352970242585
 21
6.105220310625896
 31
0.0
  0
LINE
  5
597
330
18
100
AcDbEntity
  8
1
 62
     1
100
AcDbLine
 10
52.21352970242585
 20
6.105220310625896
 30
0.0
 11
52.4633764341591
 21
6.017608507182727
 31
0.0
  0
LINE
  5
598
330
18
100
AcDbEntity
  8
1
 62
     1
100
AcDbLine
 10
52.4633764341591
 20
6.017608507182727
 30
0.0
 11
52.7132321287659
 21
5.917022228448164
 31
0.0
  0
LINE
  5
599
330
18
100
AcDbEntity
  8
1
 62
     1
100
AcDbLine
 10
52.7132321287659
 20
5.917022228448164
 30
0.0
 11
52.96307027445633
 21
5.8036938932692
 31
0.0
  0
LINE
  5
59A
330
18
100
AcDbEntity
  8
1
 62
     1
100
AcDbLine
 10
52.96307027445633
 20
5.8036938932692
 30
0.0
 11
53.21293182536896
 21
5.677846359108765
 31
0.0
  0
LINE
  5
59B
330
18
100
AcDbEntity
  8
1
 62
     1
100
AcDbLine
 10
53.21293182536896
 20
5.677846359108765
 30
0.0
 11
53.46276996337278
 21
5.53977441900853
 31
0.0
  0
LINE
  5
59C
330
18
100
AcDbEntity
  8
1
 62
     1
100
AcDbLine
 10
53.46276996337278
 20
5.53977441900853
 30
0.0
 11
53.96247223269382
 21
5.228124796181779
 31
0.0
  0
LINE
  5
59D
330
18
100
AcDbEntity
  8
1
 62
     1
100
AcDbLine
 10
53.96247223269382
 20
5.228124796181779
 30
0.0
 11
54.33724097285129
 21
4.964671786091682
 31
0.0
  0
LINE
  5
59E
330
18
100
AcDbEntity
  8
1
 62
     1
100
AcDbLine
 10
54.33724097285129
 20
4.964671786091682
 30
0.0
 11
54.712
 21
4.677160102732505
 31
0.0
  0
LINE
  5
59F
330
18
100
AcDbEntity
  8
1
 62
     1
100
AcDbLine
 10
56.30000000000001
 20
4.761794461381859
 30
0.0
 11
56.2969261044307
 21
4.86050724273702
 31
0.0
  0
LINE
  5
5A0
330
18
100
AcDbEntity
  8
1
 62
     1
100
AcDbLine
 10
56.2969261044307
 20
4.86050724273702
 30
0.0
 11
56.28775934206833
 21
4.95844572062163
 31
0.0
  0
LINE
  5
5A1
330
18
100
AcDbEntity
  8
1
 62
     1
100
AcDbLine
 10
56.28775934206833
 20
4.95844572062163
 30
0.0
 11
56.27265634955312
 21
5.05489438260316
 31
0.0
  0
LINE
  5
5A2
330
18
100
AcDbEntity
  8
1
 62
     1
100
AcDbLine
 10
56.27265634955312
 20
5.05489438260316
 30
0.0
 11
56.25186870125157
 21
5.149149421473528
 31
0.0
  0
LINE
  5
5A3
330
18
100
AcDbEntity
  8
1
 62
     1
100
AcDbLine
 10
56.25186870125157
 20
5.149149421473528
 30
0.0
 11
56.22574348630266
 21
5.240521572718423
 31
0.0
  0
LINE
  5
5A4
330
18
100
AcDbEntity
  8
1
 62
     1
100
AcDbLine
 10
56.22574348630266
 20
5.240521572718423
 30
0.0
 11
56.19469876507178
 21
5.328414840500308
 31
0.0
  0
LINE
  5
5A5
330
18
100
AcDbEntity
  8
1
 62
     1
100
AcDbLine
 10
56.19469876507178
 20
5.328414840500308
 30
0.0
 11
56.15918467869717
 21
5.412353736324291
 31
0.0
  0
LINE
  5
5A6
330
18
100
AcDbEntity
  8
1
 62
     1
100
AcDbLine
 10
56.15918467869717
 20
5.412353736324291
 30
0.0
 11
56.11966645149151
 21
5.491961803552144
 31
0.0
  0
LINE
  5
5A7
330
18
100
AcDbEntity
  8
1
 62
     1
100
AcDbLine
 10
56.11966645149151
 20
5.491961803552144
 30
0.0
 11
56.07661531770485
 21
5.566946826267499
 31
0.0
  0
LINE
  5
5A8
330
18
100
AcDbEntity
  8
1
 62
     1
100
AcDbLine
 10
56.07661531770485
 20
5.566946826267499
 30
0.0
 11
56.03047515641747
 21
5.637128783870609
 31
0.0
  0
LINE
  5
5A9
330
18
100
AcDbEntity
  8
1
 62
     1
100
AcDbLine
 10
56.03047515641747
 20
5.637128783870609
 30
0.0
 11
55.98164858995244
 21
5.702416829580884
 31
0.0
  0
LINE
  5
5AA
330
18
100
AcDbEntity
  8
1
 62
     1
100
AcDbLine
 10
55.98164858995244
 20
5.702416829580884
 30
0.0
 11
55.93050037058288
 21
5.762779452596548
 31
0.0
  0
LINE
  5
5AB
330
18
100
AcDbEntity
  8
1
 62
     1
100
AcDbLine
 10
55.93050037058288
 20
5.762779452596548
 30
0.0
 11
55.87736298917012
 21
5.818225501700805
 31
0.0
  0
LINE
  5
5AC
330
18
100
AcDbEntity
  8
1
 62
     1
100
AcDbLine
 10
55.87736298917012
 20
5.818225501700805
 30
0.0
 11
55.82252248283098
 21
5.868809510701906
 31
0.0
  0
LINE
  5
5AD
330
18
100
AcDbEntity
  8
1
 62
     1
100
AcDbLine
 10
55.82252248283098
 20
5.868809510701906
 30
0.0
 11
55.76622171163906
 21
5.914614775262973
 31
0.0
  0
LINE
  5
5AE
330
18
100
AcDbEntity
  8
1
 62
     1
100
AcDbLine
 10
55.76622171163906
 20
5.914614775262973
 30
0.0
 11
55.70865446128578
 21
5.955748679243117
 31
0.0
  0
LINE
  5
5AF
330
18
100
AcDbEntity
  8
1
 62
     1
100
AcDbLine
 10
55.70865446128578
 20
5.955748679243117
 30
0.0
 11
55.6500384738161
 21
5.992291733915805
 31
0.0
  0
LINE
  5
5B0
330
18
100
AcDbEntity
  8
1
 62
     1
100
AcDbLine
 10
55.6500384738161
 20
5.992291733915805
 30
0.0
 11
55.59050573606417
 21
6.024367878598823
 31
0.0
  0
LINE
  5
5B1
330
18
100
AcDbEntity
  8
1
 62
     1
100
AcDbLine
 10
55.59050573606417
 20
6.024367878598823
 30
0.0
 11
55.53021310013531
 21
6.052076513821408
 31
0.0
  0
LINE
  5
5B2
330
18
100
AcDbEntity
  8
1
 62
     1
100
AcDbLine
 10
55.53021310013531
 20
6.052076513821408
 30
0.0
 11
55.46925331481052
 21
6.07553558218857
 31
0.0
  0
LINE
  5
5B3
330
18
100
AcDbEntity
  8
1
 62
     1
100
AcDbLine
 10
55.46925331481052
 20
6.07553558218857
 30
0.0
 11
55.4077450961132
 21
6.094843120799871
 31
0.0
  0
LINE
  5
5B4
330
18
100
AcDbEntity
  8
1
 62
     1
100
AcDbLine
 10
55.4077450961132
 20
6.094843120799871
 30
0.0
 11
55.34575304057424
 21
6.110105149855572
 31
0.0
  0
LINE
  5
5B5
330
18
100
AcDbEntity
  8
1
 62
     1
100
AcDbLine
 10
55.34575304057424
 20
6.110105149855572
 30
0.0
 11
55.28336871177743
 21
6.121412677543615
 31
0.0
  0
LINE
  5
5B6
330
18
100
AcDbEntity
  8
1
 62
     1
100
AcDbLine
 10
55.28336871177743
 20
6.121412677543615
 30
0.0
 11
55.22063689183813
 21
6.128857796595536
 31
0.0
  0
LINE
  5
5B7
330
18
100
AcDbEntity
  8
1
 62
     1
100
AcDbLine
 10
55.22063689183813
 20
6.128857796595536
 30
0.0
 11
55.15762934828184
 21
6.132522291401136
 31
0.0
  0
LINE
  5
5B8
330
18
100
AcDbEntity
  8
1
 62
     1
100
AcDbLine
 10
55.15762934828184
 20
6.132522291401136
 30
0.0
 11
55.09436269800302
 21
6.132483170485428
 31
0.0
  0
LINE
  5
5B9
330
18
100
AcDbEntity
  8
1
 62
     1
100
AcDbLine
 10
55.09436269800302
 20
6.132483170485428
 30
0.0
 11
55.03089295176213
 21
6.128811422192197
 31
0.0
  0
LINE
  5
5BA
330
18
100
AcDbEntity
  8
1
 62
     1
100
AcDbLine
 10
55.03089295176213
 20
6.128811422192197
 30
0.0
 11
54.96729712587744
 21
6.121575983977186
 31
0.0
  0
LINE
  5
5BB
330
18
100
AcDbEntity
  8
1
 62
     1
100
AcDbLine
 10
54.96729712587744
 20
6.121575983977186
 30
0.0
 11
54.90356472074564
 21
6.11083259941198
 31
0.0
  0
LINE
  5
5BC
330
18
100
AcDbEntity
  8
1
 62
     1
100
AcDbLine
 10
54.90356472074564
 20
6.11083259941198
 30
0.0
 11
54.83973635085233
 21
6.096638940466836
 31
0.0
  0
LINE
  5
5BD
330
18
100
AcDbEntity
  8
1
 62
     1
100
AcDbLine
 10
54.83973635085233
 20
6.096638940466836
 30
0.0
 11
54.77587883516122
 21
6.079054879774598
 31
0.0
  0
LINE
  5
5BE
330
18
100
AcDbEntity
  8
1
 62
     1
100
AcDbLine
 10
54.77587883516122
 20
6.079054879774598
 30
0.0
 11
54.712
 21
6.058123710211438
 31
0.0
  0
LINE
  5
5BF
330
18
100
AcDbEntity
  8
1
 62
     1
100
AcDbLine
 10
56.3
 20
4.329312703943633
 30
0.0
 11
56.29999999999999
 21
2.419213423935903
 31
0.0
  0
LINE
  5
5C0
330
18
100
AcDbEntity
  8
1
 62
     1
100
AcDbLine
 10
56.30000000000001
 20
1.954932868899025
 30
0.0
 11
56.3
 21
2.419213423935889
 31
0.0
  0
LINE
  5
5C1
330
18
100
AcDbEntity
  8
1
 62
     1
100
AcDbLine
 10
56.30000000000001
 20
1.954932868899025
 30
0.0
 11
56.3
 21
0.4470208744608992
 31
0.0
  0
LINE
  5
5C2
330
18
100
AcDbEntity
  8
1
 62
     1
100
AcDbLine
 10
56.3
 20
0.4470208744608993
 30
0.0
 11
56.29999999999999
 21
-2.342581037445967
 31
0.0
  0
LINE
  5
5C3
330
18
100
AcDbEntity
  8
1
 62
     1
100
AcDbLine
 10
56.29999999999998
 20
-2.342581037445967
 30
0.0
 11
56.3
 21
-3.882291829482739
 31
0.0
  0
ARC
  5
5C4
330
18
100
AcDbEntity
  8
1
 62
     1
100
AcDbCircle
 10
-61.87933778504802
 20
-68.49149410412377
 30
0.0
 40
106.532588919732
100
AcDbArc
 50
40.00926508012433
 51
41.26304854116017
  0
LINE
  5
5C5
330
18
100
AcDbEntity
  8
1
 62
     1
100
AcDbLine
 10
45.07887565087709
 20
6.35
 30
0.0
 11
46.87173934901944
 21
6.35
 31
0.0
  0
LINE
  5
5C6
330
18
100
AcDbEntity
  8
1
 62
     1
100
AcDbLine
 10
18.19999999999998
 20
3.665656958187111
 30
0.0
 11
18.93532211880551
 21
2.925216765464148
 31
0.0
  0
LINE
  5
5C7
330
18
100
AcDbEntity
  8
1
 62
     1
100
AcDbLine
 10
18.93532211880551
 20
2.925216765464148
 30
0.0
 11
20.40595802974502
 21
1.295574517975334
 31
0.0
  0
LINE
  5
5C8
330
18
100
AcDbEntity
  8
1
 62
     1
100
AcDbLine
 10
20.40595802974502
 20
1.295574517975334
 30
0.0
 11
23.34722001338061
 21
-2.124069270375254
 31
0.0
  0
LINE
  5
5C9
330
18
100
AcDbEntity
  8
1
 62
     1
100
AcDbLine
 10
23.34722001338061
 20
-2.124069270375254
 30
0.0
 11
24.08254947127622
 21
-2.919404153183103
 31
0.0
  0
LINE
  5
5CA
330
18
100
AcDbEntity
  8
1
 62
     1
100
AcDbLine
 10
24.08254947127622
 20
-2.919404153183103
 30
0.0
 11
24.81786739418994
 21
-3.660307359148828
 31
0.0
  0
LINE
  5
5CB
330
18
100
AcDbEntity
  8
1
 62
     1
100
AcDbLine
 10
24.81786739418994
 20
-3.660307359148828
 30
0.0
 11
25.55317674819134
 21
-4.332973260684125
 31
0.0
  0
LINE
  5
5CC
330
18
100
AcDbEntity
  8
1
 62
     1
100
AcDbLine
 10
25.55317674819134
 20
-4.332973260684125
 30
0.0
 11
25.92083432926218
 21
-4.639748711534333
 31
0.0
  0
LINE
  5
5CD
330
18
100
AcDbEntity
  8
1
 62
     1
100
AcDbLine
 10
25.92083432926218
 20
-4.639748711534333
 30
0.0
 11
26.28849750920101
 21
-4.924880819541125
 31
0.0
  0
LINE
  5
5CE
330
18
100
AcDbEntity
  8
1
 62
     1
100
AcDbLine
 10
26.28849750920101
 20
-4.924880819541125
 30
0.0
 11
26.65616327711063
 21
-5.187037757502244
 31
0.0
  0
LINE
  5
5CF
330
18
100
AcDbEntity
  8
1
 62
     1
100
AcDbLine
 10
26.65616327711063
 20
-5.187037757502244
 30
0.0
 11
27.02382377051922
 21
-5.424988960238407
 31
0.0
  0
LINE
  5
5D0
330
18
100
AcDbEntity
  8
1
 62
     1
100
AcDbLine
 10
27.02382377051922
 20
-5.424988960238407
 30
0.0
 11
27.39148030104056
 21
-5.637626878445287
 31
0.0
  0
LINE
  5
5D1
330
18
100
AcDbEntity
  8
1
 62
     1
100
AcDbLine
 10
27.39148030104056
 20
-5.637626878445287
 30
0.0
 11
27.75913443113864
 21
-5.823962083754407
 31
0.0
  0
LINE
  5
5D2
330
18
100
AcDbEntity
  8
1
 62
     1
100
AcDbLine
 10
27.75913443113864
 20
-5.823962083754407
 30
0.0
 11
28.12678935371697
 21
-5.983126362730253
 31
0.0
  0
LINE
  5
5D3
330
18
100
AcDbEntity
  8
1
 62
     1
100
AcDbLine
 10
28.12678935371697
 20
-5.983126362730253
 30
0.0
 11
28.4944467896964
 21
-6.114377881836646
 31
0.0
  0
LINE
  5
5D4
330
18
100
AcDbEntity
  8
1
 62
     1
100
AcDbLine
 10
28.4944467896964
 20
-6.114377881836646
 30
0.0
 11
28.67828576405586
 21
-6.169341159779885
 31
0.0
  0
LINE
  5
5D5
330
18
100
AcDbEntity
  8
1
 62
     1
100
AcDbLine
 10
28.67828576405586
 20
-6.169341159779885
 30
0.0
 11
28.86210871431476
 21
-6.217103815085167
 31
0.0
  0
LINE
  5
5D6
330
18
100
AcDbEntity
  8
1
 62
     1
100
AcDbLine
 10
28.86210871431476
 20
-6.217103815085167
 30
0.0
 11
29.04594002704738
 21
-6.257612158452041
 31
0.0
  0
LINE
  5
5D7
330
18
100
AcDbEntity
  8
1
 62
     1
100
AcDbLine
 10
29.04594002704738
 20
-6.257612158452041
 30
0.0
 11
29.2297749777526
 21
-6.29082268343497
 31
0.0
  0
LINE
  5
5D8
330
18
100
AcDbEntity
  8
1
 62
     1
100
AcDbLine
 10
29.2297749777526
 20
-6.29082268343497
 30
0.0
 11
29.41359447045902
 21
-6.316689121431679
 31
0.0
  0
LINE
  5
5D9
330
18
100
AcDbEntity
  8
1
 62
     1
100
AcDbLine
 10
29.41359447045902
 20
-6.316689121431679
 30
0.0
 11
29.59743536411563
 21
-6.335189378398903
 31
0.0
  0
LINE
  5
5DA
330
18
100
AcDbEntity
  8
1
 62
     1
100
AcDbLine
 10
29.59743536411563
 20
-6.335189378398903
 30
0.0
 11
29.7812480699794
 21
-6.346296553321841
 31
0.0
  0
LINE
  5
5DB
330
18
100
AcDbEntity
  8
1
 62
     1
100
AcDbLine
 10
29.7812480699794
 20
-6.346296553321841
 30
0.0
 11
29.96505231314383
 21
-6.349999999913756
 31
0.0
  0
LINE
  5
5DC
330
18
100
AcDbEntity
  8
1
 62
     1
100
AcDbLine
 10
18.19999999999999
 20
-4.397455994864996
 30
0.0
 11
18.74208944507423
 21
-4.835824097714513
 31
0.0
  0
LINE
  5
5DD
330
18
100
AcDbEntity
  8
1
 62
     1
100
AcDbLine
 10
18.74208944507423
 20
-4.835824097714513
 30
0.0
 11
19.28417379640391
 21
-5.225164866256385
 31
0.0
  0
LINE
  5
5DE
330
18
100
AcDbEntity
  8
1
 62
     1
100
AcDbLine
 10
19.28417379640391
 20
-5.225164866256385
 30
0.0
 11
19.55520773755131
 21
-5.400190206340904
 31
0.0
  0
LINE
  5
5DF
330
18
100
AcDbEntity
  8
1
 62
     1
100
AcDbLine
 10
19.55520773755131
 20
-5.400190206340904
 30
0.0
 11
19.82624401636373
 21
-5.561524387435461
 31
0.0
  0
LINE
  5
5E0
330
18
100
AcDbEntity
  8
1
 62
     1
100
AcDbLine
 10
19.82624401636373
 20
-5.561524387435461
 30
0.0
 11
20.09729571428529
 21
-5.708760977584484
 31
0.0
  0
LINE
  5
5E1
330
18
100
AcDbEntity
  8
1
 62
     1
100
AcDbLine
 10
20.09729571428529
 20
-5.708760977584484
 30
0.0
 11
20.36832612619717
 21
-5.841508986664284
 31
0.0
  0
LINE
  5
5E2
330
18
100
AcDbEntity
  8
1
 62
     1
100
AcDbLine
 10
20.36832612619717
 20
-5.841508986664284
 30
0.0
 11
20.63937036584752
 21
-5.959450847093589
 31
0.0
  0
LINE
  5
5E3
330
18
100
AcDbEntity
  8
1
 62
     1
100
AcDbLine
 10
20.63937036584752
 20
-5.959450847093589
 30
0.0
 11
20.9104151778267
 21
-6.062276658716497
 31
0.0
  0
LINE
  5
5E4
330
18
100
AcDbEntity
  8
1
 62
     1
100
AcDbLine
 10
20.9104151778267
 20
-6.062276658716497
 30
0.0
 11
21.18144546472544
 21
-6.149724902117931
 31
0.0
  0
LINE
  5
5E5
330
18
100
AcDbEntity
  8
1
 62
     1
100
AcDbLine
 10
21.18144546472544
 20
-6.149724902117931
 30
0.0
 11
21.45249663706026
 21
-6.221583538064532
 31
0.0
  0
LINE
  5
5E6
330
18
100
AcDbEntity
  8
1
 62
     1
100
AcDbLine
 10
21.45249663706026
 20
-6.221583538064532
 30
0.0
 11
21.72353335774737
 21
-6.277658162371718
 31
0.0
  0
LINE
  5
5E7
330
18
100
AcDbEntity
  8
1
 62
     1
100
AcDbLine
 10
21.72353335774737
 20
-6.277658162371718
 30
0.0
 11
21.99456658845125
 21
-6.317814498694129
 31
0.0
  0
LINE
  5
5E8
330
18
100
AcDbEntity
  8
1
 62
     1
100
AcDbLine
 10
21.99456658845125
 20
-6.317814498694129
 30
0.0
 11
22.26561929120049
 21
-6.341949379307698
 31
0.0
  0
LINE
  5
5E9
330
18
100
AcDbEntity
  8
1
 62
     1
100
AcDbLine
 10
22.26561929120049
 20
-6.341949379307698
 30
0.0
 11
22.53662684831566
 21
-6.34999999999824
 31
0.0
  0
LINE
  5
5EA
330
18
100
AcDbEntity
  8
1
 62
     1
100
AcDbLine
 10
39.4433134645677
 20
6.35
 30
0.0
 11
41.23617693315081
 21
6.35
 31
0.0
  0
LINE
  5
5EB
330
18
100
AcDbEntity
  8
1
 62
     1
100
AcDbLine
 10
18.2
 20
-2.657616298283271
 30
0.0
 11
18.96544831397606
 21
-3.448299582532732
 31
0.0
  0
LINE
  5
5EC
330
18
100
AcDbEntity
  8
1
 62
     1
100
AcDbLine
 10
18.96544831397606
 20
-3.448299582532732
 30
0.0
 11
19.73090408789492
 21
-4.169348378339726
 31
0.0
  0
LINE
  5
5ED
330
18
100
AcDbEntity
  8
1
 62
     1
100
AcDbLine
 10
19.73090408789492
 20
-4.169348378339726
 30
0.0
 11
20.11362826424708
 21
-4.499137082559552
 31
0.0
  0
LINE
  5
5EE
330
18
100
AcDbEntity
  8
1
 62
     1
100
AcDbLine
 10
20.11362826424708
 20
-4.499137082559552
 30
0.0
 11
20.49634967336047
 21
-4.806178141764986
 31
0.0
  0
LINE
  5
5EF
330
18
100
AcDbEntity
  8
1
 62
     1
100
AcDbLine
 10
20.49634967336047
 20
-4.806178141764986
 30
0.0
 11
20.87906905962222
 21
-5.088920816851089
 31
0.0
  0
LINE
  5
5F0
330
18
100
AcDbEntity
  8
1
 62
     1
100
AcDbLine
 10
20.87906905962222
 20
-5.088920816851089
 30
0.0
 11
21.26178853683616
 21
-5.345936243654244
 31
0.0
  0
LINE
  5
5F1
330
18
100
AcDbEntity
  8
1
 62
     1
100
AcDbLine
 10
21.26178853683616
 20
-5.345936243654244
 30
0.0
 11
21.64450814475794
 21
-5.575926294396837
 31
0.0
  0
LINE
  5
5F2
330
18
100
AcDbEntity
  8
1
 62
     1
100
AcDbLine
 10
21.64450814475794
 20
-5.575926294396837
 30
0.0
 11
22.02722938073978
 21
-5.777728303297383
 31
0.0
  0
LINE
  5
5F3
330
18
100
AcDbEntity
  8
1
 62
     1
100
AcDbLine
 10
22.02722938073978
 20
-5.777728303297383
 30
0.0
 11
22.40995378147337
 21
-5.95032181142075
 31
0.0
  0
LINE
  5
5F4
330
18
100
AcDbEntity
  8
1
 62
     1
100
AcDbLine
 10
22.40995378147337
 20
-5.95032181142075
 30
0.0
 11
22.60132176177264
 21
-6.025387530650607
 31
0.0
  0
LINE
  5
5F5
330
18
100
AcDbEntity
  8
1
 62
     1
100
AcDbLine
 10
22.60132176177264
 20
-6.025387530650607
 30
0.0
 11
22.79268122305563
 21
-6.092834132644236
 31
0.0
  0
LINE
  5
5F6
330
18
100
AcDbEntity
  8
1
 62
     1
100
AcDbLine
 10
22.79268122305563
 20
-6.092834132644236
 30
0.0
 11
22.98404109389027
 21
-6.15257543409698
 31
0.0
  0
LINE
  5
5F7
330
18
100
AcDbEntity
  8
1
 62
     1
100
AcDbLine
 10
22.98404109389027
 20
-6.15257543409698
 30
0.0
 11
23.17540838403995
 21
-6.20454282367643
 31
0.0
  0
LINE
  5
5F8
330
18
100
AcDbEntity
  8
1
 62
     1
100
AcDbLine
 10
23.17540838403995
 20
-6.20454282367643
 30
0.0
 11
23.36676044115021
 21
-6.248659738102397
 31
0.0
  0
LINE
  5
5F9
330
18
100
AcDbEntity
  8
1
 62
     1
100
AcDbLine
 10
23.36676044115021
 20
-6.248659738102397
 30
0.0
 11
23.55813270484778
 21
-6.284882325861519
 31
0.0
  0
LINE
  5
5FA
330
18
100
AcDbEntity
  8
1
 62
     1
100
AcDbLine
 10
23.55813270484778
 20
-6.284882325861519
 30
0.0
 11
23.74948113781981
 21
-6.313154503937104
 31
0.0
  0
LINE
  5
5FB
330
18
100
AcDbEntity
  8
1
 62
     1
100
AcDbLine
 10
23.74948113781981
 20
-6.313154503937104
 30
0.0
 11
23.94085438467639
 21
-6.333447891270589
 31
0.0
  0
LINE
  5
5FC
330
18
100
AcDbEntity
  8
1
 62
     1
100
AcDbLine
 10
23.94085438467639
 20
-6.333447891270589
 30
0.0
 11
24.13220281224199
 21
-6.345733385559769
 31
0.0
  0
LINE
  5
5FD
330
18
100
AcDbEntity
  8
1
 62
     1
100
AcDbLine
 10
24.13220281224199
 20
-6.345733385559769
 30
0.0
 11
24.32353898749873
 21
-6.349996117363429
 31
0.0
  0
LINE
  5
5FE
330
18
100
AcDbEntity
  8
1
 62
     1
100
AcDbLine
 10
24.32353898749874
 20
-6.34999611736343
 30
0.0
 11
24.32949013664997
 21
-6.34999999999115
 31
0.0
  0
LINE
  5
5FF
330
18
100
AcDbEntity
  8
1
 62
     1
100
AcDbLine
 10
33.80775126812923
 20
6.35
 30
0.0
 11
35.60061458160322
 21
6.35
 31
0.0
  0
ARC
  5
600
330
18
100
AcDbEntity
  8
1
 62
     1
100
AcDbCircle
 10
18.69494181690001
 20
-1.755376496711082
 30
0.0
 40
4.594630899131593
100
AcDbArc
 50
263.8159994908196
 51
269.9856944681336
  0
LINE
  5
601
330
18
100
AcDbEntity
  8
1
 62
     1
100
AcDbLine
 10
18.69379463756437
 20
-6.349999997934916
 30
0.0
 11
18.69392900499258
 21
-6.349999999914102
 31
0.0
  0
LINE
  5
602
330
18
100
AcDbEntity
  8
1
 62
     1
100
AcDbLine
 10
28.17218906211563
 20
6.35
 30
0.0
 11
29.96505231311898
 21
6.35
 31
0.0
  0
LINE
  5
603
330
18
100
AcDbEntity
  8
1
 62
     1
100
AcDbLine
 10
20.61527765942144
 20
5.949575120499517
 30
0.0
 11
20.85544691809142
 21
6.042657960098931
 31
0.0
  0
LINE
  5
604
330
18
100
AcDbEntity
  8
1
 62
     1
100
AcDbLine
 10
20.85544691809142
 20
6.042657960098931
 30
0.0
 11
21.09561500481863
 21
6.123710062797963
 31
0.0
  0
LINE
  5
605
330
18
100
AcDbEntity
  8
1
 62
     1
100
AcDbLine
 10
21.09561500481863
 20
6.123710062797963
 30
0.0
 11
21.3357944903351
 21
6.192568415927827
 31
0.0
  0
LINE
  5
606
330
18
100
AcDbEntity
  8
1
 62
     1
100
AcDbLine
 10
21.3357944903351
 20
6.192568415927827
 30
0.0
 11
21.57595615988947
 21
6.24909233033851
 31
0.0
  0
LINE
  5
607
330
18
100
AcDbEntity
  8
1
 62
     1
100
AcDbLine
 10
21.57595615988947
 20
6.24909233033851
 30
0.0
 11
21.81614053326052
 21
6.29317554026456
 31
0.0
  0
LINE
  5
608
330
18
100
AcDbEntity
  8
1
 62
     1
100
AcDbLine
 10
21.81614053326052
 20
6.29317554026456
 30
0.0
 11
22.05630086823476
 21
6.324722843166117
 31
0.0
  0
LINE
  5
609
330
18
100
AcDbEntity
  8
1
 62
     1
100
AcDbLine
 10
22.05630086823476
 20
6.324722843166117
 30
0.0
 11
22.29648355351313
 21
6.343678571678904
 31
0.0
  0
LINE
  5
60A
330
18
100
AcDbEntity
  8
1
 62
     1
100
AcDbLine
 10
22.29648355351313
 20
6.343678571678904
 30
0.0
 11
22.53662684831568
 21
6.35
 31
0.0
  0
LINE
  5
60B
330
18
100
AcDbEntity
  8
1
 62
     1
100
AcDbLine
 10
22.53662684831568
 20
6.35
 30
0.0
 11
24.32949013664737
 21
6.35
 31
0.0
  0
LINE
  5
60C
330
18
100
AcDbEntity
  8
1
 62
     1
100
AcDbLine
 10
56.29999999999998
 20
4.329312703943651
 30
0.0
 11
56.29999999999998
 21
4.761794461381858
 31
0.0
  0
LINE
  5
60D
330
18
100
AcDbEntity
  8
1
 62
     1
100
AcDbLine
 10
56.30000000000001
 20
1.954932868899027
 30
0.0
 11
55.2059842509827
 21
2.583851024606091
 31
0.0
  0
LINE
  5
60E
330
18
100
AcDbEntity
  8
1
 62
     1
100
AcDbLine
 10
55.2059842509827
 20
2.583851024606091
 30
0.0
 11
54.65897637647405
 21
2.859865451933854
 31
0.0
  0
LINE
  5
60F
330
18
100
AcDbEntity
  8
1
 62
     1
100
AcDbLine
 10
54.65897637647405
 20
2.859865451933854
 30
0.0
 11
54.11196850196541
 21
3.106358130329121
 31
0.0
  0
LINE
  5
610
330
18
100
AcDbEntity
  8
1
 62
     1
100
AcDbLine
 10
54.11196850196541
 20
3.106358130329121
 30
0.0
 11
53.56496062745675
 21
3.32078463023918
 31
0.0
  0
LINE
  5
611
330
18
100
AcDbEntity
  8
1
 62
     1
100
AcDbLine
 10
53.56496062745675
 20
3.32078463023918
 30
0.0
 11
53.01795275294809
 21
3.500931391080635
 31
0.0
  0
LINE
  5
612
330
18
100
AcDbEntity
  8
1
 62
     1
100
AcDbLine
 10
53.01795275294809
 20
3.500931391080635
 30
0.0
 11
52.47094487843943
 21
3.644938853850817
 31
0.0
  0
LINE
  5
613
330
18
100
AcDbEntity
  8
1
 62
     1
100
AcDbLine
 10
52.47094487843943
 20
3.644938853850817
 30
0.0
 11
51.92393700393078
 21
3.751320453388476
 31
0.0
  0
LINE
  5
614
330
18
100
AcDbEntity
  8
1
 62
     1
100
AcDbLine
 10
18.2
 20
1.071692178364784
 30
0.0
 11
18.2
 21
1.768470079286061
 31
0.0
  0
LINE
  5
615
330
18
100
AcDbEntity
  8
1
 62
     1
100
AcDbLine
 10
18.2
 20
-6.323273256470377
 30
0.0
 11
18.2
 21
-6.349999999999996
 31
0.0
  0
LINE
  5
616
330
18
100
AcDbEntity
  8
1
 62
     1
100
AcDbLine
 10
18.19999999999999
 20
-6.323273256470383
 30
0.0
 11
18.19999999999999
 21
-4.397455994864995
 31
0.0
  0
LINE
  5
617
330
18
100
AcDbEntity
  8
1
 62
     1
100
AcDbLine
 10
18.20000000000001
 20
-2.657616298283278
 30
0.0
 11
18.2
 21
-4.397455994864995
 31
0.0
  0
LINE
  5
618
330
18
100
AcDbEntity
  8
1
 62
     1
100
AcDbLine
 10
18.19999999999999
 20
-2.65761629828327
 30
0.0
 11
18.19999999999999
 21
1.071692178364784
 31
0.0
  0
LINE
  5
619
330
18
100
AcDbEntity
  8
1
 62
     1
100
AcDbLine
 10
18.2
 20
3.665656958187115
 30
0.0
 11
18.2
 21
1.768470079286071
 31
0.0
  0
LINE
  5
61A
330
18
100
AcDbEntity
  8
1
 62
     1
100
AcDbLine
 10
18.2
 20
3.665656958187111
 30
0.0
 11
18.2
 21
3.736548796296748
 31
0.0
  0
LINE
  5
61B
330
18
100
AcDbEntity
  8
1
 62
     1
100
AcDbLine
 10
18.2
 20
3.736548796296748
 30
0.0
 11
18.2
 21
6.165926074151058
 31
0.0
  0
LINE
  5
61C
330
18
100
AcDbEntity
  8
1
 62
     1
100
AcDbLine
 10
18.2
 20
6.35
 30
0.0
 11
18.2
 21
6.349958595292724
 31
0.0
  0
LINE
  5
61D
330
18
100
AcDbEntity
  8
1
 62
     1
100
AcDbLine
 10
18.2
 20
6.349958595292724
 30
0.0
 11
18.20000000000001
 21
6.337754213196412
 31
0.0
  0
LINE
  5
61E
330
18
100
AcDbEntity
  8
1
 62
     1
100
AcDbLine
 10
18.20000000000001
 20
6.337754213196412
 30
0.0
 11
18.2
 21
6.165926074151057
 31
0.0
  0
LINE
  5
61F
330
18
100
AcDbEntity
  8
1
 62
     1
100
AcDbLine
 10
35.60061458162532
 20
-6.349999999919227
 30
0.0
 11
35.4153951354422
 21
-6.346238074782607
 31
0.0
  0
LINE
  5
620
330
18
100
AcDbEntity
  8
1
 62
     1
100
AcDbLine
 10
35.4153951354422
 20
-6.346238074782607
 30
0.0
 11
35.23015754281853
 21
-6.334959985748865
 31
0.0
  0
LINE
  5
621
330
18
100
AcDbEntity
  8
1
 62
     1
100
AcDbLine
 10
35.23015754281853
 20
-6.334959985748865
 30
0.0
 11
35.04494316348353
 21
-6.31617898608811
 31
0.0
  0
LINE
  5
622
330
18
100
AcDbEntity
  8
1
 62
     1
100
AcDbLine
 10
35.04494316348353
 20
-6.31617898608811
 30
0.0
 11
34.85970525285644
 21
-6.289913046707276
 31
0.0
  0
LINE
  5
623
330
18
100
AcDbEntity
  8
1
 62
     1
100
AcDbLine
 10
34.85970525285644
 20
-6.289913046707276
 30
0.0
 11
34.67448751045468
 21
-6.256201280283912
 31
0.0
  0
LINE
  5
624
330
18
100
AcDbEntity
  8
1
 62
     1
100
AcDbLine
 10
34.67448751045468
 20
-6.256201280283912
 30
0.0
 11
34.48925494861695
 21
-6.215073692197562
 31
0.0
  0
LINE
  5
625
330
18
100
AcDbEntity
  8
1
 62
     1
100
AcDbLine
 10
34.48925494861695
 20
-6.215073692197562
 30
0.0
 11
34.30402611379362
 21
-6.166587179910644
 31
0.0
  0
LINE
  5
626
330
18
100
AcDbEntity
  8
1
 62
     1
100
AcDbLine
 10
34.30402611379362
 20
-6.166587179910644
 30
0.0
 11
34.11880566115005
 21
-6.11079623675325
 31
0.0
  0
LINE
  5
627
330
18
100
AcDbEntity
  8
1
 62
     1
100
AcDbLine
 10
34.11880566115005
 20
-6.11079623675325
 30
0.0
 11
33.74835398459063
 21
-5.97757386973671
 31
0.0
  0
LINE
  5
628
330
18
100
AcDbEntity
  8
1
 62
     1
100
AcDbLine
 10
33.74835398459063
 20
-5.97757386973671
 30
0.0
 11
33.37789804962752
 21
-5.816035820175471
 31
0.0
  0
LINE
  5
629
330
18
100
AcDbEntity
  8
1
 62
     1
100
AcDbLine
 10
33.37789804962752
 20
-5.816035820175471
 30
0.0
 11
33.0074373985106
 21
-5.626944679868694
 31
0.0
  0
LINE
  5
62A
330
18
100
AcDbEntity
  8
1
 62
     1
100
AcDbLine
 10
33.0074373985106
 20
-5.626944679868694
 30
0.0
 11
32.63697961796263
 21
-5.411200843104926
 31
0.0
  0
LINE
  5
62B
330
18
100
AcDbEntity
  8
1
 62
     1
100
AcDbLine
 10
32.63697961796263
 20
-5.411200843104926
 30
0.0
 11
32.26652652094758
 21
-5.169828603524341
 31
0.0
  0
LINE
  5
62C
330
18
100
AcDbEntity
  8
1
 62
     1
100
AcDbLine
 10
32.26652652094758
 20
-5.169828603524341
 30
0.0
 11
31.89607674473028
 21
-4.903970503644895
 31
0.0
  0
LINE
  5
62D
330
18
100
AcDbEntity
  8
1
 62
     1
100
AcDbLine
 10
31.89607674473028
 20
-4.903970503644895
 30
0.0
 11
31.52562741344574
 21
-4.61488502151312
 31
0.0
  0
LINE
  5
62E
330
18
100
AcDbEntity
  8
1
 62
     1
100
AcDbLine
 10
31.52562741344574
 20
-4.61488502151312
 30
0.0
 11
30.78472275935126
 21
-3.972604114701931
 31
0.0
  0
LINE
  5
62F
330
18
100
AcDbEntity
  8
1
 62
     1
100
AcDbLine
 10
30.78472275935126
 20
-3.972604114701931
 30
0.0
 11
30.04380350926787
 21
-3.255130394497798
 31
0.0
  0
LINE
  5
630
330
18
100
AcDbEntity
  8
1
 62
     1
100
AcDbLine
 10
30.04380350926787
 20
-3.255130394497798
 30
0.0
 11
29.30290033165763
 21
-2.476068395928245
 31
0.0
  0
LINE
  5
631
330
18
100
AcDbEntity
  8
1
 62
     1
100
AcDbLine
 10
29.30290033165763
 20
-2.476068395928245
 30
0.0
 11
27.82109100754628
 21
-0.7930001251064911
 31
0.0
  0
LINE
  5
632
330
18
100
AcDbEntity
  8
1
 62
     1
100
AcDbLine
 10
27.82109100754628
 20
-0.7930001251064911
 30
0.0
 11
26.33930420909915
 21
0.9497877477182779
 31
0.0
  0
LINE
  5
633
330
18
100
AcDbEntity
  8
1
 62
     1
100
AcDbLine
 10
26.33930420909915
 20
0.9497877477182779
 30
0.0
 11
25.0427146866206
 21
2.420466469597828
 31
0.0
  0
LINE
  5
634
330
18
100
AcDbEntity
  8
1
 62
     1
100
AcDbLine
 10
25.0427146866206
 20
2.420466469597828
 30
0.0
 11
23.74612586307023
 21
3.751319658049295
 31
0.0
  0
LINE
  5
635
330
18
100
AcDbEntity
  8
1
 62
     1
100
AcDbLine
 10
33.80775126811257
 20
-6.349999999999998
 30
0.0
 11
35.60061458162534
 21
-6.349999999999998
 31
0.0
  0
LINE
  5
636
330
18
100
AcDbEntity
  8
1
 62
     1
100
AcDbLine
 10
46.87173934903991
 20
-6.349999999918688
 30
0.0
 11
47.11190553846627
 21
-6.34367619938215
 31
0.0
  0
LINE
  5
637
330
18
100
AcDbEntity
  8
1
 62
     1
100
AcDbLine
 10
47.11190553846627
 20
-6.34367619938215
 30
0.0
 11
47.35207168614014
 21
-6.324723205369441
 31
0.0
  0
LINE
  5
638
330
18
100
AcDbEntity
  8
1
 62
     1
100
AcDbLine
 10
47.35207168614014
 20
-6.324723205369441
 30
0.0
 11
47.59224772239415
 21
-6.293171545928293
 31
0.0
  0
LINE
  5
639
330
18
100
AcDbEntity
  8
1
 62
     1
100
AcDbLine
 10
47.59224772239415
 20
-6.293171545928293
 30
0.0
 11
47.83240752894024
 21
-6.249093041433908
 31
0.0
  0
LINE
  5
63A
330
18
100
AcDbEntity
  8
1
 62
     1
100
AcDbLine
 10
47.83240752894024
 20
-6.249093041433908
 30
0.0
 11
48.07258866866682
 21
-6.192564224379289
 31
0.0
  0
LINE
  5
63B
330
18
100
AcDbEntity
  8
1
 62
     1
100
AcDbLine
 10
48.07258866866682
 20
-6.192564224379289
 30
0.0
 11
48.31274617298891
 21
-6.123710752425533
 31
0.0
  0
LINE
  5
63C
330
18
100
AcDbEntity
  8
1
 62
     1
100
AcDbLine
 10
48.31274617298891
 20
-6.123710752425533
 30
0.0
 11
48.55292743307335
 21
-6.042655965887253
 31
0.0
  0
LINE
  5
63D
330
18
100
AcDbEntity
  8
1
 62
     1
100
AcDbLine
 10
48.55292743307335
 20
-6.042655965887253
 30
0.0
 11
48.79308736129217
 21
-5.949574391542161
 31
0.0
  0
LINE
  5
63E
330
18
100
AcDbEntity
  8
1
 62
     1
100
AcDbLine
 10
45.07887565087235
 20
-6.349999999999996
 30
0.0
 11
46.87173934903994
 21
-6.349999999999996
 31
0.0
  0
LINE
  5
63F
330
18
100
AcDbEntity
  8
1
 62
     1
100
AcDbLine
 10
52.50730180119269
 20
-6.349999999918408
 30
0.0
 11
52.74746802322601
 21
-6.343676178134549
 31
0.0
  0
LINE
  5
640
330
18
100
AcDbEntity
  8
1
 62
     1
100
AcDbLine
 10
52.74746802322601
 20
-6.343676178134549
 30
0.0
 11
52.98763452738648
 21
-6.324723156732763
 31
0.0
  0
LINE
  5
641
330
18
100
AcDbEntity
  8
1
 62
     1
100
AcDbLine
 10
52.98763452738648
 20
-6.324723156732763
 30
0.0
 11
53.22781064802277
 21
-6.293171419662725
 31
0.0
  0
LINE
  5
642
330
18
100
AcDbEntity
  8
1
 62
     1
100
AcDbLine
 10
53.22781064802277
 20
-6.293171419662725
 30
0.0
 11
53.46797057015447
 21
-6.249092821311574
 31
0.0
  0
LINE
  5
643
330
18
100
AcDbEntity
  8
1
 62
     1
100
AcDbLine
 10
53.46797057015447
 20
-6.249092821311574
 30
0.0
 11
53.70815207857199
 21
-6.192563923367466
 31
0.0
  0
LINE
  5
644
330
18
100
AcDbEntity
  8
1
 62
     1
100
AcDbLine
 10
53.70815207857199
 20
-6.192563923367466
 30
0.0
 11
53.94830970100553
 21
-6.123710304937841
 31
0.0
  0
LINE
  5
645
330
18
100
AcDbEntity
  8
1
 62
     1
100
AcDbLine
 10
53.94830970100553
 20
-6.123710304937841
 30
0.0
 11
54.18849134473012
 21
-6.04265540949102
 31
0.0
  0
LINE
  5
646
330
18
100
AcDbEntity
  8
1
 62
     1
100
AcDbLine
 10
54.18849134473012
 20
-6.04265540949102
 30
0.0
 11
54.42864922458936
 21
-5.949574325165832
 31
0.0
  0
LINE
  5
647
330
18
100
AcDbEntity
  8
1
 62
     1
100
AcDbLine
 10
50.71443782825395
 20
-6.349999999999996
 30
0.0
 11
52.5073018011927
 21
-6.349999999999996
 31
0.0
  0
LINE
  5
648
330
18
100
AcDbEntity
  8
1
 62
     1
100
AcDbLine
 10
41.23617693317222
 20
-6.349999999918981
 30
0.0
 11
41.47634325680987
 21
-6.343676203423537
 31
0.0
  0
LINE
  5
649
330
18
100
AcDbEntity
  8
1
 62
     1
100
AcDbLine
 10
41.47634325680987
 20
-6.343676203423537
 30
0.0
 11
41.7165092760043
 21
-6.324723202264467
 31
0.0
  0
LINE
  5
64A
330
18
100
AcDbEntity
  8
1
 62
     1
100
AcDbLine
 10
41.7165092760043
 20
-6.324723202264467
 30
0.0
 11
41.95668553871737
 21
-6.293171568933753
 31
0.0
  0
LINE
  5
64B
330
18
100
AcDbEntity
  8
1
 62
     1
100
AcDbLine
 10
41.95668553871737
 20
-6.293171568933753
 30
0.0
 11
42.19684534565739
 21
-6.249093061042418
 31
0.0
  0
LINE
  5
64C
330
18
100
AcDbEntity
  8
1
 62
     1
100
AcDbLine
 10
42.19684534565739
 20
-6.249093061042418
 30
0.0
 11
42.43702644532171
 21
-6.19256423644299
 31
0.0
  0
LINE
  5
64D
330
18
100
AcDbEntity
  8
1
 62
     1
100
AcDbLine
 10
42.43702644532171
 20
-6.19256423644299
 30
0.0
 11
42.6771840541616
 21
-6.123710781110846
 31
0.0
  0
LINE
  5
64E
330
18
100
AcDbEntity
  8
1
 62
     1
100
AcDbLine
 10
42.6771840541616
 20
-6.123710781110846
 30
0.0
 11
42.91736510338705
 21
-6.042655940387121
 31
0.0
  0
LINE
  5
64F
330
18
100
AcDbEntity
  8
1
 62
     1
100
AcDbLine
 10
42.91736510338705
 20
-6.042655940387121
 30
0.0
 11
43.15752515461747
 21
-5.949574391737242
 31
0.0
  0
LINE
  5
650
330
18
100
AcDbEntity
  8
1
 62
     1
100
AcDbLine
 10
39.44331346456383
 20
-6.349999999999996
 30
0.0
 11
41.23617693317221
 21
-6.349999999999996
 31
0.0
  0
LINE
  5
651
330
18
100
AcDbEntity
  8
1
 62
     1
100
AcDbLine
 10
29.96505231314383
 20
-6.349999999913756
 30
0.0
 11
30.20521928314596
 21
-6.343676172393826
 31
0.0
  0
LINE
  5
652
330
18
100
AcDbEntity
  8
1
 62
     1
100
AcDbLine
 10
30.20521928314596
 20
-6.343676172393826
 30
0.0
 11
30.44538450735239
 21
-6.324723176145707
 31
0.0
  0
LINE
  5
653
330
18
100
AcDbEntity
  8
1
 62
     1
100
AcDbLine
 10
30.44538450735239
 20
-6.324723176145707
 30
0.0
 11
30.68556164949299
 21
-6.293171575867067
 31
0.0
  0
LINE
  5
654
330
18
100
AcDbEntity
  8
1
 62
     1
100
AcDbLine
 10
30.68556164949299
 20
-6.293171575867067
 30
0.0
 11
30.92572076728646
 21
-6.249093015138636
 31
0.0
  0
LINE
  5
655
330
18
100
AcDbEntity
  8
1
 62
     1
100
AcDbLine
 10
30.92572076728646
 20
-6.249093015138636
 30
0.0
 11
31.1659021758783
 21
-6.192564272658006
 31
0.0
  0
LINE
  5
656
330
18
100
AcDbEntity
  8
1
 62
     1
100
AcDbLine
 10
31.1659021758783
 20
-6.192564272658006
 30
0.0
 11
31.40605986404161
 21
-6.123710799965377
 31
0.0
  0
LINE
  5
657
330
18
100
AcDbEntity
  8
1
 62
     1
100
AcDbLine
 10
31.40605986404161
 20
-6.123710799965377
 30
0.0
 11
31.64624033168201
 21
-6.042656029029944
 31
0.0
  0
LINE
  5
658
330
18
100
AcDbEntity
  8
1
 62
     1
100
AcDbLine
 10
31.64624033168201
 20
-6.042656029029944
 30
0.0
 11
31.88640073979542
 21
-5.949574407797726
 31
0.0
  0
LINE
  5
659
330
18
100
AcDbEntity
  8
1
 62
     1
100
AcDbLine
 10
28.17218906211516
 20
-6.349999999999997
 30
0.0
 11
29.96505231314382
 21
-6.349999999999997
 31
0.0
  0
LINE
  5
65A
330
18
100
AcDbEntity
  8
1
 62
     1
100
AcDbLine
 10
24.32949013664997
 20
-6.34999999999115
 30
0.0
 11
24.56965719497046
 21
-6.343676160286603
 31
0.0
  0
LINE
  5
65B
330
18
100
AcDbEntity
  8
1
 62
     1
100
AcDbLine
 10
24.56965719497046
 20
-6.343676160286603
 30
0.0
 11
24.80982220737296
 21
-6.324723164583818
 31
0.0
  0
LINE
  5
65C
330
18
100
AcDbEntity
  8
1
 62
     1
100
AcDbLine
 10
24.80982220737296
 20
-6.324723164583818
 30
0.0
 11
25.04999956483017
 21
-6.293171570648649
 31
0.0
  0
LINE
  5
65D
330
18
100
AcDbEntity
  8
1
 62
     1
100
AcDbLine
 10
25.04999956483017
 20
-6.293171570648649
 30
0.0
 11
25.29015844384289
 21
-6.249092984500808
 31
0.0
  0
LINE
  5
65E
330
18
100
AcDbEntity
  8
1
 62
     1
100
AcDbLine
 10
25.29015844384289
 20
-6.249092984500808
 30
0.0
 11
25.53034011495743
 21
-6.192564293109408
 31
0.0
  0
LINE
  5
65F
330
18
100
AcDbEntity
  8
1
 62
     1
100
AcDbLine
 10
25.53034011495743
 20
-6.192564293109408
 30
0.0
 11
25.7704977570516
 21
-6.12371080009277
 31
0.0
  0
LINE
  5
660
330
18
100
AcDbEntity
  8
1
 62
     1
100
AcDbLine
 10
25.7704977570516
 20
-6.12371080009277
 30
0.0
 11
26.01067811041556
 21
-6.042656050305771
 31
0.0
  0
LINE
  5
661
330
18
100
AcDbEntity
  8
1
 62
     1
100
AcDbLine
 10
26.01067811041556
 20
-6.042656050305771
 30
0.0
 11
26.25083860054032
 21
-5.949574407252256
 31
0.0
  0
LINE
  5
662
330
18
100
AcDbEntity
  8
1
 62
     1
100
AcDbLine
 10
22.53662684831565
 20
-6.349999999999997
 30
0.0
 11
24.32949013664997
 21
-6.349999999999997
 31
0.0
  0
LINE
  5
663
330
18
100
AcDbEntity
  8
1
 62
     1
100
AcDbLine
 10
18.69392900499258
 20
-6.349999999914102
 30
0.0
 11
18.93409523854979
 21
-6.343676138604064
 31
0.0
  0
LINE
  5
664
330
18
100
AcDbEntity
  8
1
 62
     1
100
AcDbLine
 10
18.93409523854979
 20
-6.343676138604064
 30
0.0
 11
19.17426001968209
 21
-6.324723117933762
 31
0.0
  0
LINE
  5
665
330
18
100
AcDbEntity
  8
1
 62
     1
100
AcDbLine
 10
19.17426001968209
 20
-6.324723117933762
 30
0.0
 11
19.41443740272015
 21
-6.293171539985387
 31
0.0
  0
LINE
  5
666
330
18
100
AcDbEntity
  8
1
 62
     1
100
AcDbLine
 10
19.41443740272015
 20
-6.293171539985387
 30
0.0
 11
19.6545962604939
 21
-6.249092961650226
 31
0.0
  0
LINE
  5
667
330
18
100
AcDbEntity
  8
1
 62
     1
100
AcDbLine
 10
19.6545962604939
 20
-6.249092961650226
 30
0.0
 11
19.89477808594201
 21
-6.192564325414406
 31
0.0
  0
LINE
  5
668
330
18
100
AcDbEntity
  8
1
 62
     1
100
AcDbLine
 10
19.89477808594201
 20
-6.192564325414406
 30
0.0
 11
20.13493546022231
 21
-6.123710829515683
 31
0.0
  0
LINE
  5
669
330
18
100
AcDbEntity
  8
1
 62
     1
100
AcDbLine
 10
20.13493546022231
 20
-6.123710829515683
 30
0.0
 11
20.37511584191673
 21
-6.042656098476304
 31
0.0
  0
LINE
  5
66A
330
18
100
AcDbEntity
  8
1
 62
     1
100
AcDbLine
 10
20.37511584191673
 20
-6.042656098476304
 30
0.0
 11
20.61527621508835
 21
-5.94957452488001
 31
0.0
  0
LINE
  5
66B
330
18
100
AcDbEntity
  8
1
 62
     1
100
AcDbLine
 10
18.19999999999999
 20
-6.349999999999997
 30
0.0
 11
18.69392900499257
 21
-6.349999999999997
 31
0.0
  0
LINE
  5
66C
330
18
100
AcDbEntity
  8
1
 62
     1
100
AcDbLine
 10
30.98997016623371
 20
-0.0000000000077162
 30
0.0
 11
33.10332058420633
 21
-2.430055600051946
 31
0.0
  0
LINE
  5
66D
330
18
100
AcDbEntity
  8
1
 62
     1
100
AcDbLine
 10
33.10332058420633
 20
-2.430055600051946
 30
0.0
 11
34.1599822221376
 21
-3.527878636911835
 31
0.0
  0
LINE
  5
66E
330
18
100
AcDbEntity
  8
1
 62
     1
100
AcDbLine
 10
34.1599822221376
 20
-3.527878636911835
 30
0.0
 11
34.68832527673182
 21
-4.028412373494223
 31
0.0
  0
LINE
  5
66F
330
18
100
AcDbEntity
  8
1
 62
     1
100
AcDbLine
 10
34.68832527673182
 20
-4.028412373494223
 30
0.0
 11
35.21666680147685
 21
-4.490148453045828
 31
0.0
  0
LINE
  5
670
330
18
100
AcDbEntity
  8
1
 62
     1
100
AcDbLine
 10
35.21666680147685
 20
-4.490148453045828
 30
0.0
 11
35.74499732536817
 21
-4.908632590610145
 31
0.0
  0
LINE
  5
671
330
18
100
AcDbEntity
  8
1
 62
     1
100
AcDbLine
 10
35.74499732536817
 20
-4.908632590610145
 30
0.0
 11
36.27332649641066
 21
-5.279842500951902
 31
0.0
  0
LINE
  5
672
330
18
100
AcDbEntity
  8
1
 62
     1
100
AcDbLine
 10
36.27332649641066
 20
-5.279842500951902
 30
0.0
 11
36.53750705446792
 21
-5.446594719223622
 31
0.0
  0
LINE
  5
673
330
18
100
AcDbEntity
  8
1
 62
     1
100
AcDbLine
 10
36.53750705446792
 20
-5.446594719223622
 30
0.0
 11
36.80166730486337
 21
-5.600211941178194
 31
0.0
  0
LINE
  5
674
330
18
100
AcDbEntity
  8
1
 62
     1
100
AcDbLine
 10
36.80166730486337
 20
-5.600211941178194
 30
0.0
 11
37.06583337576217
 21
-5.740343416675914
 31
0.0
  0
LINE
  5
675
330
18
100
AcDbEntity
  8
1
 62
     1
100
AcDbLine
 10
37.06583337576217
 20
-5.740343416675914
 30
0.0
 11
37.33001008291973
 21
-5.866648710502419
 31
0.0
  0
LINE
  5
676
330
18
100
AcDbEntity
  8
1
 62
     1
100
AcDbLine
 10
37.33001008291973
 20
-5.866648710502419
 30
0.0
 11
37.59416720940623
 21
-5.978812877934525
 31
0.0
  0
LINE
  5
677
330
18
100
AcDbEntity
  8
1
 62
     1
100
AcDbLine
 10
37.59416720940623
 20
-5.978812877934525
 30
0.0
 11
37.85834506917745
 21
-6.076582470508138
 31
0.0
  0
LINE
  5
678
330
18
100
AcDbEntity
  8
1
 62
     1
100
AcDbLine
 10
37.85834506917745
 20
-6.076582470508138
 30
0.0
 11
38.12250960847955
 21
-6.159705984623344
 31
0.0
  0
LINE
  5
679
330
18
100
AcDbEntity
  8
1
 62
     1
100
AcDbLine
 10
38.12250960847955
 20
-6.159705984623344
 30
0.0
 11
38.38667071726108
 21
-6.227991972149436
 31
0.0
  0
LINE
  5
67A
330
18
100
AcDbEntity
  8
1
 62
     1
100
AcDbLine
 10
38.38667071726108
 20
-6.227991972149436
 30
0.0
 11
38.65085058591414
 21
-6.281276698477838
 31
0.0
  0
LINE
  5
67B
330
18
100
AcDbEntity
  8
1
 62
     1
100
AcDbLine
 10
38.65085058591414
 20
-6.281276698477838
 30
0.0
 11
38.91500844464887
 21
-6.319425096781401
 31
0.0
  0
LINE
  5
67C
330
18
100
AcDbEntity
  8
1
 62
     1
100
AcDbLine
 10
38.91500844464887
 20
-6.319425096781401
 30
0.0
 11
39.17918017551217
 21
-6.342353103478317
 31
0.0
  0
LINE
  5
67D
330
18
100
AcDbEntity
  8
1
 62
     1
100
AcDbLine
 10
39.17918017551217
 20
-6.342353103478317
 30
0.0
 11
39.44331346456382
 21
-6.349999999919705
 31
0.0
  0
ARC
  5
67E
330
18
100
AcDbEntity
  8
1
 62
     1
100
AcDbCircle
 10
56.69734808786268
 20
0.452197773305163
 30
0.0
 40
5.947110412741314
100
AcDbArc
 50
109.5016855268668
 51
112.4253288397482
  0
LINE
  5
67F
330
18
100
AcDbEntity
  8
1
 62
     1
100
AcDbLine
 10
30.98997016623389
 20
-0.0000000000045889
 30
0.0
 11
29.17900911224964
 21
1.270629798559906
 31
0.0
  0
LINE
  5
680
330
18
100
AcDbEntity
  8
1
 62
     1
100
AcDbLine
 10
29.17900911224964
 20
1.270629798559906
 30
0.0
 11
28.27352858525751
 21
1.860957113787044
 31
0.0
  0
LINE
  5
681
330
18
100
AcDbEntity
  8
1
 62
     1
100
AcDbLine
 10
28.27352858525751
 20
1.860957113787044
 30
0.0
 11
27.36804805826539
 21
2.398725839719817
 31
0.0
  0
LINE
  5
682
330
18
100
AcDbEntity
  8
1
 62
     1
100
AcDbLine
 10
27.36804805826539
 20
2.398725839719817
 30
0.0
 11
26.46256753127327
 21
2.868745391597431
 31
0.0
  0
LINE
  5
683
330
18
100
AcDbEntity
  8
1
 62
     1
100
AcDbLine
 10
26.46256753127327
 20
2.868745391597431
 30
0.0
 11
26.00982726777721
 21
3.0741158183088
 31
0.0
  0
LINE
  5
684
330
18
100
AcDbEntity
  8
1
 62
     1
100
AcDbLine
 10
26.00982726777721
 20
3.0741158183088
 30
0.0
 11
25.55708700428115
 21
3.257742571117988
 31
0.0
  0
LINE
  5
685
330
18
100
AcDbEntity
  8
1
 62
     1
100
AcDbLine
 10
25.55708700428115
 20
3.257742571117988
 30
0.0
 11
25.10434674078509
 21
3.418326467395662
 31
0.0
  0
LINE
  5
686
330
18
100
AcDbEntity
  8
1
 62
     1
100
AcDbLine
 10
25.10434674078509
 20
3.418326467395662
 30
0.0
 11
24.65160647728903
 21
3.554730614275218
 31
0.0
  0
LINE
  5
687
330
18
100
AcDbEntity
  8
1
 62
     1
100
AcDbLine
 10
24.65160647728903
 20
3.554730614275218
 30
0.0
 11
24.19886621379297
 21
3.665990378280247
 31
0.0
  0
LINE
  5
688
330
18
100
AcDbEntity
  8
1
 62
     1
100
AcDbLine
 10
24.19886621379297
 20
3.665990378280247
 30
0.0
 11
23.74612595029691
 21
3.751319749669352
 31
0.0
  0
LINE
  5
689
330
18
100
AcDbEntity
  8
1
 62
     1
100
AcDbLine
 10
23.74612586307023
 20
3.751319658049295
 30
0.0
 11
23.11460798883204
 21
4.325373514418835
 31
0.0
  0
LINE
  5
68A
330
18
100
AcDbEntity
  8
1
 62
     1
100
AcDbLine
 10
23.11460798883204
 20
4.325373514418835
 30
0.0
 11
22.48306775013142
 21
4.839950472163693
 31
0.0
  0
LINE
  5
68B
330
18
100
AcDbEntity
  8
1
 62
     1
100
AcDbLine
 10
22.48306775013142
 20
4.839950472163693
 30
0.0
 11
22.1673088614394
 21
5.072671193152845
 31
0.0
  0
LINE
  5
68C
330
18
100
AcDbEntity
  8
1
 62
     1
100
AcDbLine
 10
22.1673088614394
 20
5.072671193152845
 30
0.0
 11
21.85155144923528
 21
5.287933452385892
 31
0.0
  0
LINE
  5
68D
330
18
100
AcDbEntity
  8
1
 62
     1
100
AcDbLine
 10
21.85155144923528
 20
5.287933452385892
 30
0.0
 11
21.53578071041627
 21
5.485004691416704
 31
0.0
  0
LINE
  5
68E
330
18
100
AcDbEntity
  8
1
 62
     1
100
AcDbLine
 10
21.53578071041627
 20
5.485004691416704
 30
0.0
 11
21.2200110848731
 21
5.663195561759585
 31
0.0
  0
LINE
  5
68F
330
18
100
AcDbEntity
  8
1
 62
     1
100
AcDbLine
 10
21.2200110848731
 20
5.663195561759585
 30
0.0
 11
20.90425346347618
 21
5.821887929597242
 31
0.0
  0
LINE
  5
690
330
18
100
AcDbEntity
  8
1
 62
     1
100
AcDbLine
 10
20.90425346347618
 20
5.821887929597242
 30
0.0
 11
20.58849504103846
 21
5.960545731029352
 31
0.0
  0
LINE
  5
691
330
18
100
AcDbEntity
  8
1
 62
     1
100
AcDbLine
 10
20.58849504103846
 20
5.960545731029352
 30
0.0
 11
20.27272064720907
 21
6.078693819994942
 31
0.0
  0
LINE
  5
692
330
18
100
AcDbEntity
  8
1
 62
     1
100
AcDbLine
 10
20.27272064720907
 20
6.078693819994942
 30
0.0
 11
19.95695482117193
 21
6.175915710954805
 31
0.0
  0
LINE
  5
693
330
18
100
AcDbEntity
  8
1
 62
     1
100
AcDbLine
 10
19.95695482117193
 20
6.175915710954805
 30
0.0
 11
19.64119858268295
 21
6.251879789639588
 31
0.0
  0
LINE
  5
694
330
18
100
AcDbEntity
  8
1
 62
     1
100
AcDbLine
 10
19.64119858268295
 20
6.251879789639588
 30
0.0
 11
19.32543758387933
 21
6.306329185741716
 31
0.0
  0
LINE
  5
695
330
18
100
AcDbEntity
  8
1
 62
     1
100
AcDbLine
 10
19.32543758387933
 20
6.306329185741716
 30
0.0
 11
19.0096627297251
 21
6.339074183667758
 31
0.0
  0
LINE
  5
696
330
18
100
AcDbEntity
  8
1
 62
     1
100
AcDbLine
 10
19.0096627297251
 20
6.339074183667758
 30
0.0
 11
18.69392900496657
 21
6.349999999999999
 31
0.0
  0
LINE
  5
697
330
18
100
AcDbEntity
  8
1
 62
     1
100
AcDbLine
 10
37.52196435656798
 20
-5.949574969039568
 30
0.0
 11
37.28178093113819
 21
-6.042663385060616
 31
0.0
  0
LINE
  5
698
330
18
100
AcDbEntity
  8
1
 62
     1
100
AcDbLine
 10
37.28178093113819
 20
-6.042663385060616
 30
0.0
 11
37.04162054762482
 21
-6.123711518443114
 31
0.0
  0
LINE
  5
699
330
18
100
AcDbEntity
  8
1
 62
     1
100
AcDbLine
 10
37.04162054762482
 20
-6.123711518443114
 30
0.0
 11
36.80143515921267
 21
-6.192572185105263
 31
0.0
  0
LINE
  5
69A
330
18
100
AcDbEntity
  8
1
 62
     1
100
AcDbLine
 10
36.80143515921267
 20
-6.192572185105263
 30
0.0
 11
36.56127344145895
 21
-6.249094189809225
 31
0.0
  0
LINE
  5
69B
330
18
100
AcDbEntity
  8
1
 62
     1
100
AcDbLine
 10
36.56127344145895
 20
-6.249094189809225
 30
0.0
 11
36.32109338547684
 21
-6.29317746867912
 31
0.0
  0
LINE
  5
69C
330
18
100
AcDbEntity
  8
1
 62
     1
100
AcDbLine
 10
36.32109338547684
 20
-6.29317746867912
 30
0.0
 11
36.08092531431614
 21
-6.324724109221901
 31
0.0
  0
LINE
  5
69D
330
18
100
AcDbEntity
  8
1
 62
     1
100
AcDbLine
 10
36.08092531431614
 20
-6.324724109221901
 30
0.0
 11
35.84075617240923
 21
-6.34367898525207
 31
0.0
  0
LINE
  5
69E
330
18
100
AcDbEntity
  8
1
 62
     1
100
AcDbLine
 10
35.84075617240923
 20
-6.34367898525207
 30
0.0
 11
35.60061458162532
 21
-6.349999999919227
 31
0.0
  0
LINE
  5
69F
330
18
100
AcDbEntity
  8
1
 62
     1
100
AcDbLine
 10
25.3544079560705
 20
-0.0000000000000503
 30
0.0
 11
27.46774130922863
 21
-2.430036613015853
 31
0.0
  0
LINE
  5
6A0
330
18
100
AcDbEntity
  8
1
 62
     1
100
AcDbLine
 10
27.46774130922863
 20
-2.430036613015853
 30
0.0
 11
28.52440836812176
 21
-3.527867738382245
 31
0.0
  0
LINE
  5
6A1
330
18
100
AcDbEntity
  8
1
 62
     1
100
AcDbLine
 10
28.52440836812176
 20
-3.527867738382245
 30
0.0
 11
29.05274220909707
 21
-4.028393672267474
 31
0.0
  0
LINE
  5
6A2
330
18
100
AcDbEntity
  8
1
 62
     1
100
AcDbLine
 10
29.05274220909707
 20
-4.028393672267474
 30
0.0
 11
29.58108499363313
 21
-4.490131562301983
 31
0.0
  0
LINE
  5
6A3
330
18
100
AcDbEntity
  8
1
 62
     1
100
AcDbLine
 10
29.58108499363313
 20
-4.490131562301983
 30
0.0
 11
30.10942714548413
 21
-4.908625951535839
 31
0.0
  0
LINE
  5
6A4
330
18
100
AcDbEntity
  8
1
 62
     1
100
AcDbLine
 10
30.10942714548413
 20
-4.908625951535839
 30
0.0
 11
30.6377591207612
 21
-5.279839689662588
 31
0.0
  0
LINE
  5
6A5
330
18
100
AcDbEntity
  8
1
 62
     1
100
AcDbLine
 10
30.6377591207612
 20
-5.279839689662588
 30
0.0
 11
30.90192823108888
 21
-5.446583853543392
 31
0.0
  0
LINE
  5
6A6
330
18
100
AcDbEntity
  8
1
 62
     1
100
AcDbLine
 10
30.90192823108888
 20
-5.446583853543392
 30
0.0
 11
31.16608721114046
 21
-5.600202722330328
 31
0.0
  0
LINE
  5
6A7
330
18
100
AcDbEntity
  8
1
 62
     1
100
AcDbLine
 10
31.16608721114046
 20
-5.600202722330328
 30
0.0
 11
31.43026796270916
 21
-5.740341387331071
 31
0.0
  0
LINE
  5
6A8
330
18
100
AcDbEntity
  8
1
 62
     1
100
AcDbLine
 10
31.43026796270916
 20
-5.740341387331071
 30
0.0
 11
31.69442750420329
 21
-5.866639211730308
 31
0.0
  0
LINE
  5
6A9
330
18
100
AcDbEntity
  8
1
 62
     1
100
AcDbLine
 10
31.69442750420329
 20
-5.866639211730308
 30
0.0
 11
31.95859504218517
 21
-5.97880980666979
 31
0.0
  0
LINE
  5
6AA
330
18
100
AcDbEntity
  8
1
 62
     1
100
AcDbLine
 10
31.95859504218517
 20
-5.97880980666979
 30
0.0
 11
32.22277056909672
 21
-6.076577309280999
 31
0.0
  0
LINE
  5
6AB
330
18
100
AcDbEntity
  8
1
 62
     1
100
AcDbLine
 10
32.22277056909672
 20
-6.076577309280999
 30
0.0
 11
32.4869278692356
 21
-6.15970086978934
 31
0.0
  0
LINE
  5
6AC
330
18
100
AcDbEntity
  8
1
 62
     1
100
AcDbLine
 10
32.4869278692356
 20
-6.15970086978934
 30
0.0
 11
32.75110657676654
 21
-6.227991688841043
 31
0.0
  0
LINE
  5
6AD
330
18
100
AcDbEntity
  8
1
 62
     1
100
AcDbLine
 10
32.75110657676654
 20
-6.227991688841043
 30
0.0
 11
33.01527005686759
 21
-6.2812728443377
 31
0.0
  0
LINE
  5
6AE
330
18
100
AcDbEntity
  8
1
 62
     1
100
AcDbLine
 10
33.01527005686759
 20
-6.2812728443377
 30
0.0
 11
33.27943209027276
 21
-6.319424433417741
 31
0.0
  0
LINE
  5
6AF
330
18
100
AcDbEntity
  8
1
 62
     1
100
AcDbLine
 10
33.27943209027276
 20
-6.319424433417741
 30
0.0
 11
33.54361154688514
 21
-6.342351909458193
 31
0.0
  0
LINE
  5
6B0
330
18
100
AcDbEntity
  8
1
 62
     1
100
AcDbLine
 10
33.54361154688514
 20
-6.342351909458193
 30
0.0
 11
33.80775126811255
 21
-6.349999999561772
 31
0.0
  0
LINE
  5
6B1
330
18
100
AcDbEntity
  8
1
 62
     1
100
AcDbLine
 10
48.79308732286079
 20
5.949574373276147
 30
0.0
 11
49.03326958426902
 21
6.042662557345249
 31
0.0
  0
LINE
  5
6B2
330
18
100
AcDbEntity
  8
1
 62
     1
100
AcDbLine
 10
49.03326958426902
 20
6.042662557345249
 30
0.0
 11
49.27342933196509
 21
6.123710392198533
 31
0.0
  0
LINE
  5
6B3
330
18
100
AcDbEntity
  8
1
 62
     1
100
AcDbLine
 10
49.27342933196509
 20
6.123710392198533
 30
0.0
 11
49.51361308745859
 21
6.19257110019543
 31
0.0
  0
LINE
  5
6B4
330
18
100
AcDbEntity
  8
1
 62
     1
100
AcDbLine
 10
49.51361308745859
 20
6.19257110019543
 30
0.0
 11
49.75377410755422
 21
6.24909306911104
 31
0.0
  0
LINE
  5
6B5
330
18
100
AcDbEntity
  8
1
 62
     1
100
AcDbLine
 10
49.75377410755422
 20
6.24909306911104
 30
0.0
 11
49.99395291542398
 21
6.293176486582631
 31
0.0
  0
LINE
  5
6B6
330
18
100
AcDbEntity
  8
1
 62
     1
100
AcDbLine
 10
49.99395291542398
 20
6.293176486582631
 30
0.0
 11
50.23412027900965
 21
6.324723347510815
 31
0.0
  0
LINE
  5
6B7
330
18
100
AcDbEntity
  8
1
 62
     1
100
AcDbLine
 10
50.23412027900965
 20
6.324723347510815
 30
0.0
 11
50.47428856500494
 21
6.34367853028212
 31
0.0
  0
LINE
  5
6B8
330
18
100
AcDbEntity
  8
1
 62
     1
100
AcDbLine
 10
50.47428856500494
 20
6.34367853028212
 30
0.0
 11
50.71443782825958
 21
6.350000000000001
 31
0.0
  0
LINE
  5
6B9
330
18
100
AcDbEntity
  8
1
 62
     1
100
AcDbLine
 10
25.3544079560705
 20
-0.0000000000000373
 30
0.0
 11
23.56580596705272
 21
1.255527600310465
 31
0.0
  0
LINE
  5
6BA
330
18
100
AcDbEntity
  8
1
 62
     1
100
AcDbLine
 10
23.56580596705272
 20
1.255527600310465
 30
0.0
 11
22.67150497254383
 21
1.839930201868913
 31
0.0
  0
LINE
  5
6BB
330
18
100
AcDbEntity
  8
1
 62
     1
100
AcDbLine
 10
22.67150497254383
 20
1.839930201868913
 30
0.0
 11
21.77720397803494
 21
2.373640207566744
 31
0.0
  0
LINE
  5
6BC
330
18
100
AcDbEntity
  8
1
 62
     1
100
AcDbLine
 10
21.77720397803494
 20
2.373640207566744
 30
0.0
 11
20.88290298352605
 21
2.84195070236024
 31
0.0
  0
LINE
  5
6BD
330
18
100
AcDbEntity
  8
1
 62
     1
100
AcDbLine
 10
20.88290298352605
 20
2.84195070236024
 30
0.0
 11
20.43575248627161
 21
3.047469647518091
 31
0.0
  0
LINE
  5
6BE
330
18
100
AcDbEntity
  8
1
 62
     1
100
AcDbLine
 10
20.43575248627161
 20
3.047469647518091
 30
0.0
 11
19.98860198901716
 21
3.231961903178874
 31
0.0
  0
LINE
  5
6BF
330
18
100
AcDbEntity
  8
1
 62
     1
100
AcDbLine
 10
19.98860198901716
 20
3.231961903178874
 30
0.0
 11
19.54145149176271
 21
3.394153398823388
 31
0.0
  0
LINE
  5
6C0
330
18
100
AcDbEntity
  8
1
 62
     1
100
AcDbLine
 10
19.54145149176271
 20
3.394153398823388
 30
0.0
 11
19.09430099450826
 21
3.532924744677088
 31
0.0
  0
LINE
  5
6C1
330
18
100
AcDbEntity
  8
1
 62
     1
100
AcDbLine
 10
19.09430099450826
 20
3.532924744677088
 30
0.0
 11
18.64715049725381
 21
3.647321324381283
 31
0.0
  0
LINE
  5
6C2
330
18
100
AcDbEntity
  8
1
 62
     1
100
AcDbLine
 10
18.64715049725381
 20
3.647321324381283
 30
0.0
 11
18.19999999999937
 21
3.736548796296856
 31
0.0
  0
LINE
  5
6C3
330
18
100
AcDbEntity
  8
1
 62
     1
100
AcDbLine
 10
51.92393656512555
 20
3.751319992477718
 30
0.0
 11
52.62094703797793
 21
3.058169182043497
 31
0.0
  0
LINE
  5
6C4
330
18
100
AcDbEntity
  8
1
 62
     1
100
AcDbLine
 10
52.62094703797793
 20
3.058169182043497
 30
0.0
 11
54.712
 21
0.7218465428643321
 31
0.0
  0
ARC
  5
6C5
330
18
100
AcDbEntity
  8
1
 62
     1
100
AcDbCircle
 10
183.0558918835991
 20
109.4103083598124
 30
0.0
 40
169.5493311436698
100
AcDbArc
 50
220.1882091437911
 51
220.8019943765983
  0
LINE
  5
6C6
330
18
100
AcDbEntity
  8
1
 62
     1
100
AcDbLine
 10
19.71884577605205
 20
-0.0000000000000176
 30
0.0
 11
21.83219605053997
 21
-2.430055410705152
 31
0.0
  0
LINE
  5
6C7
330
18
100
AcDbEntity
  8
1
 62
     1
100
AcDbLine
 10
21.83219605053997
 20
-2.430055410705152
 30
0.0
 11
22.88885757468116
 21
-3.527878379843442
 31
0.0
  0
LINE
  5
6C8
330
18
100
AcDbEntity
  8
1
 62
     1
100
AcDbLine
 10
22.88885757468116
 20
-3.527878379843442
 30
0.0
 11
23.41720057773805
 21
-4.028412088612884
 31
0.0
  0
LINE
  5
6C9
330
18
100
AcDbEntity
  8
1
 62
     1
100
AcDbLine
 10
23.41720057773805
 20
-4.028412088612884
 30
0.0
 11
23.94554220290763
 21
-4.490148243983943
 31
0.0
  0
LINE
  5
6CA
330
18
100
AcDbEntity
  8
1
 62
     1
100
AcDbLine
 10
23.94554220290763
 20
-4.490148243983943
 30
0.0
 11
24.47387292014851
 21
-4.908632582479582
 31
0.0
  0
LINE
  5
6CB
330
18
100
AcDbEntity
  8
1
 62
     1
100
AcDbLine
 10
24.47387292014851
 20
-4.908632582479582
 30
0.0
 11
25.00220187577977
 21
-5.279842384184704
 31
0.0
  0
LINE
  5
6CC
330
18
100
AcDbEntity
  8
1
 62
     1
100
AcDbLine
 10
25.00220187577977
 20
-5.279842384184704
 30
0.0
 11
25.26638249893043
 21
-5.446594602434932
 31
0.0
  0
LINE
  5
6CD
330
18
100
AcDbEntity
  8
1
 62
     1
100
AcDbLine
 10
25.26638249893043
 20
-5.446594602434932
 30
0.0
 11
25.53054260335026
 21
-5.600211777679268
 31
0.0
  0
LINE
  5
6CE
330
18
100
AcDbEntity
  8
1
 62
     1
100
AcDbLine
 10
25.53054260335026
 20
-5.600211777679268
 30
0.0
 11
25.79470893679702
 21
-5.740343378338875
 31
0.0
  0
LINE
  5
6CF
330
18
100
AcDbEntity
  8
1
 62
     1
100
AcDbLine
 10
25.79470893679702
 20
-5.740343378338875
 30
0.0
 11
26.05888541192085
 21
-5.866648582963252
 31
0.0
  0
LINE
  5
6D0
330
18
100
AcDbEntity
  8
1
 62
     1
100
AcDbLine
 10
26.05888541192085
 20
-5.866648582963252
 30
0.0
 11
26.32304257700105
 21
-5.978812783290652
 31
0.0
  0
LINE
  5
6D1
330
18
100
AcDbEntity
  8
1
 62
     1
100
AcDbLine
 10
26.32304257700105
 20
-5.978812783290652
 30
0.0
 11
26.58722055382716
 21
-6.076582435115249
 31
0.0
  0
LINE
  5
6D2
330
18
100
AcDbEntity
  8
1
 62
     1
100
AcDbLine
 10
26.58722055382716
 20
-6.076582435115249
 30
0.0
 11
26.85138491179635
 21
-6.159705895551517
 31
0.0
  0
LINE
  5
6D3
330
18
100
AcDbEntity
  8
1
 62
     1
100
AcDbLine
 10
26.85138491179635
 20
-6.159705895551517
 30
0.0
 11
27.11554615624839
 21
-6.227991953737148
 31
0.0
  0
LINE
  5
6D4
330
18
100
AcDbEntity
  8
1
 62
     1
100
AcDbLine
 10
27.11554615624839
 20
-6.227991953737148
 30
0.0
 11
27.37972599683598
 21
-6.281276644217408
 31
0.0
  0
LINE
  5
6D5
330
18
100
AcDbEntity
  8
1
 62
     1
100
AcDbLine
 10
27.37972599683598
 20
-6.281276644217408
 30
0.0
 11
27.64388376660659
 21
-6.319425071398097
 31
0.0
  0
LINE
  5
6D6
330
18
100
AcDbEntity
  8
1
 62
     1
100
AcDbLine
 10
27.64388376660659
 20
-6.319425071398097
 30
0.0
 11
27.9080557875026
 21
-6.342353102299129
 31
0.0
  0
LINE
  5
6D7
330
18
100
AcDbEntity
  8
1
 62
     1
100
AcDbLine
 10
27.9080557875026
 20
-6.342353102299129
 30
0.0
 11
28.17218906211515
 21
-6.349999999983253
 31
0.0
  0
LINE
  5
6D8
330
18
100
AcDbEntity
  8
1
 62
     1
100
AcDbLine
 10
53.53221891213378
 20
-0.0000000000000065
 30
0.0
 11
51.72125788597599
 21
1.270629697512651
 31
0.0
  0
LINE
  5
6D9
330
18
100
AcDbEntity
  8
1
 62
     1
100
AcDbLine
 10
51.72125788597599
 20
1.270629697512651
 30
0.0
 11
50.81577737289709
 21
1.860957421786767
 31
0.0
  0
LINE
  5
6DA
330
18
100
AcDbEntity
  8
1
 62
     1
100
AcDbLine
 10
50.81577737289709
 20
1.860957421786767
 30
0.0
 11
49.91029685981819
 21
2.39872524908711
 31
0.0
  0
LINE
  5
6DB
330
18
100
AcDbEntity
  8
1
 62
     1
100
AcDbLine
 10
49.91029685981819
 20
2.39872524908711
 30
0.0
 11
49.00481634673928
 21
2.868746037799816
 31
0.0
  0
LINE
  5
6DC
330
18
100
AcDbEntity
  8
1
 62
     1
100
AcDbLine
 10
49.00481634673928
 20
2.868746037799816
 30
0.0
 11
48.55207609019981
 21
3.074116241003048
 31
0.0
  0
LINE
  5
6DD
330
18
100
AcDbEntity
  8
1
 62
     1
100
AcDbLine
 10
48.55207609019981
 20
3.074116241003048
 30
0.0
 11
48.09933583366038
 21
3.257742201725435
 31
0.0
  0
LINE
  5
6DE
330
18
100
AcDbEntity
  8
1
 62
     1
100
AcDbLine
 10
48.09933583366038
 20
3.257742201725435
 30
0.0
 11
47.64659557712094
 21
3.41832563038697
 31
0.0
  0
LINE
  5
6DF
330
18
100
AcDbEntity
  8
1
 62
     1
100
AcDbLine
 10
47.64659557712094
 20
3.41832563038697
 30
0.0
 11
47.19385532058148
 21
3.554730561515668
 31
0.0
  0
LINE
  5
6E0
330
18
100
AcDbEntity
  8
1
 62
     1
100
AcDbLine
 10
47.19385532058148
 20
3.554730561515668
 30
0.0
 11
46.74111506404203
 21
3.665991229899241
 31
0.0
  0
LINE
  5
6E1
330
18
100
AcDbEntity
  8
1
 62
     1
100
AcDbLine
 10
46.74111506404203
 20
3.665991229899241
 30
0.0
 11
46.28837480750259
 21
3.751320205537085
 31
0.0
  0
LINE
  5
6E2
330
18
100
AcDbEntity
  8
1
 62
     1
100
AcDbLine
 10
43.15752516223743
 20
5.949574355669091
 30
0.0
 11
43.39770776125502
 21
6.042662728844698
 31
0.0
  0
LINE
  5
6E3
330
18
100
AcDbEntity
  8
1
 62
     1
100
AcDbLine
 10
43.39770776125502
 20
6.042662728844698
 30
0.0
 11
43.63786737244065
 21
6.123710430710694
 31
0.0
  0
LINE
  5
6E4
330
18
100
AcDbEntity
  8
1
 62
     1
100
AcDbLine
 10
43.63786737244065
 20
6.123710430710694
 30
0.0
 11
43.87805095656112
 21
6.192571153749002
 31
0.0
  0
LINE
  5
6E5
330
18
100
AcDbEntity
  8
1
 62
     1
100
AcDbLine
 10
43.87805095656112
 20
6.192571153749002
 30
0.0
 11
44.11821224528822
 21
6.249093114713414
 31
0.0
  0
LINE
  5
6E6
330
18
100
AcDbEntity
  8
1
 62
     1
100
AcDbLine
 10
44.11821224528822
 20
6.249093114713414
 30
0.0
 11
44.35839034293972
 21
6.293176448980394
 31
0.0
  0
LINE
  5
6E7
330
18
100
AcDbEntity
  8
1
 62
     1
100
AcDbLine
 10
44.35839034293972
 20
6.293176448980394
 30
0.0
 11
44.59855840087074
 21
6.324723379576175
 31
0.0
  0
LINE
  5
6E8
330
18
100
AcDbEntity
  8
1
 62
     1
100
AcDbLine
 10
44.59855840087074
 20
6.324723379576175
 30
0.0
 11
44.83872579960723
 21
6.343678492729283
 31
0.0
  0
LINE
  5
6E9
330
18
100
AcDbEntity
  8
1
 62
     1
100
AcDbLine
 10
44.83872579960723
 20
6.343678492729283
 30
0.0
 11
45.07887565087709
 21
6.35
 31
0.0
  0
ARC
  5
6EA
330
18
100
AcDbEntity
  8
1
 62
     1
100
AcDbCircle
 10
-44.11554916922216
 20
-88.78992288359882
 30
0.0
 40
109.3547332156169
100
AcDbArc
 50
54.28623001062313
 51
55.26019050729695
  0
LINE
  5
6EB
330
18
100
AcDbEntity
  8
1
 62
     1
100
AcDbLine
 10
46.28837442211065
 20
3.751319800730863
 30
0.0
 11
47.34132426839256
 21
2.683674971704297
 31
0.0
  0
LINE
  5
6EC
330
18
100
AcDbEntity
  8
1
 62
     1
100
AcDbLine
 10
47.34132426839256
 20
2.683674971704297
 30
0.0
 11
49.44724685785481
 21
0.2857755909429182
 31
0.0
  0
LINE
  5
6ED
330
18
100
AcDbEntity
  8
1
 62
     1
100
AcDbLine
 10
49.44724685785481
 20
0.2857755909429182
 30
0.0
 11
51.55313185847543
 21
-2.155288159760525
 31
0.0
  0
LINE
  5
6EE
330
18
100
AcDbEntity
  8
1
 62
     1
100
AcDbLine
 10
51.55313185847543
 20
-2.155288159760525
 30
0.0
 11
52.34285548816553
 21
-3.005500610083914
 31
0.0
  0
LINE
  5
6EF
330
18
100
AcDbEntity
  8
1
 62
     1
100
AcDbLine
 10
52.34285548816553
 20
-3.005500610083914
 30
0.0
 11
53.13258514718358
 21
-3.791114765646359
 31
0.0
  0
LINE
  5
6F0
330
18
100
AcDbEntity
  8
1
 62
     1
100
AcDbLine
 10
53.13258514718358
 20
-3.791114765646359
 30
0.0
 11
53.92231003127796
 21
-4.495229025075218
 31
0.0
  0
LINE
  5
6F1
330
18
100
AcDbEntity
  8
1
 62
     1
100
AcDbLine
 10
53.92231003127796
 20
-4.495229025075218
 30
0.0
 11
54.31716954355068
 21
-4.811916936189725
 31
0.0
  0
LINE
  5
6F2
330
18
100
AcDbEntity
  8
1
 62
     1
100
AcDbLine
 10
54.31716954355068
 20
-4.811916936189725
 30
0.0
 11
54.712
 21
-5.102690750112194
 31
0.0
  0
LINE
  5
6F3
330
18
100
AcDbEntity
  8
1
 62
     1
100
AcDbLine
 10
47.89665674052941
 20
-0.0000000000048799
 30
0.0
 11
49.6005015149961
 21
-1.977038234488251
 31
0.0
  0
LINE
  5
6F4
330
18
100
AcDbEntity
  8
1
 62
     1
100
AcDbLine
 10
49.6005015149961
 20
-1.977038234488251
 30
0.0
 11
50.45242320923723
 21
-2.903598419574682
 31
0.0
  0
LINE
  5
6F5
330
18
100
AcDbEntity
  8
1
 62
     1
100
AcDbLine
 10
50.45242320923723
 20
-2.903598419574682
 30
0.0
 11
51.3043445423901
 21
-3.757545546555707
 31
0.0
  0
LINE
  5
6F6
330
18
100
AcDbEntity
  8
1
 62
     1
100
AcDbLine
 10
51.3043445423901
 20
-3.757545546555707
 30
0.0
 11
52.15626537303525
 21
-4.517524643839248
 31
0.0
  0
LINE
  5
6F7
330
18
100
AcDbEntity
  8
1
 62
     1
100
AcDbLine
 10
52.15626537303525
 20
-4.517524643839248
 30
0.0
 11
52.5822257132621
 21
-4.856231758403639
 31
0.0
  0
LINE
  5
6F8
330
18
100
AcDbEntity
  8
1
 62
     1
100
AcDbLine
 10
52.5822257132621
 20
-4.856231758403639
 30
0.0
 11
53.00818594385649
 21
-5.164530420601718
 31
0.0
  0
LINE
  5
6F9
330
18
100
AcDbEntity
  8
1
 62
     1
100
AcDbLine
 10
53.00818594385649
 20
-5.164530420601718
 30
0.0
 11
53.43414603505359
 21
-5.440490181563142
 31
0.0
  0
LINE
  5
6FA
330
18
100
AcDbEntity
  8
1
 62
     1
100
AcDbLine
 10
53.43414603505359
 20
-5.440490181563142
 30
0.0
 11
53.86010605719909
 21
-5.682383044819696
 31
0.0
  0
LINE
  5
6FB
330
18
100
AcDbEntity
  8
1
 62
     1
100
AcDbLine
 10
53.86010605719909
 20
-5.682383044819696
 30
0.0
 11
54.28606613913249
 21
-5.888694328063234
 31
0.0
  0
LINE
  5
6FC
330
18
100
AcDbEntity
  8
1
 62
     1
100
AcDbLine
 10
54.28606613913249
 20
-5.888694328063234
 30
0.0
 11
54.49903047032497
 21
-5.978088201188781
 31
0.0
  0
LINE
  5
6FD
330
18
100
AcDbEntity
  8
1
 62
     1
100
AcDbLine
 10
54.49903047032497
 20
-5.978088201188781
 30
0.0
 11
54.712
 21
-6.058123710211438
 31
0.0
  0
LINE
  5
6FE
330
18
100
AcDbEntity
  8
1
 62
     1
100
AcDbLine
 10
47.89665674052976
 20
-0.0000000000027834
 30
0.0
 11
46.08569570588366
 21
1.270629769300183
 31
0.0
  0
LINE
  5
6FF
330
18
100
AcDbEntity
  8
1
 62
     1
100
AcDbLine
 10
46.08569570588366
 20
1.270629769300183
 30
0.0
 11
45.1802151885606
 21
1.860957295662186
 31
0.0
  0
LINE
  5
700
330
18
100
AcDbEntity
  8
1
 62
     1
100
AcDbLine
 10
45.1802151885606
 20
1.860957295662186
 30
0.0
 11
44.27473467123755
 21
2.398725371057911
 31
0.0
  0
LINE
  5
701
330
18
100
AcDbEntity
  8
1
 62
     1
100
AcDbLine
 10
44.27473467123755
 20
2.398725371057911
 30
0.0
 11
43.3692541539145
 21
2.868745915111029
 31
0.0
  0
LINE
  5
702
330
18
100
AcDbEntity
  8
1
 62
     1
100
AcDbLine
 10
43.3692541539145
 20
2.868745915111029
 30
0.0
 11
42.91651389525297
 21
3.074116052649233
 31
0.0
  0
LINE
  5
703
330
18
100
AcDbEntity
  8
1
 62
     1
100
AcDbLine
 10
42.91651389525297
 20
3.074116052649233
 30
0.0
 11
42.46377363659143
 21
3.257742184418118
 31
0.0
  0
LINE
  5
704
330
18
100
AcDbEntity
  8
1
 62
     1
100
AcDbLine
 10
42.46377363659143
 20
3.257742184418118
 30
0.0
 11
42.01103337792991
 21
3.418325823958502
 31
0.0
  0
LINE
  5
705
330
18
100
AcDbEntity
  8
1
 62
     1
100
AcDbLine
 10
42.01103337792991
 20
3.418325823958502
 30
0.0
 11
41.55829311926838
 21
3.554730748206494
 31
0.0
  0
LINE
  5
706
330
18
100
AcDbEntity
  8
1
 62
     1
100
AcDbLine
 10
41.55829311926838
 20
3.554730748206494
 30
0.0
 11
41.10555286060685
 21
3.665991055499647
 31
0.0
  0
LINE
  5
707
330
18
100
AcDbEntity
  8
1
 62
     1
100
AcDbLine
 10
41.10555286060685
 20
3.665991055499647
 30
0.0
 11
40.65281260194532
 21
3.751319987204551
 31
0.0
  0
LINE
  5
708
330
18
100
AcDbEntity
  8
1
 62
     1
100
AcDbLine
 10
37.52196309213898
 20
5.949574294776649
 30
0.0
 11
37.76214641748244
 21
6.042663149955484
 31
0.0
  0
LINE
  5
709
330
18
100
AcDbEntity
  8
1
 62
     1
100
AcDbLine
 10
37.76214641748244
 20
6.042663149955484
 30
0.0
 11
38.00230584315
 21
6.123710527315176
 31
0.0
  0
LINE
  5
70A
330
18
100
AcDbEntity
  8
1
 62
     1
100
AcDbLine
 10
38.00230584315
 20
6.123710527315176
 30
0.0
 11
38.24248862433585
 21
6.192571233957201
 31
0.0
  0
LINE
  5
70B
330
18
100
AcDbEntity
  8
1
 62
     1
100
AcDbLine
 10
38.24248862433585
 20
6.192571233957201
 30
0.0
 11
38.4826509317618
 21
6.249093236744375
 31
0.0
  0
LINE
  5
70C
330
18
100
AcDbEntity
  8
1
 62
     1
100
AcDbLine
 10
38.4826509317618
 20
6.249093236744375
 30
0.0
 11
38.72282667709657
 21
6.293176265268095
 31
0.0
  0
LINE
  5
70D
330
18
100
AcDbEntity
  8
1
 62
     1
100
AcDbLine
 10
38.72282667709657
 20
6.293176265268095
 30
0.0
 11
38.96299697385869
 21
6.324723471355332
 31
0.0
  0
LINE
  5
70E
330
18
100
AcDbEntity
  8
1
 62
     1
100
AcDbLine
 10
38.96299697385869
 20
6.324723471355332
 30
0.0
 11
39.20316192958908
 21
6.343678372482814
 31
0.0
  0
LINE
  5
70F
330
18
100
AcDbEntity
  8
1
 62
     1
100
AcDbLine
 10
39.20316192958908
 20
6.343678372482814
 30
0.0
 11
39.44331346456769
 21
6.35
 31
0.0
  0
LINE
  5
710
330
18
100
AcDbEntity
  8
1
 62
     1
100
AcDbLine
 10
40.65281228421294
 20
3.751319653468573
 30
0.0
 11
41.39371536956259
 21
3.012678509639894
 31
0.0
  0
LINE
  5
711
330
18
100
AcDbEntity
  8
1
 62
     1
100
AcDbLine
 10
41.39371536956259
 20
3.012678509639894
 30
0.0
 11
42.87554188481303
 21
1.37939183000265
 31
0.0
  0
LINE
  5
712
330
18
100
AcDbEntity
  8
1
 62
     1
100
AcDbLine
 10
42.87554188481303
 20
1.37939183000265
 30
0.0
 11
45.83913631628401
 21
-2.068009016980997
 31
0.0
  0
LINE
  5
713
330
18
100
AcDbEntity
  8
1
 62
     1
100
AcDbLine
 10
45.83913631628401
 20
-2.068009016980997
 30
0.0
 11
46.58005897662018
 21
-2.872423484387593
 31
0.0
  0
LINE
  5
714
330
18
100
AcDbEntity
  8
1
 62
     1
100
AcDbLine
 10
46.58005897662018
 20
-2.872423484387593
 30
0.0
 11
47.32096458428508
 21
-3.622460642648325
 31
0.0
  0
LINE
  5
715
330
18
100
AcDbEntity
  8
1
 62
     1
100
AcDbLine
 10
47.32096458428508
 20
-3.622460642648325
 30
0.0
 11
48.06186814206868
 21
-4.303943837881808
 31
0.0
  0
LINE
  5
716
330
18
100
AcDbEntity
  8
1
 62
     1
100
AcDbLine
 10
48.06186814206868
 20
-4.303943837881808
 30
0.0
 11
48.43232507524335
 21
-4.614894124473294
 31
0.0
  0
LINE
  5
717
330
18
100
AcDbEntity
  8
1
 62
     1
100
AcDbLine
 10
48.43232507524335
 20
-4.614894124473294
 30
0.0
 11
48.80278652428156
 21
-4.90398916042122
 31
0.0
  0
LINE
  5
718
330
18
100
AcDbEntity
  8
1
 62
     1
100
AcDbLine
 10
48.80278652428156
 20
-4.90398916042122
 30
0.0
 11
49.17324634186035
 21
-5.169852018609983
 31
0.0
  0
LINE
  5
719
330
18
100
AcDbEntity
  8
1
 62
     1
100
AcDbLine
 10
49.17324634186035
 20
-5.169852018609983
 30
0.0
 11
49.54370152069394
 21
-5.411222228862192
 31
0.0
  0
LINE
  5
71A
330
18
100
AcDbEntity
  8
1
 62
     1
100
AcDbLine
 10
49.54370152069394
 20
-5.411222228862192
 30
0.0
 11
49.91415302989724
 21
-5.626959521257617
 31
0.0
  0
LINE
  5
71B
330
18
100
AcDbEntity
  8
1
 62
     1
100
AcDbLine
 10
49.91415302989724
 20
-5.626959521257617
 30
0.0
 11
50.28460382050125
 21
-5.816043440525515
 31
0.0
  0
LINE
  5
71C
330
18
100
AcDbEntity
  8
1
 62
     1
100
AcDbLine
 10
50.28460382050125
 20
-5.816043440525515
 30
0.0
 11
50.65505562544804
 21
-5.977579578953458
 31
0.0
  0
LINE
  5
71D
330
18
100
AcDbEntity
  8
1
 62
     1
100
AcDbLine
 10
50.65505562544804
 20
-5.977579578953458
 30
0.0
 11
51.02551001628295
 21
-6.110803089478256
 31
0.0
  0
LINE
  5
71E
330
18
100
AcDbEntity
  8
1
 62
     1
100
AcDbLine
 10
51.02551001628295
 20
-6.110803089478256
 30
0.0
 11
51.21074663788485
 21
-6.166595552815286
 31
0.0
  0
LINE
  5
71F
330
18
100
AcDbEntity
  8
1
 62
     1
100
AcDbLine
 10
51.21074663788485
 20
-6.166595552815286
 30
0.0
 11
51.39597011282344
 21
-6.215082017336556
 31
0.0
  0
LINE
  5
720
330
18
100
AcDbEntity
  8
1
 62
     1
100
AcDbLine
 10
51.39597011282344
 20
-6.215082017336556
 30
0.0
 11
51.5811971075865
 21
-6.2562047624475
 31
0.0
  0
LINE
  5
721
330
18
100
AcDbEntity
  8
1
 62
     1
100
AcDbLine
 10
51.5811971075865
 20
-6.2562047624475
 30
0.0
 11
51.76643182312427
 21
-6.289920435137154
 31
0.0
  0
LINE
  5
722
330
18
100
AcDbEntity
  8
1
 62
     1
100
AcDbLine
 10
51.76643182312427
 20
-6.289920435137154
 30
0.0
 11
51.95164865775277
 21
-6.316180882699049
 31
0.0
  0
LINE
  5
723
330
18
100
AcDbEntity
  8
1
 62
     1
100
AcDbLine
 10
51.95164865775277
 20
-6.316180882699049
 30
0.0
 11
52.13688712071228
 21
-6.334963249932903
 31
0.0
  0
LINE
  5
724
330
18
100
AcDbEntity
  8
1
 62
     1
100
AcDbLine
 10
52.13688712071228
 20
-6.334963249932903
 30
0.0
 11
52.32209909820703
 21
-6.346240017587181
 31
0.0
  0
LINE
  5
725
330
18
100
AcDbEntity
  8
1
 62
     1
100
AcDbLine
 10
52.32209909820703
 20
-6.346240017587181
 30
0.0
 11
52.50730180119269
 21
-6.349999999918408
 31
0.0
  0
LINE
  5
726
330
18
100
AcDbEntity
  8
1
 62
     1
100
AcDbLine
 10
36.62553236761805
 20
-0.0000000000026712
 30
0.0
 11
38.73888276690758
 21
-2.430055611717049
 31
0.0
  0
LINE
  5
727
330
18
100
AcDbEntity
  8
1
 62
     1
100
AcDbLine
 10
38.73888276690758
 20
-2.430055611717049
 30
0.0
 11
39.79554442008107
 21
-3.527878635341418
 31
0.0
  0
LINE
  5
728
330
18
100
AcDbEntity
  8
1
 62
     1
100
AcDbLine
 10
39.79554442008107
 20
-3.527878635341418
 30
0.0
 11
40.32388746926663
 21
-4.028412374620109
 31
0.0
  0
LINE
  5
729
330
18
100
AcDbEntity
  8
1
 62
     1
100
AcDbLine
 10
40.32388746926663
 20
-4.028412374620109
 30
0.0
 11
40.85222899553658
 21
-4.490148452926214
 31
0.0
  0
LINE
  5
72A
330
18
100
AcDbEntity
  8
1
 62
     1
100
AcDbLine
 10
40.85222899553658
 20
-4.490148452926214
 30
0.0
 11
41.38055952901708
 21
-4.908632584823526
 31
0.0
  0
LINE
  5
72B
330
18
100
AcDbEntity
  8
1
 62
     1
100
AcDbLine
 10
41.38055952901708
 20
-4.908632584823526
 30
0.0
 11
41.90888870222073
 21
-5.279842494212651
 31
0.0
  0
LINE
  5
72C
330
18
100
AcDbEntity
  8
1
 62
     1
100
AcDbLine
 10
41.90888870222073
 20
-5.279842494212651
 30
0.0
 11
42.17306923774775
 21
-5.446594722681583
 31
0.0
  0
LINE
  5
72D
330
18
100
AcDbEntity
  8
1
 62
     1
100
AcDbLine
 10
42.17306923774775
 20
-5.446594722681583
 30
0.0
 11
42.43722950345213
 21
-5.600211938029731
 31
0.0
  0
LINE
  5
72E
330
18
100
AcDbEntity
  8
1
 62
     1
100
AcDbLine
 10
42.43722950345213
 20
-5.600211938029731
 30
0.0
 11
42.70139555512364
 21
-5.740343420790241
 31
0.0
  0
LINE
  5
72F
330
18
100
AcDbEntity
  8
1
 62
     1
100
AcDbLine
 10
42.70139555512364
 20
-5.740343420790241
 30
0.0
 11
42.96557228397167
 21
-5.866648707335366
 31
0.0
  0
LINE
  5
730
330
18
100
AcDbEntity
  8
1
 62
     1
100
AcDbLine
 10
42.96557228397167
 20
-5.866648707335366
 30
0.0
 11
43.22972940138049
 21
-5.978812877389143
 31
0.0
  0
LINE
  5
731
330
18
100
AcDbEntity
  8
1
 62
     1
100
AcDbLine
 10
43.22972940138049
 20
-5.978812877389143
 30
0.0
 11
43.49390727347323
 21
-6.076582466793628
 31
0.0
  0
LINE
  5
732
330
18
100
AcDbEntity
  8
1
 62
     1
100
AcDbLine
 10
43.49390727347323
 20
-6.076582466793628
 30
0.0
 11
43.75807179925637
 21
-6.159705983705541
 31
0.0
  0
LINE
  5
733
330
18
100
AcDbEntity
  8
1
 62
     1
100
AcDbLine
 10
43.75807179925637
 20
-6.159705983705541
 30
0.0
 11
44.02223291370745
 21
-6.227991970733253
 31
0.0
  0
LINE
  5
734
330
18
100
AcDbEntity
  8
1
 62
     1
100
AcDbLine
 10
44.02223291370745
 20
-6.227991970733253
 30
0.0
 11
44.28641277305898
 21
-6.28127669842989
 31
0.0
  0
LINE
  5
735
330
18
100
AcDbEntity
  8
1
 62
     1
100
AcDbLine
 10
44.28641277305898
 20
-6.28127669842989
 30
0.0
 11
44.55057063055374
 21
-6.319425097362402
 31
0.0
  0
LINE
  5
736
330
18
100
AcDbEntity
  8
1
 62
     1
100
AcDbLine
 10
44.55057063055374
 20
-6.319425097362402
 30
0.0
 11
44.81474237289653
 21
-6.342353103037297
 31
0.0
  0
LINE
  5
737
330
18
100
AcDbEntity
  8
1
 62
     1
100
AcDbLine
 10
44.81474237289653
 20
-6.342353103037297
 30
0.0
 11
45.07887565087233
 21
-6.349999999919767
 31
0.0
  0
LINE
  5
738
330
18
100
AcDbEntity
  8
1
 62
     1
100
AcDbLine
 10
36.62553236761828
 20
-0.0000000000015073
 30
0.0
 11
34.81457131827632
 21
1.270629830876649
 31
0.0
  0
LINE
  5
739
330
18
100
AcDbEntity
  8
1
 62
     1
100
AcDbLine
 10
34.81457131827632
 20
1.270629830876649
 30
0.0
 11
33.90909079360537
 21
1.860957132106694
 31
0.0
  0
LINE
  5
73A
330
18
100
AcDbEntity
  8
1
 62
     1
100
AcDbLine
 10
33.90909079360537
 20
1.860957132106694
 30
0.0
 11
33.00361026893439
 21
2.398725693452222
 31
0.0
  0
LINE
  5
73B
330
18
100
AcDbEntity
  8
1
 62
     1
100
AcDbLine
 10
33.00361026893439
 20
2.398725693452222
 30
0.0
 11
32.09812974426341
 21
2.868745559175636
 31
0.0
  0
LINE
  5
73C
330
18
100
AcDbEntity
  8
1
 62
     1
100
AcDbLine
 10
32.09812974426341
 20
2.868745559175636
 30
0.0
 11
31.64538948192793
 21
3.074115828162216
 31
0.0
  0
LINE
  5
73D
330
18
100
AcDbEntity
  8
1
 62
     1
100
AcDbLine
 10
31.64538948192793
 20
3.074115828162216
 30
0.0
 11
31.19264921959244
 21
3.257742380509111
 31
0.0
  0
LINE
  5
73E
330
18
100
AcDbEntity
  8
1
 62
     1
100
AcDbLine
 10
31.19264921959244
 20
3.257742380509111
 30
0.0
 11
30.73990895725695
 21
3.418326282077798
 31
0.0
  0
LINE
  5
73F
330
18
100
AcDbEntity
  8
1
 62
     1
100
AcDbLine
 10
30.73990895725695
 20
3.418326282077798
 30
0.0
 11
30.28716869492146
 21
3.554730778672625
 31
0.0
  0
LINE
  5
740
330
18
100
AcDbEntity
  8
1
 62
     1
100
AcDbLine
 10
30.28716869492146
 20
3.554730778672625
 30
0.0
 11
29.83442843258597
 21
3.665990588317502
 31
0.0
  0
LINE
  5
741
330
18
100
AcDbEntity
  8
1
 62
     1
100
AcDbLine
 10
29.83442843258597
 20
3.665990588317502
 30
0.0
 11
29.38168817025048
 21
3.751319745190654
 31
0.0
  0
LINE
  5
742
330
18
100
AcDbEntity
  8
1
 62
     1
100
AcDbLine
 10
26.25083851264059
 20
5.949574371004942
 30
0.0
 11
26.49102060926532
 21
6.042662487755485
 31
0.0
  0
LINE
  5
743
330
18
100
AcDbEntity
  8
1
 62
     1
100
AcDbLine
 10
26.49102060926532
 20
6.042662487755485
 30
0.0
 11
26.73118040512164
 21
6.123710383486089
 31
0.0
  0
LINE
  5
744
330
18
100
AcDbEntity
  8
1
 62
     1
100
AcDbLine
 10
26.73118040512164
 20
6.123710383486089
 30
0.0
 11
26.97136428833302
 21
6.192571069198527
 31
0.0
  0
LINE
  5
745
330
18
100
AcDbEntity
  8
1
 62
     1
100
AcDbLine
 10
26.97136428833302
 20
6.192571069198527
 30
0.0
 11
27.21152516509324
 21
6.24909305493157
 31
0.0
  0
LINE
  5
746
330
18
100
AcDbEntity
  8
1
 62
     1
100
AcDbLine
 10
27.21152516509324
 20
6.24909305493157
 30
0.0
 11
27.4517043093205
 21
6.293176492400986
 31
0.0
  0
LINE
  5
747
330
18
100
AcDbEntity
  8
1
 62
     1
100
AcDbLine
 10
27.4517043093205
 20
6.293176492400986
 30
0.0
 11
27.69187136713818
 21
6.324723333902377
 31
0.0
  0
LINE
  5
748
330
18
100
AcDbEntity
  8
1
 62
     1
100
AcDbLine
 10
27.69187136713818
 20
6.324723333902377
 30
0.0
 11
27.93204000799214
 21
6.343678544665607
 31
0.0
  0
LINE
  5
749
330
18
100
AcDbEntity
  8
1
 62
     1
100
AcDbLine
 10
27.93204000799214
 20
6.343678544665607
 30
0.0
 11
28.17218906211562
 21
6.350000000000001
 31
0.0
  0
LINE
  5
74A
330
18
100
AcDbEntity
  8
1
 62
     1
100
AcDbLine
 10
29.38168797882969
 20
3.751319544126948
 30
0.0
 11
30.12259106480649
 21
3.01267842566664
 31
0.0
  0
LINE
  5
74B
330
18
100
AcDbEntity
  8
1
 62
     1
100
AcDbLine
 10
30.12259106480649
 20
3.01267842566664
 30
0.0
 11
31.60441729721965
 21
1.379391577027945
 31
0.0
  0
LINE
  5
74C
330
18
100
AcDbEntity
  8
1
 62
     1
100
AcDbLine
 10
31.60441729721965
 20
1.379391577027945
 30
0.0
 11
34.56801190821088
 21
-2.068008972994356
 31
0.0
  0
LINE
  5
74D
330
18
100
AcDbEntity
  8
1
 62
     1
100
AcDbLine
 10
34.56801190821088
 20
-2.068008972994356
 30
0.0
 11
35.30893479408912
 21
-2.872423240392806
 31
0.0
  0
LINE
  5
74E
330
18
100
AcDbEntity
  8
1
 62
     1
100
AcDbLine
 10
35.30893479408912
 20
-2.872423240392806
 30
0.0
 11
36.04984013891082
 21
-3.622460562517992
 31
0.0
  0
LINE
  5
74F
330
18
100
AcDbEntity
  8
1
 62
     1
100
AcDbLine
 10
36.04984013891082
 20
-3.622460562517992
 30
0.0
 11
36.79074354603863
 21
-4.303943840565506
 31
0.0
  0
LINE
  5
750
330
18
100
AcDbEntity
  8
1
 62
     1
100
AcDbLine
 10
36.79074354603863
 20
-4.303943840565506
 30
0.0
 11
37.16120038663266
 21
-4.6148941654472
 31
0.0
  0
LINE
  5
751
330
18
100
AcDbEntity
  8
1
 62
     1
100
AcDbLine
 10
37.16120038663266
 20
-4.6148941654472
 30
0.0
 11
37.53166232506327
 21
-4.903988921499456
 31
0.0
  0
LINE
  5
752
330
18
100
AcDbEntity
  8
1
 62
     1
100
AcDbLine
 10
37.53166232506327
 20
-4.903988921499456
 30
0.0
 11
37.90212175973635
 21
-5.169851975798741
 31
0.0
  0
LINE
  5
753
330
18
100
AcDbEntity
  8
1
 62
     1
100
AcDbLine
 10
37.90212175973635
 20
-5.169851975798741
 30
0.0
 11
38.27257680147387
 21
-5.411222237131191
 31
0.0
  0
LINE
  5
754
330
18
100
AcDbEntity
  8
1
 62
     1
100
AcDbLine
 10
38.27257680147387
 20
-5.411222237131191
 30
0.0
 11
38.64302862052092
 21
-5.626959408949671
 31
0.0
  0
LINE
  5
755
330
18
100
AcDbEntity
  8
1
 62
     1
100
AcDbLine
 10
38.64302862052092
 20
-5.626959408949671
 30
0.0
 11
39.01347910531361
 21
-5.81604344426554
 31
0.0
  0
LINE
  5
756
330
18
100
AcDbEntity
  8
1
 62
     1
100
AcDbLine
 10
39.01347910531361
 20
-5.81604344426554
 30
0.0
 11
39.38393125632346
 21
-5.977579464279596
 31
0.0
  0
LINE
  5
757
330
18
100
AcDbEntity
  8
1
 62
     1
100
AcDbLine
 10
39.38393125632346
 20
-5.977579464279596
 30
0.0
 11
39.75438563569485
 21
-6.110802995229105
 31
0.0
  0
LINE
  5
758
330
18
100
AcDbEntity
  8
1
 62
     1
100
AcDbLine
 10
39.75438563569485
 20
-6.110802995229105
 30
0.0
 11
39.93962197578329
 21
-6.166595517706849
 31
0.0
  0
LINE
  5
759
330
18
100
AcDbEntity
  8
1
 62
     1
100
AcDbLine
 10
39.93962197578329
 20
-6.166595517706849
 30
0.0
 11
40.12484530473152
 21
-6.215082018764726
 31
0.0
  0
LINE
  5
75A
330
18
100
AcDbEntity
  8
1
 62
     1
100
AcDbLine
 10
40.12484530473152
 20
-6.215082018764726
 30
0.0
 11
40.31007257574393
 21
-6.256204726226874
 31
0.0
  0
LINE
  5
75B
330
18
100
AcDbEntity
  8
1
 62
     1
100
AcDbLine
 10
40.31007257574393
 20
-6.256204726226874
 30
0.0
 11
40.49530723272181
 21
-6.289920408877197
 31
0.0
  0
LINE
  5
75C
330
18
100
AcDbEntity
  8
1
 62
     1
100
AcDbLine
 10
40.49530723272181
 20
-6.289920408877197
 30
0.0
 11
40.68052383247439
 21
-6.316180890322284
 31
0.0
  0
LINE
  5
75D
330
18
100
AcDbEntity
  8
1
 62
     1
100
AcDbLine
 10
40.68052383247439
 20
-6.316180890322284
 30
0.0
 11
40.86576273615788
 21
-6.334963229459646
 31
0.0
  0
LINE
  5
75E
330
18
100
AcDbEntity
  8
1
 62
     1
100
AcDbLine
 10
40.86576273615788
 20
-6.334963229459646
 30
0.0
 11
41.0509746081041
 21
-6.346240005526913
 31
0.0
  0
LINE
  5
75F
330
18
100
AcDbEntity
  8
1
 62
     1
100
AcDbLine
 10
41.0509746081041
 20
-6.346240005526913
 30
0.0
 11
41.23617693317221
 21
-6.34999999991898
 31
0.0
  0
LINE
  5
760
330
18
100
AcDbEntity
  8
1
 62
     1
100
AcDbLine
 10
35.01725013995626
 20
3.751319566280578
 30
0.0
 11
35.75815324641476
 21
3.012678452291634
 31
0.0
  0
LINE
  5
761
330
18
100
AcDbEntity
  8
1
 62
     1
100
AcDbLine
 10
35.75815324641476
 20
3.012678452291634
 30
0.0
 11
37.2399795924153
 21
1.379391670321713
 31
0.0
  0
LINE
  5
762
330
18
100
AcDbEntity
  8
1
 62
     1
100
AcDbLine
 10
37.2399795924153
 20
1.379391670321713
 30
0.0
 11
40.20357409549203
 21
-2.068009026992203
 31
0.0
  0
LINE
  5
763
330
18
100
AcDbEntity
  8
1
 62
     1
100
AcDbLine
 10
40.20357409549203
 20
-2.068009026992203
 30
0.0
 11
40.94449692278648
 21
-2.872423348179922
 31
0.0
  0
LINE
  5
764
330
18
100
AcDbEntity
  8
1
 62
     1
100
AcDbLine
 10
40.94449692278648
 20
-2.872423348179922
 30
0.0
 11
41.68540236361094
 21
-3.622460610554091
 31
0.0
  0
LINE
  5
765
330
18
100
AcDbEntity
  8
1
 62
     1
100
AcDbLine
 10
41.68540236361094
 20
-3.622460610554091
 30
0.0
 11
42.42630583877162
 21
-4.303943848911064
 31
0.0
  0
LINE
  5
766
330
18
100
AcDbEntity
  8
1
 62
     1
100
AcDbLine
 10
42.42630583877162
 20
-4.303943848911064
 30
0.0
 11
42.79676276453028
 21
-4.614894129429477
 31
0.0
  0
LINE
  5
767
330
18
100
AcDbEntity
  8
1
 62
     1
100
AcDbLine
 10
42.79676276453028
 20
-4.614894129429477
 30
0.0
 11
43.16722441997177
 21
-4.903989046067236
 31
0.0
  0
LINE
  5
768
330
18
100
AcDbEntity
  8
1
 62
     1
100
AcDbLine
 10
43.16722441997177
 20
-4.903989046067236
 30
0.0
 11
43.53768402863707
 21
-5.169852009150927
 31
0.0
  0
LINE
  5
769
330
18
100
AcDbEntity
  8
1
 62
     1
100
AcDbLine
 10
43.53768402863707
 20
-5.169852009150927
 30
0.0
 11
43.90813916276392
 21
-5.411222232666068
 31
0.0
  0
LINE
  5
76A
330
18
100
AcDbEntity
  8
1
 62
     1
100
AcDbLine
 10
43.90813916276392
 20
-5.411222232666068
 30
0.0
 11
44.27859085846372
 21
-5.626959452649711
 31
0.0
  0
LINE
  5
76B
330
18
100
AcDbEntity
  8
1
 62
     1
100
AcDbLine
 10
44.27859085846372
 20
-5.626959452649711
 30
0.0
 11
44.64904144213945
 21
-5.816043447810721
 31
0.0
  0
LINE
  5
76C
330
18
100
AcDbEntity
  8
1
 62
     1
100
AcDbLine
 10
44.64904144213945
 20
-5.816043447810721
 30
0.0
 11
45.0194934553703
 21
-5.977579514937174
 31
0.0
  0
LINE
  5
76D
330
18
100
AcDbEntity
  8
1
 62
     1
100
AcDbLine
 10
45.0194934553703
 20
-5.977579514937174
 30
0.0
 11
45.38994780095759
 21
-6.110803046166834
 31
0.0
  0
LINE
  5
76E
330
18
100
AcDbEntity
  8
1
 62
     1
100
AcDbLine
 10
45.38994780095759
 20
-6.110803046166834
 30
0.0
 11
45.57518429951284
 21
-6.166595535072029
 31
0.0
  0
LINE
  5
76F
330
18
100
AcDbEntity
  8
1
 62
     1
100
AcDbLine
 10
45.57518429951284
 20
-6.166595535072029
 30
0.0
 11
45.760407688353
 21
-6.215082019651046
 31
0.0
  0
LINE
  5
770
330
18
100
AcDbEntity
  8
1
 62
     1
100
AcDbLine
 10
45.760407688353
 20
-6.215082019651046
 30
0.0
 11
45.94563485114525
 21
-6.256204742714158
 31
0.0
  0
LINE
  5
771
330
18
100
AcDbEntity
  8
1
 62
     1
100
AcDbLine
 10
45.94563485114525
 20
-6.256204742714158
 30
0.0
 11
46.13086956987893
 21
-6.289920415816854
 31
0.0
  0
LINE
  5
772
330
18
100
AcDbEntity
  8
1
 62
     1
100
AcDbLine
 10
46.13086956987893
 20
-6.289920415816854
 30
0.0
 11
46.31608622565526
 21
-6.316180886835316
 31
0.0
  0
LINE
  5
773
330
18
100
AcDbEntity
  8
1
 62
     1
100
AcDbLine
 10
46.31608622565526
 20
-6.316180886835316
 30
0.0
 11
46.50132489956049
 21
-6.334963240388044
 31
0.0
  0
LINE
  5
774
330
18
100
AcDbEntity
  8
1
 62
     1
100
AcDbLine
 10
46.50132489956049
 20
-6.334963240388044
 30
0.0
 11
46.68653687179129
 21
-6.346240010531043
 31
0.0
  0
LINE
  5
775
330
18
100
AcDbEntity
  8
1
 62
     1
100
AcDbLine
 10
46.68653687179129
 20
-6.346240010531043
 30
0.0
 11
46.87173934903991
 21
-6.349999999918688
 31
0.0
  0
LINE
  5
776
330
18
100
AcDbEntity
  8
1
 62
     1
100
AcDbLine
 10
42.26109455895944
 20
-0.0000000000002383
 30
0.0
 11
44.3744449452311
 21
-2.430055619165156
 31
0.0
  0
LINE
  5
777
330
18
100
AcDbEntity
  8
1
 62
     1
100
AcDbLine
 10
44.3744449452311
 20
-2.430055619165156
 30
0.0
 11
45.43110661716975
 21
-3.527878627490385
 31
0.0
  0
LINE
  5
778
330
18
100
AcDbEntity
  8
1
 62
     1
100
AcDbLine
 10
45.43110661716975
 20
-3.527878627490385
 30
0.0
 11
45.95944965801704
 21
-4.028412371975256
 31
0.0
  0
LINE
  5
779
330
18
100
AcDbEntity
  8
1
 62
     1
100
AcDbLine
 10
45.95944965801704
 20
-4.028412371975256
 30
0.0
 11
46.4877911905502
 21
-4.490148446617626
 31
0.0
  0
LINE
  5
77A
330
18
100
AcDbEntity
  8
1
 62
     1
100
AcDbLine
 10
46.4877911905502
 20
-4.490148446617626
 30
0.0
 11
47.0161217321315
 21
-4.908632574244367
 31
0.0
  0
LINE
  5
77B
330
18
100
AcDbEntity
  8
1
 62
     1
100
AcDbLine
 10
47.0161217321315
 20
-4.908632574244367
 30
0.0
 11
47.54445090356397
 21
-5.279842485164175
 31
0.0
  0
LINE
  5
77C
330
18
100
AcDbEntity
  8
1
 62
     1
100
AcDbLine
 10
47.54445090356397
 20
-5.279842485164175
 30
0.0
 11
47.80863141400891
 21
-5.44659472513481
 31
0.0
  0
LINE
  5
77D
330
18
100
AcDbEntity
  8
1
 62
     1
100
AcDbLine
 10
47.80863141400891
 20
-5.44659472513481
 30
0.0
 11
48.0727916975305
 21
-5.600211933176414
 31
0.0
  0
LINE
  5
77E
330
18
100
AcDbEntity
  8
1
 62
     1
100
AcDbLine
 10
48.0727916975305
 20
-5.600211933176414
 30
0.0
 11
48.33695773384601
 21
-5.74034342177585
 31
0.0
  0
LINE
  5
77F
330
18
100
AcDbEntity
  8
1
 62
     1
100
AcDbLine
 10
48.33695773384601
 20
-5.74034342177585
 30
0.0
 11
48.60113448154602
 21
-5.866648702317535
 31
0.0
  0
LINE
  5
780
330
18
100
AcDbEntity
  8
1
 62
     1
100
AcDbLine
 10
48.60113448154602
 20
-5.866648702317535
 30
0.0
 11
48.86529159343924
 21
-5.978812874056602
 31
0.0
  0
LINE
  5
781
330
18
100
AcDbEntity
  8
1
 62
     1
100
AcDbLine
 10
48.86529159343924
 20
-5.978812874056602
 30
0.0
 11
49.12946946994724
 21
-6.076582462738382
 31
0.0
  0
LINE
  5
782
330
18
100
AcDbEntity
  8
1
 62
     1
100
AcDbLine
 10
49.12946946994724
 20
-6.076582462738382
 30
0.0
 11
49.39363398552537
 21
-6.159705981775292
 31
0.0
  0
LINE
  5
783
330
18
100
AcDbEntity
  8
1
 62
     1
100
AcDbLine
 10
49.39363398552537
 20
-6.159705981775292
 30
0.0
 11
49.65779510083209
 21
-6.227991969418394
 31
0.0
  0
LINE
  5
784
330
18
100
AcDbEntity
  8
1
 62
     1
100
AcDbLine
 10
49.65779510083209
 20
-6.227991969418394
 30
0.0
 11
49.92197496209613
 21
-6.281276697141246
 31
0.0
  0
LINE
  5
785
330
18
100
AcDbEntity
  8
1
 62
     1
100
AcDbLine
 10
49.92197496209613
 20
-6.281276697141246
 30
0.0
 11
50.18613281166873
 21
-6.319425097641063
 31
0.0
  0
LINE
  5
786
330
18
100
AcDbEntity
  8
1
 62
     1
100
AcDbLine
 10
50.18613281166873
 20
-6.319425097641063
 30
0.0
 11
50.45030457113827
 21
-6.342353102187886
 31
0.0
  0
LINE
  5
787
330
18
100
AcDbEntity
  8
1
 62
     1
100
AcDbLine
 10
50.45030457113827
 20
-6.342353102187886
 30
0.0
 11
50.71443782825396
 21
-6.349999999919842
 31
0.0
  0
LINE
  5
788
330
18
100
AcDbEntity
  8
1
 62
     1
100
AcDbLine
 10
42.26109455895973
 20
0.0000000000000004
 30
0.0
 11
40.45013351636815
 21
1.27062982140197
 31
0.0
  0
LINE
  5
789
330
18
100
AcDbEntity
  8
1
 62
     1
100
AcDbLine
 10
40.45013351636815
 20
1.27062982140197
 30
0.0
 11
39.54465299507235
 21
1.860957195197845
 31
0.0
  0
LINE
  5
78A
330
18
100
AcDbEntity
  8
1
 62
     1
100
AcDbLine
 10
39.54465299507235
 20
1.860957195197845
 30
0.0
 11
38.63917247377656
 21
2.398725527013881
 31
0.0
  0
LINE
  5
78B
330
18
100
AcDbEntity
  8
1
 62
     1
100
AcDbLine
 10
38.63917247377656
 20
2.398725527013881
 30
0.0
 11
37.73369195248078
 21
2.868745743522512
 31
0.0
  0
LINE
  5
78C
330
18
100
AcDbEntity
  8
1
 62
     1
100
AcDbLine
 10
37.73369195248078
 20
2.868745743522512
 30
0.0
 11
37.28095169183288
 21
3.074115909356677
 31
0.0
  0
LINE
  5
78D
330
18
100
AcDbEntity
  8
1
 62
     1
100
AcDbLine
 10
37.28095169183288
 20
3.074115909356677
 30
0.0
 11
36.82821143118498
 21
3.257742246349959
 31
0.0
  0
LINE
  5
78E
330
18
100
AcDbEntity
  8
1
 62
     1
100
AcDbLine
 10
36.82821143118498
 20
3.257742246349959
 30
0.0
 11
36.3754711705371
 21
3.418326052809097
 31
0.0
  0
LINE
  5
78F
330
18
100
AcDbEntity
  8
1
 62
     1
100
AcDbLine
 10
36.3754711705371
 20
3.418326052809097
 30
0.0
 11
35.92273090988921
 21
3.554730835462205
 31
0.0
  0
LINE
  5
790
330
18
100
AcDbEntity
  8
1
 62
     1
100
AcDbLine
 10
35.92273090988921
 20
3.554730835462205
 30
0.0
 11
35.46999064924131
 21
3.66599082631847
 31
0.0
  0
LINE
  5
791
330
18
100
AcDbEntity
  8
1
 62
     1
100
AcDbLine
 10
35.46999064924131
 20
3.66599082631847
 30
0.0
 11
35.01725038859341
 21
3.751319827442678
 31
0.0
  0
LINE
  5
792
330
18
100
AcDbEntity
  8
1
 62
     1
100
AcDbLine
 10
31.88640067453804
 20
5.949574380886372
 30
0.0
 11
32.12656554735597
 21
6.042655905242448
 31
0.0
  0
LINE
  5
793
330
18
100
AcDbEntity
  8
1
 62
     1
100
AcDbLine
 10
32.12656554735597
 20
6.042655905242448
 30
0.0
 11
32.36673964447618
 21
6.123710231306863
 31
0.0
  0
LINE
  5
794
330
18
100
AcDbEntity
  8
1
 62
     1
100
AcDbLine
 10
32.36673964447618
 20
6.123710231306863
 30
0.0
 11
32.60691368339598
 21
6.192566919677506
 31
0.0
  0
LINE
  5
795
330
18
100
AcDbEntity
  8
1
 62
     1
100
AcDbLine
 10
32.60691368339598
 20
6.192566919677506
 30
0.0
 11
32.84707852432483
 21
6.249092175523248
 31
0.0
  0
LINE
  5
796
330
18
100
AcDbEntity
  8
1
 62
     1
100
AcDbLine
 10
32.84707852432483
 20
6.249092175523248
 30
0.0
 11
33.08726106912607
 21
6.293174665394373
 31
0.0
  0
LINE
  5
797
330
18
100
AcDbEntity
  8
1
 62
     1
100
AcDbLine
 10
33.08726106912607
 20
6.293174665394373
 30
0.0
 11
33.32742171991831
 21
6.324722744952784
 31
0.0
  0
LINE
  5
798
330
18
100
AcDbEntity
  8
1
 62
     1
100
AcDbLine
 10
33.32742171991831
 20
6.324722744952784
 30
0.0
 11
33.56760622751641
 21
6.343678198273842
 31
0.0
  0
LINE
  5
799
330
18
100
AcDbEntity
  8
1
 62
     1
100
AcDbLine
 10
33.56760622751641
 20
6.343678198273842
 30
0.0
 11
33.80775126812923
 21
6.35
 31
0.0
  0
LINE
  5
79A
330
18
100
AcDbEntity
  8
SK1
100
AcDbLine
 10
-44.665
 20
6.35
 30
0.0
 11
-45.3
 21
5.715
 31
0.0
  0
LINE
  5
79B
330
18
100
AcDbEntity
  8
SK1
100
AcDbLine
 10
-45.3
 20
5.715
 30
0.0
 11
-45.3
 21
5.709318185322902
 31
0.0
  0
LINE
  5
79C
330
18
100
AcDbEntity
  8
SK1
100
AcDbLine
 10
-45.3
 20
5.709318185322902
 30
0.0
 11
-45.29999999999999
 21
5.202212411029845
 31
0.0
  0
LINE
  5
79D
330
18
100
AcDbEntity
  8
SK1
100
AcDbLine
 10
-45.29999999999999
 20
5.202212411029845
 30
0.0
 11
-45.3
 21
-5.715
 31
0.0
  0
LINE
  5
79E
330
18
100
AcDbEntity
  8
SK1
100
AcDbLine
 10
-44.665
 20
6.35
 30
0.0
 11
-0.0000000000000018
 21
6.35
 31
0.0
  0
LINE
  5
79F
330
18
100
AcDbEntity
  8
SK1
100
AcDbLine
 10
-44.665
 20
6.35
 30
0.0
 11
-44.665
 21
6.343686872581003
 31
0.0
  0
LINE
  5
7A0
330
18
100
AcDbEntity
  8
SK1
100
AcDbLine
 10
-44.665
 20
6.343686872581003
 30
0.0
 11
-44.66500000000001
 21
5.780236012255383
 31
0.0
  0
LINE
  5
7A1
330
18
100
AcDbEntity
  8
SK1
100
AcDbLine
 10
-44.66500000000001
 20
5.780236012255383
 30
0.0
 11
-44.665
 21
-6.35
 31
0.0
  0
LINE
  5
7A2
330
18
100
AcDbEntity
  8
SK1
100
AcDbLine
 10
-45.3
 20
-5.715
 30
0.0
 11
-44.665
 21
-6.35
 31
0.0
  0
LINE
  5
7A3
330
18
100
AcDbEntity
  8
SK1
100
AcDbLine
 10
-44.665
 20
-6.349999999999996
 30
0.0
 11
0.000000000000008
 21
-6.349999999999996
 31
0.0
  0
DIMENSION
  5
7A4
330
18
100
AcDbEntity
  8
2
100
AcDbDimension
  2
*D0
 10
71.30000000000003
 20
-6.349999999999947
 30
0.0
 11
68.90225000000005
 21
-16.24924999999995
 31
0.0
 70
    32
  1
%%c<>
 71
     5
 42
12.7
  3
STANDARD
100
AcDbAlignedDimension
 13
56.3
 23
6.35
 33
0.0
 14
56.3
 24
-6.35
 34
0.0
 50
90.0000000000002
100
AcDbRotatedDimension
  0
DIMENSION
  5
7B2
330
18
100
AcDbEntity
  8
2
100
AcDbDimension
  2
*D1
 10
56.3
 20
75.0
 30
0.0
 11
28.15
 21
77.39775
 31
0.0
 70
    32
  1
<>
 71
     5
 42
56.3
  3
STANDARD
100
AcDbAlignedDimension
 13
0.0
 23
0.0
 33
0.0
 14
56.3
 24
0.0
 34
0.0
100
AcDbRotatedDimension
  0
DIMENSION
  5
7BF
330
18
100
AcDbEntity
  8
2
100
AcDbDimension
  2
*D2
 10
56.3
 20
60.0
 30
0.0
 11
37.25
 21
62.39775
 31
0.0
 70
    32
  1
<>
 71
     5
 42
38.1
  3
STANDARD
100
AcDbAlignedDimension
 13
18.2
 23
6.35
 33
0.0
 14
56.3
 24
6.35
 34
0.0
100
AcDbRotatedDimension
  0
DIMENSION
  5
7CC
330
18
100
AcDbEntity
  8
SK2
100
AcDbDimension
  2
*D3
 10
-60.29999999996759
 20
-6.350000000076551
 30
0.0
 11
-62.69774999991707
 21
-16.24925000008879
 31
0.0
 70
    32
  1
%%c<>
 71
     5
 42
12.7
  3
STANDARD
100
AcDbAlignedDimension
 13
-45.3
 23
6.35
 33
0.0
 14
-45.3
 24
-6.35
 34
0.0
 50
90.0000000002924
100
AcDbRotatedDimension
  0
DIMENSION
  5
7DA
330
18
100
AcDbEntity
  8
SK2
100
AcDbDimension
  2
*D4
 10
56.3
 20
90.0
 30
0.0
 11
5.5
 21
92.39775
 31
0.0
 70
    32
  1
<>
 71
     5
 42
101.6
  3
STANDARD
100
AcDbAlignedDimension
 13
-45.3
 23
0.0
 33
0.0
 14
56.3
 24
0.0
 34
0.0
100
AcDbRotatedDimension
  0
DIMENSION
  5
7E7
330
18
100
AcDbEntity
  8
2
100
AcDbDimension
  2
*D5
 10
54.712
 20
-4.762
 30
0.0
 11
58.08596153150422
 21
-23.89668669370931
 31
0.0
 70
   164
  1
<>
 71
     5
 42
1.588
  3
STANDARD
100
AcDbRadialDimension
 15
54.98775330613508
 25
-6.325874711783386
 35
0.0
 40
0.0
  0
ENDSEC
  0
SECTION
  2
OBJECTS
  0
DICTIONARY
  5
C
330
0
100
AcDbDictionary
281
     1
  3
ACAD_COLOR
350
387
  3
ACAD_GROUP
350
D
  3
ACAD_LAYOUT
350
301
  3
ACAD_MATERIAL
350
386
  3
ACAD_MLEADERSTYLE
350
3DE
  3
ACAD_MLINESTYLE
350
E
  3
ACAD_PLOTSETTINGS
350
302
  3
ACAD_PLOTSTYLENAME
350
2FF
  3
ACAD_SCALELIST
350
3A0
  3
ACAD_TABLESTYLE
350
388
  3
ACAD_VISUALSTYLE
350
3C2
  3
ACDBHEADERROUNDTRIPXREC
350
7F4
  3
AcDbVariableDictionary
350
357
  0
DICTIONARY
  5
7F7
330
8
100
AcDbDictionary
280
     1
281
     1
  3
ACAD_XREC_ROUNDTRIP
360
7F8
  0
DICTIONARY
  5
387
102
{ACAD_REACTORS
330
C
102
}
330
C
100
AcDbDictionary
281
     1
  0
DICTIONARY
  5
D
102
{ACAD_REACTORS
330
C
102
}
330
C
100
AcDbDictionary
281
     1
  0
DICTIONARY
  5
301
102
{ACAD_REACTORS
330
C
102
}
330
C
100
AcDbDictionary
281
     1
  3
Layout1
350
33B
  3
Model
350
303
  0
DICTIONARY
  5
386
102
{ACAD_REACTORS
330
C
102
}
330
C
100
AcDbDictionary
281
     1
  3
ByBlock
350
3DC
  3
ByLayer
350
3DB
  3
Global
350
3DD
  0
DICTIONARY
  5
3DE
102
{ACAD_REACTORS
330
C
102
}
330
C
100
AcDbDictionary
281
     1
  3
Standard
350
3DF
  0
DICTIONARY
  5
E
102
{ACAD_REACTORS
330
C
102
}
330
C
100
AcDbDictionary
281
     1
  3
STANDARD
350
1B
  0
DICTIONARY
  5
302
102
{ACAD_REACTORS
330
C
102
}
330
C
100
AcDbDictionary
281
     1
  0
ACDBDICTIONARYWDFLT
  5
2FF
102
{ACAD_REACTORS
330
C
102
}
330
C
100
AcDbDictionary
281
     1
  3
Normal
350
300
100
AcDbDictionaryWithDefault
340
300
  0
DICTIONARY
  5
3A0
102
{ACAD_REACTORS
330
C
102
}
330
C
100
AcDbDictionary
281
     1
  3
A0
350
3A1
  3
A1
350
3A2
  3
A2
350
3A3
  3
A3
350
3A4
  3
A4
350
3A5
  3
A5
350
3A6
  3
A6
350
3A7
  3
A7
350
3A8
  3
A8
350
3A9
  3
A9
350
3AA
  3
B0
350
3AB
  3
B1
350
3AC
  3
B2
350
3AD
  3
B3
350
3AE
  3
B4
350
3AF
  3
B5
350
3B0
  3
B6
350
3B1
  3
B7
350
3B2
  3
B8
350
3B3
  3
B9
350
3B4
  3
C0
350
3B5
  3
C1
350
3B6
  3
C2
350
3B7
  3
C3
350
3B8
  3
C4
350
3B9
  3
C5
350
3BA
  3
C6
350
3BB
  3
C7
350
3BC
  3
C8
350
3BD
  3
C9
350
3BE
  3
D0
350
3BF
  3
D1
350
3C0
  3
D2
350
3C1
  0
DICTIONARY
  5
388
102
{ACAD_REACTORS
330
C
102
}
330
C
100
AcDbDictionary
281
     1
  3
Standard
350
389
  0
DICTIONARY
  5
3C2
102
{ACAD_REACTORS
330
C
102
}
330
C
100
AcDbDictionary
281
     1
  3
2dWireframe
350
3C7
  3
Basic
350
3CA
  3
Brighten
350
3CE
  3
ColorChange
350
3D2
  3
Conceptual
350
3CC
  3
Dim
350
3CD
  3
EdgeColorOff
350
3D5
  3
Facepattern
350
3D1
  3
Flat
350
3C3
  3
FlatWithEdges
350
3C4
  3
Gouraud
350
3C5
  3
GouraudWithEdges
350
3C6
  3
Hidden
350
3C9
  3
JitterOff
350
3D3
  3
Linepattern
350
3D0
  3
OverhangOff
350
3D4
  3
Realistic
350
3CB
  3
Shaded
350
3DA
  3
Shaded with edges
350
3D9
  3
Shades of Gray
350
3D6
  3
Sketchy
350
3D7
  3
Thicken
350
3CF
  3
Wireframe
350
3C8
  3
X-Ray
350
3D8
  0
DICTIONARY
  5
7F4
102
{ACAD_REACTORS
330
C
102
}
330
C
100
AcDbDictionary
281
     1
  3
COLORDICT
350
7F5
  3
MATERIALDICT
350
7F6
  0
DICTIONARY
  5
357
102
{ACAD_REACTORS
330
C
102
}
330
C
100
AcDbDictionary
281
     1
  3
CANNOSCALE
350
7F9
  3
CMLEADERSTYLE
350
7F0
  3
CTABLESTYLE
350
38D
  3
DIMASSOC
350
359
  3
HIDETEXT
350
358
  3
MSLTSCALE
350
7F1
  3
PROJECTNAME
350
38E
  0
XRECORD
  5
7F8
102
{ACAD_REACTORS
330
7F7
102
}
330
7F7
100
AcDbXrecord
280
     1
102
VTR_0.000_0.000_1.000_1.000_VISUALSTYLE
340
3C7
102
VTR_0.000_0.000_1.000_1.000_GRIDDISPLAY
 70
     3
102
VTR_0.000_0.000_1.000_1.000_GRIDMAJOR
 70
     5
102
VTR_0.000_0.000_1.000_1.000_DEFAULTLIGHTING
280
     1
102
VTR_0.000_0.000_1.000_1.000_DEFAULTLIGHTINGTYPE
 70
     1
102
VTR_0.000_0.000_1.000_1.000_BRIGHTNESS
141
0.0
102
VTR_0.000_0.000_1.000_1.000_CONTRAST
142
0.0
  0
LAYOUT
  5
33B
102
{ACAD_REACTORS
330
301
102
}
330
301
100
AcDbPlotSettings
  1

  2
Lexmark Optra PS2
  4

  6

 40
0.0
 41
0.0
 42
0.0
 43
0.0
 44
0.0
 45
0.0
 46
0.0
 47
0.0
 48
0.0
 49
0.0
140
0.0
141
0.0
142
1.0
143
1.0
 70
   688
 72
     0
 73
     0
 74
     5
  7
monochrome.ctb
 75
    16
147
1.0
148
0.0
149
0.0
100
AcDbLayout
  1
Layout1
 70
     1
 71
     1
 10
0.0
 20
0.0
 11
12.0
 21
9.0
 12
0.0
 22
0.0
 32
0.0
 14
0.0
 24
0.0
 34
0.0
 15
0.0
 25
0.0
 35
0.0
146
0.0
 13
0.0
 23
0.0
 33
0.0
 16
1.0
 26
0.0
 36
0.0
 17
0.0
 27
1.0
 37
0.0
 76
     0
330
338
  0
LAYOUT
  5
303
102
{ACAD_REACTORS
330
301
102
}
330
301
100
AcDbPlotSettings
  1

  2
Lexmark Optra Rx
  4
A4
  6

 40
6.805083274841307
 41
5.535083293914794
 42
6.974411010742187
 43
7.14373779296875
 44
209.9733276367186
 45
296.9259948730469
 46
0.0
 47
0.0
 48
0.0
 49
0.0
140
0.0
141
0.0
142
1.0
143
2.976565420630886
 70
 11952
 72
     1
 73
     1
 74
     0
  7
monochrome.ctb
 75
     0
147
0.335957675604539
148
204.1199660668592
149
172.3933209647495
100
AcDbLayout
  1
Model
 70
     1
 71
     0
 10
0.0
 20
0.0
 11
12.0
 21
9.0
 12
0.0
 22
0.0
 32
0.0
 14
0.0
 24
0.0
 34
0.0
 15
0.0
 25
0.0
 35
0.0
146
0.0
 13
0.0
 23
0.0
 33
0.0
 16
1.0
 26
0.0
 36
0.0
 17
0.0
 27
1.0
 37
0.0
 76
     0
330
18
331
39A
  0
MATERIAL
  5
3DC
102
{ACAD_REACTORS
330
386
102
}
102
{ACAD_XDICTIONARY
360
7FC
102
}
330
386
100
AcDbMaterial
  1
ByBlock
  0
MATERIAL
  5
3DB
102
{ACAD_REACTORS
330
386
102
}
102
{ACAD_XDICTIONARY
360
7FA
102
}
330
386
100
AcDbMaterial
  1
ByLayer
  0
MATERIAL
  5
3DD
102
{ACAD_REACTORS
330
386
102
}
102
{ACAD_XDICTIONARY
360
7FE
102
}
330
386
100
AcDbMaterial
  1
Global
  0
MLEADERSTYLE
  5
3DF
102
{ACAD_REACTORS
330
3DE
102
}
102
{ACAD_XDICTIONARY
360
831
102
}
330
3DE
100
AcDbMLeaderStyle
170
     2
171
     1
172
     0
 90
        2
 40
0.0
 41
0.0
173
     1
 91
-1056964608
340
12
 92
       -2
290
     1
 42
2.0
291
     1
 43
8.0
  3
Standard
341
0
 44
4.0
300

342
10
174
     1
178
     6
175
     1
176
     0
 93
-1056964608
 45
4.0
292
     0
297
     0
 46
4.0
343
0
 94
-1056964608
 47
1.0
 49
1.0
140
1.0
293
     1
141
0.0
294
     1
177
     0
142
1.0
295
     0
296
     0
143
3.75
1001
ACAD_MLEADERVER
1070
     2
  0
MLINESTYLE
  5
1B
102
{ACAD_REACTORS
330
E
102
}
330
E
100
AcDbMlineStyle
  2
STANDARD
 70
     0
  3

 62
     0
 51
90.0
 52
90.0
 71
     2
 49
0.5
 62
   256
  6
BYLAYER
 49
-0.5
 62
   256
  6
BYLAYER
  0
ACDBPLACEHOLDER
  5
300
102
{ACAD_REACTORS
330
2FF
102
}
330
2FF
  0
SCALE
  5
3A1
102
{ACAD_REACTORS
330
3A0
102
}
330
3A0
100
AcDbScale
 70
     0
300
1:1
140
1.0
141
1.0
290
     1
  0
SCALE
  5
3A2
102
{ACAD_REACTORS
330
3A0
102
}
330
3A0
100
AcDbScale
 70
     0
300
1:2
140
1.0
141
2.0
290
     0
  0
SCALE
  5
3A3
102
{ACAD_REACTORS
330
3A0
102
}
330
3A0
100
AcDbScale
 70
     0
300
1:4
140
1.0
141
4.0
290
     0
  0
SCALE
  5
3A4
102
{ACAD_REACTORS
330
3A0
102
}
330
3A0
100
AcDbScale
 70
     0
300
1:5
140
1.0
141
5.0
290
     0
  0
SCALE
  5
3A5
102
{ACAD_REACTORS
330
3A0
102
}
330
3A0
100
AcDbScale
 70
     0
300
1:8
140
1.0
141
8.0
290
     0
  0
SCALE
  5
3A6
102
{ACAD_REACTORS
330
3A0
102
}
330
3A0
100
AcDbScale
 70
     0
300
1:10
140
1.0
141
10.0
290
     0
  0
SCALE
  5
3A7
102
{ACAD_REACTORS
330
3A0
102
}
330
3A0
100
AcDbScale
 70
     0
300
1:16
140
1.0
141
16.0
290
     0
  0
SCALE
  5
3A8
102
{ACAD_REACTORS
330
3A0
102
}
330
3A0
100
AcDbScale
 70
     0
300
1:20
140
1.0
141
20.0
290
     0
  0
SCALE
  5
3A9
102
{ACAD_REACTORS
330
3A0
102
}
330
3A0
100
AcDbScale
 70
     0
300
1:30
140
1.0
141
30.0
290
     0
  0
SCALE
  5
3AA
102
{ACAD_REACTORS
330
3A0
102
}
330
3A0
100
AcDbScale
 70
     0
300
1:40
140
1.0
141
40.0
290
     0
  0
SCALE
  5
3AB
102
{ACAD_REACTORS
330
3A0
102
}
330
3A0
100
AcDbScale
 70
     0
300
1:50
140
1.0
141
50.0
290
     0
  0
SCALE
  5
3AC
102
{ACAD_REACTORS
330
3A0
102
}
330
3A0
100
AcDbScale
 70
     0
300
1:100
140
1.0
141
100.0
290
     0
  0
SCALE
  5
3AD
102
{ACAD_REACTORS
330
3A0
102
}
330
3A0
100
AcDbScale
 70
     0
300
2:1
140
2.0
141
1.0
290
     0
  0
SCALE
  5
3AE
102
{ACAD_REACTORS
330
3A0
102
}
330
3A0
100
AcDbScale
 70
     0
300
4:1
140
4.0
141
1.0
290
     0
  0
SCALE
  5
3AF
102
{ACAD_REACTORS
330
3A0
102
}
330
3A0
100
AcDbScale
 70
     0
300
8:1
140
8.0
141
1.0
290
     0
  0
SCALE
  5
3B0
102
{ACAD_REACTORS
330
3A0
102
}
330
3A0
100
AcDbScale
 70
     0
300
10:1
140
10.0
141
1.0
290
     0
  0
SCALE
  5
3B1
102
{ACAD_REACTORS
330
3A0
102
}
330
3A0
100
AcDbScale
 70
     0
300
100:1
140
100.0
141
1.0
290
     0
  0
SCALE
  5
3B2
102
{ACAD_REACTORS
330
3A0
102
}
330
3A0
100
AcDbScale
 70
     0
300
1/128" = 1'-0"
140
0.0078125
141
12.0
290
     0
  0
SCALE
  5
3B3
102
{ACAD_REACTORS
330
3A0
102
}
330
3A0
100
AcDbScale
 70
     0
300
1/64" = 1'-0"
140
0.015625
141
12.0
290
     0
  0
SCALE
  5
3B4
102
{ACAD_REACTORS
330
3A0
102
}
330
3A0
100
AcDbScale
 70
     0
300
1/32" = 1'-0"
140
0.03125
141
12.0
290
     0
  0
SCALE
  5
3B5
102
{ACAD_REACTORS
330
3A0
102
}
330
3A0
100
AcDbScale
 70
     0
300
1/16" = 1'-0"
140
0.0625
141
12.0
290
     0
  0
SCALE
  5
3B6
102
{ACAD_REACTORS
330
3A0
102
}
330
3A0
100
AcDbScale
 70
     0
300
3/32" = 1'-0"
140
0.09375
141
12.0
290
     0
  0
SCALE
  5
3B7
102
{ACAD_REACTORS
330
3A0
102
}
330
3A0
100
AcDbScale
 70
     0
300
1/8" = 1'-0"
140
0.125
141
12.0
290
     0
  0
SCALE
  5
3B8
102
{ACAD_REACTORS
330
3A0
102
}
330
3A0
100
AcDbScale
 70
     0
300
3/16" = 1'-0"
140
0.1875
141
12.0
290
     0
  0
SCALE
  5
3B9
102
{ACAD_REACTORS
330
3A0
102
}
330
3A0
100
AcDbScale
 70
     0
300
1/4" = 1'-0"
140
0.25
141
12.0
290
     0
  0
SCALE
  5
3BA
102
{ACAD_REACTORS
330
3A0
102
}
330
3A0
100
AcDbScale
 70
     0
300
3/8" = 1'-0"
140
0.375
141
12.0
290
     0
  0
SCALE
  5
3BB
102
{ACAD_REACTORS
330
3A0
102
}
330
3A0
100
AcDbScale
 70
     0
300
1/2" = 1'-0"
140
0.5
141
12.0
290
     0
  0
SCALE
  5
3BC
102
{ACAD_REACTORS
330
3A0
102
}
330
3A0
100
AcDbScale
 70
     0
300
3/4" = 1'-0"
140
0.75
141
12.0
290
     0
  0
SCALE
  5
3BD
102
{ACAD_REACTORS
330
3A0
102
}
330
3A0
100
AcDbScale
 70
     0
300
1" = 1'-0"
140
1.0
141
12.0
290
     0
  0
SCALE
  5
3BE
102
{ACAD_REACTORS
330
3A0
102
}
330
3A0
100
AcDbScale
 70
     0
300
1-1/2" = 1'-0"
140
1.5
141
12.0
290
     0
  0
SCALE
  5
3BF
102
{ACAD_REACTORS
330
3A0
102
}
330
3A0
100
AcDbScale
 70
     0
300
3" = 1'-0"
140
3.0
141
12.0
290
     0
  0
SCALE
  5
3C0
102
{ACAD_REACTORS
330
3A0
102
}
330
3A0
100
AcDbScale
 70
     0
300
6" = 1'-0"
140
6.0
141
12.0
290
     0
  0
SCALE
  5
3C1
102
{ACAD_REACTORS
330
3A0
102
}
330
3A0
100
AcDbScale
 70
     0
300
1'-0" = 1'-0"
140
12.0
141
12.0
290
     0
  0
TABLESTYLE
  5
389
102
{ACAD_REACTORS
330
388
102
}
330
388
100
AcDbTableStyle
  3
Standard
 70
     0
 71
     0
 40
1.5
 41
1.5
280
     0
281
     0
  7
STANDARD
140
4.5
170
     2
 62
     0
 63
   257
283
     0
274
    -2
284
     1
 64
     0
275
    -2
285
     1
 65
     0
276
    -2
286
     1
 66
     0
277
    -2
287
     1
 67
     0
278
    -2
288
     1
 68
     0
279
    -2
289
     1
 69
     0
  7
STANDARD
140
6.0
170
     5
 62
     0
 63
   257
283
     0
274
    -2
284
     1
 64
     0
275
    -2
285
     1
 65
     0
276
    -2
286
     1
 66
     0
277
    -2
287
     1
 67
     0
278
    -2
288
     1
 68
     0
279
    -2
289
     1
 69
     0
  7
STANDARD
140
4.5
170
     5
 62
     0
 63
   257
283
     0
274
    -2
284
     1
 64
     0
275
    -2
285
     1
 65
     0
276
    -2
286
     1
 66
     0
277
    -2
287
     1
 67
     0
278
    -2
288
     1
 68
     0
279
    -2
289
     1
 69
     0
  0
VISUALSTYLE
  5
3C7
102
{ACAD_REACTORS
330
3C2
102
}
102
{ACAD_XDICTIONARY
360
808
102
}
330
3C2
100
AcDbVisualStyle
  2
2dWireframe
 70
     4
 71
     0
 72
     2
 73
     0
 90
        0
 40
0.6
 41
30.0
 62
     5
 63
     7
 74
     1
 91
        4
 64
     7
 65
   257
 75
     1
175
     1
 42
1.0
 92
        0
 66
   257
 43
1.0
 76
     1
 77
     6
 78
     2
 67
     7
 79
     5
170
     0
171
     0
290
     0
174
     0
 93
        1
 44
0.0
173
     0
291
     0
 45
0.0
1001
ACAD
1000
AcDbSavedByObjectVersion
1070
     0
  0
VISUALSTYLE
  5
3CA
102
{ACAD_REACTORS
330
3C2
102
}
102
{ACAD_XDICTIONARY
360
80E
102
}
330
3C2
100
AcDbVisualStyle
  2
Basic
 70
     7
 71
     1
 72
     0
 73
     1
 90
        0
 40
0.6
 41
30.0
 62
     5
 63
     7
 74
     0
 91
        4
 64
     7
 65
   257
 75
     1
175
     1
 42
1.0
 92
        8
 66
     7
 43
1.0
 76
     1
 77
     6
 78
     2
 67
     7
 79
     5
170
     0
171
     0
290
     0
174
     0
 93
        1
 44
0.0
173
     0
291
     1
 45
0.0
1001
ACAD
1000
AcDbSavedByObjectVersion
1070
     0
  0
VISUALSTYLE
  5
3CE
102
{ACAD_REACTORS
330
3C2
102
}
102
{ACAD_XDICTIONARY
360
816
102
}
330
3C2
100
AcDbVisualStyle
  2
Brighten
 70
    12
 71
     2
 72
     2
 73
     0
 90
        0
 40
0.6
 41
30.0
 62
     5
 63
     7
 74
     1
 91
        4
 64
     7
 65
   257
 75
     1
175
     1
 42
1.0
 92
        8
 66
     7
 43
1.0
 76
     1
 77
     6
 78
     2
 67
     7
 79
     5
170
     0
171
     0
290
     0
174
     0
 93
        1
 44
50.0
173
     0
291
     1
 45
0.0
1001
ACAD
1000
AcDbSavedByObjectVersion
1070
     0
  0
VISUALSTYLE
  5
3D2
102
{ACAD_REACTORS
330
3C2
102
}
102
{ACAD_XDICTIONARY
360
81E
102
}
330
3C2
100
AcDbVisualStyle
  2
ColorChange
 70
    16
 71
     2
 72
     2
 73
     3
 90
        0
 40
0.6
 41
30.0
 62
     5
 63
     8
 74
     1
 91
        4
 64
     7
 65
   257
 75
     1
175
     1
 42
1.0
 92
        8
 66
     8
 43
1.0
 76
     1
 77
     6
 78
     2
 67
     7
 79
     5
170
     0
171
     0
290
     0
174
     0
 93
        1
 44
0.0
173
     0
291
     1
 45
0.0
1001
ACAD
1000
AcDbSavedByObjectVersion
1070
     0
  0
VISUALSTYLE
  5
3CC
102
{ACAD_REACTORS
330
3C2
102
}
102
{ACAD_XDICTIONARY
360
812
102
}
330
3C2
100
AcDbVisualStyle
  2
Conceptual
 70
     9
 71
     3
 72
     2
 73
     0
 90
        0
 40
0.6
 41
30.0
 62
     5
 63
     7
 74
     2
 91
        2
 64
     7
 65
   257
 75
     1
175
     1
 42
179.0
 92
        8
 66
     7
 43
1.0
 76
     1
 77
     6
 78
     2
 67
     7
 79
     3
170
     0
171
     0
290
     0
174
     0
 93
        1
 44
0.0
173
     0
291
     0
 45
0.0
1001
ACAD
1000
AcDbSavedByObjectVersion
1070
     0
  0
VISUALSTYLE
  5
3CD
102
{ACAD_REACTORS
330
3C2
102
}
102
{ACAD_XDICTIONARY
360
814
102
}
330
3C2
100
AcDbVisualStyle
  2
Dim
 70
    11
 71
     2
 72
     2
 73
     0
 90
        0
 40
0.6
 41
30.0
 62
     5
 63
     7
 74
     1
 91
        4
 64
     7
 65
   257
 75
     1
175
     1
 42
1.0
 92
        8
 66
     7
 43
1.0
 76
     1
 77
     6
 78
     2
 67
     7
 79
     5
170
     0
171
     0
290
     0
174
     0
 93
        1
 44
-50.0
173
     0
291
     1
 45
0.0
1001
ACAD
1000
AcDbSavedByObjectVersion
1070
     0
  0
VISUALSTYLE
  5
3D5
102
{ACAD_REACTORS
330
3C2
102
}
102
{ACAD_XDICTIONARY
360
824
102
}
330
3C2
100
AcDbVisualStyle
  2
EdgeColorOff
 70
    22
 71
     2
 72
     2
 73
     0
 90
        0
 40
0.6
 41
30.0
 62
     5
 63
     7
 74
     1
 91
        4
 64
     7
 65
   257
 75
     1
175
     1
 42
1.0
 92
        8
 66
     7
 43
1.0
 76
     1
 77
     6
 78
     2
 67
     7
 79
     5
170
     0
171
     0
290
     0
174
     0
 93
        1
 44
0.0
173
     0
291
     1
 45
0.0
1001
ACAD
1000
AcDbSavedByObjectVersion
1070
     0
  0
VISUALSTYLE
  5
3D1
102
{ACAD_REACTORS
330
3C2
102
}
102
{ACAD_XDICTIONARY
360
81C
102
}
330
3C2
100
AcDbVisualStyle
  2
Facepattern
 70
    15
 71
     2
 72
     2
 73
     0
 90
        0
 40
0.6
 41
30.0
 62
     5
 63
     7
 74
     1
 91
        4
 64
     7
 65
   257
 75
     1
175
     1
 42
1.0
 92
        8
 66
     7
 43
1.0
 76
     1
 77
     6
 78
     2
 67
     7
 79
     5
170
     0
171
     0
290
     0
174
     0
 93
        1
 44
0.0
173
     0
291
     1
 45
0.0
1001
ACAD
1000
AcDbSavedByObjectVersion
1070
     0
  0
VISUALSTYLE
  5
3C3
102
{ACAD_REACTORS
330
3C2
102
}
102
{ACAD_XDICTIONARY
360
800
102
}
330
3C2
100
AcDbVisualStyle
  2
Flat
 70
     0
 71
     2
 72
     1
 73
     1
 90
        2
 40
0.6
 41
30.0
 62
     5
 63
     7
 74
     0
 91
        0
 64
     7
 65
   257
 75
     1
175
     1
 42
1.0
 92
        8
 66
     7
 43
1.0
 76
     1
 77
     6
 78
     2
 67
     7
 79
     5
170
     0
171
     0
290
     0
174
     0
 93
       13
 44
0.0
173
     0
291
     1
 45
0.0
1001
ACAD
1000
AcDbSavedByObjectVersion
1070
     0
  0
VISUALSTYLE
  5
3C4
102
{ACAD_REACTORS
330
3C2
102
}
102
{ACAD_XDICTIONARY
360
802
102
}
330
3C2
100
AcDbVisualStyle
  2
FlatWithEdges
 70
     1
 71
     2
 72
     1
 73
     1
 90
        2
 40
0.6
 41
30.0
 62
     5
 63
     7
 74
     1
 91
        0
 64
     7
 65
   257
 75
     1
175
     1
 42
1.0
 92
        0
 66
   257
 43
1.0
 76
     1
 77
     6
 78
     2
 67
     7
 79
     5
170
     0
171
     0
290
     0
174
     0
 93
       13
 44
0.0
173
     0
291
     1
 45
0.0
1001
ACAD
1000
AcDbSavedByObjectVersion
1070
     0
  0
VISUALSTYLE
  5
3C5
102
{ACAD_REACTORS
330
3C2
102
}
102
{ACAD_XDICTIONARY
360
804
102
}
330
3C2
100
AcDbVisualStyle
  2
Gouraud
 70
     2
 71
     2
 72
     2
 73
     1
 90
        2
 40
0.6
 41
30.0
 62
     5
 63
     7
 74
     0
 91
        0
 64
     7
 65
   257
 75
     1
175
     1
 42
1.0
 92
        0
 66
     7
 43
1.0
 76
     1
 77
     6
 78
     2
 67
     7
 79
     5
170
     0
171
     0
290
     0
174
     0
 93
       13
 44
0.0
173
     0
291
     1
 45
0.0
1001
ACAD
1000
AcDbSavedByObjectVersion
1070
     0
  0
VISUALSTYLE
  5
3C6
102
{ACAD_REACTORS
330
3C2
102
}
102
{ACAD_XDICTIONARY
360
806
102
}
330
3C2
100
AcDbVisualStyle
  2
GouraudWithEdges
 70
     3
 71
     2
 72
     2
 73
     1
 90
        2
 40
0.6
 41
30.0
 62
     5
 63
     7
 74
     1
 91
        0
 64
     7
 65
   257
 75
     1
175
     1
 42
1.0
 92
        0
 66
   257
 43
1.0
 76
     1
 77
     6
 78
     2
 67
     7
 79
     5
170
     0
171
     0
290
     0
174
     0
 93
       13
 44
0.0
173
     0
291
     1
 45
0.0
1001
ACAD
1000
AcDbSavedByObjectVersion
1070
     0
  0
VISUALSTYLE
  5
3C9
102
{ACAD_REACTORS
330
3C2
102
}
102
{ACAD_XDICTIONARY
360
80C
102
}
330
3C2
100
AcDbVisualStyle
  2
Hidden
 70
     6
 71
     1
 72
     2
 73
     2
 90
        0
 40
0.6
 41
30.0
 62
     5
 63
     7
 74
     2
 91
        2
 64
     7
 65
   257
 75
     2
175
     1
 42
40.0
 92
        0
 66
   257
 43
1.0
 76
     1
 77
     6
 78
     2
 67
     7
 79
     3
170
     0
171
     0
290
     0
174
     0
 93
        1
 44
0.0
173
     0
291
     0
 45
0.0
1001
ACAD
1000
AcDbSavedByObjectVersion
1070
     0
  0
VISUALSTYLE
  5
3D3
102
{ACAD_REACTORS
330
3C2
102
}
102
{ACAD_XDICTIONARY
360
820
102
}
330
3C2
100
AcDbVisualStyle
  2
JitterOff
 70
    20
 71
     2
 72
     2
 73
     0
 90
        0
 40
0.6
 41
30.0
 62
     5
 63
     7
 74
     1
 91
        4
 64
     7
 65
   257
 75
     1
175
     1
 42
1.0
 92
       10
 66
     7
 43
1.0
 76
     1
 77
     6
 78
     2
 67
     7
 79
     5
170
     0
171
     0
290
     0
174
     0
 93
        1
 44
0.0
173
     0
291
     1
 45
0.0
1001
ACAD
1000
AcDbSavedByObjectVersion
1070
     0
  0
VISUALSTYLE
  5
3D0
102
{ACAD_REACTORS
330
3C2
102
}
102
{ACAD_XDICTIONARY
360
81A
102
}
330
3C2
100
AcDbVisualStyle
  2
Linepattern
 70
    14
 71
     2
 72
     2
 73
     0
 90
        0
 40
0.6
 41
30.0
 62
     5
 63
     7
 74
     1
 91
        4
 64
     7
 65
   257
 75
     7
175
     7
 42
1.0
 92
        8
 66
     7
 43
1.0
 76
     1
 77
     6
 78
     2
 67
     7
 79
     5
170
     0
171
     0
290
     0
174
     0
 93
        1
 44
0.0
173
     0
291
     1
 45
0.0
1001
ACAD
1000
AcDbSavedByObjectVersion
1070
     0
  0
VISUALSTYLE
  5
3D4
102
{ACAD_REACTORS
330
3C2
102
}
102
{ACAD_XDICTIONARY
360
822
102
}
330
3C2
100
AcDbVisualStyle
  2
OverhangOff
 70
    21
 71
     2
 72
     2
 73
     0
 90
        0
 40
0.6
 41
30.0
 62
     5
 63
     7
 74
     1
 91
        4
 64
     7
 65
   257
 75
     1
175
     1
 42
1.0
 92
        9
 66
     7
 43
1.0
 76
     1
 77
     6
 78
     2
 67
     7
 79
     5
170
     0
171
     0
290
     0
174
     0
 93
        1
 44
0.0
173
     0
291
     1
 45
0.0
1001
ACAD
1000
AcDbSavedByObjectVersion
1070
     0
  0
VISUALSTYLE
  5
3CB
102
{ACAD_REACTORS
330
3C2
102
}
102
{ACAD_XDICTIONARY
360
810
102
}
330
3C2
100
AcDbVisualStyle
  2
Realistic
 70
     8
 71
     2
 72
     3
 73
     0
 90
        2
 40
0.6
 41
30.0
 62
     5
 63
     7
 74
     0
 91
        0
 64
     7
 65
   257
 75
     1
175
     1
 42
1.0
 92
        8
 66
   257
 43
1.0
 76
     1
 77
     6
 78
     2
 67
     7
 79
     3
170
     0
171
     0
290
     0
174
     0
 93
       13
 44
0.0
173
     0
291
     0
 45
0.0
1001
ACAD
1000
AcDbSavedByObjectVersion
1070
     0
  0
VISUALSTYLE
  5
3DA
102
{ACAD_REACTORS
330
3C2
102
}
102
{ACAD_XDICTIONARY
360
82E
102
}
330
3C2
100
AcDbVisualStyle
  2
Shaded
 70
    27
 71
     2
 72
     2
 73
     1
 90
        2
 40
0.6
 41
30.0
 62
     5
 63
     7
 74
     0
 91
        4
 64
     7
 65
   257
 75
     1
175
     1
 42
1.0
 92
        8
 66
   257
 43
1.0
 76
     1
 77
     6
 78
     2
 67
     8
 79
     3
170
     0
171
     0
290
     0
174
     0
 93
        5
 44
0.0
173
     0
291
     0
 45
0.0
1001
ACAD
1000
AcDbSavedByObjectVersion
1070
     0
  0
VISUALSTYLE
  5
3D9
102
{ACAD_REACTORS
330
3C2
102
}
102
{ACAD_XDICTIONARY
360
82C
102
}
330
3C2
100
AcDbVisualStyle
  2
Shaded with edges
 70
    26
 71
     2
 72
     2
 73
     1
 90
        2
 40
0.6
 41
30.0
 62
     5
 63
     7
 74
     1
 91
       10
 64
     7
 65
   257
 75
     2
175
     1
 42
1.0
 92
        8
 66
   257
 43
1.0
 76
     1
 77
     6
 78
     2
 67
     7
 79
     3
170
     0
171
     0
290
     0
174
     0
 93
        5
 44
0.0
173
     0
291
     0
 45
0.0
1001
ACAD
1000
AcDbSavedByObjectVersion
1070
     0
  0
VISUALSTYLE
  5
3D6
102
{ACAD_REACTORS
330
3C2
102
}
102
{ACAD_XDICTIONARY
360
826
102
}
330
3C2
100
AcDbVisualStyle
  2
Shades of Gray
 70
    23
 71
     2
 72
     2
 73
     3
 90
        0
 40
0.6
 41
30.0
 62
     5
 63
     7
 74
     2
 91
        2
 64
     7
 65
     7
 75
     1
175
     1
 42
40.0
 92
        8
 66
     7
 43
1.0
 76
     1
 77
     6
 78
     2
 67
     7
 79
     3
170
     0
171
     0
290
     0
174
     0
 93
        1
 44
0.0
173
     0
291
     0
 45
0.0
1001
ACAD
1000
AcDbSavedByObjectVersion
1070
     0
  0
VISUALSTYLE
  5
3D7
102
{ACAD_REACTORS
330
3C2
102
}
102
{ACAD_XDICTIONARY
360
828
102
}
330
3C2
100
AcDbVisualStyle
  2
Sketchy
 70
    24
 71
     1
 72
     2
 73
     2
 90
        0
 40
0.6
 41
30.0
 62
     5
 63
     7
 74
     2
 91
        2
 64
     7
 65
     7
 75
     1
175
     1
 42
40.0
 92
       11
 66
     7
 43
1.0
 76
     1
 77
     6
 78
     2
 67
     7
 79
     6
170
     0
171
     0
290
     0
174
     0
 93
        1
 44
0.0
173
     0
291
     0
 45
0.0
1001
ACAD
1000
AcDbSavedByObjectVersion
1070
     0
  0
VISUALSTYLE
  5
3CF
102
{ACAD_REACTORS
330
3C2
102
}
102
{ACAD_XDICTIONARY
360
818
102
}
330
3C2
100
AcDbVisualStyle
  2
Thicken
 70
    13
 71
     2
 72
     2
 73
     0
 90
        0
 40
0.6
 41
30.0
 62
     5
 63
     7
 74
     1
 91
        4
 64
     7
 65
   257
 75
     1
175
     1
 42
1.0
 92
       12
 66
     7
 43
1.0
 76
     1
 77
     6
 78
     2
 67
     7
 79
     5
170
     0
171
     0
290
     0
174
     0
 93
        1
 44
0.0
173
     0
291
     1
 45
0.0
1001
ACAD
1000
AcDbSavedByObjectVersion
1070
     0
  0
VISUALSTYLE
  5
3C8
102
{ACAD_REACTORS
330
3C2
102
}
102
{ACAD_XDICTIONARY
360
80A
102
}
330
3C2
100
AcDbVisualStyle
  2
Wireframe
 70
     5
 71
     0
 72
     2
 73
     0
 90
        0
 40
0.6
 41
30.0
 62
     5
 63
     7
 74
     1
 91
        4
 64
     7
 65
   257
 75
     1
175
     1
 42
1.0
 92
        0
 66
   257
 43
1.0
 76
     1
 77
     6
 78
     2
 67
     7
 79
     3
170
     0
171
     0
290
     0
174
     0
 93
        1
 44
0.0
173
     0
291
     0
 45
0.0
1001
ACAD
1000
AcDbSavedByObjectVersion
1070
     0
  0
VISUALSTYLE
  5
3D8
102
{ACAD_REACTORS
330
3C2
102
}
102
{ACAD_XDICTIONARY
360
82A
102
}
330
3C2
100
AcDbVisualStyle
  2
X-Ray
 70
    25
 71
     2
 72
     2
 73
     1
 90
        1
 40
0.5
 41
30.0
 62
     5
 63
     7
 74
     1
 91
        0
 64
     7
 65
   257
 75
     1
175
     1
 42
1.0
 92
        8
 66
     7
 43
1.0
 76
     1
 77
     6
 78
     2
 67
     7
 79
     3
170
     0
171
     0
290
     0
174
     0
 93
       13
 44
0.0
173
     0
291
     0
 45
0.0
1001
ACAD
1000
AcDbSavedByObjectVersion
1070
     0
  0
XRECORD
  5
7F5
102
{ACAD_REACTORS
330
7F4
102
}
330
7F4
100
AcDbXrecord
280
     1
340
387
  0
XRECORD
  5
7F6
102
{ACAD_REACTORS
330
7F4
102
}
330
7F4
100
AcDbXrecord
280
     1
340
386
  0
DICTIONARYVAR
  5
7F9
102
{ACAD_REACTORS
330
357
102
}
330
357
100
DictionaryVariables
280
     0
  1
1:1
  0
DICTIONARYVAR
  5
7F0
102
{ACAD_REACTORS
330
357
102
}
330
357
100
DictionaryVariables
280
     0
  1
Standard
  0
DICTIONARYVAR
  5
38D
102
{ACAD_REACTORS
330
357
102
}
330
357
100
DictionaryVariables
280
     0
  1
Standard
  0
DICTIONARYVAR
  5
359
102
{ACAD_REACTORS
330
357
102
}
330
357
100
DictionaryVariables
280
     0
  1
2
  0
DICTIONARYVAR
  5
358
102
{ACAD_REACTORS
330
357
102
}
330
357
100
DictionaryVariables
280
     0
  1
1
  0
DICTIONARYVAR
  5
7F1
102
{ACAD_REACTORS
330
357
102
}
330
357
100
DictionaryVariables
280
     0
  1
0
  0
DICTIONARYVAR
  5
38E
102
{ACAD_REACTORS
330
357
102
}
330
357
100
DictionaryVariables
280
     0
  1

  0
DICTIONARY
  5
7FC
330
3DC
100
AcDbDictionary
280
     1
281
     1
  3
ACAD_XREC_ROUNDTRIP
360
7FD
  0
DICTIONARY
  5
7FA
330
3DB
100
AcDbDictionary
280
     1
281
     1
  3
ACAD_XREC_ROUNDTRIP
360
7FB
  0
DICTIONARY
  5
7FE
330
3DD
100
AcDbDictionary
280
     1
281
     1
  3
ACAD_XREC_ROUNDTRIP
360
7FF
  0
DICTIONARY
  5
831
330
3DF
100
AcDbDictionary
280
     1
281
     1
  3
ACAD_XREC_ROUNDTRIP
360
832
  0
DICTIONARY
  5
808
330
3C7
100
AcDbDictionary
280
     1
281
     1
  3
ACAD_XREC_ROUNDTRIP
360
809
  0
DICTIONARY
  5
80E
330
3CA
100
AcDbDictionary
280
     1
281
     1
  3
ACAD_XREC_ROUNDTRIP
360
80F
  0
DICTIONARY
  5
816
330
3CE
100
AcDbDictionary
280
     1
281
     1
  3
ACAD_XREC_ROUNDTRIP
360
817
  0
DICTIONARY
  5
81E
330
3D2
100
AcDbDictionary
280
     1
281
     1
  3
ACAD_XREC_ROUNDTRIP
360
81F
  0
DICTIONARY
  5
812
330
3CC
100
AcDbDictionary
280
     1
281
     1
  3
ACAD_XREC_ROUNDTRIP
360
813
  0
DICTIONARY
  5
814
330
3CD
100
AcDbDictionary
280
     1
281
     1
  3
ACAD_XREC_ROUNDTRIP
360
815
  0
DICTIONARY
  5
824
330
3D5
100
AcDbDictionary
280
     1
281
     1
  3
ACAD_XREC_ROUNDTRIP
360
825
  0
DICTIONARY
  5
81C
330
3D1
100
AcDbDictionary
280
     1
281
     1
  3
ACAD_XREC_ROUNDTRIP
360
81D
  0
DICTIONARY
  5
800
330
3C3
100
AcDbDictionary
280
     1
281
     1
  3
ACAD_XREC_ROUNDTRIP
360
801
  0
DICTIONARY
  5
802
330
3C4
100
AcDbDictionary
280
     1
281
     1
  3
ACAD_XREC_ROUNDTRIP
360
803
  0
DICTIONARY
  5
804
330
3C5
100
AcDbDictionary
280
     1
281
     1
  3
ACAD_XREC_ROUNDTRIP
360
805
  0
DICTIONARY
  5
806
330
3C6
100
AcDbDictionary
280
     1
281
     1
  3
ACAD_XREC_ROUNDTRIP
360
807
  0
DICTIONARY
  5
80C
330
3C9
100
AcDbDictionary
280
     1
281
     1
  3
ACAD_XREC_ROUNDTRIP
360
80D
  0
DICTIONARY
  5
820
330
3D3
100
AcDbDictionary
280
     1
281
     1
  3
ACAD_XREC_ROUNDTRIP
360
821
  0
DICTIONARY
  5
81A
330
3D0
100
AcDbDictionary
280
     1
281
     1
  3
ACAD_XREC_ROUNDTRIP
360
81B
  0
DICTIONARY
  5
822
330
3D4
100
AcDbDictionary
280
     1
281
     1
  3
ACAD_XREC_ROUNDTRIP
360
823
  0
DICTIONARY
  5
810
330
3CB
100
AcDbDictionary
280
     1
281
     1
  3
ACAD_XREC_ROUNDTRIP
360
811
  0
DICTIONARY
  5
82E
330
3DA
100
AcDbDictionary
280
     1
281
     1
  3
ACAD_XREC_ROUNDTRIP
360
82F
  0
DICTIONARY
  5
82C
330
3D9
100
AcDbDictionary
280
     1
281
     1
  3
ACAD_XREC_ROUNDTRIP
360
82D
  0
DICTIONARY
  5
826
330
3D6
100
AcDbDictionary
280
     1
281
     1
  3
ACAD_XREC_ROUNDTRIP
360
827
  0
DICTIONARY
  5
828
330
3D7
100
AcDbDictionary
280
     1
281
     1
  3
ACAD_XREC_ROUNDTRIP
360
829
  0
DICTIONARY
  5
818
330
3CF
100
AcDbDictionary
280
     1
281
     1
  3
ACAD_XREC_ROUNDTRIP
360
819
  0
DICTIONARY
  5
80A
330
3C8
100
AcDbDictionary
280
     1
281
     1
  3
ACAD_XREC_ROUNDTRIP
360
80B
  0
DICTIONARY
  5
82A
330
3D8
100
AcDbDictionary
280
     1
281
     1
  3
ACAD_XREC_ROUNDTRIP
360
82B
  0
XRECORD
  5
7FD
102
{ACAD_REACTORS
330
7FC
102
}
330
7FC
100
AcDbXrecord
280
     1
102
MATERIAL
148
0.0
149
0.0
149
0.0
 93
        0
 94
      127
282
     0
 72
     1
 77
     1
171
     1
175
     1
179
     1
273
     0
  0
XRECORD
  5
7FB
102
{ACAD_REACTORS
330
7FA
102
}
330
7FA
100
AcDbXrecord
280
     1
102
MATERIAL
148
0.0
149
0.0
149
0.0
 93
        0
 94
      127
282
     0
 72
     1
 77
     1
171
     1
175
     1
179
     1
273
     0
  0
XRECORD
  5
7FF
102
{ACAD_REACTORS
330
7FE
102
}
330
7FE
100
AcDbXrecord
280
     1
102
MATERIAL
148
0.0
149
0.0
149
0.0
 93
        0
 94
      127
282
     0
 72
     1
 77
     1
171
     1
175
     1
179
     1
273
     0
  0
XRECORD
  5
832
102
{ACAD_REACTORS
330
831
102
}
330
831
100
AcDbXrecord
280
     1
102
ACAD_ROUNDTRIP_2010_MLEADER_STYLE
  0
XRECORD
  5
809
102
{ACAD_REACTORS
330
808
102
}
330
808
100
AcDbXrecord
280
     1
102
RTVSPropertyOp0
 70
     1
102
RTVSPropertyOp1
 70
     1
102
RTVSPropertyOp2
 70
     1
102
RTVSPropertyOp3
 70
     1
102
RTVSPropertyOp4
 70
     1
102
RTVSPropertyOp5
 70
     1
102
RTVSPropertyOp6
 70
     1
102
RTVSPropertyOp7
 70
     1
102
RTVSPropertyOp8
 70
     1
102
RTVSPropertyOp9
 70
     1
102
RTVSPropertyOp10
 70
     1
102
RTVSPropertyOp11
 70
     1
102
RTVSPropertyOp12
 70
     1
102
RTVSPropertyOp13
 70
     1
102
RTVSPropertyOp14
 70
     1
102
RTVSPropertyOp15
 70
     1
102
RTVSPropertyOp16
 70
     1
102
RTVSPropertyOp17
 70
     1
102
RTVSPropertyOp18
 70
     1
102
RTVSPropertyOp19
 70
     1
102
RTVSPropertyOp20
 70
     1
102
RTVSPropertyOp21
 70
     1
102
RTVSPropertyOp22
 70
     1
102
RTVSPropertyOp23
 70
     1
102
RTVSPropertyOp24
 70
     1
102
RTVSPropertyOp25
 70
     1
102
RTVSPropertyOp26
 70
     1
102
RTVSPropertyOp27
 70
     1
102
RTVSPropertyOp28
 70
     1
102
RTVSPropertyOp29
 70
     1
102
RTVSPropertyOp30
 70
     1
102
RTVSPropertyOp31
 70
     1
102
RTVSPropertyOp32
 70
     1
102
RTVSPropertyOp33
 70
     1
102
RTVSPropertyOp34
 70
     1
102
RTVSPropertyOp35
 70
     1
102
RTVSPropertyOp36
 70
     1
102
RTVSPropertyOp37
 70
     1
102
RTVSPropertyOp38
 70
     1
102
RTVSPropertyOp39
 70
     1
102
RTVSPropertyOp40
 70
     1
102
RTVSPropertyOp41
 70
     1
102
RTVSPropertyOp42
 70
     1
102
RTVSPropertyOp43
 70
     1
102
RTVSPropertyOp44
 70
     1
102
RTVSPropertyOp45
 70
     1
102
RTVSPropertyOp46
 70
     1
102
RTVSPropertyOp47
 70
     1
102
RTVSPropertyOp48
 70
     1
102
RTVSPropertyOp49
 70
     1
102
RTVSPropertyOp50
 70
     1
102
RTVSPropertyOp51
 70
     0
102
RTVSPropertyOp52
 70
     0
102
RTVSPropertyOp53
 70
     1
102
RTVSPropertyOp54
 70
     1
102
RTVSPropertyOp55
 70
     1
102
RTVSPropertyOp56
 70
     1
102
RTVSPropertyOp57
 70
     1
102
RTVSPost2010Prop28
280
     1
102
RTVSPost2010PropOp28
 70
     1
102
RTVSPost2010Prop29
280
     1
102
RTVSPost2010PropOp29
 70
     1
102
RTVSPost2010Prop30
280
     0
102
RTVSPost2010PropOp30
 70
     1
102
RTVSPost2010Prop31
280
     0
102
RTVSPost2010PropOp31
 70
     1
102
RTVSPost2010Prop32
280
     0
102
RTVSPost2010PropOp32
 70
     1
102
RTVSPost2010Prop33
280
     0
102
RTVSPost2010PropOp33
 70
     1
102
RTVSPost2010Prop34
280
     0
102
RTVSPost2010PropOp34
 70
     1
102
RTVSPost2010Prop35
280
     0
102
RTVSPost2010PropOp35
 70
     1
102
RTVSPost2010Prop36
280
     0
102
RTVSPost2010PropOp36
 70
     1
102
RTVSPost2010Prop37
 90
       50
102
RTVSPost2010PropOp37
 70
     1
102
RTVSPost2010Prop38
140
0.0
102
RTVSPost2010PropOp38
 70
     1
102
RTVSPost2010Prop39
140
1.0
102
RTVSPost2010PropOp39
 70
     1
102
RTVSPost2010Prop40
 90
        0
102
RTVSPost2010PropOp40
 70
     1
102
RTVSPost2010Prop41ColorIndex
 90
       18
102
RTVSPost2010Prop41ColorRGB
 90
        0
102
RTVSPost2010PropOp41
 70
     1
102
RTVSPost2010Prop42
 90
       50
102
RTVSPost2010PropOp42
 70
     1
102
RTVSPost2010Prop43
 90
        3
102
RTVSPost2010PropOp43
 70
     1
102
RTVSPost2010Prop44ColorIndex
 90
        5
102
RTVSPost2010Prop44ColorRGB
 90
      255
102
RTVSPost2010PropOp44
 70
     1
102
RTVSPost2010Prop45
280
     0
102
RTVSPost2010PropOp45
 70
     1
102
RTVSPost2010Prop46
 90
       50
102
RTVSPost2010PropOp46
 70
     1
102
RTVSPost2010Prop47
 90
       50
102
RTVSPost2010PropOp47
 70
     1
102
RTVSPost2010Prop48
 90
       50
102
RTVSPost2010PropOp48
 70
     1
102
RTVSPost2010Prop49
280
     0
102
RTVSPost2010PropOp49
 70
     1
102
RTVSPost2010Prop50
 90
       50
102
RTVSPost2010PropOp50
 70
     1
102
RTVSPost2010Prop51ColorIndex
 90
      256
102
RTVSPost2010Prop51ColorRGB
 90
-16777216
102
RTVSPost2010PropOp51
 70
     0
102
RTVSPost2010Prop52
140
1.0
102
RTVSPost2010PropOp52
 70
     0
102
RTVSPost2010Prop53
 90
        2
102
RTVSPost2010PropOp53
 70
     1
102
RTVSPost2010Prop54
  1
strokes_ogs.tif
102
RTVSPost2010PropOp54
 70
     1
102
RTVSPost2010Prop55
280
     0
102
RTVSPost2010PropOp55
 70
     1
102
RTVSPost2010Prop56
140
1.0
102
RTVSPost2010PropOp56
 70
     1
102
RTVSPost2010Prop57
140
1.0
102
RTVSPost2010PropOp57
 70
     1
  0
XRECORD
  5
80F
102
{ACAD_REACTORS
330
80E
102
}
330
80E
100
AcDbXrecord
280
     1
102
RTVSPropertyOp0
 70
     1
102
RTVSPropertyOp1
 70
     1
102
RTVSPropertyOp2
 70
     1
102
RTVSPropertyOp3
 70
     1
102
RTVSPropertyOp4
 70
     1
102
RTVSPropertyOp5
 70
     1
102
RTVSPropertyOp6
 70
     1
102
RTVSPropertyOp7
 70
     1
102
RTVSPropertyOp8
 70
     1
102
RTVSPropertyOp9
 70
     1
102
RTVSPropertyOp10
 70
     1
102
RTVSPropertyOp11
 70
     1
102
RTVSPropertyOp12
 70
     1
102
RTVSPropertyOp13
 70
     1
102
RTVSPropertyOp14
 70
     1
102
RTVSPropertyOp15
 70
     1
102
RTVSPropertyOp16
 70
     1
102
RTVSPropertyOp17
 70
     1
102
RTVSPropertyOp18
 70
     1
102
RTVSPropertyOp19
 70
     1
102
RTVSPropertyOp20
 70
     1
102
RTVSPropertyOp21
 70
     1
102
RTVSPropertyOp22
 70
     1
102
RTVSPropertyOp23
 70
     1
102
RTVSPropertyOp24
 70
     1
102
RTVSPropertyOp25
 70
     1
102
RTVSPropertyOp26
 70
     1
102
RTVSPropertyOp27
 70
     1
102
RTVSPropertyOp28
 70
     1
102
RTVSPropertyOp29
 70
     1
102
RTVSPropertyOp30
 70
     1
102
RTVSPropertyOp31
 70
     1
102
RTVSPropertyOp32
 70
     1
102
RTVSPropertyOp33
 70
     1
102
RTVSPropertyOp34
 70
     1
102
RTVSPropertyOp35
 70
     1
102
RTVSPropertyOp36
 70
     1
102
RTVSPropertyOp37
 70
     1
102
RTVSPropertyOp38
 70
     1
102
RTVSPropertyOp39
 70
     1
102
RTVSPropertyOp40
 70
     1
102
RTVSPropertyOp41
 70
     1
102
RTVSPropertyOp42
 70
     1
102
RTVSPropertyOp43
 70
     1
102
RTVSPropertyOp44
 70
     1
102
RTVSPropertyOp45
 70
     1
102
RTVSPropertyOp46
 70
     1
102
RTVSPropertyOp47
 70
     1
102
RTVSPropertyOp48
 70
     1
102
RTVSPropertyOp49
 70
     1
102
RTVSPropertyOp50
 70
     1
102
RTVSPropertyOp51
 70
     0
102
RTVSPropertyOp52
 70
     0
102
RTVSPropertyOp53
 70
     1
102
RTVSPropertyOp54
 70
     1
102
RTVSPropertyOp55
 70
     1
102
RTVSPropertyOp56
 70
     1
102
RTVSPropertyOp57
 70
     1
102
RTVSPost2010Prop28
280
     0
102
RTVSPost2010PropOp28
 70
     1
102
RTVSPost2010Prop29
280
     1
102
RTVSPost2010PropOp29
 70
     1
102
RTVSPost2010Prop30
280
     1
102
RTVSPost2010PropOp30
 70
     1
102
RTVSPost2010Prop31
280
     0
102
RTVSPost2010PropOp31
 70
     1
102
RTVSPost2010Prop32
280
     0
102
RTVSPost2010PropOp32
 70
     1
102
RTVSPost2010Prop33
280
     0
102
RTVSPost2010PropOp33
 70
     1
102
RTVSPost2010Prop34
280
     0
102
RTVSPost2010PropOp34
 70
     1
102
RTVSPost2010Prop35
280
     0
102
RTVSPost2010PropOp35
 70
     1
102
RTVSPost2010Prop36
280
     0
102
RTVSPost2010PropOp36
 70
     1
102
RTVSPost2010Prop37
 90
       50
102
RTVSPost2010PropOp37
 70
     1
102
RTVSPost2010Prop38
140
0.0
102
RTVSPost2010PropOp38
 70
     1
102
RTVSPost2010Prop39
140
1.0
102
RTVSPost2010PropOp39
 70
     1
102
RTVSPost2010Prop40
 90
        0
102
RTVSPost2010PropOp40
 70
     1
102
RTVSPost2010Prop41ColorIndex
 90
       18
102
RTVSPost2010Prop41ColorRGB
 90
        0
102
RTVSPost2010PropOp41
 70
     1
102
RTVSPost2010Prop42
 90
       50
102
RTVSPost2010PropOp42
 70
     1
102
RTVSPost2010Prop43
 90
        3
102
RTVSPost2010PropOp43
 70
     1
102
RTVSPost2010Prop44ColorIndex
 90
        5
102
RTVSPost2010Prop44ColorRGB
 90
      255
102
RTVSPost2010PropOp44
 70
     1
102
RTVSPost2010Prop45
280
     0
102
RTVSPost2010PropOp45
 70
     1
102
RTVSPost2010Prop46
 90
       50
102
RTVSPost2010PropOp46
 70
     1
102
RTVSPost2010Prop47
 90
       50
102
RTVSPost2010PropOp47
 70
     1
102
RTVSPost2010Prop48
 90
       50
102
RTVSPost2010PropOp48
 70
     1
102
RTVSPost2010Prop49
280
     0
102
RTVSPost2010PropOp49
 70
     1
102
RTVSPost2010Prop50
 90
       50
102
RTVSPost2010PropOp50
 70
     1
102
RTVSPost2010Prop51ColorIndex
 90
      256
102
RTVSPost2010Prop51ColorRGB
 90
-16777216
102
RTVSPost2010PropOp51
 70
     0
102
RTVSPost2010Prop52
140
1.0
102
RTVSPost2010PropOp52
 70
     0
102
RTVSPost2010Prop53
 90
        2
102
RTVSPost2010PropOp53
 70
     1
102
RTVSPost2010Prop54
  1
strokes_ogs.tif
102
RTVSPost2010PropOp54
 70
     1
102
RTVSPost2010Prop55
280
     0
102
RTVSPost2010PropOp55
 70
     1
102
RTVSPost2010Prop56
140
1.0
102
RTVSPost2010PropOp56
 70
     1
102
RTVSPost2010Prop57
140
1.0
102
RTVSPost2010PropOp57
 70
     1
  0
XRECORD
  5
817
102
{ACAD_REACTORS
330
816
102
}
330
816
100
AcDbXrecord
280
     1
102
RTVSPropertyOp0
 70
     1
102
RTVSPropertyOp1
 70
     1
102
RTVSPropertyOp2
 70
     1
102
RTVSPropertyOp3
 70
     1
102
RTVSPropertyOp4
 70
     1
102
RTVSPropertyOp5
 70
     1
102
RTVSPropertyOp6
 70
     1
102
RTVSPropertyOp7
 70
     1
102
RTVSPropertyOp8
 70
     1
102
RTVSPropertyOp9
 70
     1
102
RTVSPropertyOp10
 70
     1
102
RTVSPropertyOp11
 70
     1
102
RTVSPropertyOp12
 70
     1
102
RTVSPropertyOp13
 70
     1
102
RTVSPropertyOp14
 70
     1
102
RTVSPropertyOp15
 70
     1
102
RTVSPropertyOp16
 70
     1
102
RTVSPropertyOp17
 70
     1
102
RTVSPropertyOp18
 70
     1
102
RTVSPropertyOp19
 70
     1
102
RTVSPropertyOp20
 70
     1
102
RTVSPropertyOp21
 70
     1
102
RTVSPropertyOp22
 70
     1
102
RTVSPropertyOp23
 70
     1
102
RTVSPropertyOp24
 70
     1
102
RTVSPropertyOp25
 70
     1
102
RTVSPropertyOp26
 70
     1
102
RTVSPropertyOp27
 70
     1
102
RTVSPropertyOp28
 70
     1
102
RTVSPropertyOp29
 70
     1
102
RTVSPropertyOp30
 70
     1
102
RTVSPropertyOp31
 70
     1
102
RTVSPropertyOp32
 70
     1
102
RTVSPropertyOp33
 70
     1
102
RTVSPropertyOp34
 70
     1
102
RTVSPropertyOp35
 70
     1
102
RTVSPropertyOp36
 70
     1
102
RTVSPropertyOp37
 70
     1
102
RTVSPropertyOp38
 70
     1
102
RTVSPropertyOp39
 70
     1
102
RTVSPropertyOp40
 70
     1
102
RTVSPropertyOp41
 70
     1
102
RTVSPropertyOp42
 70
     1
102
RTVSPropertyOp43
 70
     1
102
RTVSPropertyOp44
 70
     1
102
RTVSPropertyOp45
 70
     1
102
RTVSPropertyOp46
 70
     1
102
RTVSPropertyOp47
 70
     1
102
RTVSPropertyOp48
 70
     1
102
RTVSPropertyOp49
 70
     1
102
RTVSPropertyOp50
 70
     1
102
RTVSPropertyOp51
 70
     0
102
RTVSPropertyOp52
 70
     0
102
RTVSPropertyOp53
 70
     1
102
RTVSPropertyOp54
 70
     1
102
RTVSPropertyOp55
 70
     1
102
RTVSPropertyOp56
 70
     1
102
RTVSPropertyOp57
 70
     1
102
RTVSPost2010Prop28
280
     0
102
RTVSPost2010PropOp28
 70
     1
102
RTVSPost2010Prop29
280
     1
102
RTVSPost2010PropOp29
 70
     1
102
RTVSPost2010Prop30
280
     1
102
RTVSPost2010PropOp30
 70
     1
102
RTVSPost2010Prop31
280
     0
102
RTVSPost2010PropOp31
 70
     1
102
RTVSPost2010Prop32
280
     0
102
RTVSPost2010PropOp32
 70
     1
102
RTVSPost2010Prop33
280
     0
102
RTVSPost2010PropOp33
 70
     1
102
RTVSPost2010Prop34
280
     0
102
RTVSPost2010PropOp34
 70
     1
102
RTVSPost2010Prop35
280
     0
102
RTVSPost2010PropOp35
 70
     1
102
RTVSPost2010Prop36
280
     0
102
RTVSPost2010PropOp36
 70
     1
102
RTVSPost2010Prop37
 90
       50
102
RTVSPost2010PropOp37
 70
     1
102
RTVSPost2010Prop38
140
0.0
102
RTVSPost2010PropOp38
 70
     1
102
RTVSPost2010Prop39
140
1.0
102
RTVSPost2010PropOp39
 70
     1
102
RTVSPost2010Prop40
 90
        0
102
RTVSPost2010PropOp40
 70
     1
102
RTVSPost2010Prop41ColorIndex
 90
       18
102
RTVSPost2010Prop41ColorRGB
 90
        0
102
RTVSPost2010PropOp41
 70
     1
102
RTVSPost2010Prop42
 90
       50
102
RTVSPost2010PropOp42
 70
     1
102
RTVSPost2010Prop43
 90
        3
102
RTVSPost2010PropOp43
 70
     1
102
RTVSPost2010Prop44ColorIndex
 90
        5
102
RTVSPost2010Prop44ColorRGB
 90
      255
102
RTVSPost2010PropOp44
 70
     1
102
RTVSPost2010Prop45
280
     0
102
RTVSPost2010PropOp45
 70
     1
102
RTVSPost2010Prop46
 90
       50
102
RTVSPost2010PropOp46
 70
     1
102
RTVSPost2010Prop47
 90
       50
102
RTVSPost2010PropOp47
 70
     1
102
RTVSPost2010Prop48
 90
       50
102
RTVSPost2010PropOp48
 70
     1
102
RTVSPost2010Prop49
280
     0
102
RTVSPost2010PropOp49
 70
     1
102
RTVSPost2010Prop50
 90
       50
102
RTVSPost2010PropOp50
 70
     1
102
RTVSPost2010Prop51ColorIndex
 90
      256
102
RTVSPost2010Prop51ColorRGB
 90
-16777216
102
RTVSPost2010PropOp51
 70
     0
102
RTVSPost2010Prop52
140
1.0
102
RTVSPost2010PropOp52
 70
     0
102
RTVSPost2010Prop53
 90
        2
102
RTVSPost2010PropOp53
 70
     1
102
RTVSPost2010Prop54
  1
strokes_ogs.tif
102
RTVSPost2010PropOp54
 70
     1
102
RTVSPost2010Prop55
280
     0
102
RTVSPost2010PropOp55
 70
     1
102
RTVSPost2010Prop56
140
1.0
102
RTVSPost2010PropOp56
 70
     1
102
RTVSPost2010Prop57
140
1.0
102
RTVSPost2010PropOp57
 70
     1
  0
XRECORD
  5
81F
102
{ACAD_REACTORS
330
81E
102
}
330
81E
100
AcDbXrecord
280
     1
102
RTVSPropertyOp0
 70
     1
102
RTVSPropertyOp1
 70
     1
102
RTVSPropertyOp2
 70
     1
102
RTVSPropertyOp3
 70
     1
102
RTVSPropertyOp4
 70
     1
102
RTVSPropertyOp5
 70
     1
102
RTVSPropertyOp6
 70
     1
102
RTVSPropertyOp7
 70
     1
102
RTVSPropertyOp8
 70
     1
102
RTVSPropertyOp9
 70
     1
102
RTVSPropertyOp10
 70
     1
102
RTVSPropertyOp11
 70
     1
102
RTVSPropertyOp12
 70
     1
102
RTVSPropertyOp13
 70
     1
102
RTVSPropertyOp14
 70
     1
102
RTVSPropertyOp15
 70
     1
102
RTVSPropertyOp16
 70
     1
102
RTVSPropertyOp17
 70
     1
102
RTVSPropertyOp18
 70
     1
102
RTVSPropertyOp19
 70
     1
102
RTVSPropertyOp20
 70
     1
102
RTVSPropertyOp21
 70
     1
102
RTVSPropertyOp22
 70
     1
102
RTVSPropertyOp23
 70
     1
102
RTVSPropertyOp24
 70
     1
102
RTVSPropertyOp25
 70
     1
102
RTVSPropertyOp26
 70
     1
102
RTVSPropertyOp27
 70
     1
102
RTVSPropertyOp28
 70
     1
102
RTVSPropertyOp29
 70
     1
102
RTVSPropertyOp30
 70
     1
102
RTVSPropertyOp31
 70
     1
102
RTVSPropertyOp32
 70
     1
102
RTVSPropertyOp33
 70
     1
102
RTVSPropertyOp34
 70
     1
102
RTVSPropertyOp35
 70
     1
102
RTVSPropertyOp36
 70
     1
102
RTVSPropertyOp37
 70
     1
102
RTVSPropertyOp38
 70
     1
102
RTVSPropertyOp39
 70
     1
102
RTVSPropertyOp40
 70
     1
102
RTVSPropertyOp41
 70
     1
102
RTVSPropertyOp42
 70
     1
102
RTVSPropertyOp43
 70
     1
102
RTVSPropertyOp44
 70
     1
102
RTVSPropertyOp45
 70
     1
102
RTVSPropertyOp46
 70
     1
102
RTVSPropertyOp47
 70
     1
102
RTVSPropertyOp48
 70
     1
102
RTVSPropertyOp49
 70
     1
102
RTVSPropertyOp50
 70
     1
102
RTVSPropertyOp51
 70
     0
102
RTVSPropertyOp52
 70
     0
102
RTVSPropertyOp53
 70
     1
102
RTVSPropertyOp54
 70
     1
102
RTVSPropertyOp55
 70
     1
102
RTVSPropertyOp56
 70
     1
102
RTVSPropertyOp57
 70
     1
102
RTVSPost2010Prop28
280
     0
102
RTVSPost2010PropOp28
 70
     1
102
RTVSPost2010Prop29
280
     1
102
RTVSPost2010PropOp29
 70
     1
102
RTVSPost2010Prop30
280
     1
102
RTVSPost2010PropOp30
 70
     1
102
RTVSPost2010Prop31
280
     0
102
RTVSPost2010PropOp31
 70
     1
102
RTVSPost2010Prop32
280
     0
102
RTVSPost2010PropOp32
 70
     1
102
RTVSPost2010Prop33
280
     0
102
RTVSPost2010PropOp33
 70
     1
102
RTVSPost2010Prop34
280
     0
102
RTVSPost2010PropOp34
 70
     1
102
RTVSPost2010Prop35
280
     0
102
RTVSPost2010PropOp35
 70
     1
102
RTVSPost2010Prop36
280
     0
102
RTVSPost2010PropOp36
 70
     1
102
RTVSPost2010Prop37
 90
       50
102
RTVSPost2010PropOp37
 70
     1
102
RTVSPost2010Prop38
140
0.0
102
RTVSPost2010PropOp38
 70
     1
102
RTVSPost2010Prop39
140
1.0
102
RTVSPost2010PropOp39
 70
     1
102
RTVSPost2010Prop40
 90
        0
102
RTVSPost2010PropOp40
 70
     1
102
RTVSPost2010Prop41ColorIndex
 90
       18
102
RTVSPost2010Prop41ColorRGB
 90
        0
102
RTVSPost2010PropOp41
 70
     1
102
RTVSPost2010Prop42
 90
       50
102
RTVSPost2010PropOp42
 70
     1
102
RTVSPost2010Prop43
 90
        3
102
RTVSPost2010PropOp43
 70
     1
102
RTVSPost2010Prop44ColorIndex
 90
        5
102
RTVSPost2010Prop44ColorRGB
 90
      255
102
RTVSPost2010PropOp44
 70
     1
102
RTVSPost2010Prop45
280
     0
102
RTVSPost2010PropOp45
 70
     1
102
RTVSPost2010Prop46
 90
       50
102
RTVSPost2010PropOp46
 70
     1
102
RTVSPost2010Prop47
 90
       50
102
RTVSPost2010PropOp47
 70
     1
102
RTVSPost2010Prop48
 90
       50
102
RTVSPost2010PropOp48
 70
     1
102
RTVSPost2010Prop49
280
     0
102
RTVSPost2010PropOp49
 70
     1
102
RTVSPost2010Prop50
 90
       50
102
RTVSPost2010PropOp50
 70
     1
102
RTVSPost2010Prop51ColorIndex
 90
      256
102
RTVSPost2010Prop51ColorRGB
 90
-16777216
102
RTVSPost2010PropOp51
 70
     0
102
RTVSPost2010Prop52
140
1.0
102
RTVSPost2010PropOp52
 70
     0
102
RTVSPost2010Prop53
 90
        2
102
RTVSPost2010PropOp53
 70
     1
102
RTVSPost2010Prop54
  1
strokes_ogs.tif
102
RTVSPost2010PropOp54
 70
     1
102
RTVSPost2010Prop55
280
     0
102
RTVSPost2010PropOp55
 70
     1
102
RTVSPost2010Prop56
140
1.0
102
RTVSPost2010PropOp56
 70
     1
102
RTVSPost2010Prop57
140
1.0
102
RTVSPost2010PropOp57
 70
     1
  0
XRECORD
  5
813
102
{ACAD_REACTORS
330
812
102
}
330
812
100
AcDbXrecord
280
     1
102
RTVSPropertyOp0
 70
     1
102
RTVSPropertyOp1
 70
     1
102
RTVSPropertyOp2
 70
     1
102
RTVSPropertyOp3
 70
     1
102
RTVSPropertyOp4
 70
     1
102
RTVSPropertyOp5
 70
     1
102
RTVSPropertyOp6
 70
     1
102
RTVSPropertyOp7
 70
     1
102
RTVSPropertyOp8
 70
     1
102
RTVSPropertyOp9
 70
     1
102
RTVSPropertyOp10
 70
     1
102
RTVSPropertyOp11
 70
     1
102
RTVSPropertyOp12
 70
     1
102
RTVSPropertyOp13
 70
     1
102
RTVSPropertyOp14
 70
     1
102
RTVSPropertyOp15
 70
     1
102
RTVSPropertyOp16
 70
     1
102
RTVSPropertyOp17
 70
     1
102
RTVSPropertyOp18
 70
     1
102
RTVSPropertyOp19
 70
     1
102
RTVSPropertyOp20
 70
     1
102
RTVSPropertyOp21
 70
     1
102
RTVSPropertyOp22
 70
     1
102
RTVSPropertyOp23
 70
     1
102
RTVSPropertyOp24
 70
     1
102
RTVSPropertyOp25
 70
     1
102
RTVSPropertyOp26
 70
     1
102
RTVSPropertyOp27
 70
     1
102
RTVSPropertyOp28
 70
     1
102
RTVSPropertyOp29
 70
     1
102
RTVSPropertyOp30
 70
     1
102
RTVSPropertyOp31
 70
     1
102
RTVSPropertyOp32
 70
     1
102
RTVSPropertyOp33
 70
     1
102
RTVSPropertyOp34
 70
     1
102
RTVSPropertyOp35
 70
     1
102
RTVSPropertyOp36
 70
     1
102
RTVSPropertyOp37
 70
     1
102
RTVSPropertyOp38
 70
     1
102
RTVSPropertyOp39
 70
     1
102
RTVSPropertyOp40
 70
     1
102
RTVSPropertyOp41
 70
     1
102
RTVSPropertyOp42
 70
     1
102
RTVSPropertyOp43
 70
     1
102
RTVSPropertyOp44
 70
     1
102
RTVSPropertyOp45
 70
     1
102
RTVSPropertyOp46
 70
     1
102
RTVSPropertyOp47
 70
     1
102
RTVSPropertyOp48
 70
     1
102
RTVSPropertyOp49
 70
     1
102
RTVSPropertyOp50
 70
     1
102
RTVSPropertyOp51
 70
     0
102
RTVSPropertyOp52
 70
     0
102
RTVSPropertyOp53
 70
     1
102
RTVSPropertyOp54
 70
     1
102
RTVSPropertyOp55
 70
     1
102
RTVSPropertyOp56
 70
     1
102
RTVSPropertyOp57
 70
     1
102
RTVSPost2010Prop28
280
     0
102
RTVSPost2010PropOp28
 70
     1
102
RTVSPost2010Prop29
280
     1
102
RTVSPost2010PropOp29
 70
     1
102
RTVSPost2010Prop30
280
     1
102
RTVSPost2010PropOp30
 70
     1
102
RTVSPost2010Prop31
280
     0
102
RTVSPost2010PropOp31
 70
     1
102
RTVSPost2010Prop32
280
     0
102
RTVSPost2010PropOp32
 70
     1
102
RTVSPost2010Prop33
280
     0
102
RTVSPost2010PropOp33
 70
     1
102
RTVSPost2010Prop34
280
     0
102
RTVSPost2010PropOp34
 70
     1
102
RTVSPost2010Prop35
280
     0
102
RTVSPost2010PropOp35
 70
     1
102
RTVSPost2010Prop36
280
     0
102
RTVSPost2010PropOp36
 70
     1
102
RTVSPost2010Prop37
 90
       50
102
RTVSPost2010PropOp37
 70
     1
102
RTVSPost2010Prop38
140
0.0
102
RTVSPost2010PropOp38
 70
     1
102
RTVSPost2010Prop39
140
1.0
102
RTVSPost2010PropOp39
 70
     1
102
RTVSPost2010Prop40
 90
        0
102
RTVSPost2010PropOp40
 70
     1
102
RTVSPost2010Prop41ColorIndex
 90
       18
102
RTVSPost2010Prop41ColorRGB
 90
        0
102
RTVSPost2010PropOp41
 70
     1
102
RTVSPost2010Prop42
 90
       50
102
RTVSPost2010PropOp42
 70
     1
102
RTVSPost2010Prop43
 90
        3
102
RTVSPost2010PropOp43
 70
     1
102
RTVSPost2010Prop44ColorIndex
 90
        5
102
RTVSPost2010Prop44ColorRGB
 90
      255
102
RTVSPost2010PropOp44
 70
     1
102
RTVSPost2010Prop45
280
     0
102
RTVSPost2010PropOp45
 70
     1
102
RTVSPost2010Prop46
 90
       50
102
RTVSPost2010PropOp46
 70
     1
102
RTVSPost2010Prop47
 90
       50
102
RTVSPost2010PropOp47
 70
     1
102
RTVSPost2010Prop48
 90
       50
102
RTVSPost2010PropOp48
 70
     1
102
RTVSPost2010Prop49
280
     0
102
RTVSPost2010PropOp49
 70
     1
102
RTVSPost2010Prop50
 90
       50
102
RTVSPost2010PropOp50
 70
     1
102
RTVSPost2010Prop51ColorIndex
 90
      256
102
RTVSPost2010Prop51ColorRGB
 90
-16777216
102
RTVSPost2010PropOp51
 70
     0
102
RTVSPost2010Prop52
140
1.0
102
RTVSPost2010PropOp52
 70
     0
102
RTVSPost2010Prop53
 90
        2
102
RTVSPost2010PropOp53
 70
     1
102
RTVSPost2010Prop54
  1
strokes_ogs.tif
102
RTVSPost2010PropOp54
 70
     1
102
RTVSPost2010Prop55
280
     0
102
RTVSPost2010PropOp55
 70
     1
102
RTVSPost2010Prop56
140
1.0
102
RTVSPost2010PropOp56
 70
     1
102
RTVSPost2010Prop57
140
1.0
102
RTVSPost2010PropOp57
 70
     1
  0
XRECORD
  5
815
102
{ACAD_REACTORS
330
814
102
}
330
814
100
AcDbXrecord
280
     1
102
RTVSPropertyOp0
 70
     1
102
RTVSPropertyOp1
 70
     1
102
RTVSPropertyOp2
 70
     1
102
RTVSPropertyOp3
 70
     1
102
RTVSPropertyOp4
 70
     1
102
RTVSPropertyOp5
 70
     1
102
RTVSPropertyOp6
 70
     1
102
RTVSPropertyOp7
 70
     1
102
RTVSPropertyOp8
 70
     1
102
RTVSPropertyOp9
 70
     1
102
RTVSPropertyOp10
 70
     1
102
RTVSPropertyOp11
 70
     1
102
RTVSPropertyOp12
 70
     1
102
RTVSPropertyOp13
 70
     1
102
RTVSPropertyOp14
 70
     1
102
RTVSPropertyOp15
 70
     1
102
RTVSPropertyOp16
 70
     1
102
RTVSPropertyOp17
 70
     1
102
RTVSPropertyOp18
 70
     1
102
RTVSPropertyOp19
 70
     1
102
RTVSPropertyOp20
 70
     1
102
RTVSPropertyOp21
 70
     1
102
RTVSPropertyOp22
 70
     1
102
RTVSPropertyOp23
 70
     1
102
RTVSPropertyOp24
 70
     1
102
RTVSPropertyOp25
 70
     1
102
RTVSPropertyOp26
 70
     1
102
RTVSPropertyOp27
 70
     1
102
RTVSPropertyOp28
 70
     1
102
RTVSPropertyOp29
 70
     1
102
RTVSPropertyOp30
 70
     1
102
RTVSPropertyOp31
 70
     1
102
RTVSPropertyOp32
 70
     1
102
RTVSPropertyOp33
 70
     1
102
RTVSPropertyOp34
 70
     1
102
RTVSPropertyOp35
 70
     1
102
RTVSPropertyOp36
 70
     1
102
RTVSPropertyOp37
 70
     1
102
RTVSPropertyOp38
 70
     1
102
RTVSPropertyOp39
 70
     1
102
RTVSPropertyOp40
 70
     1
102
RTVSPropertyOp41
 70
     1
102
RTVSPropertyOp42
 70
     1
102
RTVSPropertyOp43
 70
     1
102
RTVSPropertyOp44
 70
     1
102
RTVSPropertyOp45
 70
     1
102
RTVSPropertyOp46
 70
     1
102
RTVSPropertyOp47
 70
     1
102
RTVSPropertyOp48
 70
     1
102
RTVSPropertyOp49
 70
     1
102
RTVSPropertyOp50
 70
     1
102
RTVSPropertyOp51
 70
     0
102
RTVSPropertyOp52
 70
     0
102
RTVSPropertyOp53
 70
     1
102
RTVSPropertyOp54
 70
     1
102
RTVSPropertyOp55
 70
     1
102
RTVSPropertyOp56
 70
     1
102
RTVSPropertyOp57
 70
     1
102
RTVSPost2010Prop28
280
     0
102
RTVSPost2010PropOp28
 70
     1
102
RTVSPost2010Prop29
280
     1
102
RTVSPost2010PropOp29
 70
     1
102
RTVSPost2010Prop30
280
     1
102
RTVSPost2010PropOp30
 70
     1
102
RTVSPost2010Prop31
280
     0
102
RTVSPost2010PropOp31
 70
     1
102
RTVSPost2010Prop32
280
     0
102
RTVSPost2010PropOp32
 70
     1
102
RTVSPost2010Prop33
280
     0
102
RTVSPost2010PropOp33
 70
     1
102
RTVSPost2010Prop34
280
     0
102
RTVSPost2010PropOp34
 70
     1
102
RTVSPost2010Prop35
280
     0
102
RTVSPost2010PropOp35
 70
     1
102
RTVSPost2010Prop36
280
     0
102
RTVSPost2010PropOp36
 70
     1
102
RTVSPost2010Prop37
 90
       50
102
RTVSPost2010PropOp37
 70
     1
102
RTVSPost2010Prop38
140
0.0
102
RTVSPost2010PropOp38
 70
     1
102
RTVSPost2010Prop39
140
1.0
102
RTVSPost2010PropOp39
 70
     1
102
RTVSPost2010Prop40
 90
        0
102
RTVSPost2010PropOp40
 70
     1
102
RTVSPost2010Prop41ColorIndex
 90
       18
102
RTVSPost2010Prop41ColorRGB
 90
        0
102
RTVSPost2010PropOp41
 70
     1
102
RTVSPost2010Prop42
 90
       50
102
RTVSPost2010PropOp42
 70
     1
102
RTVSPost2010Prop43
 90
        3
102
RTVSPost2010PropOp43
 70
     1
102
RTVSPost2010Prop44ColorIndex
 90
        5
102
RTVSPost2010Prop44ColorRGB
 90
      255
102
RTVSPost2010PropOp44
 70
     1
102
RTVSPost2010Prop45
280
     0
102
RTVSPost2010PropOp45
 70
     1
102
RTVSPost2010Prop46
 90
       50
102
RTVSPost2010PropOp46
 70
     1
102
RTVSPost2010Prop47
 90
       50
102
RTVSPost2010PropOp47
 70
     1
102
RTVSPost2010Prop48
 90
       50
102
RTVSPost2010PropOp48
 70
     1
102
RTVSPost2010Prop49
280
     0
102
RTVSPost2010PropOp49
 70
     1
102
RTVSPost2010Prop50
 90
       50
102
RTVSPost2010PropOp50
 70
     1
102
RTVSPost2010Prop51ColorIndex
 90
      256
102
RTVSPost2010Prop51ColorRGB
 90
-16777216
102
RTVSPost2010PropOp51
 70
     0
102
RTVSPost2010Prop52
140
1.0
102
RTVSPost2010PropOp52
 70
     0
102
RTVSPost2010Prop53
 90
        2
102
RTVSPost2010PropOp53
 70
     1
102
RTVSPost2010Prop54
  1
strokes_ogs.tif
102
RTVSPost2010PropOp54
 70
     1
102
RTVSPost2010Prop55
280
     0
102
RTVSPost2010PropOp55
 70
     1
102
RTVSPost2010Prop56
140
1.0
102
RTVSPost2010PropOp56
 70
     1
102
RTVSPost2010Prop57
140
1.0
102
RTVSPost2010PropOp57
 70
     1
  0
XRECORD
  5
825
102
{ACAD_REACTORS
330
824
102
}
330
824
100
AcDbXrecord
280
     1
102
RTVSPropertyOp0
 70
     0
102
RTVSPropertyOp1
 70
     0
102
RTVSPropertyOp2
 70
     0
102
RTVSPropertyOp3
 70
     0
102
RTVSPropertyOp4
 70
     0
102
RTVSPropertyOp5
 70
     0
102
RTVSPropertyOp6
 70
     0
102
RTVSPropertyOp7
 70
     0
102
RTVSPropertyOp8
 70
     0
102
RTVSPropertyOp9
 70
     0
102
RTVSPropertyOp10
 70
     0
102
RTVSPropertyOp11
 70
     0
102
RTVSPropertyOp12
 70
     0
102
RTVSPropertyOp13
 70
     0
102
RTVSPropertyOp14
 70
     2
102
RTVSPropertyOp15
 70
     0
102
RTVSPropertyOp16
 70
     0
102
RTVSPropertyOp17
 70
     0
102
RTVSPropertyOp18
 70
     0
102
RTVSPropertyOp19
 70
     0
102
RTVSPropertyOp20
 70
     0
102
RTVSPropertyOp21
 70
     0
102
RTVSPropertyOp22
 70
     0
102
RTVSPropertyOp23
 70
     0
102
RTVSPropertyOp24
 70
     0
102
RTVSPropertyOp25
 70
     0
102
RTVSPropertyOp26
 70
     0
102
RTVSPropertyOp27
 70
     0
102
RTVSPropertyOp28
 70
     0
102
RTVSPropertyOp29
 70
     0
102
RTVSPropertyOp30
 70
     0
102
RTVSPropertyOp31
 70
     0
102
RTVSPropertyOp32
 70
     0
102
RTVSPropertyOp33
 70
     0
102
RTVSPropertyOp34
 70
     0
102
RTVSPropertyOp35
 70
     0
102
RTVSPropertyOp36
 70
     0
102
RTVSPropertyOp37
 70
     0
102
RTVSPropertyOp38
 70
     0
102
RTVSPropertyOp39
 70
     0
102
RTVSPropertyOp40
 70
     0
102
RTVSPropertyOp41
 70
     0
102
RTVSPropertyOp42
 70
     0
102
RTVSPropertyOp43
 70
     0
102
RTVSPropertyOp44
 70
     0
102
RTVSPropertyOp45
 70
     0
102
RTVSPropertyOp46
 70
     0
102
RTVSPropertyOp47
 70
     0
102
RTVSPropertyOp48
 70
     0
102
RTVSPropertyOp49
 70
     0
102
RTVSPropertyOp50
 70
     0
102
RTVSPropertyOp51
 70
     0
102
RTVSPropertyOp52
 70
     0
102
RTVSPropertyOp53
 70
     0
102
RTVSPropertyOp54
 70
     0
102
RTVSPropertyOp55
 70
     0
102
RTVSPropertyOp56
 70
     0
102
RTVSPropertyOp57
 70
     0
102
RTVSPost2010Prop28
280
     0
102
RTVSPost2010PropOp28
 70
     0
102
RTVSPost2010Prop29
280
     1
102
RTVSPost2010PropOp29
 70
     0
102
RTVSPost2010Prop30
280
     1
102
RTVSPost2010PropOp30
 70
     0
102
RTVSPost2010Prop31
280
     0
102
RTVSPost2010PropOp31
 70
     0
102
RTVSPost2010Prop32
280
     0
102
RTVSPost2010PropOp32
 70
     0
102
RTVSPost2010Prop33
280
     0
102
RTVSPost2010PropOp33
 70
     0
102
RTVSPost2010Prop34
280
     0
102
RTVSPost2010PropOp34
 70
     0
102
RTVSPost2010Prop35
280
     0
102
RTVSPost2010PropOp35
 70
     0
102
RTVSPost2010Prop36
280
     0
102
RTVSPost2010PropOp36
 70
     0
102
RTVSPost2010Prop37
 90
       50
102
RTVSPost2010PropOp37
 70
     0
102
RTVSPost2010Prop38
140
0.0
102
RTVSPost2010PropOp38
 70
     0
102
RTVSPost2010Prop39
140
1.0
102
RTVSPost2010PropOp39
 70
     0
102
RTVSPost2010Prop40
 90
        0
102
RTVSPost2010PropOp40
 70
     0
102
RTVSPost2010Prop41ColorIndex
 90
       18
102
RTVSPost2010Prop41ColorRGB
 90
        0
102
RTVSPost2010PropOp41
 70
     0
102
RTVSPost2010Prop42
 90
       50
102
RTVSPost2010PropOp42
 70
     0
102
RTVSPost2010Prop43
 90
        3
102
RTVSPost2010PropOp43
 70
     0
102
RTVSPost2010Prop44ColorIndex
 90
        5
102
RTVSPost2010Prop44ColorRGB
 90
      255
102
RTVSPost2010PropOp44
 70
     0
102
RTVSPost2010Prop45
280
     0
102
RTVSPost2010PropOp45
 70
     0
102
RTVSPost2010Prop46
 90
       50
102
RTVSPost2010PropOp46
 70
     0
102
RTVSPost2010Prop47
 90
       50
102
RTVSPost2010PropOp47
 70
     0
102
RTVSPost2010Prop48
 90
       50
102
RTVSPost2010PropOp48
 70
     0
102
RTVSPost2010Prop49
280
     0
102
RTVSPost2010PropOp49
 70
     0
102
RTVSPost2010Prop50
 90
       50
102
RTVSPost2010PropOp50
 70
     0
102
RTVSPost2010Prop51ColorIndex
 90
      256
102
RTVSPost2010Prop51ColorRGB
 90
-16777216
102
RTVSPost2010PropOp51
 70
     0
102
RTVSPost2010Prop52
140
1.0
102
RTVSPost2010PropOp52
 70
     0
102
RTVSPost2010Prop53
 90
        2
102
RTVSPost2010PropOp53
 70
     0
102
RTVSPost2010Prop54
  1
strokes_ogs.tif
102
RTVSPost2010PropOp54
 70
     0
102
RTVSPost2010Prop55
280
     0
102
RTVSPost2010PropOp55
 70
     0
102
RTVSPost2010Prop56
140
1.0
102
RTVSPost2010PropOp56
 70
     0
102
RTVSPost2010Prop57
140
1.0
102
RTVSPost2010PropOp57
 70
     0
  0
XRECORD
  5
81D
102
{ACAD_REACTORS
330
81C
102
}
330
81C
100
AcDbXrecord
280
     1
102
RTVSPropertyOp0
 70
     1
102
RTVSPropertyOp1
 70
     1
102
RTVSPropertyOp2
 70
     1
102
RTVSPropertyOp3
 70
     1
102
RTVSPropertyOp4
 70
     1
102
RTVSPropertyOp5
 70
     1
102
RTVSPropertyOp6
 70
     1
102
RTVSPropertyOp7
 70
     1
102
RTVSPropertyOp8
 70
     1
102
RTVSPropertyOp9
 70
     1
102
RTVSPropertyOp10
 70
     1
102
RTVSPropertyOp11
 70
     1
102
RTVSPropertyOp12
 70
     1
102
RTVSPropertyOp13
 70
     1
102
RTVSPropertyOp14
 70
     1
102
RTVSPropertyOp15
 70
     1
102
RTVSPropertyOp16
 70
     1
102
RTVSPropertyOp17
 70
     1
102
RTVSPropertyOp18
 70
     1
102
RTVSPropertyOp19
 70
     1
102
RTVSPropertyOp20
 70
     1
102
RTVSPropertyOp21
 70
     1
102
RTVSPropertyOp22
 70
     1
102
RTVSPropertyOp23
 70
     1
102
RTVSPropertyOp24
 70
     1
102
RTVSPropertyOp25
 70
     1
102
RTVSPropertyOp26
 70
     1
102
RTVSPropertyOp27
 70
     1
102
RTVSPropertyOp28
 70
     1
102
RTVSPropertyOp29
 70
     1
102
RTVSPropertyOp30
 70
     1
102
RTVSPropertyOp31
 70
     1
102
RTVSPropertyOp32
 70
     1
102
RTVSPropertyOp33
 70
     1
102
RTVSPropertyOp34
 70
     1
102
RTVSPropertyOp35
 70
     1
102
RTVSPropertyOp36
 70
     1
102
RTVSPropertyOp37
 70
     1
102
RTVSPropertyOp38
 70
     1
102
RTVSPropertyOp39
 70
     1
102
RTVSPropertyOp40
 70
     1
102
RTVSPropertyOp41
 70
     1
102
RTVSPropertyOp42
 70
     1
102
RTVSPropertyOp43
 70
     1
102
RTVSPropertyOp44
 70
     1
102
RTVSPropertyOp45
 70
     1
102
RTVSPropertyOp46
 70
     1
102
RTVSPropertyOp47
 70
     1
102
RTVSPropertyOp48
 70
     1
102
RTVSPropertyOp49
 70
     1
102
RTVSPropertyOp50
 70
     1
102
RTVSPropertyOp51
 70
     0
102
RTVSPropertyOp52
 70
     0
102
RTVSPropertyOp53
 70
     1
102
RTVSPropertyOp54
 70
     1
102
RTVSPropertyOp55
 70
     1
102
RTVSPropertyOp56
 70
     1
102
RTVSPropertyOp57
 70
     1
102
RTVSPost2010Prop28
280
     0
102
RTVSPost2010PropOp28
 70
     1
102
RTVSPost2010Prop29
280
     1
102
RTVSPost2010PropOp29
 70
     1
102
RTVSPost2010Prop30
280
     1
102
RTVSPost2010PropOp30
 70
     1
102
RTVSPost2010Prop31
280
     0
102
RTVSPost2010PropOp31
 70
     1
102
RTVSPost2010Prop32
280
     0
102
RTVSPost2010PropOp32
 70
     1
102
RTVSPost2010Prop33
280
     0
102
RTVSPost2010PropOp33
 70
     1
102
RTVSPost2010Prop34
280
     0
102
RTVSPost2010PropOp34
 70
     1
102
RTVSPost2010Prop35
280
     0
102
RTVSPost2010PropOp35
 70
     1
102
RTVSPost2010Prop36
280
     0
102
RTVSPost2010PropOp36
 70
     1
102
RTVSPost2010Prop37
 90
       50
102
RTVSPost2010PropOp37
 70
     1
102
RTVSPost2010Prop38
140
0.0
102
RTVSPost2010PropOp38
 70
     1
102
RTVSPost2010Prop39
140
1.0
102
RTVSPost2010PropOp39
 70
     1
102
RTVSPost2010Prop40
 90
        0
102
RTVSPost2010PropOp40
 70
     1
102
RTVSPost2010Prop41ColorIndex
 90
       18
102
RTVSPost2010Prop41ColorRGB
 90
        0
102
RTVSPost2010PropOp41
 70
     1
102
RTVSPost2010Prop42
 90
       50
102
RTVSPost2010PropOp42
 70
     1
102
RTVSPost2010Prop43
 90
        3
102
RTVSPost2010PropOp43
 70
     1
102
RTVSPost2010Prop44ColorIndex
 90
        5
102
RTVSPost2010Prop44ColorRGB
 90
      255
102
RTVSPost2010PropOp44
 70
     1
102
RTVSPost2010Prop45
280
     0
102
RTVSPost2010PropOp45
 70
     1
102
RTVSPost2010Prop46
 90
       50
102
RTVSPost2010PropOp46
 70
     1
102
RTVSPost2010Prop47
 90
       50
102
RTVSPost2010PropOp47
 70
     1
102
RTVSPost2010Prop48
 90
       50
102
RTVSPost2010PropOp48
 70
     1
102
RTVSPost2010Prop49
280
     0
102
RTVSPost2010PropOp49
 70
     1
102
RTVSPost2010Prop50
 90
       50
102
RTVSPost2010PropOp50
 70
     1
102
RTVSPost2010Prop51ColorIndex
 90
      256
102
RTVSPost2010Prop51ColorRGB
 90
-16777216
102
RTVSPost2010PropOp51
 70
     0
102
RTVSPost2010Prop52
140
1.0
102
RTVSPost2010PropOp52
 70
     0
102
RTVSPost2010Prop53
 90
        2
102
RTVSPost2010PropOp53
 70
     1
102
RTVSPost2010Prop54
  1
strokes_ogs.tif
102
RTVSPost2010PropOp54
 70
     1
102
RTVSPost2010Prop55
280
     0
102
RTVSPost2010PropOp55
 70
     1
102
RTVSPost2010Prop56
140
1.0
102
RTVSPost2010PropOp56
 70
     1
102
RTVSPost2010Prop57
140
1.0
102
RTVSPost2010PropOp57
 70
     1
  0
XRECORD
  5
801
102
{ACAD_REACTORS
330
800
102
}
330
800
100
AcDbXrecord
280
     1
102
RTVSPropertyOp0
 70
     1
102
RTVSPropertyOp1
 70
     1
102
RTVSPropertyOp2
 70
     1
102
RTVSPropertyOp3
 70
     1
102
RTVSPropertyOp4
 70
     1
102
RTVSPropertyOp5
 70
     1
102
RTVSPropertyOp6
 70
     1
102
RTVSPropertyOp7
 70
     1
102
RTVSPropertyOp8
 70
     1
102
RTVSPropertyOp9
 70
     1
102
RTVSPropertyOp10
 70
     1
102
RTVSPropertyOp11
 70
     1
102
RTVSPropertyOp12
 70
     1
102
RTVSPropertyOp13
 70
     1
102
RTVSPropertyOp14
 70
     1
102
RTVSPropertyOp15
 70
     1
102
RTVSPropertyOp16
 70
     1
102
RTVSPropertyOp17
 70
     1
102
RTVSPropertyOp18
 70
     1
102
RTVSPropertyOp19
 70
     1
102
RTVSPropertyOp20
 70
     1
102
RTVSPropertyOp21
 70
     1
102
RTVSPropertyOp22
 70
     1
102
RTVSPropertyOp23
 70
     1
102
RTVSPropertyOp24
 70
     1
102
RTVSPropertyOp25
 70
     1
102
RTVSPropertyOp26
 70
     1
102
RTVSPropertyOp27
 70
     1
102
RTVSPropertyOp28
 70
     1
102
RTVSPropertyOp29
 70
     1
102
RTVSPropertyOp30
 70
     1
102
RTVSPropertyOp31
 70
     1
102
RTVSPropertyOp32
 70
     1
102
RTVSPropertyOp33
 70
     1
102
RTVSPropertyOp34
 70
     1
102
RTVSPropertyOp35
 70
     1
102
RTVSPropertyOp36
 70
     1
102
RTVSPropertyOp37
 70
     1
102
RTVSPropertyOp38
 70
     1
102
RTVSPropertyOp39
 70
     1
102
RTVSPropertyOp40
 70
     1
102
RTVSPropertyOp41
 70
     1
102
RTVSPropertyOp42
 70
     1
102
RTVSPropertyOp43
 70
     1
102
RTVSPropertyOp44
 70
     1
102
RTVSPropertyOp45
 70
     1
102
RTVSPropertyOp46
 70
     1
102
RTVSPropertyOp47
 70
     1
102
RTVSPropertyOp48
 70
     1
102
RTVSPropertyOp49
 70
     1
102
RTVSPropertyOp50
 70
     1
102
RTVSPropertyOp51
 70
     0
102
RTVSPropertyOp52
 70
     0
102
RTVSPropertyOp53
 70
     1
102
RTVSPropertyOp54
 70
     1
102
RTVSPropertyOp55
 70
     1
102
RTVSPropertyOp56
 70
     1
102
RTVSPropertyOp57
 70
     1
102
RTVSPost2010Prop28
280
     0
102
RTVSPost2010PropOp28
 70
     1
102
RTVSPost2010Prop29
280
     1
102
RTVSPost2010PropOp29
 70
     1
102
RTVSPost2010Prop30
280
     1
102
RTVSPost2010PropOp30
 70
     1
102
RTVSPost2010Prop31
280
     0
102
RTVSPost2010PropOp31
 70
     1
102
RTVSPost2010Prop32
280
     0
102
RTVSPost2010PropOp32
 70
     1
102
RTVSPost2010Prop33
280
     0
102
RTVSPost2010PropOp33
 70
     1
102
RTVSPost2010Prop34
280
     0
102
RTVSPost2010PropOp34
 70
     1
102
RTVSPost2010Prop35
280
     0
102
RTVSPost2010PropOp35
 70
     1
102
RTVSPost2010Prop36
280
     0
102
RTVSPost2010PropOp36
 70
     1
102
RTVSPost2010Prop37
 90
       50
102
RTVSPost2010PropOp37
 70
     1
102
RTVSPost2010Prop38
140
0.0
102
RTVSPost2010PropOp38
 70
     1
102
RTVSPost2010Prop39
140
1.0
102
RTVSPost2010PropOp39
 70
     1
102
RTVSPost2010Prop40
 90
        0
102
RTVSPost2010PropOp40
 70
     1
102
RTVSPost2010Prop41ColorIndex
 90
       18
102
RTVSPost2010Prop41ColorRGB
 90
        0
102
RTVSPost2010PropOp41
 70
     1
102
RTVSPost2010Prop42
 90
       50
102
RTVSPost2010PropOp42
 70
     1
102
RTVSPost2010Prop43
 90
        3
102
RTVSPost2010PropOp43
 70
     1
102
RTVSPost2010Prop44ColorIndex
 90
        5
102
RTVSPost2010Prop44ColorRGB
 90
      255
102
RTVSPost2010PropOp44
 70
     1
102
RTVSPost2010Prop45
280
     0
102
RTVSPost2010PropOp45
 70
     1
102
RTVSPost2010Prop46
 90
       50
102
RTVSPost2010PropOp46
 70
     1
102
RTVSPost2010Prop47
 90
       50
102
RTVSPost2010PropOp47
 70
     1
102
RTVSPost2010Prop48
 90
       50
102
RTVSPost2010PropOp48
 70
     1
102
RTVSPost2010Prop49
280
     0
102
RTVSPost2010PropOp49
 70
     1
102
RTVSPost2010Prop50
 90
       50
102
RTVSPost2010PropOp50
 70
     1
102
RTVSPost2010Prop51ColorIndex
 90
      256
102
RTVSPost2010Prop51ColorRGB
 90
-16777216
102
RTVSPost2010PropOp51
 70
     0
102
RTVSPost2010Prop52
140
1.0
102
RTVSPost2010PropOp52
 70
     0
102
RTVSPost2010Prop53
 90
        2
102
RTVSPost2010PropOp53
 70
     1
102
RTVSPost2010Prop54
  1
strokes_ogs.tif
102
RTVSPost2010PropOp54
 70
     1
102
RTVSPost2010Prop55
280
     0
102
RTVSPost2010PropOp55
 70
     1
102
RTVSPost2010Prop56
140
1.0
102
RTVSPost2010PropOp56
 70
     1
102
RTVSPost2010Prop57
140
1.0
102
RTVSPost2010PropOp57
 70
     1
  0
XRECORD
  5
803
102
{ACAD_REACTORS
330
802
102
}
330
802
100
AcDbXrecord
280
     1
102
RTVSPropertyOp0
 70
     1
102
RTVSPropertyOp1
 70
     1
102
RTVSPropertyOp2
 70
     1
102
RTVSPropertyOp3
 70
     1
102
RTVSPropertyOp4
 70
     1
102
RTVSPropertyOp5
 70
     1
102
RTVSPropertyOp6
 70
     1
102
RTVSPropertyOp7
 70
     1
102
RTVSPropertyOp8
 70
     1
102
RTVSPropertyOp9
 70
     1
102
RTVSPropertyOp10
 70
     1
102
RTVSPropertyOp11
 70
     1
102
RTVSPropertyOp12
 70
     1
102
RTVSPropertyOp13
 70
     1
102
RTVSPropertyOp14
 70
     1
102
RTVSPropertyOp15
 70
     1
102
RTVSPropertyOp16
 70
     1
102
RTVSPropertyOp17
 70
     1
102
RTVSPropertyOp18
 70
     1
102
RTVSPropertyOp19
 70
     1
102
RTVSPropertyOp20
 70
     1
102
RTVSPropertyOp21
 70
     1
102
RTVSPropertyOp22
 70
     1
102
RTVSPropertyOp23
 70
     1
102
RTVSPropertyOp24
 70
     1
102
RTVSPropertyOp25
 70
     1
102
RTVSPropertyOp26
 70
     1
102
RTVSPropertyOp27
 70
     1
102
RTVSPropertyOp28
 70
     1
102
RTVSPropertyOp29
 70
     1
102
RTVSPropertyOp30
 70
     1
102
RTVSPropertyOp31
 70
     1
102
RTVSPropertyOp32
 70
     1
102
RTVSPropertyOp33
 70
     1
102
RTVSPropertyOp34
 70
     1
102
RTVSPropertyOp35
 70
     1
102
RTVSPropertyOp36
 70
     1
102
RTVSPropertyOp37
 70
     1
102
RTVSPropertyOp38
 70
     1
102
RTVSPropertyOp39
 70
     1
102
RTVSPropertyOp40
 70
     1
102
RTVSPropertyOp41
 70
     1
102
RTVSPropertyOp42
 70
     1
102
RTVSPropertyOp43
 70
     1
102
RTVSPropertyOp44
 70
     1
102
RTVSPropertyOp45
 70
     1
102
RTVSPropertyOp46
 70
     1
102
RTVSPropertyOp47
 70
     1
102
RTVSPropertyOp48
 70
     1
102
RTVSPropertyOp49
 70
     1
102
RTVSPropertyOp50
 70
     1
102
RTVSPropertyOp51
 70
     0
102
RTVSPropertyOp52
 70
     0
102
RTVSPropertyOp53
 70
     1
102
RTVSPropertyOp54
 70
     1
102
RTVSPropertyOp55
 70
     1
102
RTVSPropertyOp56
 70
     1
102
RTVSPropertyOp57
 70
     1
102
RTVSPost2010Prop28
280
     0
102
RTVSPost2010PropOp28
 70
     1
102
RTVSPost2010Prop29
280
     1
102
RTVSPost2010PropOp29
 70
     1
102
RTVSPost2010Prop30
280
     1
102
RTVSPost2010PropOp30
 70
     1
102
RTVSPost2010Prop31
280
     0
102
RTVSPost2010PropOp31
 70
     1
102
RTVSPost2010Prop32
280
     0
102
RTVSPost2010PropOp32
 70
     1
102
RTVSPost2010Prop33
280
     0
102
RTVSPost2010PropOp33
 70
     1
102
RTVSPost2010Prop34
280
     0
102
RTVSPost2010PropOp34
 70
     1
102
RTVSPost2010Prop35
280
     0
102
RTVSPost2010PropOp35
 70
     1
102
RTVSPost2010Prop36
280
     0
102
RTVSPost2010PropOp36
 70
     1
102
RTVSPost2010Prop37
 90
       50
102
RTVSPost2010PropOp37
 70
     1
102
RTVSPost2010Prop38
140
0.0
102
RTVSPost2010PropOp38
 70
     1
102
RTVSPost2010Prop39
140
1.0
102
RTVSPost2010PropOp39
 70
     1
102
RTVSPost2010Prop40
 90
        0
102
RTVSPost2010PropOp40
 70
     1
102
RTVSPost2010Prop41ColorIndex
 90
       18
102
RTVSPost2010Prop41ColorRGB
 90
        0
102
RTVSPost2010PropOp41
 70
     1
102
RTVSPost2010Prop42
 90
       50
102
RTVSPost2010PropOp42
 70
     1
102
RTVSPost2010Prop43
 90
        3
102
RTVSPost2010PropOp43
 70
     1
102
RTVSPost2010Prop44ColorIndex
 90
        5
102
RTVSPost2010Prop44ColorRGB
 90
      255
102
RTVSPost2010PropOp44
 70
     1
102
RTVSPost2010Prop45
280
     0
102
RTVSPost2010PropOp45
 70
     1
102
RTVSPost2010Prop46
 90
       50
102
RTVSPost2010PropOp46
 70
     1
102
RTVSPost2010Prop47
 90
       50
102
RTVSPost2010PropOp47
 70
     1
102
RTVSPost2010Prop48
 90
       50
102
RTVSPost2010PropOp48
 70
     1
102
RTVSPost2010Prop49
280
     0
102
RTVSPost2010PropOp49
 70
     1
102
RTVSPost2010Prop50
 90
       50
102
RTVSPost2010PropOp50
 70
     1
102
RTVSPost2010Prop51ColorIndex
 90
      256
102
RTVSPost2010Prop51ColorRGB
 90
-16777216
102
RTVSPost2010PropOp51
 70
     0
102
RTVSPost2010Prop52
140
1.0
102
RTVSPost2010PropOp52
 70
     0
102
RTVSPost2010Prop53
 90
        2
102
RTVSPost2010PropOp53
 70
     1
102
RTVSPost2010Prop54
  1
strokes_ogs.tif
102
RTVSPost2010PropOp54
 70
     1
102
RTVSPost2010Prop55
280
     0
102
RTVSPost2010PropOp55
 70
     1
102
RTVSPost2010Prop56
140
1.0
102
RTVSPost2010PropOp56
 70
     1
102
RTVSPost2010Prop57
140
1.0
102
RTVSPost2010PropOp57
 70
     1
  0
XRECORD
  5
805
102
{ACAD_REACTORS
330
804
102
}
330
804
100
AcDbXrecord
280
     1
102
RTVSPropertyOp0
 70
     1
102
RTVSPropertyOp1
 70
     1
102
RTVSPropertyOp2
 70
     1
102
RTVSPropertyOp3
 70
     1
102
RTVSPropertyOp4
 70
     1
102
RTVSPropertyOp5
 70
     1
102
RTVSPropertyOp6
 70
     1
102
RTVSPropertyOp7
 70
     1
102
RTVSPropertyOp8
 70
     1
102
RTVSPropertyOp9
 70
     1
102
RTVSPropertyOp10
 70
     1
102
RTVSPropertyOp11
 70
     1
102
RTVSPropertyOp12
 70
     1
102
RTVSPropertyOp13
 70
     1
102
RTVSPropertyOp14
 70
     1
102
RTVSPropertyOp15
 70
     1
102
RTVSPropertyOp16
 70
     1
102
RTVSPropertyOp17
 70
     1
102
RTVSPropertyOp18
 70
     1
102
RTVSPropertyOp19
 70
     1
102
RTVSPropertyOp20
 70
     1
102
RTVSPropertyOp21
 70
     1
102
RTVSPropertyOp22
 70
     1
102
RTVSPropertyOp23
 70
     1
102
RTVSPropertyOp24
 70
     1
102
RTVSPropertyOp25
 70
     1
102
RTVSPropertyOp26
 70
     1
102
RTVSPropertyOp27
 70
     1
102
RTVSPropertyOp28
 70
     1
102
RTVSPropertyOp29
 70
     1
102
RTVSPropertyOp30
 70
     1
102
RTVSPropertyOp31
 70
     1
102
RTVSPropertyOp32
 70
     1
102
RTVSPropertyOp33
 70
     1
102
RTVSPropertyOp34
 70
     1
102
RTVSPropertyOp35
 70
     1
102
RTVSPropertyOp36
 70
     1
102
RTVSPropertyOp37
 70
     1
102
RTVSPropertyOp38
 70
     1
102
RTVSPropertyOp39
 70
     1
102
RTVSPropertyOp40
 70
     1
102
RTVSPropertyOp41
 70
     1
102
RTVSPropertyOp42
 70
     1
102
RTVSPropertyOp43
 70
     1
102
RTVSPropertyOp44
 70
     1
102
RTVSPropertyOp45
 70
     1
102
RTVSPropertyOp46
 70
     1
102
RTVSPropertyOp47
 70
     1
102
RTVSPropertyOp48
 70
     1
102
RTVSPropertyOp49
 70
     1
102
RTVSPropertyOp50
 70
     1
102
RTVSPropertyOp51
 70
     0
102
RTVSPropertyOp52
 70
     0
102
RTVSPropertyOp53
 70
     1
102
RTVSPropertyOp54
 70
     1
102
RTVSPropertyOp55
 70
     1
102
RTVSPropertyOp56
 70
     1
102
RTVSPropertyOp57
 70
     1
102
RTVSPost2010Prop28
280
     0
102
RTVSPost2010PropOp28
 70
     1
102
RTVSPost2010Prop29
280
     1
102
RTVSPost2010PropOp29
 70
     1
102
RTVSPost2010Prop30
280
     1
102
RTVSPost2010PropOp30
 70
     1
102
RTVSPost2010Prop31
280
     0
102
RTVSPost2010PropOp31
 70
     1
102
RTVSPost2010Prop32
280
     0
102
RTVSPost2010PropOp32
 70
     1
102
RTVSPost2010Prop33
280
     0
102
RTVSPost2010PropOp33
 70
     1
102
RTVSPost2010Prop34
280
     0
102
RTVSPost2010PropOp34
 70
     1
102
RTVSPost2010Prop35
280
     0
102
RTVSPost2010PropOp35
 70
     1
102
RTVSPost2010Prop36
280
     0
102
RTVSPost2010PropOp36
 70
     1
102
RTVSPost2010Prop37
 90
       50
102
RTVSPost2010PropOp37
 70
     1
102
RTVSPost2010Prop38
140
0.0
102
RTVSPost2010PropOp38
 70
     1
102
RTVSPost2010Prop39
140
1.0
102
RTVSPost2010PropOp39
 70
     1
102
RTVSPost2010Prop40
 90
        0
102
RTVSPost2010PropOp40
 70
     1
102
RTVSPost2010Prop41ColorIndex
 90
       18
102
RTVSPost2010Prop41ColorRGB
 90
        0
102
RTVSPost2010PropOp41
 70
     1
102
RTVSPost2010Prop42
 90
       50
102
RTVSPost2010PropOp42
 70
     1
102
RTVSPost2010Prop43
 90
        3
102
RTVSPost2010PropOp43
 70
     1
102
RTVSPost2010Prop44ColorIndex
 90
        5
102
RTVSPost2010Prop44ColorRGB
 90
      255
102
RTVSPost2010PropOp44
 70
     1
102
RTVSPost2010Prop45
280
     0
102
RTVSPost2010PropOp45
 70
     1
102
RTVSPost2010Prop46
 90
       50
102
RTVSPost2010PropOp46
 70
     1
102
RTVSPost2010Prop47
 90
       50
102
RTVSPost2010PropOp47
 70
     1
102
RTVSPost2010Prop48
 90
       50
102
RTVSPost2010PropOp48
 70
     1
102
RTVSPost2010Prop49
280
     0
102
RTVSPost2010PropOp49
 70
     1
102
RTVSPost2010Prop50
 90
       50
102
RTVSPost2010PropOp50
 70
     1
102
RTVSPost2010Prop51ColorIndex
 90
      256
102
RTVSPost2010Prop51ColorRGB
 90
-16777216
102
RTVSPost2010PropOp51
 70
     0
102
RTVSPost2010Prop52
140
1.0
102
RTVSPost2010PropOp52
 70
     0
102
RTVSPost2010Prop53
 90
        2
102
RTVSPost2010PropOp53
 70
     1
102
RTVSPost2010Prop54
  1
strokes_ogs.tif
102
RTVSPost2010PropOp54
 70
     1
102
RTVSPost2010Prop55
280
     0
102
RTVSPost2010PropOp55
 70
     1
102
RTVSPost2010Prop56
140
1.0
102
RTVSPost2010PropOp56
 70
     1
102
RTVSPost2010Prop57
140
1.0
102
RTVSPost2010PropOp57
 70
     1
  0
XRECORD
  5
807
102
{ACAD_REACTORS
330
806
102
}
330
806
100
AcDbXrecord
280
     1
102
RTVSPropertyOp0
 70
     1
102
RTVSPropertyOp1
 70
     1
102
RTVSPropertyOp2
 70
     1
102
RTVSPropertyOp3
 70
     1
102
RTVSPropertyOp4
 70
     1
102
RTVSPropertyOp5
 70
     1
102
RTVSPropertyOp6
 70
     1
102
RTVSPropertyOp7
 70
     1
102
RTVSPropertyOp8
 70
     1
102
RTVSPropertyOp9
 70
     1
102
RTVSPropertyOp10
 70
     1
102
RTVSPropertyOp11
 70
     1
102
RTVSPropertyOp12
 70
     1
102
RTVSPropertyOp13
 70
     1
102
RTVSPropertyOp14
 70
     1
102
RTVSPropertyOp15
 70
     1
102
RTVSPropertyOp16
 70
     1
102
RTVSPropertyOp17
 70
     1
102
RTVSPropertyOp18
 70
     1
102
RTVSPropertyOp19
 70
     1
102
RTVSPropertyOp20
 70
     1
102
RTVSPropertyOp21
 70
     1
102
RTVSPropertyOp22
 70
     1
102
RTVSPropertyOp23
 70
     1
102
RTVSPropertyOp24
 70
     1
102
RTVSPropertyOp25
 70
     1
102
RTVSPropertyOp26
 70
     1
102
RTVSPropertyOp27
 70
     1
102
RTVSPropertyOp28
 70
     1
102
RTVSPropertyOp29
 70
     1
102
RTVSPropertyOp30
 70
     1
102
RTVSPropertyOp31
 70
     1
102
RTVSPropertyOp32
 70
     1
102
RTVSPropertyOp33
 70
     1
102
RTVSPropertyOp34
 70
     1
102
RTVSPropertyOp35
 70
     1
102
RTVSPropertyOp36
 70
     1
102
RTVSPropertyOp37
 70
     1
102
RTVSPropertyOp38
 70
     1
102
RTVSPropertyOp39
 70
     1
102
RTVSPropertyOp40
 70
     1
102
RTVSPropertyOp41
 70
     1
102
RTVSPropertyOp42
 70
     1
102
RTVSPropertyOp43
 70
     1
102
RTVSPropertyOp44
 70
     1
102
RTVSPropertyOp45
 70
     1
102
RTVSPropertyOp46
 70
     1
102
RTVSPropertyOp47
 70
     1
102
RTVSPropertyOp48
 70
     1
102
RTVSPropertyOp49
 70
     1
102
RTVSPropertyOp50
 70
     1
102
RTVSPropertyOp51
 70
     0
102
RTVSPropertyOp52
 70
     0
102
RTVSPropertyOp53
 70
     1
102
RTVSPropertyOp54
 70
     1
102
RTVSPropertyOp55
 70
     1
102
RTVSPropertyOp56
 70
     1
102
RTVSPropertyOp57
 70
     1
102
RTVSPost2010Prop28
280
     0
102
RTVSPost2010PropOp28
 70
     1
102
RTVSPost2010Prop29
280
     1
102
RTVSPost2010PropOp29
 70
     1
102
RTVSPost2010Prop30
280
     1
102
RTVSPost2010PropOp30
 70
     1
102
RTVSPost2010Prop31
280
     0
102
RTVSPost2010PropOp31
 70
     1
102
RTVSPost2010Prop32
280
     0
102
RTVSPost2010PropOp32
 70
     1
102
RTVSPost2010Prop33
280
     0
102
RTVSPost2010PropOp33
 70
     1
102
RTVSPost2010Prop34
280
     0
102
RTVSPost2010PropOp34
 70
     1
102
RTVSPost2010Prop35
280
     0
102
RTVSPost2010PropOp35
 70
     1
102
RTVSPost2010Prop36
280
     0
102
RTVSPost2010PropOp36
 70
     1
102
RTVSPost2010Prop37
 90
       50
102
RTVSPost2010PropOp37
 70
     1
102
RTVSPost2010Prop38
140
0.0
102
RTVSPost2010PropOp38
 70
     1
102
RTVSPost2010Prop39
140
1.0
102
RTVSPost2010PropOp39
 70
     1
102
RTVSPost2010Prop40
 90
        0
102
RTVSPost2010PropOp40
 70
     1
102
RTVSPost2010Prop41ColorIndex
 90
       18
102
RTVSPost2010Prop41ColorRGB
 90
        0
102
RTVSPost2010PropOp41
 70
     1
102
RTVSPost2010Prop42
 90
       50
102
RTVSPost2010PropOp42
 70
     1
102
RTVSPost2010Prop43
 90
        3
102
RTVSPost2010PropOp43
 70
     1
102
RTVSPost2010Prop44ColorIndex
 90
        5
102
RTVSPost2010Prop44ColorRGB
 90
      255
102
RTVSPost2010PropOp44
 70
     1
102
RTVSPost2010Prop45
280
     0
102
RTVSPost2010PropOp45
 70
     1
102
RTVSPost2010Prop46
 90
       50
102
RTVSPost2010PropOp46
 70
     1
102
RTVSPost2010Prop47
 90
       50
102
RTVSPost2010PropOp47
 70
     1
102
RTVSPost2010Prop48
 90
       50
102
RTVSPost2010PropOp48
 70
     1
102
RTVSPost2010Prop49
280
     0
102
RTVSPost2010PropOp49
 70
     1
102
RTVSPost2010Prop50
 90
       50
102
RTVSPost2010PropOp50
 70
     1
102
RTVSPost2010Prop51ColorIndex
 90
      256
102
RTVSPost2010Prop51ColorRGB
 90
-16777216
102
RTVSPost2010PropOp51
 70
     0
102
RTVSPost2010Prop52
140
1.0
102
RTVSPost2010PropOp52
 70
     0
102
RTVSPost2010Prop53
 90
        2
102
RTVSPost2010PropOp53
 70
     1
102
RTVSPost2010Prop54
  1
strokes_ogs.tif
102
RTVSPost2010PropOp54
 70
     1
102
RTVSPost2010Prop55
280
     0
102
RTVSPost2010PropOp55
 70
     1
102
RTVSPost2010Prop56
140
1.0
102
RTVSPost2010PropOp56
 70
     1
102
RTVSPost2010Prop57
140
1.0
102
RTVSPost2010PropOp57
 70
     1
  0
XRECORD
  5
80D
102
{ACAD_REACTORS
330
80C
102
}
330
80C
100
AcDbXrecord
280
     1
102
RTVSPropertyOp0
 70
     1
102
RTVSPropertyOp1
 70
     1
102
RTVSPropertyOp2
 70
     1
102
RTVSPropertyOp3
 70
     1
102
RTVSPropertyOp4
 70
     1
102
RTVSPropertyOp5
 70
     1
102
RTVSPropertyOp6
 70
     1
102
RTVSPropertyOp7
 70
     1
102
RTVSPropertyOp8
 70
     1
102
RTVSPropertyOp9
 70
     1
102
RTVSPropertyOp10
 70
     1
102
RTVSPropertyOp11
 70
     1
102
RTVSPropertyOp12
 70
     1
102
RTVSPropertyOp13
 70
     1
102
RTVSPropertyOp14
 70
     1
102
RTVSPropertyOp15
 70
     1
102
RTVSPropertyOp16
 70
     1
102
RTVSPropertyOp17
 70
     1
102
RTVSPropertyOp18
 70
     1
102
RTVSPropertyOp19
 70
     1
102
RTVSPropertyOp20
 70
     1
102
RTVSPropertyOp21
 70
     1
102
RTVSPropertyOp22
 70
     1
102
RTVSPropertyOp23
 70
     1
102
RTVSPropertyOp24
 70
     1
102
RTVSPropertyOp25
 70
     1
102
RTVSPropertyOp26
 70
     1
102
RTVSPropertyOp27
 70
     1
102
RTVSPropertyOp28
 70
     1
102
RTVSPropertyOp29
 70
     1
102
RTVSPropertyOp30
 70
     1
102
RTVSPropertyOp31
 70
     1
102
RTVSPropertyOp32
 70
     1
102
RTVSPropertyOp33
 70
     1
102
RTVSPropertyOp34
 70
     1
102
RTVSPropertyOp35
 70
     1
102
RTVSPropertyOp36
 70
     1
102
RTVSPropertyOp37
 70
     1
102
RTVSPropertyOp38
 70
     1
102
RTVSPropertyOp39
 70
     1
102
RTVSPropertyOp40
 70
     1
102
RTVSPropertyOp41
 70
     1
102
RTVSPropertyOp42
 70
     1
102
RTVSPropertyOp43
 70
     1
102
RTVSPropertyOp44
 70
     1
102
RTVSPropertyOp45
 70
     1
102
RTVSPropertyOp46
 70
     1
102
RTVSPropertyOp47
 70
     1
102
RTVSPropertyOp48
 70
     1
102
RTVSPropertyOp49
 70
     1
102
RTVSPropertyOp50
 70
     1
102
RTVSPropertyOp51
 70
     0
102
RTVSPropertyOp52
 70
     0
102
RTVSPropertyOp53
 70
     1
102
RTVSPropertyOp54
 70
     1
102
RTVSPropertyOp55
 70
     1
102
RTVSPropertyOp56
 70
     1
102
RTVSPropertyOp57
 70
     1
102
RTVSPost2010Prop28
280
     0
102
RTVSPost2010PropOp28
 70
     1
102
RTVSPost2010Prop29
280
     1
102
RTVSPost2010PropOp29
 70
     1
102
RTVSPost2010Prop30
280
     1
102
RTVSPost2010PropOp30
 70
     1
102
RTVSPost2010Prop31
280
     0
102
RTVSPost2010PropOp31
 70
     1
102
RTVSPost2010Prop32
280
     0
102
RTVSPost2010PropOp32
 70
     1
102
RTVSPost2010Prop33
280
     0
102
RTVSPost2010PropOp33
 70
     1
102
RTVSPost2010Prop34
280
     0
102
RTVSPost2010PropOp34
 70
     1
102
RTVSPost2010Prop35
280
     0
102
RTVSPost2010PropOp35
 70
     1
102
RTVSPost2010Prop36
280
     0
102
RTVSPost2010PropOp36
 70
     1
102
RTVSPost2010Prop37
 90
       50
102
RTVSPost2010PropOp37
 70
     1
102
RTVSPost2010Prop38
140
0.0
102
RTVSPost2010PropOp38
 70
     1
102
RTVSPost2010Prop39
140
1.0
102
RTVSPost2010PropOp39
 70
     1
102
RTVSPost2010Prop40
 90
        0
102
RTVSPost2010PropOp40
 70
     1
102
RTVSPost2010Prop41ColorIndex
 90
       18
102
RTVSPost2010Prop41ColorRGB
 90
        0
102
RTVSPost2010PropOp41
 70
     1
102
RTVSPost2010Prop42
 90
       50
102
RTVSPost2010PropOp42
 70
     1
102
RTVSPost2010Prop43
 90
        3
102
RTVSPost2010PropOp43
 70
     1
102
RTVSPost2010Prop44ColorIndex
 90
        5
102
RTVSPost2010Prop44ColorRGB
 90
      255
102
RTVSPost2010PropOp44
 70
     1
102
RTVSPost2010Prop45
280
     0
102
RTVSPost2010PropOp45
 70
     1
102
RTVSPost2010Prop46
 90
       50
102
RTVSPost2010PropOp46
 70
     1
102
RTVSPost2010Prop47
 90
       50
102
RTVSPost2010PropOp47
 70
     1
102
RTVSPost2010Prop48
 90
       50
102
RTVSPost2010PropOp48
 70
     1
102
RTVSPost2010Prop49
280
     0
102
RTVSPost2010PropOp49
 70
     1
102
RTVSPost2010Prop50
 90
       50
102
RTVSPost2010PropOp50
 70
     1
102
RTVSPost2010Prop51ColorIndex
 90
      256
102
RTVSPost2010Prop51ColorRGB
 90
-16777216
102
RTVSPost2010PropOp51
 70
     0
102
RTVSPost2010Prop52
140
1.0
102
RTVSPost2010PropOp52
 70
     0
102
RTVSPost2010Prop53
 90
        2
102
RTVSPost2010PropOp53
 70
     1
102
RTVSPost2010Prop54
  1
strokes_ogs.tif
102
RTVSPost2010PropOp54
 70
     1
102
RTVSPost2010Prop55
280
     0
102
RTVSPost2010PropOp55
 70
     1
102
RTVSPost2010Prop56
140
1.0
102
RTVSPost2010PropOp56
 70
     1
102
RTVSPost2010Prop57
140
1.0
102
RTVSPost2010PropOp57
 70
     1
  0
XRECORD
  5
821
102
{ACAD_REACTORS
330
820
102
}
330
820
100
AcDbXrecord
280
     1
102
RTVSPropertyOp0
 70
     0
102
RTVSPropertyOp1
 70
     0
102
RTVSPropertyOp2
 70
     0
102
RTVSPropertyOp3
 70
     0
102
RTVSPropertyOp4
 70
     0
102
RTVSPropertyOp5
 70
     0
102
RTVSPropertyOp6
 70
     0
102
RTVSPropertyOp7
 70
     0
102
RTVSPropertyOp8
 70
     0
102
RTVSPropertyOp9
 70
     0
102
RTVSPropertyOp10
 70
     0
102
RTVSPropertyOp11
 70
     0
102
RTVSPropertyOp12
 70
     0
102
RTVSPropertyOp13
 70
     0
102
RTVSPropertyOp14
 70
     2
102
RTVSPropertyOp15
 70
     0
102
RTVSPropertyOp16
 70
     0
102
RTVSPropertyOp17
 70
     0
102
RTVSPropertyOp18
 70
     0
102
RTVSPropertyOp19
 70
     0
102
RTVSPropertyOp20
 70
     0
102
RTVSPropertyOp21
 70
     0
102
RTVSPropertyOp22
 70
     0
102
RTVSPropertyOp23
 70
     0
102
RTVSPropertyOp24
 70
     0
102
RTVSPropertyOp25
 70
     0
102
RTVSPropertyOp26
 70
     0
102
RTVSPropertyOp27
 70
     0
102
RTVSPropertyOp28
 70
     0
102
RTVSPropertyOp29
 70
     0
102
RTVSPropertyOp30
 70
     0
102
RTVSPropertyOp31
 70
     0
102
RTVSPropertyOp32
 70
     0
102
RTVSPropertyOp33
 70
     0
102
RTVSPropertyOp34
 70
     0
102
RTVSPropertyOp35
 70
     0
102
RTVSPropertyOp36
 70
     0
102
RTVSPropertyOp37
 70
     0
102
RTVSPropertyOp38
 70
     0
102
RTVSPropertyOp39
 70
     0
102
RTVSPropertyOp40
 70
     0
102
RTVSPropertyOp41
 70
     0
102
RTVSPropertyOp42
 70
     0
102
RTVSPropertyOp43
 70
     0
102
RTVSPropertyOp44
 70
     0
102
RTVSPropertyOp45
 70
     0
102
RTVSPropertyOp46
 70
     0
102
RTVSPropertyOp47
 70
     0
102
RTVSPropertyOp48
 70
     0
102
RTVSPropertyOp49
 70
     0
102
RTVSPropertyOp50
 70
     0
102
RTVSPropertyOp51
 70
     0
102
RTVSPropertyOp52
 70
     0
102
RTVSPropertyOp53
 70
     0
102
RTVSPropertyOp54
 70
     0
102
RTVSPropertyOp55
 70
     0
102
RTVSPropertyOp56
 70
     0
102
RTVSPropertyOp57
 70
     0
102
RTVSPost2010Prop28
280
     0
102
RTVSPost2010PropOp28
 70
     0
102
RTVSPost2010Prop29
280
     1
102
RTVSPost2010PropOp29
 70
     0
102
RTVSPost2010Prop30
280
     1
102
RTVSPost2010PropOp30
 70
     0
102
RTVSPost2010Prop31
280
     0
102
RTVSPost2010PropOp31
 70
     0
102
RTVSPost2010Prop32
280
     0
102
RTVSPost2010PropOp32
 70
     0
102
RTVSPost2010Prop33
280
     0
102
RTVSPost2010PropOp33
 70
     0
102
RTVSPost2010Prop34
280
     0
102
RTVSPost2010PropOp34
 70
     0
102
RTVSPost2010Prop35
280
     0
102
RTVSPost2010PropOp35
 70
     0
102
RTVSPost2010Prop36
280
     0
102
RTVSPost2010PropOp36
 70
     0
102
RTVSPost2010Prop37
 90
       50
102
RTVSPost2010PropOp37
 70
     0
102
RTVSPost2010Prop38
140
0.0
102
RTVSPost2010PropOp38
 70
     0
102
RTVSPost2010Prop39
140
1.0
102
RTVSPost2010PropOp39
 70
     0
102
RTVSPost2010Prop40
 90
        0
102
RTVSPost2010PropOp40
 70
     0
102
RTVSPost2010Prop41ColorIndex
 90
       18
102
RTVSPost2010Prop41ColorRGB
 90
        0
102
RTVSPost2010PropOp41
 70
     0
102
RTVSPost2010Prop42
 90
       50
102
RTVSPost2010PropOp42
 70
     0
102
RTVSPost2010Prop43
 90
        3
102
RTVSPost2010PropOp43
 70
     0
102
RTVSPost2010Prop44ColorIndex
 90
        5
102
RTVSPost2010Prop44ColorRGB
 90
      255
102
RTVSPost2010PropOp44
 70
     0
102
RTVSPost2010Prop45
280
     0
102
RTVSPost2010PropOp45
 70
     0
102
RTVSPost2010Prop46
 90
       50
102
RTVSPost2010PropOp46
 70
     0
102
RTVSPost2010Prop47
 90
       50
102
RTVSPost2010PropOp47
 70
     0
102
RTVSPost2010Prop48
 90
       50
102
RTVSPost2010PropOp48
 70
     0
102
RTVSPost2010Prop49
280
     0
102
RTVSPost2010PropOp49
 70
     0
102
RTVSPost2010Prop50
 90
       50
102
RTVSPost2010PropOp50
 70
     0
102
RTVSPost2010Prop51ColorIndex
 90
      256
102
RTVSPost2010Prop51ColorRGB
 90
-16777216
102
RTVSPost2010PropOp51
 70
     0
102
RTVSPost2010Prop52
140
1.0
102
RTVSPost2010PropOp52
 70
     0
102
RTVSPost2010Prop53
 90
        2
102
RTVSPost2010PropOp53
 70
     0
102
RTVSPost2010Prop54
  1
strokes_ogs.tif
102
RTVSPost2010PropOp54
 70
     0
102
RTVSPost2010Prop55
280
     0
102
RTVSPost2010PropOp55
 70
     0
102
RTVSPost2010Prop56
140
1.0
102
RTVSPost2010PropOp56
 70
     0
102
RTVSPost2010Prop57
140
1.0
102
RTVSPost2010PropOp57
 70
     0
  0
XRECORD
  5
81B
102
{ACAD_REACTORS
330
81A
102
}
330
81A
100
AcDbXrecord
280
     1
102
RTVSPropertyOp0
 70
     1
102
RTVSPropertyOp1
 70
     1
102
RTVSPropertyOp2
 70
     1
102
RTVSPropertyOp3
 70
     1
102
RTVSPropertyOp4
 70
     1
102
RTVSPropertyOp5
 70
     1
102
RTVSPropertyOp6
 70
     1
102
RTVSPropertyOp7
 70
     1
102
RTVSPropertyOp8
 70
     1
102
RTVSPropertyOp9
 70
     1
102
RTVSPropertyOp10
 70
     1
102
RTVSPropertyOp11
 70
     1
102
RTVSPropertyOp12
 70
     1
102
RTVSPropertyOp13
 70
     1
102
RTVSPropertyOp14
 70
     1
102
RTVSPropertyOp15
 70
     1
102
RTVSPropertyOp16
 70
     1
102
RTVSPropertyOp17
 70
     1
102
RTVSPropertyOp18
 70
     1
102
RTVSPropertyOp19
 70
     1
102
RTVSPropertyOp20
 70
     1
102
RTVSPropertyOp21
 70
     1
102
RTVSPropertyOp22
 70
     1
102
RTVSPropertyOp23
 70
     1
102
RTVSPropertyOp24
 70
     1
102
RTVSPropertyOp25
 70
     1
102
RTVSPropertyOp26
 70
     1
102
RTVSPropertyOp27
 70
     1
102
RTVSPropertyOp28
 70
     1
102
RTVSPropertyOp29
 70
     1
102
RTVSPropertyOp30
 70
     1
102
RTVSPropertyOp31
 70
     1
102
RTVSPropertyOp32
 70
     1
102
RTVSPropertyOp33
 70
     1
102
RTVSPropertyOp34
 70
     1
102
RTVSPropertyOp35
 70
     1
102
RTVSPropertyOp36
 70
     1
102
RTVSPropertyOp37
 70
     1
102
RTVSPropertyOp38
 70
     1
102
RTVSPropertyOp39
 70
     1
102
RTVSPropertyOp40
 70
     1
102
RTVSPropertyOp41
 70
     1
102
RTVSPropertyOp42
 70
     1
102
RTVSPropertyOp43
 70
     1
102
RTVSPropertyOp44
 70
     1
102
RTVSPropertyOp45
 70
     1
102
RTVSPropertyOp46
 70
     1
102
RTVSPropertyOp47
 70
     1
102
RTVSPropertyOp48
 70
     1
102
RTVSPropertyOp49
 70
     1
102
RTVSPropertyOp50
 70
     1
102
RTVSPropertyOp51
 70
     0
102
RTVSPropertyOp52
 70
     0
102
RTVSPropertyOp53
 70
     1
102
RTVSPropertyOp54
 70
     1
102
RTVSPropertyOp55
 70
     1
102
RTVSPropertyOp56
 70
     1
102
RTVSPropertyOp57
 70
     1
102
RTVSPost2010Prop28
280
     0
102
RTVSPost2010PropOp28
 70
     1
102
RTVSPost2010Prop29
280
     1
102
RTVSPost2010PropOp29
 70
     1
102
RTVSPost2010Prop30
280
     1
102
RTVSPost2010PropOp30
 70
     1
102
RTVSPost2010Prop31
280
     0
102
RTVSPost2010PropOp31
 70
     1
102
RTVSPost2010Prop32
280
     0
102
RTVSPost2010PropOp32
 70
     1
102
RTVSPost2010Prop33
280
     0
102
RTVSPost2010PropOp33
 70
     1
102
RTVSPost2010Prop34
280
     0
102
RTVSPost2010PropOp34
 70
     1
102
RTVSPost2010Prop35
280
     0
102
RTVSPost2010PropOp35
 70
     1
102
RTVSPost2010Prop36
280
     0
102
RTVSPost2010PropOp36
 70
     1
102
RTVSPost2010Prop37
 90
       50
102
RTVSPost2010PropOp37
 70
     1
102
RTVSPost2010Prop38
140
0.0
102
RTVSPost2010PropOp38
 70
     1
102
RTVSPost2010Prop39
140
1.0
102
RTVSPost2010PropOp39
 70
     1
102
RTVSPost2010Prop40
 90
        0
102
RTVSPost2010PropOp40
 70
     1
102
RTVSPost2010Prop41ColorIndex
 90
       18
102
RTVSPost2010Prop41ColorRGB
 90
        0
102
RTVSPost2010PropOp41
 70
     1
102
RTVSPost2010Prop42
 90
       50
102
RTVSPost2010PropOp42
 70
     1
102
RTVSPost2010Prop43
 90
        3
102
RTVSPost2010PropOp43
 70
     1
102
RTVSPost2010Prop44ColorIndex
 90
        5
102
RTVSPost2010Prop44ColorRGB
 90
      255
102
RTVSPost2010PropOp44
 70
     1
102
RTVSPost2010Prop45
280
     0
102
RTVSPost2010PropOp45
 70
     1
102
RTVSPost2010Prop46
 90
       50
102
RTVSPost2010PropOp46
 70
     1
102
RTVSPost2010Prop47
 90
       50
102
RTVSPost2010PropOp47
 70
     1
102
RTVSPost2010Prop48
 90
       50
102
RTVSPost2010PropOp48
 70
     1
102
RTVSPost2010Prop49
280
     0
102
RTVSPost2010PropOp49
 70
     1
102
RTVSPost2010Prop50
 90
       50
102
RTVSPost2010PropOp50
 70
     1
102
RTVSPost2010Prop51ColorIndex
 90
      256
102
RTVSPost2010Prop51ColorRGB
 90
-16777216
102
RTVSPost2010PropOp51
 70
     0
102
RTVSPost2010Prop52
140
1.0
102
RTVSPost2010PropOp52
 70
     0
102
RTVSPost2010Prop53
 90
        2
102
RTVSPost2010PropOp53
 70
     1
102
RTVSPost2010Prop54
  1
strokes_ogs.tif
102
RTVSPost2010PropOp54
 70
     1
102
RTVSPost2010Prop55
280
     0
102
RTVSPost2010PropOp55
 70
     1
102
RTVSPost2010Prop56
140
1.0
102
RTVSPost2010PropOp56
 70
     1
102
RTVSPost2010Prop57
140
1.0
102
RTVSPost2010PropOp57
 70
     1
  0
XRECORD
  5
823
102
{ACAD_REACTORS
330
822
102
}
330
822
100
AcDbXrecord
280
     1
102
RTVSPropertyOp0
 70
     0
102
RTVSPropertyOp1
 70
     0
102
RTVSPropertyOp2
 70
     0
102
RTVSPropertyOp3
 70
     0
102
RTVSPropertyOp4
 70
     0
102
RTVSPropertyOp5
 70
     0
102
RTVSPropertyOp6
 70
     0
102
RTVSPropertyOp7
 70
     0
102
RTVSPropertyOp8
 70
     0
102
RTVSPropertyOp9
 70
     0
102
RTVSPropertyOp10
 70
     0
102
RTVSPropertyOp11
 70
     0
102
RTVSPropertyOp12
 70
     0
102
RTVSPropertyOp13
 70
     0
102
RTVSPropertyOp14
 70
     2
102
RTVSPropertyOp15
 70
     0
102
RTVSPropertyOp16
 70
     0
102
RTVSPropertyOp17
 70
     0
102
RTVSPropertyOp18
 70
     0
102
RTVSPropertyOp19
 70
     0
102
RTVSPropertyOp20
 70
     0
102
RTVSPropertyOp21
 70
     0
102
RTVSPropertyOp22
 70
     0
102
RTVSPropertyOp23
 70
     0
102
RTVSPropertyOp24
 70
     0
102
RTVSPropertyOp25
 70
     0
102
RTVSPropertyOp26
 70
     0
102
RTVSPropertyOp27
 70
     0
102
RTVSPropertyOp28
 70
     0
102
RTVSPropertyOp29
 70
     0
102
RTVSPropertyOp30
 70
     0
102
RTVSPropertyOp31
 70
     0
102
RTVSPropertyOp32
 70
     0
102
RTVSPropertyOp33
 70
     0
102
RTVSPropertyOp34
 70
     0
102
RTVSPropertyOp35
 70
     0
102
RTVSPropertyOp36
 70
     0
102
RTVSPropertyOp37
 70
     0
102
RTVSPropertyOp38
 70
     0
102
RTVSPropertyOp39
 70
     0
102
RTVSPropertyOp40
 70
     0
102
RTVSPropertyOp41
 70
     0
102
RTVSPropertyOp42
 70
     0
102
RTVSPropertyOp43
 70
     0
102
RTVSPropertyOp44
 70
     0
102
RTVSPropertyOp45
 70
     0
102
RTVSPropertyOp46
 70
     0
102
RTVSPropertyOp47
 70
     0
102
RTVSPropertyOp48
 70
     0
102
RTVSPropertyOp49
 70
     0
102
RTVSPropertyOp50
 70
     0
102
RTVSPropertyOp51
 70
     0
102
RTVSPropertyOp52
 70
     0
102
RTVSPropertyOp53
 70
     0
102
RTVSPropertyOp54
 70
     0
102
RTVSPropertyOp55
 70
     0
102
RTVSPropertyOp56
 70
     0
102
RTVSPropertyOp57
 70
     0
102
RTVSPost2010Prop28
280
     0
102
RTVSPost2010PropOp28
 70
     0
102
RTVSPost2010Prop29
280
     1
102
RTVSPost2010PropOp29
 70
     0
102
RTVSPost2010Prop30
280
     1
102
RTVSPost2010PropOp30
 70
     0
102
RTVSPost2010Prop31
280
     0
102
RTVSPost2010PropOp31
 70
     0
102
RTVSPost2010Prop32
280
     0
102
RTVSPost2010PropOp32
 70
     0
102
RTVSPost2010Prop33
280
     0
102
RTVSPost2010PropOp33
 70
     0
102
RTVSPost2010Prop34
280
     0
102
RTVSPost2010PropOp34
 70
     0
102
RTVSPost2010Prop35
280
     0
102
RTVSPost2010PropOp35
 70
     0
102
RTVSPost2010Prop36
280
     0
102
RTVSPost2010PropOp36
 70
     0
102
RTVSPost2010Prop37
 90
       50
102
RTVSPost2010PropOp37
 70
     0
102
RTVSPost2010Prop38
140
0.0
102
RTVSPost2010PropOp38
 70
     0
102
RTVSPost2010Prop39
140
1.0
102
RTVSPost2010PropOp39
 70
     0
102
RTVSPost2010Prop40
 90
        0
102
RTVSPost2010PropOp40
 70
     0
102
RTVSPost2010Prop41ColorIndex
 90
       18
102
RTVSPost2010Prop41ColorRGB
 90
        0
102
RTVSPost2010PropOp41
 70
     0
102
RTVSPost2010Prop42
 90
       50
102
RTVSPost2010PropOp42
 70
     0
102
RTVSPost2010Prop43
 90
        3
102
RTVSPost2010PropOp43
 70
     0
102
RTVSPost2010Prop44ColorIndex
 90
        5
102
RTVSPost2010Prop44ColorRGB
 90
      255
102
RTVSPost2010PropOp44
 70
     0
102
RTVSPost2010Prop45
280
     0
102
RTVSPost2010PropOp45
 70
     0
102
RTVSPost2010Prop46
 90
       50
102
RTVSPost2010PropOp46
 70
     0
102
RTVSPost2010Prop47
 90
       50
102
RTVSPost2010PropOp47
 70
     0
102
RTVSPost2010Prop48
 90
       50
102
RTVSPost2010PropOp48
 70
     0
102
RTVSPost2010Prop49
280
     0
102
RTVSPost2010PropOp49
 70
     0
102
RTVSPost2010Prop50
 90
       50
102
RTVSPost2010PropOp50
 70
     0
102
RTVSPost2010Prop51ColorIndex
 90
      256
102
RTVSPost2010Prop51ColorRGB
 90
-16777216
102
RTVSPost2010PropOp51
 70
     0
102
RTVSPost2010Prop52
140
1.0
102
RTVSPost2010PropOp52
 70
     0
102
RTVSPost2010Prop53
 90
        2
102
RTVSPost2010PropOp53
 70
     0
102
RTVSPost2010Prop54
  1
strokes_ogs.tif
102
RTVSPost2010PropOp54
 70
     0
102
RTVSPost2010Prop55
280
     0
102
RTVSPost2010PropOp55
 70
     0
102
RTVSPost2010Prop56
140
1.0
102
RTVSPost2010PropOp56
 70
     0
102
RTVSPost2010Prop57
140
1.0
102
RTVSPost2010PropOp57
 70
     0
  0
XRECORD
  5
811
102
{ACAD_REACTORS
330
810
102
}
330
810
100
AcDbXrecord
280
     1
102
RTVSPropertyOp0
 70
     1
102
RTVSPropertyOp1
 70
     1
102
RTVSPropertyOp2
 70
     1
102
RTVSPropertyOp3
 70
     1
102
RTVSPropertyOp4
 70
     1
102
RTVSPropertyOp5
 70
     1
102
RTVSPropertyOp6
 70
     1
102
RTVSPropertyOp7
 70
     1
102
RTVSPropertyOp8
 70
     1
102
RTVSPropertyOp9
 70
     1
102
RTVSPropertyOp10
 70
     1
102
RTVSPropertyOp11
 70
     1
102
RTVSPropertyOp12
 70
     1
102
RTVSPropertyOp13
 70
     1
102
RTVSPropertyOp14
 70
     1
102
RTVSPropertyOp15
 70
     1
102
RTVSPropertyOp16
 70
     1
102
RTVSPropertyOp17
 70
     1
102
RTVSPropertyOp18
 70
     1
102
RTVSPropertyOp19
 70
     1
102
RTVSPropertyOp20
 70
     1
102
RTVSPropertyOp21
 70
     1
102
RTVSPropertyOp22
 70
     1
102
RTVSPropertyOp23
 70
     1
102
RTVSPropertyOp24
 70
     1
102
RTVSPropertyOp25
 70
     1
102
RTVSPropertyOp26
 70
     1
102
RTVSPropertyOp27
 70
     1
102
RTVSPropertyOp28
 70
     1
102
RTVSPropertyOp29
 70
     1
102
RTVSPropertyOp30
 70
     1
102
RTVSPropertyOp31
 70
     1
102
RTVSPropertyOp32
 70
     1
102
RTVSPropertyOp33
 70
     1
102
RTVSPropertyOp34
 70
     1
102
RTVSPropertyOp35
 70
     1
102
RTVSPropertyOp36
 70
     1
102
RTVSPropertyOp37
 70
     1
102
RTVSPropertyOp38
 70
     1
102
RTVSPropertyOp39
 70
     1
102
RTVSPropertyOp40
 70
     1
102
RTVSPropertyOp41
 70
     1
102
RTVSPropertyOp42
 70
     1
102
RTVSPropertyOp43
 70
     1
102
RTVSPropertyOp44
 70
     1
102
RTVSPropertyOp45
 70
     1
102
RTVSPropertyOp46
 70
     1
102
RTVSPropertyOp47
 70
     1
102
RTVSPropertyOp48
 70
     1
102
RTVSPropertyOp49
 70
     1
102
RTVSPropertyOp50
 70
     1
102
RTVSPropertyOp51
 70
     0
102
RTVSPropertyOp52
 70
     0
102
RTVSPropertyOp53
 70
     1
102
RTVSPropertyOp54
 70
     1
102
RTVSPropertyOp55
 70
     1
102
RTVSPropertyOp56
 70
     1
102
RTVSPropertyOp57
 70
     1
102
RTVSPost2010Prop28
280
     0
102
RTVSPost2010PropOp28
 70
     1
102
RTVSPost2010Prop29
280
     1
102
RTVSPost2010PropOp29
 70
     1
102
RTVSPost2010Prop30
280
     1
102
RTVSPost2010PropOp30
 70
     1
102
RTVSPost2010Prop31
280
     0
102
RTVSPost2010PropOp31
 70
     1
102
RTVSPost2010Prop32
280
     0
102
RTVSPost2010PropOp32
 70
     1
102
RTVSPost2010Prop33
280
     0
102
RTVSPost2010PropOp33
 70
     1
102
RTVSPost2010Prop34
280
     0
102
RTVSPost2010PropOp34
 70
     1
102
RTVSPost2010Prop35
280
     0
102
RTVSPost2010PropOp35
 70
     1
102
RTVSPost2010Prop36
280
     0
102
RTVSPost2010PropOp36
 70
     1
102
RTVSPost2010Prop37
 90
       50
102
RTVSPost2010PropOp37
 70
     1
102
RTVSPost2010Prop38
140
0.0
102
RTVSPost2010PropOp38
 70
     1
102
RTVSPost2010Prop39
140
1.0
102
RTVSPost2010PropOp39
 70
     1
102
RTVSPost2010Prop40
 90
        0
102
RTVSPost2010PropOp40
 70
     1
102
RTVSPost2010Prop41ColorIndex
 90
       18
102
RTVSPost2010Prop41ColorRGB
 90
        0
102
RTVSPost2010PropOp41
 70
     1
102
RTVSPost2010Prop42
 90
       50
102
RTVSPost2010PropOp42
 70
     1
102
RTVSPost2010Prop43
 90
        3
102
RTVSPost2010PropOp43
 70
     1
102
RTVSPost2010Prop44ColorIndex
 90
        5
102
RTVSPost2010Prop44ColorRGB
 90
      255
102
RTVSPost2010PropOp44
 70
     1
102
RTVSPost2010Prop45
280
     0
102
RTVSPost2010PropOp45
 70
     1
102
RTVSPost2010Prop46
 90
       50
102
RTVSPost2010PropOp46
 70
     1
102
RTVSPost2010Prop47
 90
       50
102
RTVSPost2010PropOp47
 70
     1
102
RTVSPost2010Prop48
 90
       50
102
RTVSPost2010PropOp48
 70
     1
102
RTVSPost2010Prop49
280
     0
102
RTVSPost2010PropOp49
 70
     1
102
RTVSPost2010Prop50
 90
       50
102
RTVSPost2010PropOp50
 70
     1
102
RTVSPost2010Prop51ColorIndex
 90
      256
102
RTVSPost2010Prop51ColorRGB
 90
-16777216
102
RTVSPost2010PropOp51
 70
     0
102
RTVSPost2010Prop52
140
1.0
102
RTVSPost2010PropOp52
 70
     0
102
RTVSPost2010Prop53
 90
        2
102
RTVSPost2010PropOp53
 70
     1
102
RTVSPost2010Prop54
  1
strokes_ogs.tif
102
RTVSPost2010PropOp54
 70
     1
102
RTVSPost2010Prop55
280
     0
102
RTVSPost2010PropOp55
 70
     1
102
RTVSPost2010Prop56
140
1.0
102
RTVSPost2010PropOp56
 70
     1
102
RTVSPost2010Prop57
140
1.0
102
RTVSPost2010PropOp57
 70
     1
  0
XRECORD
  5
82F
102
{ACAD_REACTORS
330
82E
102
}
330
82E
100
AcDbXrecord
280
     1
102
RTVSPropertyOp0
 70
     1
102
RTVSPropertyOp1
 70
     1
102
RTVSPropertyOp2
 70
     1
102
RTVSPropertyOp3
 70
     1
102
RTVSPropertyOp4
 70
     1
102
RTVSPropertyOp5
 70
     1
102
RTVSPropertyOp6
 70
     1
102
RTVSPropertyOp7
 70
     1
102
RTVSPropertyOp8
 70
     1
102
RTVSPropertyOp9
 70
     1
102
RTVSPropertyOp10
 70
     1
102
RTVSPropertyOp11
 70
     1
102
RTVSPropertyOp12
 70
     1
102
RTVSPropertyOp13
 70
     1
102
RTVSPropertyOp14
 70
     1
102
RTVSPropertyOp15
 70
     1
102
RTVSPropertyOp16
 70
     1
102
RTVSPropertyOp17
 70
     1
102
RTVSPropertyOp18
 70
     1
102
RTVSPropertyOp19
 70
     1
102
RTVSPropertyOp20
 70
     1
102
RTVSPropertyOp21
 70
     1
102
RTVSPropertyOp22
 70
     1
102
RTVSPropertyOp23
 70
     1
102
RTVSPropertyOp24
 70
     1
102
RTVSPropertyOp25
 70
     1
102
RTVSPropertyOp26
 70
     1
102
RTVSPropertyOp27
 70
     1
102
RTVSPropertyOp28
 70
     1
102
RTVSPropertyOp29
 70
     1
102
RTVSPropertyOp30
 70
     1
102
RTVSPropertyOp31
 70
     1
102
RTVSPropertyOp32
 70
     1
102
RTVSPropertyOp33
 70
     1
102
RTVSPropertyOp34
 70
     1
102
RTVSPropertyOp35
 70
     1
102
RTVSPropertyOp36
 70
     1
102
RTVSPropertyOp37
 70
     1
102
RTVSPropertyOp38
 70
     1
102
RTVSPropertyOp39
 70
     1
102
RTVSPropertyOp40
 70
     1
102
RTVSPropertyOp41
 70
     1
102
RTVSPropertyOp42
 70
     1
102
RTVSPropertyOp43
 70
     1
102
RTVSPropertyOp44
 70
     1
102
RTVSPropertyOp45
 70
     1
102
RTVSPropertyOp46
 70
     1
102
RTVSPropertyOp47
 70
     1
102
RTVSPropertyOp48
 70
     1
102
RTVSPropertyOp49
 70
     1
102
RTVSPropertyOp50
 70
     1
102
RTVSPropertyOp51
 70
     0
102
RTVSPropertyOp52
 70
     0
102
RTVSPropertyOp53
 70
     1
102
RTVSPropertyOp54
 70
     1
102
RTVSPropertyOp55
 70
     1
102
RTVSPropertyOp56
 70
     1
102
RTVSPropertyOp57
 70
     1
102
RTVSPost2010Prop28
280
     0
102
RTVSPost2010PropOp28
 70
     1
102
RTVSPost2010Prop29
280
     1
102
RTVSPost2010PropOp29
 70
     1
102
RTVSPost2010Prop30
280
     1
102
RTVSPost2010PropOp30
 70
     1
102
RTVSPost2010Prop31
280
     0
102
RTVSPost2010PropOp31
 70
     1
102
RTVSPost2010Prop32
280
     0
102
RTVSPost2010PropOp32
 70
     1
102
RTVSPost2010Prop33
280
     0
102
RTVSPost2010PropOp33
 70
     1
102
RTVSPost2010Prop34
280
     0
102
RTVSPost2010PropOp34
 70
     1
102
RTVSPost2010Prop35
280
     0
102
RTVSPost2010PropOp35
 70
     1
102
RTVSPost2010Prop36
280
     0
102
RTVSPost2010PropOp36
 70
     1
102
RTVSPost2010Prop37
 90
       50
102
RTVSPost2010PropOp37
 70
     1
102
RTVSPost2010Prop38
140
0.0
102
RTVSPost2010PropOp38
 70
     1
102
RTVSPost2010Prop39
140
1.0
102
RTVSPost2010PropOp39
 70
     1
102
RTVSPost2010Prop40
 90
        0
102
RTVSPost2010PropOp40
 70
     1
102
RTVSPost2010Prop41ColorIndex
 90
       18
102
RTVSPost2010Prop41ColorRGB
 90
        0
102
RTVSPost2010PropOp41
 70
     1
102
RTVSPost2010Prop42
 90
       50
102
RTVSPost2010PropOp42
 70
     1
102
RTVSPost2010Prop43
 90
        3
102
RTVSPost2010PropOp43
 70
     1
102
RTVSPost2010Prop44ColorIndex
 90
        5
102
RTVSPost2010Prop44ColorRGB
 90
      255
102
RTVSPost2010PropOp44
 70
     1
102
RTVSPost2010Prop45
280
     0
102
RTVSPost2010PropOp45
 70
     1
102
RTVSPost2010Prop46
 90
       50
102
RTVSPost2010PropOp46
 70
     1
102
RTVSPost2010Prop47
 90
       50
102
RTVSPost2010PropOp47
 70
     1
102
RTVSPost2010Prop48
 90
       50
102
RTVSPost2010PropOp48
 70
     1
102
RTVSPost2010Prop49
280
     0
102
RTVSPost2010PropOp49
 70
     1
102
RTVSPost2010Prop50
 90
       50
102
RTVSPost2010PropOp50
 70
     1
102
RTVSPost2010Prop51ColorIndex
 90
      256
102
RTVSPost2010Prop51ColorRGB
 90
-16777216
102
RTVSPost2010PropOp51
 70
     0
102
RTVSPost2010Prop52
140
1.0
102
RTVSPost2010PropOp52
 70
     0
102
RTVSPost2010Prop53
 90
        2
102
RTVSPost2010PropOp53
 70
     1
102
RTVSPost2010Prop54
  1
strokes_ogs.tif
102
RTVSPost2010PropOp54
 70
     1
102
RTVSPost2010Prop55
280
     0
102
RTVSPost2010PropOp55
 70
     1
102
RTVSPost2010Prop56
140
1.0
102
RTVSPost2010PropOp56
 70
     1
102
RTVSPost2010Prop57
140
1.0
102
RTVSPost2010PropOp57
 70
     1
  0
XRECORD
  5
82D
102
{ACAD_REACTORS
330
82C
102
}
330
82C
100
AcDbXrecord
280
     1
102
RTVSPropertyOp0
 70
     1
102
RTVSPropertyOp1
 70
     1
102
RTVSPropertyOp2
 70
     1
102
RTVSPropertyOp3
 70
     1
102
RTVSPropertyOp4
 70
     1
102
RTVSPropertyOp5
 70
     1
102
RTVSPropertyOp6
 70
     1
102
RTVSPropertyOp7
 70
     1
102
RTVSPropertyOp8
 70
     1
102
RTVSPropertyOp9
 70
     1
102
RTVSPropertyOp10
 70
     1
102
RTVSPropertyOp11
 70
     1
102
RTVSPropertyOp12
 70
     1
102
RTVSPropertyOp13
 70
     1
102
RTVSPropertyOp14
 70
     1
102
RTVSPropertyOp15
 70
     1
102
RTVSPropertyOp16
 70
     1
102
RTVSPropertyOp17
 70
     1
102
RTVSPropertyOp18
 70
     1
102
RTVSPropertyOp19
 70
     1
102
RTVSPropertyOp20
 70
     1
102
RTVSPropertyOp21
 70
     1
102
RTVSPropertyOp22
 70
     1
102
RTVSPropertyOp23
 70
     1
102
RTVSPropertyOp24
 70
     1
102
RTVSPropertyOp25
 70
     1
102
RTVSPropertyOp26
 70
     1
102
RTVSPropertyOp27
 70
     1
102
RTVSPropertyOp28
 70
     1
102
RTVSPropertyOp29
 70
     1
102
RTVSPropertyOp30
 70
     1
102
RTVSPropertyOp31
 70
     1
102
RTVSPropertyOp32
 70
     1
102
RTVSPropertyOp33
 70
     1
102
RTVSPropertyOp34
 70
     1
102
RTVSPropertyOp35
 70
     1
102
RTVSPropertyOp36
 70
     1
102
RTVSPropertyOp37
 70
     1
102
RTVSPropertyOp38
 70
     1
102
RTVSPropertyOp39
 70
     1
102
RTVSPropertyOp40
 70
     1
102
RTVSPropertyOp41
 70
     1
102
RTVSPropertyOp42
 70
     1
102
RTVSPropertyOp43
 70
     1
102
RTVSPropertyOp44
 70
     1
102
RTVSPropertyOp45
 70
     1
102
RTVSPropertyOp46
 70
     1
102
RTVSPropertyOp47
 70
     1
102
RTVSPropertyOp48
 70
     1
102
RTVSPropertyOp49
 70
     1
102
RTVSPropertyOp50
 70
     1
102
RTVSPropertyOp51
 70
     0
102
RTVSPropertyOp52
 70
     0
102
RTVSPropertyOp53
 70
     1
102
RTVSPropertyOp54
 70
     1
102
RTVSPropertyOp55
 70
     1
102
RTVSPropertyOp56
 70
     1
102
RTVSPropertyOp57
 70
     1
102
RTVSPost2010Prop28
280
     0
102
RTVSPost2010PropOp28
 70
     1
102
RTVSPost2010Prop29
280
     1
102
RTVSPost2010PropOp29
 70
     1
102
RTVSPost2010Prop30
280
     1
102
RTVSPost2010PropOp30
 70
     1
102
RTVSPost2010Prop31
280
     0
102
RTVSPost2010PropOp31
 70
     1
102
RTVSPost2010Prop32
280
     0
102
RTVSPost2010PropOp32
 70
     1
102
RTVSPost2010Prop33
280
     0
102
RTVSPost2010PropOp33
 70
     1
102
RTVSPost2010Prop34
280
     0
102
RTVSPost2010PropOp34
 70
     1
102
RTVSPost2010Prop35
280
     0
102
RTVSPost2010PropOp35
 70
     1
102
RTVSPost2010Prop36
280
     0
102
RTVSPost2010PropOp36
 70
     1
102
RTVSPost2010Prop37
 90
       50
102
RTVSPost2010PropOp37
 70
     1
102
RTVSPost2010Prop38
140
0.0
102
RTVSPost2010PropOp38
 70
     1
102
RTVSPost2010Prop39
140
1.0
102
RTVSPost2010PropOp39
 70
     1
102
RTVSPost2010Prop40
 90
        0
102
RTVSPost2010PropOp40
 70
     1
102
RTVSPost2010Prop41ColorIndex
 90
       18
102
RTVSPost2010Prop41ColorRGB
 90
        0
102
RTVSPost2010PropOp41
 70
     1
102
RTVSPost2010Prop42
 90
       50
102
RTVSPost2010PropOp42
 70
     1
102
RTVSPost2010Prop43
 90
        3
102
RTVSPost2010PropOp43
 70
     1
102
RTVSPost2010Prop44ColorIndex
 90
        5
102
RTVSPost2010Prop44ColorRGB
 90
      255
102
RTVSPost2010PropOp44
 70
     1
102
RTVSPost2010Prop45
280
     0
102
RTVSPost2010PropOp45
 70
     1
102
RTVSPost2010Prop46
 90
       50
102
RTVSPost2010PropOp46
 70
     1
102
RTVSPost2010Prop47
 90
       50
102
RTVSPost2010PropOp47
 70
     1
102
RTVSPost2010Prop48
 90
       50
102
RTVSPost2010PropOp48
 70
     1
102
RTVSPost2010Prop49
280
     0
102
RTVSPost2010PropOp49
 70
     1
102
RTVSPost2010Prop50
 90
       50
102
RTVSPost2010PropOp50
 70
     1
102
RTVSPost2010Prop51ColorIndex
 90
      256
102
RTVSPost2010Prop51ColorRGB
 90
-16777216
102
RTVSPost2010PropOp51
 70
     0
102
RTVSPost2010Prop52
140
1.0
102
RTVSPost2010PropOp52
 70
     0
102
RTVSPost2010Prop53
 90
        2
102
RTVSPost2010PropOp53
 70
     1
102
RTVSPost2010Prop54
  1
strokes_ogs.tif
102
RTVSPost2010PropOp54
 70
     1
102
RTVSPost2010Prop55
280
     0
102
RTVSPost2010PropOp55
 70
     1
102
RTVSPost2010Prop56
140
1.0
102
RTVSPost2010PropOp56
 70
     1
102
RTVSPost2010Prop57
140
1.0
102
RTVSPost2010PropOp57
 70
     1
  0
XRECORD
  5
827
102
{ACAD_REACTORS
330
826
102
}
330
826
100
AcDbXrecord
280
     1
102
RTVSPropertyOp0
 70
     1
102
RTVSPropertyOp1
 70
     1
102
RTVSPropertyOp2
 70
     1
102
RTVSPropertyOp3
 70
     1
102
RTVSPropertyOp4
 70
     1
102
RTVSPropertyOp5
 70
     1
102
RTVSPropertyOp6
 70
     1
102
RTVSPropertyOp7
 70
     1
102
RTVSPropertyOp8
 70
     1
102
RTVSPropertyOp9
 70
     1
102
RTVSPropertyOp10
 70
     1
102
RTVSPropertyOp11
 70
     1
102
RTVSPropertyOp12
 70
     1
102
RTVSPropertyOp13
 70
     1
102
RTVSPropertyOp14
 70
     1
102
RTVSPropertyOp15
 70
     1
102
RTVSPropertyOp16
 70
     1
102
RTVSPropertyOp17
 70
     1
102
RTVSPropertyOp18
 70
     1
102
RTVSPropertyOp19
 70
     1
102
RTVSPropertyOp20
 70
     1
102
RTVSPropertyOp21
 70
     1
102
RTVSPropertyOp22
 70
     1
102
RTVSPropertyOp23
 70
     1
102
RTVSPropertyOp24
 70
     1
102
RTVSPropertyOp25
 70
     1
102
RTVSPropertyOp26
 70
     1
102
RTVSPropertyOp27
 70
     1
102
RTVSPropertyOp28
 70
     1
102
RTVSPropertyOp29
 70
     1
102
RTVSPropertyOp30
 70
     1
102
RTVSPropertyOp31
 70
     1
102
RTVSPropertyOp32
 70
     1
102
RTVSPropertyOp33
 70
     1
102
RTVSPropertyOp34
 70
     1
102
RTVSPropertyOp35
 70
     1
102
RTVSPropertyOp36
 70
     1
102
RTVSPropertyOp37
 70
     1
102
RTVSPropertyOp38
 70
     1
102
RTVSPropertyOp39
 70
     1
102
RTVSPropertyOp40
 70
     1
102
RTVSPropertyOp41
 70
     1
102
RTVSPropertyOp42
 70
     1
102
RTVSPropertyOp43
 70
     1
102
RTVSPropertyOp44
 70
     1
102
RTVSPropertyOp45
 70
     1
102
RTVSPropertyOp46
 70
     1
102
RTVSPropertyOp47
 70
     1
102
RTVSPropertyOp48
 70
     1
102
RTVSPropertyOp49
 70
     1
102
RTVSPropertyOp50
 70
     1
102
RTVSPropertyOp51
 70
     0
102
RTVSPropertyOp52
 70
     0
102
RTVSPropertyOp53
 70
     1
102
RTVSPropertyOp54
 70
     1
102
RTVSPropertyOp55
 70
     1
102
RTVSPropertyOp56
 70
     1
102
RTVSPropertyOp57
 70
     1
102
RTVSPost2010Prop28
280
     0
102
RTVSPost2010PropOp28
 70
     1
102
RTVSPost2010Prop29
280
     1
102
RTVSPost2010PropOp29
 70
     1
102
RTVSPost2010Prop30
280
     1
102
RTVSPost2010PropOp30
 70
     1
102
RTVSPost2010Prop31
280
     0
102
RTVSPost2010PropOp31
 70
     1
102
RTVSPost2010Prop32
280
     0
102
RTVSPost2010PropOp32
 70
     1
102
RTVSPost2010Prop33
280
     0
102
RTVSPost2010PropOp33
 70
     1
102
RTVSPost2010Prop34
280
     0
102
RTVSPost2010PropOp34
 70
     1
102
RTVSPost2010Prop35
280
     0
102
RTVSPost2010PropOp35
 70
     1
102
RTVSPost2010Prop36
280
     0
102
RTVSPost2010PropOp36
 70
     1
102
RTVSPost2010Prop37
 90
       50
102
RTVSPost2010PropOp37
 70
     1
102
RTVSPost2010Prop38
140
0.0
102
RTVSPost2010PropOp38
 70
     1
102
RTVSPost2010Prop39
140
1.0
102
RTVSPost2010PropOp39
 70
     1
102
RTVSPost2010Prop40
 90
        0
102
RTVSPost2010PropOp40
 70
     1
102
RTVSPost2010Prop41ColorIndex
 90
       18
102
RTVSPost2010Prop41ColorRGB
 90
        0
102
RTVSPost2010PropOp41
 70
     1
102
RTVSPost2010Prop42
 90
       50
102
RTVSPost2010PropOp42
 70
     1
102
RTVSPost2010Prop43
 90
        3
102
RTVSPost2010PropOp43
 70
     1
102
RTVSPost2010Prop44ColorIndex
 90
        5
102
RTVSPost2010Prop44ColorRGB
 90
      255
102
RTVSPost2010PropOp44
 70
     1
102
RTVSPost2010Prop45
280
     0
102
RTVSPost2010PropOp45
 70
     1
102
RTVSPost2010Prop46
 90
       50
102
RTVSPost2010PropOp46
 70
     1
102
RTVSPost2010Prop47
 90
       50
102
RTVSPost2010PropOp47
 70
     1
102
RTVSPost2010Prop48
 90
       50
102
RTVSPost2010PropOp48
 70
     1
102
RTVSPost2010Prop49
280
     0
102
RTVSPost2010PropOp49
 70
     1
102
RTVSPost2010Prop50
 90
       50
102
RTVSPost2010PropOp50
 70
     1
102
RTVSPost2010Prop51ColorIndex
 90
      256
102
RTVSPost2010Prop51ColorRGB
 90
-16777216
102
RTVSPost2010PropOp51
 70
     0
102
RTVSPost2010Prop52
140
1.0
102
RTVSPost2010PropOp52
 70
     0
102
RTVSPost2010Prop53
 90
        2
102
RTVSPost2010PropOp53
 70
     1
102
RTVSPost2010Prop54
  1
strokes_ogs.tif
102
RTVSPost2010PropOp54
 70
     1
102
RTVSPost2010Prop55
280
     0
102
RTVSPost2010PropOp55
 70
     1
102
RTVSPost2010Prop56
140
1.0
102
RTVSPost2010PropOp56
 70
     1
102
RTVSPost2010Prop57
140
1.0
102
RTVSPost2010PropOp57
 70
     1
  0
XRECORD
  5
829
102
{ACAD_REACTORS
330
828
102
}
330
828
100
AcDbXrecord
280
     1
102
RTVSPropertyOp0
 70
     1
102
RTVSPropertyOp1
 70
     1
102
RTVSPropertyOp2
 70
     1
102
RTVSPropertyOp3
 70
     1
102
RTVSPropertyOp4
 70
     1
102
RTVSPropertyOp5
 70
     1
102
RTVSPropertyOp6
 70
     1
102
RTVSPropertyOp7
 70
     1
102
RTVSPropertyOp8
 70
     1
102
RTVSPropertyOp9
 70
     1
102
RTVSPropertyOp10
 70
     1
102
RTVSPropertyOp11
 70
     1
102
RTVSPropertyOp12
 70
     1
102
RTVSPropertyOp13
 70
     1
102
RTVSPropertyOp14
 70
     1
102
RTVSPropertyOp15
 70
     1
102
RTVSPropertyOp16
 70
     1
102
RTVSPropertyOp17
 70
     1
102
RTVSPropertyOp18
 70
     1
102
RTVSPropertyOp19
 70
     1
102
RTVSPropertyOp20
 70
     1
102
RTVSPropertyOp21
 70
     1
102
RTVSPropertyOp22
 70
     1
102
RTVSPropertyOp23
 70
     1
102
RTVSPropertyOp24
 70
     1
102
RTVSPropertyOp25
 70
     1
102
RTVSPropertyOp26
 70
     1
102
RTVSPropertyOp27
 70
     1
102
RTVSPropertyOp28
 70
     1
102
RTVSPropertyOp29
 70
     1
102
RTVSPropertyOp30
 70
     1
102
RTVSPropertyOp31
 70
     1
102
RTVSPropertyOp32
 70
     1
102
RTVSPropertyOp33
 70
     1
102
RTVSPropertyOp34
 70
     1
102
RTVSPropertyOp35
 70
     1
102
RTVSPropertyOp36
 70
     1
102
RTVSPropertyOp37
 70
     1
102
RTVSPropertyOp38
 70
     1
102
RTVSPropertyOp39
 70
     1
102
RTVSPropertyOp40
 70
     1
102
RTVSPropertyOp41
 70
     1
102
RTVSPropertyOp42
 70
     1
102
RTVSPropertyOp43
 70
     1
102
RTVSPropertyOp44
 70
     1
102
RTVSPropertyOp45
 70
     1
102
RTVSPropertyOp46
 70
     1
102
RTVSPropertyOp47
 70
     1
102
RTVSPropertyOp48
 70
     1
102
RTVSPropertyOp49
 70
     1
102
RTVSPropertyOp50
 70
     1
102
RTVSPropertyOp51
 70
     0
102
RTVSPropertyOp52
 70
     0
102
RTVSPropertyOp53
 70
     1
102
RTVSPropertyOp54
 70
     1
102
RTVSPropertyOp55
 70
     1
102
RTVSPropertyOp56
 70
     1
102
RTVSPropertyOp57
 70
     1
102
RTVSPost2010Prop28
280
     0
102
RTVSPost2010PropOp28
 70
     1
102
RTVSPost2010Prop29
280
     1
102
RTVSPost2010PropOp29
 70
     1
102
RTVSPost2010Prop30
280
     1
102
RTVSPost2010PropOp30
 70
     1
102
RTVSPost2010Prop31
280
     0
102
RTVSPost2010PropOp31
 70
     1
102
RTVSPost2010Prop32
280
     0
102
RTVSPost2010PropOp32
 70
     1
102
RTVSPost2010Prop33
280
     0
102
RTVSPost2010PropOp33
 70
     1
102
RTVSPost2010Prop34
280
     0
102
RTVSPost2010PropOp34
 70
     1
102
RTVSPost2010Prop35
280
     0
102
RTVSPost2010PropOp35
 70
     1
102
RTVSPost2010Prop36
280
     0
102
RTVSPost2010PropOp36
 70
     1
102
RTVSPost2010Prop37
 90
       50
102
RTVSPost2010PropOp37
 70
     1
102
RTVSPost2010Prop38
140
0.0
102
RTVSPost2010PropOp38
 70
     1
102
RTVSPost2010Prop39
140
1.0
102
RTVSPost2010PropOp39
 70
     1
102
RTVSPost2010Prop40
 90
        0
102
RTVSPost2010PropOp40
 70
     1
102
RTVSPost2010Prop41ColorIndex
 90
       18
102
RTVSPost2010Prop41ColorRGB
 90
        0
102
RTVSPost2010PropOp41
 70
     1
102
RTVSPost2010Prop42
 90
       50
102
RTVSPost2010PropOp42
 70
     1
102
RTVSPost2010Prop43
 90
        3
102
RTVSPost2010PropOp43
 70
     1
102
RTVSPost2010Prop44ColorIndex
 90
        5
102
RTVSPost2010Prop44ColorRGB
 90
      255
102
RTVSPost2010PropOp44
 70
     1
102
RTVSPost2010Prop45
280
     0
102
RTVSPost2010PropOp45
 70
     1
102
RTVSPost2010Prop46
 90
       50
102
RTVSPost2010PropOp46
 70
     1
102
RTVSPost2010Prop47
 90
       50
102
RTVSPost2010PropOp47
 70
     1
102
RTVSPost2010Prop48
 90
       50
102
RTVSPost2010PropOp48
 70
     1
102
RTVSPost2010Prop49
280
     0
102
RTVSPost2010PropOp49
 70
     1
102
RTVSPost2010Prop50
 90
       50
102
RTVSPost2010PropOp50
 70
     1
102
RTVSPost2010Prop51ColorIndex
 90
      256
102
RTVSPost2010Prop51ColorRGB
 90
-16777216
102
RTVSPost2010PropOp51
 70
     0
102
RTVSPost2010Prop52
140
1.0
102
RTVSPost2010PropOp52
 70
     0
102
RTVSPost2010Prop53
 90
        2
102
RTVSPost2010PropOp53
 70
     1
102
RTVSPost2010Prop54
  1
strokes_ogs.tif
102
RTVSPost2010PropOp54
 70
     1
102
RTVSPost2010Prop55
280
     0
102
RTVSPost2010PropOp55
 70
     1
102
RTVSPost2010Prop56
140
1.0
102
RTVSPost2010PropOp56
 70
     1
102
RTVSPost2010Prop57
140
1.0
102
RTVSPost2010PropOp57
 70
     1
  0
XRECORD
  5
819
102
{ACAD_REACTORS
330
818
102
}
330
818
100
AcDbXrecord
280
     1
102
RTVSPropertyOp0
 70
     1
102
RTVSPropertyOp1
 70
     1
102
RTVSPropertyOp2
 70
     1
102
RTVSPropertyOp3
 70
     1
102
RTVSPropertyOp4
 70
     1
102
RTVSPropertyOp5
 70
     1
102
RTVSPropertyOp6
 70
     1
102
RTVSPropertyOp7
 70
     1
102
RTVSPropertyOp8
 70
     1
102
RTVSPropertyOp9
 70
     1
102
RTVSPropertyOp10
 70
     1
102
RTVSPropertyOp11
 70
     1
102
RTVSPropertyOp12
 70
     1
102
RTVSPropertyOp13
 70
     1
102
RTVSPropertyOp14
 70
     1
102
RTVSPropertyOp15
 70
     1
102
RTVSPropertyOp16
 70
     1
102
RTVSPropertyOp17
 70
     1
102
RTVSPropertyOp18
 70
     1
102
RTVSPropertyOp19
 70
     1
102
RTVSPropertyOp20
 70
     1
102
RTVSPropertyOp21
 70
     1
102
RTVSPropertyOp22
 70
     1
102
RTVSPropertyOp23
 70
     1
102
RTVSPropertyOp24
 70
     1
102
RTVSPropertyOp25
 70
     1
102
RTVSPropertyOp26
 70
     1
102
RTVSPropertyOp27
 70
     1
102
RTVSPropertyOp28
 70
     1
102
RTVSPropertyOp29
 70
     1
102
RTVSPropertyOp30
 70
     1
102
RTVSPropertyOp31
 70
     1
102
RTVSPropertyOp32
 70
     1
102
RTVSPropertyOp33
 70
     1
102
RTVSPropertyOp34
 70
     1
102
RTVSPropertyOp35
 70
     1
102
RTVSPropertyOp36
 70
     1
102
RTVSPropertyOp37
 70
     1
102
RTVSPropertyOp38
 70
     1
102
RTVSPropertyOp39
 70
     1
102
RTVSPropertyOp40
 70
     1
102
RTVSPropertyOp41
 70
     1
102
RTVSPropertyOp42
 70
     1
102
RTVSPropertyOp43
 70
     1
102
RTVSPropertyOp44
 70
     1
102
RTVSPropertyOp45
 70
     1
102
RTVSPropertyOp46
 70
     1
102
RTVSPropertyOp47
 70
     1
102
RTVSPropertyOp48
 70
     1
102
RTVSPropertyOp49
 70
     1
102
RTVSPropertyOp50
 70
     1
102
RTVSPropertyOp51
 70
     0
102
RTVSPropertyOp52
 70
     0
102
RTVSPropertyOp53
 70
     1
102
RTVSPropertyOp54
 70
     1
102
RTVSPropertyOp55
 70
     1
102
RTVSPropertyOp56
 70
     1
102
RTVSPropertyOp57
 70
     1
102
RTVSPost2010Prop28
280
     0
102
RTVSPost2010PropOp28
 70
     1
102
RTVSPost2010Prop29
280
     1
102
RTVSPost2010PropOp29
 70
     1
102
RTVSPost2010Prop30
280
     1
102
RTVSPost2010PropOp30
 70
     1
102
RTVSPost2010Prop31
280
     0
102
RTVSPost2010PropOp31
 70
     1
102
RTVSPost2010Prop32
280
     0
102
RTVSPost2010PropOp32
 70
     1
102
RTVSPost2010Prop33
280
     0
102
RTVSPost2010PropOp33
 70
     1
102
RTVSPost2010Prop34
280
     0
102
RTVSPost2010PropOp34
 70
     1
102
RTVSPost2010Prop35
280
     0
102
RTVSPost2010PropOp35
 70
     1
102
RTVSPost2010Prop36
280
     0
102
RTVSPost2010PropOp36
 70
     1
102
RTVSPost2010Prop37
 90
       50
102
RTVSPost2010PropOp37
 70
     1
102
RTVSPost2010Prop38
140
0.0
102
RTVSPost2010PropOp38
 70
     1
102
RTVSPost2010Prop39
140
1.0
102
RTVSPost2010PropOp39
 70
     1
102
RTVSPost2010Prop40
 90
        0
102
RTVSPost2010PropOp40
 70
     1
102
RTVSPost2010Prop41ColorIndex
 90
       18
102
RTVSPost2010Prop41ColorRGB
 90
        0
102
RTVSPost2010PropOp41
 70
     1
102
RTVSPost2010Prop42
 90
       50
102
RTVSPost2010PropOp42
 70
     1
102
RTVSPost2010Prop43
 90
        3
102
RTVSPost2010PropOp43
 70
     1
102
RTVSPost2010Prop44ColorIndex
 90
        5
102
RTVSPost2010Prop44ColorRGB
 90
      255
102
RTVSPost2010PropOp44
 70
     1
102
RTVSPost2010Prop45
280
     0
102
RTVSPost2010PropOp45
 70
     1
102
RTVSPost2010Prop46
 90
       50
102
RTVSPost2010PropOp46
 70
     1
102
RTVSPost2010Prop47
 90
       50
102
RTVSPost2010PropOp47
 70
     1
102
RTVSPost2010Prop48
 90
       50
102
RTVSPost2010PropOp48
 70
     1
102
RTVSPost2010Prop49
280
     0
102
RTVSPost2010PropOp49
 70
     1
102
RTVSPost2010Prop50
 90
       50
102
RTVSPost2010PropOp50
 70
     1
102
RTVSPost2010Prop51ColorIndex
 90
      256
102
RTVSPost2010Prop51ColorRGB
 90
-16777216
102
RTVSPost2010PropOp51
 70
     0
102
RTVSPost2010Prop52
140
1.0
102
RTVSPost2010PropOp52
 70
     0
102
RTVSPost2010Prop53
 90
        2
102
RTVSPost2010PropOp53
 70
     1
102
RTVSPost2010Prop54
  1
strokes_ogs.tif
102
RTVSPost2010PropOp54
 70
     1
102
RTVSPost2010Prop55
280
     0
102
RTVSPost2010PropOp55
 70
     1
102
RTVSPost2010Prop56
140
1.0
102
RTVSPost2010PropOp56
 70
     1
102
RTVSPost2010Prop57
140
1.0
102
RTVSPost2010PropOp57
 70
     1
  0
XRECORD
  5
80B
102
{ACAD_REACTORS
330
80A
102
}
330
80A
100
AcDbXrecord
280
     1
102
RTVSPropertyOp0
 70
     1
102
RTVSPropertyOp1
 70
     1
102
RTVSPropertyOp2
 70
     1
102
RTVSPropertyOp3
 70
     1
102
RTVSPropertyOp4
 70
     1
102
RTVSPropertyOp5
 70
     1
102
RTVSPropertyOp6
 70
     1
102
RTVSPropertyOp7
 70
     1
102
RTVSPropertyOp8
 70
     1
102
RTVSPropertyOp9
 70
     1
102
RTVSPropertyOp10
 70
     1
102
RTVSPropertyOp11
 70
     1
102
RTVSPropertyOp12
 70
     1
102
RTVSPropertyOp13
 70
     1
102
RTVSPropertyOp14
 70
     1
102
RTVSPropertyOp15
 70
     1
102
RTVSPropertyOp16
 70
     1
102
RTVSPropertyOp17
 70
     1
102
RTVSPropertyOp18
 70
     1
102
RTVSPropertyOp19
 70
     1
102
RTVSPropertyOp20
 70
     1
102
RTVSPropertyOp21
 70
     1
102
RTVSPropertyOp22
 70
     1
102
RTVSPropertyOp23
 70
     1
102
RTVSPropertyOp24
 70
     1
102
RTVSPropertyOp25
 70
     1
102
RTVSPropertyOp26
 70
     1
102
RTVSPropertyOp27
 70
     1
102
RTVSPropertyOp28
 70
     1
102
RTVSPropertyOp29
 70
     1
102
RTVSPropertyOp30
 70
     1
102
RTVSPropertyOp31
 70
     1
102
RTVSPropertyOp32
 70
     1
102
RTVSPropertyOp33
 70
     1
102
RTVSPropertyOp34
 70
     1
102
RTVSPropertyOp35
 70
     1
102
RTVSPropertyOp36
 70
     1
102
RTVSPropertyOp37
 70
     1
102
RTVSPropertyOp38
 70
     1
102
RTVSPropertyOp39
 70
     1
102
RTVSPropertyOp40
 70
     1
102
RTVSPropertyOp41
 70
     1
102
RTVSPropertyOp42
 70
     1
102
RTVSPropertyOp43
 70
     1
102
RTVSPropertyOp44
 70
     1
102
RTVSPropertyOp45
 70
     1
102
RTVSPropertyOp46
 70
     1
102
RTVSPropertyOp47
 70
     1
102
RTVSPropertyOp48
 70
     1
102
RTVSPropertyOp49
 70
     1
102
RTVSPropertyOp50
 70
     1
102
RTVSPropertyOp51
 70
     0
102
RTVSPropertyOp52
 70
     0
102
RTVSPropertyOp53
 70
     1
102
RTVSPropertyOp54
 70
     1
102
RTVSPropertyOp55
 70
     1
102
RTVSPropertyOp56
 70
     1
102
RTVSPropertyOp57
 70
     1
102
RTVSPost2010Prop28
280
     0
102
RTVSPost2010PropOp28
 70
     1
102
RTVSPost2010Prop29
280
     1
102
RTVSPost2010PropOp29
 70
     1
102
RTVSPost2010Prop30
280
     1
102
RTVSPost2010PropOp30
 70
     1
102
RTVSPost2010Prop31
280
     0
102
RTVSPost2010PropOp31
 70
     1
102
RTVSPost2010Prop32
280
     0
102
RTVSPost2010PropOp32
 70
     1
102
RTVSPost2010Prop33
280
     0
102
RTVSPost2010PropOp33
 70
     1
102
RTVSPost2010Prop34
280
     0
102
RTVSPost2010PropOp34
 70
     1
102
RTVSPost2010Prop35
280
     0
102
RTVSPost2010PropOp35
 70
     1
102
RTVSPost2010Prop36
280
     0
102
RTVSPost2010PropOp36
 70
     1
102
RTVSPost2010Prop37
 90
       50
102
RTVSPost2010PropOp37
 70
     1
102
RTVSPost2010Prop38
140
0.0
102
RTVSPost2010PropOp38
 70
     1
102
RTVSPost2010Prop39
140
1.0
102
RTVSPost2010PropOp39
 70
     1
102
RTVSPost2010Prop40
 90
        0
102
RTVSPost2010PropOp40
 70
     1
102
RTVSPost2010Prop41ColorIndex
 90
       18
102
RTVSPost2010Prop41ColorRGB
 90
        0
102
RTVSPost2010PropOp41
 70
     1
102
RTVSPost2010Prop42
 90
       50
102
RTVSPost2010PropOp42
 70
     1
102
RTVSPost2010Prop43
 90
        3
102
RTVSPost2010PropOp43
 70
     1
102
RTVSPost2010Prop44ColorIndex
 90
        5
102
RTVSPost2010Prop44ColorRGB
 90
      255
102
RTVSPost2010PropOp44
 70
     1
102
RTVSPost2010Prop45
280
     0
102
RTVSPost2010PropOp45
 70
     1
102
RTVSPost2010Prop46
 90
       50
102
RTVSPost2010PropOp46
 70
     1
102
RTVSPost2010Prop47
 90
       50
102
RTVSPost2010PropOp47
 70
     1
102
RTVSPost2010Prop48
 90
       50
102
RTVSPost2010PropOp48
 70
     1
102
RTVSPost2010Prop49
280
     0
102
RTVSPost2010PropOp49
 70
     1
102
RTVSPost2010Prop50
 90
       50
102
RTVSPost2010PropOp50
 70
     1
102
RTVSPost2010Prop51ColorIndex
 90
      256
102
RTVSPost2010Prop51ColorRGB
 90
-16777216
102
RTVSPost2010PropOp51
 70
     0
102
RTVSPost2010Prop52
140
1.0
102
RTVSPost2010PropOp52
 70
     0
102
RTVSPost2010Prop53
 90
        2
102
RTVSPost2010PropOp53
 70
     1
102
RTVSPost2010Prop54
  1
strokes_ogs.tif
102
RTVSPost2010PropOp54
 70
     1
102
RTVSPost2010Prop55
280
     0
102
RTVSPost2010PropOp55
 70
     1
102
RTVSPost2010Prop56
140
1.0
102
RTVSPost2010PropOp56
 70
     1
102
RTVSPost2010Prop57
140
1.0
102
RTVSPost2010PropOp57
 70
     1
  0
XRECORD
  5
82B
102
{ACAD_REACTORS
330
82A
102
}
330
82A
100
AcDbXrecord
280
     1
102
RTVSPropertyOp0
 70
     1
102
RTVSPropertyOp1
 70
     1
102
RTVSPropertyOp2
 70
     1
102
RTVSPropertyOp3
 70
     1
102
RTVSPropertyOp4
 70
     1
102
RTVSPropertyOp5
 70
     1
102
RTVSPropertyOp6
 70
     1
102
RTVSPropertyOp7
 70
     1
102
RTVSPropertyOp8
 70
     1
102
RTVSPropertyOp9
 70
     1
102
RTVSPropertyOp10
 70
     1
102
RTVSPropertyOp11
 70
     1
102
RTVSPropertyOp12
 70
     1
102
RTVSPropertyOp13
 70
     1
102
RTVSPropertyOp14
 70
     1
102
RTVSPropertyOp15
 70
     1
102
RTVSPropertyOp16
 70
     1
102
RTVSPropertyOp17
 70
     1
102
RTVSPropertyOp18
 70
     1
102
RTVSPropertyOp19
 70
     1
102
RTVSPropertyOp20
 70
     1
102
RTVSPropertyOp21
 70
     1
102
RTVSPropertyOp22
 70
     1
102
RTVSPropertyOp23
 70
     1
102
RTVSPropertyOp24
 70
     1
102
RTVSPropertyOp25
 70
     1
102
RTVSPropertyOp26
 70
     1
102
RTVSPropertyOp27
 70
     1
102
RTVSPropertyOp28
 70
     1
102
RTVSPropertyOp29
 70
     1
102
RTVSPropertyOp30
 70
     1
102
RTVSPropertyOp31
 70
     1
102
RTVSPropertyOp32
 70
     1
102
RTVSPropertyOp33
 70
     1
102
RTVSPropertyOp34
 70
     1
102
RTVSPropertyOp35
 70
     1
102
RTVSPropertyOp36
 70
     1
102
RTVSPropertyOp37
 70
     1
102
RTVSPropertyOp38
 70
     1
102
RTVSPropertyOp39
 70
     1
102
RTVSPropertyOp40
 70
     1
102
RTVSPropertyOp41
 70
     1
102
RTVSPropertyOp42
 70
     1
102
RTVSPropertyOp43
 70
     1
102
RTVSPropertyOp44
 70
     1
102
RTVSPropertyOp45
 70
     1
102
RTVSPropertyOp46
 70
     1
102
RTVSPropertyOp47
 70
     1
102
RTVSPropertyOp48
 70
     1
102
RTVSPropertyOp49
 70
     1
102
RTVSPropertyOp50
 70
     1
102
RTVSPropertyOp51
 70
     0
102
RTVSPropertyOp52
 70
     0
102
RTVSPropertyOp53
 70
     1
102
RTVSPropertyOp54
 70
     1
102
RTVSPropertyOp55
 70
     1
102
RTVSPropertyOp56
 70
     1
102
RTVSPropertyOp57
 70
     1
102
RTVSPost2010Prop28
280
     0
102
RTVSPost2010PropOp28
 70
     1
102
RTVSPost2010Prop29
280
     1
102
RTVSPost2010PropOp29
 70
     1
102
RTVSPost2010Prop30
280
     1
102
RTVSPost2010PropOp30
 70
     1
102
RTVSPost2010Prop31
280
     0
102
RTVSPost2010PropOp31
 70
     1
102
RTVSPost2010Prop32
280
     0
102
RTVSPost2010PropOp32
 70
     1
102
RTVSPost2010Prop33
280
     0
102
RTVSPost2010PropOp33
 70
     1
102
RTVSPost2010Prop34
280
     0
102
RTVSPost2010PropOp34
 70
     1
102
RTVSPost2010Prop35
280
     0
102
RTVSPost2010PropOp35
 70
     1
102
RTVSPost2010Prop36
280
     0
102
RTVSPost2010PropOp36
 70
     1
102
RTVSPost2010Prop37
 90
       50
102
RTVSPost2010PropOp37
 70
     1
102
RTVSPost2010Prop38
140
0.0
102
RTVSPost2010PropOp38
 70
     1
102
RTVSPost2010Prop39
140
1.0
102
RTVSPost2010PropOp39
 70
     1
102
RTVSPost2010Prop40
 90
        0
102
RTVSPost2010PropOp40
 70
     1
102
RTVSPost2010Prop41ColorIndex
 90
       18
102
RTVSPost2010Prop41ColorRGB
 90
        0
102
RTVSPost2010PropOp41
 70
     1
102
RTVSPost2010Prop42
 90
       50
102
RTVSPost2010PropOp42
 70
     1
102
RTVSPost2010Prop43
 90
        3
102
RTVSPost2010PropOp43
 70
     1
102
RTVSPost2010Prop44ColorIndex
 90
        5
102
RTVSPost2010Prop44ColorRGB
 90
      255
102
RTVSPost2010PropOp44
 70
     1
102
RTVSPost2010Prop45
280
     0
102
RTVSPost2010PropOp45
 70
     1
102
RTVSPost2010Prop46
 90
       50
102
RTVSPost2010PropOp46
 70
     1
102
RTVSPost2010Prop47
 90
       50
102
RTVSPost2010PropOp47
 70
     1
102
RTVSPost2010Prop48
 90
       50
102
RTVSPost2010PropOp48
 70
     1
102
RTVSPost2010Prop49
280
     0
102
RTVSPost2010PropOp49
 70
     1
102
RTVSPost2010Prop50
 90
       50
102
RTVSPost2010PropOp50
 70
     1
102
RTVSPost2010Prop51ColorIndex
 90
      256
102
RTVSPost2010Prop51ColorRGB
 90
-16777216
102
RTVSPost2010PropOp51
 70
     0
102
RTVSPost2010Prop52
140
1.0
102
RTVSPost2010PropOp52
 70
     0
102
RTVSPost2010Prop53
 90
        2
102
RTVSPost2010PropOp53
 70
     1
102
RTVSPost2010Prop54
  1
strokes_ogs.tif
102
RTVSPost2010PropOp54
 70
     1
102
RTVSPost2010Prop55
280
     0
102
RTVSPost2010PropOp55
 70
     1
102
RTVSPost2010Prop56
140
1.0
102
RTVSPost2010PropOp56
 70
     1
102
RTVSPost2010Prop57
140
1.0
102
RTVSPost2010PropOp57
 70
     1
  0
ENDSEC
  0
EOF
