  0
SECTION
  2
HEADER
  9
$ACADVER
  1
AC1015
  9
$ACADMAINTVER
 70
     6
  9
$DWGCODEPAGE
  3
ANSI_1252
  9
$INSBASE
 10
0.0
 20
0.0
 30
0.0
  9
$EXTMIN
 10
1.000000000000000E+20
 20
1.000000000000000E+20
 30
1.000000000000000E+20
  9
$EXTMAX
 10
-1.000000000000000E+20
 20
-1.000000000000000E+20
 30
-1.000000000000000E+20
  9
$LIMMIN
 10
-170.0
 20
-170.0
  9
$LIMMAX
 10
519.0
 20
260.0
  9
$ORTHOMODE
 70
     0
  9
$REGENMODE
 70
     1
  9
$FILLMODE
 70
     1
  9
$QTEXTMODE
 70
     0
  9
$MIRRTEXT
 70
     0
  9
$LTSCALE
 40
1.0
  9
$ATTMODE
 70
     1
  9
$TEXTSIZE
 40
3.5
  9
$TRACEWID
 40
1.0
  9
$TEXTSTYLE
  7
SIMPLEX
  9
$CLAYER
  8
1
  9
$CELTYPE
  6
BYLAYER
  9
$CECOLOR
 62
   256
  9
$CELTSCALE
 40
1.0
  9
$DISPSILH
 70
     0
  9
$DIMSCALE
 40
1.0
  9
$DIMASZ
 40
2.5
  9
$DIMEXO
 40
0.0
  9
$DIMDLI
 40
3.75
  9
$DIMRND
 40
0.0
  9
$DIMDLE
 40
0.0
  9
$DIMEXE
 40
1.25
  9
$DIMTP
 40
0.0
  9
$DIMTM
 40
0.0
  9
$DIMTXT
 40
3.5
  9
$DIMCEN
 40
0.0
  9
$DIMTSZ
 40
0.0
  9
$DIMTOL
 70
     0
  9
$DIMLIM
 70
     0
  9
$DIMTIH
 70
     0
  9
$DIMTOH
 70
     0
  9
$DIMSE1
 70
     0
  9
$DIMSE2
 70
     0
  9
$DIMTAD
 70
     1
  9
$DIMZIN
 70
     8
  9
$DIMBLK
  1

  9
$DIMASO
 70
     1
  9
$DIMSHO
 70
     1
  9
$DIMPOST
  1

  9
$DIMAPOST
  1

  9
$DIMALT
 70
     0
  9
$DIMALTD
 70
     3
  9
$DIMALTF
 40
0.039370078
  9
$DIMLFAC
 40
1.0
  9
$DIMTOFL
 70
     0
  9
$DIMTVP
 40
0.0
  9
$DIMTIX
 70
     0
  9
$DIMSOXD
 70
     0
  9
$DIMSAH
 70
     0
  9
$DIMBLK1
  1

  9
$DIMBLK2
  1

  9
$DIMSTYLE
  2
STANDARD
  9
$DIMCLRD
 70
     0
  9
$DIMCLRE
 70
     0
  9
$DIMCLRT
 70
     0
  9
$DIMTFAC
 40
1.0
  9
$DIMGAP
 40
0.625
  9
$DIMJUST
 70
     0
  9
$DIMSD1
 70
     0
  9
$DIMSD2
 70
     0
  9
$DIMTOLJ
 70
     0
  9
$DIMTZIN
 70
     8
  9
$DIMALTZ
 70
     0
  9
$DIMALTTZ
 70
     0
  9
$DIMUPT
 70
     0
  9
$DIMDEC
 70
     2
  9
$DIMTDEC
 70
     2
  9
$DIMALTU
 70
     2
  9
$DIMALTTD
 70
     3
  9
$DIMTXSTY
  7
SIMPLEX
  9
$DIMAUNIT
 70
     0
  9
$DIMADEC
 70
     2
  9
$DIMALTRND
 40
0.0
  9
$DIMAZIN
 70
     2
  9
$DIMDSEP
 70
    46
  9
$DIMATFIT
 70
     3
  9
$DIMFRAC
 70
     0
  9
$DIMLDRBLK
  1

  9
$DIMLUNIT
 70
     2
  9
$DIMLWD
 70
    -2
  9
$DIMLWE
 70
    -2
  9
$DIMTMOVE
 70
     0
  9
$LUNITS
 70
     2
  9
$LUPREC
 70
     4
  9
$SKETCHINC
 40
1.0
  9
$FILLETRAD
 40
0.0
  9
$AUNITS
 70
     0
  9
$AUPREC
 70
     0
  9
$MENU
  1
c:\tdm21\cad\caduti13\tdm13
  9
$ELEVATION
 40
0.0
  9
$PELEVATION
 40
0.0
  9
$THICKNESS
 40
0.0
  9
$LIMCHECK
 70
     0
  9
$CHAMFERA
 40
0.0
  9
$CHAMFERB
 40
0.0
  9
$CHAMFERC
 40
0.0
  9
$CHAMFERD
 40
0.0
  9
$SKPOLY
 70
     0
  9
$TDCREATE
 40
2454957.551975972
  9
$TDUCREATE
 40
2454957.510309306
  9
$TDUPDATE
 40
2457360.435422292
  9
$TDUUPDATE
 40
2457360.393755625
  9
$TDINDWG
 40
0.0009643519
  9
$TDUSRTIMER
 40
0.0009475231
  9
$USRTIMER
 70
     1
  9
$ANGBASE
 50
0.0
  9
$ANGDIR
 70
     0
  9
$PDMODE
 70
     1
  9
$PDSIZE
 40
0.0
  9
$PLINEWID
 40
0.0
  9
$SPLFRAME
 70
     0
  9
$SPLINETYPE
 70
     6
  9
$SPLINESEGS
 70
     8
  9
$HANDSEED
  5
848
  9
$SURFTAB1
 70
     6
  9
$SURFTAB2
 70
     6
  9
$SURFTYPE
 70
     6
  9
$SURFU
 70
     6
  9
$SURFV
 70
     6
  9
$UCSBASE
  2

  9
$UCSNAME
  2

  9
$UCSORG
 10
0.0
 20
0.0
 30
0.0
  9
$UCSXDIR
 10
1.0
 20
0.0
 30
0.0
  9
$UCSYDIR
 10
0.0
 20
1.0
 30
0.0
  9
$UCSORTHOREF
  2

  9
$UCSORTHOVIEW
 70
     0
  9
$UCSORGTOP
 10
0.0
 20
0.0
 30
0.0
  9
$UCSORGBOTTOM
 10
0.0
 20
0.0
 30
0.0
  9
$UCSORGLEFT
 10
0.0
 20
0.0
 30
0.0
  9
$UCSORGRIGHT
 10
0.0
 20
0.0
 30
0.0
  9
$UCSORGFRONT
 10
0.0
 20
0.0
 30
0.0
  9
$UCSORGBACK
 10
0.0
 20
0.0
 30
0.0
  9
$PUCSBASE
  2

  9
$PUCSNAME
  2

  9
$PUCSORG
 10
0.0
 20
0.0
 30
0.0
  9
$PUCSXDIR
 10
1.0
 20
0.0
 30
0.0
  9
$PUCSYDIR
 10
0.0
 20
1.0
 30
0.0
  9
$PUCSORTHOREF
  2

  9
$PUCSORTHOVIEW
 70
     0
  9
$PUCSORGTOP
 10
0.0
 20
0.0
 30
0.0
  9
$PUCSORGBOTTOM
 10
0.0
 20
0.0
 30
0.0
  9
$PUCSORGLEFT
 10
0.0
 20
0.0
 30
0.0
  9
$PUCSORGRIGHT
 10
0.0
 20
0.0
 30
0.0
  9
$PUCSORGFRONT
 10
0.0
 20
0.0
 30
0.0
  9
$PUCSORGBACK
 10
0.0
 20
0.0
 30
0.0
  9
$USERI1
 70
     0
  9
$USERI2
 70
     0
  9
$USERI3
 70
     0
  9
$USERI4
 70
     0
  9
$USERI5
 70
     0
  9
$USERR1
 40
0.0
  9
$USERR2
 40
0.0
  9
$USERR3
 40
0.0
  9
$USERR4
 40
0.0
  9
$USERR5
 40
0.0
  9
$WORLDVIEW
 70
     1
  9
$SHADEDGE
 70
     3
  9
$SHADEDIF
 70
    70
  9
$TILEMODE
 70
     1
  9
$MAXACTVP
 70
    64
  9
$PINSBASE
 10
0.0
 20
0.0
 30
0.0
  9
$PLIMCHECK
 70
     0
  9
$PEXTMIN
 10
0.0
 20
0.0
 30
0.0
  9
$PEXTMAX
 10
0.0
 20
0.0
 30
0.0
  9
$PLIMMIN
 10
0.0
 20
0.0
  9
$PLIMMAX
 10
12.0
 20
9.0
  9
$UNITMODE
 70
     0
  9
$VISRETAIN
 70
     0
  9
$PLINEGEN
 70
     0
  9
$PSLTSCALE
 70
     1
  9
$TREEDEPTH
 70
  3020
  9
$CMLSTYLE
  2
STANDARD
  9
$CMLJUST
 70
     0
  9
$CMLSCALE
 40
20.0
  9
$PROXYGRAPHICS
 70
     1
  9
$MEASUREMENT
 70
     1
  9
$CELWEIGHT
370
    -1
  9
$ENDCAPS
280
     0
  9
$JOINSTYLE
280
     0
  9
$LWDISPLAY
290
     0
  9
$INSUNITS
 70
     4
  9
$HYPERLINKBASE
  1

  9
$STYLESHEET
  1
MONOCHROME.CTB
  9
$XEDIT
290
     1
  9
$CEPSNTYPE
380
     0
  9
$PSTYLEMODE
290
     1
  9
$FINGERPRINTGUID
  2
{46B44192-1510-48B1-B61B-CBE2ADA013A7}
  9
$VERSIONGUID
  2
{6160D478-9A74-4C97-9D8A-D4A65CE74B12}
  9
$EXTNAMES
290
     1
  9
$PSVPSCALE
 40
0.0
  9
$OLESTARTUP
290
     0
  0
ENDSEC
  0
SECTION
  2
CLASSES
  0
CLASS
  1
ACDBDICTIONARYWDFLT
  2
AcDbDictionaryWithDefault
  3
ObjectDBX Classes
 90
        0
280
     0
281
     0
  0
CLASS
  1
ACDBPLACEHOLDER
  2
AcDbPlaceHolder
  3
ObjectDBX Classes
 90
        0
280
     0
281
     0
  0
CLASS
  1
LAYOUT
  2
AcDbLayout
  3
ObjectDBX Classes
 90
        0
280
     0
281
     0
  0
CLASS
  1
DICTIONARYVAR
  2
AcDbDictionaryVar
  3
ObjectDBX Classes
 90
        0
280
     0
281
     0
  0
CLASS
  1
TABLESTYLE
  2
AcDbTableStyle
  3
ObjectDBX Classes
 90
     4095
280
     0
281
     0
  0
CLASS
  1
SCALE
  2
AcDbScale
  3
ObjectDBX Classes
 90
     1153
280
     0
281
     0
  0
CLASS
  1
VISUALSTYLE
  2
AcDbVisualStyle
  3
ObjectDBX Classes
 90
     4095
280
     0
281
     0
  0
CLASS
  1
MATERIAL
  2
AcDbMaterial
  3
ObjectDBX Classes
 90
     1153
280
     0
281
     0
  0
CLASS
  1
MLEADERSTYLE
  2
AcDbMLeaderStyle
  3
ACDB_MLEADERSTYLE_CLASS
 90
     4095
280
     0
281
     0
  0
ENDSEC
  0
SECTION
  2
TABLES
  0
TABLE
  2
VPORT
  5
8
102
{ACAD_XDICTIONARY
360
80C
102
}
330
0
100
AcDbSymbolTable
 70
     1
  0
VPORT
  5
39A
330
8
100
AcDbSymbolTableRecord
100
AcDbViewportTableRecord
  2
*Active
 70
     0
 10
0.0
 20
0.0
 11
1.0
 21
1.0
 12
218.9201881351169
 22
109.7549380673833
 13
0.0
 23
0.0
 14
5.0
 24
5.0
 15
5.0
 25
5.0
 16
0.0
 26
0.0
 36
1.0
 17
0.0
 27
0.0
 37
0.0
 40
564.6711112651689
 41
1.066073697585768
 42
50.0
 43
0.0
 44
0.0
 50
0.0
 51
0.0
 71
     0
 72
  2000
 73
     1
 74
     1
 75
     0
 76
     0
 77
     0
 78
     0
281
     0
 65
     1
110
0.0
120
0.0
130
0.0
111
1.0
121
0.0
131
0.0
112
0.0
122
1.0
132
0.0
 79
     0
146
0.0
  0
ENDTAB
  0
TABLE
  2
LTYPE
  5
5
330
0
100
AcDbSymbolTable
 70
     3
  0
LTYPE
  5
12
330
5
100
AcDbSymbolTableRecord
100
AcDbLinetypeTableRecord
  2
BYBLOCK
 70
     0
  3

 72
    65
 73
     0
 40
0.0
  0
LTYPE
  5
13
330
5
100
AcDbSymbolTableRecord
100
AcDbLinetypeTableRecord
  2
BYLAYER
 70
     0
  3

 72
    65
 73
     0
 40
0.0
  0
LTYPE
  5
14
330
5
100
AcDbSymbolTableRecord
100
AcDbLinetypeTableRecord
  2
CONTINUOUS
 70
     0
  3
Solid line
 72
    65
 73
     0
 40
0.0
  0
LTYPE
  5
20
330
5
100
AcDbSymbolTableRecord
100
AcDbLinetypeTableRecord
  2
HIDDEN
 70
     0
  3
Hidden __ __ __ __ __ __ __ __ __ __ __ __ __ _
 72
    65
 73
     2
 40
9.524999999999997
 49
6.349999999999998
 74
     0
 49
-3.174999999999998
 74
     0
  0
LTYPE
  5
351
330
5
100
AcDbSymbolTableRecord
100
AcDbLinetypeTableRecord
  2
CENTER
 70
     0
  3
Dash dot __ . __ . __ . __ . __ . __ . __ . __
 72
    65
 73
     4
 40
25.4
 49
12.7
 74
     0
 49
-6.349999999999998
 74
     0
 49
0.0
 74
     0
 49
-6.349999999999998
 74
     0
  0
ENDTAB
  0
TABLE
  2
LAYER
  5
2
330
0
100
AcDbSymbolTable
 70
    16
  0
LAYER
  5
F
330
2
100
AcDbSymbolTableRecord
100
AcDbLayerTableRecord
  2
0
 70
     0
 62
     7
  6
CONTINUOUS
370
    -3
390
300
  0
LAYER
  5
23
330
2
100
AcDbSymbolTableRecord
100
AcDbLayerTableRecord
  2
1
 70
     0
 62
     4
  6
CONTINUOUS
370
    -3
390
300
  0
LAYER
  5
24
330
2
100
AcDbSymbolTableRecord
100
AcDbLayerTableRecord
  2
SK1
 70
     0
 62
     4
  6
CONTINUOUS
370
    -3
390
300
  0
LAYER
  5
25
330
2
100
AcDbSymbolTableRecord
100
AcDbLayerTableRecord
  2
2
 70
     0
 62
     7
  6
CONTINUOUS
370
    -3
390
300
  0
LAYER
  5
26
330
2
100
AcDbSymbolTableRecord
100
AcDbLayerTableRecord
  2
2L
 70
     0
 62
     7
  6
CONTINUOUS
370
    -3
390
300
  0
LAYER
  5
27
330
2
100
AcDbSymbolTableRecord
100
AcDbLayerTableRecord
  2
SK2
 70
     0
 62
     7
  6
CONTINUOUS
370
    -3
390
300
  0
LAYER
  5
28
330
2
100
AcDbSymbolTableRecord
100
AcDbLayerTableRecord
  2
3
 70
     0
 62
     1
  6
HIDDEN
370
    -3
390
300
  0
LAYER
  5
29
330
2
100
AcDbSymbolTableRecord
100
AcDbLayerTableRecord
  2
SK3
 70
     0
 62
     1
  6
HIDDEN
370
    -3
390
300
  0
LAYER
  5
2A
330
2
100
AcDbSymbolTableRecord
100
AcDbLayerTableRecord
  2
4
 70
     0
 62
     2
  6
CENTER
370
    -3
390
300
  0
LAYER
  5
2B
330
2
100
AcDbSymbolTableRecord
100
AcDbLayerTableRecord
  2
SK4
 70
     0
 62
     2
  6
CENTER
370
    -3
390
300
  0
LAYER
  5
2C
330
2
100
AcDbSymbolTableRecord
100
AcDbLayerTableRecord
  2
5
 70
     0
 62
    -7
  6
CONTINUOUS
370
    -3
390
300
  0
LAYER
  5
2D
330
2
100
AcDbSymbolTableRecord
100
AcDbLayerTableRecord
  2
6
 70
     0
 62
     5
  6
CONTINUOUS
370
    -3
390
300
  0
LAYER
  5
2E
330
2
100
AcDbSymbolTableRecord
100
AcDbLayerTableRecord
  2
SK6
 70
     0
 62
     5
  6
CONTINUOUS
370
    -3
390
300
  0
LAYER
  5
2F
330
2
100
AcDbSymbolTableRecord
100
AcDbLayerTableRecord
  2
DEFPOINTS
 70
     0
 62
     7
  6
CONTINUOUS
290
     0
370
    -3
390
300
  0
LAYER
  5
375
330
2
100
AcDbSymbolTableRecord
100
AcDbLayerTableRecord
  2
CUT
 70
     0
 62
     1
  6
CONTINUOUS
370
    -3
390
300
  0
LAYER
  5
376
330
2
100
AcDbSymbolTableRecord
100
AcDbLayerTableRecord
  2
NOCUT
 70
     0
 62
     7
  6
CONTINUOUS
370
    -3
390
300
  0
ENDTAB
  0
TABLE
  2
STYLE
  5
3
330
0
100
AcDbSymbolTable
 70
     4
  0
STYLE
  5
10
330
3
100
AcDbSymbolTableRecord
100
AcDbTextStyleTableRecord
  2
STANDARD
 70
     0
 40
0.0
 41
1.0
 50
0.0
 71
     0
 42
5.0
  3
txt
  4

  0
STYLE
  5
1D
330
3
100
AcDbSymbolTableRecord
100
AcDbTextStyleTableRecord
  2
TXT
 70
     0
 40
8.0
 41
1.0
 50
0.0
 71
     0
 42
8.0
  3
txt
  4

  0
STYLE
  5
1E
330
3
100
AcDbSymbolTableRecord
100
AcDbTextStyleTableRecord
  2
SIMPLEX
 70
     0
 40
0.0
 41
1.0
 50
0.0
 71
     0
 42
3.5
  3
simplex
  4

  0
STYLE
  5
34C
330
3
100
AcDbSymbolTableRecord
100
AcDbTextStyleTableRecord
  2

 70
     1
 40
0.0
 41
1.0
 50
0.0
 71
     0
 42
2.5
  3
ltypeshp.shx
  4

  0
ENDTAB
  0
TABLE
  2
VIEW
  5
6
330
0
100
AcDbSymbolTable
 70
     0
  0
ENDTAB
  0
TABLE
  2
UCS
  5
7
330
0
100
AcDbSymbolTable
 70
     0
  0
ENDTAB
  0
TABLE
  2
APPID
  5
9
330
0
100
AcDbSymbolTable
 70
     2
  0
APPID
  5
11
330
9
100
AcDbSymbolTableRecord
100
AcDbRegAppTableRecord
  2
ACAD
 70
     0
  0
APPID
  5
845
330
9
100
AcDbSymbolTableRecord
100
AcDbRegAppTableRecord
  2
ACAD_MLEADERVER
 70
     0
  0
ENDTAB
  0
TABLE
  2
DIMSTYLE
  5
A
330
0
100
AcDbSymbolTable
 70
     1
100
AcDbDimStyleTable
  0
DIMSTYLE
105
3F
102
{ACAD_REACTORS
330
7B9
330
7C7
330
7D4
330
7E1
330
7EF
330
7FC
102
}
330
A
100
AcDbSymbolTableRecord
100
AcDbDimStyleTableRecord
  2
STANDARD
 70
     0
 41
2.5
 42
0.0
 43
3.75
 44
1.25
 73
     0
 74
     0
 77
     1
 78
     8
 79
     2
140
3.5
141
0.0
143
0.039370078
147
0.625
171
     3
178
     0
179
     2
271
     2
272
     2
274
     3
283
     0
284
     8
340
1E
  0
ENDTAB
  0
TABLE
  2
BLOCK_RECORD
  5
1
330
0
100
AcDbSymbolTable
 70
     6
  0
BLOCK_RECORD
  5
18
330
1
100
AcDbSymbolTableRecord
100
AcDbBlockTableRecord
  2
*MODEL_SPACE
340
303
  0
BLOCK_RECORD
  5
338
330
1
100
AcDbSymbolTableRecord
100
AcDbBlockTableRecord
  2
*Paper_Space
340
33B
  0
BLOCK_RECORD
  5
7BA
330
1
100
AcDbSymbolTableRecord
100
AcDbBlockTableRecord
  2
*D0
340
0
  0
BLOCK_RECORD
  5
7C8
330
1
100
AcDbSymbolTableRecord
100
AcDbBlockTableRecord
  2
*D1
340
0
  0
BLOCK_RECORD
  5
7D5
330
1
100
AcDbSymbolTableRecord
100
AcDbBlockTableRecord
  2
*D2
340
0
  0
BLOCK_RECORD
  5
7E2
330
1
100
AcDbSymbolTableRecord
100
AcDbBlockTableRecord
  2
*D3
340
0
  0
BLOCK_RECORD
  5
7F0
330
1
100
AcDbSymbolTableRecord
100
AcDbBlockTableRecord
  2
*D4
340
0
  0
BLOCK_RECORD
  5
7FD
330
1
100
AcDbSymbolTableRecord
100
AcDbBlockTableRecord
  2
*D5
340
0
  0
ENDTAB
  0
ENDSEC
  0
SECTION
  2
BLOCKS
  0
BLOCK
  5
32
330
18
100
AcDbEntity
  8
0
100
AcDbBlockBegin
  2
*MODEL_SPACE
 70
     0
 10
0.0
 20
0.0
 30
0.0
  3
*MODEL_SPACE
  1

  0
ENDBLK
  5
33
330
18
100
AcDbEntity
  8
0
100
AcDbBlockEnd
  0
BLOCK
  5
339
330
338
100
AcDbEntity
 67
     1
  8
0
100
AcDbBlockBegin
  2
*Paper_Space
 70
     0
 10
0.0
 20
0.0
 30
0.0
  3
*Paper_Space
  1

  0
ENDBLK
  5
33A
330
338
100
AcDbEntity
 67
     1
  8
0
100
AcDbBlockEnd
  0
BLOCK
  5
7BB
330
7BA
100
AcDbEntity
  8
0
100
AcDbBlockBegin
  2
*D0
 70
     1
 10
0.0
 20
0.0
 30
0.0
  3
*D0
  1

  0
LINE
  5
7BD
330
7BA
100
AcDbEntity
  8
2
 62
     0
370
    -2
100
AcDbLine
 10
52.9
 20
4.7625
 30
0.0
 11
69.14999999999999
 21
4.762500000000057
 31
0.0
  0
LINE
  5
7BE
330
7BA
100
AcDbEntity
  8
2
 62
     0
370
    -2
100
AcDbLine
 10
52.9
 20
-4.7625
 30
0.0
 11
69.15000000000002
 21
-4.762499999999943
 31
0.0
  0
LINE
  5
7BF
330
7BA
100
AcDbEntity
  8
2
 62
     0
370
    -2
100
AcDbLine
 10
67.90000000000002
 20
-4.762499999999948
 30
0.0
 11
67.90000000000008
 21
-22.69099999999994
 31
0.0
  0
LINE
  5
7C0
330
7BA
100
AcDbEntity
  8
2
 62
     0
370
    -2
100
AcDbLine
 10
67.9
 20
2.262500000000053
 30
0.0
 11
67.9
 21
-2.262499999999948
 31
0.0
  0
SOLID
  5
7C1
330
7BA
100
AcDbEntity
  8
2
 62
     0
100
AcDbTrace
 10
68.31666666666668
 20
2.262500000000054
 30
0.0
 11
67.48333333333333
 21
2.262500000000051
 31
0.0
 12
67.89999999999999
 22
4.762500000000053
 32
0.0
 13
67.89999999999999
 23
4.762500000000053
 33
0.0
  0
SOLID
  5
7C2
330
7BA
100
AcDbEntity
  8
2
 62
     0
100
AcDbTrace
 10
67.48333333333333
 20
-2.262499999999949
 30
0.0
 11
68.31666666666668
 21
-2.262499999999946
 31
0.0
 12
67.90000000000002
 22
-4.762499999999948
 32
0.0
 13
67.90000000000002
 23
-4.762499999999948
 33
0.0
  0
MTEXT
  5
7C3
330
7BA
100
AcDbEntity
  8
2
 62
     0
100
AcDbMText
 10
65.50225000000005
 20
-14.97674999999995
 30
0.0
 40
3.5
 41
0.0
 71
     5
 72
     1
  1
%%c9.53
  7
SIMPLEX
 11
-2.983906501879686E-15
 21
1.0
 31
0.0
 73
     1
 44
1.0
  0
POINT
  5
7C4
330
7BA
100
AcDbEntity
  8
DEFPOINTS
 62
     0
100
AcDbPoint
 10
52.9
 20
4.7625
 30
0.0
  0
POINT
  5
7C5
330
7BA
100
AcDbEntity
  8
DEFPOINTS
 62
     0
100
AcDbPoint
 10
52.9
 20
-4.7625
 30
0.0
  0
POINT
  5
7C6
330
7BA
100
AcDbEntity
  8
DEFPOINTS
 62
     0
100
AcDbPoint
 10
67.90000000000002
 20
-4.762499999999948
 30
0.0
  0
ENDBLK
  5
7BC
330
7BA
100
AcDbEntity
  8
0
100
AcDbBlockEnd
  0
BLOCK
  5
7C9
330
7C8
100
AcDbEntity
  8
0
100
AcDbBlockBegin
  2
*D1
 70
     1
 10
0.0
 20
0.0
 30
0.0
  3
*D1
  1

  0
LINE
  5
7CB
330
7C8
100
AcDbEntity
  8
2
 62
     0
370
    -2
100
AcDbLine
 10
0.0
 20
0.0
 30
0.0
 11
0.0
 21
76.25
 31
0.0
  0
LINE
  5
7CC
330
7C8
100
AcDbEntity
  8
2
 62
     0
370
    -2
100
AcDbLine
 10
52.9
 20
0.0
 30
0.0
 11
52.9
 21
76.25
 31
0.0
  0
LINE
  5
7CD
330
7C8
100
AcDbEntity
  8
2
 62
     0
370
    -2
100
AcDbLine
 10
2.5
 20
75.0
 30
0.0
 11
50.4
 21
75.0
 31
0.0
  0
SOLID
  5
7CE
330
7C8
100
AcDbEntity
  8
2
 62
     0
100
AcDbTrace
 10
2.5
 20
75.41666666666667
 30
0.0
 11
2.5
 21
74.58333333333333
 31
0.0
 12
0.0
 22
75.0
 32
0.0
 13
0.0
 23
75.0
 33
0.0
  0
SOLID
  5
7CF
330
7C8
100
AcDbEntity
  8
2
 62
     0
100
AcDbTrace
 10
50.4
 20
74.58333333333333
 30
0.0
 11
50.4
 21
75.41666666666667
 31
0.0
 12
52.9
 22
75.0
 32
0.0
 13
52.9
 23
75.0
 33
0.0
  0
MTEXT
  5
7D0
330
7C8
100
AcDbEntity
  8
2
 62
     0
100
AcDbMText
 10
26.45
 20
77.39775
 30
0.0
 40
3.5
 41
0.0
 71
     5
 72
     1
  1
52.9
  7
SIMPLEX
 73
     1
 44
1.0
  0
POINT
  5
7D1
330
7C8
100
AcDbEntity
  8
DEFPOINTS
 62
     0
100
AcDbPoint
 10
0.0
 20
0.0
 30
0.0
  0
POINT
  5
7D2
330
7C8
100
AcDbEntity
  8
DEFPOINTS
 62
     0
100
AcDbPoint
 10
52.9
 20
0.0
 30
0.0
  0
POINT
  5
7D3
330
7C8
100
AcDbEntity
  8
DEFPOINTS
 62
     0
100
AcDbPoint
 10
52.9
 20
75.0
 30
0.0
  0
ENDBLK
  5
7CA
330
7C8
100
AcDbEntity
  8
0
100
AcDbBlockEnd
  0
BLOCK
  5
7D6
330
7D5
100
AcDbEntity
  8
0
100
AcDbBlockBegin
  2
*D2
 70
     1
 10
0.0
 20
0.0
 30
0.0
  3
*D2
  1

  0
LINE
  5
7D8
330
7D5
100
AcDbEntity
  8
2
 62
     0
370
    -2
100
AcDbLine
 10
24.325
 20
4.7625
 30
0.0
 11
24.325
 21
61.25
 31
0.0
  0
LINE
  5
7D9
330
7D5
100
AcDbEntity
  8
2
 62
     0
370
    -2
100
AcDbLine
 10
52.9
 20
4.7625
 30
0.0
 11
52.9
 21
61.25
 31
0.0
  0
LINE
  5
7DA
330
7D5
100
AcDbEntity
  8
2
 62
     0
370
    -2
100
AcDbLine
 10
26.825
 20
60.0
 30
0.0
 11
50.4
 21
60.0
 31
0.0
  0
SOLID
  5
7DB
330
7D5
100
AcDbEntity
  8
2
 62
     0
100
AcDbTrace
 10
26.825
 20
60.41666666666666
 30
0.0
 11
26.825
 21
59.58333333333334
 31
0.0
 12
24.325
 22
60.0
 32
0.0
 13
24.325
 23
60.0
 33
0.0
  0
SOLID
  5
7DC
330
7D5
100
AcDbEntity
  8
2
 62
     0
100
AcDbTrace
 10
50.4
 20
59.58333333333334
 30
0.0
 11
50.4
 21
60.41666666666666
 31
0.0
 12
52.9
 22
60.0
 32
0.0
 13
52.9
 23
60.0
 33
0.0
  0
MTEXT
  5
7DD
330
7D5
100
AcDbEntity
  8
2
 62
     0
100
AcDbMText
 10
38.6125
 20
62.39775
 30
0.0
 40
3.5
 41
0.0
 71
     5
 72
     1
  1
28.58
  7
SIMPLEX
 73
     1
 44
1.0
  0
POINT
  5
7DE
330
7D5
100
AcDbEntity
  8
DEFPOINTS
 62
     0
100
AcDbPoint
 10
24.325
 20
4.7625
 30
0.0
  0
POINT
  5
7DF
330
7D5
100
AcDbEntity
  8
DEFPOINTS
 62
     0
100
AcDbPoint
 10
52.9
 20
4.7625
 30
0.0
  0
POINT
  5
7E0
330
7D5
100
AcDbEntity
  8
DEFPOINTS
 62
     0
100
AcDbPoint
 10
52.9
 20
60.0
 30
0.0
  0
ENDBLK
  5
7D7
330
7D5
100
AcDbEntity
  8
0
100
AcDbBlockEnd
  0
BLOCK
  5
7E3
330
7E2
100
AcDbEntity
  8
0
100
AcDbBlockBegin
  2
*D3
 70
     1
 10
0.0
 20
0.0
 30
0.0
  3
*D3
  1

  0
LINE
  5
7E5
330
7E2
100
AcDbEntity
  8
SK2
 62
     0
370
    -2
100
AcDbLine
 10
-36.00000000000001
 20
4.7625
 30
0.0
 11
-52.25000000002431
 21
4.762499999917071
 31
0.0
  0
LINE
  5
7E6
330
7E2
100
AcDbEntity
  8
SK2
 62
     0
370
    -2
100
AcDbLine
 10
-36.00000000000001
 20
-4.7625
 30
0.0
 11
-52.2499999999757
 21
-4.762500000082929
 31
0.0
  0
LINE
  5
7E7
330
7E2
100
AcDbEntity
  8
SK2
 62
     0
370
    -2
100
AcDbLine
 10
-50.9999999999757
 20
-4.76250000007655
 30
0.0
 11
-50.9999999998842
 21
-22.69100000007655
 31
0.0
  0
LINE
  5
7E8
330
7E2
100
AcDbEntity
  8
SK2
 62
     0
370
    -2
100
AcDbLine
 10
-51.00000000001155
 20
2.26249999992345
 30
0.0
 11
-50.99999999998846
 21
-2.26250000007655
 31
0.0
  0
SOLID
  5
7E9
330
7E2
100
AcDbEntity
  8
SK2
 62
     0
100
AcDbTrace
 10
-50.58333333334488
 20
2.262499999925576
 30
0.0
 11
-51.41666666667821
 21
2.262499999921324
 31
0.0
 12
-51.00000000002431
 22
4.76249999992345
 32
0.0
 13
-51.00000000002431
 23
4.76249999992345
 33
0.0
  0
SOLID
  5
7EA
330
7E2
100
AcDbEntity
  8
SK2
 62
     0
100
AcDbTrace
 10
-51.41666666665513
 20
-2.262500000078677
 30
0.0
 11
-50.5833333333218
 21
-2.262500000074424
 31
0.0
 12
-50.9999999999757
 22
-4.76250000007655
 32
0.0
 13
-50.9999999999757
 23
-4.76250000007655
 33
0.0
  0
MTEXT
  5
7EB
330
7E2
100
AcDbEntity
  8
SK2
 62
     0
100
AcDbMText
 10
-53.39774999992358
 20
-14.97675000008878
 30
0.0
 40
3.5
 41
0.0
 71
     5
 72
     1
  1
%%c9.53
  7
SIMPLEX
 11
-5.103226094839732E-12
 21
1.0
 31
0.0
 73
     1
 44
1.0
  0
POINT
  5
7EC
330
7E2
100
AcDbEntity
  8
DEFPOINTS
 62
     0
100
AcDbPoint
 10
-36.00000000000001
 20
4.7625
 30
0.0
  0
POINT
  5
7ED
330
7E2
100
AcDbEntity
  8
DEFPOINTS
 62
     0
100
AcDbPoint
 10
-36.00000000000001
 20
-4.7625
 30
0.0
  0
POINT
  5
7EE
330
7E2
100
AcDbEntity
  8
DEFPOINTS
 62
     0
100
AcDbPoint
 10
-50.9999999999757
 20
-4.76250000007655
 30
0.0
  0
ENDBLK
  5
7E4
330
7E2
100
AcDbEntity
  8
0
100
AcDbBlockEnd
  0
BLOCK
  5
7F1
330
7F0
100
AcDbEntity
  8
0
100
AcDbBlockBegin
  2
*D4
 70
     1
 10
0.0
 20
0.0
 30
0.0
  3
*D4
  1

  0
LINE
  5
7F3
330
7F0
100
AcDbEntity
  8
SK2
 62
     0
370
    -2
100
AcDbLine
 10
-36.00000000000001
 20
0.0
 30
0.0
 11
-36.00000000000001
 21
91.25
 31
0.0
  0
LINE
  5
7F4
330
7F0
100
AcDbEntity
  8
SK2
 62
     0
370
    -2
100
AcDbLine
 10
52.9
 20
0.0
 30
0.0
 11
52.9
 21
91.25
 31
0.0
  0
LINE
  5
7F5
330
7F0
100
AcDbEntity
  8
SK2
 62
     0
370
    -2
100
AcDbLine
 10
-33.50000000000001
 20
90.0
 30
0.0
 11
50.4
 21
90.0
 31
0.0
  0
SOLID
  5
7F6
330
7F0
100
AcDbEntity
  8
SK2
 62
     0
100
AcDbTrace
 10
-33.50000000000001
 20
90.41666666666667
 30
0.0
 11
-33.50000000000001
 21
89.58333333333333
 31
0.0
 12
-36.00000000000001
 22
90.0
 32
0.0
 13
-36.00000000000001
 23
90.0
 33
0.0
  0
SOLID
  5
7F7
330
7F0
100
AcDbEntity
  8
SK2
 62
     0
100
AcDbTrace
 10
50.4
 20
89.58333333333333
 30
0.0
 11
50.4
 21
90.41666666666667
 31
0.0
 12
52.9
 22
90.0
 32
0.0
 13
52.9
 23
90.0
 33
0.0
  0
MTEXT
  5
7F8
330
7F0
100
AcDbEntity
  8
SK2
 62
     0
100
AcDbMText
 10
8.449999999999996
 20
92.39775
 30
0.0
 40
3.5
 41
0.0
 71
     5
 72
     1
  1
88.9
  7
SIMPLEX
 73
     1
 44
1.0
  0
POINT
  5
7F9
330
7F0
100
AcDbEntity
  8
DEFPOINTS
 62
     0
100
AcDbPoint
 10
-36.00000000000001
 20
0.0
 30
0.0
  0
POINT
  5
7FA
330
7F0
100
AcDbEntity
  8
DEFPOINTS
 62
     0
100
AcDbPoint
 10
52.9
 20
0.0
 30
0.0
  0
POINT
  5
7FB
330
7F0
100
AcDbEntity
  8
DEFPOINTS
 62
     0
100
AcDbPoint
 10
52.9
 20
90.0
 30
0.0
  0
ENDBLK
  5
7F2
330
7F0
100
AcDbEntity
  8
0
100
AcDbBlockEnd
  0
BLOCK
  5
7FE
330
7FD
100
AcDbEntity
  8
0
100
AcDbBlockBegin
  2
*D5
 70
     1
 10
0.0
 20
0.0
 30
0.0
  3
*D5
  1

  0
LINE
  5
800
330
7FD
100
AcDbEntity
  8
2
 62
     0
370
    -2
100
AcDbLine
 10
52.02187375030241
 20
-7.200394094313906
 30
0.0
 11
55.93983161039272
 21
-29.42023727627221
 31
0.0
  0
MTEXT
  5
801
330
7FD
100
AcDbEntity
  8
2
 62
     0
100
AcDbMText
 10
57.04728432128924
 20
-21.89282177570843
 30
0.0
 40
3.5
 41
0.0
 71
     5
 72
     1
  1
R1.59
  7
SIMPLEX
 11
0.1736481776669313
 21
-0.9848077530122079
 31
0.0
 73
     1
 44
1.0
  0
SOLID
  5
802
330
7FD
100
AcDbEntity
  8
2
 62
     0
100
AcDbTrace
 10
52.4322103140575
 20
-7.128040686952684
 30
0.0
 11
51.61153718654732
 21
-7.272747501675128
 31
0.0
 12
51.58775330613508
 22
-4.738374711783386
 32
0.0
 13
51.58775330613508
 23
-4.738374711783386
 33
0.0
  0
POINT
  5
803
330
7FD
100
AcDbEntity
  8
DEFPOINTS
 62
     0
100
AcDbPoint
 10
51.58775330613508
 20
-4.738374711783386
 30
0.0
  0
POINT
  5
804
330
7FD
100
AcDbEntity
  8
DEFPOINTS
 62
     0
100
AcDbPoint
 10
51.312
 20
-3.1745
 30
0.0
  0
ENDBLK
  5
7FF
330
7FD
100
AcDbEntity
  8
0
100
AcDbBlockEnd
  0
ENDSEC
  0
SECTION
  2
ENTITIES
  0
LINE
  5
3E0
330
18
100
AcDbEntity
  8
SK4
100
AcDbLine
 10
-38.00000000000001
 20
0.0
 30
0.0
 11
0.0
 21
0.0
 31
0.0
  0
LINE
  5
3E1
330
18
100
AcDbEntity
  8
4
100
AcDbLine
 10
-2.0
 20
0.0
 30
0.0
 11
54.9
 21
0.0
 31
0.0
  0
LINE
  5
3E2
330
18
100
AcDbEntity
  8
SK4
100
AcDbLine
 10
-2.0
 20
0.0
 30
0.0
 11
54.9
 21
0.0
 31
0.0
  0
LINE
  5
3E3
330
18
100
AcDbEntity
  8
1
100
AcDbLine
 10
23.32499999999999
 20
-4.762285600040918
 30
0.0
 11
23.32499999999999
 21
-4.762446504286736
 31
0.0
  0
LINE
  5
3E4
330
18
100
AcDbEntity
  8
1
100
AcDbLine
 10
23.32499999999999
 20
-4.762446504286736
 30
0.0
 11
23.32499999999999
 21
-4.762486639134117
 31
0.0
  0
LINE
  5
3E5
330
18
100
AcDbEntity
  8
1
100
AcDbLine
 10
23.32499999999999
 20
-4.762486639134117
 30
0.0
 11
23.32499999999999
 21
-4.762496661418054
 31
0.0
  0
LINE
  5
3E6
330
18
100
AcDbEntity
  8
1
100
AcDbLine
 10
23.32499999999999
 20
-4.762496661418054
 30
0.0
 11
23.32499999999999
 21
-4.762499165558935
 31
0.0
  0
LINE
  5
3E7
330
18
100
AcDbEntity
  8
1
100
AcDbLine
 10
23.32499999999999
 20
-4.762499165558935
 30
0.0
 11
23.32499999999999
 21
-4.762499791415292
 31
0.0
  0
LINE
  5
3E8
330
18
100
AcDbEntity
  8
1
100
AcDbLine
 10
23.32499999999999
 20
-4.762499791415292
 30
0.0
 11
23.32499999999999
 21
-4.762499947857017
 31
0.0
  0
LINE
  5
3E9
330
18
100
AcDbEntity
  8
1
100
AcDbLine
 10
23.32499999999999
 20
-4.762499947857017
 30
0.0
 11
23.32499999999999
 21
-4.762499986964652
 31
0.0
  0
LINE
  5
3EA
330
18
100
AcDbEntity
  8
1
100
AcDbLine
 10
23.32499999999999
 20
-4.762499986964652
 30
0.0
 11
23.32499999999999
 21
-4.762499996741211
 31
0.0
  0
LINE
  5
3EB
330
18
100
AcDbEntity
  8
1
100
AcDbLine
 10
23.32499999999999
 20
-4.762499996741211
 30
0.0
 11
23.32499999999999
 21
-4.762499999185308
 31
0.0
  0
LINE
  5
3EC
330
18
100
AcDbEntity
  8
1
100
AcDbLine
 10
23.32499999999999
 20
-4.762499999185308
 30
0.0
 11
23.32499999999999
 21
-4.762499999796327
 31
0.0
  0
LINE
  5
3ED
330
18
100
AcDbEntity
  8
1
100
AcDbLine
 10
23.32499999999999
 20
-4.762499999796327
 30
0.0
 11
23.32499999999999
 21
-4.762499999949081
 31
0.0
  0
LINE
  5
3EE
330
18
100
AcDbEntity
  8
1
100
AcDbLine
 10
23.32499999999999
 20
-4.762499999949081
 30
0.0
 11
23.32499999999999
 21
-4.762499999987269
 31
0.0
  0
LINE
  5
3EF
330
18
100
AcDbEntity
  8
1
100
AcDbLine
 10
23.32499999999999
 20
-4.762499999987269
 30
0.0
 11
23.32499999999999
 21
-4.762499999996816
 31
0.0
  0
LINE
  5
3F0
330
18
100
AcDbEntity
  8
1
100
AcDbLine
 10
23.32499999999999
 20
-4.762499999996816
 30
0.0
 11
23.32499999999999
 21
-4.762499999999203
 31
0.0
  0
LINE
  5
3F1
330
18
100
AcDbEntity
  8
1
100
AcDbLine
 10
23.32499999999999
 20
-4.762499999999203
 30
0.0
 11
23.32499999999999
 21
-4.762499999999799
 31
0.0
  0
LINE
  5
3F2
330
18
100
AcDbEntity
  8
1
100
AcDbLine
 10
23.32499999999999
 20
-4.762499999999799
 30
0.0
 11
23.32499999999999
 21
-4.762499999999949
 31
0.0
  0
LINE
  5
3F3
330
18
100
AcDbEntity
  8
1
100
AcDbLine
 10
23.32499999999999
 20
-4.762499999999949
 30
0.0
 11
23.32499999999999
 21
-4.762499999999993
 31
0.0
  0
LINE
  5
3F4
330
18
100
AcDbEntity
  8
1
100
AcDbLine
 10
23.32499999999999
 20
-4.762499999999993
 30
0.0
 11
23.32499999999999
 21
-4.762499999999998
 31
0.0
  0
LINE
  5
3F5
330
18
100
AcDbEntity
  8
1
100
AcDbLine
 10
23.32499999999999
 20
-2.34200732720952
 30
0.0
 11
23.32499999999999
 21
-4.485663614492529
 31
0.0
  0
LINE
  5
3F6
330
18
100
AcDbEntity
  8
1
100
AcDbLine
 10
24.325
 20
-4.741080129039502
 30
0.0
 11
24.325
 21
-3.287435553627738
 31
0.0
  0
LINE
  5
3F7
330
18
100
AcDbEntity
  8
1
100
AcDbLine
 10
23.32499999999999
 20
2.42027827283183
 30
0.0
 11
23.32499999999999
 21
-0.8571294074816724
 31
0.0
  0
ARC
  5
3F8
330
18
100
AcDbEntity
  8
1
100
AcDbCircle
 10
10.08145988815281
 20
-19.85026291341413
 30
0.0
 40
25.0961977581974
100
AcDbArc
 50
55.41999929489445
 51
58.14863810850085
  0
LINE
  5
3F9
330
18
100
AcDbEntity
  8
1
100
AcDbLine
 10
23.32499999999999
 20
4.762499999999999
 30
0.0
 11
23.32499999999999
 21
4.762262335177773
 31
0.0
  0
LINE
  5
3FA
330
18
100
AcDbEntity
  8
1
100
AcDbLine
 10
23.32499999999999
 20
4.762262335177773
 30
0.0
 11
23.32499999999999
 21
4.689591476467923
 31
0.0
  0
LINE
  5
3FB
330
18
100
AcDbEntity
  8
1
100
AcDbLine
 10
23.32499999999999
 20
4.689591476467923
 30
0.0
 11
23.32499999999999
 21
3.628534207010857
 31
0.0
  0
LINE
  5
3FC
330
18
100
AcDbEntity
  8
1
100
AcDbLine
 10
24.325
 20
2.804536493130225
 30
0.0
 11
24.27042298666645
 21
2.813490899589158
 31
0.0
  0
LINE
  5
3FD
330
18
100
AcDbEntity
  8
1
100
AcDbLine
 10
23.36329784840726
 20
4.7625
 30
0.0
 11
24.325
 21
4.7625
 31
0.0
  0
ARC
  5
3FE
330
18
100
AcDbEntity
  8
1
100
AcDbCircle
 10
23.35026067160573
 20
1.172798705924042
 30
0.0
 40
3.589958102441931
100
AcDbArc
 50
74.24560021323722
 51
89.79191251246773
  0
LINE
  5
3FF
330
18
100
AcDbEntity
  8
1
100
AcDbLine
 10
23.325
 20
-4.762285600040919
 30
0.0
 11
23.36329784840713
 21
-4.762499999999284
 31
0.0
  0
ARC
  5
400
330
18
100
AcDbEntity
  8
1
100
AcDbCircle
 10
24.78912528455271
 20
-0.8476946403029619
 30
0.0
 40
3.921439963613205
100
AcDbArc
 50
248.0773458133156
 51
263.2019273159647
  0
ARC
  5
401
330
18
100
AcDbEntity
  8
1
100
AcDbCircle
 10
34.43337413486591
 20
8.394876851083303
 30
0.0
 40
15.44905576763983
100
AcDbArc
 50
224.0257494360533
 51
229.131291657853
  0
ARC
  5
402
330
18
100
AcDbEntity
  8
1
100
AcDbCircle
 10
54.18260469391058
 20
25.60422757514029
 30
0.0
 40
40.64958574883627
100
AcDbArc
 50
220.6141169634403
 51
222.7333838903172
  0
ARC
  5
403
330
18
100
AcDbEntity
  8
1
100
AcDbCircle
 10
4.412992428923594
 20
-16.08435506120864
 30
0.0
 40
26.45921474360768
100
AcDbArc
 50
41.18895779077549
 51
44.3762159908683
  0
ARC
  5
404
330
18
100
AcDbEntity
  8
1
100
AcDbCircle
 10
16.44044654323968
 20
-5.303954283629984
 30
0.0
 40
11.27780199506049
100
AcDbArc
 50
46.03270373462704
 51
52.37741359167906
  0
LINE
  5
405
330
18
100
AcDbEntity
  8
1
100
AcDbLine
 10
-0.0000000000000071
 20
4.7625
 30
0.0
 11
23.325
 21
4.7625
 31
0.0
  0
LINE
  5
406
330
18
100
AcDbEntity
  8
1
100
AcDbLine
 10
23.325
 20
4.76228560004092
 30
0.0
 11
23.36329784840726
 21
4.7625
 31
0.0
  0
LINE
  5
407
330
18
100
AcDbEntity
  8
1
100
AcDbLine
 10
24.32500000000001
 20
-4.741080129039488
 30
0.0
 11
24.325
 21
-4.762499999999998
 31
0.0
  0
LINE
  5
408
330
18
100
AcDbEntity
  8
1
100
AcDbLine
 10
24.325
 20
4.7625
 30
0.0
 11
24.325
 21
4.762469708849694
 31
0.0
  0
LINE
  5
409
330
18
100
AcDbEntity
  8
1
100
AcDbLine
 10
24.325
 20
4.762469708849694
 30
0.0
 11
24.325
 21
4.753543606159147
 31
0.0
  0
LINE
  5
40A
330
18
100
AcDbEntity
  8
1
100
AcDbLine
 10
24.325
 20
4.753543606159147
 30
0.0
 11
24.325
 21
4.627948045753953
 31
0.0
  0
LINE
  5
40B
330
18
100
AcDbEntity
  8
1
100
AcDbLine
 10
24.325
 20
2.804536493130227
 30
0.0
 11
24.325
 21
4.627948045753953
 31
0.0
  0
LINE
  5
40C
330
18
100
AcDbEntity
  8
1
100
AcDbLine
 10
24.325
 20
2.761275390565637
 30
0.0
 11
24.325
 21
2.804536493130227
 31
0.0
  0
LINE
  5
40D
330
18
100
AcDbEntity
  8
1
100
AcDbLine
 10
24.325
 20
2.761275390565621
 30
0.0
 11
24.325
 21
1.340512492126211
 31
0.0
  0
LINE
  5
40E
330
18
100
AcDbEntity
  8
1
100
AcDbLine
 10
24.325
 20
0.8123505636832243
 30
0.0
 11
24.325
 21
1.340512492126216
 31
0.0
  0
LINE
  5
40F
330
18
100
AcDbEntity
  8
1
100
AcDbLine
 10
24.325
 20
-1.979804738473855
 30
0.0
 11
24.325
 21
0.8123505636832243
 31
0.0
  0
LINE
  5
410
330
18
100
AcDbEntity
  8
1
100
AcDbLine
 10
24.325
 20
-1.979804738473868
 30
0.0
 11
24.325
 21
-3.287435553627741
 31
0.0
  0
LINE
  5
411
330
18
100
AcDbEntity
  8
1
100
AcDbLine
 10
24.2704229622625
 20
2.813490873955996
 30
0.0
 11
24.325
 21
2.761275390565621
 31
0.0
  0
LINE
  5
412
330
18
100
AcDbEntity
  8
1
100
AcDbLine
 10
0.0
 20
-4.762499999999998
 30
0.0
 11
23.32499999999999
 21
-4.762499999999998
 31
0.0
  0
LINE
  5
413
330
18
100
AcDbEntity
  8
1
100
AcDbLine
 10
23.36329784840712
 20
-4.762499999999998
 30
0.0
 11
24.325
 21
-4.762499999999998
 31
0.0
  0
LINE
  5
414
330
18
100
AcDbEntity
  8
1
 62
     1
100
AcDbLine
 10
33.16128972786061
 20
4.762499999999999
 30
0.0
 11
33.39811523331512
 21
4.754303855809965
 31
0.0
  0
LINE
  5
415
330
18
100
AcDbEntity
  8
1
 62
     1
100
AcDbLine
 10
33.39811523331512
 20
4.754303855809965
 30
0.0
 11
33.63493614291161
 21
4.729744563663343
 31
0.0
  0
LINE
  5
416
330
18
100
AcDbEntity
  8
1
 62
     1
100
AcDbLine
 10
33.63493614291161
 20
4.729744563663343
 30
0.0
 11
33.87175543735489
 21
4.688907475718108
 31
0.0
  0
LINE
  5
417
330
18
100
AcDbEntity
  8
1
 62
     1
100
AcDbLine
 10
33.87175543735489
 20
4.688907475718108
 30
0.0
 11
34.10857477069893
 21
4.631932850063598
 31
0.0
  0
LINE
  5
418
330
18
100
AcDbEntity
  8
1
 62
     1
100
AcDbLine
 10
34.10857477069893
 20
4.631932850063598
 30
0.0
 11
34.34539749995876
 21
4.559015926456178
 31
0.0
  0
LINE
  5
419
330
18
100
AcDbEntity
  8
1
 62
     1
100
AcDbLine
 10
34.34539749995876
 20
4.559015926456178
 30
0.0
 11
34.58222351828092
 21
4.470405721838514
 31
0.0
  0
LINE
  5
41A
330
18
100
AcDbEntity
  8
1
 62
     1
100
AcDbLine
 10
34.58222351828092
 20
4.470405721838514
 30
0.0
 11
34.81904738339442
 21
4.366410124289112
 31
0.0
  0
LINE
  5
41B
330
18
100
AcDbEntity
  8
1
 62
     1
100
AcDbLine
 10
34.81904738339442
 20
4.366410124289112
 30
0.0
 11
35.05586748252985
 21
4.247388033803917
 31
0.0
  0
LINE
  5
41C
330
18
100
AcDbEntity
  8
1
 62
     1
100
AcDbLine
 10
35.05586748252985
 20
4.247388033803917
 30
0.0
 11
35.29268646693348
 21
4.113748679642389
 31
0.0
  0
LINE
  5
41D
330
18
100
AcDbEntity
  8
1
 62
     1
100
AcDbLine
 10
35.29268646693348
 20
4.113748679642389
 30
0.0
 11
35.52950646779951
 21
3.965950679577277
 31
0.0
  0
LINE
  5
41E
330
18
100
AcDbEntity
  8
1
 62
     1
100
AcDbLine
 10
35.52950646779951
 20
3.965950679577277
 30
0.0
 11
35.76632966907677
 21
3.804500637577481
 31
0.0
  0
LINE
  5
41F
330
18
100
AcDbEntity
  8
1
 62
     1
100
AcDbLine
 10
35.76632966907677
 20
3.804500637577481
 30
0.0
 11
36.00315655457255
 21
3.62995401472106
 31
0.0
  0
LINE
  5
420
330
18
100
AcDbEntity
  8
1
 62
     1
100
AcDbLine
 10
36.00315655457255
 20
3.62995401472106
 30
0.0
 11
36.47679811317141
 21
3.244031571289763
 31
0.0
  0
LINE
  5
421
330
18
100
AcDbEntity
  8
1
 62
     1
100
AcDbLine
 10
36.47679811317141
 20
3.244031571289763
 30
0.0
 11
36.95043776328774
 21
2.813490312908574
 31
0.0
  0
LINE
  5
422
330
18
100
AcDbEntity
  8
1
 62
     1
100
AcDbLine
 10
31.81664177883481
 20
4.762500000000001
 30
0.0
 11
32.01477018609108
 21
4.756762663225522
 31
0.0
  0
LINE
  5
423
330
18
100
AcDbEntity
  8
1
 62
     1
100
AcDbLine
 10
32.01477018609108
 20
4.756762663225522
 30
0.0
 11
32.21289081226617
 21
4.739566815743105
 31
0.0
  0
LINE
  5
424
330
18
100
AcDbEntity
  8
1
 62
     1
100
AcDbLine
 10
32.21289081226617
 20
4.739566815743105
 30
0.0
 11
32.41101653220355
 21
4.710953250512702
 31
0.0
  0
LINE
  5
425
330
18
100
AcDbEntity
  8
1
 62
     1
100
AcDbLine
 10
32.41101653220355
 20
4.710953250512702
 30
0.0
 11
32.60914725821233
 21
4.670988473185531
 31
0.0
  0
LINE
  5
426
330
18
100
AcDbEntity
  8
1
 62
     1
100
AcDbLine
 10
32.60914725821233
 20
4.670988473185531
 30
0.0
 11
32.80726844175945
 21
4.619773047534835
 31
0.0
  0
LINE
  5
427
330
18
100
AcDbEntity
  8
1
 62
     1
100
AcDbLine
 10
32.80726844175945
 20
4.619773047534835
 30
0.0
 11
33.00539191325894
 21
4.557428626640722
 31
0.0
  0
LINE
  5
428
330
18
100
AcDbEntity
  8
1
 62
     1
100
AcDbLine
 10
33.00539191325894
 20
4.557428626640722
 30
0.0
 11
33.20352373640311
 21
4.484101273779821
 31
0.0
  0
LINE
  5
429
330
18
100
AcDbEntity
  8
1
 62
     1
100
AcDbLine
 10
33.20352373640311
 20
4.484101273779821
 30
0.0
 11
33.40164604851623
 21
4.399974540290838
 31
0.0
  0
LINE
  5
42A
330
18
100
AcDbEntity
  8
1
 62
     1
100
AcDbLine
 10
33.40164604851623
 20
4.399974540290838
 30
0.0
 11
33.59976794228167
 21
4.305249236421063
 31
0.0
  0
LINE
  5
42B
330
18
100
AcDbEntity
  8
1
 62
     1
100
AcDbLine
 10
33.59976794228167
 20
4.305249236421063
 30
0.0
 11
33.79789939363549
 21
4.200146959749573
 31
0.0
  0
LINE
  5
42C
330
18
100
AcDbEntity
  8
1
 62
     1
100
AcDbLine
 10
33.79789939363549
 20
4.200146959749573
 30
0.0
 11
33.99602356894316
 21
4.08492938434997
 31
0.0
  0
LINE
  5
42D
330
18
100
AcDbEntity
  8
1
 62
     1
100
AcDbLine
 10
33.99602356894316
 20
4.08492938434997
 30
0.0
 11
34.19414438861923
 21
3.959873774994646
 31
0.0
  0
LINE
  5
42E
330
18
100
AcDbEntity
  8
1
 62
     1
100
AcDbLine
 10
34.19414438861923
 20
3.959873774994646
 30
0.0
 11
34.59040078332347
 21
3.681457521877049
 31
0.0
  0
LINE
  5
42F
330
18
100
AcDbEntity
  8
1
 62
     1
100
AcDbLine
 10
34.59040078332347
 20
3.681457521877049
 30
0.0
 11
34.98664800189602
 21
3.367593936060708
 31
0.0
  0
LINE
  5
430
330
18
100
AcDbEntity
  8
1
 62
     1
100
AcDbLine
 10
34.98664800189602
 20
3.367593936060708
 30
0.0
 11
35.38289838347223
 21
3.021295406911909
 31
0.0
  0
LINE
  5
431
330
18
100
AcDbEntity
  8
1
 62
     1
100
AcDbLine
 10
35.38289838347223
 20
3.021295406911909
 30
0.0
 11
35.77915378697426
 21
2.645895868151279
 31
0.0
  0
LINE
  5
432
330
18
100
AcDbEntity
  8
1
 62
     1
100
AcDbLine
 10
35.77915378697426
 20
2.645895868151279
 30
0.0
 11
36.571652748325
 21
1.822523742860036
 31
0.0
  0
LINE
  5
433
330
18
100
AcDbEntity
  8
1
 62
     1
100
AcDbLine
 10
36.571652748325
 20
1.822523742860036
 30
0.0
 11
38.15664924542417
 21
-0.0000000000010364
 31
0.0
  0
ARC
  5
434
330
18
100
AcDbEntity
  8
1
 62
     1
100
AcDbCircle
 10
50.66847792175733
 20
-2.762198735495617
 30
0.0
 40
1.888925966625652
100
AcDbArc
 50
289.9189888483905
 51
296.5557809719917
  0
LINE
  5
435
330
18
100
AcDbEntity
  8
1
 62
     1
100
AcDbLine
 10
37.38796141228109
 20
4.762499999999999
 30
0.0
 11
37.62478687178694
 21
4.754303853611574
 31
0.0
  0
LINE
  5
436
330
18
100
AcDbEntity
  8
1
 62
     1
100
AcDbLine
 10
37.62478687178694
 20
4.754303853611574
 30
0.0
 11
37.86160780730737
 21
4.729744562809367
 31
0.0
  0
LINE
  5
437
330
18
100
AcDbEntity
  8
1
 62
     1
100
AcDbLine
 10
37.86160780730737
 20
4.729744562809367
 30
0.0
 11
38.09842709108474
 21
4.688907474199962
 31
0.0
  0
LINE
  5
438
330
18
100
AcDbEntity
  8
1
 62
     1
100
AcDbLine
 10
38.09842709108474
 20
4.688907474199962
 30
0.0
 11
38.3352464287192
 21
4.631932848866359
 31
0.0
  0
LINE
  5
439
330
18
100
AcDbEntity
  8
1
 62
     1
100
AcDbLine
 10
38.3352464287192
 20
4.631932848866359
 30
0.0
 11
38.57206915118162
 21
4.559015925094573
 31
0.0
  0
LINE
  5
43A
330
18
100
AcDbEntity
  8
1
 62
     1
100
AcDbLine
 10
38.57206915118162
 20
4.559015925094573
 30
0.0
 11
38.80889515868051
 21
4.470405718703676
 31
0.0
  0
LINE
  5
43B
330
18
100
AcDbEntity
  8
1
 62
     1
100
AcDbLine
 10
38.80889515868051
 20
4.470405718703676
 30
0.0
 11
39.04571904705389
 21
4.366410130726416
 31
0.0
  0
LINE
  5
43C
330
18
100
AcDbEntity
  8
1
 62
     1
100
AcDbLine
 10
39.04571904705389
 20
4.366410130726416
 30
0.0
 11
39.28253910729961
 21
4.247388027502742
 31
0.0
  0
LINE
  5
43D
330
18
100
AcDbEntity
  8
1
 62
     1
100
AcDbLine
 10
39.28253910729961
 20
4.247388027502742
 30
0.0
 11
39.51935812664235
 21
4.113748690100836
 31
0.0
  0
LINE
  5
43E
330
18
100
AcDbEntity
  8
1
 62
     1
100
AcDbLine
 10
39.51935812664235
 20
4.113748690100836
 30
0.0
 11
39.75617809085357
 21
3.965950677135157
 31
0.0
  0
LINE
  5
43F
330
18
100
AcDbEntity
  8
1
 62
     1
100
AcDbLine
 10
39.75617809085357
 20
3.965950677135157
 30
0.0
 11
39.9930013199135
 21
3.804500651606183
 31
0.0
  0
LINE
  5
440
330
18
100
AcDbEntity
  8
1
 62
     1
100
AcDbLine
 10
39.9930013199135
 20
3.804500651606183
 30
0.0
 11
40.22982818126783
 21
3.629954019587171
 31
0.0
  0
LINE
  5
441
330
18
100
AcDbEntity
  8
1
 62
     1
100
AcDbLine
 10
40.22982818126783
 20
3.629954019587171
 30
0.0
 11
40.70346974627696
 21
3.244031588154949
 31
0.0
  0
LINE
  5
442
330
18
100
AcDbEntity
  8
1
 62
     1
100
AcDbLine
 10
40.70346974627696
 20
3.244031588154949
 30
0.0
 11
41.17710940962864
 21
2.81349034755842
 31
0.0
  0
LINE
  5
443
330
18
100
AcDbEntity
  8
1
 62
     1
100
AcDbLine
 10
36.04331342326097
 20
4.7625
 30
0.0
 11
36.24144183367894
 21
4.756762663380311
 31
0.0
  0
LINE
  5
444
330
18
100
AcDbEntity
  8
1
 62
     1
100
AcDbLine
 10
36.24144183367894
 20
4.756762663380311
 30
0.0
 11
36.43956245785294
 21
4.739566815865388
 31
0.0
  0
LINE
  5
445
330
18
100
AcDbEntity
  8
1
 62
     1
100
AcDbLine
 10
36.43956245785294
 20
4.739566815865388
 30
0.0
 11
36.6376881803613
 21
4.710953250976307
 31
0.0
  0
LINE
  5
446
330
18
100
AcDbEntity
  8
1
 62
     1
100
AcDbLine
 10
36.6376881803613
 20
4.710953250976307
 30
0.0
 11
36.83581890272868
 21
4.670988473171214
 31
0.0
  0
LINE
  5
447
330
18
100
AcDbEntity
  8
1
 62
     1
100
AcDbLine
 10
36.83581890272868
 20
4.670988473171214
 30
0.0
 11
37.03394008883911
 21
4.619773048105144
 31
0.0
  0
LINE
  5
448
330
18
100
AcDbEntity
  8
1
 62
     1
100
AcDbLine
 10
37.03394008883911
 20
4.619773048105144
 30
0.0
 11
37.23206355863641
 21
4.557428626892111
 31
0.0
  0
LINE
  5
449
330
18
100
AcDbEntity
  8
1
 62
     1
100
AcDbLine
 10
37.23206355863641
 20
4.557428626892111
 30
0.0
 11
37.43019538395259
 21
4.484101274697991
 31
0.0
  0
LINE
  5
44A
330
18
100
AcDbEntity
  8
1
 62
     1
100
AcDbLine
 10
37.43019538395259
 20
4.484101274697991
 30
0.0
 11
37.62831769437235
 21
4.399974540716614
 31
0.0
  0
LINE
  5
44B
330
18
100
AcDbEntity
  8
1
 62
     1
100
AcDbLine
 10
37.62831769437235
 20
4.399974540716614
 30
0.0
 11
37.8264395886532
 21
4.305249237147454
 31
0.0
  0
LINE
  5
44C
330
18
100
AcDbEntity
  8
1
 62
     1
100
AcDbLine
 10
37.8264395886532
 20
4.305249237147454
 30
0.0
 11
38.02457104009771
 21
4.200146960587326
 31
0.0
  0
LINE
  5
44D
330
18
100
AcDbEntity
  8
1
 62
     1
100
AcDbLine
 10
38.02457104009771
 20
4.200146960587326
 30
0.0
 11
38.22269521530471
 21
4.084929385262481
 31
0.0
  0
LINE
  5
44E
330
18
100
AcDbEntity
  8
1
 62
     1
100
AcDbLine
 10
38.22269521530471
 20
4.084929385262481
 30
0.0
 11
38.42081603595372
 21
3.959873776371607
 31
0.0
  0
LINE
  5
44F
330
18
100
AcDbEntity
  8
1
 62
     1
100
AcDbLine
 10
38.42081603595372
 20
3.959873776371607
 30
0.0
 11
38.81707243044661
 21
3.681457523367677
 31
0.0
  0
LINE
  5
450
330
18
100
AcDbEntity
  8
1
 62
     1
100
AcDbLine
 10
38.81707243044661
 20
3.681457523367677
 30
0.0
 11
39.21331965002942
 21
3.367593938340464
 31
0.0
  0
LINE
  5
451
330
18
100
AcDbEntity
  8
1
 62
     1
100
AcDbLine
 10
39.21331965002942
 20
3.367593938340464
 30
0.0
 11
39.60957003087076
 21
3.021295408918169
 31
0.0
  0
LINE
  5
452
330
18
100
AcDbEntity
  8
1
 62
     1
100
AcDbLine
 10
39.60957003087076
 20
3.021295408918169
 30
0.0
 11
40.00582543482668
 21
2.645895870662909
 31
0.0
  0
LINE
  5
453
330
18
100
AcDbEntity
  8
1
 62
     1
100
AcDbLine
 10
40.00582543482668
 20
2.645895870662909
 30
0.0
 11
40.79832439483823
 21
1.822523744625153
 31
0.0
  0
LINE
  5
454
330
18
100
AcDbEntity
  8
1
 62
     1
100
AcDbLine
 10
40.79832439483823
 20
1.822523744625153
 30
0.0
 11
42.38332088967255
 21
-0.0000000000010757
 31
0.0
  0
LINE
  5
455
330
18
100
AcDbEntity
  8
1
 62
     1
100
AcDbLine
 10
52.89999999999999
 20
-2.205336288102393
 30
0.0
 11
52.89689198809057
 21
-2.398981786152862
 31
0.0
  0
LINE
  5
456
330
18
100
AcDbEntity
  8
1
 62
     1
100
AcDbLine
 10
52.89689198809057
 20
-2.398981786152862
 30
0.0
 11
52.8859432630225
 21
-2.593422348042935
 31
0.0
  0
LINE
  5
457
330
18
100
AcDbEntity
  8
1
 62
     1
100
AcDbLine
 10
52.8859432630225
 20
-2.593422348042935
 30
0.0
 11
52.86425025432109
 21
-2.788635558744108
 31
0.0
  0
LINE
  5
458
330
18
100
AcDbEntity
  8
1
 62
     1
100
AcDbLine
 10
52.86425025432109
 20
-2.788635558744108
 30
0.0
 11
52.84825638422517
 21
-2.886343908040898
 31
0.0
  0
LINE
  5
459
330
18
100
AcDbEntity
  8
1
 62
     1
100
AcDbLine
 10
52.84825638422517
 20
-2.886343908040898
 30
0.0
 11
52.82811825244183
 21
-2.983877248265139
 31
0.0
  0
LINE
  5
45A
330
18
100
AcDbEntity
  8
1
 62
     1
100
AcDbLine
 10
52.82811825244183
 20
-2.983877248265139
 30
0.0
 11
52.80323182224636
 21
-3.080882749936277
 31
0.0
  0
LINE
  5
45B
330
18
100
AcDbEntity
  8
1
 62
     1
100
AcDbLine
 10
52.80323182224636
 20
-3.080882749936277
 30
0.0
 11
52.77295902865053
 21
-3.1768119636444
 31
0.0
  0
LINE
  5
45C
330
18
100
AcDbEntity
  8
1
 62
     1
100
AcDbLine
 10
52.77295902865053
 20
-3.1768119636444
 30
0.0
 11
52.73666989168088
 21
-3.270854193428551
 31
0.0
  0
LINE
  5
45D
330
18
100
AcDbEntity
  8
1
 62
     1
100
AcDbLine
 10
52.73666989168088
 20
-3.270854193428551
 30
0.0
 11
52.71611590159588
 21
-3.316779751598575
 31
0.0
  0
LINE
  5
45E
330
18
100
AcDbEntity
  8
1
 62
     1
100
AcDbLine
 10
52.71611590159588
 20
-3.316779751598575
 30
0.0
 11
52.69388407844227
 21
-3.361762467394012
 31
0.0
  0
LINE
  5
45F
330
18
100
AcDbEntity
  8
1
 62
     1
100
AcDbLine
 10
52.69388407844227
 20
-3.361762467394012
 30
0.0
 11
52.66994935848128
 21
-3.405595611842735
 31
0.0
  0
LINE
  5
460
330
18
100
AcDbEntity
  8
1
 62
     1
100
AcDbLine
 10
52.66994935848128
 20
-3.405595611842735
 30
0.0
 11
52.64431808201699
 21
-3.448054916336804
 31
0.0
  0
LINE
  5
461
330
18
100
AcDbEntity
  8
1
 62
     1
100
AcDbLine
 10
52.64431808201699
 20
-3.448054916336804
 30
0.0
 11
52.61700591425233
 21
-3.488925806480019
 31
0.0
  0
LINE
  5
462
330
18
100
AcDbEntity
  8
1
 62
     1
100
AcDbLine
 10
52.61700591425233
 20
-3.488925806480019
 30
0.0
 11
52.58809167563639
 21
-3.527952299812553
 31
0.0
  0
LINE
  5
463
330
18
100
AcDbEntity
  8
1
 62
     1
100
AcDbLine
 10
52.58809167563639
 20
-3.527952299812553
 30
0.0
 11
52.55764542321754
 21
-3.564939140811169
 31
0.0
  0
LINE
  5
464
330
18
100
AcDbEntity
  8
1
 62
     1
100
AcDbLine
 10
52.55764542321754
 20
-3.564939140811169
 30
0.0
 11
52.52580692010019
 21
-3.599655917650419
 31
0.0
  0
LINE
  5
465
330
18
100
AcDbEntity
  8
1
 62
     1
100
AcDbLine
 10
52.52580692010019
 20
-3.599655917650419
 30
0.0
 11
52.49270246864672
 21
-3.631953781228797
 31
0.0
  0
LINE
  5
466
330
18
100
AcDbEntity
  8
1
 62
     1
100
AcDbLine
 10
52.49270246864672
 20
-3.631953781228797
 30
0.0
 11
52.45849669038408
 21
-3.661683815610443
 31
0.0
  0
LINE
  5
467
330
18
100
AcDbEntity
  8
1
 62
     1
100
AcDbLine
 10
52.45849669038408
 20
-3.661683815610443
 30
0.0
 11
52.42335643828722
 21
-3.688759888469096
 31
0.0
  0
LINE
  5
468
330
18
100
AcDbEntity
  8
1
 62
     1
100
AcDbLine
 10
52.42335643828722
 20
-3.688759888469096
 30
0.0
 11
52.38743275744476
 21
-3.71313652898867
 31
0.0
  0
LINE
  5
469
330
18
100
AcDbEntity
  8
1
 62
     1
100
AcDbLine
 10
52.38743275744476
 20
-3.71313652898867
 30
0.0
 11
52.3509012517914
 21
-3.734794198595746
 31
0.0
  0
LINE
  5
46A
330
18
100
AcDbEntity
  8
1
 62
     1
100
AcDbLine
 10
52.3509012517914
 20
-3.734794198595746
 30
0.0
 11
52.31388469635695
 21
-3.753768935657724
 31
0.0
  0
LINE
  5
46B
330
18
100
AcDbEntity
  8
1
 62
     1
100
AcDbLine
 10
52.31388469635695
 20
-3.753768935657724
 30
0.0
 11
52.27653231053046
 21
-3.770101510261123
 31
0.0
  0
LINE
  5
46C
330
18
100
AcDbEntity
  8
1
 62
     1
100
AcDbLine
 10
52.27653231053046
 20
-3.770101510261123
 30
0.0
 11
52.2389413112523
 21
-3.783873214837227
 31
0.0
  0
LINE
  5
46D
330
18
100
AcDbEntity
  8
1
 62
     1
100
AcDbLine
 10
52.2389413112523
 20
-3.783873214837227
 30
0.0
 11
52.20120799355712
 21
-3.795167452623907
 31
0.0
  0
LINE
  5
46E
330
18
100
AcDbEntity
  8
1
 62
     1
100
AcDbLine
 10
52.20120799355712
 20
-3.795167452623907
 30
0.0
 11
52.1634016492288
 21
-3.804085114792182
 31
0.0
  0
LINE
  5
46F
330
18
100
AcDbEntity
  8
1
 62
     1
100
AcDbLine
 10
52.1634016492288
 20
-3.804085114792182
 30
0.0
 11
52.12562828820677
 21
-3.810716630266516
 31
0.0
  0
LINE
  5
470
330
18
100
AcDbEntity
  8
1
 62
     1
100
AcDbLine
 10
52.12562828820677
 20
-3.810716630266516
 30
0.0
 11
52.08790921282773
 21
-3.815169765385669
 31
0.0
  0
LINE
  5
471
330
18
100
AcDbEntity
  8
1
 62
     1
100
AcDbLine
 10
52.08790921282773
 20
-3.815169765385669
 30
0.0
 11
52.05029948998121
 21
-3.817544502189579
 31
0.0
  0
LINE
  5
472
330
18
100
AcDbEntity
  8
1
 62
     1
100
AcDbLine
 10
52.05029948998121
 20
-3.817544502189579
 30
0.0
 11
52.01284799893261
 21
-3.817937520961329
 31
0.0
  0
LINE
  5
473
330
18
100
AcDbEntity
  8
1
 62
     1
100
AcDbLine
 10
52.01284799893261
 20
-3.817937520961329
 30
0.0
 11
51.97555679892622
 21
-3.816442940143117
 31
0.0
  0
LINE
  5
474
330
18
100
AcDbEntity
  8
1
 62
     1
100
AcDbLine
 10
51.97555679892622
 20
-3.816442940143117
 30
0.0
 11
51.93846996077406
 21
-3.813150278277609
 31
0.0
  0
LINE
  5
475
330
18
100
AcDbEntity
  8
1
 62
     1
100
AcDbLine
 10
51.93846996077406
 20
-3.813150278277609
 30
0.0
 11
51.90159284314867
 21
-3.808142833899714
 31
0.0
  0
LINE
  5
476
330
18
100
AcDbEntity
  8
1
 62
     1
100
AcDbLine
 10
51.90159284314867
 20
-3.808142833899714
 30
0.0
 11
51.8649359206435
 21
-3.801498253450336
 31
0.0
  0
LINE
  5
477
330
18
100
AcDbEntity
  8
1
 62
     1
100
AcDbLine
 10
51.8649359206435
 20
-3.801498253450336
 30
0.0
 11
51.82852232645722
 21
-3.793293243963463
 31
0.0
  0
LINE
  5
478
330
18
100
AcDbEntity
  8
1
 62
     1
100
AcDbLine
 10
51.82852232645722
 20
-3.793293243963463
 30
0.0
 11
51.79234218311925
 21
-3.783592827380779
 31
0.0
  0
LINE
  5
479
330
18
100
AcDbEntity
  8
1
 62
     1
100
AcDbLine
 10
51.79234218311925
 20
-3.783592827380779
 30
0.0
 11
51.75641072991776
 21
-3.772463397816193
 31
0.0
  0
LINE
  5
47A
330
18
100
AcDbEntity
  8
1
 62
     1
100
AcDbLine
 10
51.75641072991776
 20
-3.772463397816193
 30
0.0
 11
51.72072796972694
 21
-3.759964748816694
 31
0.0
  0
LINE
  5
47B
330
18
100
AcDbEntity
  8
1
 62
     1
100
AcDbLine
 10
51.72072796972694
 20
-3.759964748816694
 30
0.0
 11
51.6500901156406
 21
-3.73106538959866
 31
0.0
  0
LINE
  5
47C
330
18
100
AcDbEntity
  8
1
 62
     1
100
AcDbLine
 10
51.6500901156406
 20
-3.73106538959866
 30
0.0
 11
51.58048428498025
 21
-3.697318826605472
 31
0.0
  0
LINE
  5
47D
330
18
100
AcDbEntity
  8
1
 62
     1
100
AcDbLine
 10
51.58048428498025
 20
-3.697318826605472
 30
0.0
 11
51.51186709323252
 21
-3.659059843652673
 31
0.0
  0
LINE
  5
47E
330
18
100
AcDbEntity
  8
1
 62
     1
100
AcDbLine
 10
51.51186709323252
 20
-3.659059843652673
 30
0.0
 11
51.44426450058013
 21
-3.616619077107877
 31
0.0
  0
LINE
  5
47F
330
18
100
AcDbEntity
  8
1
 62
     1
100
AcDbLine
 10
51.44426450058013
 20
-3.616619077107877
 30
0.0
 11
51.3776341476172
 21
-3.570252937788889
 31
0.0
  0
LINE
  5
480
330
18
100
AcDbEntity
  8
1
 62
     1
100
AcDbLine
 10
51.3776341476172
 20
-3.570252937788889
 30
0.0
 11
51.31200000000001
 21
-3.520233147853545
 31
0.0
  0
LINE
  5
481
330
18
100
AcDbEntity
  8
1
 62
     1
100
AcDbLine
 10
52.9
 20
-3.174256413697649
 30
0.0
 11
52.89695647933169
 21
-3.272473687138167
 31
0.0
  0
LINE
  5
482
330
18
100
AcDbEntity
  8
1
 62
     1
100
AcDbLine
 10
52.89695647933169
 20
-3.272473687138167
 30
0.0
 11
52.88787238024624
 21
-3.369971746643746
 31
0.0
  0
LINE
  5
483
330
18
100
AcDbEntity
  8
1
 62
     1
100
AcDbLine
 10
52.88787238024624
 20
-3.369971746643746
 30
0.0
 11
52.87288266788241
 21
-3.466077753323916
 31
0.0
  0
LINE
  5
484
330
18
100
AcDbEntity
  8
1
 62
     1
100
AcDbLine
 10
52.87288266788241
 20
-3.466077753323916
 30
0.0
 11
52.85220928687303
 21
-3.560106159283785
 31
0.0
  0
LINE
  5
485
330
18
100
AcDbEntity
  8
1
 62
     1
100
AcDbLine
 10
52.85220928687303
 20
-3.560106159283785
 30
0.0
 11
52.82616917280482
 21
-3.651354554995
 31
0.0
  0
LINE
  5
486
330
18
100
AcDbEntity
  8
1
 62
     1
100
AcDbLine
 10
52.82616917280482
 20
-3.651354554995
 30
0.0
 11
52.79515492225395
 21
-3.739189838324262
 31
0.0
  0
LINE
  5
487
330
18
100
AcDbEntity
  8
1
 62
     1
100
AcDbLine
 10
52.79515492225395
 20
-3.739189838324262
 30
0.0
 11
52.75960050899216
 21
-3.823078797795371
 31
0.0
  0
LINE
  5
488
330
18
100
AcDbEntity
  8
1
 62
     1
100
AcDbLine
 10
52.75960050899216
 20
-3.823078797795371
 30
0.0
 11
52.71996548670146
 21
-3.902576085286671
 31
0.0
  0
LINE
  5
489
330
18
100
AcDbEntity
  8
1
 62
     1
100
AcDbLine
 10
52.71996548670146
 20
-3.902576085286671
 30
0.0
 11
52.67672807867111
 21
-3.977314412602684
 31
0.0
  0
LINE
  5
48A
330
18
100
AcDbEntity
  8
1
 62
     1
100
AcDbLine
 10
52.67672807867111
 20
-3.977314412602684
 30
0.0
 11
52.63034288841504
 21
-4.047050951008044
 31
0.0
  0
LINE
  5
48B
330
18
100
AcDbEntity
  8
1
 62
     1
100
AcDbLine
 10
52.63034288841504
 20
-4.047050951008044
 30
0.0
 11
52.58122831975304
 21
-4.111638422346473
 31
0.0
  0
LINE
  5
48C
330
18
100
AcDbEntity
  8
1
 62
     1
100
AcDbLine
 10
52.58122831975304
 20
-4.111638422346473
 30
0.0
 11
52.5297674778045
 21
-4.170998730917035
 31
0.0
  0
LINE
  5
48D
330
18
100
AcDbEntity
  8
1
 62
     1
100
AcDbLine
 10
52.5297674778045
 20
-4.170998730917035
 30
0.0
 11
52.47631326308243
 21
-4.225104318715196
 31
0.0
  0
LINE
  5
48E
330
18
100
AcDbEntity
  8
1
 62
     1
100
AcDbLine
 10
52.47631326308243
 20
-4.225104318715196
 30
0.0
 11
52.4211652492452
 21
-4.273989413777494
 31
0.0
  0
LINE
  5
48F
330
18
100
AcDbEntity
  8
1
 62
     1
100
AcDbLine
 10
52.4211652492452
 20
-4.273989413777494
 30
0.0
 11
52.36458004527637
 21
-4.317722523164226
 31
0.0
  0
LINE
  5
490
330
18
100
AcDbEntity
  8
1
 62
     1
100
AcDbLine
 10
52.36458004527637
 20
-4.317722523164226
 30
0.0
 11
52.30678005731425
 21
-4.356392346680559
 31
0.0
  0
LINE
  5
491
330
18
100
AcDbEntity
  8
1
 62
     1
100
AcDbLine
 10
52.30678005731425
 20
-4.356392346680559
 30
0.0
 11
52.24795378840965
 21
-4.390102950955547
 31
0.0
  0
LINE
  5
492
330
18
100
AcDbEntity
  8
1
 62
     1
100
AcDbLine
 10
52.24795378840965
 20
-4.390102950955547
 30
0.0
 11
52.21819987993695
 21
-4.40513784182019
 31
0.0
  0
LINE
  5
493
330
18
100
AcDbEntity
  8
1
 62
     1
100
AcDbLine
 10
52.21819987993695
 20
-4.40513784182019
 30
0.0
 11
52.18825592080641
 21
-4.418971954229564
 31
0.0
  0
LINE
  5
494
330
18
100
AcDbEntity
  8
1
 62
     1
100
AcDbLine
 10
52.18825592080641
 20
-4.418971954229564
 30
0.0
 11
52.15814020473174
 21
-4.431619070851569
 31
0.0
  0
LINE
  5
495
330
18
100
AcDbEntity
  8
1
 62
     1
100
AcDbLine
 10
52.15814020473174
 20
-4.431619070851569
 30
0.0
 11
52.12784976629906
 21
-4.443102050989262
 31
0.0
  0
LINE
  5
496
330
18
100
AcDbEntity
  8
1
 62
     1
100
AcDbLine
 10
52.12784976629906
 20
-4.443102050989262
 30
0.0
 11
52.09740466915791
 21
-4.453433328607325
 31
0.0
  0
LINE
  5
497
330
18
100
AcDbEntity
  8
1
 62
     1
100
AcDbLine
 10
52.09740466915791
 20
-4.453433328607325
 30
0.0
 11
52.06682659351171
 21
-4.462624617828492
 31
0.0
  0
LINE
  5
498
330
18
100
AcDbEntity
  8
1
 62
     1
100
AcDbLine
 10
52.06682659351171
 20
-4.462624617828492
 30
0.0
 11
52.03612924060945
 21
-4.470689834173523
 31
0.0
  0
LINE
  5
499
330
18
100
AcDbEntity
  8
1
 62
     1
100
AcDbLine
 10
52.03612924060945
 20
-4.470689834173523
 30
0.0
 11
51.97437632259845
 21
-4.483511541007289
 31
0.0
  0
LINE
  5
49A
330
18
100
AcDbEntity
  8
1
 62
     1
100
AcDbLine
 10
51.97437632259845
 20
-4.483511541007289
 30
0.0
 11
51.9122480610022
 21
-4.492006532396035
 31
0.0
  0
LINE
  5
49B
330
18
100
AcDbEntity
  8
1
 62
     1
100
AcDbLine
 10
51.9122480610022
 20
-4.492006532396035
 30
0.0
 11
51.84978465507326
 21
-4.496285314909595
 31
0.0
  0
LINE
  5
49C
330
18
100
AcDbEntity
  8
1
 62
     1
100
AcDbLine
 10
51.84978465507326
 20
-4.496285314909595
 30
0.0
 11
51.78706458392416
 21
-4.496450234130257
 31
0.0
  0
LINE
  5
49D
330
18
100
AcDbEntity
  8
1
 62
     1
100
AcDbLine
 10
51.78706458392416
 20
-4.496450234130257
 30
0.0
 11
51.72411287528635
 21
-4.492598622514109
 31
0.0
  0
LINE
  5
49E
330
18
100
AcDbEntity
  8
1
 62
     1
100
AcDbLine
 10
51.72411287528635
 20
-4.492598622514109
 30
0.0
 11
51.66099183670995
 21
-4.484825545596428
 31
0.0
  0
LINE
  5
49F
330
18
100
AcDbEntity
  8
1
 62
     1
100
AcDbLine
 10
51.66099183670995
 20
-4.484825545596428
 30
0.0
 11
51.59771639920517
 21
-4.473215842533284
 31
0.0
  0
LINE
  5
4A0
330
18
100
AcDbEntity
  8
1
 62
     1
100
AcDbLine
 10
51.59771639920517
 20
-4.473215842533284
 30
0.0
 11
51.5343382370633
 21
-4.45785739792421
 31
0.0
  0
LINE
  5
4A1
330
18
100
AcDbEntity
  8
1
 62
     1
100
AcDbLine
 10
51.5343382370633
 20
-4.45785739792421
 30
0.0
 11
51.47086582680268
 21
-4.438823870786245
 31
0.0
  0
LINE
  5
4A2
330
18
100
AcDbEntity
  8
1
 62
     1
100
AcDbLine
 10
51.47086582680268
 20
-4.438823870786245
 30
0.0
 11
51.40734463066003
 21
-4.416197023749954
 31
0.0
  0
LINE
  5
4A3
330
18
100
AcDbEntity
  8
1
 62
     1
100
AcDbLine
 10
51.40734463066003
 20
-4.416197023749954
 30
0.0
 11
51.312
 21
-4.375666379435453
 31
0.0
  0
LINE
  5
4A4
330
18
100
AcDbEntity
  8
1
 62
     1
100
AcDbLine
 10
52.89999999999999
 20
-2.205336288102394
 30
0.0
 11
52.90000000000001
 21
-3.17425641369765
 31
0.0
  0
LINE
  5
4A5
330
18
100
AcDbEntity
  8
1
 62
     1
100
AcDbLine
 10
41.61463309672141
 20
4.762499999999999
 30
0.0
 11
41.85145851043806
 21
4.754303851420989
 31
0.0
  0
LINE
  5
4A6
330
18
100
AcDbEntity
  8
1
 62
     1
100
AcDbLine
 10
41.85145851043806
 20
4.754303851420989
 30
0.0
 11
42.08827947173804
 21
4.729744562005875
 31
0.0
  0
LINE
  5
4A7
330
18
100
AcDbEntity
  8
1
 62
     1
100
AcDbLine
 10
42.08827947173804
 20
4.729744562005875
 30
0.0
 11
42.32509874490573
 21
4.688907472657527
 31
0.0
  0
LINE
  5
4A8
330
18
100
AcDbEntity
  8
1
 62
     1
100
AcDbLine
 10
42.32509874490573
 20
4.688907472657527
 30
0.0
 11
42.56191808819921
 21
4.631932847933091
 31
0.0
  0
LINE
  5
4A9
330
18
100
AcDbEntity
  8
1
 62
     1
100
AcDbLine
 10
42.56191808819921
 20
4.631932847933091
 30
0.0
 11
42.79874079962168
 21
4.559015923023757
 31
0.0
  0
LINE
  5
4AA
330
18
100
AcDbEntity
  8
1
 62
     1
100
AcDbLine
 10
42.79874079962168
 20
4.559015923023757
 30
0.0
 11
43.0355668004911
 21
4.470405715930116
 31
0.0
  0
LINE
  5
4AB
330
18
100
AcDbEntity
  8
1
 62
     1
100
AcDbLine
 10
43.0355668004911
 20
4.470405715930116
 30
0.0
 11
43.27239071076262
 21
4.366410137100952
 31
0.0
  0
LINE
  5
4AC
330
18
100
AcDbEntity
  8
1
 62
     1
100
AcDbLine
 10
43.27239071076262
 20
4.366410137100952
 30
0.0
 11
43.50921073302616
 21
4.247388021476828
 31
0.0
  0
LINE
  5
4AD
330
18
100
AcDbEntity
  8
1
 62
     1
100
AcDbLine
 10
43.50921073302616
 20
4.247388021476828
 30
0.0
 11
43.74602978382427
 21
4.113748699435051
 31
0.0
  0
LINE
  5
4AE
330
18
100
AcDbEntity
  8
1
 62
     1
100
AcDbLine
 10
43.74602978382427
 20
4.113748699435051
 30
0.0
 11
43.98284971445238
 21
3.965950674806186
 31
0.0
  0
LINE
  5
4AF
330
18
100
AcDbEntity
  8
1
 62
     1
100
AcDbLine
 10
43.98284971445238
 20
3.965950674806186
 30
0.0
 11
44.21967297192944
 21
3.804500666064824
 31
0.0
  0
LINE
  5
4B0
330
18
100
AcDbEntity
  8
1
 62
     1
100
AcDbLine
 10
44.21967297192944
 20
3.804500666064824
 30
0.0
 11
44.45649980475719
 21
3.629954022487841
 31
0.0
  0
LINE
  5
4B1
330
18
100
AcDbEntity
  8
1
 62
     1
100
AcDbLine
 10
44.45649980475719
 20
3.629954022487841
 30
0.0
 11
44.93014137960492
 21
3.244031604905856
 31
0.0
  0
LINE
  5
4B2
330
18
100
AcDbEntity
  8
1
 62
     1
100
AcDbLine
 10
44.93014137960492
 20
3.244031604905856
 30
0.0
 11
45.40378105569904
 21
2.813490381702143
 31
0.0
  0
LINE
  5
4B3
330
18
100
AcDbEntity
  8
1
 62
     1
100
AcDbLine
 10
40.26998506756192
 20
4.7625
 30
0.0
 11
41.61463309672141
 21
4.7625
 31
0.0
  0
LINE
  5
4B4
330
18
100
AcDbEntity
  8
1
 62
     1
100
AcDbLine
 10
40.26998506756191
 20
4.7625
 30
0.0
 11
40.46811348123129
 21
4.756762663541715
 31
0.0
  0
LINE
  5
4B5
330
18
100
AcDbEntity
  8
1
 62
     1
100
AcDbLine
 10
40.46811348123129
 20
4.756762663541715
 30
0.0
 11
40.66623410345257
 21
4.739566815995129
 31
0.0
  0
LINE
  5
4B6
330
18
100
AcDbEntity
  8
1
 62
     1
100
AcDbLine
 10
40.66623410345257
 20
4.739566815995129
 30
0.0
 11
40.86435982842817
 21
4.710953251443721
 31
0.0
  0
LINE
  5
4B7
330
18
100
AcDbEntity
  8
1
 62
     1
100
AcDbLine
 10
40.86435982842817
 20
4.710953251443721
 30
0.0
 11
41.06249054719112
 21
4.670988473167783
 31
0.0
  0
LINE
  5
4B8
330
18
100
AcDbEntity
  8
1
 62
     1
100
AcDbLine
 10
41.06249054719112
 20
4.670988473167783
 30
0.0
 11
41.2606117357839
 21
4.619773048675913
 31
0.0
  0
LINE
  5
4B9
330
18
100
AcDbEntity
  8
1
 62
     1
100
AcDbLine
 10
41.2606117357839
 20
4.619773048675913
 30
0.0
 11
41.45873520411212
 21
4.557428627195995
 31
0.0
  0
LINE
  5
4BA
330
18
100
AcDbEntity
  8
1
 62
     1
100
AcDbLine
 10
41.45873520411212
 20
4.557428627195995
 30
0.0
 11
41.65686703136484
 21
4.484101275609001
 31
0.0
  0
LINE
  5
4BB
330
18
100
AcDbEntity
  8
1
 62
     1
100
AcDbLine
 10
41.65686703136484
 20
4.484101275609001
 30
0.0
 11
41.8549893402031
 21
4.399974541170121
 31
0.0
  0
LINE
  5
4BC
330
18
100
AcDbEntity
  8
1
 62
     1
100
AcDbLine
 10
41.8549893402031
 20
4.399974541170121
 30
0.0
 11
42.05311123482527
 21
4.305249237844211
 31
0.0
  0
LINE
  5
4BD
330
18
100
AcDbEntity
  8
1
 62
     1
100
AcDbLine
 10
42.05311123482527
 20
4.305249237844211
 30
0.0
 11
42.25124268666413
 21
4.200146961512427
 31
0.0
  0
LINE
  5
4BE
330
18
100
AcDbEntity
  8
1
 62
     1
100
AcDbLine
 10
42.25124268666413
 20
4.200146961512427
 30
0.0
 11
42.44936686158532
 21
4.084929386185674
 31
0.0
  0
LINE
  5
4BF
330
18
100
AcDbEntity
  8
1
 62
     1
100
AcDbLine
 10
42.44936686158532
 20
4.084929386185674
 30
0.0
 11
42.64748768329645
 21
3.959873777802891
 31
0.0
  0
LINE
  5
4C0
330
18
100
AcDbEntity
  8
1
 62
     1
100
AcDbLine
 10
42.64748768329645
 20
3.959873777802891
 30
0.0
 11
43.04374407760865
 21
3.681457524939478
 31
0.0
  0
LINE
  5
4C1
330
18
100
AcDbEntity
  8
1
 62
     1
100
AcDbLine
 10
43.04374407760865
 20
3.681457524939478
 30
0.0
 11
43.43999129815192
 21
3.367593940676465
 31
0.0
  0
LINE
  5
4C2
330
18
100
AcDbEntity
  8
1
 62
     1
100
AcDbLine
 10
43.43999129815192
 20
3.367593940676465
 30
0.0
 11
43.83624167820874
 21
3.021295410953774
 31
0.0
  0
LINE
  5
4C3
330
18
100
AcDbEntity
  8
1
 62
     1
100
AcDbLine
 10
43.83624167820874
 20
3.021295410953774
 30
0.0
 11
44.23249708260661
 21
2.64589587319319
 31
0.0
  0
LINE
  5
4C4
330
18
100
AcDbEntity
  8
1
 62
     1
100
AcDbLine
 10
44.23249708260661
 20
2.64589587319319
 30
0.0
 11
45.02499604126865
 21
1.822523746398952
 31
0.0
  0
LINE
  5
4C5
330
18
100
AcDbEntity
  8
1
 62
     1
100
AcDbLine
 10
45.02499604126865
 20
1.822523746398952
 30
0.0
 11
46.60999253383768
 21
-0.0000000000011179
 31
0.0
  0
LINE
  5
4C6
330
18
100
AcDbEntity
  8
1
 62
     1
100
AcDbLine
 10
52.89999999999999
 20
0.8748192970679767
 30
0.0
 11
52.89689199324432
 21
0.7297608920243682
 31
0.0
  0
LINE
  5
4C7
330
18
100
AcDbEntity
  8
1
 62
     1
100
AcDbLine
 10
52.89689199324432
 20
0.7297608920243682
 30
0.0
 11
52.88594329402078
 21
0.5876810649932815
 31
0.0
  0
LINE
  5
4C8
330
18
100
AcDbEntity
  8
1
 62
     1
100
AcDbLine
 10
52.88594329402078
 20
0.5876810649932815
 30
0.0
 11
52.87665122912696
 21
0.518472014717281
 31
0.0
  0
LINE
  5
4C9
330
18
100
AcDbEntity
  8
1
 62
     1
100
AcDbLine
 10
52.87665122912696
 20
0.518472014717281
 30
0.0
 11
52.86425035639054
 21
0.4510489437948975
 31
0.0
  0
LINE
  5
4CA
330
18
100
AcDbEntity
  8
1
 62
     1
100
AcDbLine
 10
52.86425035639054
 20
0.4510489437948975
 30
0.0
 11
52.84825650594995
 21
0.385942131163315
 31
0.0
  0
LINE
  5
4CB
330
18
100
AcDbEntity
  8
1
 62
     1
100
AcDbLine
 10
52.84825650594995
 20
0.385942131163315
 30
0.0
 11
52.8387431934401
 21
0.3544723105844814
 31
0.0
  0
LINE
  5
4CC
330
18
100
AcDbEntity
  8
1
 62
     1
100
AcDbLine
 10
52.8387431934401
 20
0.3544723105844814
 30
0.0
 11
52.82811837080988
 21
0.3238492171507838
 31
0.0
  0
LINE
  5
4CD
330
18
100
AcDbEntity
  8
1
 62
     1
100
AcDbLine
 10
52.82811837080988
 20
0.3238492171507838
 30
0.0
 11
52.81630881401399
 21
0.2942030032688232
 31
0.0
  0
LINE
  5
4CE
330
18
100
AcDbEntity
  8
1
 62
     1
100
AcDbLine
 10
52.81630881401399
 20
0.2942030032688232
 30
0.0
 11
52.80323191738734
 21
0.2656518854702852
 31
0.0
  0
LINE
  5
4CF
330
18
100
AcDbEntity
  8
1
 62
     1
100
AcDbLine
 10
52.80323191738734
 20
0.2656518854702852
 30
0.0
 11
52.78880603196664
 21
0.238340762843562
 31
0.0
  0
LINE
  5
4D0
330
18
100
AcDbEntity
  8
1
 62
     1
100
AcDbLine
 10
52.78880603196664
 20
0.238340762843562
 30
0.0
 11
52.77295927277854
 21
0.2124430706094128
 31
0.0
  0
LINE
  5
4D1
330
18
100
AcDbEntity
  8
1
 62
     1
100
AcDbLine
 10
52.77295927277854
 20
0.2124430706094128
 30
0.0
 11
52.76447258809818
 21
0.2000687307484583
 31
0.0
  0
LINE
  5
4D2
330
18
100
AcDbEntity
  8
1
 62
     1
100
AcDbLine
 10
52.76447258809818
 20
0.2000687307484583
 30
0.0
 11
52.75559935591684
 21
0.1881090067903476
 31
0.0
  0
LINE
  5
4D3
330
18
100
AcDbEntity
  8
1
 62
     1
100
AcDbLine
 10
52.75559935591684
 20
0.1881090067903476
 30
0.0
 11
52.74633390929807
 21
0.1765911290225834
 31
0.0
  0
LINE
  5
4D4
330
18
100
AcDbEntity
  8
1
 62
     1
100
AcDbLine
 10
52.74633390929807
 20
0.1765911290225834
 30
0.0
 11
52.7366705813053
 21
0.165542327732668
 31
0.0
  0
LINE
  5
4D5
330
18
100
AcDbEntity
  8
1
 62
     1
100
AcDbLine
 10
52.7366705813053
 20
0.165542327732668
 30
0.0
 11
52.72660238567491
 21
0.1549884065206612
 31
0.0
  0
LINE
  5
4D6
330
18
100
AcDbEntity
  8
1
 62
     1
100
AcDbLine
 10
52.72660238567491
 20
0.1549884065206612
 30
0.0
 11
52.71611643309661
 21
0.1449472462595079
 31
0.0
  0
LINE
  5
4D7
330
18
100
AcDbEntity
  8
1
 62
     1
100
AcDbLine
 10
52.71611643309661
 20
0.1449472462595079
 30
0.0
 11
52.70521068615368
 21
0.1354458899924052
 31
0.0
  0
LINE
  5
4D8
330
18
100
AcDbEntity
  8
1
 62
     1
100
AcDbLine
 10
52.70521068615368
 20
0.1354458899924052
 30
0.0
 11
52.69388516968445
 21
0.126513402482447
 31
0.0
  0
LINE
  5
4D9
330
18
100
AcDbEntity
  8
1
 62
     1
100
AcDbLine
 10
52.69388516968445
 20
0.126513402482447
 30
0.0
 11
52.68213274531855
 21
0.1181730804142865
 31
0.0
  0
LINE
  5
4DA
330
18
100
AcDbEntity
  8
1
 62
     1
100
AcDbLine
 10
52.68213274531855
 20
0.1181730804142865
 30
0.0
 11
52.66994998674106
 21
0.1104461748065267
 31
0.0
  0
LINE
  5
4DB
330
18
100
AcDbEntity
  8
1
 62
     1
100
AcDbLine
 10
52.66994998674106
 20
0.1104461748065267
 30
0.0
 11
52.65734390903485
 21
0.1033596139910517
 31
0.0
  0
LINE
  5
4DC
330
18
100
AcDbEntity
  8
1
 62
     1
100
AcDbLine
 10
52.65734390903485
 20
0.1033596139910517
 30
0.0
 11
52.64431903342864
 21
0.0969390568608389
 31
0.0
  0
LINE
  5
4DD
330
18
100
AcDbEntity
  8
1
 62
     1
100
AcDbLine
 10
52.64431903342864
 20
0.0969390568608389
 30
0.0
 11
52.63086928601355
 21
0.0912008394487276
 31
0.0
  0
LINE
  5
4DE
330
18
100
AcDbEntity
  8
1
 62
     1
100
AcDbLine
 10
52.63086928601355
 20
0.0912008394487276
 30
0.0
 11
52.61700676722765
 21
0.0861642356170201
 31
0.0
  0
LINE
  5
4DF
330
18
100
AcDbEntity
  8
1
 62
     1
100
AcDbLine
 10
52.61700676722765
 20
0.0861642356170201
 30
0.0
 11
52.60274684292695
 21
0.0818497027250042
 31
0.0
  0
LINE
  5
4E0
330
18
100
AcDbEntity
  8
1
 62
     1
100
AcDbLine
 10
52.60274684292695
 20
0.0818497027250042
 30
0.0
 11
52.58809244517293
 21
0.078272642524934
 31
0.0
  0
LINE
  5
4E1
330
18
100
AcDbEntity
  8
1
 62
     1
100
AcDbLine
 10
52.58809244517293
 20
0.078272642524934
 30
0.0
 11
52.57305129087133
 21
0.0754413401716627
 31
0.0
  0
LINE
  5
4E2
330
18
100
AcDbEntity
  8
1
 62
     1
100
AcDbLine
 10
52.57305129087133
 20
0.0754413401716627
 30
0.0
 11
52.55764666367718
 21
0.0733657576382184
 31
0.0
  0
LINE
  5
4E3
330
18
100
AcDbEntity
  8
1
 62
     1
100
AcDbLine
 10
52.55764666367718
 20
0.0733657576382184
 30
0.0
 11
52.54189800648845
 21
0.0720552757898169
 31
0.0
  0
LINE
  5
4E4
330
18
100
AcDbEntity
  8
1
 62
     1
100
AcDbLine
 10
52.54189800648845
 20
0.0720552757898169
 30
0.0
 11
52.52580762192573
 21
0.0715117200462886
 31
0.0
  0
LINE
  5
4E5
330
18
100
AcDbEntity
  8
1
 62
     1
100
AcDbLine
 10
52.52580762192573
 20
0.0715117200462886
 30
0.0
 11
52.50940015029764
 21
0.0717325842633036
 31
0.0
  0
LINE
  5
4E6
330
18
100
AcDbEntity
  8
1
 62
     1
100
AcDbLine
 10
52.50940015029764
 20
0.0717325842633036
 30
0.0
 11
52.49270428390573
 21
0.0727154258047403
 31
0.0
  0
LINE
  5
4E7
330
18
100
AcDbEntity
  8
1
 62
     1
100
AcDbLine
 10
52.49270428390573
 20
0.0727154258047403
 30
0.0
 11
52.47573210012953
 21
0.0744569258427773
 31
0.0
  0
LINE
  5
4E8
330
18
100
AcDbEntity
  8
1
 62
     1
100
AcDbLine
 10
52.47573210012953
 20
0.0744569258427773
 30
0.0
 11
52.4584974636702
 21
0.0769461901425075
 31
0.0
  0
LINE
  5
4E9
330
18
100
AcDbEntity
  8
1
 62
     1
100
AcDbLine
 10
52.4584974636702
 20
0.0769461901425075
 30
0.0
 11
52.44103073726659
 21
0.0801694749287572
 31
0.0
  0
LINE
  5
4EA
330
18
100
AcDbEntity
  8
1
 62
     1
100
AcDbLine
 10
52.44103073726659
 20
0.0801694749287572
 30
0.0
 11
52.42335783910844
 21
0.0841137065624715
 31
0.0
  0
LINE
  5
4EB
330
18
100
AcDbEntity
  8
1
 62
     1
100
AcDbLine
 10
52.42335783910844
 20
0.0841137065624715
 30
0.0
 11
52.38743374350017
 21
0.0941049438310267
 31
0.0
  0
LINE
  5
4EC
330
18
100
AcDbEntity
  8
1
 62
     1
100
AcDbLine
 10
52.38743374350017
 20
0.0941049438310267
 30
0.0
 11
52.35090236494602
 21
0.106762144304516
 31
0.0
  0
LINE
  5
4ED
330
18
100
AcDbEntity
  8
1
 62
     1
100
AcDbLine
 10
52.35090236494602
 20
0.106762144304516
 30
0.0
 11
52.31388601744966
 21
0.1219243612458898
 31
0.0
  0
LINE
  5
4EE
330
18
100
AcDbEntity
  8
1
 62
     1
100
AcDbLine
 10
52.31388601744966
 20
0.1219243612458898
 30
0.0
 11
52.27653330529152
 21
0.1394051860215265
 31
0.0
  0
LINE
  5
4EF
330
18
100
AcDbEntity
  8
1
 62
     1
100
AcDbLine
 10
52.27653330529152
 20
0.1394051860215265
 30
0.0
 11
52.23894299332382
 21
0.159027096214801
 31
0.0
  0
LINE
  5
4F0
330
18
100
AcDbEntity
  8
1
 62
     1
100
AcDbLine
 10
52.23894299332382
 20
0.159027096214801
 30
0.0
 11
52.20120831598027
 21
0.180614695317307
 31
0.0
  0
LINE
  5
4F1
330
18
100
AcDbEntity
  8
1
 62
     1
100
AcDbLine
 10
52.20120831598027
 20
0.180614695317307
 30
0.0
 11
52.12562919853787
 21
0.228993582664779
 31
0.0
  0
LINE
  5
4F2
330
18
100
AcDbEntity
  8
1
 62
     1
100
AcDbLine
 10
52.12562919853787
 20
0.228993582664779
 30
0.0
 11
52.05030032716141
 21
0.2832729684539151
 31
0.0
  0
LINE
  5
4F3
330
18
100
AcDbEntity
  8
1
 62
     1
100
AcDbLine
 10
52.05030032716141
 20
0.2832729684539151
 30
0.0
 11
51.97555715304846
 21
0.3423560685961948
 31
0.0
  0
LINE
  5
4F4
330
18
100
AcDbEntity
  8
1
 62
     1
100
AcDbLine
 10
51.97555715304846
 20
0.3423560685961948
 30
0.0
 11
51.82852287437165
 21
0.4714679961746315
 31
0.0
  0
LINE
  5
4F5
330
18
100
AcDbEntity
  8
1
 62
     1
100
AcDbLine
 10
51.82852287437165
 20
0.4714679961746315
 30
0.0
 11
51.68528342386971
 21
0.610765250562658
 31
0.0
  0
LINE
  5
4F6
330
18
100
AcDbEntity
  8
1
 62
     1
100
AcDbLine
 10
51.68528342386971
 20
0.610765250562658
 30
0.0
 11
51.312
 21
1.017836562118692
 31
0.0
  0
LINE
  5
4F7
330
18
100
AcDbEntity
  8
1
 62
     1
100
AcDbLine
 10
52.89999999999999
 20
-1.553071598466573
 30
0.0
 11
52.89923763505483
 21
-1.576591315507368
 31
0.0
  0
LINE
  5
4F8
330
18
100
AcDbEntity
  8
1
 62
     1
100
AcDbLine
 10
52.89923763505483
 20
-1.576591315507368
 30
0.0
 11
52.89828634881773
 21
-1.587936719336665
 31
0.0
  0
LINE
  5
4F9
330
18
100
AcDbEntity
  8
1
 62
     1
100
AcDbLine
 10
52.89828634881773
 20
-1.587936719336665
 30
0.0
 11
52.89695647779923
 21
-1.598988994028304
 31
0.0
  0
LINE
  5
4FA
330
18
100
AcDbEntity
  8
1
 62
     1
100
AcDbLine
 10
52.89695647779923
 20
-1.598988994028304
 30
0.0
 11
52.89524913529556
 21
-1.609735520074593
 31
0.0
  0
LINE
  5
4FB
330
18
100
AcDbEntity
  8
1
 62
     1
100
AcDbLine
 10
52.89524913529556
 20
-1.609735520074593
 30
0.0
 11
52.89316508473506
 21
-1.620165826923982
 31
0.0
  0
LINE
  5
4FC
330
18
100
AcDbEntity
  8
1
 62
     1
100
AcDbLine
 10
52.89316508473506
 20
-1.620165826923982
 30
0.0
 11
52.89070506103503
 21
-1.630276700983892
 31
0.0
  0
LINE
  5
4FD
330
18
100
AcDbEntity
  8
1
 62
     1
100
AcDbLine
 10
52.89070506103503
 20
-1.630276700983892
 30
0.0
 11
52.88787237417662
 21
-1.640058095235063
 31
0.0
  0
LINE
  5
4FE
330
18
100
AcDbEntity
  8
1
 62
     1
100
AcDbLine
 10
52.88787237417662
 20
-1.640058095235063
 30
0.0
 11
52.8846705458257
 21
-1.649499091244084
 31
0.0
  0
LINE
  5
4FF
330
18
100
AcDbEntity
  8
1
 62
     1
100
AcDbLine
 10
52.8846705458257
 20
-1.649499091244084
 30
0.0
 11
52.88110309764808
 21
-1.658588770577543
 31
0.0
  0
LINE
  5
500
330
18
100
AcDbEntity
  8
1
 62
     1
100
AcDbLine
 10
52.88110309764808
 20
-1.658588770577543
 30
0.0
 11
52.87717344646251
 21
-1.667316448042881
 31
0.0
  0
LINE
  5
501
330
18
100
AcDbEntity
  8
1
 62
     1
100
AcDbLine
 10
52.87717344646251
 20
-1.667316448042881
 30
0.0
 11
52.8728826544387
 21
-1.675678643880258
 31
0.0
  0
LINE
  5
502
330
18
100
AcDbEntity
  8
1
 62
     1
100
AcDbLine
 10
52.8728826544387
 20
-1.675678643880258
 30
0.0
 11
52.86823495882818
 21
-1.683670024870165
 31
0.0
  0
LINE
  5
503
330
18
100
AcDbEntity
  8
1
 62
     1
100
AcDbLine
 10
52.86823495882818
 20
-1.683670024870165
 30
0.0
 11
52.86323624098758
 21
-1.691282422382918
 31
0.0
  0
LINE
  5
504
330
18
100
AcDbEntity
  8
1
 62
     1
100
AcDbLine
 10
52.86323624098758
 20
-1.691282422382918
 30
0.0
 11
52.85789238227355
 21
-1.698507667788835
 31
0.0
  0
LINE
  5
505
330
18
100
AcDbEntity
  8
1
 62
     1
100
AcDbLine
 10
52.85789238227355
 20
-1.698507667788835
 30
0.0
 11
52.85220926404278
 21
-1.70533759245823
 31
0.0
  0
LINE
  5
506
330
18
100
AcDbEntity
  8
1
 62
     1
100
AcDbLine
 10
52.85220926404278
 20
-1.70533759245823
 30
0.0
 11
52.8461905822215
 21
-1.711767021933735
 31
0.0
  0
LINE
  5
507
330
18
100
AcDbEntity
  8
1
 62
     1
100
AcDbLine
 10
52.8461905822215
 20
-1.711767021933735
 30
0.0
 11
52.83983919388243
 21
-1.717795282397028
 31
0.0
  0
LINE
  5
508
330
18
100
AcDbEntity
  8
1
 62
     1
100
AcDbLine
 10
52.83983919388243
 20
-1.717795282397028
 30
0.0
 11
52.83316278369304
 21
-1.723417718459147
 31
0.0
  0
LINE
  5
509
330
18
100
AcDbEntity
  8
1
 62
     1
100
AcDbLine
 10
52.83316278369304
 20
-1.723417718459147
 30
0.0
 11
52.82616913910331
 21
-1.728629563340887
 31
0.0
  0
LINE
  5
50A
330
18
100
AcDbEntity
  8
1
 62
     1
100
AcDbLine
 10
52.82616913910331
 20
-1.728629563340887
 30
0.0
 11
52.81886604756321
 21
-1.73342605026304
 31
0.0
  0
LINE
  5
50B
330
18
100
AcDbEntity
  8
1
 62
     1
100
AcDbLine
 10
52.81886604756321
 20
-1.73342605026304
 30
0.0
 11
52.811260450835
 21
-1.737802985090462
 31
0.0
  0
LINE
  5
50C
330
18
100
AcDbEntity
  8
1
 62
     1
100
AcDbLine
 10
52.811260450835
 20
-1.737802985090462
 30
0.0
 11
52.80335419652846
 21
-1.741761112231587
 31
0.0
  0
LINE
  5
50D
330
18
100
AcDbEntity
  8
1
 62
     1
100
AcDbLine
 10
52.80335419652846
 20
-1.741761112231587
 30
0.0
 11
52.79515487590162
 21
-1.745299851205584
 31
0.0
  0
LINE
  5
50E
330
18
100
AcDbEntity
  8
1
 62
     1
100
AcDbLine
 10
52.79515487590162
 20
-1.745299851205584
 30
0.0
 11
52.78667144228755
 21
-1.748417917560703
 31
0.0
  0
LINE
  5
50F
330
18
100
AcDbEntity
  8
1
 62
     1
100
AcDbLine
 10
52.78667144228755
 20
-1.748417917560703
 30
0.0
 11
52.77791284901932
 21
-1.751114026845194
 31
0.0
  0
LINE
  5
510
330
18
100
AcDbEntity
  8
1
 62
     1
100
AcDbLine
 10
52.77791284901932
 20
-1.751114026845194
 30
0.0
 11
52.76888802722475
 21
-1.753386900618353
 31
0.0
  0
LINE
  5
511
330
18
100
AcDbEntity
  8
1
 62
     1
100
AcDbLine
 10
52.76888802722475
 20
-1.753386900618353
 30
0.0
 11
52.75960045246889
 21
-1.755237332884692
 31
0.0
  0
LINE
  5
512
330
18
100
AcDbEntity
  8
1
 62
     1
100
AcDbLine
 10
52.75960045246889
 20
-1.755237332884692
 30
0.0
 11
52.75005509467958
 21
-1.756667800558766
 31
0.0
  0
LINE
  5
513
330
18
100
AcDbEntity
  8
1
 62
     1
100
AcDbLine
 10
52.75005509467958
 20
-1.756667800558766
 30
0.0
 11
52.74026126459169
 21
-1.757680060665694
 31
0.0
  0
LINE
  5
514
330
18
100
AcDbEntity
  8
1
 62
     1
100
AcDbLine
 10
52.74026126459169
 20
-1.757680060665694
 30
0.0
 11
52.73022827294002
 21
-1.758275870230595
 31
0.0
  0
LINE
  5
515
330
18
100
AcDbEntity
  8
1
 62
     1
100
AcDbLine
 10
52.73022827294002
 20
-1.758275870230595
 30
0.0
 11
52.71996543045947
 21
-1.75845698627859
 31
0.0
  0
LINE
  5
516
330
18
100
AcDbEntity
  8
1
 62
     1
100
AcDbLine
 10
52.71996543045947
 20
-1.75845698627859
 30
0.0
 11
52.7094795388356
 21
-1.758225337490563
 31
0.0
  0
LINE
  5
517
330
18
100
AcDbEntity
  8
1
 62
     1
100
AcDbLine
 10
52.7094795388356
 20
-1.758225337490563
 30
0.0
 11
52.69877225912541
 21
-1.757584288041695
 31
0.0
  0
LINE
  5
518
330
18
100
AcDbEntity
  8
1
 62
     1
100
AcDbLine
 10
52.69877225912541
 20
-1.757584288041695
 30
0.0
 11
52.6767280079294
 21
-1.755090192026973
 31
0.0
  0
LINE
  5
519
330
18
100
AcDbEntity
  8
1
 62
     1
100
AcDbLine
 10
52.6767280079294
 20
-1.755090192026973
 30
0.0
 11
52.65390357136901
 21
-1.751007036664321
 31
0.0
  0
LINE
  5
51A
330
18
100
AcDbEntity
  8
1
 62
     1
100
AcDbLine
 10
52.65390357136901
 20
-1.751007036664321
 30
0.0
 11
52.63034280771539
 21
-1.745365780417067
 31
0.0
  0
LINE
  5
51B
330
18
100
AcDbEntity
  8
1
 62
     1
100
AcDbLine
 10
52.63034280771539
 20
-1.745365780417067
 30
0.0
 11
52.60609732599247
 21
-1.738207052971057
 31
0.0
  0
LINE
  5
51C
330
18
100
AcDbEntity
  8
1
 62
     1
100
AcDbLine
 10
52.60609732599247
 20
-1.738207052971057
 30
0.0
 11
52.5812282545955
 21
-1.729573845889647
 31
0.0
  0
LINE
  5
51D
330
18
100
AcDbEntity
  8
1
 62
     1
100
AcDbLine
 10
52.5812282545955
 20
-1.729573845889647
 30
0.0
 11
52.55576745014785
 21
-1.71950378148352
 31
0.0
  0
LINE
  5
51E
330
18
100
AcDbEntity
  8
1
 62
     1
100
AcDbLine
 10
52.55576745014785
 20
-1.71950378148352
 30
0.0
 11
52.52976743815773
 21
-1.708045581291237
 31
0.0
  0
LINE
  5
51F
330
18
100
AcDbEntity
  8
1
 62
     1
100
AcDbLine
 10
52.52976743815773
 20
-1.708045581291237
 30
0.0
 11
52.47631319261422
 21
-1.681142367194938
 31
0.0
  0
LINE
  5
520
330
18
100
AcDbEntity
  8
1
 62
     1
100
AcDbLine
 10
52.47631319261422
 20
-1.681142367194938
 30
0.0
 11
52.42116517776525
 21
-1.649230834885269
 31
0.0
  0
LINE
  5
521
330
18
100
AcDbEntity
  8
1
 62
     1
100
AcDbLine
 10
52.42116517776525
 20
-1.649230834885269
 30
0.0
 11
52.36458002420919
 21
-1.61267135478628
 31
0.0
  0
LINE
  5
522
330
18
100
AcDbEntity
  8
1
 62
     1
100
AcDbLine
 10
52.36458002420919
 20
-1.61267135478628
 30
0.0
 11
52.3067800685732
 21
-1.571814761935641
 31
0.0
  0
LINE
  5
523
330
18
100
AcDbEntity
  8
1
 62
     1
100
AcDbLine
 10
52.3067800685732
 20
-1.571814761935641
 30
0.0
 11
52.18825607810062
 21
-1.478530818875959
 31
0.0
  0
LINE
  5
524
330
18
100
AcDbEntity
  8
1
 62
     1
100
AcDbLine
 10
52.18825607810062
 20
-1.478530818875959
 30
0.0
 11
52.06682692175259
 21
-1.371889851572985
 31
0.0
  0
LINE
  5
525
330
18
100
AcDbEntity
  8
1
 62
     1
100
AcDbLine
 10
52.06682692175259
 20
-1.371889851572985
 30
0.0
 11
51.9433535854584
 21
-1.254097545973073
 31
0.0
  0
LINE
  5
526
330
18
100
AcDbEntity
  8
1
 62
     1
100
AcDbLine
 10
51.9433535854584
 20
-1.254097545973073
 30
0.0
 11
51.69257049287846
 21
-0.9926378335256227
 31
0.0
  0
LINE
  5
527
330
18
100
AcDbEntity
  8
1
 62
     1
100
AcDbLine
 10
51.69257049287846
 20
-0.9926378335256227
 30
0.0
 11
51.31199999999999
 21
-0.5595787595353094
 31
0.0
  0
ARC
  5
528
330
18
100
AcDbEntity
  8
1
 62
     1
100
AcDbCircle
 10
-35.03876553106476
 20
-50.78407053551065
 30
0.0
 40
79.00029007204482
100
AcDbArc
 50
40.00312281871715
 51
41.2848749900954
  0
LINE
  5
529
330
18
100
AcDbEntity
  8
1
 62
     1
100
AcDbLine
 10
24.325
 20
2.761275390565621
 30
0.0
 11
24.87726699845153
 21
2.206181435366924
 31
0.0
  0
LINE
  5
52A
330
18
100
AcDbEntity
  8
1
 62
     1
100
AcDbLine
 10
24.87726699845153
 20
2.206181435366924
 30
0.0
 11
25.98180273436066
 21
0.983420891327562
 31
0.0
  0
LINE
  5
52B
330
18
100
AcDbEntity
  8
1
 62
     1
100
AcDbLine
 10
25.98180273436066
 20
0.983420891327562
 30
0.0
 11
28.19087491745146
 21
-1.585221361614161
 31
0.0
  0
LINE
  5
52C
330
18
100
AcDbEntity
  8
1
 62
     1
100
AcDbLine
 10
28.19087491745146
 20
-1.585221361614161
 30
0.0
 11
28.74314344592474
 21
-2.182981670595584
 31
0.0
  0
LINE
  5
52D
330
18
100
AcDbEntity
  8
1
 62
     1
100
AcDbLine
 10
28.74314344592474
 20
-2.182981670595584
 30
0.0
 11
29.29541122640389
 21
-2.739935098588564
 31
0.0
  0
LINE
  5
52E
330
18
100
AcDbEntity
  8
1
 62
     1
100
AcDbLine
 10
29.29541122640389
 20
-2.739935098588564
 30
0.0
 11
29.84767876320966
 21
-3.245670482950381
 31
0.0
  0
LINE
  5
52F
330
18
100
AcDbEntity
  8
1
 62
     1
100
AcDbLine
 10
29.84767876320966
 20
-3.245670482950381
 30
0.0
 11
30.12381280496734
 21
-3.476334615323479
 31
0.0
  0
LINE
  5
530
330
18
100
AcDbEntity
  8
1
 62
     1
100
AcDbLine
 10
30.12381280496734
 20
-3.476334615323479
 30
0.0
 11
30.39994650347597
 21
-3.690734090607327
 31
0.0
  0
LINE
  5
531
330
18
100
AcDbEntity
  8
1
 62
     1
100
AcDbLine
 10
30.39994650347597
 20
-3.690734090607327
 30
0.0
 11
30.67608038944527
 21
-3.88786547051112
 31
0.0
  0
LINE
  5
532
330
18
100
AcDbEntity
  8
1
 62
     1
100
AcDbLine
 10
30.67608038944527
 20
-3.88786547051112
 30
0.0
 11
30.95221458469043
 21
-4.06680642362424
 31
0.0
  0
LINE
  5
533
330
18
100
AcDbEntity
  8
1
 62
     1
100
AcDbLine
 10
30.95221458469043
 20
-4.06680642362424
 30
0.0
 11
31.22834831704074
 21
-4.226720075139546
 31
0.0
  0
LINE
  5
534
330
18
100
AcDbEntity
  8
1
 62
     1
100
AcDbLine
 10
31.22834831704074
 20
-4.226720075139546
 30
0.0
 11
31.50448253409554
 21
-4.366857794854098
 31
0.0
  0
LINE
  5
535
330
18
100
AcDbEntity
  8
1
 62
     1
100
AcDbLine
 10
31.50448253409554
 20
-4.366857794854098
 30
0.0
 11
31.78061702095037
 21
-4.486564038241051
 31
0.0
  0
LINE
  5
536
330
18
100
AcDbEntity
  8
1
 62
     1
100
AcDbLine
 10
31.78061702095037
 20
-4.486564038241051
 30
0.0
 11
32.05675095973378
 21
-4.585278927808141
 31
0.0
  0
LINE
  5
537
330
18
100
AcDbEntity
  8
1
 62
     1
100
AcDbLine
 10
32.05675095973378
 20
-4.585278927808141
 30
0.0
 11
32.19482432083685
 21
-4.626617465885297
 31
0.0
  0
LINE
  5
538
330
18
100
AcDbEntity
  8
1
 62
     1
100
AcDbLine
 10
32.19482432083685
 20
-4.626617465885297
 30
0.0
 11
32.33288561460429
 21
-4.66254022840311
 31
0.0
  0
LINE
  5
539
330
18
100
AcDbEntity
  8
1
 62
     1
100
AcDbLine
 10
32.33288561460429
 20
-4.66254022840311
 30
0.0
 11
32.47095784858365
 21
-4.693009507546529
 31
0.0
  0
LINE
  5
53A
330
18
100
AcDbEntity
  8
1
 62
     1
100
AcDbLine
 10
32.47095784858365
 20
-4.693009507546529
 30
0.0
 11
32.60902047220897
 21
-4.717986588209991
 31
0.0
  0
LINE
  5
53B
330
18
100
AcDbEntity
  8
1
 62
     1
100
AcDbLine
 10
32.60902047220897
 20
-4.717986588209991
 30
0.0
 11
32.74709167997262
 21
-4.737444053164567
 31
0.0
  0
LINE
  5
53C
330
18
100
AcDbEntity
  8
1
 62
     1
100
AcDbLine
 10
32.74709167997262
 20
-4.737444053164567
 30
0.0
 11
32.88515477672225
 21
-4.75135860682243
 31
0.0
  0
LINE
  5
53D
330
18
100
AcDbEntity
  8
1
 62
     1
100
AcDbLine
 10
32.88515477672225
 20
-4.75135860682243
 30
0.0
 11
33.02322548534107
 21
-4.759713324009641
 31
0.0
  0
LINE
  5
53E
330
18
100
AcDbEntity
  8
1
 62
     1
100
AcDbLine
 10
33.02322548534107
 20
-4.759713324009641
 30
0.0
 11
33.16128972787027
 21
-4.762499999959628
 31
0.0
  0
LINE
  5
53F
330
18
100
AcDbEntity
  8
1
 62
     1
100
AcDbLine
 10
45.84130478096539
 20
4.7625
 30
0.0
 11
46.07813014933595
 21
4.754303849248608
 31
0.0
  0
LINE
  5
540
330
18
100
AcDbEntity
  8
1
 62
     1
100
AcDbLine
 10
46.07813014933595
 20
4.754303849248608
 30
0.0
 11
46.31495113623313
 21
4.729744561259208
 31
0.0
  0
LINE
  5
541
330
18
100
AcDbEntity
  8
1
 62
     1
100
AcDbLine
 10
46.31495113623313
 20
4.729744561259208
 30
0.0
 11
46.55177039879768
 21
4.688907471083439
 31
0.0
  0
LINE
  5
542
330
18
100
AcDbEntity
  8
1
 62
     1
100
AcDbLine
 10
46.55177039879768
 20
4.688907471083439
 30
0.0
 11
46.78858974914532
 21
4.631932847248744
 31
0.0
  0
LINE
  5
543
330
18
100
AcDbEntity
  8
1
 62
     1
100
AcDbLine
 10
46.78858974914532
 20
4.631932847248744
 30
0.0
 11
47.02541244558191
 21
4.559015920278812
 31
0.0
  0
LINE
  5
544
330
18
100
AcDbEntity
  8
1
 62
     1
100
AcDbLine
 10
47.02541244558191
 20
4.559015920278812
 30
0.0
 11
47.26223844384126
 21
4.47040571348737
 31
0.0
  0
LINE
  5
545
330
18
100
AcDbEntity
  8
1
 62
     1
100
AcDbLine
 10
47.26223844384126
 20
4.47040571348737
 30
0.0
 11
47.49906237454918
 21
4.366410143316911
 31
0.0
  0
LINE
  5
546
330
18
100
AcDbEntity
  8
1
 62
     1
100
AcDbLine
 10
47.49906237454918
 20
4.366410143316911
 30
0.0
 11
47.73588235995251
 21
4.247388015673017
 31
0.0
  0
LINE
  5
547
330
18
100
AcDbEntity
  8
1
 62
     1
100
AcDbLine
 10
47.73588235995251
 20
4.247388015673017
 30
0.0
 11
47.97270143886238
 21
4.113748707610521
 31
0.0
  0
LINE
  5
548
330
18
100
AcDbEntity
  8
1
 62
     1
100
AcDbLine
 10
47.97270143886238
 20
4.113748707610521
 30
0.0
 11
48.20952133889563
 21
3.965950672480214
 31
0.0
  0
LINE
  5
549
330
18
100
AcDbEntity
  8
1
 62
     1
100
AcDbLine
 10
48.20952133889563
 20
3.965950672480214
 30
0.0
 11
48.44634462531999
 21
3.804500680744625
 31
0.0
  0
LINE
  5
54A
330
18
100
AcDbEntity
  8
1
 62
     1
100
AcDbLine
 10
48.44634462531999
 20
3.804500680744625
 30
0.0
 11
48.68317142548087
 21
3.629954023292548
 31
0.0
  0
LINE
  5
54B
330
18
100
AcDbEntity
  8
1
 62
     1
100
AcDbLine
 10
48.68317142548087
 20
3.629954023292548
 30
0.0
 11
49.15681301349289
 21
3.244031621234232
 31
0.0
  0
LINE
  5
54C
330
18
100
AcDbEntity
  8
1
 62
     1
100
AcDbLine
 10
49.15681301349289
 20
3.244031621234232
 30
0.0
 11
49.63045270178982
 21
2.813490414868632
 31
0.0
  0
LINE
  5
54D
330
18
100
AcDbEntity
  8
1
 62
     1
100
AcDbLine
 10
44.49665671176496
 20
4.7625
 30
0.0
 11
45.84130478096539
 21
4.7625
 31
0.0
  0
LINE
  5
54E
330
18
100
AcDbEntity
  8
1
 62
     1
100
AcDbLine
 10
44.49665671176495
 20
4.762499999999999
 30
0.0
 11
44.69478512874467
 21
4.756762663708868
 31
0.0
  0
LINE
  5
54F
330
18
100
AcDbEntity
  8
1
 62
     1
100
AcDbLine
 10
44.69478512874467
 20
4.756762663708868
 30
0.0
 11
44.8929057490695
 21
4.739566816131965
 31
0.0
  0
LINE
  5
550
330
18
100
AcDbEntity
  8
1
 62
     1
100
AcDbLine
 10
44.8929057490695
 20
4.739566816131965
 30
0.0
 11
45.09103147639315
 21
4.710953251913916
 31
0.0
  0
LINE
  5
551
330
18
100
AcDbEntity
  8
1
 62
     1
100
AcDbLine
 10
45.09103147639315
 20
4.710953251913916
 30
0.0
 11
45.28916219161209
 21
4.670988473179628
 31
0.0
  0
LINE
  5
552
330
18
100
AcDbEntity
  8
1
 62
     1
100
AcDbLine
 10
45.28916219161209
 20
4.670988473179628
 30
0.0
 11
45.48728338257537
 21
4.619773049247971
 31
0.0
  0
LINE
  5
553
330
18
100
AcDbEntity
  8
1
 62
     1
100
AcDbLine
 10
45.48728338257537
 20
4.619773049247971
 30
0.0
 11
45.68540684967516
 21
4.557428627557618
 31
0.0
  0
LINE
  5
554
330
18
100
AcDbEntity
  8
1
 62
     1
100
AcDbLine
 10
45.68540684967516
 20
4.557428627557618
 30
0.0
 11
45.88353867861495
 21
4.484101276517764
 31
0.0
  0
LINE
  5
555
330
18
100
AcDbEntity
  8
1
 62
     1
100
AcDbLine
 10
45.88353867861495
 20
4.484101276517764
 30
0.0
 11
46.08166098599281
 21
4.399974541663634
 31
0.0
  0
LINE
  5
556
330
18
100
AcDbEntity
  8
1
 62
     1
100
AcDbLine
 10
46.08166098599281
 20
4.399974541663634
 30
0.0
 11
46.27978288076859
 21
4.305249238523303
 31
0.0
  0
LINE
  5
557
330
18
100
AcDbEntity
  8
1
 62
     1
100
AcDbLine
 10
46.27978288076859
 20
4.305249238523303
 30
0.0
 11
46.47791433330045
 21
4.200146962540043
 31
0.0
  0
LINE
  5
558
330
18
100
AcDbEntity
  8
1
 62
     1
100
AcDbLine
 10
46.47791433330045
 20
4.200146962540043
 30
0.0
 11
46.67603850775019
 21
4.084929387139971
 31
0.0
  0
LINE
  5
559
330
18
100
AcDbEntity
  8
1
 62
     1
100
AcDbLine
 10
46.67603850775019
 20
4.084929387139971
 30
0.0
 11
46.87415933060358
 21
3.959873779311421
 31
0.0
  0
LINE
  5
55A
330
18
100
AcDbEntity
  8
1
 62
     1
100
AcDbLine
 10
46.87415933060358
 20
3.959873779311421
 30
0.0
 11
47.27041572475371
 21
3.681457526622629
 31
0.0
  0
LINE
  5
55B
330
18
100
AcDbEntity
  8
1
 62
     1
100
AcDbLine
 10
47.27041572475371
 20
3.681457526622629
 30
0.0
 11
47.66666294619677
 21
3.367593943107802
 31
0.0
  0
LINE
  5
55C
330
18
100
AcDbEntity
  8
1
 62
     1
100
AcDbLine
 10
47.66666294619677
 20
3.367593943107802
 30
0.0
 11
48.06291332541547
 21
3.021295413071923
 31
0.0
  0
LINE
  5
55D
330
18
100
AcDbEntity
  8
1
 62
     1
100
AcDbLine
 10
48.06291332541547
 20
3.021295413071923
 30
0.0
 11
48.45916873022375
 21
2.64589587579941
 31
0.0
  0
LINE
  5
55E
330
18
100
AcDbEntity
  8
1
 62
     1
100
AcDbLine
 10
48.45916873022375
 20
2.64589587579941
 30
0.0
 11
49.25166768744248
 21
1.8225237482105
 31
0.0
  0
LINE
  5
55F
330
18
100
AcDbEntity
  8
1
 62
     1
100
AcDbLine
 10
49.25166768744248
 20
1.8225237482105
 30
0.0
 11
50.83666417762932
 21
-0.0000000000011659
 31
0.0
  0
LINE
  5
560
330
18
100
AcDbEntity
  8
1
 62
     1
100
AcDbLine
 10
48.72332835590188
 20
4.7625
 30
0.0
 11
48.54319967273084
 21
4.757757420639064
 31
0.0
  0
LINE
  5
561
330
18
100
AcDbEntity
  8
1
 62
     1
100
AcDbLine
 10
48.54319967273084
 20
4.757757420639064
 30
0.0
 11
48.36307852321893
 21
4.743541958597176
 31
0.0
  0
LINE
  5
562
330
18
100
AcDbEntity
  8
1
 62
     1
100
AcDbLine
 10
48.36307852321893
 20
4.743541958597176
 30
0.0
 11
48.18294572086914
 21
4.719879320244464
 31
0.0
  0
LINE
  5
563
330
18
100
AcDbEntity
  8
1
 62
     1
100
AcDbLine
 10
48.18294572086914
 20
4.719879320244464
 30
0.0
 11
48.00282200885842
 21
4.686818251657293
 31
0.0
  0
LINE
  5
564
330
18
100
AcDbEntity
  8
1
 62
     1
100
AcDbLine
 10
48.00282200885842
 20
4.686818251657293
 30
0.0
 11
47.8226984694476
 21
4.644425628512238
 31
0.0
  0
LINE
  5
565
330
18
100
AcDbEntity
  8
1
 62
     1
100
AcDbLine
 10
47.8226984694476
 20
4.644425628512238
 30
0.0
 11
47.64256565751941
 21
4.59278103788324
 31
0.0
  0
LINE
  5
566
330
18
100
AcDbEntity
  8
1
 62
     1
100
AcDbLine
 10
47.64256565751941
 20
4.59278103788324
 30
0.0
 11
47.46244442702546
 21
4.531994274293417
 31
0.0
  0
LINE
  5
567
330
18
100
AcDbEntity
  8
1
 62
     1
100
AcDbLine
 10
47.46244442702546
 20
4.531994274293417
 30
0.0
 11
47.28231629254221
 21
4.462181314109865
 31
0.0
  0
LINE
  5
568
330
18
100
AcDbEntity
  8
1
 62
     1
100
AcDbLine
 10
52.89999999999999
 20
3.080155585170375
 30
0.0
 11
52.8992708633623
 21
3.104101535647497
 31
0.0
  0
LINE
  5
569
330
18
100
AcDbEntity
  8
1
 62
     1
100
AcDbLine
 10
52.8992708633623
 20
3.104101535647497
 30
0.0
 11
52.89689198319444
 21
3.12874264203464
 31
0.0
  0
LINE
  5
56A
330
18
100
AcDbEntity
  8
1
 62
     1
100
AcDbLine
 10
52.89689198319444
 20
3.12874264203464
 30
0.0
 11
52.89499264254272
 21
3.1413948758951
 31
0.0
  0
LINE
  5
56B
330
18
100
AcDbEntity
  8
1
 62
     1
100
AcDbLine
 10
52.89499264254272
 20
3.1413948758951
 30
0.0
 11
52.89256441868022
 21
3.154314679756331
 31
0.0
  0
LINE
  5
56C
330
18
100
AcDbEntity
  8
1
 62
     1
100
AcDbLine
 10
52.89256441868022
 20
3.154314679756331
 30
0.0
 11
52.88956279179627
 21
3.167538627348018
 31
0.0
  0
LINE
  5
56D
330
18
100
AcDbEntity
  8
1
 62
     1
100
AcDbLine
 10
52.88956279179627
 20
3.167538627348018
 30
0.0
 11
52.88594323266572
 21
3.181103328791497
 31
0.0
  0
LINE
  5
56E
330
18
100
AcDbEntity
  8
1
 62
     1
100
AcDbLine
 10
52.88594323266572
 20
3.181103328791497
 30
0.0
 11
52.88165780874772
 21
3.195051733905025
 31
0.0
  0
LINE
  5
56F
330
18
100
AcDbEntity
  8
1
 62
     1
100
AcDbLine
 10
52.88165780874772
 20
3.195051733905025
 30
0.0
 11
52.87665124213428
 21
3.209432862703369
 31
0.0
  0
LINE
  5
570
330
18
100
AcDbEntity
  8
1
 62
     1
100
AcDbLine
 10
52.87665124213428
 20
3.209432862703369
 30
0.0
 11
52.87086742422665
 21
3.224294424504866
 31
0.0
  0
LINE
  5
571
330
18
100
AcDbEntity
  8
1
 62
     1
100
AcDbLine
 10
52.87086742422665
 20
3.224294424504866
 30
0.0
 11
52.85673587504556
 21
3.255661253023628
 31
0.0
  0
LINE
  5
572
330
18
100
AcDbEntity
  8
1
 62
     1
100
AcDbLine
 10
52.85673587504556
 20
3.255661253023628
 30
0.0
 11
52.83874296049332
 21
3.289616843753886
 31
0.0
  0
LINE
  5
573
330
18
100
AcDbEntity
  8
1
 62
     1
100
AcDbLine
 10
52.83874296049332
 20
3.289616843753886
 30
0.0
 11
52.81630821755464
 21
3.326674993648496
 31
0.0
  0
LINE
  5
574
330
18
100
AcDbEntity
  8
1
 62
     1
100
AcDbLine
 10
52.81630821755464
 20
3.326674993648496
 30
0.0
 11
52.7888055044731
 21
3.367377097978465
 31
0.0
  0
LINE
  5
575
330
18
100
AcDbEntity
  8
1
 62
     1
100
AcDbLine
 10
52.7888055044731
 20
3.367377097978465
 30
0.0
 11
52.75559914840044
 21
3.41224948976795
 31
0.0
  0
LINE
  5
576
330
18
100
AcDbEntity
  8
1
 62
     1
100
AcDbLine
 10
52.75559914840044
 20
3.41224948976795
 30
0.0
 11
52.66994875349184
 21
3.516042138572349
 31
0.0
  0
LINE
  5
577
330
18
100
AcDbEntity
  8
1
 62
     1
100
AcDbLine
 10
52.66994875349184
 20
3.516042138572349
 30
0.0
 11
52.55764425539658
 21
3.638306087286095
 31
0.0
  0
LINE
  5
578
330
18
100
AcDbEntity
  8
1
 62
     1
100
AcDbLine
 10
52.55764425539658
 20
3.638306087286095
 30
0.0
 11
52.42335499010171
 21
3.772875273859399
 31
0.0
  0
LINE
  5
579
330
18
100
AcDbEntity
  8
1
 62
     1
100
AcDbLine
 10
52.42335499010171
 20
3.772875273859399
 30
0.0
 11
52.2765313171428
 21
3.909508071177331
 31
0.0
  0
LINE
  5
57A
330
18
100
AcDbEntity
  8
1
 62
     1
100
AcDbLine
 10
52.2765313171428
 20
3.909508071177331
 30
0.0
 11
52.12562735360835
 21
4.039711625100595
 31
0.0
  0
LINE
  5
57B
330
18
100
AcDbEntity
  8
1
 62
     1
100
AcDbLine
 10
52.12562735360835
 20
4.039711625100595
 30
0.0
 11
51.97555646672073
 21
4.158799531754868
 31
0.0
  0
LINE
  5
57C
330
18
100
AcDbEntity
  8
1
 62
     1
100
AcDbLine
 10
51.97555646672073
 20
4.158799531754868
 30
0.0
 11
51.82852177749044
 21
4.264762146162542
 31
0.0
  0
LINE
  5
57D
330
18
100
AcDbEntity
  8
1
 62
     1
100
AcDbLine
 10
51.82852177749044
 20
4.264762146162542
 30
0.0
 11
51.68528367194054
 21
4.35691206391845
 31
0.0
  0
LINE
  5
57E
330
18
100
AcDbEntity
  8
1
 62
     1
100
AcDbLine
 10
51.68528367194054
 20
4.35691206391845
 30
0.0
 11
51.54605054369283
 21
4.435051692953244
 31
0.0
  0
LINE
  5
57F
330
18
100
AcDbEntity
  8
1
 62
     1
100
AcDbLine
 10
51.54605054369283
 20
4.435051692953244
 30
0.0
 11
51.42751515742041
 21
4.491914006324006
 31
0.0
  0
LINE
  5
580
330
18
100
AcDbEntity
  8
1
 62
     1
100
AcDbLine
 10
51.42751515742041
 20
4.491914006324006
 30
0.0
 11
51.36937544847979
 21
4.516331044051235
 31
0.0
  0
LINE
  5
581
330
18
100
AcDbEntity
  8
1
 62
     1
100
AcDbLine
 10
51.36937544847979
 20
4.516331044051235
 30
0.0
 11
51.312
 21
4.538069709972243
 31
0.0
  0
LINE
  5
582
330
18
100
AcDbEntity
  8
1
 62
     1
100
AcDbLine
 10
52.89999999999999
 20
1.621184815231075
 30
0.0
 11
52.89923763523974
 21
1.646814080046268
 31
0.0
  0
LINE
  5
583
330
18
100
AcDbEntity
  8
1
 62
     1
100
AcDbLine
 10
52.89923763523974
 20
1.646814080046268
 30
0.0
 11
52.89695647853674
 21
1.673484711223729
 31
0.0
  0
LINE
  5
584
330
18
100
AcDbEntity
  8
1
 62
     1
100
AcDbLine
 10
52.89695647853674
 20
1.673484711223729
 30
0.0
 11
52.89316508638967
 21
1.701178922609867
 31
0.0
  0
LINE
  5
585
330
18
100
AcDbEntity
  8
1
 62
     1
100
AcDbLine
 10
52.89316508638967
 20
1.701178922609867
 30
0.0
 11
52.88787237709767
 21
1.729913686063013
 31
0.0
  0
LINE
  5
586
330
18
100
AcDbEntity
  8
1
 62
     1
100
AcDbLine
 10
52.88787237709767
 20
1.729913686063013
 30
0.0
 11
52.88110310217579
 21
1.759663591124052
 31
0.0
  0
LINE
  5
587
330
18
100
AcDbEntity
  8
1
 62
     1
100
AcDbLine
 10
52.88110310217579
 20
1.759663591124052
 30
0.0
 11
52.87288266090848
 21
1.790399158482361
 31
0.0
  0
LINE
  5
588
330
18
100
AcDbEntity
  8
1
 62
     1
100
AcDbLine
 10
52.87288266090848
 20
1.790399158482361
 30
0.0
 11
52.85220927502859
 21
1.854768626262979
 31
0.0
  0
LINE
  5
589
330
18
100
AcDbEntity
  8
1
 62
     1
100
AcDbLine
 10
52.85220927502859
 20
1.854768626262979
 30
0.0
 11
52.82616915531744
 21
1.922725058802347
 31
0.0
  0
LINE
  5
58A
330
18
100
AcDbEntity
  8
1
 62
     1
100
AcDbLine
 10
52.82616915531744
 20
1.922725058802347
 30
0.0
 11
52.7951548981992
 21
1.99389005889274
 31
0.0
  0
LINE
  5
58B
330
18
100
AcDbEntity
  8
1
 62
     1
100
AcDbLine
 10
52.7951548981992
 20
1.99389005889274
 30
0.0
 11
52.71996545744487
 21
2.144119154408832
 31
0.0
  0
LINE
  5
58C
330
18
100
AcDbEntity
  8
1
 62
     1
100
AcDbLine
 10
52.71996545744487
 20
2.144119154408832
 30
0.0
 11
52.63034284640843
 21
2.301685219705492
 31
0.0
  0
LINE
  5
58D
330
18
100
AcDbEntity
  8
1
 62
     1
100
AcDbLine
 10
52.63034284640843
 20
2.301685219705492
 30
0.0
 11
52.52976745665858
 21
2.46295316613128
 31
0.0
  0
LINE
  5
58E
330
18
100
AcDbEntity
  8
1
 62
     1
100
AcDbLine
 10
52.52976745665858
 20
2.46295316613128
 30
0.0
 11
52.30678006139707
 21
2.784577589715504
 31
0.0
  0
LINE
  5
58F
330
18
100
AcDbEntity
  8
1
 62
     1
100
AcDbLine
 10
52.30678006139707
 20
2.784577589715504
 30
0.0
 11
52.0668267565966
 21
3.090734878421815
 31
0.0
  0
LINE
  5
590
330
18
100
AcDbEntity
  8
1
 62
     1
100
AcDbLine
 10
52.0668267565966
 20
3.090734878421815
 30
0.0
 11
51.81845230175526
 21
3.369774378769928
 31
0.0
  0
LINE
  5
591
330
18
100
AcDbEntity
  8
1
 62
     1
100
AcDbLine
 10
51.81845230175526
 20
3.369774378769928
 30
0.0
 11
51.69257008714037
 21
3.496559203067364
 31
0.0
  0
LINE
  5
592
330
18
100
AcDbEntity
  8
1
 62
     1
100
AcDbLine
 10
51.69257008714037
 20
3.496559203067364
 30
0.0
 11
51.56603738905052
 21
3.613725250776016
 31
0.0
  0
LINE
  5
593
330
18
100
AcDbEntity
  8
1
 62
     1
100
AcDbLine
 10
51.56603738905052
 20
3.613725250776016
 30
0.0
 11
51.43910891523539
 21
3.720492102605133
 31
0.0
  0
LINE
  5
594
330
18
100
AcDbEntity
  8
1
 62
     1
100
AcDbLine
 10
51.43910891523539
 20
3.720492102605133
 30
0.0
 11
51.312
 21
3.816087619900141
 31
0.0
  0
LINE
  5
595
330
18
100
AcDbEntity
  8
1
 62
     1
100
AcDbLine
 10
27.58997013426785
 20
4.762500000000001
 30
0.0
 11
27.78809853848384
 21
4.756762663078637
 31
0.0
  0
LINE
  5
596
330
18
100
AcDbEntity
  8
1
 62
     1
100
AcDbLine
 10
27.78809853848384
 20
4.756762663078637
 30
0.0
 11
27.98621916668381
 21
4.739566815629064
 31
0.0
  0
LINE
  5
597
330
18
100
AcDbEntity
  8
1
 62
     1
100
AcDbLine
 10
27.98621916668381
 20
4.739566815629064
 30
0.0
 11
28.18434488395433
 21
4.710953250054895
 31
0.0
  0
LINE
  5
598
330
18
100
AcDbEntity
  8
1
 62
     1
100
AcDbLine
 10
28.18434488395433
 20
4.710953250054895
 30
0.0
 11
28.38247561361822
 21
4.670988473209388
 31
0.0
  0
LINE
  5
599
330
18
100
AcDbEntity
  8
1
 62
     1
100
AcDbLine
 10
28.38247561361822
 20
4.670988473209388
 30
0.0
 11
28.58059679454806
 21
4.619773046969256
 31
0.0
  0
LINE
  5
59A
330
18
100
AcDbEntity
  8
1
 62
     1
100
AcDbLine
 10
28.58059679454806
 20
4.619773046969256
 30
0.0
 11
28.77872026796875
 21
4.557428626443611
 31
0.0
  0
LINE
  5
59B
330
18
100
AcDbEntity
  8
1
 62
     1
100
AcDbLine
 10
28.77872026796875
 20
4.557428626443611
 30
0.0
 11
28.97685208871587
 21
4.484101272859677
 31
0.0
  0
LINE
  5
59C
330
18
100
AcDbEntity
  8
1
 62
     1
100
AcDbLine
 10
28.97685208871587
 20
4.484101272859677
 30
0.0
 11
29.17497440262121
 21
4.399974539894171
 31
0.0
  0
LINE
  5
59D
330
18
100
AcDbEntity
  8
1
 62
     1
100
AcDbLine
 10
29.17497440262121
 20
4.399974539894171
 30
0.0
 11
29.37309629570666
 21
4.305249235670566
 31
0.0
  0
LINE
  5
59E
330
18
100
AcDbEntity
  8
1
 62
     1
100
AcDbLine
 10
29.37309629570666
 20
4.305249235670566
 30
0.0
 11
29.57122774727262
 21
4.20014695900507
 31
0.0
  0
LINE
  5
59F
330
18
100
AcDbEntity
  8
1
 62
     1
100
AcDbLine
 10
29.57122774727262
 20
4.20014695900507
 30
0.0
 11
29.76935192249236
 21
4.084929383453528
 31
0.0
  0
LINE
  5
5A0
330
18
100
AcDbEntity
  8
1
 62
     1
100
AcDbLine
 10
29.76935192249236
 20
4.084929383453528
 30
0.0
 11
29.96747274128967
 21
3.959873773679945
 31
0.0
  0
LINE
  5
5A1
330
18
100
AcDbEntity
  8
1
 62
     1
100
AcDbLine
 10
29.96747274128967
 20
3.959873773679945
 30
0.0
 11
30.36372913623953
 21
3.68145752047917
 31
0.0
  0
LINE
  5
5A2
330
18
100
AcDbEntity
  8
1
 62
     1
100
AcDbLine
 10
30.36372913623953
 20
3.68145752047917
 30
0.0
 11
30.75997635375289
 21
3.367593933851134
 31
0.0
  0
LINE
  5
5A3
330
18
100
AcDbEntity
  8
1
 62
     1
100
AcDbLine
 10
30.75997635375289
 20
3.367593933851134
 30
0.0
 11
31.15622673601425
 21
3.021295404950757
 31
0.0
  0
LINE
  5
5A4
330
18
100
AcDbEntity
  8
1
 62
     1
100
AcDbLine
 10
31.15622673601425
 20
3.021295404950757
 30
0.0
 11
31.55248213904705
 21
2.645895865673531
 31
0.0
  0
LINE
  5
5A5
330
18
100
AcDbEntity
  8
1
 62
     1
100
AcDbLine
 10
31.55248213904705
 20
2.645895865673531
 30
0.0
 11
32.34498110171452
 21
1.822523741112409
 31
0.0
  0
LINE
  5
5A6
330
18
100
AcDbEntity
  8
1
 62
     1
100
AcDbLine
 10
32.34498110171452
 20
1.822523741112409
 30
0.0
 11
33.92997760106392
 21
-0.000000000001019
 31
0.0
  0
LINE
  5
5A7
330
18
100
AcDbEntity
  8
1
 62
     1
100
AcDbLine
 10
28.93461804366726
 20
4.762500000000001
 30
0.0
 11
29.17144359496168
 21
4.7543038580045
 31
0.0
  0
LINE
  5
5A8
330
18
100
AcDbEntity
  8
1
 62
     1
100
AcDbLine
 10
29.17144359496168
 20
4.7543038580045
 30
0.0
 11
29.40826447854529
 21
4.729744564556679
 31
0.0
  0
LINE
  5
5A9
330
18
100
AcDbEntity
  8
1
 62
     1
100
AcDbLine
 10
29.40826447854529
 20
4.729744564556679
 30
0.0
 11
29.64508378377806
 21
4.688907477208754
 31
0.0
  0
LINE
  5
5AA
330
18
100
AcDbEntity
  8
1
 62
     1
100
AcDbLine
 10
29.64508378377806
 20
4.688907477208754
 30
0.0
 11
29.88190311419058
 21
4.631932851521099
 31
0.0
  0
LINE
  5
5AB
330
18
100
AcDbEntity
  8
1
 62
     1
100
AcDbLine
 10
29.88190311419058
 20
4.631932851521099
 30
0.0
 11
30.11872584572401
 21
4.55901592704398
 31
0.0
  0
LINE
  5
5AC
330
18
100
AcDbEntity
  8
1
 62
     1
100
AcDbLine
 10
30.11872584572401
 20
4.55901592704398
 30
0.0
 11
30.35555187925622
 21
4.470405725323428
 31
0.0
  0
LINE
  5
5AD
330
18
100
AcDbEntity
  8
1
 62
     1
100
AcDbLine
 10
30.35555187925622
 20
4.470405725323428
 30
0.0
 11
30.59237571986559
 21
4.366410117828801
 31
0.0
  0
LINE
  5
5AE
330
18
100
AcDbEntity
  8
1
 62
     1
100
AcDbLine
 10
30.59237571986559
 20
4.366410117828801
 30
0.0
 11
30.82919585759534
 21
4.247388039953163
 31
0.0
  0
LINE
  5
5AF
330
18
100
AcDbEntity
  8
1
 62
     1
100
AcDbLine
 10
30.82919585759534
 20
4.247388039953163
 30
0.0
 11
31.06601480550248
 21
4.113748668426691
 31
0.0
  0
LINE
  5
5B0
330
18
100
AcDbEntity
  8
1
 62
     1
100
AcDbLine
 10
31.06601480550248
 20
4.113748668426691
 30
0.0
 11
31.30283484515197
 21
3.965950682131972
 31
0.0
  0
LINE
  5
5B1
330
18
100
AcDbEntity
  8
1
 62
     1
100
AcDbLine
 10
31.30283484515197
 20
3.965950682131972
 30
0.0
 11
31.53965801941233
 21
3.804500624060972
 31
0.0
  0
LINE
  5
5B2
330
18
100
AcDbEntity
  8
1
 62
     1
100
AcDbLine
 10
31.53965801941233
 20
3.804500624060972
 30
0.0
 11
31.77648492479416
 21
3.629954008068159
 31
0.0
  0
LINE
  5
5B3
330
18
100
AcDbEntity
  8
1
 62
     1
100
AcDbLine
 10
31.77648492479416
 20
3.629954008068159
 30
0.0
 11
32.25012648017314
 21
3.244031554408858
 31
0.0
  0
LINE
  5
5B4
330
18
100
AcDbEntity
  8
1
 62
     1
100
AcDbLine
 10
32.25012648017314
 20
3.244031554408858
 30
0.0
 11
32.7237661166733
 21
2.813490277982014
 31
0.0
  0
LINE
  5
5B5
330
18
100
AcDbEntity
  8
1
 62
     1
100
AcDbLine
 10
50.06797646484583
 20
4.7625
 30
0.0
 11
50.2234811802773
 21
4.758965036300175
 31
0.0
  0
LINE
  5
5B6
330
18
100
AcDbEntity
  8
1
 62
     1
100
AcDbLine
 10
50.2234811802773
 20
4.758965036300175
 30
0.0
 11
50.37898286413248
 21
4.74836843433924
 31
0.0
  0
LINE
  5
5B7
330
18
100
AcDbEntity
  8
1
 62
     1
100
AcDbLine
 10
50.37898286413248
 20
4.74836843433924
 30
0.0
 11
50.53449103184311
 21
4.730722404803158
 31
0.0
  0
LINE
  5
5B8
330
18
100
AcDbEntity
  8
1
 62
     1
100
AcDbLine
 10
50.53449103184311
 20
4.730722404803158
 30
0.0
 11
50.68998985851491
 21
4.706057375433443
 31
0.0
  0
LINE
  5
5B9
330
18
100
AcDbEntity
  8
1
 62
     1
100
AcDbLine
 10
50.68998985851491
 20
4.706057375433443
 30
0.0
 11
50.84550065016312
 21
4.674404892476047
 31
0.0
  0
LINE
  5
5BA
330
18
100
AcDbEntity
  8
1
 62
     1
100
AcDbLine
 10
50.84550065016312
 20
4.674404892476047
 30
0.0
 11
51.00099824006501
 21
4.635817815594693
 31
0.0
  0
LINE
  5
5BB
330
18
100
AcDbEntity
  8
1
 62
     1
100
AcDbLine
 10
51.00099824006501
 20
4.635817815594693
 30
0.0
 11
51.15650934851153
 21
4.590346760815109
 31
0.0
  0
LINE
  5
5BC
330
18
100
AcDbEntity
  8
1
 62
     1
100
AcDbLine
 10
51.15650934851153
 20
4.590346760815109
 30
0.0
 11
51.312
 21
4.538069709972238
 31
0.0
  0
LINE
  5
5BD
330
18
100
AcDbEntity
  8
1
 62
     1
100
AcDbLine
 10
48.72332835590188
 20
4.7625
 30
0.0
 11
50.06797646484583
 21
4.7625
 31
0.0
  0
LINE
  5
5BE
330
18
100
AcDbEntity
  8
1
 62
     1
100
AcDbLine
 10
48.72332835590188
 20
4.7625
 30
0.0
 11
48.88512150169517
 21
4.758673482964721
 31
0.0
  0
LINE
  5
5BF
330
18
100
AcDbEntity
  8
1
 62
     1
100
AcDbLine
 10
48.88512150169517
 20
4.758673482964721
 30
0.0
 11
49.0469095444129
 21
4.747203117348004
 31
0.0
  0
LINE
  5
5C0
330
18
100
AcDbEntity
  8
1
 62
     1
100
AcDbLine
 10
49.0469095444129
 20
4.747203117348004
 30
0.0
 11
49.20870736805381
 21
4.728103825818068
 31
0.0
  0
LINE
  5
5C1
330
18
100
AcDbEntity
  8
1
 62
     1
100
AcDbLine
 10
49.20870736805381
 20
4.728103825818068
 30
0.0
 11
49.37049321542883
 21
4.701410421727873
 31
0.0
  0
LINE
  5
5C2
330
18
100
AcDbEntity
  8
1
 62
     1
100
AcDbLine
 10
49.37049321542883
 20
4.701410421727873
 30
0.0
 11
49.53229193308196
 21
4.667161134964468
 31
0.0
  0
LINE
  5
5C3
330
18
100
AcDbEntity
  8
1
 62
     1
100
AcDbLine
 10
49.53229193308196
 20
4.667161134964468
 30
0.0
 11
49.69407850648503
 21
4.62541578536717
 31
0.0
  0
LINE
  5
5C4
330
18
100
AcDbEntity
  8
1
 62
     1
100
AcDbLine
 10
49.69407850648503
 20
4.62541578536717
 30
0.0
 11
49.85587439129294
 21
4.576237408637548
 31
0.0
  0
LINE
  5
5C5
330
18
100
AcDbEntity
  8
1
 62
     1
100
AcDbLine
 10
49.85587439129294
 20
4.576237408637548
 30
0.0
 11
50.01766457632291
 21
4.519707340033407
 31
0.0
  0
LINE
  5
5C6
330
18
100
AcDbEntity
  8
1
 62
     1
100
AcDbLine
 10
50.01766457632291
 20
4.519707340033407
 30
0.0
 11
50.1794547571447
 21
4.455917156809208
 31
0.0
  0
LINE
  5
5C7
330
18
100
AcDbEntity
  8
1
 62
     1
100
AcDbLine
 10
50.1794547571447
 20
4.455917156809208
 30
0.0
 11
50.34125061685292
 21
4.384964351386007
 31
0.0
  0
LINE
  5
5C8
330
18
100
AcDbEntity
  8
1
 62
     1
100
AcDbLine
 10
50.34125061685292
 20
4.384964351386007
 30
0.0
 11
50.50303717678072
 21
4.306971756744393
 31
0.0
  0
LINE
  5
5C9
330
18
100
AcDbEntity
  8
1
 62
     1
100
AcDbLine
 10
50.50303717678072
 20
4.306971756744393
 30
0.0
 11
50.82662161986108
 21
4.130357637417238
 31
0.0
  0
LINE
  5
5CA
330
18
100
AcDbEntity
  8
1
 62
     1
100
AcDbLine
 10
50.82662161986108
 20
4.130357637417238
 30
0.0
 11
51.06930906100157
 21
3.980417089537622
 31
0.0
  0
LINE
  5
5CB
330
18
100
AcDbEntity
  8
1
 62
     1
100
AcDbLine
 10
51.06930906100157
 20
3.980417089537622
 30
0.0
 11
51.31200000000001
 21
3.816087619900126
 31
0.0
  0
LINE
  5
5CC
330
18
100
AcDbEntity
  8
1
 62
     1
100
AcDbLine
 10
52.89999999999999
 20
3.174256413697648
 30
0.0
 11
52.89752747023018
 21
3.262785443043907
 31
0.0
  0
LINE
  5
5CD
330
18
100
AcDbEntity
  8
1
 62
     1
100
AcDbLine
 10
52.89752747023018
 20
3.262785443043907
 30
0.0
 11
52.89014309409556
 21
3.350779569747696
 31
0.0
  0
LINE
  5
5CE
330
18
100
AcDbEntity
  8
1
 62
     1
100
AcDbLine
 10
52.89014309409556
 20
3.350779569747696
 30
0.0
 11
52.87793233190398
 21
3.437769890200321
 31
0.0
  0
LINE
  5
5CF
330
18
100
AcDbEntity
  8
1
 62
     1
100
AcDbLine
 10
52.87793233190398
 20
3.437769890200321
 30
0.0
 11
52.86104172381762
 21
3.523229688378829
 31
0.0
  0
LINE
  5
5D0
330
18
100
AcDbEntity
  8
1
 62
     1
100
AcDbLine
 10
52.86104172381762
 20
3.523229688378829
 30
0.0
 11
52.83968879516215
 21
3.606635457039461
 31
0.0
  0
LINE
  5
5D1
330
18
100
AcDbEntity
  8
1
 62
     1
100
AcDbLine
 10
52.83968879516215
 20
3.606635457039461
 30
0.0
 11
52.81412738596502
 21
3.687537974928392
 31
0.0
  0
LINE
  5
5D2
330
18
100
AcDbEntity
  8
1
 62
     1
100
AcDbLine
 10
52.81412738596502
 20
3.687537974928392
 30
0.0
 11
52.78466102845896
 21
3.765485447511526
 31
0.0
  0
LINE
  5
5D3
330
18
100
AcDbEntity
  8
1
 62
     1
100
AcDbLine
 10
52.78466102845896
 20
3.765485447511526
 30
0.0
 11
52.75162900803876
 21
3.840088514531485
 31
0.0
  0
LINE
  5
5D4
330
18
100
AcDbEntity
  8
1
 62
     1
100
AcDbLine
 10
52.75162900803876
 20
3.840088514531485
 30
0.0
 11
52.71536324535622
 21
3.911061306703656
 31
0.0
  0
LINE
  5
5D5
330
18
100
AcDbEntity
  8
1
 62
     1
100
AcDbLine
 10
52.71536324535622
 20
3.911061306703656
 30
0.0
 11
52.67620991842759
 21
3.978148081655865
 31
0.0
  0
LINE
  5
5D6
330
18
100
AcDbEntity
  8
1
 62
     1
100
AcDbLine
 10
52.67620991842759
 20
3.978148081655865
 30
0.0
 11
52.6345081964549
 21
4.041164719823637
 31
0.0
  0
LINE
  5
5D7
330
18
100
AcDbEntity
  8
1
 62
     1
100
AcDbLine
 10
52.6345081964549
 20
4.041164719823637
 30
0.0
 11
52.59055815556881
 21
4.100012188362469
 31
0.0
  0
LINE
  5
5D8
330
18
100
AcDbEntity
  8
1
 62
     1
100
AcDbLine
 10
52.59055815556881
 20
4.100012188362469
 30
0.0
 11
52.54465026453157
 21
4.154617351024842
 31
0.0
  0
LINE
  5
5D9
330
18
100
AcDbEntity
  8
1
 62
     1
100
AcDbLine
 10
52.54465026453157
 20
4.154617351024842
 30
0.0
 11
52.49705056825159
 21
4.204952631720627
 31
0.0
  0
LINE
  5
5DA
330
18
100
AcDbEntity
  8
1
 62
     1
100
AcDbLine
 10
52.49705056825159
 20
4.204952631720627
 30
0.0
 11
52.44797992964149
 21
4.251040665851454
 31
0.0
  0
LINE
  5
5DB
330
18
100
AcDbEntity
  8
1
 62
     1
100
AcDbLine
 10
52.44797992964149
 20
4.251040665851454
 30
0.0
 11
52.39764458918643
 21
4.292914735783064
 31
0.0
  0
LINE
  5
5DC
330
18
100
AcDbEntity
  8
1
 62
     1
100
AcDbLine
 10
52.39764458918643
 20
4.292914735783064
 30
0.0
 11
52.34622881624841
 21
4.330627512637101
 31
0.0
  0
LINE
  5
5DD
330
18
100
AcDbEntity
  8
1
 62
     1
100
AcDbLine
 10
52.34622881624841
 20
4.330627512637101
 30
0.0
 11
52.29387874613115
 21
4.364255353344141
 31
0.0
  0
LINE
  5
5DE
330
18
100
AcDbEntity
  8
1
 62
     1
100
AcDbLine
 10
52.29387874613115
 20
4.364255353344141
 30
0.0
 11
52.2407175368206
 21
4.393880320396623
 31
0.0
  0
LINE
  5
5DF
330
18
100
AcDbEntity
  8
1
 62
     1
100
AcDbLine
 10
52.2407175368206
 20
4.393880320396623
 30
0.0
 11
52.18686985702277
 21
4.41958157863011
 31
0.0
  0
LINE
  5
5E0
330
18
100
AcDbEntity
  8
1
 62
     1
100
AcDbLine
 10
52.18686985702277
 20
4.41958157863011
 30
0.0
 11
52.13245050568074
 21
4.441436231910758
 31
0.0
  0
LINE
  5
5E1
330
18
100
AcDbEntity
  8
1
 62
     1
100
AcDbLine
 10
52.13245050568074
 20
4.441436231910758
 30
0.0
 11
52.07751925442047
 21
4.459543516474398
 31
0.0
  0
LINE
  5
5E2
330
18
100
AcDbEntity
  8
1
 62
     1
100
AcDbLine
 10
52.07751925442047
 20
4.459543516474398
 30
0.0
 11
52.02217928469193
 21
4.473978701595868
 31
0.0
  0
LINE
  5
5E3
330
18
100
AcDbEntity
  8
1
 62
     1
100
AcDbLine
 10
52.02217928469193
 20
4.473978701595868
 30
0.0
 11
51.96646166613584
 21
4.484835096300529
 31
0.0
  0
LINE
  5
5E4
330
18
100
AcDbEntity
  8
1
 62
     1
100
AcDbLine
 10
51.96646166613584
 20
4.484835096300529
 30
0.0
 11
51.91045087320436
 21
4.49218847904169
 31
0.0
  0
LINE
  5
5E5
330
18
100
AcDbEntity
  8
1
 62
     1
100
AcDbLine
 10
51.91045087320436
 20
4.49218847904169
 30
0.0
 11
51.85416665780605
 21
4.496120847470377
 31
0.0
  0
LINE
  5
5E6
330
18
100
AcDbEntity
  8
1
 62
     1
100
AcDbLine
 10
51.85416665780605
 20
4.496120847470377
 30
0.0
 11
51.79767112778518
 21
4.496706846078873
 31
0.0
  0
LINE
  5
5E7
330
18
100
AcDbEntity
  8
1
 62
     1
100
AcDbLine
 10
51.79767112778518
 20
4.496706846078873
 30
0.0
 11
51.74098458793731
 21
4.494017945012618
 31
0.0
  0
LINE
  5
5E8
330
18
100
AcDbEntity
  8
1
 62
     1
100
AcDbLine
 10
51.74098458793731
 20
4.494017945012618
 30
0.0
 11
51.68414473575815
 21
4.488124253105481
 31
0.0
  0
LINE
  5
5E9
330
18
100
AcDbEntity
  8
1
 62
     1
100
AcDbLine
 10
51.68414473575815
 20
4.488124253105481
 30
0.0
 11
51.62718098873514
 21
4.479090637402884
 31
0.0
  0
LINE
  5
5EA
330
18
100
AcDbEntity
  8
1
 62
     1
100
AcDbLine
 10
51.62718098873514
 20
4.479090637402884
 30
0.0
 11
51.57010768554024
 21
4.466978951384016
 31
0.0
  0
LINE
  5
5EB
330
18
100
AcDbEntity
  8
1
 62
     1
100
AcDbLine
 10
51.57010768554024
 20
4.466978951384016
 30
0.0
 11
51.51296252233539
 21
4.451851327264692
 31
0.0
  0
LINE
  5
5EC
330
18
100
AcDbEntity
  8
1
 62
     1
100
AcDbLine
 10
52.90000000000001
 20
3.080155585170374
 30
0.0
 11
52.90000000000001
 21
3.17425641369765
 31
0.0
  0
LINE
  5
5ED
330
18
100
AcDbEntity
  8
1
 62
     1
100
AcDbLine
 10
52.9
 20
3.080155585170373
 30
0.0
 11
52.89999999999999
 21
1.621184815231086
 31
0.0
  0
LINE
  5
5EE
330
18
100
AcDbEntity
  8
1
 62
     1
100
AcDbLine
 10
52.90000000000002
 20
1.47389205656882
 30
0.0
 11
52.90000000000001
 21
0.8748192970679763
 31
0.0
  0
LINE
  5
5EF
330
18
100
AcDbEntity
  8
1
 62
     1
100
AcDbLine
 10
52.9
 20
0.874819297067983
 30
0.0
 11
52.90000000000001
 21
-1.553071598466574
 31
0.0
  0
LINE
  5
5F0
330
18
100
AcDbEntity
  8
1
 62
     1
100
AcDbLine
 10
52.89999999999999
 20
-1.553071598466573
 30
0.0
 11
52.89999999999999
 21
-2.205336288102393
 31
0.0
  0
LINE
  5
5F1
330
18
100
AcDbEntity
  8
1
 62
     1
100
AcDbLine
 10
24.325
 20
-3.28743555362774
 30
0.0
 11
24.73312648473944
 21
-3.618488874290763
 31
0.0
  0
LINE
  5
5F2
330
18
100
AcDbEntity
  8
1
 62
     1
100
AcDbLine
 10
24.73312648473944
 20
-3.618488874290763
 30
0.0
 11
25.14124553664705
 21
-3.912570234719849
 31
0.0
  0
LINE
  5
5F3
330
18
100
AcDbEntity
  8
1
 62
     1
100
AcDbLine
 10
25.14124553664705
 20
-3.912570234719849
 30
0.0
 11
25.34530861366375
 21
-4.0447975075944
 31
0.0
  0
LINE
  5
5F4
330
18
100
AcDbEntity
  8
1
 62
     1
100
AcDbLine
 10
25.34530861366375
 20
-4.0447975075944
 30
0.0
 11
25.54937530229926
 21
-4.166689064495189
 31
0.0
  0
LINE
  5
5F5
330
18
100
AcDbEntity
  8
1
 62
     1
100
AcDbLine
 10
25.54937530229926
 20
-4.166689064495189
 30
0.0
 11
25.7534334134428
 21
-4.27792737468942
 31
0.0
  0
LINE
  5
5F6
330
18
100
AcDbEntity
  8
1
 62
     1
100
AcDbLine
 10
25.7534334134428
 20
-4.27792737468942
 30
0.0
 11
25.95749252942756
 21
-4.378234532966168
 31
0.0
  0
LINE
  5
5F7
330
18
100
AcDbEntity
  8
1
 62
     1
100
AcDbLine
 10
25.95749252942756
 20
-4.378234532966168
 30
0.0
 11
26.16156022339632
 21
-4.467356353234417
 31
0.0
  0
LINE
  5
5F8
330
18
100
AcDbEntity
  8
1
 62
     1
100
AcDbLine
 10
26.16156022339632
 20
-4.467356353234417
 30
0.0
 11
26.36562147376076
 21
-4.54505781477932
 31
0.0
  0
LINE
  5
5F9
330
18
100
AcDbEntity
  8
1
 62
     1
100
AcDbLine
 10
26.36562147376076
 20
-4.54505781477932
 30
0.0
 11
26.56967881259243
 21
-4.611143484109433
 31
0.0
  0
LINE
  5
5FA
330
18
100
AcDbEntity
  8
1
 62
     1
100
AcDbLine
 10
26.56967881259243
 20
-4.611143484109433
 30
0.0
 11
26.77374213144779
 21
-4.665447285898713
 31
0.0
  0
LINE
  5
5FB
330
18
100
AcDbEntity
  8
1
 62
     1
100
AcDbLine
 10
26.77374213144779
 20
-4.665447285898713
 30
0.0
 11
26.97780844010338
 21
-4.707827659930111
 31
0.0
  0
LINE
  5
5FC
330
18
100
AcDbEntity
  8
1
 62
     1
100
AcDbLine
 10
26.97780844010338
 20
-4.707827659930111
 30
0.0
 11
27.18186647576024
 21
-4.738175273198423
 31
0.0
  0
LINE
  5
5FD
330
18
100
AcDbEntity
  8
1
 62
     1
100
AcDbLine
 10
27.18186647576024
 20
-4.738175273198423
 30
0.0
 11
27.38592438178416
 21
-4.756415376830614
 31
0.0
  0
LINE
  5
5FE
330
18
100
AcDbEntity
  8
1
 62
     1
100
AcDbLine
 10
27.38592438178416
 20
-4.756415376830614
 30
0.0
 11
27.5899701342655
 21
-4.762499999965383
 31
0.0
  0
LINE
  5
5FF
330
18
100
AcDbEntity
  8
1
 62
     1
100
AcDbLine
 10
24.325
 20
-1.979804738473866
 30
0.0
 11
24.90120439405262
 21
-2.575929759424256
 31
0.0
  0
LINE
  5
600
330
18
100
AcDbEntity
  8
1
 62
     1
100
AcDbLine
 10
24.90120439405262
 20
-2.575929759424256
 30
0.0
 11
25.47740932027951
 21
-3.119644990609951
 31
0.0
  0
LINE
  5
601
330
18
100
AcDbEntity
  8
1
 62
     1
100
AcDbLine
 10
25.47740932027951
 20
-3.119644990609951
 30
0.0
 11
25.76551164301529
 21
-3.36834413334459
 31
0.0
  0
LINE
  5
602
330
18
100
AcDbEntity
  8
1
 62
     1
100
AcDbLine
 10
25.76551164301529
 20
-3.36834413334459
 30
0.0
 11
26.05361382904201
 21
-3.599888497492565
 31
0.0
  0
LINE
  5
603
330
18
100
AcDbEntity
  8
1
 62
     1
100
AcDbLine
 10
26.05361382904201
 20
-3.599888497492565
 30
0.0
 11
26.34171633276843
 21
-3.813098618948846
 31
0.0
  0
LINE
  5
604
330
18
100
AcDbEntity
  8
1
 62
     1
100
AcDbLine
 10
26.34171633276843
 20
-3.813098618948846
 30
0.0
 11
26.62981863254785
 21
-4.006888926178205
 31
0.0
  0
LINE
  5
605
330
18
100
AcDbEntity
  8
1
 62
     1
100
AcDbLine
 10
26.62981863254785
 20
-4.006888926178205
 30
0.0
 11
26.91792070716401
 21
-4.180272409399099
 31
0.0
  0
LINE
  5
606
330
18
100
AcDbEntity
  8
1
 62
     1
100
AcDbLine
 10
26.91792070716401
 20
-4.180272409399099
 30
0.0
 11
27.20602315542572
 21
-4.332365819716856
 31
0.0
  0
LINE
  5
607
330
18
100
AcDbEntity
  8
1
 62
     1
100
AcDbLine
 10
27.20602315542572
 20
-4.332365819716856
 30
0.0
 11
27.49412543262704
 21
-4.462394795316127
 31
0.0
  0
LINE
  5
608
330
18
100
AcDbEntity
  8
1
 62
     1
100
AcDbLine
 10
27.49412543262704
 20
-4.462394795316127
 30
0.0
 11
27.63817464322633
 21
-4.51892354974143
 31
0.0
  0
LINE
  5
609
330
18
100
AcDbEntity
  8
1
 62
     1
100
AcDbLine
 10
27.63817464322633
 20
-4.51892354974143
 30
0.0
 11
27.78222741983114
 21
-4.569697077498339
 31
0.0
  0
LINE
  5
60A
330
18
100
AcDbEntity
  8
1
 62
     1
100
AcDbLine
 10
27.78222741983114
 20
-4.569697077498339
 30
0.0
 11
27.92627657500286
 21
-4.614650187021595
 31
0.0
  0
LINE
  5
60B
330
18
100
AcDbEntity
  8
1
 62
     1
100
AcDbLine
 10
27.92627657500286
 20
-4.614650187021595
 30
0.0
 11
28.07032978284112
 21
-4.653726041346025
 31
0.0
  0
LINE
  5
60C
330
18
100
AcDbEntity
  8
1
 62
     1
100
AcDbLine
 10
28.07032978284112
 20
-4.653726041346025
 30
0.0
 11
28.21437802525652
 21
-4.686874786857138
 31
0.0
  0
LINE
  5
60D
330
18
100
AcDbEntity
  8
1
 62
     1
100
AcDbLine
 10
28.21437802525652
 20
-4.686874786857138
 30
0.0
 11
28.35843203753255
 21
-4.71405388311872
 31
0.0
  0
LINE
  5
60E
330
18
100
AcDbEntity
  8
1
 62
     1
100
AcDbLine
 10
28.35843203753255
 20
-4.71405388311872
 30
0.0
 11
28.50248014765058
 21
-4.73522933286294
 31
0.0
  0
LINE
  5
60F
330
18
100
AcDbEntity
  8
1
 62
     1
100
AcDbLine
 10
28.50248014765058
 20
-4.73522933286294
 30
0.0
 11
28.64653395093508
 21
-4.750373322537766
 31
0.0
  0
LINE
  5
610
330
18
100
AcDbEntity
  8
1
 62
     1
100
AcDbLine
 10
28.64653395093508
 20
-4.750373322537766
 30
0.0
 11
28.79058182621266
 21
-4.759467743713738
 31
0.0
  0
LINE
  5
611
330
18
100
AcDbEntity
  8
1
 62
     1
100
AcDbLine
 10
28.79058182621266
 20
-4.759467743713738
 30
0.0
 11
28.93461804366727
 21
-4.762499999999985
 31
0.0
  0
LINE
  5
612
330
18
100
AcDbEntity
  8
1
 62
     1
100
AcDbLine
 10
36.04331342326097
 20
4.7625
 30
0.0
 11
37.38796141228107
 21
4.7625
 31
0.0
  0
ARC
  5
613
330
18
100
AcDbEntity
  8
1
 62
     1
100
AcDbCircle
 10
24.7087728208863
 20
-1.31505209896438
 30
0.0
 40
3.447454126825316
100
AcDbArc
 50
263.6085519907882
 51
269.9848288913028
  0
LINE
  5
614
330
18
100
AcDbEntity
  8
1
 62
     1
100
AcDbLine
 10
24.70785998562191
 20
-4.762499998875494
 30
0.0
 11
24.70794610830484
 21
-4.762499999959585
 31
0.0
  0
LINE
  5
615
330
18
100
AcDbEntity
  8
1
 62
     1
100
AcDbLine
 10
31.81664177883481
 20
4.7625
 30
0.0
 11
33.16128972786061
 21
4.7625
 31
0.0
  0
LINE
  5
616
330
18
100
AcDbEntity
  8
1
 62
     1
100
AcDbLine
 10
26.14895829034288
 20
4.462181261154303
 30
0.0
 11
26.32908262995264
 21
4.531992930558041
 31
0.0
  0
LINE
  5
617
330
18
100
AcDbEntity
  8
1
 62
     1
100
AcDbLine
 10
26.32908262995264
 20
4.531992930558041
 30
0.0
 11
26.50920781446862
 21
4.592781422217646
 31
0.0
  0
LINE
  5
618
330
18
100
AcDbEntity
  8
1
 62
     1
100
AcDbLine
 10
26.50920781446862
 20
4.592781422217646
 30
0.0
 11
26.6893414024749
 21
4.644425685737966
 31
0.0
  0
LINE
  5
619
330
18
100
AcDbEntity
  8
1
 62
     1
100
AcDbLine
 10
26.6893414024749
 20
4.644425685737966
 30
0.0
 11
26.86946376564307
 21
4.686818346222596
 31
0.0
  0
LINE
  5
61A
330
18
100
AcDbEntity
  8
1
 62
     1
100
AcDbLine
 10
26.86946376564307
 20
4.686818346222596
 30
0.0
 11
27.04959318902354
 21
4.719880345949136
 31
0.0
  0
LINE
  5
61B
330
18
100
AcDbEntity
  8
1
 62
     1
100
AcDbLine
 10
27.04959318902354
 20
4.719880345949136
 30
0.0
 11
27.2297231915144
 21
4.743542082417859
 31
0.0
  0
LINE
  5
61C
330
18
100
AcDbEntity
  8
1
 62
     1
100
AcDbLine
 10
27.2297231915144
 20
4.743542082417859
 30
0.0
 11
27.40984465260661
 21
4.757757895607635
 31
0.0
  0
LINE
  5
61D
330
18
100
AcDbEntity
  8
1
 62
     1
100
AcDbLine
 10
27.40984465260661
 20
4.757757895607635
 30
0.0
 11
27.58997013426785
 21
4.762500000000001
 31
0.0
  0
LINE
  5
61E
330
18
100
AcDbEntity
  8
1
 62
     1
100
AcDbLine
 10
27.58997013426786
 20
4.7625
 30
0.0
 11
28.93461804366727
 21
4.7625
 31
0.0
  0
LINE
  5
61F
330
18
100
AcDbEntity
  8
1
 62
     1
100
AcDbLine
 10
24.325
 20
4.7625
 30
0.0
 11
24.70794610829479
 21
4.7625
 31
0.0
  0
LINE
  5
620
330
18
100
AcDbEntity
  8
1
 62
     1
100
AcDbLine
 10
52.90000000000002
 20
1.473892056568818
 30
0.0
 11
52.08261318683711
 21
1.942850732752591
 31
0.0
  0
LINE
  5
621
330
18
100
AcDbEntity
  8
1
 62
     1
100
AcDbLine
 10
52.08261318683711
 20
1.942850732752591
 30
0.0
 11
51.67391978025565
 21
2.148632761775989
 31
0.0
  0
LINE
  5
622
330
18
100
AcDbEntity
  8
1
 62
     1
100
AcDbLine
 10
51.67391978025565
 20
2.148632761775989
 30
0.0
 11
51.26522637367421
 21
2.332403561684083
 31
0.0
  0
LINE
  5
623
330
18
100
AcDbEntity
  8
1
 62
     1
100
AcDbLine
 10
51.26522637367421
 20
2.332403561684083
 30
0.0
 11
50.85653296709274
 21
2.492280377332742
 31
0.0
  0
LINE
  5
624
330
18
100
AcDbEntity
  8
1
 62
     1
100
AcDbLine
 10
50.85653296709274
 20
2.492280377332742
 30
0.0
 11
50.4478395605113
 21
2.626625365065921
 31
0.0
  0
LINE
  5
625
330
18
100
AcDbEntity
  8
1
 62
     1
100
AcDbLine
 10
50.4478395605113
 20
2.626625365065921
 30
0.0
 11
50.03914615392985
 21
2.73406226848084
 31
0.0
  0
LINE
  5
626
330
18
100
AcDbEntity
  8
1
 62
     1
100
AcDbLine
 10
50.03914615392985
 20
2.73406226848084
 30
0.0
 11
49.63045274734841
 21
2.813490462721675
 31
0.0
  0
LINE
  5
627
330
18
100
AcDbEntity
  8
1
 62
     1
100
AcDbLine
 10
52.90000000000002
 20
1.47389205656882
 30
0.0
 11
52.90000000000002
 21
1.621184815231071
 31
0.0
  0
LINE
  5
628
330
18
100
AcDbEntity
  8
1
 62
     1
100
AcDbLine
 10
24.325
 20
2.761275390565637
 30
0.0
 11
24.325
 21
2.804536493130227
 31
0.0
  0
LINE
  5
629
330
18
100
AcDbEntity
  8
1
 62
     1
100
AcDbLine
 10
24.325
 20
-4.741080129039502
 30
0.0
 11
24.325
 21
-3.287435553627738
 31
0.0
  0
LINE
  5
62A
330
18
100
AcDbEntity
  8
1
 62
     1
100
AcDbLine
 10
24.32500000000001
 20
-4.741080129039488
 30
0.0
 11
24.325
 21
-4.762499999999998
 31
0.0
  0
LINE
  5
62B
330
18
100
AcDbEntity
  8
1
 62
     1
100
AcDbLine
 10
24.325
 20
-1.979804738473868
 30
0.0
 11
24.325
 21
-3.287435553627741
 31
0.0
  0
LINE
  5
62C
330
18
100
AcDbEntity
  8
1
 62
     1
100
AcDbLine
 10
24.325
 20
-1.979804738473855
 30
0.0
 11
24.325
 21
0.8123505636832243
 31
0.0
  0
LINE
  5
62D
330
18
100
AcDbEntity
  8
1
 62
     1
100
AcDbLine
 10
24.325
 20
0.8123505636832243
 30
0.0
 11
24.325
 21
1.340512492126216
 31
0.0
  0
LINE
  5
62E
330
18
100
AcDbEntity
  8
1
 62
     1
100
AcDbLine
 10
24.325
 20
2.761275390565621
 30
0.0
 11
24.325
 21
1.340512492126211
 31
0.0
  0
LINE
  5
62F
330
18
100
AcDbEntity
  8
1
 62
     1
100
AcDbLine
 10
24.325
 20
2.804536493130227
 30
0.0
 11
24.325
 21
4.627948045753954
 31
0.0
  0
LINE
  5
630
330
18
100
AcDbEntity
  8
1
 62
     1
100
AcDbLine
 10
24.325
 20
4.7625
 30
0.0
 11
24.325
 21
4.762469708849694
 31
0.0
  0
LINE
  5
631
330
18
100
AcDbEntity
  8
1
 62
     1
100
AcDbLine
 10
24.325
 20
4.762469708849694
 30
0.0
 11
24.32500000000001
 21
4.753543606159147
 31
0.0
  0
LINE
  5
632
330
18
100
AcDbEntity
  8
1
 62
     1
100
AcDbLine
 10
24.32500000000001
 20
4.753543606159147
 30
0.0
 11
24.325
 21
4.627948045753952
 31
0.0
  0
LINE
  5
633
330
18
100
AcDbEntity
  8
1
 62
     1
100
AcDbLine
 10
45.8413047810118
 20
-4.762499999802585
 30
0.0
 11
46.02142942250494
 21
-4.757757550165808
 31
0.0
  0
LINE
  5
634
330
18
100
AcDbEntity
  8
1
 62
     1
100
AcDbLine
 10
46.02142942250494
 20
-4.757757550165808
 30
0.0
 11
46.20155218728973
 21
-4.743542409998138
 31
0.0
  0
LINE
  5
635
330
18
100
AcDbEntity
  8
1
 62
     1
100
AcDbLine
 10
46.20155218728973
 20
-4.743542409998138
 30
0.0
 11
46.38168500455085
 21
-4.719879456310867
 31
0.0
  0
LINE
  5
636
330
18
100
AcDbEntity
  8
1
 62
     1
100
AcDbLine
 10
46.38168500455085
 20
-4.719879456310867
 30
0.0
 11
46.56180716580347
 21
-4.686819097875885
 31
0.0
  0
LINE
  5
637
330
18
100
AcDbEntity
  8
1
 62
     1
100
AcDbLine
 10
46.56180716580347
 20
-4.686819097875885
 30
0.0
 11
46.74193323692467
 21
-4.644426016523418
 31
0.0
  0
LINE
  5
638
330
18
100
AcDbEntity
  8
1
 62
     1
100
AcDbLine
 10
46.74193323692467
 20
-4.644426016523418
 30
0.0
 11
46.92206434037417
 21
-4.59278187249585
 31
0.0
  0
LINE
  5
639
330
18
100
AcDbEntity
  8
1
 62
     1
100
AcDbLine
 10
46.92206434037417
 20
-4.59278187249585
 30
0.0
 11
47.10218532392938
 21
-4.531995674414753
 31
0.0
  0
LINE
  5
63A
330
18
100
AcDbEntity
  8
1
 62
     1
100
AcDbLine
 10
47.10218532392938
 20
-4.531995674414753
 30
0.0
 11
47.28231625119666
 21
-4.462181296546612
 31
0.0
  0
LINE
  5
63B
330
18
100
AcDbEntity
  8
1
 62
     1
100
AcDbLine
 10
44.49665671175065
 20
-4.762499999999998
 30
0.0
 11
45.84130478101179
 21
-4.762499999999998
 31
0.0
  0
LINE
  5
63C
330
18
100
AcDbEntity
  8
1
 62
     1
100
AcDbLine
 10
50.06797646489179
 20
-4.762499999802461
 30
0.0
 11
50.22347724943618
 21
-4.758965215875884
 31
0.0
  0
LINE
  5
63D
330
18
100
AcDbEntity
  8
1
 62
     1
100
AcDbLine
 10
50.22347724943618
 20
-4.758965215875884
 30
0.0
 11
50.37898243115247
 21
-4.748368536507423
 31
0.0
  0
LINE
  5
63E
330
18
100
AcDbEntity
  8
1
 62
     1
100
AcDbLine
 10
50.37898243115247
 20
-4.748368536507423
 30
0.0
 11
50.53448742009013
 21
-4.730722840040713
 31
0.0
  0
LINE
  5
63F
330
18
100
AcDbEntity
  8
1
 62
     1
100
AcDbLine
 10
50.53448742009013
 20
-4.730722840040713
 30
0.0
 11
50.68998847694711
 21
-4.706057759980744
 31
0.0
  0
LINE
  5
640
330
18
100
AcDbEntity
  8
1
 62
     1
100
AcDbLine
 10
50.68998847694711
 20
-4.706057759980744
 30
0.0
 11
50.84549741562294
 21
-4.674405480204706
 31
0.0
  0
LINE
  5
641
330
18
100
AcDbEntity
  8
1
 62
     1
100
AcDbLine
 10
50.84549741562294
 20
-4.674405480204706
 30
0.0
 11
51.00099609557862
 21
-4.63581853948258
 31
0.0
  0
LINE
  5
642
330
18
100
AcDbEntity
  8
1
 62
     1
100
AcDbLine
 10
51.00099609557862
 20
-4.63581853948258
 30
0.0
 11
51.15650690063059
 21
-4.590347397879515
 31
0.0
  0
LINE
  5
643
330
18
100
AcDbEntity
  8
1
 62
     1
100
AcDbLine
 10
51.15650690063059
 20
-4.590347397879515
 30
0.0
 11
51.31200000000001
 21
-4.538069709972238
 31
0.0
  0
LINE
  5
644
330
18
100
AcDbEntity
  8
1
 62
     1
100
AcDbLine
 10
48.72332835589093
 20
-4.762499999999998
 30
0.0
 11
50.06797646489179
 21
-4.762499999999998
 31
0.0
  0
LINE
  5
645
330
18
100
AcDbEntity
  8
1
 62
     1
100
AcDbLine
 10
33.16128972787028
 20
-4.762499999959628
 30
0.0
 11
33.34141634020623
 21
-4.757757483283386
 31
0.0
  0
LINE
  5
646
330
18
100
AcDbEntity
  8
1
 62
     1
100
AcDbLine
 10
33.34141634020623
 20
-4.757757483283386
 30
0.0
 11
33.52153832265041
 21
-4.743542214886483
 31
0.0
  0
LINE
  5
647
330
18
100
AcDbEntity
  8
1
 62
     1
100
AcDbLine
 10
33.52153832265041
 20
-4.743542214886483
 30
0.0
 11
33.70167105318349
 21
-4.719879374378111
 31
0.0
  0
LINE
  5
648
330
18
100
AcDbEntity
  8
1
 62
     1
100
AcDbLine
 10
33.70167105318349
 20
-4.719879374378111
 30
0.0
 11
33.88179400029424
 21
-4.686818709836989
 31
0.0
  0
LINE
  5
649
330
18
100
AcDbEntity
  8
1
 62
     1
100
AcDbLine
 10
33.88179400029424
 20
-4.686818709836989
 30
0.0
 11
34.06191857207278
 21
-4.644425880477419
 31
0.0
  0
LINE
  5
64A
330
18
100
AcDbEntity
  8
1
 62
     1
100
AcDbLine
 10
34.06191857207278
 20
-4.644425880477419
 30
0.0
 11
34.24205087195532
 21
-4.592781506404698
 31
0.0
  0
LINE
  5
64B
330
18
100
AcDbEntity
  8
1
 62
     1
100
AcDbLine
 10
34.24205087195532
 20
-4.592781506404698
 30
0.0
 11
34.4221717991427
 21
-4.531995070153492
 31
0.0
  0
LINE
  5
64C
330
18
100
AcDbEntity
  8
1
 62
     1
100
AcDbLine
 10
34.4221717991427
 20
-4.531995070153492
 30
0.0
 11
34.60230141645731
 21
-4.462181305511757
 31
0.0
  0
LINE
  5
64D
330
18
100
AcDbEntity
  8
1
 62
     1
100
AcDbLine
 10
31.81664177883346
 20
-4.762499999999998
 30
0.0
 11
33.16128972787026
 21
-4.762499999999998
 31
0.0
  0
LINE
  5
64E
330
18
100
AcDbEntity
  8
1
 62
     1
100
AcDbLine
 10
36.0433134232464
 20
-4.762499999806332
 30
0.0
 11
35.84518863205356
 21
-4.756762760745118
 31
0.0
  0
LINE
  5
64F
330
18
100
AcDbEntity
  8
1
 62
     1
100
AcDbLine
 10
35.84518863205356
 20
-4.756762760745118
 30
0.0
 11
35.64706796450293
 21
-4.739567352405832
 31
0.0
  0
LINE
  5
650
330
18
100
AcDbEntity
  8
1
 62
     1
100
AcDbLine
 10
35.64706796450293
 20
-4.739567352405832
 30
0.0
 11
35.44893903768431
 21
-4.710953363095329
 31
0.0
  0
LINE
  5
651
330
18
100
AcDbEntity
  8
1
 62
     1
100
AcDbLine
 10
35.44893903768431
 20
-4.710953363095329
 30
0.0
 11
35.2508111841601
 21
-4.670989077496168
 31
0.0
  0
LINE
  5
652
330
18
100
AcDbEntity
  8
1
 62
     1
100
AcDbLine
 10
35.2508111841601
 20
-4.670989077496168
 30
0.0
 11
35.05269059057479
 21
-4.619774233307912
 31
0.0
  0
LINE
  5
653
330
18
100
AcDbEntity
  8
1
 62
     1
100
AcDbLine
 10
35.05269059057479
 20
-4.619774233307912
 30
0.0
 11
34.85456460560044
 21
-4.557429195153207
 31
0.0
  0
LINE
  5
654
330
18
100
AcDbEntity
  8
1
 62
     1
100
AcDbLine
 10
34.85456460560044
 20
-4.557429195153207
 30
0.0
 11
34.65643414001423
 21
-4.484102200385708
 31
0.0
  0
LINE
  5
655
330
18
100
AcDbEntity
  8
1
 62
     1
100
AcDbLine
 10
34.65643414001423
 20
-4.484102200385708
 30
0.0
 11
34.4583131198109
 21
-4.399976365988
 31
0.0
  0
LINE
  5
656
330
18
100
AcDbEntity
  8
1
 62
     1
100
AcDbLine
 10
34.4583131198109
 20
-4.399976365988
 30
0.0
 11
34.26018939995897
 21
-4.305250467959963
 31
0.0
  0
LINE
  5
657
330
18
100
AcDbEntity
  8
1
 62
     1
100
AcDbLine
 10
34.26018939995897
 20
-4.305250467959963
 30
0.0
 11
34.06205776349249
 21
-4.200147940026019
 31
0.0
  0
LINE
  5
658
330
18
100
AcDbEntity
  8
1
 62
     1
100
AcDbLine
 10
34.06205776349249
 20
-4.200147940026019
 30
0.0
 11
33.8639355787262
 21
-4.084931762258634
 31
0.0
  0
LINE
  5
659
330
18
100
AcDbEntity
  8
1
 62
     1
100
AcDbLine
 10
33.8639355787262
 20
-4.084931762258634
 30
0.0
 11
33.66581362631494
 21
-3.959875780615506
 31
0.0
  0
LINE
  5
65A
330
18
100
AcDbEntity
  8
1
 62
     1
100
AcDbLine
 10
33.66581362631494
 20
-3.959875780615506
 30
0.0
 11
33.26955815969705
 21
-3.681460291684364
 31
0.0
  0
LINE
  5
65B
330
18
100
AcDbEntity
  8
1
 62
     1
100
AcDbLine
 10
33.26955815969705
 20
-3.681460291684364
 30
0.0
 11
32.87330743364941
 21
-3.367594176315585
 31
0.0
  0
LINE
  5
65C
330
18
100
AcDbEntity
  8
1
 62
     1
100
AcDbLine
 10
32.87330743364941
 20
-3.367594176315585
 30
0.0
 11
32.47706052714673
 21
-3.021298897040221
 31
0.0
  0
LINE
  5
65D
330
18
100
AcDbEntity
  8
1
 62
     1
100
AcDbLine
 10
32.47706052714673
 20
-3.021298897040221
 30
0.0
 11
32.08080425419396
 21
-2.645898610840837
 31
0.0
  0
LINE
  5
65E
330
18
100
AcDbEntity
  8
1
 62
     1
100
AcDbLine
 10
32.08080425419396
 20
-2.645898610840837
 30
0.0
 11
31.28830638130895
 21
-1.822528048667911
 31
0.0
  0
LINE
  5
65F
330
18
100
AcDbEntity
  8
1
 62
     1
100
AcDbLine
 10
31.28830638130895
 20
-1.822528048667911
 30
0.0
 11
29.70330595656528
 21
-0.0000000000013953
 31
0.0
  0
LINE
  5
660
330
18
100
AcDbEntity
  8
1
 62
     1
100
AcDbLine
 10
37.38796141232777
 20
-4.762499999802706
 30
0.0
 11
37.24904582189772
 21
-4.759678866613792
 31
0.0
  0
LINE
  5
661
330
18
100
AcDbEntity
  8
1
 62
     1
100
AcDbLine
 10
37.24904582189772
 20
-4.759678866613792
 30
0.0
 11
37.11012116713491
 21
-4.751220583638101
 31
0.0
  0
LINE
  5
662
330
18
100
AcDbEntity
  8
1
 62
     1
100
AcDbLine
 10
37.11012116713491
 20
-4.751220583638101
 30
0.0
 11
36.97120628845114
 21
-4.737134038959898
 31
0.0
  0
LINE
  5
663
330
18
100
AcDbEntity
  8
1
 62
     1
100
AcDbLine
 10
36.97120628845114
 20
-4.737134038959898
 30
0.0
 11
36.83228131405424
 21
-4.717435887421694
 31
0.0
  0
LINE
  5
664
330
18
100
AcDbEntity
  8
1
 62
     1
100
AcDbLine
 10
36.83228131405424
 20
-4.717435887421694
 30
0.0
 11
36.69336677177119
 21
-4.692150835522974
 31
0.0
  0
LINE
  5
665
330
18
100
AcDbEntity
  8
1
 62
     1
100
AcDbLine
 10
36.69336677177119
 20
-4.692150835522974
 30
0.0
 11
36.55444110525052
 21
-4.661306046712665
 31
0.0
  0
LINE
  5
666
330
18
100
AcDbEntity
  8
1
 62
     1
100
AcDbLine
 10
36.55444110525052
 20
-4.661306046712665
 30
0.0
 11
36.41552765389883
 21
-4.62494220673399
 31
0.0
  0
LINE
  5
667
330
18
100
AcDbEntity
  8
1
 62
     1
100
AcDbLine
 10
36.41552765389883
 20
-4.62494220673399
 30
0.0
 11
36.27660099590506
 21
-4.583096966157202
 31
0.0
  0
LINE
  5
668
330
18
100
AcDbEntity
  8
1
 62
     1
100
AcDbLine
 10
36.27660099590506
 20
-4.583096966157202
 30
0.0
 11
35.998761628881
 21
-4.483178949323583
 31
0.0
  0
LINE
  5
669
330
18
100
AcDbEntity
  8
1
 62
     1
100
AcDbLine
 10
35.998761628881
 20
-4.483178949323583
 30
0.0
 11
35.72092192550167
 21
-4.362025591315696
 31
0.0
  0
LINE
  5
66A
330
18
100
AcDbEntity
  8
1
 62
     1
100
AcDbLine
 10
35.72092192550167
 20
-4.362025591315696
 30
0.0
 11
35.44308231953897
 21
-4.220210683620779
 31
0.0
  0
LINE
  5
66B
330
18
100
AcDbEntity
  8
1
 62
     1
100
AcDbLine
 10
35.44308231953897
 20
-4.220210683620779
 30
0.0
 11
35.1652432201673
 21
-4.058405770743368
 31
0.0
  0
LINE
  5
66C
330
18
100
AcDbEntity
  8
1
 62
     1
100
AcDbLine
 10
35.1652432201673
 20
-4.058405770743368
 30
0.0
 11
34.887403847972
 21
-3.877377622246342
 31
0.0
  0
LINE
  5
66D
330
18
100
AcDbEntity
  8
1
 62
     1
100
AcDbLine
 10
34.887403847972
 20
-3.877377622246342
 30
0.0
 11
34.60956459618575
 21
-3.677983555316336
 31
0.0
  0
LINE
  5
66E
330
18
100
AcDbEntity
  8
1
 62
     1
100
AcDbLine
 10
34.60956459618575
 20
-3.677983555316336
 30
0.0
 11
34.33172561131586
 21
-3.461167913135784
 31
0.0
  0
LINE
  5
66F
330
18
100
AcDbEntity
  8
1
 62
     1
100
AcDbLine
 10
34.33172561131586
 20
-3.461167913135784
 30
0.0
 11
33.77604737670247
 21
-2.979458134567434
 31
0.0
  0
LINE
  5
670
330
18
100
AcDbEntity
  8
1
 62
     1
100
AcDbLine
 10
33.77604737670247
 20
-2.979458134567434
 30
0.0
 11
33.22036922411368
 21
-2.441364157637079
 31
0.0
  0
LINE
  5
671
330
18
100
AcDbEntity
  8
1
 62
     1
100
AcDbLine
 10
33.22036922411368
 20
-2.441364157637079
 30
0.0
 11
32.66469127566059
 21
-1.857068821835343
 31
0.0
  0
LINE
  5
672
330
18
100
AcDbEntity
  8
1
 62
     1
100
AcDbLine
 10
32.66469127566059
 20
-1.857068821835343
 30
0.0
 11
31.55333449985334
 21
-0.59476923121318
 31
0.0
  0
LINE
  5
673
330
18
100
AcDbEntity
  8
1
 62
     1
100
AcDbLine
 10
31.55333449985334
 20
-0.59476923121318
 30
0.0
 11
30.44197776479773
 21
0.7123409185569846
 31
0.0
  0
LINE
  5
674
330
18
100
AcDbEntity
  8
1
 62
     1
100
AcDbLine
 10
30.44197776479773
 20
0.7123409185569846
 30
0.0
 11
29.46953758536732
 21
1.815347716666718
 31
0.0
  0
LINE
  5
675
330
18
100
AcDbEntity
  8
1
 62
     1
100
AcDbLine
 10
29.46953758536732
 20
1.815347716666718
 30
0.0
 11
28.4970944774741
 21
2.813490251074804
 31
0.0
  0
LINE
  5
676
330
18
100
AcDbEntity
  8
1
 62
     1
100
AcDbLine
 10
36.0433134232464
 20
-4.762499999999998
 30
0.0
 11
37.38796141232778
 21
-4.762499999999998
 31
0.0
  0
LINE
  5
677
330
18
100
AcDbEntity
  8
1
 62
     1
100
AcDbLine
 10
41.61463309676824
 20
-4.762499999802709
 30
0.0
 11
41.79475777462685
 21
-4.757757551953576
 31
0.0
  0
LINE
  5
678
330
18
100
AcDbEntity
  8
1
 62
     1
100
AcDbLine
 10
41.79475777462685
 20
-4.757757551953576
 30
0.0
 11
41.97488052668474
 21
-4.743542411256986
 31
0.0
  0
LINE
  5
679
330
18
100
AcDbEntity
  8
1
 62
     1
100
AcDbLine
 10
41.97488052668474
 20
-4.743542411256986
 30
0.0
 11
42.15501334602066
 21
-4.719879457997905
 31
0.0
  0
LINE
  5
67A
330
18
100
AcDbEntity
  8
1
 62
     1
100
AcDbLine
 10
42.15501334602066
 20
-4.719879457997905
 30
0.0
 11
42.33513551440049
 21
-4.68681909999455
 31
0.0
  0
LINE
  5
67B
330
18
100
AcDbEntity
  8
1
 62
     1
100
AcDbLine
 10
42.33513551440049
 20
-4.68681909999455
 30
0.0
 11
42.51526156435882
 21
-4.644426015235818
 31
0.0
  0
LINE
  5
67C
330
18
100
AcDbEntity
  8
1
 62
     1
100
AcDbLine
 10
42.51526156435882
 20
-4.644426015235818
 30
0.0
 11
42.69539270874358
 21
-4.592781879691893
 31
0.0
  0
LINE
  5
67D
330
18
100
AcDbEntity
  8
1
 62
     1
100
AcDbLine
 10
42.69539270874358
 20
-4.592781879691893
 30
0.0
 11
42.87551365653079
 21
-4.531995672241745
 31
0.0
  0
LINE
  5
67E
330
18
100
AcDbEntity
  8
1
 62
     1
100
AcDbLine
 10
42.87551365653079
 20
-4.531995672241745
 30
0.0
 11
43.05564461156374
 21
-4.462181300941822
 31
0.0
  0
LINE
  5
67F
330
18
100
AcDbEntity
  8
1
 62
     1
100
AcDbLine
 10
40.26998506754747
 20
-4.762499999999998
 30
0.0
 11
41.61463309676824
 21
-4.762499999999998
 31
0.0
  0
LINE
  5
680
330
18
100
AcDbEntity
  8
1
 62
     1
100
AcDbLine
 10
28.93461804366727
 20
-4.762499999999985
 30
0.0
 11
29.11474665746358
 21
-4.75775742359423
 31
0.0
  0
LINE
  5
681
330
18
100
AcDbEntity
  8
1
 62
     1
100
AcDbLine
 10
29.11474665746358
 20
-4.75775742359423
 30
0.0
 11
29.29486809826681
 21
-4.743541978708238
 31
0.0
  0
LINE
  5
682
330
18
100
AcDbEntity
  8
1
 62
     1
100
AcDbLine
 10
29.29486809826681
 20
-4.743541978708238
 30
0.0
 11
29.47500035910743
 21
-4.719879297233725
 31
0.0
  0
LINE
  5
683
330
18
100
AcDbEntity
  8
1
 62
     1
100
AcDbLine
 10
29.47500035910743
 20
-4.719879297233725
 30
0.0
 11
29.65512438108917
 21
-4.686818282512567
 31
0.0
  0
LINE
  5
684
330
18
100
AcDbEntity
  8
1
 62
     1
100
AcDbLine
 10
29.65512438108917
 20
-4.686818282512567
 30
0.0
 11
29.83524766731605
 21
-4.644425621440666
 31
0.0
  0
LINE
  5
685
330
18
100
AcDbEntity
  8
1
 62
     1
100
AcDbLine
 10
29.83524766731605
 20
-4.644425621440666
 30
0.0
 11
30.01538076422875
 21
-4.592781105045655
 31
0.0
  0
LINE
  5
686
330
18
100
AcDbEntity
  8
1
 62
     1
100
AcDbLine
 10
30.01538076422875
 20
-4.592781105045655
 30
0.0
 11
30.19550196605317
 21
-4.531994347393353
 31
0.0
  0
LINE
  5
687
330
18
100
AcDbEntity
  8
1
 62
     1
100
AcDbLine
 10
30.19550196605317
 20
-4.531994347393353
 30
0.0
 11
30.37562978556677
 21
-4.462181315149161
 31
0.0
  0
LINE
  5
688
330
18
100
AcDbEntity
  8
1
 62
     1
100
AcDbLine
 10
27.5899701342655
 20
-4.762499999999998
 30
0.0
 11
28.93461804366727
 21
-4.762499999999998
 31
0.0
  0
LINE
  5
689
330
18
100
AcDbEntity
  8
1
 62
     1
100
AcDbLine
 10
24.70794610830484
 20
-4.762499999959585
 30
0.0
 11
24.88807246356092
 21
-4.757757502999989
 31
0.0
  0
LINE
  5
68A
330
18
100
AcDbEntity
  8
1
 62
     1
100
AcDbLine
 10
24.88807246356092
 20
-4.757757502999989
 30
0.0
 11
25.06819469646904
 21
-4.743542269279802
 31
0.0
  0
LINE
  5
68B
330
18
100
AcDbEntity
  8
1
 62
     1
100
AcDbLine
 10
25.06819469646904
 20
-4.743542269279802
 30
0.0
 11
25.24832755294957
 21
-4.719879403543132
 31
0.0
  0
LINE
  5
68C
330
18
100
AcDbEntity
  8
1
 62
     1
100
AcDbLine
 10
25.24832755294957
 20
-4.719879403543132
 30
0.0
 11
25.42845030845139
 21
-4.686818798772089
 31
0.0
  0
LINE
  5
68D
330
18
100
AcDbEntity
  8
1
 62
     1
100
AcDbLine
 10
25.42845030845139
 20
-4.686818798772089
 30
0.0
 11
25.60857516099122
 21
-4.644425902913376
 31
0.0
  0
LINE
  5
68E
330
18
100
AcDbEntity
  8
1
 62
     1
100
AcDbLine
 10
25.60857516099122
 20
-4.644425902913376
 30
0.0
 11
25.78870736515711
 21
-4.592781579666757
 31
0.0
  0
LINE
  5
68F
330
18
100
AcDbEntity
  8
1
 62
     1
100
AcDbLine
 10
25.78870736515711
 20
-4.592781579666757
 30
0.0
 11
25.96882821963134
 21
-4.531995162805108
 31
0.0
  0
LINE
  5
690
330
18
100
AcDbEntity
  8
1
 62
     1
100
AcDbLine
 10
25.96882821963134
 20
-4.531995162805108
 30
0.0
 11
26.14895828181926
 21
-4.462181257639277
 31
0.0
  0
LINE
  5
691
330
18
100
AcDbEntity
  8
1
 62
     1
100
AcDbLine
 10
24.32499999999999
 20
-4.762499999999998
 30
0.0
 11
24.70794610830483
 21
-4.762499999999998
 31
0.0
  0
LINE
  5
692
330
18
100
AcDbEntity
  8
1
 62
     1
100
AcDbLine
 10
33.92997760106392
 20
-0.000000000001019
 30
0.0
 11
35.51497869936757
 21
-1.822528780868673
 31
0.0
  0
LINE
  5
693
330
18
100
AcDbEntity
  8
1
 62
     1
100
AcDbLine
 10
35.51497869936757
 20
-1.822528780868673
 30
0.0
 11
36.30747789234479
 21
-2.645900639830313
 31
0.0
  0
LINE
  5
694
330
18
100
AcDbEntity
  8
1
 62
     1
100
AcDbLine
 10
36.30747789234479
 20
-2.645900639830313
 30
0.0
 11
36.70373363587082
 21
-3.021300167855608
 31
0.0
  0
LINE
  5
695
330
18
100
AcDbEntity
  8
1
 62
     1
100
AcDbLine
 10
36.70373363587082
 20
-3.021300167855608
 30
0.0
 11
37.09998364189339
 21
-3.36759798738853
 31
0.0
  0
LINE
  5
696
330
18
100
AcDbEntity
  8
1
 62
     1
100
AcDbLine
 10
37.09998364189339
 20
-3.36759798738853
 30
0.0
 11
37.49623121373057
 21
-3.681461400309398
 31
0.0
  0
LINE
  5
697
330
18
100
AcDbEntity
  8
1
 62
     1
100
AcDbLine
 10
37.49623121373057
 20
-3.681461400309398
 30
0.0
 11
37.8924873809778
 21
-3.959877053299261
 31
0.0
  0
LINE
  5
698
330
18
100
AcDbEntity
  8
1
 62
     1
100
AcDbLine
 10
37.8924873809778
 20
-3.959877053299261
 30
0.0
 11
38.09060827853813
 21
-4.08493243068272
 31
0.0
  0
LINE
  5
699
330
18
100
AcDbEntity
  8
1
 62
     1
100
AcDbLine
 10
38.09060827853813
 20
-4.08493243068272
 30
0.0
 11
38.2887319039444
 21
-4.200149433765377
 31
0.0
  0
LINE
  5
69A
330
18
100
AcDbEntity
  8
1
 62
     1
100
AcDbLine
 10
38.2887319039444
 20
-4.200149433765377
 30
0.0
 11
38.48686330556848
 21
-4.305251505140637
 31
0.0
  0
LINE
  5
69B
330
18
100
AcDbEntity
  8
1
 62
     1
100
AcDbLine
 10
38.48686330556848
 20
-4.305251505140637
 30
0.0
 11
38.6849854463363
 21
-4.399976660207247
 31
0.0
  0
LINE
  5
69C
330
18
100
AcDbEntity
  8
1
 62
     1
100
AcDbLine
 10
38.6849854463363
 20
-4.399976660207247
 30
0.0
 11
38.88310716772039
 21
-4.484102860717988
 31
0.0
  0
LINE
  5
69D
330
18
100
AcDbEntity
  8
1
 62
     1
100
AcDbLine
 10
38.88310716772039
 20
-4.484102860717988
 30
0.0
 11
39.08123838941981
 21
-4.557429864644892
 31
0.0
  0
LINE
  5
69E
330
18
100
AcDbEntity
  8
1
 62
     1
100
AcDbLine
 10
39.08123838941981
 20
-4.557429864644892
 30
0.0
 11
39.27936245885107
 21
-4.619774257997282
 31
0.0
  0
LINE
  5
69F
330
18
100
AcDbEntity
  8
1
 62
     1
100
AcDbLine
 10
39.27936245885107
 20
-4.619774257997282
 30
0.0
 11
39.47748314910487
 21
-4.670989236574503
 31
0.0
  0
LINE
  5
6A0
330
18
100
AcDbEntity
  8
1
 62
     1
100
AcDbLine
 10
39.47748314910487
 20
-4.670989236574503
 30
0.0
 11
39.67561223400185
 21
-4.710953625338908
 31
0.0
  0
LINE
  5
6A1
330
18
100
AcDbEntity
  8
1
 62
     1
100
AcDbLine
 10
39.67561223400185
 20
-4.710953625338908
 30
0.0
 11
39.87373919516098
 21
-4.739567263754468
 31
0.0
  0
LINE
  5
6A2
330
18
100
AcDbEntity
  8
1
 62
     1
100
AcDbLine
 10
39.87373919516098
 20
-4.739567263754468
 30
0.0
 11
40.07185955611904
 21
-4.75676277250766
 31
0.0
  0
LINE
  5
6A3
330
18
100
AcDbEntity
  8
1
 62
     1
100
AcDbLine
 10
40.07185955611904
 20
-4.75676277250766
 30
0.0
 11
40.26998506754747
 21
-4.762499999806328
 31
0.0
  0
LINE
  5
6A4
330
18
100
AcDbEntity
  8
1
 62
     1
100
AcDbLine
 10
33.92997760106516
 20
-0.0000000000000029
 30
0.0
 11
32.57175682921081
 21
0.9529722784160871
 31
0.0
  0
LINE
  5
6A5
330
18
100
AcDbEntity
  8
1
 62
     1
100
AcDbLine
 10
32.57175682921081
 20
0.9529722784160871
 30
0.0
 11
31.89264644328363
 21
1.395718070677913
 31
0.0
  0
LINE
  5
6A6
330
18
100
AcDbEntity
  8
1
 62
     1
100
AcDbLine
 10
31.89264644328363
 20
1.395718070677913
 30
0.0
 11
31.21353605735646
 21
1.799043933766345
 31
0.0
  0
LINE
  5
6A7
330
18
100
AcDbEntity
  8
1
 62
     1
100
AcDbLine
 10
31.21353605735646
 20
1.799043933766345
 30
0.0
 11
30.53442567142928
 21
2.151559541571923
 31
0.0
  0
LINE
  5
6A8
330
18
100
AcDbEntity
  8
1
 62
     1
100
AcDbLine
 10
30.53442567142928
 20
2.151559541571923
 30
0.0
 11
30.19487047846569
 21
2.305587241475777
 31
0.0
  0
LINE
  5
6A9
330
18
100
AcDbEntity
  8
1
 62
     1
100
AcDbLine
 10
30.19487047846569
 20
2.305587241475777
 30
0.0
 11
29.8553152855021
 21
2.443306689290557
 31
0.0
  0
LINE
  5
6AA
330
18
100
AcDbEntity
  8
1
 62
     1
100
AcDbLine
 10
29.8553152855021
 20
2.443306689290557
 30
0.0
 11
29.51576009253852
 21
2.563744183079748
 31
0.0
  0
LINE
  5
6AB
330
18
100
AcDbEntity
  8
1
 62
     1
100
AcDbLine
 10
29.51576009253852
 20
2.563744183079748
 30
0.0
 11
29.17620489957493
 21
2.666047833915518
 31
0.0
  0
LINE
  5
6AC
330
18
100
AcDbEntity
  8
1
 62
     1
100
AcDbLine
 10
29.17620489957493
 20
2.666047833915518
 30
0.0
 11
28.83664970661135
 21
2.749493464872338
 31
0.0
  0
LINE
  5
6AD
330
18
100
AcDbEntity
  8
1
 62
     1
100
AcDbLine
 10
28.83664970661135
 20
2.749493464872338
 30
0.0
 11
28.49709451364777
 21
2.813490289070284
 31
0.0
  0
LINE
  5
6AE
330
18
100
AcDbEntity
  8
1
 62
     1
100
AcDbLine
 10
28.4970944774741
 20
2.813490251074804
 30
0.0
 11
28.02345365236228
 21
3.24403257422279
 31
0.0
  0
LINE
  5
6AF
330
18
100
AcDbEntity
  8
1
 62
     1
100
AcDbLine
 10
28.02345365236228
 20
3.24403257422279
 30
0.0
 11
27.54981205205194
 21
3.629954915470965
 31
0.0
  0
LINE
  5
6B0
330
18
100
AcDbEntity
  8
1
 62
     1
100
AcDbLine
 10
27.54981205205194
 20
3.629954915470965
 30
0.0
 11
27.3129851368678
 21
3.804501499536005
 31
0.0
  0
LINE
  5
6B1
330
18
100
AcDbEntity
  8
1
 62
     1
100
AcDbLine
 10
27.3129851368678
 20
3.804501499536005
 30
0.0
 11
27.07616119681985
 21
3.965952067268524
 31
0.0
  0
LINE
  5
6B2
330
18
100
AcDbEntity
  8
1
 62
     1
100
AcDbLine
 10
27.07616119681985
 20
3.965952067268524
 30
0.0
 11
26.83934053949065
 21
4.113750231841365
 31
0.0
  0
LINE
  5
6B3
330
18
100
AcDbEntity
  8
1
 62
     1
100
AcDbLine
 10
26.83934053949065
 20
4.113750231841365
 30
0.0
 11
26.60252136521417
 21
4.247389556464093
 31
0.0
  0
LINE
  5
6B4
330
18
100
AcDbEntity
  8
1
 62
     1
100
AcDbLine
 10
26.60252136521417
 20
4.247389556464093
 30
0.0
 11
26.36570134580794
 21
4.366411326079396
 31
0.0
  0
LINE
  5
6B5
330
18
100
AcDbEntity
  8
1
 62
     1
100
AcDbLine
 10
26.36570134580794
 20
4.366411326079396
 30
0.0
 11
26.12887829639593
 21
4.470406485532701
 31
0.0
  0
LINE
  5
6B6
330
18
100
AcDbEntity
  8
1
 62
     1
100
AcDbLine
 10
26.12887829639593
 20
4.470406485532701
 30
0.0
 11
25.89205218078764
 21
4.55901666670208
 31
0.0
  0
LINE
  5
6B7
330
18
100
AcDbEntity
  8
1
 62
     1
100
AcDbLine
 10
25.89205218078764
 20
4.55901666670208
 30
0.0
 11
25.65522850624602
 21
4.631933741959243
 31
0.0
  0
LINE
  5
6B8
330
18
100
AcDbEntity
  8
1
 62
     1
100
AcDbLine
 10
25.65522850624602
 20
4.631933741959243
 30
0.0
 11
25.41840866160056
 21
4.688908242046425
 31
0.0
  0
LINE
  5
6B9
330
18
100
AcDbEntity
  8
1
 62
     1
100
AcDbLine
 10
25.41840866160056
 20
4.688908242046425
 30
0.0
 11
25.18158942882927
 21
4.729745001437988
 31
0.0
  0
LINE
  5
6BA
330
18
100
AcDbEntity
  8
1
 62
     1
100
AcDbLine
 10
25.18158942882927
 20
4.729745001437988
 30
0.0
 11
24.94476989712266
 21
4.754303861357541
 31
0.0
  0
LINE
  5
6BB
330
18
100
AcDbEntity
  8
1
 62
     1
100
AcDbLine
 10
24.94476989712266
 20
4.754303861357541
 30
0.0
 11
24.7079461082948
 21
4.762500000000001
 31
0.0
  0
LINE
  5
6BC
330
18
100
AcDbEntity
  8
1
 62
     1
100
AcDbLine
 10
38.82897301441017
 20
-4.46218132278753
 30
0.0
 11
38.64884397261866
 21
-4.531994877565286
 31
0.0
  0
LINE
  5
6BD
330
18
100
AcDbEntity
  8
1
 62
     1
100
AcDbLine
 10
38.64884397261866
 20
-4.531994877565286
 30
0.0
 11
38.4687226372293
 21
-4.592781483206187
 31
0.0
  0
LINE
  5
6BE
330
18
100
AcDbEntity
  8
1
 62
     1
100
AcDbLine
 10
38.4687226372293
 20
-4.592781483206187
 30
0.0
 11
38.28859012407631
 21
-4.644425904503279
 31
0.0
  0
LINE
  5
6BF
330
18
100
AcDbEntity
  8
1
 62
     1
100
AcDbLine
 10
38.28859012407631
 20
-4.644425904503279
 30
0.0
 11
38.10846555050018
 21
-4.686818747417672
 31
0.0
  0
LINE
  5
6C0
330
18
100
AcDbEntity
  8
1
 62
     1
100
AcDbLine
 10
38.10846555050018
 20
-4.686818747417672
 30
0.0
 11
37.92834236084629
 21
-4.719879431056624
 31
0.0
  0
LINE
  5
6C1
330
18
100
AcDbEntity
  8
1
 62
     1
100
AcDbLine
 10
37.92834236084629
 20
-4.719879431056624
 30
0.0
 11
37.74820968666324
 21
-4.743542266339421
 31
0.0
  0
LINE
  5
6C2
330
18
100
AcDbEntity
  8
1
 62
     1
100
AcDbLine
 10
37.74820968666324
 20
-4.743542266339421
 30
0.0
 11
37.56808733946313
 21
-4.757757527335684
 31
0.0
  0
LINE
  5
6C3
330
18
100
AcDbEntity
  8
1
 62
     1
100
AcDbLine
 10
37.56808733946313
 20
-4.757757527335684
 30
0.0
 11
37.38796141232777
 21
-4.762499999802706
 31
0.0
  0
LINE
  5
6C4
330
18
100
AcDbEntity
  8
1
 62
     1
100
AcDbLine
 10
29.70330595656527
 20
-0.0000000000013845
 30
0.0
 11
28.3587284675024
 21
1.557356991166018
 31
0.0
  0
LINE
  5
6C5
330
18
100
AcDbEntity
  8
1
 62
     1
100
AcDbLine
 10
28.3587284675024
 20
1.557356991166018
 30
0.0
 11
27.68644120036906
 21
2.281998336698238
 31
0.0
  0
LINE
  5
6C6
330
18
100
AcDbEntity
  8
1
 62
     1
100
AcDbLine
 10
27.68644120036906
 20
2.281998336698238
 30
0.0
 11
27.01415691969967
 21
2.943470634210045
 31
0.0
  0
LINE
  5
6C7
330
18
100
AcDbEntity
  8
1
 62
     1
100
AcDbLine
 10
27.01415691969967
 20
2.943470634210045
 30
0.0
 11
26.67801036935255
 21
3.244719512740134
 31
0.0
  0
LINE
  5
6C8
330
18
100
AcDbEntity
  8
1
 62
     1
100
AcDbLine
 10
26.67801036935255
 20
3.244719512740134
 30
0.0
 11
26.34186361149369
 21
3.523475935147154
 31
0.0
  0
LINE
  5
6C9
330
18
100
AcDbEntity
  8
1
 62
     1
100
AcDbLine
 10
26.34186361149369
 20
3.523475935147154
 30
0.0
 11
26.00571883431526
 21
3.777805914397439
 31
0.0
  0
LINE
  5
6CA
330
18
100
AcDbEntity
  8
1
 62
     1
100
AcDbLine
 10
26.00571883431526
 20
3.777805914397439
 30
0.0
 11
25.66957817224317
 21
4.005945192389274
 31
0.0
  0
LINE
  5
6CB
330
18
100
AcDbEntity
  8
1
 62
     1
100
AcDbLine
 10
25.66957817224317
 20
4.005945192389274
 30
0.0
 11
25.33343753181823
 21
4.206315372146202
 31
0.0
  0
LINE
  5
6CC
330
18
100
AcDbEntity
  8
1
 62
     1
100
AcDbLine
 10
25.33343753181823
 20
4.206315372146202
 30
0.0
 11
25.16535905964028
 21
4.295649525171914
 31
0.0
  0
LINE
  5
6CD
330
18
100
AcDbEntity
  8
1
 62
     1
100
AcDbLine
 10
25.16535905964028
 20
4.295649525171914
 30
0.0
 11
24.99729280329426
 21
4.3775296643177
 31
0.0
  0
LINE
  5
6CE
330
18
100
AcDbEntity
  8
1
 62
     1
100
AcDbLine
 10
24.99729280329426
 20
4.3775296643177
 30
0.0
 11
24.82921665883496
 21
4.451825570722344
 31
0.0
  0
LINE
  5
6CF
330
18
100
AcDbEntity
  8
1
 62
     1
100
AcDbLine
 10
24.82921665883496
 20
4.451825570722344
 30
0.0
 11
24.66114615821892
 21
4.518399577810621
 31
0.0
  0
LINE
  5
6D0
330
18
100
AcDbEntity
  8
1
 62
     1
100
AcDbLine
 10
24.66114615821892
 20
4.518399577810621
 30
0.0
 11
24.49307676017865
 21
4.577140727359466
 31
0.0
  0
LINE
  5
6D1
330
18
100
AcDbEntity
  8
1
 62
     1
100
AcDbLine
 10
24.49307676017865
 20
4.577140727359466
 30
0.0
 11
24.325
 21
4.627948045753953
 31
0.0
  0
LINE
  5
6D2
330
18
100
AcDbEntity
  8
1
 62
     1
100
AcDbLine
 10
29.7033059565669
 20
0.0000000000000013
 30
0.0
 11
28.35872946742518
 21
0.9437577306028688
 31
0.0
  0
LINE
  5
6D3
330
18
100
AcDbEntity
  8
1
 62
     1
100
AcDbLine
 10
28.35872946742518
 20
0.9437577306028688
 30
0.0
 11
27.68644122285431
 21
1.382890666696013
 31
0.0
  0
LINE
  5
6D4
330
18
100
AcDbEntity
  8
1
 62
     1
100
AcDbLine
 10
27.68644122285431
 20
1.382890666696013
 30
0.0
 11
27.01415297828345
 21
1.78374523318295
 31
0.0
  0
LINE
  5
6D5
330
18
100
AcDbEntity
  8
1
 62
     1
100
AcDbLine
 10
27.01415297828345
 20
1.78374523318295
 30
0.0
 11
26.34186473371258
 21
2.135226001538884
 31
0.0
  0
LINE
  5
6D6
330
18
100
AcDbEntity
  8
1
 62
     1
100
AcDbLine
 10
26.34186473371258
 20
2.135226001538884
 30
0.0
 11
26.00572061142716
 21
2.289349146495246
 31
0.0
  0
LINE
  5
6D7
330
18
100
AcDbEntity
  8
1
 62
     1
100
AcDbLine
 10
26.00572061142716
 20
2.289349146495246
 30
0.0
 11
25.66957648914172
 21
2.427602671185217
 31
0.0
  0
LINE
  5
6D8
330
18
100
AcDbEntity
  8
1
 62
     1
100
AcDbLine
 10
25.66957648914172
 20
2.427602671185217
 30
0.0
 11
25.33343236685629
 21
2.549028528367842
 31
0.0
  0
LINE
  5
6D9
330
18
100
AcDbEntity
  8
1
 62
     1
100
AcDbLine
 10
25.33343236685629
 20
2.549028528367842
 30
0.0
 11
24.99728824457086
 21
2.652784524731701
 31
0.0
  0
LINE
  5
6DA
330
18
100
AcDbEntity
  8
1
 62
     1
100
AcDbLine
 10
24.99728824457086
 20
2.652784524731701
 30
0.0
 11
24.66114412228544
 21
2.738150622293535
 31
0.0
  0
LINE
  5
6DB
330
18
100
AcDbEntity
  8
1
 62
     1
100
AcDbLine
 10
24.66114412228544
 20
2.738150622293535
 30
0.0
 11
24.325
 21
2.804536493130224
 31
0.0
  0
LINE
  5
6DC
330
18
100
AcDbEntity
  8
1
 62
     1
100
AcDbLine
 10
49.63045270178982
 20
2.813490414868631
 30
0.0
 11
50.47122645289719
 21
1.957991465955006
 31
0.0
  0
LINE
  5
6DD
330
18
100
AcDbEntity
  8
1
 62
     1
100
AcDbLine
 10
50.47122645289719
 20
1.957991465955006
 30
0.0
 11
51.312
 21
1.017836562118685
 31
0.0
  0
LINE
  5
6DE
330
18
100
AcDbEntity
  8
1
 62
     1
100
AcDbLine
 10
50.83666417762932
 20
-0.0000000000011659
 30
0.0
 11
51.312
 21
-0.5595787595353132
 31
0.0
  0
LINE
  5
6DF
330
18
100
AcDbEntity
  8
1
 62
     1
100
AcDbLine
 10
25.47663430827743
 20
-0.000000000000137
 30
0.0
 11
27.06163818607411
 21
-1.822531806656821
 31
0.0
  0
LINE
  5
6E0
330
18
100
AcDbEntity
  8
1
 62
     1
100
AcDbLine
 10
27.06163818607411
 20
-1.822531806656821
 30
0.0
 11
27.85413660981398
 21
-2.645902551937217
 31
0.0
  0
LINE
  5
6E1
330
18
100
AcDbEntity
  8
1
 62
     1
100
AcDbLine
 10
27.85413660981398
 20
-2.645902551937217
 30
0.0
 11
28.25039295663988
 21
-3.021302601402314
 31
0.0
  0
LINE
  5
6E2
330
18
100
AcDbEntity
  8
1
 62
     1
100
AcDbLine
 10
28.25039295663988
 20
-3.021302601402314
 30
0.0
 11
28.64664048319583
 21
-3.367598105343545
 31
0.0
  0
LINE
  5
6E3
330
18
100
AcDbEntity
  8
1
 62
     1
100
AcDbLine
 10
28.64664048319583
 20
-3.367598105343545
 30
0.0
 11
29.04289053468391
 21
-3.681463315104847
 31
0.0
  0
LINE
  5
6E4
330
18
100
AcDbEntity
  8
1
 62
     1
100
AcDbLine
 10
29.04289053468391
 20
-3.681463315104847
 30
0.0
 11
29.43914606351523
 21
-3.959878442260899
 31
0.0
  0
LINE
  5
6E5
330
18
100
AcDbEntity
  8
1
 62
     1
100
AcDbLine
 10
29.43914606351523
 20
-3.959878442260899
 30
0.0
 11
29.63726773449487
 21
-4.084934076454091
 31
0.0
  0
LINE
  5
6E6
330
18
100
AcDbEntity
  8
1
 62
     1
100
AcDbLine
 10
29.63726773449487
 20
-4.084934076454091
 30
0.0
 11
29.83539002034737
 21
-4.200150130508354
 31
0.0
  0
LINE
  5
6E7
330
18
100
AcDbEntity
  8
1
 62
     1
100
AcDbLine
 10
29.83539002034737
 20
-4.200150130508354
 30
0.0
 11
30.0335214726225
 21
-4.305252335957413
 31
0.0
  0
LINE
  5
6E8
330
18
100
AcDbEntity
  8
1
 62
     1
100
AcDbLine
 10
30.0335214726225
 20
-4.305252335957413
 30
0.0
 11
30.23164489812641
 21
-4.399977920931027
 31
0.0
  0
LINE
  5
6E9
330
18
100
AcDbEntity
  8
1
 62
     1
100
AcDbLine
 10
30.23164489812641
 20
-4.399977920931027
 30
0.0
 11
30.42976581770919
 21
-4.484103529837964
 31
0.0
  0
LINE
  5
6EA
330
18
100
AcDbEntity
  8
1
 62
     1
100
AcDbLine
 10
30.42976581770919
 20
-4.484103529837964
 30
0.0
 11
30.62789589820659
 21
-4.557430206050817
 31
0.0
  0
LINE
  5
6EB
330
18
100
AcDbEntity
  8
1
 62
     1
100
AcDbLine
 10
30.62789589820659
 20
-4.557430206050817
 30
0.0
 11
30.82602177623817
 21
-4.619775068134442
 31
0.0
  0
LINE
  5
6EC
330
18
100
AcDbEntity
  8
1
 62
     1
100
AcDbLine
 10
30.82602177623817
 20
-4.619775068134442
 30
0.0
 11
31.0241421986611
 21
-4.670989685052135
 31
0.0
  0
LINE
  5
6ED
330
18
100
AcDbEntity
  8
1
 62
     1
100
AcDbLine
 10
31.0241421986611
 20
-4.670989685052135
 30
0.0
 11
31.22226908339026
 21
-4.710953650664291
 31
0.0
  0
LINE
  5
6EE
330
18
100
AcDbEntity
  8
1
 62
     1
100
AcDbLine
 10
31.22226908339026
 20
-4.710953650664291
 30
0.0
 11
31.42039824283977
 21
-4.739567627074116
 31
0.0
  0
LINE
  5
6EF
330
18
100
AcDbEntity
  8
1
 62
     1
100
AcDbLine
 10
31.42039824283977
 20
-4.739567627074116
 30
0.0
 11
31.61851887082129
 21
-4.756762863440695
 31
0.0
  0
LINE
  5
6F0
330
18
100
AcDbEntity
  8
1
 62
     1
100
AcDbLine
 10
31.61851887082129
 20
-4.756762863440695
 30
0.0
 11
31.81664177883345
 21
-4.762499999980194
 31
0.0
  0
LINE
  5
6F1
330
18
100
AcDbEntity
  8
1
 62
     1
100
AcDbLine
 10
50.83666417763072
 20
0.0000000000000013
 30
0.0
 11
49.47844340845203
 21
0.9529722360972517
 31
0.0
  0
LINE
  5
6F2
330
18
100
AcDbEntity
  8
1
 62
     1
100
AcDbLine
 10
49.47844340845203
 20
0.9529722360972517
 30
0.0
 11
48.79933302386266
 21
1.395718145923804
 31
0.0
  0
LINE
  5
6F3
330
18
100
AcDbEntity
  8
1
 62
     1
100
AcDbLine
 10
48.79933302386266
 20
1.395718145923804
 30
0.0
 11
48.12022263927332
 21
1.799043893974468
 31
0.0
  0
LINE
  5
6F4
330
18
100
AcDbEntity
  8
1
 62
     1
100
AcDbLine
 10
48.12022263927332
 20
1.799043893974468
 30
0.0
 11
47.44111225468396
 21
2.15155954773725
 31
0.0
  0
LINE
  5
6F5
330
18
100
AcDbEntity
  8
1
 62
     1
100
AcDbLine
 10
47.44111225468396
 20
2.15155954773725
 30
0.0
 11
47.10155706238928
 21
2.305587358704039
 31
0.0
  0
LINE
  5
6F6
330
18
100
AcDbEntity
  8
1
 62
     1
100
AcDbLine
 10
47.10155706238928
 20
2.305587358704039
 30
0.0
 11
46.76200187009461
 21
2.443306754515989
 31
0.0
  0
LINE
  5
6F7
330
18
100
AcDbEntity
  8
1
 62
     1
100
AcDbLine
 10
46.76200187009461
 20
2.443306754515989
 30
0.0
 11
46.42244667779993
 21
2.56374412311217
 31
0.0
  0
LINE
  5
6F8
330
18
100
AcDbEntity
  8
1
 62
     1
100
AcDbLine
 10
46.42244667779993
 20
2.56374412311217
 30
0.0
 11
46.08289148550526
 21
2.666047701261689
 31
0.0
  0
LINE
  5
6F9
330
18
100
AcDbEntity
  8
1
 62
     1
100
AcDbLine
 10
46.08289148550526
 20
2.666047701261689
 30
0.0
 11
45.74333629321057
 21
2.749493459294011
 31
0.0
  0
LINE
  5
6FA
330
18
100
AcDbEntity
  8
1
 62
     1
100
AcDbLine
 10
45.74333629321057
 20
2.749493459294011
 30
0.0
 11
45.40378110091587
 21
2.813490429196284
 31
0.0
  0
LINE
  5
6FB
330
18
100
AcDbEntity
  8
1
 62
     1
100
AcDbLine
 10
43.0556446639651
 20
4.462181313773831
 30
0.0
 11
43.23577498294076
 21
4.531995143944972
 31
0.0
  0
LINE
  5
6FC
330
18
100
AcDbEntity
  8
1
 62
     1
100
AcDbLine
 10
43.23577498294076
 20
4.531995143944972
 30
0.0
 11
43.41589618993961
 21
4.592781634367506
 31
0.0
  0
LINE
  5
6FD
330
18
100
AcDbEntity
  8
1
 62
     1
100
AcDbLine
 10
43.41589618993961
 20
4.592781634367506
 30
0.0
 11
43.59602797174047
 21
4.644426012971605
 31
0.0
  0
LINE
  5
6FE
330
18
100
AcDbEntity
  8
1
 62
     1
100
AcDbLine
 10
43.59602797174047
 20
4.644426012971605
 30
0.0
 11
43.77615350567853
 21
4.686818943392677
 31
0.0
  0
LINE
  5
6FF
330
18
100
AcDbEntity
  8
1
 62
     1
100
AcDbLine
 10
43.77615350567853
 20
4.686818943392677
 30
0.0
 11
43.95627597503887
 21
4.719879506939053
 31
0.0
  0
LINE
  5
700
330
18
100
AcDbEntity
  8
1
 62
     1
100
AcDbLine
 10
43.95627597503887
 20
4.719879506939053
 30
0.0
 11
44.13640928963496
 21
4.743542357134543
 31
0.0
  0
LINE
  5
701
330
18
100
AcDbEntity
  8
1
 62
     1
100
AcDbLine
 10
44.13640928963496
 20
4.743542357134543
 30
0.0
 11
44.31653010857632
 21
4.757757382561333
 31
0.0
  0
LINE
  5
702
330
18
100
AcDbEntity
  8
1
 62
     1
100
AcDbLine
 10
44.31653010857632
 20
4.757757382561333
 30
0.0
 11
44.49665671176495
 21
4.762499999999999
 31
0.0
  0
ARC
  5
703
330
18
100
AcDbEntity
  8
1
 62
     1
100
AcDbCircle
 10
-21.87538555882687
 20
-65.85594421393996
 30
0.0
 40
81.1123057017788
100
AcDbArc
 50
54.28294962946807
 51
55.2784719491878
  0
LINE
  5
704
330
18
100
AcDbEntity
  8
1
 62
     1
100
AcDbLine
 10
45.40378105569903
 20
2.813490381702142
 30
0.0
 11
46.14231695928762
 21
2.067320702359761
 31
0.0
  0
LINE
  5
705
330
18
100
AcDbEntity
  8
1
 62
     1
100
AcDbLine
 10
46.14231695928762
 20
2.067320702359761
 30
0.0
 11
47.61937259901033
 21
0.395145473355471
 31
0.0
  0
LINE
  5
706
330
18
100
AcDbEntity
  8
1
 62
     1
100
AcDbLine
 10
47.61937259901033
 20
0.395145473355471
 30
0.0
 11
49.09642701478639
 21
-1.329357804687753
 31
0.0
  0
LINE
  5
707
330
18
100
AcDbEntity
  8
1
 62
     1
100
AcDbLine
 10
49.09642701478639
 20
-1.329357804687753
 30
0.0
 11
50.20422213007885
 21
-2.519092724614889
 31
0.0
  0
LINE
  5
708
330
18
100
AcDbEntity
  8
1
 62
     1
100
AcDbLine
 10
50.20422213007885
 20
-2.519092724614889
 30
0.0
 11
50.75811918577723
 21
-3.04832836596803
 31
0.0
  0
LINE
  5
709
330
18
100
AcDbEntity
  8
1
 62
     1
100
AcDbLine
 10
50.75811918577723
 20
-3.04832836596803
 30
0.0
 11
51.312
 21
-3.52023314785355
 31
0.0
  0
LINE
  5
70A
330
18
100
AcDbEntity
  8
1
 62
     1
100
AcDbLine
 10
46.60999253383768
 20
-0.0000000000011179
 30
0.0
 11
47.78549513936235
 21
-1.36751358490611
 31
0.0
  0
LINE
  5
70B
330
18
100
AcDbEntity
  8
1
 62
     1
100
AcDbLine
 10
47.78549513936235
 20
-1.36751358490611
 30
0.0
 11
48.96099832080399
 21
-2.619850242526386
 31
0.0
  0
LINE
  5
70C
330
18
100
AcDbEntity
  8
1
 62
     1
100
AcDbLine
 10
48.96099832080399
 20
-2.619850242526386
 30
0.0
 11
49.54875026794541
 21
-3.169234940872762
 31
0.0
  0
LINE
  5
70D
330
18
100
AcDbEntity
  8
1
 62
     1
100
AcDbLine
 10
49.54875026794541
 20
-3.169234940872762
 30
0.0
 11
49.84262632627788
 21
-3.419443965499324
 31
0.0
  0
LINE
  5
70E
330
18
100
AcDbEntity
  8
1
 62
     1
100
AcDbLine
 10
49.84262632627788
 20
-3.419443965499324
 30
0.0
 11
50.13650247349017
 21
-3.6515332531553
 31
0.0
  0
LINE
  5
70F
330
18
100
AcDbEntity
  8
1
 62
     1
100
AcDbLine
 10
50.13650247349017
 20
-3.6515332531553
 30
0.0
 11
50.43037862177299
 21
-3.864272990564553
 31
0.0
  0
LINE
  5
710
330
18
100
AcDbEntity
  8
1
 62
     1
100
AcDbLine
 10
50.43037862177299
 20
-3.864272990564553
 30
0.0
 11
50.72425482457273
 21
-4.056535816419746
 31
0.0
  0
LINE
  5
711
330
18
100
AcDbEntity
  8
1
 62
     1
100
AcDbLine
 10
50.72425482457273
 20
-4.056535816419746
 30
0.0
 11
51.01813108920004
 21
-4.227302906976557
 31
0.0
  0
LINE
  5
712
330
18
100
AcDbEntity
  8
1
 62
     1
100
AcDbLine
 10
51.01813108920004
 20
-4.227302906976557
 30
0.0
 11
51.31200000000001
 21
-4.375666379435461
 31
0.0
  0
LINE
  5
713
330
18
100
AcDbEntity
  8
1
 62
     1
100
AcDbLine
 10
46.60999253383903
 20
-0.0000000000000005
 30
0.0
 11
45.25177176400582
 21
0.9529722464950948
 31
0.0
  0
LINE
  5
714
330
18
100
AcDbEntity
  8
1
 62
     1
100
AcDbLine
 10
45.25177176400582
 20
0.9529722464950948
 30
0.0
 11
44.57266137908923
 21
1.395718127098771
 31
0.0
  0
LINE
  5
715
330
18
100
AcDbEntity
  8
1
 62
     1
100
AcDbLine
 10
44.57266137908923
 20
1.395718127098771
 30
0.0
 11
43.89355099417264
 21
1.799043901636845
 31
0.0
  0
LINE
  5
716
330
18
100
AcDbEntity
  8
1
 62
     1
100
AcDbLine
 10
43.89355099417264
 20
1.799043901636845
 30
0.0
 11
43.21444060925602
 21
2.151559551162656
 31
0.0
  0
LINE
  5
717
330
18
100
AcDbEntity
  8
1
 62
     1
100
AcDbLine
 10
43.21444060925602
 20
2.151559551162656
 30
0.0
 11
42.87488541679772
 21
2.305587329594482
 31
0.0
  0
LINE
  5
718
330
18
100
AcDbEntity
  8
1
 62
     1
100
AcDbLine
 10
42.87488541679772
 20
2.305587329594482
 30
0.0
 11
42.53533022433942
 21
2.443306735418645
 31
0.0
  0
LINE
  5
719
330
18
100
AcDbEntity
  8
1
 62
     1
100
AcDbLine
 10
42.53533022433942
 20
2.443306735418645
 30
0.0
 11
42.19577503188114
 21
2.563744135038139
 31
0.0
  0
LINE
  5
71A
330
18
100
AcDbEntity
  8
1
 62
     1
100
AcDbLine
 10
42.19577503188114
 20
2.563744135038139
 30
0.0
 11
41.85621983942284
 21
2.666047734370821
 31
0.0
  0
LINE
  5
71B
330
18
100
AcDbEntity
  8
1
 62
     1
100
AcDbLine
 10
41.85621983942284
 20
2.666047734370821
 30
0.0
 11
41.51666464696452
 21
2.749493467096795
 31
0.0
  0
LINE
  5
71C
330
18
100
AcDbEntity
  8
1
 62
     1
100
AcDbLine
 10
41.51666464696452
 20
2.749493467096795
 30
0.0
 11
41.17710945450622
 21
2.813490394696169
 31
0.0
  0
LINE
  5
71D
330
18
100
AcDbEntity
  8
1
 62
     1
100
AcDbLine
 10
38.82897301281458
 20
4.462181323662133
 30
0.0
 11
39.00910191165365
 21
4.531994584310262
 31
0.0
  0
LINE
  5
71E
330
18
100
AcDbEntity
  8
1
 62
     1
100
AcDbLine
 10
39.00910191165365
 20
4.531994584310262
 30
0.0
 11
39.18922329706525
 21
4.592781305641299
 31
0.0
  0
LINE
  5
71F
330
18
100
AcDbEntity
  8
1
 62
     1
100
AcDbLine
 10
39.18922329706525
 20
4.592781305641299
 30
0.0
 11
39.36935583739546
 21
4.644425838847857
 31
0.0
  0
LINE
  5
720
330
18
100
AcDbEntity
  8
1
 62
     1
100
AcDbLine
 10
39.36935583739546
 20
4.644425838847857
 30
0.0
 11
39.54948027068261
 21
4.686818597965569
 31
0.0
  0
LINE
  5
721
330
18
100
AcDbEntity
  8
1
 62
     1
100
AcDbLine
 10
39.54948027068261
 20
4.686818597965569
 30
0.0
 11
39.72960345193543
 21
4.719879432410159
 31
0.0
  0
LINE
  5
722
330
18
100
AcDbEntity
  8
1
 62
     1
100
AcDbLine
 10
39.72960345193543
 20
4.719879432410159
 30
0.0
 11
39.90973661052266
 21
4.743542183489946
 31
0.0
  0
LINE
  5
723
330
18
100
AcDbEntity
  8
1
 62
     1
100
AcDbLine
 10
39.90973661052266
 20
4.743542183489946
 30
0.0
 11
40.08985758410988
 21
4.757757411481388
 31
0.0
  0
LINE
  5
724
330
18
100
AcDbEntity
  8
1
 62
     1
100
AcDbLine
 10
40.08985758410988
 20
4.757757411481388
 30
0.0
 11
40.26998506756191
 21
4.7625
 31
0.0
  0
LINE
  5
725
330
18
100
AcDbEntity
  8
1
 62
     1
100
AcDbLine
 10
41.17710940962864
 20
2.813490347558418
 30
0.0
 11
41.73278880330292
 21
2.259506588752155
 31
0.0
  0
LINE
  5
726
330
18
100
AcDbEntity
  8
1
 62
     1
100
AcDbLine
 10
41.73278880330292
 20
2.259506588752155
 30
0.0
 11
42.84415008064626
 21
1.034551667498323
 31
0.0
  0
LINE
  5
727
330
18
100
AcDbEntity
  8
1
 62
     1
100
AcDbLine
 10
42.84415008064626
 20
1.034551667498323
 30
0.0
 11
45.06686464105527
 21
-1.551020106645423
 31
0.0
  0
LINE
  5
728
330
18
100
AcDbEntity
  8
1
 62
     1
100
AcDbLine
 10
45.06686464105527
 20
-1.551020106645423
 30
0.0
 11
45.62254346131984
 21
-2.154316838583182
 31
0.0
  0
LINE
  5
729
330
18
100
AcDbEntity
  8
1
 62
     1
100
AcDbLine
 10
45.62254346131984
 20
-2.154316838583182
 30
0.0
 11
46.17822216673784
 21
-2.716844345074808
 31
0.0
  0
LINE
  5
72A
330
18
100
AcDbEntity
  8
1
 62
     1
100
AcDbLine
 10
46.17822216673784
 20
-2.716844345074808
 30
0.0
 11
46.73390072484698
 21
-3.227957389129431
 31
0.0
  0
LINE
  5
72B
330
18
100
AcDbEntity
  8
1
 62
     1
100
AcDbLine
 10
46.73390072484698
 20
-3.227957389129431
 30
0.0
 11
47.01174013563872
 21
-3.46116761206207
 31
0.0
  0
LINE
  5
72C
330
18
100
AcDbEntity
  8
1
 62
     1
100
AcDbLine
 10
47.01174013563872
 20
-3.46116761206207
 30
0.0
 11
47.28957929384731
 21
-3.677983508784413
 31
0.0
  0
LINE
  5
72D
330
18
100
AcDbEntity
  8
1
 62
     1
100
AcDbLine
 10
47.28957929384731
 20
-3.677983508784413
 30
0.0
 11
47.56741886463963
 21
-3.877377708201653
 31
0.0
  0
LINE
  5
72E
330
18
100
AcDbEntity
  8
1
 62
     1
100
AcDbLine
 10
47.56741886463963
 20
-3.877377708201653
 30
0.0
 11
47.84525840194295
 21
-4.0584060116931
 31
0.0
  0
LINE
  5
72F
330
18
100
AcDbEntity
  8
1
 62
     1
100
AcDbLine
 10
47.84525840194295
 20
-4.0584060116931
 30
0.0
 11
48.12309762710294
 21
-4.22021103109673
 31
0.0
  0
LINE
  5
730
330
18
100
AcDbEntity
  8
1
 62
     1
100
AcDbLine
 10
48.12309762710294
 20
-4.22021103109673
 30
0.0
 11
48.40093745670676
 21
-4.362025948314982
 31
0.0
  0
LINE
  5
731
330
18
100
AcDbEntity
  8
1
 62
     1
100
AcDbLine
 10
48.40093745670676
 20
-4.362025948314982
 30
0.0
 11
48.67877719522827
 21
-4.483179316189356
 31
0.0
  0
LINE
  5
732
330
18
100
AcDbEntity
  8
1
 62
     1
100
AcDbLine
 10
48.67877719522827
 20
-4.483179316189356
 30
0.0
 11
48.95661657292899
 21
-4.583097284682538
 31
0.0
  0
LINE
  5
733
330
18
100
AcDbEntity
  8
1
 62
     1
100
AcDbLine
 10
48.95661657292899
 20
-4.583097284682538
 30
0.0
 11
49.09554237883271
 21
-4.624942098005669
 31
0.0
  0
LINE
  5
734
330
18
100
AcDbEntity
  8
1
 62
     1
100
AcDbLine
 10
49.09554237883271
 20
-4.624942098005669
 30
0.0
 11
49.23445670442795
 21
-4.661306272793047
 31
0.0
  0
LINE
  5
735
330
18
100
AcDbEntity
  8
1
 62
     1
100
AcDbLine
 10
49.23445670442795
 20
-4.661306272793047
 30
0.0
 11
49.37338125089285
 21
-4.692150703980834
 31
0.0
  0
LINE
  5
736
330
18
100
AcDbEntity
  8
1
 62
     1
100
AcDbLine
 10
49.37338125089285
 20
-4.692150703980834
 30
0.0
 11
49.51229667678384
 21
-4.717436035204678
 31
0.0
  0
LINE
  5
737
330
18
100
AcDbEntity
  8
1
 62
     1
100
AcDbLine
 10
49.51229667678384
 20
-4.717436035204678
 30
0.0
 11
49.65122055135982
 21
-4.737133928652014
 31
0.0
  0
LINE
  5
738
330
18
100
AcDbEntity
  8
1
 62
     1
100
AcDbLine
 10
49.65122055135982
 20
-4.737133928652014
 30
0.0
 11
49.79013628771744
 21
-4.751220646501885
 31
0.0
  0
LINE
  5
739
330
18
100
AcDbEntity
  8
1
 62
     1
100
AcDbLine
 10
49.79013628771744
 20
-4.751220646501885
 30
0.0
 11
49.92905976162796
 21
-4.759678826633594
 31
0.0
  0
LINE
  5
73A
330
18
100
AcDbEntity
  8
1
 62
     1
100
AcDbLine
 10
49.92905976162796
 20
-4.759678826633594
 30
0.0
 11
50.06797646489179
 21
-4.762499999802461
 31
0.0
  0
LINE
  5
73B
330
18
100
AcDbEntity
  8
1
 62
     1
100
AcDbLine
 10
36.95043776328774
 20
2.813490312908573
 30
0.0
 11
37.50611717151892
 21
2.259506565802829
 31
0.0
  0
LINE
  5
73C
330
18
100
AcDbEntity
  8
1
 62
     1
100
AcDbLine
 10
37.50611717151892
 20
2.259506565802829
 30
0.0
 11
38.61747843053473
 21
1.034551636028965
 31
0.0
  0
LINE
  5
73D
330
18
100
AcDbEntity
  8
1
 62
     1
100
AcDbLine
 10
38.61747843053473
 20
1.034551636028965
 30
0.0
 11
40.84019298960567
 21
-1.55102012056464
 31
0.0
  0
LINE
  5
73E
330
18
100
AcDbEntity
  8
1
 62
     1
100
AcDbLine
 10
40.84019298960567
 20
-1.55102012056464
 30
0.0
 11
41.39587183256393
 21
-2.154316830552652
 31
0.0
  0
LINE
  5
73F
330
18
100
AcDbEntity
  8
1
 62
     1
100
AcDbLine
 10
41.39587183256393
 20
-2.154316830552652
 30
0.0
 11
41.95155052325054
 21
-2.716844343504047
 31
0.0
  0
LINE
  5
740
330
18
100
AcDbEntity
  8
1
 62
     1
100
AcDbLine
 10
41.95155052325054
 20
-2.716844343504047
 30
0.0
 11
42.50722905805932
 21
-3.227957399425332
 31
0.0
  0
LINE
  5
741
330
18
100
AcDbEntity
  8
1
 62
     1
100
AcDbLine
 10
42.50722905805932
 20
-3.227957399425332
 30
0.0
 11
42.78506849533272
 21
-3.461167603976407
 31
0.0
  0
LINE
  5
742
330
18
100
AcDbEntity
  8
1
 62
     1
100
AcDbLine
 10
42.78506849533272
 20
-3.461167603976407
 30
0.0
 11
43.06290764674115
 21
-3.677983503931734
 31
0.0
  0
LINE
  5
743
330
18
100
AcDbEntity
  8
1
 62
     1
100
AcDbLine
 10
43.06290764674115
 20
-3.677983503931734
 30
0.0
 11
43.34074719271278
 21
-3.877377714843512
 31
0.0
  0
LINE
  5
744
330
18
100
AcDbEntity
  8
1
 62
     1
100
AcDbLine
 10
43.34074719271278
 20
-3.877377714843512
 30
0.0
 11
43.61858676329868
 21
-4.0584060010948
 31
0.0
  0
LINE
  5
745
330
18
100
AcDbEntity
  8
1
 62
     1
100
AcDbLine
 10
43.61858676329868
 20
-4.0584060010948
 30
0.0
 11
43.89642597509324
 21
-4.220211026156473
 31
0.0
  0
LINE
  5
746
330
18
100
AcDbEntity
  8
1
 62
     1
100
AcDbLine
 10
43.89642597509324
 20
-4.220211026156473
 30
0.0
 11
44.17426578015041
 21
-4.362025951680256
 31
0.0
  0
LINE
  5
747
330
18
100
AcDbEntity
  8
1
 62
     1
100
AcDbLine
 10
44.17426578015041
 20
-4.362025951680256
 30
0.0
 11
44.45210555644444
 21
-4.483179307039613
 31
0.0
  0
LINE
  5
748
330
18
100
AcDbEntity
  8
1
 62
     1
100
AcDbLine
 10
44.45210555644444
 20
-4.483179307039613
 30
0.0
 11
44.72994491700477
 21
-4.583097280739498
 31
0.0
  0
LINE
  5
749
330
18
100
AcDbEntity
  8
1
 62
     1
100
AcDbLine
 10
44.72994491700477
 20
-4.583097280739498
 30
0.0
 11
44.86887071898585
 21
-4.624942094974754
 31
0.0
  0
LINE
  5
74A
330
18
100
AcDbEntity
  8
1
 62
     1
100
AcDbLine
 10
44.86887071898585
 20
-4.624942094974754
 30
0.0
 11
45.00778502388709
 21
-4.661306273764398
 31
0.0
  0
LINE
  5
74B
330
18
100
AcDbEntity
  8
1
 62
     1
100
AcDbLine
 10
45.00778502388709
 20
-4.661306273764398
 30
0.0
 11
45.14670959605113
 21
-4.692150701208575
 31
0.0
  0
LINE
  5
74C
330
18
100
AcDbEntity
  8
1
 62
     1
100
AcDbLine
 10
45.14670959605113
 20
-4.692150701208575
 30
0.0
 11
45.28562503633986
 21
-4.717436030721683
 31
0.0
  0
LINE
  5
74D
330
18
100
AcDbEntity
  8
1
 62
     1
100
AcDbLine
 10
45.28562503633986
 20
-4.717436030721683
 30
0.0
 11
45.42454888471317
 21
-4.73713392708077
 31
0.0
  0
LINE
  5
74E
330
18
100
AcDbEntity
  8
1
 62
     1
100
AcDbLine
 10
45.42454888471317
 20
-4.73713392708077
 30
0.0
 11
45.56346462748638
 21
-4.751220645260482
 31
0.0
  0
LINE
  5
74F
330
18
100
AcDbEntity
  8
1
 62
     1
100
AcDbLine
 10
45.56346462748638
 20
-4.751220645260482
 30
0.0
 11
45.70238809934189
 21
-4.759678825795993
 31
0.0
  0
LINE
  5
750
330
18
100
AcDbEntity
  8
1
 62
     1
100
AcDbLine
 10
45.70238809934189
 20
-4.759678825795993
 30
0.0
 11
45.8413047810118
 21
-4.762499999802585
 31
0.0
  0
LINE
  5
751
330
18
100
AcDbEntity
  8
1
 62
     1
100
AcDbLine
 10
38.15664924542417
 20
-0.0000000000010364
 30
0.0
 11
39.74165034554555
 21
-1.822528779389847
 31
0.0
  0
LINE
  5
752
330
18
100
AcDbEntity
  8
1
 62
     1
100
AcDbLine
 10
39.74165034554555
 20
-1.822528779389847
 30
0.0
 11
40.53414953980631
 21
-2.64590063758687
 31
0.0
  0
LINE
  5
753
330
18
100
AcDbEntity
  8
1
 62
     1
100
AcDbLine
 10
40.53414953980631
 20
-2.64590063758687
 30
0.0
 11
40.93040528291941
 21
-3.021300166041135
 31
0.0
  0
LINE
  5
754
330
18
100
AcDbEntity
  8
1
 62
     1
100
AcDbLine
 10
40.93040528291941
 20
-3.021300166041135
 30
0.0
 11
41.32665529001605
 21
-3.367597985082612
 31
0.0
  0
LINE
  5
755
330
18
100
AcDbEntity
  8
1
 62
     1
100
AcDbLine
 10
41.32665529001605
 20
-3.367597985082612
 30
0.0
 11
41.72290286118538
 21
-3.68146139858216
 31
0.0
  0
LINE
  5
756
330
18
100
AcDbEntity
  8
1
 62
     1
100
AcDbLine
 10
41.72290286118538
 20
-3.68146139858216
 30
0.0
 11
42.11915902859205
 21
-3.959877051747496
 31
0.0
  0
LINE
  5
757
330
18
100
AcDbEntity
  8
1
 62
     1
100
AcDbLine
 10
42.11915902859205
 20
-3.959877051747496
 30
0.0
 11
42.31727992456604
 21
-4.084932429886951
 31
0.0
  0
LINE
  5
758
330
18
100
AcDbEntity
  8
1
 62
     1
100
AcDbLine
 10
42.31727992456604
 20
-4.084932429886951
 30
0.0
 11
42.51540355127545
 21
-4.200149432528533
 31
0.0
  0
LINE
  5
759
330
18
100
AcDbEntity
  8
1
 62
     1
100
AcDbLine
 10
42.51540355127545
 20
-4.200149432528533
 30
0.0
 11
42.71353495083628
 21
-4.305251504760822
 31
0.0
  0
LINE
  5
75A
330
18
100
AcDbEntity
  8
1
 62
     1
100
AcDbLine
 10
42.71353495083628
 20
-4.305251504760822
 30
0.0
 11
42.91165709252923
 21
-4.399976659627931
 31
0.0
  0
LINE
  5
75B
330
18
100
AcDbEntity
  8
1
 62
     1
100
AcDbLine
 10
42.91165709252923
 20
-4.399976659627931
 30
0.0
 11
43.10977881449223
 21
-4.48410285998596
 31
0.0
  0
LINE
  5
75C
330
18
100
AcDbEntity
  8
1
 62
     1
100
AcDbLine
 10
43.10977881449223
 20
-4.48410285998596
 30
0.0
 11
43.30791003569581
 21
-4.557429864138608
 31
0.0
  0
LINE
  5
75D
330
18
100
AcDbEntity
  8
1
 62
     1
100
AcDbLine
 10
43.30791003569581
 20
-4.557429864138608
 30
0.0
 11
43.50603410513592
 21
-4.619774257537209
 31
0.0
  0
LINE
  5
75E
330
18
100
AcDbEntity
  8
1
 62
     1
100
AcDbLine
 10
43.50603410513592
 20
-4.619774257537209
 30
0.0
 11
43.70415479392744
 21
-4.670989236510509
 31
0.0
  0
LINE
  5
75F
330
18
100
AcDbEntity
  8
1
 62
     1
100
AcDbLine
 10
43.70415479392744
 20
-4.670989236510509
 30
0.0
 11
43.90228388164175
 21
-4.71095362491279
 31
0.0
  0
LINE
  5
760
330
18
100
AcDbEntity
  8
1
 62
     1
100
AcDbLine
 10
43.90228388164175
 20
-4.71095362491279
 30
0.0
 11
44.10041084099852
 21
-4.73956726361395
 31
0.0
  0
LINE
  5
761
330
18
100
AcDbEntity
  8
1
 62
     1
100
AcDbLine
 10
44.10041084099852
 20
-4.73956726361395
 30
0.0
 11
44.29853120343246
 21
-4.756762772338516
 31
0.0
  0
LINE
  5
762
330
18
100
AcDbEntity
  8
1
 62
     1
100
AcDbLine
 10
44.29853120343246
 20
-4.756762772338516
 30
0.0
 11
44.49665671175066
 21
-4.762499999806368
 31
0.0
  0
LINE
  5
763
330
18
100
AcDbEntity
  8
1
 62
     1
100
AcDbLine
 10
38.15664924542543
 20
0.000000000000006
 30
0.0
 11
36.79842847428746
 21
0.9529722677576763
 31
0.0
  0
LINE
  5
764
330
18
100
AcDbEntity
  8
1
 62
     1
100
AcDbLine
 10
36.79842847428746
 20
0.9529722677576763
 30
0.0
 11
36.11931808871846
 21
1.395718089428916
 31
0.0
  0
LINE
  5
765
330
18
100
AcDbEntity
  8
1
 62
     1
100
AcDbLine
 10
36.11931808871846
 20
1.395718089428916
 30
0.0
 11
35.44020770314946
 21
1.799043921615036
 31
0.0
  0
LINE
  5
766
330
18
100
AcDbEntity
  8
1
 62
     1
100
AcDbLine
 10
35.44020770314946
 20
1.799043921615036
 30
0.0
 11
34.76109731758049
 21
2.151559547943482
 31
0.0
  0
LINE
  5
767
330
18
100
AcDbEntity
  8
1
 62
     1
100
AcDbLine
 10
34.76109731758049
 20
2.151559547943482
 30
0.0
 11
34.42154212479599
 21
2.305587270820709
 31
0.0
  0
LINE
  5
768
330
18
100
AcDbEntity
  8
1
 62
     1
100
AcDbLine
 10
34.42154212479599
 20
2.305587270820709
 30
0.0
 11
34.0819869320115
 21
2.443306702750477
 31
0.0
  0
LINE
  5
769
330
18
100
AcDbEntity
  8
1
 62
     1
100
AcDbLine
 10
34.0819869320115
 20
2.443306702750477
 30
0.0
 11
33.74243173922701
 21
2.563744165092972
 31
0.0
  0
LINE
  5
76A
330
18
100
AcDbEntity
  8
1
 62
     1
100
AcDbLine
 10
33.74243173922701
 20
2.563744165092972
 30
0.0
 11
33.40287654644251
 21
2.666047800911675
 31
0.0
  0
LINE
  5
76B
330
18
100
AcDbEntity
  8
1
 62
     1
100
AcDbLine
 10
33.40287654644251
 20
2.666047800911675
 30
0.0
 11
33.06332135365802
 21
2.749493469963621
 31
0.0
  0
LINE
  5
76C
330
18
100
AcDbEntity
  8
1
 62
     1
100
AcDbLine
 10
33.06332135365802
 20
2.749493469963621
 30
0.0
 11
32.72376616087352
 21
2.813490324408268
 31
0.0
  0
LINE
  5
76D
330
18
100
AcDbEntity
  8
1
 62
     1
100
AcDbLine
 10
30.37562978549747
 20
4.46218131512058
 30
0.0
 11
30.55576130633789
 21
4.531995653532352
 31
0.0
  0
LINE
  5
76E
330
18
100
AcDbEntity
  8
1
 62
     1
100
AcDbLine
 10
30.55576130633789
 20
4.531995653532352
 30
0.0
 11
30.7358825008824
 21
4.592781972776391
 31
0.0
  0
LINE
  5
76F
330
18
100
AcDbEntity
  8
1
 62
     1
100
AcDbLine
 10
30.7358825008824
 20
4.592781972776391
 30
0.0
 11
30.91601325869041
 21
4.644426105278807
 31
0.0
  0
LINE
  5
770
330
18
100
AcDbEntity
  8
1
 62
     1
100
AcDbLine
 10
30.91601325869041
 20
4.644426105278807
 30
0.0
 11
31.09614008915024
 21
4.686819287407868
 31
0.0
  0
LINE
  5
771
330
18
100
AcDbEntity
  8
1
 62
     1
100
AcDbLine
 10
31.09614008915024
 20
4.686819287407868
 30
0.0
 11
31.27626200680162
 21
4.719879593720727
 31
0.0
  0
LINE
  5
772
330
18
100
AcDbEntity
  8
1
 62
     1
100
AcDbLine
 10
31.27626200680162
 20
4.719879593720727
 30
0.0
 11
31.45639522323603
 21
4.743542513969946
 31
0.0
  0
LINE
  5
773
330
18
100
AcDbEntity
  8
1
 62
     1
100
AcDbLine
 10
31.45639522323603
 20
4.743542513969946
 30
0.0
 11
31.63651837121244
 21
4.757757639487269
 31
0.0
  0
LINE
  5
774
330
18
100
AcDbEntity
  8
1
 62
     1
100
AcDbLine
 10
31.63651837121244
 20
4.757757639487269
 30
0.0
 11
31.81664177883481
 21
4.762500000000002
 31
0.0
  0
LINE
  5
775
330
18
100
AcDbEntity
  8
1
 62
     1
100
AcDbLine
 10
32.7237661166733
 20
2.813490277982014
 30
0.0
 11
33.27944554100431
 21
2.259506543720556
 31
0.0
  0
LINE
  5
776
330
18
100
AcDbEntity
  8
1
 62
     1
100
AcDbLine
 10
33.27944554100431
 20
2.259506543720556
 30
0.0
 11
34.39080677941666
 21
1.034551603695191
 31
0.0
  0
LINE
  5
777
330
18
100
AcDbEntity
  8
1
 62
     1
100
AcDbLine
 10
34.39080677941666
 20
1.034551603695191
 30
0.0
 11
36.61352133719076
 21
-1.551020135214865
 31
0.0
  0
LINE
  5
778
330
18
100
AcDbEntity
  8
1
 62
     1
100
AcDbLine
 10
36.61352133719076
 20
-1.551020135214865
 30
0.0
 11
37.16920020187136
 21
-2.154316823862118
 31
0.0
  0
LINE
  5
779
330
18
100
AcDbEntity
  8
1
 62
     1
100
AcDbLine
 10
37.16920020187136
 20
-2.154316823862118
 30
0.0
 11
37.72487887971506
 21
-2.716844341865956
 31
0.0
  0
LINE
  5
77A
330
18
100
AcDbEntity
  8
1
 62
     1
100
AcDbLine
 10
37.72487887971506
 20
-2.716844341865956
 30
0.0
 11
38.28055739198615
 21
-3.227957409168649
 31
0.0
  0
LINE
  5
77B
330
18
100
AcDbEntity
  8
1
 62
     1
100
AcDbLine
 10
38.28055739198615
 20
-3.227957409168649
 30
0.0
 11
38.55839685479398
 21
-3.461167595921201
 31
0.0
  0
LINE
  5
77C
330
18
100
AcDbEntity
  8
1
 62
     1
100
AcDbLine
 10
38.55839685479398
 20
-3.461167595921201
 30
0.0
 11
38.83623599969156
 21
-3.677983498893812
 31
0.0
  0
LINE
  5
77D
330
18
100
AcDbEntity
  8
1
 62
     1
100
AcDbLine
 10
38.83623599969156
 20
-3.677983498893812
 30
0.0
 11
39.11407552126428
 21
-3.877377721142539
 31
0.0
  0
LINE
  5
77E
330
18
100
AcDbEntity
  8
1
 62
     1
100
AcDbLine
 10
39.11407552126428
 20
-3.877377721142539
 30
0.0
 11
39.39191512415606
 21
-4.058405990622652
 31
0.0
  0
LINE
  5
77F
330
18
100
AcDbEntity
  8
1
 62
     1
100
AcDbLine
 10
39.39191512415606
 20
-4.058405990622652
 30
0.0
 11
39.66975432377336
 21
-4.220211020814227
 31
0.0
  0
LINE
  5
780
330
18
100
AcDbEntity
  8
1
 62
     1
100
AcDbLine
 10
39.66975432377336
 20
-4.220211020814227
 30
0.0
 11
39.94759410380488
 21
-4.362025954883668
 31
0.0
  0
LINE
  5
781
330
18
100
AcDbEntity
  8
1
 62
     1
100
AcDbLine
 10
39.94759410380488
 20
-4.362025954883668
 30
0.0
 11
40.22543391690673
 21
-4.483179298034183
 31
0.0
  0
LINE
  5
782
330
18
100
AcDbEntity
  8
1
 62
     1
100
AcDbLine
 10
40.22543391690673
 20
-4.483179298034183
 30
0.0
 11
40.50327326217622
 21
-4.583097276458341
 31
0.0
  0
LINE
  5
783
330
18
100
AcDbEntity
  8
1
 62
     1
100
AcDbLine
 10
40.50327326217622
 20
-4.583097276458341
 30
0.0
 11
40.64219905763892
 21
-4.624942092141792
 31
0.0
  0
LINE
  5
784
330
18
100
AcDbEntity
  8
1
 62
     1
100
AcDbLine
 10
40.64219905763892
 20
-4.624942092141792
 30
0.0
 11
40.78111334324647
 21
-4.66130627469883
 31
0.0
  0
LINE
  5
785
330
18
100
AcDbEntity
  8
1
 62
     1
100
AcDbLine
 10
40.78111334324647
 20
-4.66130627469883
 30
0.0
 11
40.92003794246718
 21
-4.692150698209979
 31
0.0
  0
LINE
  5
786
330
18
100
AcDbEntity
  8
1
 62
     1
100
AcDbLine
 10
40.92003794246718
 20
-4.692150698209979
 30
0.0
 11
41.05895339499241
 21
-4.717436026310589
 31
0.0
  0
LINE
  5
787
330
18
100
AcDbEntity
  8
1
 62
     1
100
AcDbLine
 10
41.05895339499241
 20
-4.717436026310589
 30
0.0
 11
41.19787721798915
 21
-4.737133925521104
 31
0.0
  0
LINE
  5
788
330
18
100
AcDbEntity
  8
1
 62
     1
100
AcDbLine
 10
41.19787721798915
 20
-4.737133925521104
 30
0.0
 11
41.33679296856452
 21
-4.751220643917954
 31
0.0
  0
LINE
  5
789
330
18
100
AcDbEntity
  8
1
 62
     1
100
AcDbLine
 10
41.33679296856452
 20
-4.751220643917954
 30
0.0
 11
41.47571643610753
 21
-4.759678824929357
 31
0.0
  0
LINE
  5
78A
330
18
100
AcDbEntity
  8
1
 62
     1
100
AcDbLine
 10
41.47571643610753
 20
-4.759678824929357
 30
0.0
 11
41.61463309676824
 21
-4.762499999802709
 31
0.0
  0
LINE
  5
78B
330
18
100
AcDbEntity
  8
1
 62
     1
100
AcDbLine
 10
42.38332088967255
 20
-0.0000000000010771
 30
0.0
 11
43.96832199170831
 21
-1.822528777843742
 31
0.0
  0
LINE
  5
78C
330
18
100
AcDbEntity
  8
1
 62
     1
100
AcDbLine
 10
43.96832199170831
 20
-1.822528777843742
 30
0.0
 11
44.76082118730019
 21
-2.645900635253517
 31
0.0
  0
LINE
  5
78D
330
18
100
AcDbEntity
  8
1
 62
     1
100
AcDbLine
 10
44.76082118730019
 20
-2.645900635253517
 30
0.0
 11
45.15707693000904
 21
-3.021300164142387
 31
0.0
  0
LINE
  5
78E
330
18
100
AcDbEntity
  8
1
 62
     1
100
AcDbLine
 10
45.15707693000904
 20
-3.021300164142387
 30
0.0
 11
45.5533269381321
 21
-3.367597982727919
 31
0.0
  0
LINE
  5
78F
330
18
100
AcDbEntity
  8
1
 62
     1
100
AcDbLine
 10
45.5533269381321
 20
-3.367597982727919
 30
0.0
 11
45.94957450858141
 21
-3.681461396843503
 31
0.0
  0
LINE
  5
790
330
18
100
AcDbEntity
  8
1
 62
     1
100
AcDbLine
 10
45.94957450858141
 20
-3.681461396843503
 30
0.0
 11
46.34583067614649
 21
-3.959877050185208
 31
0.0
  0
LINE
  5
791
330
18
100
AcDbEntity
  8
1
 62
     1
100
AcDbLine
 10
46.34583067614649
 20
-3.959877050185208
 30
0.0
 11
46.54395157059309
 21
-4.08493242905308
 31
0.0
  0
LINE
  5
792
330
18
100
AcDbEntity
  8
1
 62
     1
100
AcDbLine
 10
46.54395157059309
 20
-4.08493242905308
 30
0.0
 11
46.74207519845702
 21
-4.200149431320764
 31
0.0
  0
LINE
  5
793
330
18
100
AcDbEntity
  8
1
 62
     1
100
AcDbLine
 10
46.74207519845702
 20
-4.200149431320764
 30
0.0
 11
46.94020659622973
 21
-4.305251504308723
 31
0.0
  0
LINE
  5
794
330
18
100
AcDbEntity
  8
1
 62
     1
100
AcDbLine
 10
46.94020659622973
 20
-4.305251504308723
 30
0.0
 11
47.13832873862881
 21
-4.399976659055129
 31
0.0
  0
LINE
  5
795
330
18
100
AcDbEntity
  8
1
 62
     1
100
AcDbLine
 10
47.13832873862881
 20
-4.399976659055129
 30
0.0
 11
47.33645046135018
 21
-4.484102859206406
 31
0.0
  0
LINE
  5
796
330
18
100
AcDbEntity
  8
1
 62
     1
100
AcDbLine
 10
47.33645046135018
 20
-4.484102859206406
 30
0.0
 11
47.53458168178707
 21
-4.557429863659419
 31
0.0
  0
LINE
  5
797
330
18
100
AcDbEntity
  8
1
 62
     1
100
AcDbLine
 10
47.53458168178707
 20
-4.557429863659419
 30
0.0
 11
47.73270575152255
 21
-4.61977425704506
 31
0.0
  0
LINE
  5
798
330
18
100
AcDbEntity
  8
1
 62
     1
100
AcDbLine
 10
47.73270575152255
 20
-4.61977425704506
 30
0.0
 11
47.93082643863262
 21
-4.670989236455773
 31
0.0
  0
LINE
  5
799
330
18
100
AcDbEntity
  8
1
 62
     1
100
AcDbLine
 10
47.93082643863262
 20
-4.670989236455773
 30
0.0
 11
48.12895552935241
 21
-4.710953624469464
 31
0.0
  0
LINE
  5
79A
330
18
100
AcDbEntity
  8
1
 62
     1
100
AcDbLine
 10
48.12895552935241
 20
-4.710953624469464
 30
0.0
 11
48.3270824867179
 21
-4.739567263474086
 31
0.0
  0
LINE
  5
79B
330
18
100
AcDbEntity
  8
1
 62
     1
100
AcDbLine
 10
48.3270824867179
 20
-4.739567263474086
 30
0.0
 11
48.5252028507526
 21
-4.756762772169611
 31
0.0
  0
LINE
  5
79C
330
18
100
AcDbEntity
  8
1
 62
     1
100
AcDbLine
 10
48.5252028507526
 20
-4.756762772169611
 30
0.0
 11
48.72332835589091
 21
-4.762499999806394
 31
0.0
  0
LINE
  5
79D
330
18
100
AcDbEntity
  8
1
 62
     1
100
AcDbLine
 10
42.38332088967386
 20
-0.0000000000000071
 30
0.0
 11
41.02510011921202
 21
0.9529722570934823
 31
0.0
  0
LINE
  5
79E
330
18
100
AcDbEntity
  8
1
 62
     1
100
AcDbLine
 10
41.02510011921202
 20
0.9529722570934823
 30
0.0
 11
40.34598973398109
 21
1.395718108273459
 31
0.0
  0
LINE
  5
79F
330
18
100
AcDbEntity
  8
1
 62
     1
100
AcDbLine
 10
40.34598973398109
 20
1.395718108273459
 30
0.0
 11
39.66687934875017
 21
1.799043910891774
 31
0.0
  0
LINE
  5
7A0
330
18
100
AcDbEntity
  8
1
 62
     1
100
AcDbLine
 10
39.66687934875017
 20
1.799043910891774
 30
0.0
 11
38.98776896351924
 21
2.151559551226685
 31
0.0
  0
LINE
  5
7A1
330
18
100
AcDbEntity
  8
1
 62
     1
100
AcDbLine
 10
38.98776896351924
 20
2.151559551226685
 30
0.0
 11
38.64821377090378
 21
2.305587300252634
 31
0.0
  0
LINE
  5
7A2
330
18
100
AcDbEntity
  8
1
 62
     1
100
AcDbLine
 10
38.64821377090378
 20
2.305587300252634
 30
0.0
 11
38.3086585782883
 21
2.443306718148532
 31
0.0
  0
LINE
  5
7A3
330
18
100
AcDbEntity
  8
1
 62
     1
100
AcDbLine
 10
38.3086585782883
 20
2.443306718148532
 30
0.0
 11
37.96910338567282
 21
2.56374414905707
 31
0.0
  0
LINE
  5
7A4
330
18
100
AcDbEntity
  8
1
 62
     1
100
AcDbLine
 10
37.96910338567282
 20
2.56374414905707
 30
0.0
 11
37.62954819305737
 21
2.666047767658889
 31
0.0
  0
LINE
  5
7A5
330
18
100
AcDbEntity
  8
1
 62
     1
100
AcDbLine
 10
37.62954819305737
 20
2.666047767658889
 30
0.0
 11
37.28999300044191
 21
2.74949347075386
 31
0.0
  0
LINE
  5
7A6
330
18
100
AcDbEntity
  8
1
 62
     1
100
AcDbLine
 10
37.28999300044191
 20
2.74949347075386
 30
0.0
 11
36.95043780782645
 21
2.813490359690358
 31
0.0
  0
LINE
  5
7A7
330
18
100
AcDbEntity
  8
1
 62
     1
100
AcDbLine
 10
34.6023013758664
 20
4.462181328574534
 30
0.0
 11
34.78243055523313
 21
4.531994696956135
 31
0.0
  0
LINE
  5
7A8
330
18
100
AcDbEntity
  8
1
 62
     1
100
AcDbLine
 10
34.78243055523313
 20
4.531994696956135
 30
0.0
 11
34.96255189072861
 21
4.592781370546296
 31
0.0
  0
LINE
  5
7A9
330
18
100
AcDbEntity
  8
1
 62
     1
100
AcDbLine
 10
34.96255189072861
 20
4.592781370546296
 30
0.0
 11
35.14268431211791
 21
4.644425879287882
 31
0.0
  0
LINE
  5
7AA
330
18
100
AcDbEntity
  8
1
 62
     1
100
AcDbLine
 10
35.14268431211791
 20
4.644425879287882
 30
0.0
 11
35.32280893062392
 21
4.686818664085425
 31
0.0
  0
LINE
  5
7AB
330
18
100
AcDbEntity
  8
1
 62
     1
100
AcDbLine
 10
35.32280893062392
 20
4.686818664085425
 30
0.0
 11
35.5029319661201
 21
4.719879446643088
 31
0.0
  0
LINE
  5
7AC
330
18
100
AcDbEntity
  8
1
 62
     1
100
AcDbLine
 10
35.5029319661201
 20
4.719879446643088
 30
0.0
 11
35.68306517069228
 21
4.743542217382448
 31
0.0
  0
LINE
  5
7AD
330
18
100
AcDbEntity
  8
1
 62
     1
100
AcDbLine
 10
35.68306517069228
 20
4.743542217382448
 30
0.0
 11
35.86318610541126
 21
4.757757406877573
 31
0.0
  0
LINE
  5
7AE
330
18
100
AcDbEntity
  8
1
 62
     1
100
AcDbLine
 10
35.86318610541126
 20
4.757757406877573
 30
0.0
 11
36.04331342326096
 21
4.7625
 31
0.0
  0
LINE
  5
7AF
330
18
100
AcDbEntity
  8
SK1
100
AcDbLine
 10
-35.52375000000001
 20
4.7625
 30
0.0
 11
-36.00000000000001
 21
4.28625
 31
0.0
  0
LINE
  5
7B0
330
18
100
AcDbEntity
  8
SK1
100
AcDbLine
 10
-36.00000000000001
 20
4.28625
 30
0.0
 11
-36.00000000000001
 21
4.281988638992177
 31
0.0
  0
LINE
  5
7B1
330
18
100
AcDbEntity
  8
SK1
100
AcDbLine
 10
-36.00000000000001
 20
4.281988638992177
 30
0.0
 11
-36.00000000000001
 21
3.901659308272384
 31
0.0
  0
LINE
  5
7B2
330
18
100
AcDbEntity
  8
SK1
100
AcDbLine
 10
-36.00000000000001
 20
3.901659308272384
 30
0.0
 11
-36.00000000000001
 21
-4.28625
 31
0.0
  0
LINE
  5
7B3
330
18
100
AcDbEntity
  8
SK1
100
AcDbLine
 10
-35.52375000000001
 20
4.7625
 30
0.0
 11
0.0
 21
4.7625
 31
0.0
  0
LINE
  5
7B4
330
18
100
AcDbEntity
  8
SK1
100
AcDbLine
 10
-35.52375000000001
 20
4.7625
 30
0.0
 11
-35.52375000000001
 21
4.757765154435752
 31
0.0
  0
LINE
  5
7B5
330
18
100
AcDbEntity
  8
SK1
100
AcDbLine
 10
-35.52375000000001
 20
4.757765154435752
 30
0.0
 11
-35.52375
 21
4.335177009191538
 31
0.0
  0
LINE
  5
7B6
330
18
100
AcDbEntity
  8
SK1
100
AcDbLine
 10
-35.52375
 20
4.335177009191538
 30
0.0
 11
-35.52375000000001
 21
-4.7625
 31
0.0
  0
LINE
  5
7B7
330
18
100
AcDbEntity
  8
SK1
100
AcDbLine
 10
-36.00000000000001
 20
-4.28625
 30
0.0
 11
-35.52375000000001
 21
-4.7625
 31
0.0
  0
LINE
  5
7B8
330
18
100
AcDbEntity
  8
SK1
100
AcDbLine
 10
-35.52375000000001
 20
-4.762499999999998
 30
0.0
 11
0.0
 21
-4.762499999999998
 31
0.0
  0
DIMENSION
  5
7B9
330
18
100
AcDbEntity
  8
2
100
AcDbDimension
  2
*D0
 10
67.90000000000002
 20
-4.762499999999948
 30
0.0
 11
65.50225000000005
 21
-14.97674999999995
 31
0.0
 70
    32
  1
%%c<>
 71
     5
 42
9.525
  3
STANDARD
100
AcDbAlignedDimension
 13
52.9
 23
4.7625
 33
0.0
 14
52.9
 24
-4.7625
 34
0.0
 50
90.0000000000002
100
AcDbRotatedDimension
  0
DIMENSION
  5
7C7
330
18
100
AcDbEntity
  8
2
100
AcDbDimension
  2
*D1
 10
52.9
 20
75.0
 30
0.0
 11
26.45
 21
77.39775
 31
0.0
 70
    32
  1
<>
 71
     5
 42
52.9
  3
STANDARD
100
AcDbAlignedDimension
 13
0.0
 23
0.0
 33
0.0
 14
52.9
 24
0.0
 34
0.0
100
AcDbRotatedDimension
  0
DIMENSION
  5
7D4
330
18
100
AcDbEntity
  8
2
100
AcDbDimension
  2
*D2
 10
52.9
 20
60.0
 30
0.0
 11
38.6125
 21
62.39775
 31
0.0
 70
    32
  1
<>
 71
     5
 42
28.575
  3
STANDARD
100
AcDbAlignedDimension
 13
24.325
 23
4.7625
 33
0.0
 14
52.9
 24
4.7625
 34
0.0
100
AcDbRotatedDimension
  0
DIMENSION
  5
7E1
330
18
100
AcDbEntity
  8
SK2
100
AcDbDimension
  2
*D3
 10
-50.9999999999757
 20
-4.76250000007655
 30
0.0
 11
-53.39774999992358
 21
-14.97675000008878
 31
0.0
 70
    32
  1
%%c<>
 71
     5
 42
9.525
  3
STANDARD
100
AcDbAlignedDimension
 13
-36.00000000000001
 23
4.7625
 33
0.0
 14
-36.00000000000001
 24
-4.7625
 34
0.0
 50
90.0000000002924
100
AcDbRotatedDimension
  0
DIMENSION
  5
7EF
330
18
100
AcDbEntity
  8
SK2
100
AcDbDimension
  2
*D4
 10
52.9
 20
90.0
 30
0.0
 11
8.449999999999996
 21
92.39775
 31
0.0
 70
    32
  1
<>
 71
     5
 42
88.9
  3
STANDARD
100
AcDbAlignedDimension
 13
-36.00000000000001
 23
0.0
 33
0.0
 14
52.9
 24
0.0
 34
0.0
100
AcDbRotatedDimension
  0
DIMENSION
  5
7FC
330
18
100
AcDbEntity
  8
2
100
AcDbDimension
  2
*D5
 10
51.312
 20
-3.1745
 30
0.0
 11
54.68596153150422
 21
-22.30918669370931
 31
0.0
 70
   164
  1
<>
 71
     5
 42
1.588
  3
STANDARD
100
AcDbRadialDimension
 15
51.58775330613508
 25
-4.738374711783386
 35
0.0
 40
0.0
  0
ENDSEC
  0
SECTION
  2
OBJECTS
  0
DICTIONARY
  5
C
330
0
100
AcDbDictionary
281
     1
  3
ACAD_COLOR
350
387
  3
ACAD_GROUP
350
D
  3
ACAD_LAYOUT
350
301
  3
ACAD_MATERIAL
350
386
  3
ACAD_MLEADERSTYLE
350
3DE
  3
ACAD_MLINESTYLE
350
E
  3
ACAD_PLOTSETTINGS
350
302
  3
ACAD_PLOTSTYLENAME
350
2FF
  3
ACAD_SCALELIST
350
3A0
  3
ACAD_TABLESTYLE
350
388
  3
ACAD_VISUALSTYLE
350
3C2
  3
ACDBHEADERROUNDTRIPXREC
350
809
  3
AcDbVariableDictionary
350
357
  0
DICTIONARY
  5
80C
330
8
100
AcDbDictionary
280
     1
281
     1
  3
ACAD_XREC_ROUNDTRIP
360
80D
  0
DICTIONARY
  5
387
102
{ACAD_REACTORS
330
C
102
}
330
C
100
AcDbDictionary
281
     1
  0
DICTIONARY
  5
D
102
{ACAD_REACTORS
330
C
102
}
330
C
100
AcDbDictionary
281
     1
  0
DICTIONARY
  5
301
102
{ACAD_REACTORS
330
C
102
}
330
C
100
AcDbDictionary
281
     1
  3
Layout1
350
33B
  3
Model
350
303
  0
DICTIONARY
  5
386
102
{ACAD_REACTORS
330
C
102
}
330
C
100
AcDbDictionary
281
     1
  3
ByBlock
350
3DC
  3
ByLayer
350
3DB
  3
Global
350
3DD
  0
DICTIONARY
  5
3DE
102
{ACAD_REACTORS
330
C
102
}
330
C
100
AcDbDictionary
281
     1
  3
Standard
350
3DF
  0
DICTIONARY
  5
E
102
{ACAD_REACTORS
330
C
102
}
330
C
100
AcDbDictionary
281
     1
  3
STANDARD
350
1B
  0
DICTIONARY
  5
302
102
{ACAD_REACTORS
330
C
102
}
330
C
100
AcDbDictionary
281
     1
  0
ACDBDICTIONARYWDFLT
  5
2FF
102
{ACAD_REACTORS
330
C
102
}
330
C
100
AcDbDictionary
281
     1
  3
Normal
350
300
100
AcDbDictionaryWithDefault
340
300
  0
DICTIONARY
  5
3A0
102
{ACAD_REACTORS
330
C
102
}
330
C
100
AcDbDictionary
281
     1
  3
A0
350
3A1
  3
A1
350
3A2
  3
A2
350
3A3
  3
A3
350
3A4
  3
A4
350
3A5
  3
A5
350
3A6
  3
A6
350
3A7
  3
A7
350
3A8
  3
A8
350
3A9
  3
A9
350
3AA
  3
B0
350
3AB
  3
B1
350
3AC
  3
B2
350
3AD
  3
B3
350
3AE
  3
B4
350
3AF
  3
B5
350
3B0
  3
B6
350
3B1
  3
B7
350
3B2
  3
B8
350
3B3
  3
B9
350
3B4
  3
C0
350
3B5
  3
C1
350
3B6
  3
C2
350
3B7
  3
C3
350
3B8
  3
C4
350
3B9
  3
C5
350
3BA
  3
C6
350
3BB
  3
C7
350
3BC
  3
C8
350
3BD
  3
C9
350
3BE
  3
D0
350
3BF
  3
D1
350
3C0
  3
D2
350
3C1
  0
DICTIONARY
  5
388
102
{ACAD_REACTORS
330
C
102
}
330
C
100
AcDbDictionary
281
     1
  3
Standard
350
389
  0
DICTIONARY
  5
3C2
102
{ACAD_REACTORS
330
C
102
}
330
C
100
AcDbDictionary
281
     1
  3
2dWireframe
350
3C7
  3
Basic
350
3CA
  3
Brighten
350
3CE
  3
ColorChange
350
3D2
  3
Conceptual
350
3CC
  3
Dim
350
3CD
  3
EdgeColorOff
350
3D5
  3
Facepattern
350
3D1
  3
Flat
350
3C3
  3
FlatWithEdges
350
3C4
  3
Gouraud
350
3C5
  3
GouraudWithEdges
350
3C6
  3
Hidden
350
3C9
  3
JitterOff
350
3D3
  3
Linepattern
350
3D0
  3
OverhangOff
350
3D4
  3
Realistic
350
3CB
  3
Shaded
350
3DA
  3
Shaded with edges
350
3D9
  3
Shades of Gray
350
3D6
  3
Sketchy
350
3D7
  3
Thicken
350
3CF
  3
Wireframe
350
3C8
  3
X-Ray
350
3D8
  0
DICTIONARY
  5
809
102
{ACAD_REACTORS
330
C
102
}
330
C
100
AcDbDictionary
281
     1
  3
COLORDICT
350
80A
  3
MATERIALDICT
350
80B
  0
DICTIONARY
  5
357
102
{ACAD_REACTORS
330
C
102
}
330
C
100
AcDbDictionary
281
     1
  3
CANNOSCALE
350
80E
  3
CMLEADERSTYLE
350
805
  3
CTABLESTYLE
350
38D
  3
DIMASSOC
350
359
  3
HIDETEXT
350
358
  3
MSLTSCALE
350
806
  3
PROJECTNAME
350
38E
  0
XRECORD
  5
80D
102
{ACAD_REACTORS
330
80C
102
}
330
80C
100
AcDbXrecord
280
     1
102
VTR_0.000_0.000_1.000_1.000_VISUALSTYLE
340
3C7
102
VTR_0.000_0.000_1.000_1.000_GRIDDISPLAY
 70
     3
102
VTR_0.000_0.000_1.000_1.000_GRIDMAJOR
 70
     5
102
VTR_0.000_0.000_1.000_1.000_DEFAULTLIGHTING
280
     1
102
VTR_0.000_0.000_1.000_1.000_DEFAULTLIGHTINGTYPE
 70
     1
102
VTR_0.000_0.000_1.000_1.000_BRIGHTNESS
141
0.0
102
VTR_0.000_0.000_1.000_1.000_CONTRAST
142
0.0
  0
LAYOUT
  5
33B
102
{ACAD_REACTORS
330
301
102
}
330
301
100
AcDbPlotSettings
  1

  2
Lexmark Optra PS2
  4

  6

 40
0.0
 41
0.0
 42
0.0
 43
0.0
 44
0.0
 45
0.0
 46
0.0
 47
0.0
 48
0.0
 49
0.0
140
0.0
141
0.0
142
1.0
143
1.0
 70
   688
 72
     0
 73
     0
 74
     5
  7
monochrome.ctb
 75
    16
147
1.0
148
0.0
149
0.0
100
AcDbLayout
  1
Layout1
 70
     1
 71
     1
 10
0.0
 20
0.0
 11
12.0
 21
9.0
 12
0.0
 22
0.0
 32
0.0
 14
0.0
 24
0.0
 34
0.0
 15
0.0
 25
0.0
 35
0.0
146
0.0
 13
0.0
 23
0.0
 33
0.0
 16
1.0
 26
0.0
 36
0.0
 17
0.0
 27
1.0
 37
0.0
 76
     0
330
338
  0
LAYOUT
  5
303
102
{ACAD_REACTORS
330
301
102
}
330
301
100
AcDbPlotSettings
  1

  2
Lexmark Optra Rx
  4
A4
  6

 40
6.805083274841307
 41
5.535083293914794
 42
6.974411010742187
 43
7.14373779296875
 44
209.9733276367186
 45
296.9259948730469
 46
0.0
 47
0.0
 48
0.0
 49
0.0
140
0.0
141
0.0
142
1.0
143
2.976565420630886
 70
 11952
 72
     1
 73
     1
 74
     0
  7
monochrome.ctb
 75
     0
147
0.335957675604539
148
204.1199660668592
149
172.3933209647495
100
AcDbLayout
  1
Model
 70
     1
 71
     0
 10
0.0
 20
0.0
 11
12.0
 21
9.0
 12
0.0
 22
0.0
 32
0.0
 14
0.0
 24
0.0
 34
0.0
 15
0.0
 25
0.0
 35
0.0
146
0.0
 13
0.0
 23
0.0
 33
0.0
 16
1.0
 26
0.0
 36
0.0
 17
0.0
 27
1.0
 37
0.0
 76
     0
330
18
331
39A
  0
MATERIAL
  5
3DC
102
{ACAD_REACTORS
330
386
102
}
102
{ACAD_XDICTIONARY
360
811
102
}
330
386
100
AcDbMaterial
  1
ByBlock
  0
MATERIAL
  5
3DB
102
{ACAD_REACTORS
330
386
102
}
102
{ACAD_XDICTIONARY
360
80F
102
}
330
386
100
AcDbMaterial
  1
ByLayer
  0
MATERIAL
  5
3DD
102
{ACAD_REACTORS
330
386
102
}
102
{ACAD_XDICTIONARY
360
813
102
}
330
386
100
AcDbMaterial
  1
Global
  0
MLEADERSTYLE
  5
3DF
102
{ACAD_REACTORS
330
3DE
102
}
102
{ACAD_XDICTIONARY
360
846
102
}
330
3DE
100
AcDbMLeaderStyle
170
     2
171
     1
172
     0
 90
        2
 40
0.0
 41
0.0
173
     1
 91
-1056964608
340
12
 92
       -2
290
     1
 42
2.0
291
     1
 43
8.0
  3
Standard
341
0
 44
4.0
300

342
10
174
     1
178
     6
175
     1
176
     0
 93
-1056964608
 45
4.0
292
     0
297
     0
 46
4.0
343
0
 94
-1056964608
 47
1.0
 49
1.0
140
1.0
293
     1
141
0.0
294
     1
177
     0
142
1.0
295
     0
296
     0
143
3.75
1001
ACAD_MLEADERVER
1070
     2
  0
MLINESTYLE
  5
1B
102
{ACAD_REACTORS
330
E
102
}
330
E
100
AcDbMlineStyle
  2
STANDARD
 70
     0
  3

 62
     0
 51
90.0
 52
90.0
 71
     2
 49
0.5
 62
   256
  6
BYLAYER
 49
-0.5
 62
   256
  6
BYLAYER
  0
ACDBPLACEHOLDER
  5
300
102
{ACAD_REACTORS
330
2FF
102
}
330
2FF
  0
SCALE
  5
3A1
102
{ACAD_REACTORS
330
3A0
102
}
330
3A0
100
AcDbScale
 70
     0
300
1:1
140
1.0
141
1.0
290
     1
  0
SCALE
  5
3A2
102
{ACAD_REACTORS
330
3A0
102
}
330
3A0
100
AcDbScale
 70
     0
300
1:2
140
1.0
141
2.0
290
     0
  0
SCALE
  5
3A3
102
{ACAD_REACTORS
330
3A0
102
}
330
3A0
100
AcDbScale
 70
     0
300
1:4
140
1.0
141
4.0
290
     0
  0
SCALE
  5
3A4
102
{ACAD_REACTORS
330
3A0
102
}
330
3A0
100
AcDbScale
 70
     0
300
1:5
140
1.0
141
5.0
290
     0
  0
SCALE
  5
3A5
102
{ACAD_REACTORS
330
3A0
102
}
330
3A0
100
AcDbScale
 70
     0
300
1:8
140
1.0
141
8.0
290
     0
  0
SCALE
  5
3A6
102
{ACAD_REACTORS
330
3A0
102
}
330
3A0
100
AcDbScale
 70
     0
300
1:10
140
1.0
141
10.0
290
     0
  0
SCALE
  5
3A7
102
{ACAD_REACTORS
330
3A0
102
}
330
3A0
100
AcDbScale
 70
     0
300
1:16
140
1.0
141
16.0
290
     0
  0
SCALE
  5
3A8
102
{ACAD_REACTORS
330
3A0
102
}
330
3A0
100
AcDbScale
 70
     0
300
1:20
140
1.0
141
20.0
290
     0
  0
SCALE
  5
3A9
102
{ACAD_REACTORS
330
3A0
102
}
330
3A0
100
AcDbScale
 70
     0
300
1:30
140
1.0
141
30.0
290
     0
  0
SCALE
  5
3AA
102
{ACAD_REACTORS
330
3A0
102
}
330
3A0
100
AcDbScale
 70
     0
300
1:40
140
1.0
141
40.0
290
     0
  0
SCALE
  5
3AB
102
{ACAD_REACTORS
330
3A0
102
}
330
3A0
100
AcDbScale
 70
     0
300
1:50
140
1.0
141
50.0
290
     0
  0
SCALE
  5
3AC
102
{ACAD_REACTORS
330
3A0
102
}
330
3A0
100
AcDbScale
 70
     0
300
1:100
140
1.0
141
100.0
290
     0
  0
SCALE
  5
3AD
102
{ACAD_REACTORS
330
3A0
102
}
330
3A0
100
AcDbScale
 70
     0
300
2:1
140
2.0
141
1.0
290
     0
  0
SCALE
  5
3AE
102
{ACAD_REACTORS
330
3A0
102
}
330
3A0
100
AcDbScale
 70
     0
300
4:1
140
4.0
141
1.0
290
     0
  0
SCALE
  5
3AF
102
{ACAD_REACTORS
330
3A0
102
}
330
3A0
100
AcDbScale
 70
     0
300
8:1
140
8.0
141
1.0
290
     0
  0
SCALE
  5
3B0
102
{ACAD_REACTORS
330
3A0
102
}
330
3A0
100
AcDbScale
 70
     0
300
10:1
140
10.0
141
1.0
290
     0
  0
SCALE
  5
3B1
102
{ACAD_REACTORS
330
3A0
102
}
330
3A0
100
AcDbScale
 70
     0
300
100:1
140
100.0
141
1.0
290
     0
  0
SCALE
  5
3B2
102
{ACAD_REACTORS
330
3A0
102
}
330
3A0
100
AcDbScale
 70
     0
300
1/128" = 1'-0"
140
0.0078125
141
12.0
290
     0
  0
SCALE
  5
3B3
102
{ACAD_REACTORS
330
3A0
102
}
330
3A0
100
AcDbScale
 70
     0
300
1/64" = 1'-0"
140
0.015625
141
12.0
290
     0
  0
SCALE
  5
3B4
102
{ACAD_REACTORS
330
3A0
102
}
330
3A0
100
AcDbScale
 70
     0
300
1/32" = 1'-0"
140
0.03125
141
12.0
290
     0
  0
SCALE
  5
3B5
102
{ACAD_REACTORS
330
3A0
102
}
330
3A0
100
AcDbScale
 70
     0
300
1/16" = 1'-0"
140
0.0625
141
12.0
290
     0
  0
SCALE
  5
3B6
102
{ACAD_REACTORS
330
3A0
102
}
330
3A0
100
AcDbScale
 70
     0
300
3/32" = 1'-0"
140
0.09375
141
12.0
290
     0
  0
SCALE
  5
3B7
102
{ACAD_REACTORS
330
3A0
102
}
330
3A0
100
AcDbScale
 70
     0
300
1/8" = 1'-0"
140
0.125
141
12.0
290
     0
  0
SCALE
  5
3B8
102
{ACAD_REACTORS
330
3A0
102
}
330
3A0
100
AcDbScale
 70
     0
300
3/16" = 1'-0"
140
0.1875
141
12.0
290
     0
  0
SCALE
  5
3B9
102
{ACAD_REACTORS
330
3A0
102
}
330
3A0
100
AcDbScale
 70
     0
300
1/4" = 1'-0"
140
0.25
141
12.0
290
     0
  0
SCALE
  5
3BA
102
{ACAD_REACTORS
330
3A0
102
}
330
3A0
100
AcDbScale
 70
     0
300
3/8" = 1'-0"
140
0.375
141
12.0
290
     0
  0
SCALE
  5
3BB
102
{ACAD_REACTORS
330
3A0
102
}
330
3A0
100
AcDbScale
 70
     0
300
1/2" = 1'-0"
140
0.5
141
12.0
290
     0
  0
SCALE
  5
3BC
102
{ACAD_REACTORS
330
3A0
102
}
330
3A0
100
AcDbScale
 70
     0
300
3/4" = 1'-0"
140
0.75
141
12.0
290
     0
  0
SCALE
  5
3BD
102
{ACAD_REACTORS
330
3A0
102
}
330
3A0
100
AcDbScale
 70
     0
300
1" = 1'-0"
140
1.0
141
12.0
290
     0
  0
SCALE
  5
3BE
102
{ACAD_REACTORS
330
3A0
102
}
330
3A0
100
AcDbScale
 70
     0
300
1-1/2" = 1'-0"
140
1.5
141
12.0
290
     0
  0
SCALE
  5
3BF
102
{ACAD_REACTORS
330
3A0
102
}
330
3A0
100
AcDbScale
 70
     0
300
3" = 1'-0"
140
3.0
141
12.0
290
     0
  0
SCALE
  5
3C0
102
{ACAD_REACTORS
330
3A0
102
}
330
3A0
100
AcDbScale
 70
     0
300
6" = 1'-0"
140
6.0
141
12.0
290
     0
  0
SCALE
  5
3C1
102
{ACAD_REACTORS
330
3A0
102
}
330
3A0
100
AcDbScale
 70
     0
300
1'-0" = 1'-0"
140
12.0
141
12.0
290
     0
  0
TABLESTYLE
  5
389
102
{ACAD_REACTORS
330
388
102
}
330
388
100
AcDbTableStyle
  3
Standard
 70
     0
 71
     0
 40
1.5
 41
1.5
280
     0
281
     0
  7
STANDARD
140
4.5
170
     2
 62
     0
 63
   257
283
     0
274
    -2
284
     1
 64
     0
275
    -2
285
     1
 65
     0
276
    -2
286
     1
 66
     0
277
    -2
287
     1
 67
     0
278
    -2
288
     1
 68
     0
279
    -2
289
     1
 69
     0
  7
STANDARD
140
6.0
170
     5
 62
     0
 63
   257
283
     0
274
    -2
284
     1
 64
     0
275
    -2
285
     1
 65
     0
276
    -2
286
     1
 66
     0
277
    -2
287
     1
 67
     0
278
    -2
288
     1
 68
     0
279
    -2
289
     1
 69
     0
  7
STANDARD
140
4.5
170
     5
 62
     0
 63
   257
283
     0
274
    -2
284
     1
 64
     0
275
    -2
285
     1
 65
     0
276
    -2
286
     1
 66
     0
277
    -2
287
     1
 67
     0
278
    -2
288
     1
 68
     0
279
    -2
289
     1
 69
     0
  0
VISUALSTYLE
  5
3C7
102
{ACAD_REACTORS
330
3C2
102
}
102
{ACAD_XDICTIONARY
360
81D
102
}
330
3C2
100
AcDbVisualStyle
  2
2dWireframe
 70
     4
 71
     0
 72
     2
 73
     0
 90
        0
 40
0.6
 41
30.0
 62
     5
 63
     7
 74
     1
 91
        4
 64
     7
 65
   257
 75
     1
175
     1
 42
1.0
 92
        0
 66
   257
 43
1.0
 76
     1
 77
     6
 78
     2
 67
     7
 79
     5
170
     0
171
     0
290
     0
174
     0
 93
        1
 44
0.0
173
     0
291
     0
 45
0.0
1001
ACAD
1000
AcDbSavedByObjectVersion
1070
     0
  0
VISUALSTYLE
  5
3CA
102
{ACAD_REACTORS
330
3C2
102
}
102
{ACAD_XDICTIONARY
360
823
102
}
330
3C2
100
AcDbVisualStyle
  2
Basic
 70
     7
 71
     1
 72
     0
 73
     1
 90
        0
 40
0.6
 41
30.0
 62
     5
 63
     7
 74
     0
 91
        4
 64
     7
 65
   257
 75
     1
175
     1
 42
1.0
 92
        8
 66
     7
 43
1.0
 76
     1
 77
     6
 78
     2
 67
     7
 79
     5
170
     0
171
     0
290
     0
174
     0
 93
        1
 44
0.0
173
     0
291
     1
 45
0.0
1001
ACAD
1000
AcDbSavedByObjectVersion
1070
     0
  0
VISUALSTYLE
  5
3CE
102
{ACAD_REACTORS
330
3C2
102
}
102
{ACAD_XDICTIONARY
360
82B
102
}
330
3C2
100
AcDbVisualStyle
  2
Brighten
 70
    12
 71
     2
 72
     2
 73
     0
 90
        0
 40
0.6
 41
30.0
 62
     5
 63
     7
 74
     1
 91
        4
 64
     7
 65
   257
 75
     1
175
     1
 42
1.0
 92
        8
 66
     7
 43
1.0
 76
     1
 77
     6
 78
     2
 67
     7
 79
     5
170
     0
171
     0
290
     0
174
     0
 93
        1
 44
50.0
173
     0
291
     1
 45
0.0
1001
ACAD
1000
AcDbSavedByObjectVersion
1070
     0
  0
VISUALSTYLE
  5
3D2
102
{ACAD_REACTORS
330
3C2
102
}
102
{ACAD_XDICTIONARY
360
833
102
}
330
3C2
100
AcDbVisualStyle
  2
ColorChange
 70
    16
 71
     2
 72
     2
 73
     3
 90
        0
 40
0.6
 41
30.0
 62
     5
 63
     8
 74
     1
 91
        4
 64
     7
 65
   257
 75
     1
175
     1
 42
1.0
 92
        8
 66
     8
 43
1.0
 76
     1
 77
     6
 78
     2
 67
     7
 79
     5
170
     0
171
     0
290
     0
174
     0
 93
        1
 44
0.0
173
     0
291
     1
 45
0.0
1001
ACAD
1000
AcDbSavedByObjectVersion
1070
     0
  0
VISUALSTYLE
  5
3CC
102
{ACAD_REACTORS
330
3C2
102
}
102
{ACAD_XDICTIONARY
360
827
102
}
330
3C2
100
AcDbVisualStyle
  2
Conceptual
 70
     9
 71
     3
 72
     2
 73
     0
 90
        0
 40
0.6
 41
30.0
 62
     5
 63
     7
 74
     2
 91
        2
 64
     7
 65
   257
 75
     1
175
     1
 42
179.0
 92
        8
 66
     7
 43
1.0
 76
     1
 77
     6
 78
     2
 67
     7
 79
     3
170
     0
171
     0
290
     0
174
     0
 93
        1
 44
0.0
173
     0
291
     0
 45
0.0
1001
ACAD
1000
AcDbSavedByObjectVersion
1070
     0
  0
VISUALSTYLE
  5
3CD
102
{ACAD_REACTORS
330
3C2
102
}
102
{ACAD_XDICTIONARY
360
829
102
}
330
3C2
100
AcDbVisualStyle
  2
Dim
 70
    11
 71
     2
 72
     2
 73
     0
 90
        0
 40
0.6
 41
30.0
 62
     5
 63
     7
 74
     1
 91
        4
 64
     7
 65
   257
 75
     1
175
     1
 42
1.0
 92
        8
 66
     7
 43
1.0
 76
     1
 77
     6
 78
     2
 67
     7
 79
     5
170
     0
171
     0
290
     0
174
     0
 93
        1
 44
-50.0
173
     0
291
     1
 45
0.0
1001
ACAD
1000
AcDbSavedByObjectVersion
1070
     0
  0
VISUALSTYLE
  5
3D5
102
{ACAD_REACTORS
330
3C2
102
}
102
{ACAD_XDICTIONARY
360
839
102
}
330
3C2
100
AcDbVisualStyle
  2
EdgeColorOff
 70
    22
 71
     2
 72
     2
 73
     0
 90
        0
 40
0.6
 41
30.0
 62
     5
 63
     7
 74
     1
 91
        4
 64
     7
 65
   257
 75
     1
175
     1
 42
1.0
 92
        8
 66
     7
 43
1.0
 76
     1
 77
     6
 78
     2
 67
     7
 79
     5
170
     0
171
     0
290
     0
174
     0
 93
        1
 44
0.0
173
     0
291
     1
 45
0.0
1001
ACAD
1000
AcDbSavedByObjectVersion
1070
     0
  0
VISUALSTYLE
  5
3D1
102
{ACAD_REACTORS
330
3C2
102
}
102
{ACAD_XDICTIONARY
360
831
102
}
330
3C2
100
AcDbVisualStyle
  2
Facepattern
 70
    15
 71
     2
 72
     2
 73
     0
 90
        0
 40
0.6
 41
30.0
 62
     5
 63
     7
 74
     1
 91
        4
 64
     7
 65
   257
 75
     1
175
     1
 42
1.0
 92
        8
 66
     7
 43
1.0
 76
     1
 77
     6
 78
     2
 67
     7
 79
     5
170
     0
171
     0
290
     0
174
     0
 93
        1
 44
0.0
173
     0
291
     1
 45
0.0
1001
ACAD
1000
AcDbSavedByObjectVersion
1070
     0
  0
VISUALSTYLE
  5
3C3
102
{ACAD_REACTORS
330
3C2
102
}
102
{ACAD_XDICTIONARY
360
815
102
}
330
3C2
100
AcDbVisualStyle
  2
Flat
 70
     0
 71
     2
 72
     1
 73
     1
 90
        2
 40
0.6
 41
30.0
 62
     5
 63
     7
 74
     0
 91
        0
 64
     7
 65
   257
 75
     1
175
     1
 42
1.0
 92
        8
 66
     7
 43
1.0
 76
     1
 77
     6
 78
     2
 67
     7
 79
     5
170
     0
171
     0
290
     0
174
     0
 93
       13
 44
0.0
173
     0
291
     1
 45
0.0
1001
ACAD
1000
AcDbSavedByObjectVersion
1070
     0
  0
VISUALSTYLE
  5
3C4
102
{ACAD_REACTORS
330
3C2
102
}
102
{ACAD_XDICTIONARY
360
817
102
}
330
3C2
100
AcDbVisualStyle
  2
FlatWithEdges
 70
     1
 71
     2
 72
     1
 73
     1
 90
        2
 40
0.6
 41
30.0
 62
     5
 63
     7
 74
     1
 91
        0
 64
     7
 65
   257
 75
     1
175
     1
 42
1.0
 92
        0
 66
   257
 43
1.0
 76
     1
 77
     6
 78
     2
 67
     7
 79
     5
170
     0
171
     0
290
     0
174
     0
 93
       13
 44
0.0
173
     0
291
     1
 45
0.0
1001
ACAD
1000
AcDbSavedByObjectVersion
1070
     0
  0
VISUALSTYLE
  5
3C5
102
{ACAD_REACTORS
330
3C2
102
}
102
{ACAD_XDICTIONARY
360
819
102
}
330
3C2
100
AcDbVisualStyle
  2
Gouraud
 70
     2
 71
     2
 72
     2
 73
     1
 90
        2
 40
0.6
 41
30.0
 62
     5
 63
     7
 74
     0
 91
        0
 64
     7
 65
   257
 75
     1
175
     1
 42
1.0
 92
        0
 66
     7
 43
1.0
 76
     1
 77
     6
 78
     2
 67
     7
 79
     5
170
     0
171
     0
290
     0
174
     0
 93
       13
 44
0.0
173
     0
291
     1
 45
0.0
1001
ACAD
1000
AcDbSavedByObjectVersion
1070
     0
  0
VISUALSTYLE
  5
3C6
102
{ACAD_REACTORS
330
3C2
102
}
102
{ACAD_XDICTIONARY
360
81B
102
}
330
3C2
100
AcDbVisualStyle
  2
GouraudWithEdges
 70
     3
 71
     2
 72
     2
 73
     1
 90
        2
 40
0.6
 41
30.0
 62
     5
 63
     7
 74
     1
 91
        0
 64
     7
 65
   257
 75
     1
175
     1
 42
1.0
 92
        0
 66
   257
 43
1.0
 76
     1
 77
     6
 78
     2
 67
     7
 79
     5
170
     0
171
     0
290
     0
174
     0
 93
       13
 44
0.0
173
     0
291
     1
 45
0.0
1001
ACAD
1000
AcDbSavedByObjectVersion
1070
     0
  0
VISUALSTYLE
  5
3C9
102
{ACAD_REACTORS
330
3C2
102
}
102
{ACAD_XDICTIONARY
360
821
102
}
330
3C2
100
AcDbVisualStyle
  2
Hidden
 70
     6
 71
     1
 72
     2
 73
     2
 90
        0
 40
0.6
 41
30.0
 62
     5
 63
     7
 74
     2
 91
        2
 64
     7
 65
   257
 75
     2
175
     1
 42
40.0
 92
        0
 66
   257
 43
1.0
 76
     1
 77
     6
 78
     2
 67
     7
 79
     3
170
     0
171
     0
290
     0
174
     0
 93
        1
 44
0.0
173
     0
291
     0
 45
0.0
1001
ACAD
1000
AcDbSavedByObjectVersion
1070
     0
  0
VISUALSTYLE
  5
3D3
102
{ACAD_REACTORS
330
3C2
102
}
102
{ACAD_XDICTIONARY
360
835
102
}
330
3C2
100
AcDbVisualStyle
  2
JitterOff
 70
    20
 71
     2
 72
     2
 73
     0
 90
        0
 40
0.6
 41
30.0
 62
     5
 63
     7
 74
     1
 91
        4
 64
     7
 65
   257
 75
     1
175
     1
 42
1.0
 92
       10
 66
     7
 43
1.0
 76
     1
 77
     6
 78
     2
 67
     7
 79
     5
170
     0
171
     0
290
     0
174
     0
 93
        1
 44
0.0
173
     0
291
     1
 45
0.0
1001
ACAD
1000
AcDbSavedByObjectVersion
1070
     0
  0
VISUALSTYLE
  5
3D0
102
{ACAD_REACTORS
330
3C2
102
}
102
{ACAD_XDICTIONARY
360
82F
102
}
330
3C2
100
AcDbVisualStyle
  2
Linepattern
 70
    14
 71
     2
 72
     2
 73
     0
 90
        0
 40
0.6
 41
30.0
 62
     5
 63
     7
 74
     1
 91
        4
 64
     7
 65
   257
 75
     7
175
     7
 42
1.0
 92
        8
 66
     7
 43
1.0
 76
     1
 77
     6
 78
     2
 67
     7
 79
     5
170
     0
171
     0
290
     0
174
     0
 93
        1
 44
0.0
173
     0
291
     1
 45
0.0
1001
ACAD
1000
AcDbSavedByObjectVersion
1070
     0
  0
VISUALSTYLE
  5
3D4
102
{ACAD_REACTORS
330
3C2
102
}
102
{ACAD_XDICTIONARY
360
837
102
}
330
3C2
100
AcDbVisualStyle
  2
OverhangOff
 70
    21
 71
     2
 72
     2
 73
     0
 90
        0
 40
0.6
 41
30.0
 62
     5
 63
     7
 74
     1
 91
        4
 64
     7
 65
   257
 75
     1
175
     1
 42
1.0
 92
        9
 66
     7
 43
1.0
 76
     1
 77
     6
 78
     2
 67
     7
 79
     5
170
     0
171
     0
290
     0
174
     0
 93
        1
 44
0.0
173
     0
291
     1
 45
0.0
1001
ACAD
1000
AcDbSavedByObjectVersion
1070
     0
  0
VISUALSTYLE
  5
3CB
102
{ACAD_REACTORS
330
3C2
102
}
102
{ACAD_XDICTIONARY
360
825
102
}
330
3C2
100
AcDbVisualStyle
  2
Realistic
 70
     8
 71
     2
 72
     3
 73
     0
 90
        2
 40
0.6
 41
30.0
 62
     5
 63
     7
 74
     0
 91
        0
 64
     7
 65
   257
 75
     1
175
     1
 42
1.0
 92
        8
 66
   257
 43
1.0
 76
     1
 77
     6
 78
     2
 67
     7
 79
     3
170
     0
171
     0
290
     0
174
     0
 93
       13
 44
0.0
173
     0
291
     0
 45
0.0
1001
ACAD
1000
AcDbSavedByObjectVersion
1070
     0
  0
VISUALSTYLE
  5
3DA
102
{ACAD_REACTORS
330
3C2
102
}
102
{ACAD_XDICTIONARY
360
843
102
}
330
3C2
100
AcDbVisualStyle
  2
Shaded
 70
    27
 71
     2
 72
     2
 73
     1
 90
        2
 40
0.6
 41
30.0
 62
     5
 63
     7
 74
     0
 91
        4
 64
     7
 65
   257
 75
     1
175
     1
 42
1.0
 92
        8
 66
   257
 43
1.0
 76
     1
 77
     6
 78
     2
 67
     8
 79
     3
170
     0
171
     0
290
     0
174
     0
 93
        5
 44
0.0
173
     0
291
     0
 45
0.0
1001
ACAD
1000
AcDbSavedByObjectVersion
1070
     0
  0
VISUALSTYLE
  5
3D9
102
{ACAD_REACTORS
330
3C2
102
}
102
{ACAD_XDICTIONARY
360
841
102
}
330
3C2
100
AcDbVisualStyle
  2
Shaded with edges
 70
    26
 71
     2
 72
     2
 73
     1
 90
        2
 40
0.6
 41
30.0
 62
     5
 63
     7
 74
     1
 91
       10
 64
     7
 65
   257
 75
     2
175
     1
 42
1.0
 92
        8
 66
   257
 43
1.0
 76
     1
 77
     6
 78
     2
 67
     7
 79
     3
170
     0
171
     0
290
     0
174
     0
 93
        5
 44
0.0
173
     0
291
     0
 45
0.0
1001
ACAD
1000
AcDbSavedByObjectVersion
1070
     0
  0
VISUALSTYLE
  5
3D6
102
{ACAD_REACTORS
330
3C2
102
}
102
{ACAD_XDICTIONARY
360
83B
102
}
330
3C2
100
AcDbVisualStyle
  2
Shades of Gray
 70
    23
 71
     2
 72
     2
 73
     3
 90
        0
 40
0.6
 41
30.0
 62
     5
 63
     7
 74
     2
 91
        2
 64
     7
 65
     7
 75
     1
175
     1
 42
40.0
 92
        8
 66
     7
 43
1.0
 76
     1
 77
     6
 78
     2
 67
     7
 79
     3
170
     0
171
     0
290
     0
174
     0
 93
        1
 44
0.0
173
     0
291
     0
 45
0.0
1001
ACAD
1000
AcDbSavedByObjectVersion
1070
     0
  0
VISUALSTYLE
  5
3D7
102
{ACAD_REACTORS
330
3C2
102
}
102
{ACAD_XDICTIONARY
360
83D
102
}
330
3C2
100
AcDbVisualStyle
  2
Sketchy
 70
    24
 71
     1
 72
     2
 73
     2
 90
        0
 40
0.6
 41
30.0
 62
     5
 63
     7
 74
     2
 91
        2
 64
     7
 65
     7
 75
     1
175
     1
 42
40.0
 92
       11
 66
     7
 43
1.0
 76
     1
 77
     6
 78
     2
 67
     7
 79
     6
170
     0
171
     0
290
     0
174
     0
 93
        1
 44
0.0
173
     0
291
     0
 45
0.0
1001
ACAD
1000
AcDbSavedByObjectVersion
1070
     0
  0
VISUALSTYLE
  5
3CF
102
{ACAD_REACTORS
330
3C2
102
}
102
{ACAD_XDICTIONARY
360
82D
102
}
330
3C2
100
AcDbVisualStyle
  2
Thicken
 70
    13
 71
     2
 72
     2
 73
     0
 90
        0
 40
0.6
 41
30.0
 62
     5
 63
     7
 74
     1
 91
        4
 64
     7
 65
   257
 75
     1
175
     1
 42
1.0
 92
       12
 66
     7
 43
1.0
 76
     1
 77
     6
 78
     2
 67
     7
 79
     5
170
     0
171
     0
290
     0
174
     0
 93
        1
 44
0.0
173
     0
291
     1
 45
0.0
1001
ACAD
1000
AcDbSavedByObjectVersion
1070
     0
  0
VISUALSTYLE
  5
3C8
102
{ACAD_REACTORS
330
3C2
102
}
102
{ACAD_XDICTIONARY
360
81F
102
}
330
3C2
100
AcDbVisualStyle
  2
Wireframe
 70
     5
 71
     0
 72
     2
 73
     0
 90
        0
 40
0.6
 41
30.0
 62
     5
 63
     7
 74
     1
 91
        4
 64
     7
 65
   257
 75
     1
175
     1
 42
1.0
 92
        0
 66
   257
 43
1.0
 76
     1
 77
     6
 78
     2
 67
     7
 79
     3
170
     0
171
     0
290
     0
174
     0
 93
        1
 44
0.0
173
     0
291
     0
 45
0.0
1001
ACAD
1000
AcDbSavedByObjectVersion
1070
     0
  0
VISUALSTYLE
  5
3D8
102
{ACAD_REACTORS
330
3C2
102
}
102
{ACAD_XDICTIONARY
360
83F
102
}
330
3C2
100
AcDbVisualStyle
  2
X-Ray
 70
    25
 71
     2
 72
     2
 73
     1
 90
        1
 40
0.5
 41
30.0
 62
     5
 63
     7
 74
     1
 91
        0
 64
     7
 65
   257
 75
     1
175
     1
 42
1.0
 92
        8
 66
     7
 43
1.0
 76
     1
 77
     6
 78
     2
 67
     7
 79
     3
170
     0
171
     0
290
     0
174
     0
 93
       13
 44
0.0
173
     0
291
     0
 45
0.0
1001
ACAD
1000
AcDbSavedByObjectVersion
1070
     0
  0
XRECORD
  5
80A
102
{ACAD_REACTORS
330
809
102
}
330
809
100
AcDbXrecord
280
     1
340
387
  0
XRECORD
  5
80B
102
{ACAD_REACTORS
330
809
102
}
330
809
100
AcDbXrecord
280
     1
340
386
  0
DICTIONARYVAR
  5
80E
102
{ACAD_REACTORS
330
357
102
}
330
357
100
DictionaryVariables
280
     0
  1
1:1
  0
DICTIONARYVAR
  5
805
102
{ACAD_REACTORS
330
357
102
}
330
357
100
DictionaryVariables
280
     0
  1
Standard
  0
DICTIONARYVAR
  5
38D
102
{ACAD_REACTORS
330
357
102
}
330
357
100
DictionaryVariables
280
     0
  1
Standard
  0
DICTIONARYVAR
  5
359
102
{ACAD_REACTORS
330
357
102
}
330
357
100
DictionaryVariables
280
     0
  1
2
  0
DICTIONARYVAR
  5
358
102
{ACAD_REACTORS
330
357
102
}
330
357
100
DictionaryVariables
280
     0
  1
1
  0
DICTIONARYVAR
  5
806
102
{ACAD_REACTORS
330
357
102
}
330
357
100
DictionaryVariables
280
     0
  1
0
  0
DICTIONARYVAR
  5
38E
102
{ACAD_REACTORS
330
357
102
}
330
357
100
DictionaryVariables
280
     0
  1

  0
DICTIONARY
  5
811
330
3DC
100
AcDbDictionary
280
     1
281
     1
  3
ACAD_XREC_ROUNDTRIP
360
812
  0
DICTIONARY
  5
80F
330
3DB
100
AcDbDictionary
280
     1
281
     1
  3
ACAD_XREC_ROUNDTRIP
360
810
  0
DICTIONARY
  5
813
330
3DD
100
AcDbDictionary
280
     1
281
     1
  3
ACAD_XREC_ROUNDTRIP
360
814
  0
DICTIONARY
  5
846
330
3DF
100
AcDbDictionary
280
     1
281
     1
  3
ACAD_XREC_ROUNDTRIP
360
847
  0
DICTIONARY
  5
81D
330
3C7
100
AcDbDictionary
280
     1
281
     1
  3
ACAD_XREC_ROUNDTRIP
360
81E
  0
DICTIONARY
  5
823
330
3CA
100
AcDbDictionary
280
     1
281
     1
  3
ACAD_XREC_ROUNDTRIP
360
824
  0
DICTIONARY
  5
82B
330
3CE
100
AcDbDictionary
280
     1
281
     1
  3
ACAD_XREC_ROUNDTRIP
360
82C
  0
DICTIONARY
  5
833
330
3D2
100
AcDbDictionary
280
     1
281
     1
  3
ACAD_XREC_ROUNDTRIP
360
834
  0
DICTIONARY
  5
827
330
3CC
100
AcDbDictionary
280
     1
281
     1
  3
ACAD_XREC_ROUNDTRIP
360
828
  0
DICTIONARY
  5
829
330
3CD
100
AcDbDictionary
280
     1
281
     1
  3
ACAD_XREC_ROUNDTRIP
360
82A
  0
DICTIONARY
  5
839
330
3D5
100
AcDbDictionary
280
     1
281
     1
  3
ACAD_XREC_ROUNDTRIP
360
83A
  0
DICTIONARY
  5
831
330
3D1
100
AcDbDictionary
280
     1
281
     1
  3
ACAD_XREC_ROUNDTRIP
360
832
  0
DICTIONARY
  5
815
330
3C3
100
AcDbDictionary
280
     1
281
     1
  3
ACAD_XREC_ROUNDTRIP
360
816
  0
DICTIONARY
  5
817
330
3C4
100
AcDbDictionary
280
     1
281
     1
  3
ACAD_XREC_ROUNDTRIP
360
818
  0
DICTIONARY
  5
819
330
3C5
100
AcDbDictionary
280
     1
281
     1
  3
ACAD_XREC_ROUNDTRIP
360
81A
  0
DICTIONARY
  5
81B
330
3C6
100
AcDbDictionary
280
     1
281
     1
  3
ACAD_XREC_ROUNDTRIP
360
81C
  0
DICTIONARY
  5
821
330
3C9
100
AcDbDictionary
280
     1
281
     1
  3
ACAD_XREC_ROUNDTRIP
360
822
  0
DICTIONARY
  5
835
330
3D3
100
AcDbDictionary
280
     1
281
     1
  3
ACAD_XREC_ROUNDTRIP
360
836
  0
DICTIONARY
  5
82F
330
3D0
100
AcDbDictionary
280
     1
281
     1
  3
ACAD_XREC_ROUNDTRIP
360
830
  0
DICTIONARY
  5
837
330
3D4
100
AcDbDictionary
280
     1
281
     1
  3
ACAD_XREC_ROUNDTRIP
360
838
  0
DICTIONARY
  5
825
330
3CB
100
AcDbDictionary
280
     1
281
     1
  3
ACAD_XREC_ROUNDTRIP
360
826
  0
DICTIONARY
  5
843
330
3DA
100
AcDbDictionary
280
     1
281
     1
  3
ACAD_XREC_ROUNDTRIP
360
844
  0
DICTIONARY
  5
841
330
3D9
100
AcDbDictionary
280
     1
281
     1
  3
ACAD_XREC_ROUNDTRIP
360
842
  0
DICTIONARY
  5
83B
330
3D6
100
AcDbDictionary
280
     1
281
     1
  3
ACAD_XREC_ROUNDTRIP
360
83C
  0
DICTIONARY
  5
83D
330
3D7
100
AcDbDictionary
280
     1
281
     1
  3
ACAD_XREC_ROUNDTRIP
360
83E
  0
DICTIONARY
  5
82D
330
3CF
100
AcDbDictionary
280
     1
281
     1
  3
ACAD_XREC_ROUNDTRIP
360
82E
  0
DICTIONARY
  5
81F
330
3C8
100
AcDbDictionary
280
     1
281
     1
  3
ACAD_XREC_ROUNDTRIP
360
820
  0
DICTIONARY
  5
83F
330
3D8
100
AcDbDictionary
280
     1
281
     1
  3
ACAD_XREC_ROUNDTRIP
360
840
  0
XRECORD
  5
812
102
{ACAD_REACTORS
330
811
102
}
330
811
100
AcDbXrecord
280
     1
102
MATERIAL
148
0.0
149
0.0
149
0.0
 93
        0
 94
      127
282
     0
 72
     1
 77
     1
171
     1
175
     1
179
     1
273
     0
  0
XRECORD
  5
810
102
{ACAD_REACTORS
330
80F
102
}
330
80F
100
AcDbXrecord
280
     1
102
MATERIAL
148
0.0
149
0.0
149
0.0
 93
        0
 94
      127
282
     0
 72
     1
 77
     1
171
     1
175
     1
179
     1
273
     0
  0
XRECORD
  5
814
102
{ACAD_REACTORS
330
813
102
}
330
813
100
AcDbXrecord
280
     1
102
MATERIAL
148
0.0
149
0.0
149
0.0
 93
        0
 94
      127
282
     0
 72
     1
 77
     1
171
     1
175
     1
179
     1
273
     0
  0
XRECORD
  5
847
102
{ACAD_REACTORS
330
846
102
}
330
846
100
AcDbXrecord
280
     1
102
ACAD_ROUNDTRIP_2010_MLEADER_STYLE
  0
XRECORD
  5
81E
102
{ACAD_REACTORS
330
81D
102
}
330
81D
100
AcDbXrecord
280
     1
102
RTVSPropertyOp0
 70
     1
102
RTVSPropertyOp1
 70
     1
102
RTVSPropertyOp2
 70
     1
102
RTVSPropertyOp3
 70
     1
102
RTVSPropertyOp4
 70
     1
102
RTVSPropertyOp5
 70
     1
102
RTVSPropertyOp6
 70
     1
102
RTVSPropertyOp7
 70
     1
102
RTVSPropertyOp8
 70
     1
102
RTVSPropertyOp9
 70
     1
102
RTVSPropertyOp10
 70
     1
102
RTVSPropertyOp11
 70
     1
102
RTVSPropertyOp12
 70
     1
102
RTVSPropertyOp13
 70
     1
102
RTVSPropertyOp14
 70
     1
102
RTVSPropertyOp15
 70
     1
102
RTVSPropertyOp16
 70
     1
102
RTVSPropertyOp17
 70
     1
102
RTVSPropertyOp18
 70
     1
102
RTVSPropertyOp19
 70
     1
102
RTVSPropertyOp20
 70
     1
102
RTVSPropertyOp21
 70
     1
102
RTVSPropertyOp22
 70
     1
102
RTVSPropertyOp23
 70
     1
102
RTVSPropertyOp24
 70
     1
102
RTVSPropertyOp25
 70
     1
102
RTVSPropertyOp26
 70
     1
102
RTVSPropertyOp27
 70
     1
102
RTVSPropertyOp28
 70
     1
102
RTVSPropertyOp29
 70
     1
102
RTVSPropertyOp30
 70
     1
102
RTVSPropertyOp31
 70
     1
102
RTVSPropertyOp32
 70
     1
102
RTVSPropertyOp33
 70
     1
102
RTVSPropertyOp34
 70
     1
102
RTVSPropertyOp35
 70
     1
102
RTVSPropertyOp36
 70
     1
102
RTVSPropertyOp37
 70
     1
102
RTVSPropertyOp38
 70
     1
102
RTVSPropertyOp39
 70
     1
102
RTVSPropertyOp40
 70
     1
102
RTVSPropertyOp41
 70
     1
102
RTVSPropertyOp42
 70
     1
102
RTVSPropertyOp43
 70
     1
102
RTVSPropertyOp44
 70
     1
102
RTVSPropertyOp45
 70
     1
102
RTVSPropertyOp46
 70
     1
102
RTVSPropertyOp47
 70
     1
102
RTVSPropertyOp48
 70
     1
102
RTVSPropertyOp49
 70
     1
102
RTVSPropertyOp50
 70
     1
102
RTVSPropertyOp51
 70
     0
102
RTVSPropertyOp52
 70
     0
102
RTVSPropertyOp53
 70
     1
102
RTVSPropertyOp54
 70
     1
102
RTVSPropertyOp55
 70
     1
102
RTVSPropertyOp56
 70
     1
102
RTVSPropertyOp57
 70
     1
102
RTVSPost2010Prop28
280
     1
102
RTVSPost2010PropOp28
 70
     1
102
RTVSPost2010Prop29
280
     1
102
RTVSPost2010PropOp29
 70
     1
102
RTVSPost2010Prop30
280
     0
102
RTVSPost2010PropOp30
 70
     1
102
RTVSPost2010Prop31
280
     0
102
RTVSPost2010PropOp31
 70
     1
102
RTVSPost2010Prop32
280
     0
102
RTVSPost2010PropOp32
 70
     1
102
RTVSPost2010Prop33
280
     0
102
RTVSPost2010PropOp33
 70
     1
102
RTVSPost2010Prop34
280
     0
102
RTVSPost2010PropOp34
 70
     1
102
RTVSPost2010Prop35
280
     0
102
RTVSPost2010PropOp35
 70
     1
102
RTVSPost2010Prop36
280
     0
102
RTVSPost2010PropOp36
 70
     1
102
RTVSPost2010Prop37
 90
       50
102
RTVSPost2010PropOp37
 70
     1
102
RTVSPost2010Prop38
140
0.0
102
RTVSPost2010PropOp38
 70
     1
102
RTVSPost2010Prop39
140
1.0
102
RTVSPost2010PropOp39
 70
     1
102
RTVSPost2010Prop40
 90
        0
102
RTVSPost2010PropOp40
 70
     1
102
RTVSPost2010Prop41ColorIndex
 90
       18
102
RTVSPost2010Prop41ColorRGB
 90
        0
102
RTVSPost2010PropOp41
 70
     1
102
RTVSPost2010Prop42
 90
       50
102
RTVSPost2010PropOp42
 70
     1
102
RTVSPost2010Prop43
 90
        3
102
RTVSPost2010PropOp43
 70
     1
102
RTVSPost2010Prop44ColorIndex
 90
        5
102
RTVSPost2010Prop44ColorRGB
 90
      255
102
RTVSPost2010PropOp44
 70
     1
102
RTVSPost2010Prop45
280
     0
102
RTVSPost2010PropOp45
 70
     1
102
RTVSPost2010Prop46
 90
       50
102
RTVSPost2010PropOp46
 70
     1
102
RTVSPost2010Prop47
 90
       50
102
RTVSPost2010PropOp47
 70
     1
102
RTVSPost2010Prop48
 90
       50
102
RTVSPost2010PropOp48
 70
     1
102
RTVSPost2010Prop49
280
     0
102
RTVSPost2010PropOp49
 70
     1
102
RTVSPost2010Prop50
 90
       50
102
RTVSPost2010PropOp50
 70
     1
102
RTVSPost2010Prop51ColorIndex
 90
      256
102
RTVSPost2010Prop51ColorRGB
 90
-16777216
102
RTVSPost2010PropOp51
 70
     0
102
RTVSPost2010Prop52
140
1.0
102
RTVSPost2010PropOp52
 70
     0
102
RTVSPost2010Prop53
 90
        2
102
RTVSPost2010PropOp53
 70
     1
102
RTVSPost2010Prop54
  1
strokes_ogs.tif
102
RTVSPost2010PropOp54
 70
     1
102
RTVSPost2010Prop55
280
     0
102
RTVSPost2010PropOp55
 70
     1
102
RTVSPost2010Prop56
140
1.0
102
RTVSPost2010PropOp56
 70
     1
102
RTVSPost2010Prop57
140
1.0
102
RTVSPost2010PropOp57
 70
     1
  0
XRECORD
  5
824
102
{ACAD_REACTORS
330
823
102
}
330
823
100
AcDbXrecord
280
     1
102
RTVSPropertyOp0
 70
     1
102
RTVSPropertyOp1
 70
     1
102
RTVSPropertyOp2
 70
     1
102
RTVSPropertyOp3
 70
     1
102
RTVSPropertyOp4
 70
     1
102
RTVSPropertyOp5
 70
     1
102
RTVSPropertyOp6
 70
     1
102
RTVSPropertyOp7
 70
     1
102
RTVSPropertyOp8
 70
     1
102
RTVSPropertyOp9
 70
     1
102
RTVSPropertyOp10
 70
     1
102
RTVSPropertyOp11
 70
     1
102
RTVSPropertyOp12
 70
     1
102
RTVSPropertyOp13
 70
     1
102
RTVSPropertyOp14
 70
     1
102
RTVSPropertyOp15
 70
     1
102
RTVSPropertyOp16
 70
     1
102
RTVSPropertyOp17
 70
     1
102
RTVSPropertyOp18
 70
     1
102
RTVSPropertyOp19
 70
     1
102
RTVSPropertyOp20
 70
     1
102
RTVSPropertyOp21
 70
     1
102
RTVSPropertyOp22
 70
     1
102
RTVSPropertyOp23
 70
     1
102
RTVSPropertyOp24
 70
     1
102
RTVSPropertyOp25
 70
     1
102
RTVSPropertyOp26
 70
     1
102
RTVSPropertyOp27
 70
     1
102
RTVSPropertyOp28
 70
     1
102
RTVSPropertyOp29
 70
     1
102
RTVSPropertyOp30
 70
     1
102
RTVSPropertyOp31
 70
     1
102
RTVSPropertyOp32
 70
     1
102
RTVSPropertyOp33
 70
     1
102
RTVSPropertyOp34
 70
     1
102
RTVSPropertyOp35
 70
     1
102
RTVSPropertyOp36
 70
     1
102
RTVSPropertyOp37
 70
     1
102
RTVSPropertyOp38
 70
     1
102
RTVSPropertyOp39
 70
     1
102
RTVSPropertyOp40
 70
     1
102
RTVSPropertyOp41
 70
     1
102
RTVSPropertyOp42
 70
     1
102
RTVSPropertyOp43
 70
     1
102
RTVSPropertyOp44
 70
     1
102
RTVSPropertyOp45
 70
     1
102
RTVSPropertyOp46
 70
     1
102
RTVSPropertyOp47
 70
     1
102
RTVSPropertyOp48
 70
     1
102
RTVSPropertyOp49
 70
     1
102
RTVSPropertyOp50
 70
     1
102
RTVSPropertyOp51
 70
     0
102
RTVSPropertyOp52
 70
     0
102
RTVSPropertyOp53
 70
     1
102
RTVSPropertyOp54
 70
     1
102
RTVSPropertyOp55
 70
     1
102
RTVSPropertyOp56
 70
     1
102
RTVSPropertyOp57
 70
     1
102
RTVSPost2010Prop28
280
     0
102
RTVSPost2010PropOp28
 70
     1
102
RTVSPost2010Prop29
280
     1
102
RTVSPost2010PropOp29
 70
     1
102
RTVSPost2010Prop30
280
     1
102
RTVSPost2010PropOp30
 70
     1
102
RTVSPost2010Prop31
280
     0
102
RTVSPost2010PropOp31
 70
     1
102
RTVSPost2010Prop32
280
     0
102
RTVSPost2010PropOp32
 70
     1
102
RTVSPost2010Prop33
280
     0
102
RTVSPost2010PropOp33
 70
     1
102
RTVSPost2010Prop34
280
     0
102
RTVSPost2010PropOp34
 70
     1
102
RTVSPost2010Prop35
280
     0
102
RTVSPost2010PropOp35
 70
     1
102
RTVSPost2010Prop36
280
     0
102
RTVSPost2010PropOp36
 70
     1
102
RTVSPost2010Prop37
 90
       50
102
RTVSPost2010PropOp37
 70
     1
102
RTVSPost2010Prop38
140
0.0
102
RTVSPost2010PropOp38
 70
     1
102
RTVSPost2010Prop39
140
1.0
102
RTVSPost2010PropOp39
 70
     1
102
RTVSPost2010Prop40
 90
        0
102
RTVSPost2010PropOp40
 70
     1
102
RTVSPost2010Prop41ColorIndex
 90
       18
102
RTVSPost2010Prop41ColorRGB
 90
        0
102
RTVSPost2010PropOp41
 70
     1
102
RTVSPost2010Prop42
 90
       50
102
RTVSPost2010PropOp42
 70
     1
102
RTVSPost2010Prop43
 90
        3
102
RTVSPost2010PropOp43
 70
     1
102
RTVSPost2010Prop44ColorIndex
 90
        5
102
RTVSPost2010Prop44ColorRGB
 90
      255
102
RTVSPost2010PropOp44
 70
     1
102
RTVSPost2010Prop45
280
     0
102
RTVSPost2010PropOp45
 70
     1
102
RTVSPost2010Prop46
 90
       50
102
RTVSPost2010PropOp46
 70
     1
102
RTVSPost2010Prop47
 90
       50
102
RTVSPost2010PropOp47
 70
     1
102
RTVSPost2010Prop48
 90
       50
102
RTVSPost2010PropOp48
 70
     1
102
RTVSPost2010Prop49
280
     0
102
RTVSPost2010PropOp49
 70
     1
102
RTVSPost2010Prop50
 90
       50
102
RTVSPost2010PropOp50
 70
     1
102
RTVSPost2010Prop51ColorIndex
 90
      256
102
RTVSPost2010Prop51ColorRGB
 90
-16777216
102
RTVSPost2010PropOp51
 70
     0
102
RTVSPost2010Prop52
140
1.0
102
RTVSPost2010PropOp52
 70
     0
102
RTVSPost2010Prop53
 90
        2
102
RTVSPost2010PropOp53
 70
     1
102
RTVSPost2010Prop54
  1
strokes_ogs.tif
102
RTVSPost2010PropOp54
 70
     1
102
RTVSPost2010Prop55
280
     0
102
RTVSPost2010PropOp55
 70
     1
102
RTVSPost2010Prop56
140
1.0
102
RTVSPost2010PropOp56
 70
     1
102
RTVSPost2010Prop57
140
1.0
102
RTVSPost2010PropOp57
 70
     1
  0
XRECORD
  5
82C
102
{ACAD_REACTORS
330
82B
102
}
330
82B
100
AcDbXrecord
280
     1
102
RTVSPropertyOp0
 70
     1
102
RTVSPropertyOp1
 70
     1
102
RTVSPropertyOp2
 70
     1
102
RTVSPropertyOp3
 70
     1
102
RTVSPropertyOp4
 70
     1
102
RTVSPropertyOp5
 70
     1
102
RTVSPropertyOp6
 70
     1
102
RTVSPropertyOp7
 70
     1
102
RTVSPropertyOp8
 70
     1
102
RTVSPropertyOp9
 70
     1
102
RTVSPropertyOp10
 70
     1
102
RTVSPropertyOp11
 70
     1
102
RTVSPropertyOp12
 70
     1
102
RTVSPropertyOp13
 70
     1
102
RTVSPropertyOp14
 70
     1
102
RTVSPropertyOp15
 70
     1
102
RTVSPropertyOp16
 70
     1
102
RTVSPropertyOp17
 70
     1
102
RTVSPropertyOp18
 70
     1
102
RTVSPropertyOp19
 70
     1
102
RTVSPropertyOp20
 70
     1
102
RTVSPropertyOp21
 70
     1
102
RTVSPropertyOp22
 70
     1
102
RTVSPropertyOp23
 70
     1
102
RTVSPropertyOp24
 70
     1
102
RTVSPropertyOp25
 70
     1
102
RTVSPropertyOp26
 70
     1
102
RTVSPropertyOp27
 70
     1
102
RTVSPropertyOp28
 70
     1
102
RTVSPropertyOp29
 70
     1
102
RTVSPropertyOp30
 70
     1
102
RTVSPropertyOp31
 70
     1
102
RTVSPropertyOp32
 70
     1
102
RTVSPropertyOp33
 70
     1
102
RTVSPropertyOp34
 70
     1
102
RTVSPropertyOp35
 70
     1
102
RTVSPropertyOp36
 70
     1
102
RTVSPropertyOp37
 70
     1
102
RTVSPropertyOp38
 70
     1
102
RTVSPropertyOp39
 70
     1
102
RTVSPropertyOp40
 70
     1
102
RTVSPropertyOp41
 70
     1
102
RTVSPropertyOp42
 70
     1
102
RTVSPropertyOp43
 70
     1
102
RTVSPropertyOp44
 70
     1
102
RTVSPropertyOp45
 70
     1
102
RTVSPropertyOp46
 70
     1
102
RTVSPropertyOp47
 70
     1
102
RTVSPropertyOp48
 70
     1
102
RTVSPropertyOp49
 70
     1
102
RTVSPropertyOp50
 70
     1
102
RTVSPropertyOp51
 70
     0
102
RTVSPropertyOp52
 70
     0
102
RTVSPropertyOp53
 70
     1
102
RTVSPropertyOp54
 70
     1
102
RTVSPropertyOp55
 70
     1
102
RTVSPropertyOp56
 70
     1
102
RTVSPropertyOp57
 70
     1
102
RTVSPost2010Prop28
280
     0
102
RTVSPost2010PropOp28
 70
     1
102
RTVSPost2010Prop29
280
     1
102
RTVSPost2010PropOp29
 70
     1
102
RTVSPost2010Prop30
280
     1
102
RTVSPost2010PropOp30
 70
     1
102
RTVSPost2010Prop31
280
     0
102
RTVSPost2010PropOp31
 70
     1
102
RTVSPost2010Prop32
280
     0
102
RTVSPost2010PropOp32
 70
     1
102
RTVSPost2010Prop33
280
     0
102
RTVSPost2010PropOp33
 70
     1
102
RTVSPost2010Prop34
280
     0
102
RTVSPost2010PropOp34
 70
     1
102
RTVSPost2010Prop35
280
     0
102
RTVSPost2010PropOp35
 70
     1
102
RTVSPost2010Prop36
280
     0
102
RTVSPost2010PropOp36
 70
     1
102
RTVSPost2010Prop37
 90
       50
102
RTVSPost2010PropOp37
 70
     1
102
RTVSPost2010Prop38
140
0.0
102
RTVSPost2010PropOp38
 70
     1
102
RTVSPost2010Prop39
140
1.0
102
RTVSPost2010PropOp39
 70
     1
102
RTVSPost2010Prop40
 90
        0
102
RTVSPost2010PropOp40
 70
     1
102
RTVSPost2010Prop41ColorIndex
 90
       18
102
RTVSPost2010Prop41ColorRGB
 90
        0
102
RTVSPost2010PropOp41
 70
     1
102
RTVSPost2010Prop42
 90
       50
102
RTVSPost2010PropOp42
 70
     1
102
RTVSPost2010Prop43
 90
        3
102
RTVSPost2010PropOp43
 70
     1
102
RTVSPost2010Prop44ColorIndex
 90
        5
102
RTVSPost2010Prop44ColorRGB
 90
      255
102
RTVSPost2010PropOp44
 70
     1
102
RTVSPost2010Prop45
280
     0
102
RTVSPost2010PropOp45
 70
     1
102
RTVSPost2010Prop46
 90
       50
102
RTVSPost2010PropOp46
 70
     1
102
RTVSPost2010Prop47
 90
       50
102
RTVSPost2010PropOp47
 70
     1
102
RTVSPost2010Prop48
 90
       50
102
RTVSPost2010PropOp48
 70
     1
102
RTVSPost2010Prop49
280
     0
102
RTVSPost2010PropOp49
 70
     1
102
RTVSPost2010Prop50
 90
       50
102
RTVSPost2010PropOp50
 70
     1
102
RTVSPost2010Prop51ColorIndex
 90
      256
102
RTVSPost2010Prop51ColorRGB
 90
-16777216
102
RTVSPost2010PropOp51
 70
     0
102
RTVSPost2010Prop52
140
1.0
102
RTVSPost2010PropOp52
 70
     0
102
RTVSPost2010Prop53
 90
        2
102
RTVSPost2010PropOp53
 70
     1
102
RTVSPost2010Prop54
  1
strokes_ogs.tif
102
RTVSPost2010PropOp54
 70
     1
102
RTVSPost2010Prop55
280
     0
102
RTVSPost2010PropOp55
 70
     1
102
RTVSPost2010Prop56
140
1.0
102
RTVSPost2010PropOp56
 70
     1
102
RTVSPost2010Prop57
140
1.0
102
RTVSPost2010PropOp57
 70
     1
  0
XRECORD
  5
834
102
{ACAD_REACTORS
330
833
102
}
330
833
100
AcDbXrecord
280
     1
102
RTVSPropertyOp0
 70
     1
102
RTVSPropertyOp1
 70
     1
102
RTVSPropertyOp2
 70
     1
102
RTVSPropertyOp3
 70
     1
102
RTVSPropertyOp4
 70
     1
102
RTVSPropertyOp5
 70
     1
102
RTVSPropertyOp6
 70
     1
102
RTVSPropertyOp7
 70
     1
102
RTVSPropertyOp8
 70
     1
102
RTVSPropertyOp9
 70
     1
102
RTVSPropertyOp10
 70
     1
102
RTVSPropertyOp11
 70
     1
102
RTVSPropertyOp12
 70
     1
102
RTVSPropertyOp13
 70
     1
102
RTVSPropertyOp14
 70
     1
102
RTVSPropertyOp15
 70
     1
102
RTVSPropertyOp16
 70
     1
102
RTVSPropertyOp17
 70
     1
102
RTVSPropertyOp18
 70
     1
102
RTVSPropertyOp19
 70
     1
102
RTVSPropertyOp20
 70
     1
102
RTVSPropertyOp21
 70
     1
102
RTVSPropertyOp22
 70
     1
102
RTVSPropertyOp23
 70
     1
102
RTVSPropertyOp24
 70
     1
102
RTVSPropertyOp25
 70
     1
102
RTVSPropertyOp26
 70
     1
102
RTVSPropertyOp27
 70
     1
102
RTVSPropertyOp28
 70
     1
102
RTVSPropertyOp29
 70
     1
102
RTVSPropertyOp30
 70
     1
102
RTVSPropertyOp31
 70
     1
102
RTVSPropertyOp32
 70
     1
102
RTVSPropertyOp33
 70
     1
102
RTVSPropertyOp34
 70
     1
102
RTVSPropertyOp35
 70
     1
102
RTVSPropertyOp36
 70
     1
102
RTVSPropertyOp37
 70
     1
102
RTVSPropertyOp38
 70
     1
102
RTVSPropertyOp39
 70
     1
102
RTVSPropertyOp40
 70
     1
102
RTVSPropertyOp41
 70
     1
102
RTVSPropertyOp42
 70
     1
102
RTVSPropertyOp43
 70
     1
102
RTVSPropertyOp44
 70
     1
102
RTVSPropertyOp45
 70
     1
102
RTVSPropertyOp46
 70
     1
102
RTVSPropertyOp47
 70
     1
102
RTVSPropertyOp48
 70
     1
102
RTVSPropertyOp49
 70
     1
102
RTVSPropertyOp50
 70
     1
102
RTVSPropertyOp51
 70
     0
102
RTVSPropertyOp52
 70
     0
102
RTVSPropertyOp53
 70
     1
102
RTVSPropertyOp54
 70
     1
102
RTVSPropertyOp55
 70
     1
102
RTVSPropertyOp56
 70
     1
102
RTVSPropertyOp57
 70
     1
102
RTVSPost2010Prop28
280
     0
102
RTVSPost2010PropOp28
 70
     1
102
RTVSPost2010Prop29
280
     1
102
RTVSPost2010PropOp29
 70
     1
102
RTVSPost2010Prop30
280
     1
102
RTVSPost2010PropOp30
 70
     1
102
RTVSPost2010Prop31
280
     0
102
RTVSPost2010PropOp31
 70
     1
102
RTVSPost2010Prop32
280
     0
102
RTVSPost2010PropOp32
 70
     1
102
RTVSPost2010Prop33
280
     0
102
RTVSPost2010PropOp33
 70
     1
102
RTVSPost2010Prop34
280
     0
102
RTVSPost2010PropOp34
 70
     1
102
RTVSPost2010Prop35
280
     0
102
RTVSPost2010PropOp35
 70
     1
102
RTVSPost2010Prop36
280
     0
102
RTVSPost2010PropOp36
 70
     1
102
RTVSPost2010Prop37
 90
       50
102
RTVSPost2010PropOp37
 70
     1
102
RTVSPost2010Prop38
140
0.0
102
RTVSPost2010PropOp38
 70
     1
102
RTVSPost2010Prop39
140
1.0
102
RTVSPost2010PropOp39
 70
     1
102
RTVSPost2010Prop40
 90
        0
102
RTVSPost2010PropOp40
 70
     1
102
RTVSPost2010Prop41ColorIndex
 90
       18
102
RTVSPost2010Prop41ColorRGB
 90
        0
102
RTVSPost2010PropOp41
 70
     1
102
RTVSPost2010Prop42
 90
       50
102
RTVSPost2010PropOp42
 70
     1
102
RTVSPost2010Prop43
 90
        3
102
RTVSPost2010PropOp43
 70
     1
102
RTVSPost2010Prop44ColorIndex
 90
        5
102
RTVSPost2010Prop44ColorRGB
 90
      255
102
RTVSPost2010PropOp44
 70
     1
102
RTVSPost2010Prop45
280
     0
102
RTVSPost2010PropOp45
 70
     1
102
RTVSPost2010Prop46
 90
       50
102
RTVSPost2010PropOp46
 70
     1
102
RTVSPost2010Prop47
 90
       50
102
RTVSPost2010PropOp47
 70
     1
102
RTVSPost2010Prop48
 90
       50
102
RTVSPost2010PropOp48
 70
     1
102
RTVSPost2010Prop49
280
     0
102
RTVSPost2010PropOp49
 70
     1
102
RTVSPost2010Prop50
 90
       50
102
RTVSPost2010PropOp50
 70
     1
102
RTVSPost2010Prop51ColorIndex
 90
      256
102
RTVSPost2010Prop51ColorRGB
 90
-16777216
102
RTVSPost2010PropOp51
 70
     0
102
RTVSPost2010Prop52
140
1.0
102
RTVSPost2010PropOp52
 70
     0
102
RTVSPost2010Prop53
 90
        2
102
RTVSPost2010PropOp53
 70
     1
102
RTVSPost2010Prop54
  1
strokes_ogs.tif
102
RTVSPost2010PropOp54
 70
     1
102
RTVSPost2010Prop55
280
     0
102
RTVSPost2010PropOp55
 70
     1
102
RTVSPost2010Prop56
140
1.0
102
RTVSPost2010PropOp56
 70
     1
102
RTVSPost2010Prop57
140
1.0
102
RTVSPost2010PropOp57
 70
     1
  0
XRECORD
  5
828
102
{ACAD_REACTORS
330
827
102
}
330
827
100
AcDbXrecord
280
     1
102
RTVSPropertyOp0
 70
     1
102
RTVSPropertyOp1
 70
     1
102
RTVSPropertyOp2
 70
     1
102
RTVSPropertyOp3
 70
     1
102
RTVSPropertyOp4
 70
     1
102
RTVSPropertyOp5
 70
     1
102
RTVSPropertyOp6
 70
     1
102
RTVSPropertyOp7
 70
     1
102
RTVSPropertyOp8
 70
     1
102
RTVSPropertyOp9
 70
     1
102
RTVSPropertyOp10
 70
     1
102
RTVSPropertyOp11
 70
     1
102
RTVSPropertyOp12
 70
     1
102
RTVSPropertyOp13
 70
     1
102
RTVSPropertyOp14
 70
     1
102
RTVSPropertyOp15
 70
     1
102
RTVSPropertyOp16
 70
     1
102
RTVSPropertyOp17
 70
     1
102
RTVSPropertyOp18
 70
     1
102
RTVSPropertyOp19
 70
     1
102
RTVSPropertyOp20
 70
     1
102
RTVSPropertyOp21
 70
     1
102
RTVSPropertyOp22
 70
     1
102
RTVSPropertyOp23
 70
     1
102
RTVSPropertyOp24
 70
     1
102
RTVSPropertyOp25
 70
     1
102
RTVSPropertyOp26
 70
     1
102
RTVSPropertyOp27
 70
     1
102
RTVSPropertyOp28
 70
     1
102
RTVSPropertyOp29
 70
     1
102
RTVSPropertyOp30
 70
     1
102
RTVSPropertyOp31
 70
     1
102
RTVSPropertyOp32
 70
     1
102
RTVSPropertyOp33
 70
     1
102
RTVSPropertyOp34
 70
     1
102
RTVSPropertyOp35
 70
     1
102
RTVSPropertyOp36
 70
     1
102
RTVSPropertyOp37
 70
     1
102
RTVSPropertyOp38
 70
     1
102
RTVSPropertyOp39
 70
     1
102
RTVSPropertyOp40
 70
     1
102
RTVSPropertyOp41
 70
     1
102
RTVSPropertyOp42
 70
     1
102
RTVSPropertyOp43
 70
     1
102
RTVSPropertyOp44
 70
     1
102
RTVSPropertyOp45
 70
     1
102
RTVSPropertyOp46
 70
     1
102
RTVSPropertyOp47
 70
     1
102
RTVSPropertyOp48
 70
     1
102
RTVSPropertyOp49
 70
     1
102
RTVSPropertyOp50
 70
     1
102
RTVSPropertyOp51
 70
     0
102
RTVSPropertyOp52
 70
     0
102
RTVSPropertyOp53
 70
     1
102
RTVSPropertyOp54
 70
     1
102
RTVSPropertyOp55
 70
     1
102
RTVSPropertyOp56
 70
     1
102
RTVSPropertyOp57
 70
     1
102
RTVSPost2010Prop28
280
     0
102
RTVSPost2010PropOp28
 70
     1
102
RTVSPost2010Prop29
280
     1
102
RTVSPost2010PropOp29
 70
     1
102
RTVSPost2010Prop30
280
     1
102
RTVSPost2010PropOp30
 70
     1
102
RTVSPost2010Prop31
280
     0
102
RTVSPost2010PropOp31
 70
     1
102
RTVSPost2010Prop32
280
     0
102
RTVSPost2010PropOp32
 70
     1
102
RTVSPost2010Prop33
280
     0
102
RTVSPost2010PropOp33
 70
     1
102
RTVSPost2010Prop34
280
     0
102
RTVSPost2010PropOp34
 70
     1
102
RTVSPost2010Prop35
280
     0
102
RTVSPost2010PropOp35
 70
     1
102
RTVSPost2010Prop36
280
     0
102
RTVSPost2010PropOp36
 70
     1
102
RTVSPost2010Prop37
 90
       50
102
RTVSPost2010PropOp37
 70
     1
102
RTVSPost2010Prop38
140
0.0
102
RTVSPost2010PropOp38
 70
     1
102
RTVSPost2010Prop39
140
1.0
102
RTVSPost2010PropOp39
 70
     1
102
RTVSPost2010Prop40
 90
        0
102
RTVSPost2010PropOp40
 70
     1
102
RTVSPost2010Prop41ColorIndex
 90
       18
102
RTVSPost2010Prop41ColorRGB
 90
        0
102
RTVSPost2010PropOp41
 70
     1
102
RTVSPost2010Prop42
 90
       50
102
RTVSPost2010PropOp42
 70
     1
102
RTVSPost2010Prop43
 90
        3
102
RTVSPost2010PropOp43
 70
     1
102
RTVSPost2010Prop44ColorIndex
 90
        5
102
RTVSPost2010Prop44ColorRGB
 90
      255
102
RTVSPost2010PropOp44
 70
     1
102
RTVSPost2010Prop45
280
     0
102
RTVSPost2010PropOp45
 70
     1
102
RTVSPost2010Prop46
 90
       50
102
RTVSPost2010PropOp46
 70
     1
102
RTVSPost2010Prop47
 90
       50
102
RTVSPost2010PropOp47
 70
     1
102
RTVSPost2010Prop48
 90
       50
102
RTVSPost2010PropOp48
 70
     1
102
RTVSPost2010Prop49
280
     0
102
RTVSPost2010PropOp49
 70
     1
102
RTVSPost2010Prop50
 90
       50
102
RTVSPost2010PropOp50
 70
     1
102
RTVSPost2010Prop51ColorIndex
 90
      256
102
RTVSPost2010Prop51ColorRGB
 90
-16777216
102
RTVSPost2010PropOp51
 70
     0
102
RTVSPost2010Prop52
140
1.0
102
RTVSPost2010PropOp52
 70
     0
102
RTVSPost2010Prop53
 90
        2
102
RTVSPost2010PropOp53
 70
     1
102
RTVSPost2010Prop54
  1
strokes_ogs.tif
102
RTVSPost2010PropOp54
 70
     1
102
RTVSPost2010Prop55
280
     0
102
RTVSPost2010PropOp55
 70
     1
102
RTVSPost2010Prop56
140
1.0
102
RTVSPost2010PropOp56
 70
     1
102
RTVSPost2010Prop57
140
1.0
102
RTVSPost2010PropOp57
 70
     1
  0
XRECORD
  5
82A
102
{ACAD_REACTORS
330
829
102
}
330
829
100
AcDbXrecord
280
     1
102
RTVSPropertyOp0
 70
     1
102
RTVSPropertyOp1
 70
     1
102
RTVSPropertyOp2
 70
     1
102
RTVSPropertyOp3
 70
     1
102
RTVSPropertyOp4
 70
     1
102
RTVSPropertyOp5
 70
     1
102
RTVSPropertyOp6
 70
     1
102
RTVSPropertyOp7
 70
     1
102
RTVSPropertyOp8
 70
     1
102
RTVSPropertyOp9
 70
     1
102
RTVSPropertyOp10
 70
     1
102
RTVSPropertyOp11
 70
     1
102
RTVSPropertyOp12
 70
     1
102
RTVSPropertyOp13
 70
     1
102
RTVSPropertyOp14
 70
     1
102
RTVSPropertyOp15
 70
     1
102
RTVSPropertyOp16
 70
     1
102
RTVSPropertyOp17
 70
     1
102
RTVSPropertyOp18
 70
     1
102
RTVSPropertyOp19
 70
     1
102
RTVSPropertyOp20
 70
     1
102
RTVSPropertyOp21
 70
     1
102
RTVSPropertyOp22
 70
     1
102
RTVSPropertyOp23
 70
     1
102
RTVSPropertyOp24
 70
     1
102
RTVSPropertyOp25
 70
     1
102
RTVSPropertyOp26
 70
     1
102
RTVSPropertyOp27
 70
     1
102
RTVSPropertyOp28
 70
     1
102
RTVSPropertyOp29
 70
     1
102
RTVSPropertyOp30
 70
     1
102
RTVSPropertyOp31
 70
     1
102
RTVSPropertyOp32
 70
     1
102
RTVSPropertyOp33
 70
     1
102
RTVSPropertyOp34
 70
     1
102
RTVSPropertyOp35
 70
     1
102
RTVSPropertyOp36
 70
     1
102
RTVSPropertyOp37
 70
     1
102
RTVSPropertyOp38
 70
     1
102
RTVSPropertyOp39
 70
     1
102
RTVSPropertyOp40
 70
     1
102
RTVSPropertyOp41
 70
     1
102
RTVSPropertyOp42
 70
     1
102
RTVSPropertyOp43
 70
     1
102
RTVSPropertyOp44
 70
     1
102
RTVSPropertyOp45
 70
     1
102
RTVSPropertyOp46
 70
     1
102
RTVSPropertyOp47
 70
     1
102
RTVSPropertyOp48
 70
     1
102
RTVSPropertyOp49
 70
     1
102
RTVSPropertyOp50
 70
     1
102
RTVSPropertyOp51
 70
     0
102
RTVSPropertyOp52
 70
     0
102
RTVSPropertyOp53
 70
     1
102
RTVSPropertyOp54
 70
     1
102
RTVSPropertyOp55
 70
     1
102
RTVSPropertyOp56
 70
     1
102
RTVSPropertyOp57
 70
     1
102
RTVSPost2010Prop28
280
     0
102
RTVSPost2010PropOp28
 70
     1
102
RTVSPost2010Prop29
280
     1
102
RTVSPost2010PropOp29
 70
     1
102
RTVSPost2010Prop30
280
     1
102
RTVSPost2010PropOp30
 70
     1
102
RTVSPost2010Prop31
280
     0
102
RTVSPost2010PropOp31
 70
     1
102
RTVSPost2010Prop32
280
     0
102
RTVSPost2010PropOp32
 70
     1
102
RTVSPost2010Prop33
280
     0
102
RTVSPost2010PropOp33
 70
     1
102
RTVSPost2010Prop34
280
     0
102
RTVSPost2010PropOp34
 70
     1
102
RTVSPost2010Prop35
280
     0
102
RTVSPost2010PropOp35
 70
     1
102
RTVSPost2010Prop36
280
     0
102
RTVSPost2010PropOp36
 70
     1
102
RTVSPost2010Prop37
 90
       50
102
RTVSPost2010PropOp37
 70
     1
102
RTVSPost2010Prop38
140
0.0
102
RTVSPost2010PropOp38
 70
     1
102
RTVSPost2010Prop39
140
1.0
102
RTVSPost2010PropOp39
 70
     1
102
RTVSPost2010Prop40
 90
        0
102
RTVSPost2010PropOp40
 70
     1
102
RTVSPost2010Prop41ColorIndex
 90
       18
102
RTVSPost2010Prop41ColorRGB
 90
        0
102
RTVSPost2010PropOp41
 70
     1
102
RTVSPost2010Prop42
 90
       50
102
RTVSPost2010PropOp42
 70
     1
102
RTVSPost2010Prop43
 90
        3
102
RTVSPost2010PropOp43
 70
     1
102
RTVSPost2010Prop44ColorIndex
 90
        5
102
RTVSPost2010Prop44ColorRGB
 90
      255
102
RTVSPost2010PropOp44
 70
     1
102
RTVSPost2010Prop45
280
     0
102
RTVSPost2010PropOp45
 70
     1
102
RTVSPost2010Prop46
 90
       50
102
RTVSPost2010PropOp46
 70
     1
102
RTVSPost2010Prop47
 90
       50
102
RTVSPost2010PropOp47
 70
     1
102
RTVSPost2010Prop48
 90
       50
102
RTVSPost2010PropOp48
 70
     1
102
RTVSPost2010Prop49
280
     0
102
RTVSPost2010PropOp49
 70
     1
102
RTVSPost2010Prop50
 90
       50
102
RTVSPost2010PropOp50
 70
     1
102
RTVSPost2010Prop51ColorIndex
 90
      256
102
RTVSPost2010Prop51ColorRGB
 90
-16777216
102
RTVSPost2010PropOp51
 70
     0
102
RTVSPost2010Prop52
140
1.0
102
RTVSPost2010PropOp52
 70
     0
102
RTVSPost2010Prop53
 90
        2
102
RTVSPost2010PropOp53
 70
     1
102
RTVSPost2010Prop54
  1
strokes_ogs.tif
102
RTVSPost2010PropOp54
 70
     1
102
RTVSPost2010Prop55
280
     0
102
RTVSPost2010PropOp55
 70
     1
102
RTVSPost2010Prop56
140
1.0
102
RTVSPost2010PropOp56
 70
     1
102
RTVSPost2010Prop57
140
1.0
102
RTVSPost2010PropOp57
 70
     1
  0
XRECORD
  5
83A
102
{ACAD_REACTORS
330
839
102
}
330
839
100
AcDbXrecord
280
     1
102
RTVSPropertyOp0
 70
     0
102
RTVSPropertyOp1
 70
     0
102
RTVSPropertyOp2
 70
     0
102
RTVSPropertyOp3
 70
     0
102
RTVSPropertyOp4
 70
     0
102
RTVSPropertyOp5
 70
     0
102
RTVSPropertyOp6
 70
     0
102
RTVSPropertyOp7
 70
     0
102
RTVSPropertyOp8
 70
     0
102
RTVSPropertyOp9
 70
     0
102
RTVSPropertyOp10
 70
     0
102
RTVSPropertyOp11
 70
     0
102
RTVSPropertyOp12
 70
     0
102
RTVSPropertyOp13
 70
     0
102
RTVSPropertyOp14
 70
     2
102
RTVSPropertyOp15
 70
     0
102
RTVSPropertyOp16
 70
     0
102
RTVSPropertyOp17
 70
     0
102
RTVSPropertyOp18
 70
     0
102
RTVSPropertyOp19
 70
     0
102
RTVSPropertyOp20
 70
     0
102
RTVSPropertyOp21
 70
     0
102
RTVSPropertyOp22
 70
     0
102
RTVSPropertyOp23
 70
     0
102
RTVSPropertyOp24
 70
     0
102
RTVSPropertyOp25
 70
     0
102
RTVSPropertyOp26
 70
     0
102
RTVSPropertyOp27
 70
     0
102
RTVSPropertyOp28
 70
     0
102
RTVSPropertyOp29
 70
     0
102
RTVSPropertyOp30
 70
     0
102
RTVSPropertyOp31
 70
     0
102
RTVSPropertyOp32
 70
     0
102
RTVSPropertyOp33
 70
     0
102
RTVSPropertyOp34
 70
     0
102
RTVSPropertyOp35
 70
     0
102
RTVSPropertyOp36
 70
     0
102
RTVSPropertyOp37
 70
     0
102
RTVSPropertyOp38
 70
     0
102
RTVSPropertyOp39
 70
     0
102
RTVSPropertyOp40
 70
     0
102
RTVSPropertyOp41
 70
     0
102
RTVSPropertyOp42
 70
     0
102
RTVSPropertyOp43
 70
     0
102
RTVSPropertyOp44
 70
     0
102
RTVSPropertyOp45
 70
     0
102
RTVSPropertyOp46
 70
     0
102
RTVSPropertyOp47
 70
     0
102
RTVSPropertyOp48
 70
     0
102
RTVSPropertyOp49
 70
     0
102
RTVSPropertyOp50
 70
     0
102
RTVSPropertyOp51
 70
     0
102
RTVSPropertyOp52
 70
     0
102
RTVSPropertyOp53
 70
     0
102
RTVSPropertyOp54
 70
     0
102
RTVSPropertyOp55
 70
     0
102
RTVSPropertyOp56
 70
     0
102
RTVSPropertyOp57
 70
     0
102
RTVSPost2010Prop28
280
     0
102
RTVSPost2010PropOp28
 70
     0
102
RTVSPost2010Prop29
280
     1
102
RTVSPost2010PropOp29
 70
     0
102
RTVSPost2010Prop30
280
     1
102
RTVSPost2010PropOp30
 70
     0
102
RTVSPost2010Prop31
280
     0
102
RTVSPost2010PropOp31
 70
     0
102
RTVSPost2010Prop32
280
     0
102
RTVSPost2010PropOp32
 70
     0
102
RTVSPost2010Prop33
280
     0
102
RTVSPost2010PropOp33
 70
     0
102
RTVSPost2010Prop34
280
     0
102
RTVSPost2010PropOp34
 70
     0
102
RTVSPost2010Prop35
280
     0
102
RTVSPost2010PropOp35
 70
     0
102
RTVSPost2010Prop36
280
     0
102
RTVSPost2010PropOp36
 70
     0
102
RTVSPost2010Prop37
 90
       50
102
RTVSPost2010PropOp37
 70
     0
102
RTVSPost2010Prop38
140
0.0
102
RTVSPost2010PropOp38
 70
     0
102
RTVSPost2010Prop39
140
1.0
102
RTVSPost2010PropOp39
 70
     0
102
RTVSPost2010Prop40
 90
        0
102
RTVSPost2010PropOp40
 70
     0
102
RTVSPost2010Prop41ColorIndex
 90
       18
102
RTVSPost2010Prop41ColorRGB
 90
        0
102
RTVSPost2010PropOp41
 70
     0
102
RTVSPost2010Prop42
 90
       50
102
RTVSPost2010PropOp42
 70
     0
102
RTVSPost2010Prop43
 90
        3
102
RTVSPost2010PropOp43
 70
     0
102
RTVSPost2010Prop44ColorIndex
 90
        5
102
RTVSPost2010Prop44ColorRGB
 90
      255
102
RTVSPost2010PropOp44
 70
     0
102
RTVSPost2010Prop45
280
     0
102
RTVSPost2010PropOp45
 70
     0
102
RTVSPost2010Prop46
 90
       50
102
RTVSPost2010PropOp46
 70
     0
102
RTVSPost2010Prop47
 90
       50
102
RTVSPost2010PropOp47
 70
     0
102
RTVSPost2010Prop48
 90
       50
102
RTVSPost2010PropOp48
 70
     0
102
RTVSPost2010Prop49
280
     0
102
RTVSPost2010PropOp49
 70
     0
102
RTVSPost2010Prop50
 90
       50
102
RTVSPost2010PropOp50
 70
     0
102
RTVSPost2010Prop51ColorIndex
 90
      256
102
RTVSPost2010Prop51ColorRGB
 90
-16777216
102
RTVSPost2010PropOp51
 70
     0
102
RTVSPost2010Prop52
140
1.0
102
RTVSPost2010PropOp52
 70
     0
102
RTVSPost2010Prop53
 90
        2
102
RTVSPost2010PropOp53
 70
     0
102
RTVSPost2010Prop54
  1
strokes_ogs.tif
102
RTVSPost2010PropOp54
 70
     0
102
RTVSPost2010Prop55
280
     0
102
RTVSPost2010PropOp55
 70
     0
102
RTVSPost2010Prop56
140
1.0
102
RTVSPost2010PropOp56
 70
     0
102
RTVSPost2010Prop57
140
1.0
102
RTVSPost2010PropOp57
 70
     0
  0
XRECORD
  5
832
102
{ACAD_REACTORS
330
831
102
}
330
831
100
AcDbXrecord
280
     1
102
RTVSPropertyOp0
 70
     1
102
RTVSPropertyOp1
 70
     1
102
RTVSPropertyOp2
 70
     1
102
RTVSPropertyOp3
 70
     1
102
RTVSPropertyOp4
 70
     1
102
RTVSPropertyOp5
 70
     1
102
RTVSPropertyOp6
 70
     1
102
RTVSPropertyOp7
 70
     1
102
RTVSPropertyOp8
 70
     1
102
RTVSPropertyOp9
 70
     1
102
RTVSPropertyOp10
 70
     1
102
RTVSPropertyOp11
 70
     1
102
RTVSPropertyOp12
 70
     1
102
RTVSPropertyOp13
 70
     1
102
RTVSPropertyOp14
 70
     1
102
RTVSPropertyOp15
 70
     1
102
RTVSPropertyOp16
 70
     1
102
RTVSPropertyOp17
 70
     1
102
RTVSPropertyOp18
 70
     1
102
RTVSPropertyOp19
 70
     1
102
RTVSPropertyOp20
 70
     1
102
RTVSPropertyOp21
 70
     1
102
RTVSPropertyOp22
 70
     1
102
RTVSPropertyOp23
 70
     1
102
RTVSPropertyOp24
 70
     1
102
RTVSPropertyOp25
 70
     1
102
RTVSPropertyOp26
 70
     1
102
RTVSPropertyOp27
 70
     1
102
RTVSPropertyOp28
 70
     1
102
RTVSPropertyOp29
 70
     1
102
RTVSPropertyOp30
 70
     1
102
RTVSPropertyOp31
 70
     1
102
RTVSPropertyOp32
 70
     1
102
RTVSPropertyOp33
 70
     1
102
RTVSPropertyOp34
 70
     1
102
RTVSPropertyOp35
 70
     1
102
RTVSPropertyOp36
 70
     1
102
RTVSPropertyOp37
 70
     1
102
RTVSPropertyOp38
 70
     1
102
RTVSPropertyOp39
 70
     1
102
RTVSPropertyOp40
 70
     1
102
RTVSPropertyOp41
 70
     1
102
RTVSPropertyOp42
 70
     1
102
RTVSPropertyOp43
 70
     1
102
RTVSPropertyOp44
 70
     1
102
RTVSPropertyOp45
 70
     1
102
RTVSPropertyOp46
 70
     1
102
RTVSPropertyOp47
 70
     1
102
RTVSPropertyOp48
 70
     1
102
RTVSPropertyOp49
 70
     1
102
RTVSPropertyOp50
 70
     1
102
RTVSPropertyOp51
 70
     0
102
RTVSPropertyOp52
 70
     0
102
RTVSPropertyOp53
 70
     1
102
RTVSPropertyOp54
 70
     1
102
RTVSPropertyOp55
 70
     1
102
RTVSPropertyOp56
 70
     1
102
RTVSPropertyOp57
 70
     1
102
RTVSPost2010Prop28
280
     0
102
RTVSPost2010PropOp28
 70
     1
102
RTVSPost2010Prop29
280
     1
102
RTVSPost2010PropOp29
 70
     1
102
RTVSPost2010Prop30
280
     1
102
RTVSPost2010PropOp30
 70
     1
102
RTVSPost2010Prop31
280
     0
102
RTVSPost2010PropOp31
 70
     1
102
RTVSPost2010Prop32
280
     0
102
RTVSPost2010PropOp32
 70
     1
102
RTVSPost2010Prop33
280
     0
102
RTVSPost2010PropOp33
 70
     1
102
RTVSPost2010Prop34
280
     0
102
RTVSPost2010PropOp34
 70
     1
102
RTVSPost2010Prop35
280
     0
102
RTVSPost2010PropOp35
 70
     1
102
RTVSPost2010Prop36
280
     0
102
RTVSPost2010PropOp36
 70
     1
102
RTVSPost2010Prop37
 90
       50
102
RTVSPost2010PropOp37
 70
     1
102
RTVSPost2010Prop38
140
0.0
102
RTVSPost2010PropOp38
 70
     1
102
RTVSPost2010Prop39
140
1.0
102
RTVSPost2010PropOp39
 70
     1
102
RTVSPost2010Prop40
 90
        0
102
RTVSPost2010PropOp40
 70
     1
102
RTVSPost2010Prop41ColorIndex
 90
       18
102
RTVSPost2010Prop41ColorRGB
 90
        0
102
RTVSPost2010PropOp41
 70
     1
102
RTVSPost2010Prop42
 90
       50
102
RTVSPost2010PropOp42
 70
     1
102
RTVSPost2010Prop43
 90
        3
102
RTVSPost2010PropOp43
 70
     1
102
RTVSPost2010Prop44ColorIndex
 90
        5
102
RTVSPost2010Prop44ColorRGB
 90
      255
102
RTVSPost2010PropOp44
 70
     1
102
RTVSPost2010Prop45
280
     0
102
RTVSPost2010PropOp45
 70
     1
102
RTVSPost2010Prop46
 90
       50
102
RTVSPost2010PropOp46
 70
     1
102
RTVSPost2010Prop47
 90
       50
102
RTVSPost2010PropOp47
 70
     1
102
RTVSPost2010Prop48
 90
       50
102
RTVSPost2010PropOp48
 70
     1
102
RTVSPost2010Prop49
280
     0
102
RTVSPost2010PropOp49
 70
     1
102
RTVSPost2010Prop50
 90
       50
102
RTVSPost2010PropOp50
 70
     1
102
RTVSPost2010Prop51ColorIndex
 90
      256
102
RTVSPost2010Prop51ColorRGB
 90
-16777216
102
RTVSPost2010PropOp51
 70
     0
102
RTVSPost2010Prop52
140
1.0
102
RTVSPost2010PropOp52
 70
     0
102
RTVSPost2010Prop53
 90
        2
102
RTVSPost2010PropOp53
 70
     1
102
RTVSPost2010Prop54
  1
strokes_ogs.tif
102
RTVSPost2010PropOp54
 70
     1
102
RTVSPost2010Prop55
280
     0
102
RTVSPost2010PropOp55
 70
     1
102
RTVSPost2010Prop56
140
1.0
102
RTVSPost2010PropOp56
 70
     1
102
RTVSPost2010Prop57
140
1.0
102
RTVSPost2010PropOp57
 70
     1
  0
XRECORD
  5
816
102
{ACAD_REACTORS
330
815
102
}
330
815
100
AcDbXrecord
280
     1
102
RTVSPropertyOp0
 70
     1
102
RTVSPropertyOp1
 70
     1
102
RTVSPropertyOp2
 70
     1
102
RTVSPropertyOp3
 70
     1
102
RTVSPropertyOp4
 70
     1
102
RTVSPropertyOp5
 70
     1
102
RTVSPropertyOp6
 70
     1
102
RTVSPropertyOp7
 70
     1
102
RTVSPropertyOp8
 70
     1
102
RTVSPropertyOp9
 70
     1
102
RTVSPropertyOp10
 70
     1
102
RTVSPropertyOp11
 70
     1
102
RTVSPropertyOp12
 70
     1
102
RTVSPropertyOp13
 70
     1
102
RTVSPropertyOp14
 70
     1
102
RTVSPropertyOp15
 70
     1
102
RTVSPropertyOp16
 70
     1
102
RTVSPropertyOp17
 70
     1
102
RTVSPropertyOp18
 70
     1
102
RTVSPropertyOp19
 70
     1
102
RTVSPropertyOp20
 70
     1
102
RTVSPropertyOp21
 70
     1
102
RTVSPropertyOp22
 70
     1
102
RTVSPropertyOp23
 70
     1
102
RTVSPropertyOp24
 70
     1
102
RTVSPropertyOp25
 70
     1
102
RTVSPropertyOp26
 70
     1
102
RTVSPropertyOp27
 70
     1
102
RTVSPropertyOp28
 70
     1
102
RTVSPropertyOp29
 70
     1
102
RTVSPropertyOp30
 70
     1
102
RTVSPropertyOp31
 70
     1
102
RTVSPropertyOp32
 70
     1
102
RTVSPropertyOp33
 70
     1
102
RTVSPropertyOp34
 70
     1
102
RTVSPropertyOp35
 70
     1
102
RTVSPropertyOp36
 70
     1
102
RTVSPropertyOp37
 70
     1
102
RTVSPropertyOp38
 70
     1
102
RTVSPropertyOp39
 70
     1
102
RTVSPropertyOp40
 70
     1
102
RTVSPropertyOp41
 70
     1
102
RTVSPropertyOp42
 70
     1
102
RTVSPropertyOp43
 70
     1
102
RTVSPropertyOp44
 70
     1
102
RTVSPropertyOp45
 70
     1
102
RTVSPropertyOp46
 70
     1
102
RTVSPropertyOp47
 70
     1
102
RTVSPropertyOp48
 70
     1
102
RTVSPropertyOp49
 70
     1
102
RTVSPropertyOp50
 70
     1
102
RTVSPropertyOp51
 70
     0
102
RTVSPropertyOp52
 70
     0
102
RTVSPropertyOp53
 70
     1
102
RTVSPropertyOp54
 70
     1
102
RTVSPropertyOp55
 70
     1
102
RTVSPropertyOp56
 70
     1
102
RTVSPropertyOp57
 70
     1
102
RTVSPost2010Prop28
280
     0
102
RTVSPost2010PropOp28
 70
     1
102
RTVSPost2010Prop29
280
     1
102
RTVSPost2010PropOp29
 70
     1
102
RTVSPost2010Prop30
280
     1
102
RTVSPost2010PropOp30
 70
     1
102
RTVSPost2010Prop31
280
     0
102
RTVSPost2010PropOp31
 70
     1
102
RTVSPost2010Prop32
280
     0
102
RTVSPost2010PropOp32
 70
     1
102
RTVSPost2010Prop33
280
     0
102
RTVSPost2010PropOp33
 70
     1
102
RTVSPost2010Prop34
280
     0
102
RTVSPost2010PropOp34
 70
     1
102
RTVSPost2010Prop35
280
     0
102
RTVSPost2010PropOp35
 70
     1
102
RTVSPost2010Prop36
280
     0
102
RTVSPost2010PropOp36
 70
     1
102
RTVSPost2010Prop37
 90
       50
102
RTVSPost2010PropOp37
 70
     1
102
RTVSPost2010Prop38
140
0.0
102
RTVSPost2010PropOp38
 70
     1
102
RTVSPost2010Prop39
140
1.0
102
RTVSPost2010PropOp39
 70
     1
102
RTVSPost2010Prop40
 90
        0
102
RTVSPost2010PropOp40
 70
     1
102
RTVSPost2010Prop41ColorIndex
 90
       18
102
RTVSPost2010Prop41ColorRGB
 90
        0
102
RTVSPost2010PropOp41
 70
     1
102
RTVSPost2010Prop42
 90
       50
102
RTVSPost2010PropOp42
 70
     1
102
RTVSPost2010Prop43
 90
        3
102
RTVSPost2010PropOp43
 70
     1
102
RTVSPost2010Prop44ColorIndex
 90
        5
102
RTVSPost2010Prop44ColorRGB
 90
      255
102
RTVSPost2010PropOp44
 70
     1
102
RTVSPost2010Prop45
280
     0
102
RTVSPost2010PropOp45
 70
     1
102
RTVSPost2010Prop46
 90
       50
102
RTVSPost2010PropOp46
 70
     1
102
RTVSPost2010Prop47
 90
       50
102
RTVSPost2010PropOp47
 70
     1
102
RTVSPost2010Prop48
 90
       50
102
RTVSPost2010PropOp48
 70
     1
102
RTVSPost2010Prop49
280
     0
102
RTVSPost2010PropOp49
 70
     1
102
RTVSPost2010Prop50
 90
       50
102
RTVSPost2010PropOp50
 70
     1
102
RTVSPost2010Prop51ColorIndex
 90
      256
102
RTVSPost2010Prop51ColorRGB
 90
-16777216
102
RTVSPost2010PropOp51
 70
     0
102
RTVSPost2010Prop52
140
1.0
102
RTVSPost2010PropOp52
 70
     0
102
RTVSPost2010Prop53
 90
        2
102
RTVSPost2010PropOp53
 70
     1
102
RTVSPost2010Prop54
  1
strokes_ogs.tif
102
RTVSPost2010PropOp54
 70
     1
102
RTVSPost2010Prop55
280
     0
102
RTVSPost2010PropOp55
 70
     1
102
RTVSPost2010Prop56
140
1.0
102
RTVSPost2010PropOp56
 70
     1
102
RTVSPost2010Prop57
140
1.0
102
RTVSPost2010PropOp57
 70
     1
  0
XRECORD
  5
818
102
{ACAD_REACTORS
330
817
102
}
330
817
100
AcDbXrecord
280
     1
102
RTVSPropertyOp0
 70
     1
102
RTVSPropertyOp1
 70
     1
102
RTVSPropertyOp2
 70
     1
102
RTVSPropertyOp3
 70
     1
102
RTVSPropertyOp4
 70
     1
102
RTVSPropertyOp5
 70
     1
102
RTVSPropertyOp6
 70
     1
102
RTVSPropertyOp7
 70
     1
102
RTVSPropertyOp8
 70
     1
102
RTVSPropertyOp9
 70
     1
102
RTVSPropertyOp10
 70
     1
102
RTVSPropertyOp11
 70
     1
102
RTVSPropertyOp12
 70
     1
102
RTVSPropertyOp13
 70
     1
102
RTVSPropertyOp14
 70
     1
102
RTVSPropertyOp15
 70
     1
102
RTVSPropertyOp16
 70
     1
102
RTVSPropertyOp17
 70
     1
102
RTVSPropertyOp18
 70
     1
102
RTVSPropertyOp19
 70
     1
102
RTVSPropertyOp20
 70
     1
102
RTVSPropertyOp21
 70
     1
102
RTVSPropertyOp22
 70
     1
102
RTVSPropertyOp23
 70
     1
102
RTVSPropertyOp24
 70
     1
102
RTVSPropertyOp25
 70
     1
102
RTVSPropertyOp26
 70
     1
102
RTVSPropertyOp27
 70
     1
102
RTVSPropertyOp28
 70
     1
102
RTVSPropertyOp29
 70
     1
102
RTVSPropertyOp30
 70
     1
102
RTVSPropertyOp31
 70
     1
102
RTVSPropertyOp32
 70
     1
102
RTVSPropertyOp33
 70
     1
102
RTVSPropertyOp34
 70
     1
102
RTVSPropertyOp35
 70
     1
102
RTVSPropertyOp36
 70
     1
102
RTVSPropertyOp37
 70
     1
102
RTVSPropertyOp38
 70
     1
102
RTVSPropertyOp39
 70
     1
102
RTVSPropertyOp40
 70
     1
102
RTVSPropertyOp41
 70
     1
102
RTVSPropertyOp42
 70
     1
102
RTVSPropertyOp43
 70
     1
102
RTVSPropertyOp44
 70
     1
102
RTVSPropertyOp45
 70
     1
102
RTVSPropertyOp46
 70
     1
102
RTVSPropertyOp47
 70
     1
102
RTVSPropertyOp48
 70
     1
102
RTVSPropertyOp49
 70
     1
102
RTVSPropertyOp50
 70
     1
102
RTVSPropertyOp51
 70
     0
102
RTVSPropertyOp52
 70
     0
102
RTVSPropertyOp53
 70
     1
102
RTVSPropertyOp54
 70
     1
102
RTVSPropertyOp55
 70
     1
102
RTVSPropertyOp56
 70
     1
102
RTVSPropertyOp57
 70
     1
102
RTVSPost2010Prop28
280
     0
102
RTVSPost2010PropOp28
 70
     1
102
RTVSPost2010Prop29
280
     1
102
RTVSPost2010PropOp29
 70
     1
102
RTVSPost2010Prop30
280
     1
102
RTVSPost2010PropOp30
 70
     1
102
RTVSPost2010Prop31
280
     0
102
RTVSPost2010PropOp31
 70
     1
102
RTVSPost2010Prop32
280
     0
102
RTVSPost2010PropOp32
 70
     1
102
RTVSPost2010Prop33
280
     0
102
RTVSPost2010PropOp33
 70
     1
102
RTVSPost2010Prop34
280
     0
102
RTVSPost2010PropOp34
 70
     1
102
RTVSPost2010Prop35
280
     0
102
RTVSPost2010PropOp35
 70
     1
102
RTVSPost2010Prop36
280
     0
102
RTVSPost2010PropOp36
 70
     1
102
RTVSPost2010Prop37
 90
       50
102
RTVSPost2010PropOp37
 70
     1
102
RTVSPost2010Prop38
140
0.0
102
RTVSPost2010PropOp38
 70
     1
102
RTVSPost2010Prop39
140
1.0
102
RTVSPost2010PropOp39
 70
     1
102
RTVSPost2010Prop40
 90
        0
102
RTVSPost2010PropOp40
 70
     1
102
RTVSPost2010Prop41ColorIndex
 90
       18
102
RTVSPost2010Prop41ColorRGB
 90
        0
102
RTVSPost2010PropOp41
 70
     1
102
RTVSPost2010Prop42
 90
       50
102
RTVSPost2010PropOp42
 70
     1
102
RTVSPost2010Prop43
 90
        3
102
RTVSPost2010PropOp43
 70
     1
102
RTVSPost2010Prop44ColorIndex
 90
        5
102
RTVSPost2010Prop44ColorRGB
 90
      255
102
RTVSPost2010PropOp44
 70
     1
102
RTVSPost2010Prop45
280
     0
102
RTVSPost2010PropOp45
 70
     1
102
RTVSPost2010Prop46
 90
       50
102
RTVSPost2010PropOp46
 70
     1
102
RTVSPost2010Prop47
 90
       50
102
RTVSPost2010PropOp47
 70
     1
102
RTVSPost2010Prop48
 90
       50
102
RTVSPost2010PropOp48
 70
     1
102
RTVSPost2010Prop49
280
     0
102
RTVSPost2010PropOp49
 70
     1
102
RTVSPost2010Prop50
 90
       50
102
RTVSPost2010PropOp50
 70
     1
102
RTVSPost2010Prop51ColorIndex
 90
      256
102
RTVSPost2010Prop51ColorRGB
 90
-16777216
102
RTVSPost2010PropOp51
 70
     0
102
RTVSPost2010Prop52
140
1.0
102
RTVSPost2010PropOp52
 70
     0
102
RTVSPost2010Prop53
 90
        2
102
RTVSPost2010PropOp53
 70
     1
102
RTVSPost2010Prop54
  1
strokes_ogs.tif
102
RTVSPost2010PropOp54
 70
     1
102
RTVSPost2010Prop55
280
     0
102
RTVSPost2010PropOp55
 70
     1
102
RTVSPost2010Prop56
140
1.0
102
RTVSPost2010PropOp56
 70
     1
102
RTVSPost2010Prop57
140
1.0
102
RTVSPost2010PropOp57
 70
     1
  0
XRECORD
  5
81A
102
{ACAD_REACTORS
330
819
102
}
330
819
100
AcDbXrecord
280
     1
102
RTVSPropertyOp0
 70
     1
102
RTVSPropertyOp1
 70
     1
102
RTVSPropertyOp2
 70
     1
102
RTVSPropertyOp3
 70
     1
102
RTVSPropertyOp4
 70
     1
102
RTVSPropertyOp5
 70
     1
102
RTVSPropertyOp6
 70
     1
102
RTVSPropertyOp7
 70
     1
102
RTVSPropertyOp8
 70
     1
102
RTVSPropertyOp9
 70
     1
102
RTVSPropertyOp10
 70
     1
102
RTVSPropertyOp11
 70
     1
102
RTVSPropertyOp12
 70
     1
102
RTVSPropertyOp13
 70
     1
102
RTVSPropertyOp14
 70
     1
102
RTVSPropertyOp15
 70
     1
102
RTVSPropertyOp16
 70
     1
102
RTVSPropertyOp17
 70
     1
102
RTVSPropertyOp18
 70
     1
102
RTVSPropertyOp19
 70
     1
102
RTVSPropertyOp20
 70
     1
102
RTVSPropertyOp21
 70
     1
102
RTVSPropertyOp22
 70
     1
102
RTVSPropertyOp23
 70
     1
102
RTVSPropertyOp24
 70
     1
102
RTVSPropertyOp25
 70
     1
102
RTVSPropertyOp26
 70
     1
102
RTVSPropertyOp27
 70
     1
102
RTVSPropertyOp28
 70
     1
102
RTVSPropertyOp29
 70
     1
102
RTVSPropertyOp30
 70
     1
102
RTVSPropertyOp31
 70
     1
102
RTVSPropertyOp32
 70
     1
102
RTVSPropertyOp33
 70
     1
102
RTVSPropertyOp34
 70
     1
102
RTVSPropertyOp35
 70
     1
102
RTVSPropertyOp36
 70
     1
102
RTVSPropertyOp37
 70
     1
102
RTVSPropertyOp38
 70
     1
102
RTVSPropertyOp39
 70
     1
102
RTVSPropertyOp40
 70
     1
102
RTVSPropertyOp41
 70
     1
102
RTVSPropertyOp42
 70
     1
102
RTVSPropertyOp43
 70
     1
102
RTVSPropertyOp44
 70
     1
102
RTVSPropertyOp45
 70
     1
102
RTVSPropertyOp46
 70
     1
102
RTVSPropertyOp47
 70
     1
102
RTVSPropertyOp48
 70
     1
102
RTVSPropertyOp49
 70
     1
102
RTVSPropertyOp50
 70
     1
102
RTVSPropertyOp51
 70
     0
102
RTVSPropertyOp52
 70
     0
102
RTVSPropertyOp53
 70
     1
102
RTVSPropertyOp54
 70
     1
102
RTVSPropertyOp55
 70
     1
102
RTVSPropertyOp56
 70
     1
102
RTVSPropertyOp57
 70
     1
102
RTVSPost2010Prop28
280
     0
102
RTVSPost2010PropOp28
 70
     1
102
RTVSPost2010Prop29
280
     1
102
RTVSPost2010PropOp29
 70
     1
102
RTVSPost2010Prop30
280
     1
102
RTVSPost2010PropOp30
 70
     1
102
RTVSPost2010Prop31
280
     0
102
RTVSPost2010PropOp31
 70
     1
102
RTVSPost2010Prop32
280
     0
102
RTVSPost2010PropOp32
 70
     1
102
RTVSPost2010Prop33
280
     0
102
RTVSPost2010PropOp33
 70
     1
102
RTVSPost2010Prop34
280
     0
102
RTVSPost2010PropOp34
 70
     1
102
RTVSPost2010Prop35
280
     0
102
RTVSPost2010PropOp35
 70
     1
102
RTVSPost2010Prop36
280
     0
102
RTVSPost2010PropOp36
 70
     1
102
RTVSPost2010Prop37
 90
       50
102
RTVSPost2010PropOp37
 70
     1
102
RTVSPost2010Prop38
140
0.0
102
RTVSPost2010PropOp38
 70
     1
102
RTVSPost2010Prop39
140
1.0
102
RTVSPost2010PropOp39
 70
     1
102
RTVSPost2010Prop40
 90
        0
102
RTVSPost2010PropOp40
 70
     1
102
RTVSPost2010Prop41ColorIndex
 90
       18
102
RTVSPost2010Prop41ColorRGB
 90
        0
102
RTVSPost2010PropOp41
 70
     1
102
RTVSPost2010Prop42
 90
       50
102
RTVSPost2010PropOp42
 70
     1
102
RTVSPost2010Prop43
 90
        3
102
RTVSPost2010PropOp43
 70
     1
102
RTVSPost2010Prop44ColorIndex
 90
        5
102
RTVSPost2010Prop44ColorRGB
 90
      255
102
RTVSPost2010PropOp44
 70
     1
102
RTVSPost2010Prop45
280
     0
102
RTVSPost2010PropOp45
 70
     1
102
RTVSPost2010Prop46
 90
       50
102
RTVSPost2010PropOp46
 70
     1
102
RTVSPost2010Prop47
 90
       50
102
RTVSPost2010PropOp47
 70
     1
102
RTVSPost2010Prop48
 90
       50
102
RTVSPost2010PropOp48
 70
     1
102
RTVSPost2010Prop49
280
     0
102
RTVSPost2010PropOp49
 70
     1
102
RTVSPost2010Prop50
 90
       50
102
RTVSPost2010PropOp50
 70
     1
102
RTVSPost2010Prop51ColorIndex
 90
      256
102
RTVSPost2010Prop51ColorRGB
 90
-16777216
102
RTVSPost2010PropOp51
 70
     0
102
RTVSPost2010Prop52
140
1.0
102
RTVSPost2010PropOp52
 70
     0
102
RTVSPost2010Prop53
 90
        2
102
RTVSPost2010PropOp53
 70
     1
102
RTVSPost2010Prop54
  1
strokes_ogs.tif
102
RTVSPost2010PropOp54
 70
     1
102
RTVSPost2010Prop55
280
     0
102
RTVSPost2010PropOp55
 70
     1
102
RTVSPost2010Prop56
140
1.0
102
RTVSPost2010PropOp56
 70
     1
102
RTVSPost2010Prop57
140
1.0
102
RTVSPost2010PropOp57
 70
     1
  0
XRECORD
  5
81C
102
{ACAD_REACTORS
330
81B
102
}
330
81B
100
AcDbXrecord
280
     1
102
RTVSPropertyOp0
 70
     1
102
RTVSPropertyOp1
 70
     1
102
RTVSPropertyOp2
 70
     1
102
RTVSPropertyOp3
 70
     1
102
RTVSPropertyOp4
 70
     1
102
RTVSPropertyOp5
 70
     1
102
RTVSPropertyOp6
 70
     1
102
RTVSPropertyOp7
 70
     1
102
RTVSPropertyOp8
 70
     1
102
RTVSPropertyOp9
 70
     1
102
RTVSPropertyOp10
 70
     1
102
RTVSPropertyOp11
 70
     1
102
RTVSPropertyOp12
 70
     1
102
RTVSPropertyOp13
 70
     1
102
RTVSPropertyOp14
 70
     1
102
RTVSPropertyOp15
 70
     1
102
RTVSPropertyOp16
 70
     1
102
RTVSPropertyOp17
 70
     1
102
RTVSPropertyOp18
 70
     1
102
RTVSPropertyOp19
 70
     1
102
RTVSPropertyOp20
 70
     1
102
RTVSPropertyOp21
 70
     1
102
RTVSPropertyOp22
 70
     1
102
RTVSPropertyOp23
 70
     1
102
RTVSPropertyOp24
 70
     1
102
RTVSPropertyOp25
 70
     1
102
RTVSPropertyOp26
 70
     1
102
RTVSPropertyOp27
 70
     1
102
RTVSPropertyOp28
 70
     1
102
RTVSPropertyOp29
 70
     1
102
RTVSPropertyOp30
 70
     1
102
RTVSPropertyOp31
 70
     1
102
RTVSPropertyOp32
 70
     1
102
RTVSPropertyOp33
 70
     1
102
RTVSPropertyOp34
 70
     1
102
RTVSPropertyOp35
 70
     1
102
RTVSPropertyOp36
 70
     1
102
RTVSPropertyOp37
 70
     1
102
RTVSPropertyOp38
 70
     1
102
RTVSPropertyOp39
 70
     1
102
RTVSPropertyOp40
 70
     1
102
RTVSPropertyOp41
 70
     1
102
RTVSPropertyOp42
 70
     1
102
RTVSPropertyOp43
 70
     1
102
RTVSPropertyOp44
 70
     1
102
RTVSPropertyOp45
 70
     1
102
RTVSPropertyOp46
 70
     1
102
RTVSPropertyOp47
 70
     1
102
RTVSPropertyOp48
 70
     1
102
RTVSPropertyOp49
 70
     1
102
RTVSPropertyOp50
 70
     1
102
RTVSPropertyOp51
 70
     0
102
RTVSPropertyOp52
 70
     0
102
RTVSPropertyOp53
 70
     1
102
RTVSPropertyOp54
 70
     1
102
RTVSPropertyOp55
 70
     1
102
RTVSPropertyOp56
 70
     1
102
RTVSPropertyOp57
 70
     1
102
RTVSPost2010Prop28
280
     0
102
RTVSPost2010PropOp28
 70
     1
102
RTVSPost2010Prop29
280
     1
102
RTVSPost2010PropOp29
 70
     1
102
RTVSPost2010Prop30
280
     1
102
RTVSPost2010PropOp30
 70
     1
102
RTVSPost2010Prop31
280
     0
102
RTVSPost2010PropOp31
 70
     1
102
RTVSPost2010Prop32
280
     0
102
RTVSPost2010PropOp32
 70
     1
102
RTVSPost2010Prop33
280
     0
102
RTVSPost2010PropOp33
 70
     1
102
RTVSPost2010Prop34
280
     0
102
RTVSPost2010PropOp34
 70
     1
102
RTVSPost2010Prop35
280
     0
102
RTVSPost2010PropOp35
 70
     1
102
RTVSPost2010Prop36
280
     0
102
RTVSPost2010PropOp36
 70
     1
102
RTVSPost2010Prop37
 90
       50
102
RTVSPost2010PropOp37
 70
     1
102
RTVSPost2010Prop38
140
0.0
102
RTVSPost2010PropOp38
 70
     1
102
RTVSPost2010Prop39
140
1.0
102
RTVSPost2010PropOp39
 70
     1
102
RTVSPost2010Prop40
 90
        0
102
RTVSPost2010PropOp40
 70
     1
102
RTVSPost2010Prop41ColorIndex
 90
       18
102
RTVSPost2010Prop41ColorRGB
 90
        0
102
RTVSPost2010PropOp41
 70
     1
102
RTVSPost2010Prop42
 90
       50
102
RTVSPost2010PropOp42
 70
     1
102
RTVSPost2010Prop43
 90
        3
102
RTVSPost2010PropOp43
 70
     1
102
RTVSPost2010Prop44ColorIndex
 90
        5
102
RTVSPost2010Prop44ColorRGB
 90
      255
102
RTVSPost2010PropOp44
 70
     1
102
RTVSPost2010Prop45
280
     0
102
RTVSPost2010PropOp45
 70
     1
102
RTVSPost2010Prop46
 90
       50
102
RTVSPost2010PropOp46
 70
     1
102
RTVSPost2010Prop47
 90
       50
102
RTVSPost2010PropOp47
 70
     1
102
RTVSPost2010Prop48
 90
       50
102
RTVSPost2010PropOp48
 70
     1
102
RTVSPost2010Prop49
280
     0
102
RTVSPost2010PropOp49
 70
     1
102
RTVSPost2010Prop50
 90
       50
102
RTVSPost2010PropOp50
 70
     1
102
RTVSPost2010Prop51ColorIndex
 90
      256
102
RTVSPost2010Prop51ColorRGB
 90
-16777216
102
RTVSPost2010PropOp51
 70
     0
102
RTVSPost2010Prop52
140
1.0
102
RTVSPost2010PropOp52
 70
     0
102
RTVSPost2010Prop53
 90
        2
102
RTVSPost2010PropOp53
 70
     1
102
RTVSPost2010Prop54
  1
strokes_ogs.tif
102
RTVSPost2010PropOp54
 70
     1
102
RTVSPost2010Prop55
280
     0
102
RTVSPost2010PropOp55
 70
     1
102
RTVSPost2010Prop56
140
1.0
102
RTVSPost2010PropOp56
 70
     1
102
RTVSPost2010Prop57
140
1.0
102
RTVSPost2010PropOp57
 70
     1
  0
XRECORD
  5
822
102
{ACAD_REACTORS
330
821
102
}
330
821
100
AcDbXrecord
280
     1
102
RTVSPropertyOp0
 70
     1
102
RTVSPropertyOp1
 70
     1
102
RTVSPropertyOp2
 70
     1
102
RTVSPropertyOp3
 70
     1
102
RTVSPropertyOp4
 70
     1
102
RTVSPropertyOp5
 70
     1
102
RTVSPropertyOp6
 70
     1
102
RTVSPropertyOp7
 70
     1
102
RTVSPropertyOp8
 70
     1
102
RTVSPropertyOp9
 70
     1
102
RTVSPropertyOp10
 70
     1
102
RTVSPropertyOp11
 70
     1
102
RTVSPropertyOp12
 70
     1
102
RTVSPropertyOp13
 70
     1
102
RTVSPropertyOp14
 70
     1
102
RTVSPropertyOp15
 70
     1
102
RTVSPropertyOp16
 70
     1
102
RTVSPropertyOp17
 70
     1
102
RTVSPropertyOp18
 70
     1
102
RTVSPropertyOp19
 70
     1
102
RTVSPropertyOp20
 70
     1
102
RTVSPropertyOp21
 70
     1
102
RTVSPropertyOp22
 70
     1
102
RTVSPropertyOp23
 70
     1
102
RTVSPropertyOp24
 70
     1
102
RTVSPropertyOp25
 70
     1
102
RTVSPropertyOp26
 70
     1
102
RTVSPropertyOp27
 70
     1
102
RTVSPropertyOp28
 70
     1
102
RTVSPropertyOp29
 70
     1
102
RTVSPropertyOp30
 70
     1
102
RTVSPropertyOp31
 70
     1
102
RTVSPropertyOp32
 70
     1
102
RTVSPropertyOp33
 70
     1
102
RTVSPropertyOp34
 70
     1
102
RTVSPropertyOp35
 70
     1
102
RTVSPropertyOp36
 70
     1
102
RTVSPropertyOp37
 70
     1
102
RTVSPropertyOp38
 70
     1
102
RTVSPropertyOp39
 70
     1
102
RTVSPropertyOp40
 70
     1
102
RTVSPropertyOp41
 70
     1
102
RTVSPropertyOp42
 70
     1
102
RTVSPropertyOp43
 70
     1
102
RTVSPropertyOp44
 70
     1
102
RTVSPropertyOp45
 70
     1
102
RTVSPropertyOp46
 70
     1
102
RTVSPropertyOp47
 70
     1
102
RTVSPropertyOp48
 70
     1
102
RTVSPropertyOp49
 70
     1
102
RTVSPropertyOp50
 70
     1
102
RTVSPropertyOp51
 70
     0
102
RTVSPropertyOp52
 70
     0
102
RTVSPropertyOp53
 70
     1
102
RTVSPropertyOp54
 70
     1
102
RTVSPropertyOp55
 70
     1
102
RTVSPropertyOp56
 70
     1
102
RTVSPropertyOp57
 70
     1
102
RTVSPost2010Prop28
280
     0
102
RTVSPost2010PropOp28
 70
     1
102
RTVSPost2010Prop29
280
     1
102
RTVSPost2010PropOp29
 70
     1
102
RTVSPost2010Prop30
280
     1
102
RTVSPost2010PropOp30
 70
     1
102
RTVSPost2010Prop31
280
     0
102
RTVSPost2010PropOp31
 70
     1
102
RTVSPost2010Prop32
280
     0
102
RTVSPost2010PropOp32
 70
     1
102
RTVSPost2010Prop33
280
     0
102
RTVSPost2010PropOp33
 70
     1
102
RTVSPost2010Prop34
280
     0
102
RTVSPost2010PropOp34
 70
     1
102
RTVSPost2010Prop35
280
     0
102
RTVSPost2010PropOp35
 70
     1
102
RTVSPost2010Prop36
280
     0
102
RTVSPost2010PropOp36
 70
     1
102
RTVSPost2010Prop37
 90
       50
102
RTVSPost2010PropOp37
 70
     1
102
RTVSPost2010Prop38
140
0.0
102
RTVSPost2010PropOp38
 70
     1
102
RTVSPost2010Prop39
140
1.0
102
RTVSPost2010PropOp39
 70
     1
102
RTVSPost2010Prop40
 90
        0
102
RTVSPost2010PropOp40
 70
     1
102
RTVSPost2010Prop41ColorIndex
 90
       18
102
RTVSPost2010Prop41ColorRGB
 90
        0
102
RTVSPost2010PropOp41
 70
     1
102
RTVSPost2010Prop42
 90
       50
102
RTVSPost2010PropOp42
 70
     1
102
RTVSPost2010Prop43
 90
        3
102
RTVSPost2010PropOp43
 70
     1
102
RTVSPost2010Prop44ColorIndex
 90
        5
102
RTVSPost2010Prop44ColorRGB
 90
      255
102
RTVSPost2010PropOp44
 70
     1
102
RTVSPost2010Prop45
280
     0
102
RTVSPost2010PropOp45
 70
     1
102
RTVSPost2010Prop46
 90
       50
102
RTVSPost2010PropOp46
 70
     1
102
RTVSPost2010Prop47
 90
       50
102
RTVSPost2010PropOp47
 70
     1
102
RTVSPost2010Prop48
 90
       50
102
RTVSPost2010PropOp48
 70
     1
102
RTVSPost2010Prop49
280
     0
102
RTVSPost2010PropOp49
 70
     1
102
RTVSPost2010Prop50
 90
       50
102
RTVSPost2010PropOp50
 70
     1
102
RTVSPost2010Prop51ColorIndex
 90
      256
102
RTVSPost2010Prop51ColorRGB
 90
-16777216
102
RTVSPost2010PropOp51
 70
     0
102
RTVSPost2010Prop52
140
1.0
102
RTVSPost2010PropOp52
 70
     0
102
RTVSPost2010Prop53
 90
        2
102
RTVSPost2010PropOp53
 70
     1
102
RTVSPost2010Prop54
  1
strokes_ogs.tif
102
RTVSPost2010PropOp54
 70
     1
102
RTVSPost2010Prop55
280
     0
102
RTVSPost2010PropOp55
 70
     1
102
RTVSPost2010Prop56
140
1.0
102
RTVSPost2010PropOp56
 70
     1
102
RTVSPost2010Prop57
140
1.0
102
RTVSPost2010PropOp57
 70
     1
  0
XRECORD
  5
836
102
{ACAD_REACTORS
330
835
102
}
330
835
100
AcDbXrecord
280
     1
102
RTVSPropertyOp0
 70
     0
102
RTVSPropertyOp1
 70
     0
102
RTVSPropertyOp2
 70
     0
102
RTVSPropertyOp3
 70
     0
102
RTVSPropertyOp4
 70
     0
102
RTVSPropertyOp5
 70
     0
102
RTVSPropertyOp6
 70
     0
102
RTVSPropertyOp7
 70
     0
102
RTVSPropertyOp8
 70
     0
102
RTVSPropertyOp9
 70
     0
102
RTVSPropertyOp10
 70
     0
102
RTVSPropertyOp11
 70
     0
102
RTVSPropertyOp12
 70
     0
102
RTVSPropertyOp13
 70
     0
102
RTVSPropertyOp14
 70
     2
102
RTVSPropertyOp15
 70
     0
102
RTVSPropertyOp16
 70
     0
102
RTVSPropertyOp17
 70
     0
102
RTVSPropertyOp18
 70
     0
102
RTVSPropertyOp19
 70
     0
102
RTVSPropertyOp20
 70
     0
102
RTVSPropertyOp21
 70
     0
102
RTVSPropertyOp22
 70
     0
102
RTVSPropertyOp23
 70
     0
102
RTVSPropertyOp24
 70
     0
102
RTVSPropertyOp25
 70
     0
102
RTVSPropertyOp26
 70
     0
102
RTVSPropertyOp27
 70
     0
102
RTVSPropertyOp28
 70
     0
102
RTVSPropertyOp29
 70
     0
102
RTVSPropertyOp30
 70
     0
102
RTVSPropertyOp31
 70
     0
102
RTVSPropertyOp32
 70
     0
102
RTVSPropertyOp33
 70
     0
102
RTVSPropertyOp34
 70
     0
102
RTVSPropertyOp35
 70
     0
102
RTVSPropertyOp36
 70
     0
102
RTVSPropertyOp37
 70
     0
102
RTVSPropertyOp38
 70
     0
102
RTVSPropertyOp39
 70
     0
102
RTVSPropertyOp40
 70
     0
102
RTVSPropertyOp41
 70
     0
102
RTVSPropertyOp42
 70
     0
102
RTVSPropertyOp43
 70
     0
102
RTVSPropertyOp44
 70
     0
102
RTVSPropertyOp45
 70
     0
102
RTVSPropertyOp46
 70
     0
102
RTVSPropertyOp47
 70
     0
102
RTVSPropertyOp48
 70
     0
102
RTVSPropertyOp49
 70
     0
102
RTVSPropertyOp50
 70
     0
102
RTVSPropertyOp51
 70
     0
102
RTVSPropertyOp52
 70
     0
102
RTVSPropertyOp53
 70
     0
102
RTVSPropertyOp54
 70
     0
102
RTVSPropertyOp55
 70
     0
102
RTVSPropertyOp56
 70
     0
102
RTVSPropertyOp57
 70
     0
102
RTVSPost2010Prop28
280
     0
102
RTVSPost2010PropOp28
 70
     0
102
RTVSPost2010Prop29
280
     1
102
RTVSPost2010PropOp29
 70
     0
102
RTVSPost2010Prop30
280
     1
102
RTVSPost2010PropOp30
 70
     0
102
RTVSPost2010Prop31
280
     0
102
RTVSPost2010PropOp31
 70
     0
102
RTVSPost2010Prop32
280
     0
102
RTVSPost2010PropOp32
 70
     0
102
RTVSPost2010Prop33
280
     0
102
RTVSPost2010PropOp33
 70
     0
102
RTVSPost2010Prop34
280
     0
102
RTVSPost2010PropOp34
 70
     0
102
RTVSPost2010Prop35
280
     0
102
RTVSPost2010PropOp35
 70
     0
102
RTVSPost2010Prop36
280
     0
102
RTVSPost2010PropOp36
 70
     0
102
RTVSPost2010Prop37
 90
       50
102
RTVSPost2010PropOp37
 70
     0
102
RTVSPost2010Prop38
140
0.0
102
RTVSPost2010PropOp38
 70
     0
102
RTVSPost2010Prop39
140
1.0
102
RTVSPost2010PropOp39
 70
     0
102
RTVSPost2010Prop40
 90
        0
102
RTVSPost2010PropOp40
 70
     0
102
RTVSPost2010Prop41ColorIndex
 90
       18
102
RTVSPost2010Prop41ColorRGB
 90
        0
102
RTVSPost2010PropOp41
 70
     0
102
RTVSPost2010Prop42
 90
       50
102
RTVSPost2010PropOp42
 70
     0
102
RTVSPost2010Prop43
 90
        3
102
RTVSPost2010PropOp43
 70
     0
102
RTVSPost2010Prop44ColorIndex
 90
        5
102
RTVSPost2010Prop44ColorRGB
 90
      255
102
RTVSPost2010PropOp44
 70
     0
102
RTVSPost2010Prop45
280
     0
102
RTVSPost2010PropOp45
 70
     0
102
RTVSPost2010Prop46
 90
       50
102
RTVSPost2010PropOp46
 70
     0
102
RTVSPost2010Prop47
 90
       50
102
RTVSPost2010PropOp47
 70
     0
102
RTVSPost2010Prop48
 90
       50
102
RTVSPost2010PropOp48
 70
     0
102
RTVSPost2010Prop49
280
     0
102
RTVSPost2010PropOp49
 70
     0
102
RTVSPost2010Prop50
 90
       50
102
RTVSPost2010PropOp50
 70
     0
102
RTVSPost2010Prop51ColorIndex
 90
      256
102
RTVSPost2010Prop51ColorRGB
 90
-16777216
102
RTVSPost2010PropOp51
 70
     0
102
RTVSPost2010Prop52
140
1.0
102
RTVSPost2010PropOp52
 70
     0
102
RTVSPost2010Prop53
 90
        2
102
RTVSPost2010PropOp53
 70
     0
102
RTVSPost2010Prop54
  1
strokes_ogs.tif
102
RTVSPost2010PropOp54
 70
     0
102
RTVSPost2010Prop55
280
     0
102
RTVSPost2010PropOp55
 70
     0
102
RTVSPost2010Prop56
140
1.0
102
RTVSPost2010PropOp56
 70
     0
102
RTVSPost2010Prop57
140
1.0
102
RTVSPost2010PropOp57
 70
     0
  0
XRECORD
  5
830
102
{ACAD_REACTORS
330
82F
102
}
330
82F
100
AcDbXrecord
280
     1
102
RTVSPropertyOp0
 70
     1
102
RTVSPropertyOp1
 70
     1
102
RTVSPropertyOp2
 70
     1
102
RTVSPropertyOp3
 70
     1
102
RTVSPropertyOp4
 70
     1
102
RTVSPropertyOp5
 70
     1
102
RTVSPropertyOp6
 70
     1
102
RTVSPropertyOp7
 70
     1
102
RTVSPropertyOp8
 70
     1
102
RTVSPropertyOp9
 70
     1
102
RTVSPropertyOp10
 70
     1
102
RTVSPropertyOp11
 70
     1
102
RTVSPropertyOp12
 70
     1
102
RTVSPropertyOp13
 70
     1
102
RTVSPropertyOp14
 70
     1
102
RTVSPropertyOp15
 70
     1
102
RTVSPropertyOp16
 70
     1
102
RTVSPropertyOp17
 70
     1
102
RTVSPropertyOp18
 70
     1
102
RTVSPropertyOp19
 70
     1
102
RTVSPropertyOp20
 70
     1
102
RTVSPropertyOp21
 70
     1
102
RTVSPropertyOp22
 70
     1
102
RTVSPropertyOp23
 70
     1
102
RTVSPropertyOp24
 70
     1
102
RTVSPropertyOp25
 70
     1
102
RTVSPropertyOp26
 70
     1
102
RTVSPropertyOp27
 70
     1
102
RTVSPropertyOp28
 70
     1
102
RTVSPropertyOp29
 70
     1
102
RTVSPropertyOp30
 70
     1
102
RTVSPropertyOp31
 70
     1
102
RTVSPropertyOp32
 70
     1
102
RTVSPropertyOp33
 70
     1
102
RTVSPropertyOp34
 70
     1
102
RTVSPropertyOp35
 70
     1
102
RTVSPropertyOp36
 70
     1
102
RTVSPropertyOp37
 70
     1
102
RTVSPropertyOp38
 70
     1
102
RTVSPropertyOp39
 70
     1
102
RTVSPropertyOp40
 70
     1
102
RTVSPropertyOp41
 70
     1
102
RTVSPropertyOp42
 70
     1
102
RTVSPropertyOp43
 70
     1
102
RTVSPropertyOp44
 70
     1
102
RTVSPropertyOp45
 70
     1
102
RTVSPropertyOp46
 70
     1
102
RTVSPropertyOp47
 70
     1
102
RTVSPropertyOp48
 70
     1
102
RTVSPropertyOp49
 70
     1
102
RTVSPropertyOp50
 70
     1
102
RTVSPropertyOp51
 70
     0
102
RTVSPropertyOp52
 70
     0
102
RTVSPropertyOp53
 70
     1
102
RTVSPropertyOp54
 70
     1
102
RTVSPropertyOp55
 70
     1
102
RTVSPropertyOp56
 70
     1
102
RTVSPropertyOp57
 70
     1
102
RTVSPost2010Prop28
280
     0
102
RTVSPost2010PropOp28
 70
     1
102
RTVSPost2010Prop29
280
     1
102
RTVSPost2010PropOp29
 70
     1
102
RTVSPost2010Prop30
280
     1
102
RTVSPost2010PropOp30
 70
     1
102
RTVSPost2010Prop31
280
     0
102
RTVSPost2010PropOp31
 70
     1
102
RTVSPost2010Prop32
280
     0
102
RTVSPost2010PropOp32
 70
     1
102
RTVSPost2010Prop33
280
     0
102
RTVSPost2010PropOp33
 70
     1
102
RTVSPost2010Prop34
280
     0
102
RTVSPost2010PropOp34
 70
     1
102
RTVSPost2010Prop35
280
     0
102
RTVSPost2010PropOp35
 70
     1
102
RTVSPost2010Prop36
280
     0
102
RTVSPost2010PropOp36
 70
     1
102
RTVSPost2010Prop37
 90
       50
102
RTVSPost2010PropOp37
 70
     1
102
RTVSPost2010Prop38
140
0.0
102
RTVSPost2010PropOp38
 70
     1
102
RTVSPost2010Prop39
140
1.0
102
RTVSPost2010PropOp39
 70
     1
102
RTVSPost2010Prop40
 90
        0
102
RTVSPost2010PropOp40
 70
     1
102
RTVSPost2010Prop41ColorIndex
 90
       18
102
RTVSPost2010Prop41ColorRGB
 90
        0
102
RTVSPost2010PropOp41
 70
     1
102
RTVSPost2010Prop42
 90
       50
102
RTVSPost2010PropOp42
 70
     1
102
RTVSPost2010Prop43
 90
        3
102
RTVSPost2010PropOp43
 70
     1
102
RTVSPost2010Prop44ColorIndex
 90
        5
102
RTVSPost2010Prop44ColorRGB
 90
      255
102
RTVSPost2010PropOp44
 70
     1
102
RTVSPost2010Prop45
280
     0
102
RTVSPost2010PropOp45
 70
     1
102
RTVSPost2010Prop46
 90
       50
102
RTVSPost2010PropOp46
 70
     1
102
RTVSPost2010Prop47
 90
       50
102
RTVSPost2010PropOp47
 70
     1
102
RTVSPost2010Prop48
 90
       50
102
RTVSPost2010PropOp48
 70
     1
102
RTVSPost2010Prop49
280
     0
102
RTVSPost2010PropOp49
 70
     1
102
RTVSPost2010Prop50
 90
       50
102
RTVSPost2010PropOp50
 70
     1
102
RTVSPost2010Prop51ColorIndex
 90
      256
102
RTVSPost2010Prop51ColorRGB
 90
-16777216
102
RTVSPost2010PropOp51
 70
     0
102
RTVSPost2010Prop52
140
1.0
102
RTVSPost2010PropOp52
 70
     0
102
RTVSPost2010Prop53
 90
        2
102
RTVSPost2010PropOp53
 70
     1
102
RTVSPost2010Prop54
  1
strokes_ogs.tif
102
RTVSPost2010PropOp54
 70
     1
102
RTVSPost2010Prop55
280
     0
102
RTVSPost2010PropOp55
 70
     1
102
RTVSPost2010Prop56
140
1.0
102
RTVSPost2010PropOp56
 70
     1
102
RTVSPost2010Prop57
140
1.0
102
RTVSPost2010PropOp57
 70
     1
  0
XRECORD
  5
838
102
{ACAD_REACTORS
330
837
102
}
330
837
100
AcDbXrecord
280
     1
102
RTVSPropertyOp0
 70
     0
102
RTVSPropertyOp1
 70
     0
102
RTVSPropertyOp2
 70
     0
102
RTVSPropertyOp3
 70
     0
102
RTVSPropertyOp4
 70
     0
102
RTVSPropertyOp5
 70
     0
102
RTVSPropertyOp6
 70
     0
102
RTVSPropertyOp7
 70
     0
102
RTVSPropertyOp8
 70
     0
102
RTVSPropertyOp9
 70
     0
102
RTVSPropertyOp10
 70
     0
102
RTVSPropertyOp11
 70
     0
102
RTVSPropertyOp12
 70
     0
102
RTVSPropertyOp13
 70
     0
102
RTVSPropertyOp14
 70
     2
102
RTVSPropertyOp15
 70
     0
102
RTVSPropertyOp16
 70
     0
102
RTVSPropertyOp17
 70
     0
102
RTVSPropertyOp18
 70
     0
102
RTVSPropertyOp19
 70
     0
102
RTVSPropertyOp20
 70
     0
102
RTVSPropertyOp21
 70
     0
102
RTVSPropertyOp22
 70
     0
102
RTVSPropertyOp23
 70
     0
102
RTVSPropertyOp24
 70
     0
102
RTVSPropertyOp25
 70
     0
102
RTVSPropertyOp26
 70
     0
102
RTVSPropertyOp27
 70
     0
102
RTVSPropertyOp28
 70
     0
102
RTVSPropertyOp29
 70
     0
102
RTVSPropertyOp30
 70
     0
102
RTVSPropertyOp31
 70
     0
102
RTVSPropertyOp32
 70
     0
102
RTVSPropertyOp33
 70
     0
102
RTVSPropertyOp34
 70
     0
102
RTVSPropertyOp35
 70
     0
102
RTVSPropertyOp36
 70
     0
102
RTVSPropertyOp37
 70
     0
102
RTVSPropertyOp38
 70
     0
102
RTVSPropertyOp39
 70
     0
102
RTVSPropertyOp40
 70
     0
102
RTVSPropertyOp41
 70
     0
102
RTVSPropertyOp42
 70
     0
102
RTVSPropertyOp43
 70
     0
102
RTVSPropertyOp44
 70
     0
102
RTVSPropertyOp45
 70
     0
102
RTVSPropertyOp46
 70
     0
102
RTVSPropertyOp47
 70
     0
102
RTVSPropertyOp48
 70
     0
102
RTVSPropertyOp49
 70
     0
102
RTVSPropertyOp50
 70
     0
102
RTVSPropertyOp51
 70
     0
102
RTVSPropertyOp52
 70
     0
102
RTVSPropertyOp53
 70
     0
102
RTVSPropertyOp54
 70
     0
102
RTVSPropertyOp55
 70
     0
102
RTVSPropertyOp56
 70
     0
102
RTVSPropertyOp57
 70
     0
102
RTVSPost2010Prop28
280
     0
102
RTVSPost2010PropOp28
 70
     0
102
RTVSPost2010Prop29
280
     1
102
RTVSPost2010PropOp29
 70
     0
102
RTVSPost2010Prop30
280
     1
102
RTVSPost2010PropOp30
 70
     0
102
RTVSPost2010Prop31
280
     0
102
RTVSPost2010PropOp31
 70
     0
102
RTVSPost2010Prop32
280
     0
102
RTVSPost2010PropOp32
 70
     0
102
RTVSPost2010Prop33
280
     0
102
RTVSPost2010PropOp33
 70
     0
102
RTVSPost2010Prop34
280
     0
102
RTVSPost2010PropOp34
 70
     0
102
RTVSPost2010Prop35
280
     0
102
RTVSPost2010PropOp35
 70
     0
102
RTVSPost2010Prop36
280
     0
102
RTVSPost2010PropOp36
 70
     0
102
RTVSPost2010Prop37
 90
       50
102
RTVSPost2010PropOp37
 70
     0
102
RTVSPost2010Prop38
140
0.0
102
RTVSPost2010PropOp38
 70
     0
102
RTVSPost2010Prop39
140
1.0
102
RTVSPost2010PropOp39
 70
     0
102
RTVSPost2010Prop40
 90
        0
102
RTVSPost2010PropOp40
 70
     0
102
RTVSPost2010Prop41ColorIndex
 90
       18
102
RTVSPost2010Prop41ColorRGB
 90
        0
102
RTVSPost2010PropOp41
 70
     0
102
RTVSPost2010Prop42
 90
       50
102
RTVSPost2010PropOp42
 70
     0
102
RTVSPost2010Prop43
 90
        3
102
RTVSPost2010PropOp43
 70
     0
102
RTVSPost2010Prop44ColorIndex
 90
        5
102
RTVSPost2010Prop44ColorRGB
 90
      255
102
RTVSPost2010PropOp44
 70
     0
102
RTVSPost2010Prop45
280
     0
102
RTVSPost2010PropOp45
 70
     0
102
RTVSPost2010Prop46
 90
       50
102
RTVSPost2010PropOp46
 70
     0
102
RTVSPost2010Prop47
 90
       50
102
RTVSPost2010PropOp47
 70
     0
102
RTVSPost2010Prop48
 90
       50
102
RTVSPost2010PropOp48
 70
     0
102
RTVSPost2010Prop49
280
     0
102
RTVSPost2010PropOp49
 70
     0
102
RTVSPost2010Prop50
 90
       50
102
RTVSPost2010PropOp50
 70
     0
102
RTVSPost2010Prop51ColorIndex
 90
      256
102
RTVSPost2010Prop51ColorRGB
 90
-16777216
102
RTVSPost2010PropOp51
 70
     0
102
RTVSPost2010Prop52
140
1.0
102
RTVSPost2010PropOp52
 70
     0
102
RTVSPost2010Prop53
 90
        2
102
RTVSPost2010PropOp53
 70
     0
102
RTVSPost2010Prop54
  1
strokes_ogs.tif
102
RTVSPost2010PropOp54
 70
     0
102
RTVSPost2010Prop55
280
     0
102
RTVSPost2010PropOp55
 70
     0
102
RTVSPost2010Prop56
140
1.0
102
RTVSPost2010PropOp56
 70
     0
102
RTVSPost2010Prop57
140
1.0
102
RTVSPost2010PropOp57
 70
     0
  0
XRECORD
  5
826
102
{ACAD_REACTORS
330
825
102
}
330
825
100
AcDbXrecord
280
     1
102
RTVSPropertyOp0
 70
     1
102
RTVSPropertyOp1
 70
     1
102
RTVSPropertyOp2
 70
     1
102
RTVSPropertyOp3
 70
     1
102
RTVSPropertyOp4
 70
     1
102
RTVSPropertyOp5
 70
     1
102
RTVSPropertyOp6
 70
     1
102
RTVSPropertyOp7
 70
     1
102
RTVSPropertyOp8
 70
     1
102
RTVSPropertyOp9
 70
     1
102
RTVSPropertyOp10
 70
     1
102
RTVSPropertyOp11
 70
     1
102
RTVSPropertyOp12
 70
     1
102
RTVSPropertyOp13
 70
     1
102
RTVSPropertyOp14
 70
     1
102
RTVSPropertyOp15
 70
     1
102
RTVSPropertyOp16
 70
     1
102
RTVSPropertyOp17
 70
     1
102
RTVSPropertyOp18
 70
     1
102
RTVSPropertyOp19
 70
     1
102
RTVSPropertyOp20
 70
     1
102
RTVSPropertyOp21
 70
     1
102
RTVSPropertyOp22
 70
     1
102
RTVSPropertyOp23
 70
     1
102
RTVSPropertyOp24
 70
     1
102
RTVSPropertyOp25
 70
     1
102
RTVSPropertyOp26
 70
     1
102
RTVSPropertyOp27
 70
     1
102
RTVSPropertyOp28
 70
     1
102
RTVSPropertyOp29
 70
     1
102
RTVSPropertyOp30
 70
     1
102
RTVSPropertyOp31
 70
     1
102
RTVSPropertyOp32
 70
     1
102
RTVSPropertyOp33
 70
     1
102
RTVSPropertyOp34
 70
     1
102
RTVSPropertyOp35
 70
     1
102
RTVSPropertyOp36
 70
     1
102
RTVSPropertyOp37
 70
     1
102
RTVSPropertyOp38
 70
     1
102
RTVSPropertyOp39
 70
     1
102
RTVSPropertyOp40
 70
     1
102
RTVSPropertyOp41
 70
     1
102
RTVSPropertyOp42
 70
     1
102
RTVSPropertyOp43
 70
     1
102
RTVSPropertyOp44
 70
     1
102
RTVSPropertyOp45
 70
     1
102
RTVSPropertyOp46
 70
     1
102
RTVSPropertyOp47
 70
     1
102
RTVSPropertyOp48
 70
     1
102
RTVSPropertyOp49
 70
     1
102
RTVSPropertyOp50
 70
     1
102
RTVSPropertyOp51
 70
     0
102
RTVSPropertyOp52
 70
     0
102
RTVSPropertyOp53
 70
     1
102
RTVSPropertyOp54
 70
     1
102
RTVSPropertyOp55
 70
     1
102
RTVSPropertyOp56
 70
     1
102
RTVSPropertyOp57
 70
     1
102
RTVSPost2010Prop28
280
     0
102
RTVSPost2010PropOp28
 70
     1
102
RTVSPost2010Prop29
280
     1
102
RTVSPost2010PropOp29
 70
     1
102
RTVSPost2010Prop30
280
     1
102
RTVSPost2010PropOp30
 70
     1
102
RTVSPost2010Prop31
280
     0
102
RTVSPost2010PropOp31
 70
     1
102
RTVSPost2010Prop32
280
     0
102
RTVSPost2010PropOp32
 70
     1
102
RTVSPost2010Prop33
280
     0
102
RTVSPost2010PropOp33
 70
     1
102
RTVSPost2010Prop34
280
     0
102
RTVSPost2010PropOp34
 70
     1
102
RTVSPost2010Prop35
280
     0
102
RTVSPost2010PropOp35
 70
     1
102
RTVSPost2010Prop36
280
     0
102
RTVSPost2010PropOp36
 70
     1
102
RTVSPost2010Prop37
 90
       50
102
RTVSPost2010PropOp37
 70
     1
102
RTVSPost2010Prop38
140
0.0
102
RTVSPost2010PropOp38
 70
     1
102
RTVSPost2010Prop39
140
1.0
102
RTVSPost2010PropOp39
 70
     1
102
RTVSPost2010Prop40
 90
        0
102
RTVSPost2010PropOp40
 70
     1
102
RTVSPost2010Prop41ColorIndex
 90
       18
102
RTVSPost2010Prop41ColorRGB
 90
        0
102
RTVSPost2010PropOp41
 70
     1
102
RTVSPost2010Prop42
 90
       50
102
RTVSPost2010PropOp42
 70
     1
102
RTVSPost2010Prop43
 90
        3
102
RTVSPost2010PropOp43
 70
     1
102
RTVSPost2010Prop44ColorIndex
 90
        5
102
RTVSPost2010Prop44ColorRGB
 90
      255
102
RTVSPost2010PropOp44
 70
     1
102
RTVSPost2010Prop45
280
     0
102
RTVSPost2010PropOp45
 70
     1
102
RTVSPost2010Prop46
 90
       50
102
RTVSPost2010PropOp46
 70
     1
102
RTVSPost2010Prop47
 90
       50
102
RTVSPost2010PropOp47
 70
     1
102
RTVSPost2010Prop48
 90
       50
102
RTVSPost2010PropOp48
 70
     1
102
RTVSPost2010Prop49
280
     0
102
RTVSPost2010PropOp49
 70
     1
102
RTVSPost2010Prop50
 90
       50
102
RTVSPost2010PropOp50
 70
     1
102
RTVSPost2010Prop51ColorIndex
 90
      256
102
RTVSPost2010Prop51ColorRGB
 90
-16777216
102
RTVSPost2010PropOp51
 70
     0
102
RTVSPost2010Prop52
140
1.0
102
RTVSPost2010PropOp52
 70
     0
102
RTVSPost2010Prop53
 90
        2
102
RTVSPost2010PropOp53
 70
     1
102
RTVSPost2010Prop54
  1
strokes_ogs.tif
102
RTVSPost2010PropOp54
 70
     1
102
RTVSPost2010Prop55
280
     0
102
RTVSPost2010PropOp55
 70
     1
102
RTVSPost2010Prop56
140
1.0
102
RTVSPost2010PropOp56
 70
     1
102
RTVSPost2010Prop57
140
1.0
102
RTVSPost2010PropOp57
 70
     1
  0
XRECORD
  5
844
102
{ACAD_REACTORS
330
843
102
}
330
843
100
AcDbXrecord
280
     1
102
RTVSPropertyOp0
 70
     1
102
RTVSPropertyOp1
 70
     1
102
RTVSPropertyOp2
 70
     1
102
RTVSPropertyOp3
 70
     1
102
RTVSPropertyOp4
 70
     1
102
RTVSPropertyOp5
 70
     1
102
RTVSPropertyOp6
 70
     1
102
RTVSPropertyOp7
 70
     1
102
RTVSPropertyOp8
 70
     1
102
RTVSPropertyOp9
 70
     1
102
RTVSPropertyOp10
 70
     1
102
RTVSPropertyOp11
 70
     1
102
RTVSPropertyOp12
 70
     1
102
RTVSPropertyOp13
 70
     1
102
RTVSPropertyOp14
 70
     1
102
RTVSPropertyOp15
 70
     1
102
RTVSPropertyOp16
 70
     1
102
RTVSPropertyOp17
 70
     1
102
RTVSPropertyOp18
 70
     1
102
RTVSPropertyOp19
 70
     1
102
RTVSPropertyOp20
 70
     1
102
RTVSPropertyOp21
 70
     1
102
RTVSPropertyOp22
 70
     1
102
RTVSPropertyOp23
 70
     1
102
RTVSPropertyOp24
 70
     1
102
RTVSPropertyOp25
 70
     1
102
RTVSPropertyOp26
 70
     1
102
RTVSPropertyOp27
 70
     1
102
RTVSPropertyOp28
 70
     1
102
RTVSPropertyOp29
 70
     1
102
RTVSPropertyOp30
 70
     1
102
RTVSPropertyOp31
 70
     1
102
RTVSPropertyOp32
 70
     1
102
RTVSPropertyOp33
 70
     1
102
RTVSPropertyOp34
 70
     1
102
RTVSPropertyOp35
 70
     1
102
RTVSPropertyOp36
 70
     1
102
RTVSPropertyOp37
 70
     1
102
RTVSPropertyOp38
 70
     1
102
RTVSPropertyOp39
 70
     1
102
RTVSPropertyOp40
 70
     1
102
RTVSPropertyOp41
 70
     1
102
RTVSPropertyOp42
 70
     1
102
RTVSPropertyOp43
 70
     1
102
RTVSPropertyOp44
 70
     1
102
RTVSPropertyOp45
 70
     1
102
RTVSPropertyOp46
 70
     1
102
RTVSPropertyOp47
 70
     1
102
RTVSPropertyOp48
 70
     1
102
RTVSPropertyOp49
 70
     1
102
RTVSPropertyOp50
 70
     1
102
RTVSPropertyOp51
 70
     0
102
RTVSPropertyOp52
 70
     0
102
RTVSPropertyOp53
 70
     1
102
RTVSPropertyOp54
 70
     1
102
RTVSPropertyOp55
 70
     1
102
RTVSPropertyOp56
 70
     1
102
RTVSPropertyOp57
 70
     1
102
RTVSPost2010Prop28
280
     0
102
RTVSPost2010PropOp28
 70
     1
102
RTVSPost2010Prop29
280
     1
102
RTVSPost2010PropOp29
 70
     1
102
RTVSPost2010Prop30
280
     1
102
RTVSPost2010PropOp30
 70
     1
102
RTVSPost2010Prop31
280
     0
102
RTVSPost2010PropOp31
 70
     1
102
RTVSPost2010Prop32
280
     0
102
RTVSPost2010PropOp32
 70
     1
102
RTVSPost2010Prop33
280
     0
102
RTVSPost2010PropOp33
 70
     1
102
RTVSPost2010Prop34
280
     0
102
RTVSPost2010PropOp34
 70
     1
102
RTVSPost2010Prop35
280
     0
102
RTVSPost2010PropOp35
 70
     1
102
RTVSPost2010Prop36
280
     0
102
RTVSPost2010PropOp36
 70
     1
102
RTVSPost2010Prop37
 90
       50
102
RTVSPost2010PropOp37
 70
     1
102
RTVSPost2010Prop38
140
0.0
102
RTVSPost2010PropOp38
 70
     1
102
RTVSPost2010Prop39
140
1.0
102
RTVSPost2010PropOp39
 70
     1
102
RTVSPost2010Prop40
 90
        0
102
RTVSPost2010PropOp40
 70
     1
102
RTVSPost2010Prop41ColorIndex
 90
       18
102
RTVSPost2010Prop41ColorRGB
 90
        0
102
RTVSPost2010PropOp41
 70
     1
102
RTVSPost2010Prop42
 90
       50
102
RTVSPost2010PropOp42
 70
     1
102
RTVSPost2010Prop43
 90
        3
102
RTVSPost2010PropOp43
 70
     1
102
RTVSPost2010Prop44ColorIndex
 90
        5
102
RTVSPost2010Prop44ColorRGB
 90
      255
102
RTVSPost2010PropOp44
 70
     1
102
RTVSPost2010Prop45
280
     0
102
RTVSPost2010PropOp45
 70
     1
102
RTVSPost2010Prop46
 90
       50
102
RTVSPost2010PropOp46
 70
     1
102
RTVSPost2010Prop47
 90
       50
102
RTVSPost2010PropOp47
 70
     1
102
RTVSPost2010Prop48
 90
       50
102
RTVSPost2010PropOp48
 70
     1
102
RTVSPost2010Prop49
280
     0
102
RTVSPost2010PropOp49
 70
     1
102
RTVSPost2010Prop50
 90
       50
102
RTVSPost2010PropOp50
 70
     1
102
RTVSPost2010Prop51ColorIndex
 90
      256
102
RTVSPost2010Prop51ColorRGB
 90
-16777216
102
RTVSPost2010PropOp51
 70
     0
102
RTVSPost2010Prop52
140
1.0
102
RTVSPost2010PropOp52
 70
     0
102
RTVSPost2010Prop53
 90
        2
102
RTVSPost2010PropOp53
 70
     1
102
RTVSPost2010Prop54
  1
strokes_ogs.tif
102
RTVSPost2010PropOp54
 70
     1
102
RTVSPost2010Prop55
280
     0
102
RTVSPost2010PropOp55
 70
     1
102
RTVSPost2010Prop56
140
1.0
102
RTVSPost2010PropOp56
 70
     1
102
RTVSPost2010Prop57
140
1.0
102
RTVSPost2010PropOp57
 70
     1
  0
XRECORD
  5
842
102
{ACAD_REACTORS
330
841
102
}
330
841
100
AcDbXrecord
280
     1
102
RTVSPropertyOp0
 70
     1
102
RTVSPropertyOp1
 70
     1
102
RTVSPropertyOp2
 70
     1
102
RTVSPropertyOp3
 70
     1
102
RTVSPropertyOp4
 70
     1
102
RTVSPropertyOp5
 70
     1
102
RTVSPropertyOp6
 70
     1
102
RTVSPropertyOp7
 70
     1
102
RTVSPropertyOp8
 70
     1
102
RTVSPropertyOp9
 70
     1
102
RTVSPropertyOp10
 70
     1
102
RTVSPropertyOp11
 70
     1
102
RTVSPropertyOp12
 70
     1
102
RTVSPropertyOp13
 70
     1
102
RTVSPropertyOp14
 70
     1
102
RTVSPropertyOp15
 70
     1
102
RTVSPropertyOp16
 70
     1
102
RTVSPropertyOp17
 70
     1
102
RTVSPropertyOp18
 70
     1
102
RTVSPropertyOp19
 70
     1
102
RTVSPropertyOp20
 70
     1
102
RTVSPropertyOp21
 70
     1
102
RTVSPropertyOp22
 70
     1
102
RTVSPropertyOp23
 70
     1
102
RTVSPropertyOp24
 70
     1
102
RTVSPropertyOp25
 70
     1
102
RTVSPropertyOp26
 70
     1
102
RTVSPropertyOp27
 70
     1
102
RTVSPropertyOp28
 70
     1
102
RTVSPropertyOp29
 70
     1
102
RTVSPropertyOp30
 70
     1
102
RTVSPropertyOp31
 70
     1
102
RTVSPropertyOp32
 70
     1
102
RTVSPropertyOp33
 70
     1
102
RTVSPropertyOp34
 70
     1
102
RTVSPropertyOp35
 70
     1
102
RTVSPropertyOp36
 70
     1
102
RTVSPropertyOp37
 70
     1
102
RTVSPropertyOp38
 70
     1
102
RTVSPropertyOp39
 70
     1
102
RTVSPropertyOp40
 70
     1
102
RTVSPropertyOp41
 70
     1
102
RTVSPropertyOp42
 70
     1
102
RTVSPropertyOp43
 70
     1
102
RTVSPropertyOp44
 70
     1
102
RTVSPropertyOp45
 70
     1
102
RTVSPropertyOp46
 70
     1
102
RTVSPropertyOp47
 70
     1
102
RTVSPropertyOp48
 70
     1
102
RTVSPropertyOp49
 70
     1
102
RTVSPropertyOp50
 70
     1
102
RTVSPropertyOp51
 70
     0
102
RTVSPropertyOp52
 70
     0
102
RTVSPropertyOp53
 70
     1
102
RTVSPropertyOp54
 70
     1
102
RTVSPropertyOp55
 70
     1
102
RTVSPropertyOp56
 70
     1
102
RTVSPropertyOp57
 70
     1
102
RTVSPost2010Prop28
280
     0
102
RTVSPost2010PropOp28
 70
     1
102
RTVSPost2010Prop29
280
     1
102
RTVSPost2010PropOp29
 70
     1
102
RTVSPost2010Prop30
280
     1
102
RTVSPost2010PropOp30
 70
     1
102
RTVSPost2010Prop31
280
     0
102
RTVSPost2010PropOp31
 70
     1
102
RTVSPost2010Prop32
280
     0
102
RTVSPost2010PropOp32
 70
     1
102
RTVSPost2010Prop33
280
     0
102
RTVSPost2010PropOp33
 70
     1
102
RTVSPost2010Prop34
280
     0
102
RTVSPost2010PropOp34
 70
     1
102
RTVSPost2010Prop35
280
     0
102
RTVSPost2010PropOp35
 70
     1
102
RTVSPost2010Prop36
280
     0
102
RTVSPost2010PropOp36
 70
     1
102
RTVSPost2010Prop37
 90
       50
102
RTVSPost2010PropOp37
 70
     1
102
RTVSPost2010Prop38
140
0.0
102
RTVSPost2010PropOp38
 70
     1
102
RTVSPost2010Prop39
140
1.0
102
RTVSPost2010PropOp39
 70
     1
102
RTVSPost2010Prop40
 90
        0
102
RTVSPost2010PropOp40
 70
     1
102
RTVSPost2010Prop41ColorIndex
 90
       18
102
RTVSPost2010Prop41ColorRGB
 90
        0
102
RTVSPost2010PropOp41
 70
     1
102
RTVSPost2010Prop42
 90
       50
102
RTVSPost2010PropOp42
 70
     1
102
RTVSPost2010Prop43
 90
        3
102
RTVSPost2010PropOp43
 70
     1
102
RTVSPost2010Prop44ColorIndex
 90
        5
102
RTVSPost2010Prop44ColorRGB
 90
      255
102
RTVSPost2010PropOp44
 70
     1
102
RTVSPost2010Prop45
280
     0
102
RTVSPost2010PropOp45
 70
     1
102
RTVSPost2010Prop46
 90
       50
102
RTVSPost2010PropOp46
 70
     1
102
RTVSPost2010Prop47
 90
       50
102
RTVSPost2010PropOp47
 70
     1
102
RTVSPost2010Prop48
 90
       50
102
RTVSPost2010PropOp48
 70
     1
102
RTVSPost2010Prop49
280
     0
102
RTVSPost2010PropOp49
 70
     1
102
RTVSPost2010Prop50
 90
       50
102
RTVSPost2010PropOp50
 70
     1
102
RTVSPost2010Prop51ColorIndex
 90
      256
102
RTVSPost2010Prop51ColorRGB
 90
-16777216
102
RTVSPost2010PropOp51
 70
     0
102
RTVSPost2010Prop52
140
1.0
102
RTVSPost2010PropOp52
 70
     0
102
RTVSPost2010Prop53
 90
        2
102
RTVSPost2010PropOp53
 70
     1
102
RTVSPost2010Prop54
  1
strokes_ogs.tif
102
RTVSPost2010PropOp54
 70
     1
102
RTVSPost2010Prop55
280
     0
102
RTVSPost2010PropOp55
 70
     1
102
RTVSPost2010Prop56
140
1.0
102
RTVSPost2010PropOp56
 70
     1
102
RTVSPost2010Prop57
140
1.0
102
RTVSPost2010PropOp57
 70
     1
  0
XRECORD
  5
83C
102
{ACAD_REACTORS
330
83B
102
}
330
83B
100
AcDbXrecord
280
     1
102
RTVSPropertyOp0
 70
     1
102
RTVSPropertyOp1
 70
     1
102
RTVSPropertyOp2
 70
     1
102
RTVSPropertyOp3
 70
     1
102
RTVSPropertyOp4
 70
     1
102
RTVSPropertyOp5
 70
     1
102
RTVSPropertyOp6
 70
     1
102
RTVSPropertyOp7
 70
     1
102
RTVSPropertyOp8
 70
     1
102
RTVSPropertyOp9
 70
     1
102
RTVSPropertyOp10
 70
     1
102
RTVSPropertyOp11
 70
     1
102
RTVSPropertyOp12
 70
     1
102
RTVSPropertyOp13
 70
     1
102
RTVSPropertyOp14
 70
     1
102
RTVSPropertyOp15
 70
     1
102
RTVSPropertyOp16
 70
     1
102
RTVSPropertyOp17
 70
     1
102
RTVSPropertyOp18
 70
     1
102
RTVSPropertyOp19
 70
     1
102
RTVSPropertyOp20
 70
     1
102
RTVSPropertyOp21
 70
     1
102
RTVSPropertyOp22
 70
     1
102
RTVSPropertyOp23
 70
     1
102
RTVSPropertyOp24
 70
     1
102
RTVSPropertyOp25
 70
     1
102
RTVSPropertyOp26
 70
     1
102
RTVSPropertyOp27
 70
     1
102
RTVSPropertyOp28
 70
     1
102
RTVSPropertyOp29
 70
     1
102
RTVSPropertyOp30
 70
     1
102
RTVSPropertyOp31
 70
     1
102
RTVSPropertyOp32
 70
     1
102
RTVSPropertyOp33
 70
     1
102
RTVSPropertyOp34
 70
     1
102
RTVSPropertyOp35
 70
     1
102
RTVSPropertyOp36
 70
     1
102
RTVSPropertyOp37
 70
     1
102
RTVSPropertyOp38
 70
     1
102
RTVSPropertyOp39
 70
     1
102
RTVSPropertyOp40
 70
     1
102
RTVSPropertyOp41
 70
     1
102
RTVSPropertyOp42
 70
     1
102
RTVSPropertyOp43
 70
     1
102
RTVSPropertyOp44
 70
     1
102
RTVSPropertyOp45
 70
     1
102
RTVSPropertyOp46
 70
     1
102
RTVSPropertyOp47
 70
     1
102
RTVSPropertyOp48
 70
     1
102
RTVSPropertyOp49
 70
     1
102
RTVSPropertyOp50
 70
     1
102
RTVSPropertyOp51
 70
     0
102
RTVSPropertyOp52
 70
     0
102
RTVSPropertyOp53
 70
     1
102
RTVSPropertyOp54
 70
     1
102
RTVSPropertyOp55
 70
     1
102
RTVSPropertyOp56
 70
     1
102
RTVSPropertyOp57
 70
     1
102
RTVSPost2010Prop28
280
     0
102
RTVSPost2010PropOp28
 70
     1
102
RTVSPost2010Prop29
280
     1
102
RTVSPost2010PropOp29
 70
     1
102
RTVSPost2010Prop30
280
     1
102
RTVSPost2010PropOp30
 70
     1
102
RTVSPost2010Prop31
280
     0
102
RTVSPost2010PropOp31
 70
     1
102
RTVSPost2010Prop32
280
     0
102
RTVSPost2010PropOp32
 70
     1
102
RTVSPost2010Prop33
280
     0
102
RTVSPost2010PropOp33
 70
     1
102
RTVSPost2010Prop34
280
     0
102
RTVSPost2010PropOp34
 70
     1
102
RTVSPost2010Prop35
280
     0
102
RTVSPost2010PropOp35
 70
     1
102
RTVSPost2010Prop36
280
     0
102
RTVSPost2010PropOp36
 70
     1
102
RTVSPost2010Prop37
 90
       50
102
RTVSPost2010PropOp37
 70
     1
102
RTVSPost2010Prop38
140
0.0
102
RTVSPost2010PropOp38
 70
     1
102
RTVSPost2010Prop39
140
1.0
102
RTVSPost2010PropOp39
 70
     1
102
RTVSPost2010Prop40
 90
        0
102
RTVSPost2010PropOp40
 70
     1
102
RTVSPost2010Prop41ColorIndex
 90
       18
102
RTVSPost2010Prop41ColorRGB
 90
        0
102
RTVSPost2010PropOp41
 70
     1
102
RTVSPost2010Prop42
 90
       50
102
RTVSPost2010PropOp42
 70
     1
102
RTVSPost2010Prop43
 90
        3
102
RTVSPost2010PropOp43
 70
     1
102
RTVSPost2010Prop44ColorIndex
 90
        5
102
RTVSPost2010Prop44ColorRGB
 90
      255
102
RTVSPost2010PropOp44
 70
     1
102
RTVSPost2010Prop45
280
     0
102
RTVSPost2010PropOp45
 70
     1
102
RTVSPost2010Prop46
 90
       50
102
RTVSPost2010PropOp46
 70
     1
102
RTVSPost2010Prop47
 90
       50
102
RTVSPost2010PropOp47
 70
     1
102
RTVSPost2010Prop48
 90
       50
102
RTVSPost2010PropOp48
 70
     1
102
RTVSPost2010Prop49
280
     0
102
RTVSPost2010PropOp49
 70
     1
102
RTVSPost2010Prop50
 90
       50
102
RTVSPost2010PropOp50
 70
     1
102
RTVSPost2010Prop51ColorIndex
 90
      256
102
RTVSPost2010Prop51ColorRGB
 90
-16777216
102
RTVSPost2010PropOp51
 70
     0
102
RTVSPost2010Prop52
140
1.0
102
RTVSPost2010PropOp52
 70
     0
102
RTVSPost2010Prop53
 90
        2
102
RTVSPost2010PropOp53
 70
     1
102
RTVSPost2010Prop54
  1
strokes_ogs.tif
102
RTVSPost2010PropOp54
 70
     1
102
RTVSPost2010Prop55
280
     0
102
RTVSPost2010PropOp55
 70
     1
102
RTVSPost2010Prop56
140
1.0
102
RTVSPost2010PropOp56
 70
     1
102
RTVSPost2010Prop57
140
1.0
102
RTVSPost2010PropOp57
 70
     1
  0
XRECORD
  5
83E
102
{ACAD_REACTORS
330
83D
102
}
330
83D
100
AcDbXrecord
280
     1
102
RTVSPropertyOp0
 70
     1
102
RTVSPropertyOp1
 70
     1
102
RTVSPropertyOp2
 70
     1
102
RTVSPropertyOp3
 70
     1
102
RTVSPropertyOp4
 70
     1
102
RTVSPropertyOp5
 70
     1
102
RTVSPropertyOp6
 70
     1
102
RTVSPropertyOp7
 70
     1
102
RTVSPropertyOp8
 70
     1
102
RTVSPropertyOp9
 70
     1
102
RTVSPropertyOp10
 70
     1
102
RTVSPropertyOp11
 70
     1
102
RTVSPropertyOp12
 70
     1
102
RTVSPropertyOp13
 70
     1
102
RTVSPropertyOp14
 70
     1
102
RTVSPropertyOp15
 70
     1
102
RTVSPropertyOp16
 70
     1
102
RTVSPropertyOp17
 70
     1
102
RTVSPropertyOp18
 70
     1
102
RTVSPropertyOp19
 70
     1
102
RTVSPropertyOp20
 70
     1
102
RTVSPropertyOp21
 70
     1
102
RTVSPropertyOp22
 70
     1
102
RTVSPropertyOp23
 70
     1
102
RTVSPropertyOp24
 70
     1
102
RTVSPropertyOp25
 70
     1
102
RTVSPropertyOp26
 70
     1
102
RTVSPropertyOp27
 70
     1
102
RTVSPropertyOp28
 70
     1
102
RTVSPropertyOp29
 70
     1
102
RTVSPropertyOp30
 70
     1
102
RTVSPropertyOp31
 70
     1
102
RTVSPropertyOp32
 70
     1
102
RTVSPropertyOp33
 70
     1
102
RTVSPropertyOp34
 70
     1
102
RTVSPropertyOp35
 70
     1
102
RTVSPropertyOp36
 70
     1
102
RTVSPropertyOp37
 70
     1
102
RTVSPropertyOp38
 70
     1
102
RTVSPropertyOp39
 70
     1
102
RTVSPropertyOp40
 70
     1
102
RTVSPropertyOp41
 70
     1
102
RTVSPropertyOp42
 70
     1
102
RTVSPropertyOp43
 70
     1
102
RTVSPropertyOp44
 70
     1
102
RTVSPropertyOp45
 70
     1
102
RTVSPropertyOp46
 70
     1
102
RTVSPropertyOp47
 70
     1
102
RTVSPropertyOp48
 70
     1
102
RTVSPropertyOp49
 70
     1
102
RTVSPropertyOp50
 70
     1
102
RTVSPropertyOp51
 70
     0
102
RTVSPropertyOp52
 70
     0
102
RTVSPropertyOp53
 70
     1
102
RTVSPropertyOp54
 70
     1
102
RTVSPropertyOp55
 70
     1
102
RTVSPropertyOp56
 70
     1
102
RTVSPropertyOp57
 70
     1
102
RTVSPost2010Prop28
280
     0
102
RTVSPost2010PropOp28
 70
     1
102
RTVSPost2010Prop29
280
     1
102
RTVSPost2010PropOp29
 70
     1
102
RTVSPost2010Prop30
280
     1
102
RTVSPost2010PropOp30
 70
     1
102
RTVSPost2010Prop31
280
     0
102
RTVSPost2010PropOp31
 70
     1
102
RTVSPost2010Prop32
280
     0
102
RTVSPost2010PropOp32
 70
     1
102
RTVSPost2010Prop33
280
     0
102
RTVSPost2010PropOp33
 70
     1
102
RTVSPost2010Prop34
280
     0
102
RTVSPost2010PropOp34
 70
     1
102
RTVSPost2010Prop35
280
     0
102
RTVSPost2010PropOp35
 70
     1
102
RTVSPost2010Prop36
280
     0
102
RTVSPost2010PropOp36
 70
     1
102
RTVSPost2010Prop37
 90
       50
102
RTVSPost2010PropOp37
 70
     1
102
RTVSPost2010Prop38
140
0.0
102
RTVSPost2010PropOp38
 70
     1
102
RTVSPost2010Prop39
140
1.0
102
RTVSPost2010PropOp39
 70
     1
102
RTVSPost2010Prop40
 90
        0
102
RTVSPost2010PropOp40
 70
     1
102
RTVSPost2010Prop41ColorIndex
 90
       18
102
RTVSPost2010Prop41ColorRGB
 90
        0
102
RTVSPost2010PropOp41
 70
     1
102
RTVSPost2010Prop42
 90
       50
102
RTVSPost2010PropOp42
 70
     1
102
RTVSPost2010Prop43
 90
        3
102
RTVSPost2010PropOp43
 70
     1
102
RTVSPost2010Prop44ColorIndex
 90
        5
102
RTVSPost2010Prop44ColorRGB
 90
      255
102
RTVSPost2010PropOp44
 70
     1
102
RTVSPost2010Prop45
280
     0
102
RTVSPost2010PropOp45
 70
     1
102
RTVSPost2010Prop46
 90
       50
102
RTVSPost2010PropOp46
 70
     1
102
RTVSPost2010Prop47
 90
       50
102
RTVSPost2010PropOp47
 70
     1
102
RTVSPost2010Prop48
 90
       50
102
RTVSPost2010PropOp48
 70
     1
102
RTVSPost2010Prop49
280
     0
102
RTVSPost2010PropOp49
 70
     1
102
RTVSPost2010Prop50
 90
       50
102
RTVSPost2010PropOp50
 70
     1
102
RTVSPost2010Prop51ColorIndex
 90
      256
102
RTVSPost2010Prop51ColorRGB
 90
-16777216
102
RTVSPost2010PropOp51
 70
     0
102
RTVSPost2010Prop52
140
1.0
102
RTVSPost2010PropOp52
 70
     0
102
RTVSPost2010Prop53
 90
        2
102
RTVSPost2010PropOp53
 70
     1
102
RTVSPost2010Prop54
  1
strokes_ogs.tif
102
RTVSPost2010PropOp54
 70
     1
102
RTVSPost2010Prop55
280
     0
102
RTVSPost2010PropOp55
 70
     1
102
RTVSPost2010Prop56
140
1.0
102
RTVSPost2010PropOp56
 70
     1
102
RTVSPost2010Prop57
140
1.0
102
RTVSPost2010PropOp57
 70
     1
  0
XRECORD
  5
82E
102
{ACAD_REACTORS
330
82D
102
}
330
82D
100
AcDbXrecord
280
     1
102
RTVSPropertyOp0
 70
     1
102
RTVSPropertyOp1
 70
     1
102
RTVSPropertyOp2
 70
     1
102
RTVSPropertyOp3
 70
     1
102
RTVSPropertyOp4
 70
     1
102
RTVSPropertyOp5
 70
     1
102
RTVSPropertyOp6
 70
     1
102
RTVSPropertyOp7
 70
     1
102
RTVSPropertyOp8
 70
     1
102
RTVSPropertyOp9
 70
     1
102
RTVSPropertyOp10
 70
     1
102
RTVSPropertyOp11
 70
     1
102
RTVSPropertyOp12
 70
     1
102
RTVSPropertyOp13
 70
     1
102
RTVSPropertyOp14
 70
     1
102
RTVSPropertyOp15
 70
     1
102
RTVSPropertyOp16
 70
     1
102
RTVSPropertyOp17
 70
     1
102
RTVSPropertyOp18
 70
     1
102
RTVSPropertyOp19
 70
     1
102
RTVSPropertyOp20
 70
     1
102
RTVSPropertyOp21
 70
     1
102
RTVSPropertyOp22
 70
     1
102
RTVSPropertyOp23
 70
     1
102
RTVSPropertyOp24
 70
     1
102
RTVSPropertyOp25
 70
     1
102
RTVSPropertyOp26
 70
     1
102
RTVSPropertyOp27
 70
     1
102
RTVSPropertyOp28
 70
     1
102
RTVSPropertyOp29
 70
     1
102
RTVSPropertyOp30
 70
     1
102
RTVSPropertyOp31
 70
     1
102
RTVSPropertyOp32
 70
     1
102
RTVSPropertyOp33
 70
     1
102
RTVSPropertyOp34
 70
     1
102
RTVSPropertyOp35
 70
     1
102
RTVSPropertyOp36
 70
     1
102
RTVSPropertyOp37
 70
     1
102
RTVSPropertyOp38
 70
     1
102
RTVSPropertyOp39
 70
     1
102
RTVSPropertyOp40
 70
     1
102
RTVSPropertyOp41
 70
     1
102
RTVSPropertyOp42
 70
     1
102
RTVSPropertyOp43
 70
     1
102
RTVSPropertyOp44
 70
     1
102
RTVSPropertyOp45
 70
     1
102
RTVSPropertyOp46
 70
     1
102
RTVSPropertyOp47
 70
     1
102
RTVSPropertyOp48
 70
     1
102
RTVSPropertyOp49
 70
     1
102
RTVSPropertyOp50
 70
     1
102
RTVSPropertyOp51
 70
     0
102
RTVSPropertyOp52
 70
     0
102
RTVSPropertyOp53
 70
     1
102
RTVSPropertyOp54
 70
     1
102
RTVSPropertyOp55
 70
     1
102
RTVSPropertyOp56
 70
     1
102
RTVSPropertyOp57
 70
     1
102
RTVSPost2010Prop28
280
     0
102
RTVSPost2010PropOp28
 70
     1
102
RTVSPost2010Prop29
280
     1
102
RTVSPost2010PropOp29
 70
     1
102
RTVSPost2010Prop30
280
     1
102
RTVSPost2010PropOp30
 70
     1
102
RTVSPost2010Prop31
280
     0
102
RTVSPost2010PropOp31
 70
     1
102
RTVSPost2010Prop32
280
     0
102
RTVSPost2010PropOp32
 70
     1
102
RTVSPost2010Prop33
280
     0
102
RTVSPost2010PropOp33
 70
     1
102
RTVSPost2010Prop34
280
     0
102
RTVSPost2010PropOp34
 70
     1
102
RTVSPost2010Prop35
280
     0
102
RTVSPost2010PropOp35
 70
     1
102
RTVSPost2010Prop36
280
     0
102
RTVSPost2010PropOp36
 70
     1
102
RTVSPost2010Prop37
 90
       50
102
RTVSPost2010PropOp37
 70
     1
102
RTVSPost2010Prop38
140
0.0
102
RTVSPost2010PropOp38
 70
     1
102
RTVSPost2010Prop39
140
1.0
102
RTVSPost2010PropOp39
 70
     1
102
RTVSPost2010Prop40
 90
        0
102
RTVSPost2010PropOp40
 70
     1
102
RTVSPost2010Prop41ColorIndex
 90
       18
102
RTVSPost2010Prop41ColorRGB
 90
        0
102
RTVSPost2010PropOp41
 70
     1
102
RTVSPost2010Prop42
 90
       50
102
RTVSPost2010PropOp42
 70
     1
102
RTVSPost2010Prop43
 90
        3
102
RTVSPost2010PropOp43
 70
     1
102
RTVSPost2010Prop44ColorIndex
 90
        5
102
RTVSPost2010Prop44ColorRGB
 90
      255
102
RTVSPost2010PropOp44
 70
     1
102
RTVSPost2010Prop45
280
     0
102
RTVSPost2010PropOp45
 70
     1
102
RTVSPost2010Prop46
 90
       50
102
RTVSPost2010PropOp46
 70
     1
102
RTVSPost2010Prop47
 90
       50
102
RTVSPost2010PropOp47
 70
     1
102
RTVSPost2010Prop48
 90
       50
102
RTVSPost2010PropOp48
 70
     1
102
RTVSPost2010Prop49
280
     0
102
RTVSPost2010PropOp49
 70
     1
102
RTVSPost2010Prop50
 90
       50
102
RTVSPost2010PropOp50
 70
     1
102
RTVSPost2010Prop51ColorIndex
 90
      256
102
RTVSPost2010Prop51ColorRGB
 90
-16777216
102
RTVSPost2010PropOp51
 70
     0
102
RTVSPost2010Prop52
140
1.0
102
RTVSPost2010PropOp52
 70
     0
102
RTVSPost2010Prop53
 90
        2
102
RTVSPost2010PropOp53
 70
     1
102
RTVSPost2010Prop54
  1
strokes_ogs.tif
102
RTVSPost2010PropOp54
 70
     1
102
RTVSPost2010Prop55
280
     0
102
RTVSPost2010PropOp55
 70
     1
102
RTVSPost2010Prop56
140
1.0
102
RTVSPost2010PropOp56
 70
     1
102
RTVSPost2010Prop57
140
1.0
102
RTVSPost2010PropOp57
 70
     1
  0
XRECORD
  5
820
102
{ACAD_REACTORS
330
81F
102
}
330
81F
100
AcDbXrecord
280
     1
102
RTVSPropertyOp0
 70
     1
102
RTVSPropertyOp1
 70
     1
102
RTVSPropertyOp2
 70
     1
102
RTVSPropertyOp3
 70
     1
102
RTVSPropertyOp4
 70
     1
102
RTVSPropertyOp5
 70
     1
102
RTVSPropertyOp6
 70
     1
102
RTVSPropertyOp7
 70
     1
102
RTVSPropertyOp8
 70
     1
102
RTVSPropertyOp9
 70
     1
102
RTVSPropertyOp10
 70
     1
102
RTVSPropertyOp11
 70
     1
102
RTVSPropertyOp12
 70
     1
102
RTVSPropertyOp13
 70
     1
102
RTVSPropertyOp14
 70
     1
102
RTVSPropertyOp15
 70
     1
102
RTVSPropertyOp16
 70
     1
102
RTVSPropertyOp17
 70
     1
102
RTVSPropertyOp18
 70
     1
102
RTVSPropertyOp19
 70
     1
102
RTVSPropertyOp20
 70
     1
102
RTVSPropertyOp21
 70
     1
102
RTVSPropertyOp22
 70
     1
102
RTVSPropertyOp23
 70
     1
102
RTVSPropertyOp24
 70
     1
102
RTVSPropertyOp25
 70
     1
102
RTVSPropertyOp26
 70
     1
102
RTVSPropertyOp27
 70
     1
102
RTVSPropertyOp28
 70
     1
102
RTVSPropertyOp29
 70
     1
102
RTVSPropertyOp30
 70
     1
102
RTVSPropertyOp31
 70
     1
102
RTVSPropertyOp32
 70
     1
102
RTVSPropertyOp33
 70
     1
102
RTVSPropertyOp34
 70
     1
102
RTVSPropertyOp35
 70
     1
102
RTVSPropertyOp36
 70
     1
102
RTVSPropertyOp37
 70
     1
102
RTVSPropertyOp38
 70
     1
102
RTVSPropertyOp39
 70
     1
102
RTVSPropertyOp40
 70
     1
102
RTVSPropertyOp41
 70
     1
102
RTVSPropertyOp42
 70
     1
102
RTVSPropertyOp43
 70
     1
102
RTVSPropertyOp44
 70
     1
102
RTVSPropertyOp45
 70
     1
102
RTVSPropertyOp46
 70
     1
102
RTVSPropertyOp47
 70
     1
102
RTVSPropertyOp48
 70
     1
102
RTVSPropertyOp49
 70
     1
102
RTVSPropertyOp50
 70
     1
102
RTVSPropertyOp51
 70
     0
102
RTVSPropertyOp52
 70
     0
102
RTVSPropertyOp53
 70
     1
102
RTVSPropertyOp54
 70
     1
102
RTVSPropertyOp55
 70
     1
102
RTVSPropertyOp56
 70
     1
102
RTVSPropertyOp57
 70
     1
102
RTVSPost2010Prop28
280
     0
102
RTVSPost2010PropOp28
 70
     1
102
RTVSPost2010Prop29
280
     1
102
RTVSPost2010PropOp29
 70
     1
102
RTVSPost2010Prop30
280
     1
102
RTVSPost2010PropOp30
 70
     1
102
RTVSPost2010Prop31
280
     0
102
RTVSPost2010PropOp31
 70
     1
102
RTVSPost2010Prop32
280
     0
102
RTVSPost2010PropOp32
 70
     1
102
RTVSPost2010Prop33
280
     0
102
RTVSPost2010PropOp33
 70
     1
102
RTVSPost2010Prop34
280
     0
102
RTVSPost2010PropOp34
 70
     1
102
RTVSPost2010Prop35
280
     0
102
RTVSPost2010PropOp35
 70
     1
102
RTVSPost2010Prop36
280
     0
102
RTVSPost2010PropOp36
 70
     1
102
RTVSPost2010Prop37
 90
       50
102
RTVSPost2010PropOp37
 70
     1
102
RTVSPost2010Prop38
140
0.0
102
RTVSPost2010PropOp38
 70
     1
102
RTVSPost2010Prop39
140
1.0
102
RTVSPost2010PropOp39
 70
     1
102
RTVSPost2010Prop40
 90
        0
102
RTVSPost2010PropOp40
 70
     1
102
RTVSPost2010Prop41ColorIndex
 90
       18
102
RTVSPost2010Prop41ColorRGB
 90
        0
102
RTVSPost2010PropOp41
 70
     1
102
RTVSPost2010Prop42
 90
       50
102
RTVSPost2010PropOp42
 70
     1
102
RTVSPost2010Prop43
 90
        3
102
RTVSPost2010PropOp43
 70
     1
102
RTVSPost2010Prop44ColorIndex
 90
        5
102
RTVSPost2010Prop44ColorRGB
 90
      255
102
RTVSPost2010PropOp44
 70
     1
102
RTVSPost2010Prop45
280
     0
102
RTVSPost2010PropOp45
 70
     1
102
RTVSPost2010Prop46
 90
       50
102
RTVSPost2010PropOp46
 70
     1
102
RTVSPost2010Prop47
 90
       50
102
RTVSPost2010PropOp47
 70
     1
102
RTVSPost2010Prop48
 90
       50
102
RTVSPost2010PropOp48
 70
     1
102
RTVSPost2010Prop49
280
     0
102
RTVSPost2010PropOp49
 70
     1
102
RTVSPost2010Prop50
 90
       50
102
RTVSPost2010PropOp50
 70
     1
102
RTVSPost2010Prop51ColorIndex
 90
      256
102
RTVSPost2010Prop51ColorRGB
 90
-16777216
102
RTVSPost2010PropOp51
 70
     0
102
RTVSPost2010Prop52
140
1.0
102
RTVSPost2010PropOp52
 70
     0
102
RTVSPost2010Prop53
 90
        2
102
RTVSPost2010PropOp53
 70
     1
102
RTVSPost2010Prop54
  1
strokes_ogs.tif
102
RTVSPost2010PropOp54
 70
     1
102
RTVSPost2010Prop55
280
     0
102
RTVSPost2010PropOp55
 70
     1
102
RTVSPost2010Prop56
140
1.0
102
RTVSPost2010PropOp56
 70
     1
102
RTVSPost2010Prop57
140
1.0
102
RTVSPost2010PropOp57
 70
     1
  0
XRECORD
  5
840
102
{ACAD_REACTORS
330
83F
102
}
330
83F
100
AcDbXrecord
280
     1
102
RTVSPropertyOp0
 70
     1
102
RTVSPropertyOp1
 70
     1
102
RTVSPropertyOp2
 70
     1
102
RTVSPropertyOp3
 70
     1
102
RTVSPropertyOp4
 70
     1
102
RTVSPropertyOp5
 70
     1
102
RTVSPropertyOp6
 70
     1
102
RTVSPropertyOp7
 70
     1
102
RTVSPropertyOp8
 70
     1
102
RTVSPropertyOp9
 70
     1
102
RTVSPropertyOp10
 70
     1
102
RTVSPropertyOp11
 70
     1
102
RTVSPropertyOp12
 70
     1
102
RTVSPropertyOp13
 70
     1
102
RTVSPropertyOp14
 70
     1
102
RTVSPropertyOp15
 70
     1
102
RTVSPropertyOp16
 70
     1
102
RTVSPropertyOp17
 70
     1
102
RTVSPropertyOp18
 70
     1
102
RTVSPropertyOp19
 70
     1
102
RTVSPropertyOp20
 70
     1
102
RTVSPropertyOp21
 70
     1
102
RTVSPropertyOp22
 70
     1
102
RTVSPropertyOp23
 70
     1
102
RTVSPropertyOp24
 70
     1
102
RTVSPropertyOp25
 70
     1
102
RTVSPropertyOp26
 70
     1
102
RTVSPropertyOp27
 70
     1
102
RTVSPropertyOp28
 70
     1
102
RTVSPropertyOp29
 70
     1
102
RTVSPropertyOp30
 70
     1
102
RTVSPropertyOp31
 70
     1
102
RTVSPropertyOp32
 70
     1
102
RTVSPropertyOp33
 70
     1
102
RTVSPropertyOp34
 70
     1
102
RTVSPropertyOp35
 70
     1
102
RTVSPropertyOp36
 70
     1
102
RTVSPropertyOp37
 70
     1
102
RTVSPropertyOp38
 70
     1
102
RTVSPropertyOp39
 70
     1
102
RTVSPropertyOp40
 70
     1
102
RTVSPropertyOp41
 70
     1
102
RTVSPropertyOp42
 70
     1
102
RTVSPropertyOp43
 70
     1
102
RTVSPropertyOp44
 70
     1
102
RTVSPropertyOp45
 70
     1
102
RTVSPropertyOp46
 70
     1
102
RTVSPropertyOp47
 70
     1
102
RTVSPropertyOp48
 70
     1
102
RTVSPropertyOp49
 70
     1
102
RTVSPropertyOp50
 70
     1
102
RTVSPropertyOp51
 70
     0
102
RTVSPropertyOp52
 70
     0
102
RTVSPropertyOp53
 70
     1
102
RTVSPropertyOp54
 70
     1
102
RTVSPropertyOp55
 70
     1
102
RTVSPropertyOp56
 70
     1
102
RTVSPropertyOp57
 70
     1
102
RTVSPost2010Prop28
280
     0
102
RTVSPost2010PropOp28
 70
     1
102
RTVSPost2010Prop29
280
     1
102
RTVSPost2010PropOp29
 70
     1
102
RTVSPost2010Prop30
280
     1
102
RTVSPost2010PropOp30
 70
     1
102
RTVSPost2010Prop31
280
     0
102
RTVSPost2010PropOp31
 70
     1
102
RTVSPost2010Prop32
280
     0
102
RTVSPost2010PropOp32
 70
     1
102
RTVSPost2010Prop33
280
     0
102
RTVSPost2010PropOp33
 70
     1
102
RTVSPost2010Prop34
280
     0
102
RTVSPost2010PropOp34
 70
     1
102
RTVSPost2010Prop35
280
     0
102
RTVSPost2010PropOp35
 70
     1
102
RTVSPost2010Prop36
280
     0
102
RTVSPost2010PropOp36
 70
     1
102
RTVSPost2010Prop37
 90
       50
102
RTVSPost2010PropOp37
 70
     1
102
RTVSPost2010Prop38
140
0.0
102
RTVSPost2010PropOp38
 70
     1
102
RTVSPost2010Prop39
140
1.0
102
RTVSPost2010PropOp39
 70
     1
102
RTVSPost2010Prop40
 90
        0
102
RTVSPost2010PropOp40
 70
     1
102
RTVSPost2010Prop41ColorIndex
 90
       18
102
RTVSPost2010Prop41ColorRGB
 90
        0
102
RTVSPost2010PropOp41
 70
     1
102
RTVSPost2010Prop42
 90
       50
102
RTVSPost2010PropOp42
 70
     1
102
RTVSPost2010Prop43
 90
        3
102
RTVSPost2010PropOp43
 70
     1
102
RTVSPost2010Prop44ColorIndex
 90
        5
102
RTVSPost2010Prop44ColorRGB
 90
      255
102
RTVSPost2010PropOp44
 70
     1
102
RTVSPost2010Prop45
280
     0
102
RTVSPost2010PropOp45
 70
     1
102
RTVSPost2010Prop46
 90
       50
102
RTVSPost2010PropOp46
 70
     1
102
RTVSPost2010Prop47
 90
       50
102
RTVSPost2010PropOp47
 70
     1
102
RTVSPost2010Prop48
 90
       50
102
RTVSPost2010PropOp48
 70
     1
102
RTVSPost2010Prop49
280
     0
102
RTVSPost2010PropOp49
 70
     1
102
RTVSPost2010Prop50
 90
       50
102
RTVSPost2010PropOp50
 70
     1
102
RTVSPost2010Prop51ColorIndex
 90
      256
102
RTVSPost2010Prop51ColorRGB
 90
-16777216
102
RTVSPost2010PropOp51
 70
     0
102
RTVSPost2010Prop52
140
1.0
102
RTVSPost2010PropOp52
 70
     0
102
RTVSPost2010Prop53
 90
        2
102
RTVSPost2010PropOp53
 70
     1
102
RTVSPost2010Prop54
  1
strokes_ogs.tif
102
RTVSPost2010PropOp54
 70
     1
102
RTVSPost2010Prop55
280
     0
102
RTVSPost2010PropOp55
 70
     1
102
RTVSPost2010Prop56
140
1.0
102
RTVSPost2010PropOp56
 70
     1
102
RTVSPost2010Prop57
140
1.0
102
RTVSPost2010PropOp57
 70
     1
  0
ENDSEC
  0
EOF
