  0
SECTION
  2
HEADER
  9
$ACADVER
  1
AC1015
  9
$ACADMAINTVER
 70
     6
  9
$DWGCODEPAGE
  3
ANSI_1252
  9
$INSBASE
 10
0.0
 20
0.0
 30
0.0
  9
$EXTMIN
 10
1.000000000000000E+20
 20
1.000000000000000E+20
 30
1.000000000000000E+20
  9
$EXTMAX
 10
-1.000000000000000E+20
 20
-1.000000000000000E+20
 30
-1.000000000000000E+20
  9
$LIMMIN
 10
-170.0
 20
-170.0
  9
$LIMMAX
 10
519.0
 20
260.0
  9
$ORTHOMODE
 70
     0
  9
$REGENMODE
 70
     1
  9
$FILLMODE
 70
     1
  9
$QTEXTMODE
 70
     0
  9
$MIRRTEXT
 70
     0
  9
$LTSCALE
 40
1.0
  9
$ATTMODE
 70
     1
  9
$TEXTSIZE
 40
3.5
  9
$TRACEWID
 40
1.0
  9
$TEXTSTYLE
  7
SIMPLEX
  9
$CLAYER
  8
1
  9
$CELTYPE
  6
BYLAYER
  9
$CECOLOR
 62
   256
  9
$CELTSCALE
 40
1.0
  9
$DISPSILH
 70
     0
  9
$DIMSCALE
 40
1.0
  9
$DIMASZ
 40
2.5
  9
$DIMEXO
 40
0.0
  9
$DIMDLI
 40
3.75
  9
$DIMRND
 40
0.0
  9
$DIMDLE
 40
0.0
  9
$DIMEXE
 40
1.25
  9
$DIMTP
 40
0.0
  9
$DIMTM
 40
0.0
  9
$DIMTXT
 40
3.5
  9
$DIMCEN
 40
0.0
  9
$DIMTSZ
 40
0.0
  9
$DIMTOL
 70
     0
  9
$DIMLIM
 70
     0
  9
$DIMTIH
 70
     0
  9
$DIMTOH
 70
     0
  9
$DIMSE1
 70
     0
  9
$DIMSE2
 70
     0
  9
$DIMTAD
 70
     1
  9
$DIMZIN
 70
     8
  9
$DIMBLK
  1

  9
$DIMASO
 70
     1
  9
$DIMSHO
 70
     1
  9
$DIMPOST
  1

  9
$DIMAPOST
  1

  9
$DIMALT
 70
     0
  9
$DIMALTD
 70
     3
  9
$DIMALTF
 40
0.039370078
  9
$DIMLFAC
 40
1.0
  9
$DIMTOFL
 70
     0
  9
$DIMTVP
 40
0.0
  9
$DIMTIX
 70
     0
  9
$DIMSOXD
 70
     0
  9
$DIMSAH
 70
     0
  9
$DIMBLK1
  1

  9
$DIMBLK2
  1

  9
$DIMSTYLE
  2
STANDARD
  9
$DIMCLRD
 70
     0
  9
$DIMCLRE
 70
     0
  9
$DIMCLRT
 70
     0
  9
$DIMTFAC
 40
1.0
  9
$DIMGAP
 40
0.625
  9
$DIMJUST
 70
     0
  9
$DIMSD1
 70
     0
  9
$DIMSD2
 70
     0
  9
$DIMTOLJ
 70
     0
  9
$DIMTZIN
 70
     8
  9
$DIMALTZ
 70
     0
  9
$DIMALTTZ
 70
     0
  9
$DIMUPT
 70
     0
  9
$DIMDEC
 70
     2
  9
$DIMTDEC
 70
     2
  9
$DIMALTU
 70
     2
  9
$DIMALTTD
 70
     3
  9
$DIMTXSTY
  7
SIMPLEX
  9
$DIMAUNIT
 70
     0
  9
$DIMADEC
 70
     2
  9
$DIMALTRND
 40
0.0
  9
$DIMAZIN
 70
     2
  9
$DIMDSEP
 70
    46
  9
$DIMATFIT
 70
     3
  9
$DIMFRAC
 70
     0
  9
$DIMLDRBLK
  1

  9
$DIMLUNIT
 70
     2
  9
$DIMLWD
 70
    -2
  9
$DIMLWE
 70
    -2
  9
$DIMTMOVE
 70
     0
  9
$LUNITS
 70
     2
  9
$LUPREC
 70
     4
  9
$SKETCHINC
 40
1.0
  9
$FILLETRAD
 40
0.0
  9
$AUNITS
 70
     0
  9
$AUPREC
 70
     0
  9
$MENU
  1
c:\tdm21\cad\caduti13\tdm13
  9
$ELEVATION
 40
0.0
  9
$PELEVATION
 40
0.0
  9
$THICKNESS
 40
0.0
  9
$LIMCHECK
 70
     0
  9
$CHAMFERA
 40
0.0
  9
$CHAMFERB
 40
0.0
  9
$CHAMFERC
 40
0.0
  9
$CHAMFERD
 40
0.0
  9
$SKPOLY
 70
     0
  9
$TDCREATE
 40
2454957.551975972
  9
$TDUCREATE
 40
2454957.510309306
  9
$TDUPDATE
 40
2457360.435364827
  9
$TDUUPDATE
 40
2457360.39369816
  9
$TDINDWG
 40
0.0009643519
  9
$TDUSRTIMER
 40
0.0009475231
  9
$USRTIMER
 70
     1
  9
$ANGBASE
 50
0.0
  9
$ANGDIR
 70
     0
  9
$PDMODE
 70
     1
  9
$PDSIZE
 40
0.0
  9
$PLINEWID
 40
0.0
  9
$SPLFRAME
 70
     0
  9
$SPLINETYPE
 70
     6
  9
$SPLINESEGS
 70
     8
  9
$HANDSEED
  5
849
  9
$SURFTAB1
 70
     6
  9
$SURFTAB2
 70
     6
  9
$SURFTYPE
 70
     6
  9
$SURFU
 70
     6
  9
$SURFV
 70
     6
  9
$UCSBASE
  2

  9
$UCSNAME
  2

  9
$UCSORG
 10
0.0
 20
0.0
 30
0.0
  9
$UCSXDIR
 10
1.0
 20
0.0
 30
0.0
  9
$UCSYDIR
 10
0.0
 20
1.0
 30
0.0
  9
$UCSORTHOREF
  2

  9
$UCSORTHOVIEW
 70
     0
  9
$UCSORGTOP
 10
0.0
 20
0.0
 30
0.0
  9
$UCSORGBOTTOM
 10
0.0
 20
0.0
 30
0.0
  9
$UCSORGLEFT
 10
0.0
 20
0.0
 30
0.0
  9
$UCSORGRIGHT
 10
0.0
 20
0.0
 30
0.0
  9
$UCSORGFRONT
 10
0.0
 20
0.0
 30
0.0
  9
$UCSORGBACK
 10
0.0
 20
0.0
 30
0.0
  9
$PUCSBASE
  2

  9
$PUCSNAME
  2

  9
$PUCSORG
 10
0.0
 20
0.0
 30
0.0
  9
$PUCSXDIR
 10
1.0
 20
0.0
 30
0.0
  9
$PUCSYDIR
 10
0.0
 20
1.0
 30
0.0
  9
$PUCSORTHOREF
  2

  9
$PUCSORTHOVIEW
 70
     0
  9
$PUCSORGTOP
 10
0.0
 20
0.0
 30
0.0
  9
$PUCSORGBOTTOM
 10
0.0
 20
0.0
 30
0.0
  9
$PUCSORGLEFT
 10
0.0
 20
0.0
 30
0.0
  9
$PUCSORGRIGHT
 10
0.0
 20
0.0
 30
0.0
  9
$PUCSORGFRONT
 10
0.0
 20
0.0
 30
0.0
  9
$PUCSORGBACK
 10
0.0
 20
0.0
 30
0.0
  9
$USERI1
 70
     0
  9
$USERI2
 70
     0
  9
$USERI3
 70
     0
  9
$USERI4
 70
     0
  9
$USERI5
 70
     0
  9
$USERR1
 40
0.0
  9
$USERR2
 40
0.0
  9
$USERR3
 40
0.0
  9
$USERR4
 40
0.0
  9
$USERR5
 40
0.0
  9
$WORLDVIEW
 70
     1
  9
$SHADEDGE
 70
     3
  9
$SHADEDIF
 70
    70
  9
$TILEMODE
 70
     1
  9
$MAXACTVP
 70
    64
  9
$PINSBASE
 10
0.0
 20
0.0
 30
0.0
  9
$PLIMCHECK
 70
     0
  9
$PEXTMIN
 10
0.0
 20
0.0
 30
0.0
  9
$PEXTMAX
 10
0.0
 20
0.0
 30
0.0
  9
$PLIMMIN
 10
0.0
 20
0.0
  9
$PLIMMAX
 10
12.0
 20
9.0
  9
$UNITMODE
 70
     0
  9
$VISRETAIN
 70
     0
  9
$PLINEGEN
 70
     0
  9
$PSLTSCALE
 70
     1
  9
$TREEDEPTH
 70
  3020
  9
$CMLSTYLE
  2
STANDARD
  9
$CMLJUST
 70
     0
  9
$CMLSCALE
 40
20.0
  9
$PROXYGRAPHICS
 70
     1
  9
$MEASUREMENT
 70
     1
  9
$CELWEIGHT
370
    -1
  9
$ENDCAPS
280
     0
  9
$JOINSTYLE
280
     0
  9
$LWDISPLAY
290
     0
  9
$INSUNITS
 70
     4
  9
$HYPERLINKBASE
  1

  9
$STYLESHEET
  1
MONOCHROME.CTB
  9
$XEDIT
290
     1
  9
$CEPSNTYPE
380
     0
  9
$PSTYLEMODE
290
     1
  9
$FINGERPRINTGUID
  2
{46B44192-1510-48B1-B61B-CBE2ADA013A7}
  9
$VERSIONGUID
  2
{6160D478-9A74-4C97-9D8A-D4A65CE74B12}
  9
$EXTNAMES
290
     1
  9
$PSVPSCALE
 40
0.0
  9
$OLESTARTUP
290
     0
  0
ENDSEC
  0
SECTION
  2
CLASSES
  0
CLASS
  1
ACDBDICTIONARYWDFLT
  2
AcDbDictionaryWithDefault
  3
ObjectDBX Classes
 90
        0
280
     0
281
     0
  0
CLASS
  1
ACDBPLACEHOLDER
  2
AcDbPlaceHolder
  3
ObjectDBX Classes
 90
        0
280
     0
281
     0
  0
CLASS
  1
LAYOUT
  2
AcDbLayout
  3
ObjectDBX Classes
 90
        0
280
     0
281
     0
  0
CLASS
  1
DICTIONARYVAR
  2
AcDbDictionaryVar
  3
ObjectDBX Classes
 90
        0
280
     0
281
     0
  0
CLASS
  1
TABLESTYLE
  2
AcDbTableStyle
  3
ObjectDBX Classes
 90
     4095
280
     0
281
     0
  0
CLASS
  1
SCALE
  2
AcDbScale
  3
ObjectDBX Classes
 90
     1153
280
     0
281
     0
  0
CLASS
  1
VISUALSTYLE
  2
AcDbVisualStyle
  3
ObjectDBX Classes
 90
     4095
280
     0
281
     0
  0
CLASS
  1
MATERIAL
  2
AcDbMaterial
  3
ObjectDBX Classes
 90
     1153
280
     0
281
     0
  0
CLASS
  1
MLEADERSTYLE
  2
AcDbMLeaderStyle
  3
ACDB_MLEADERSTYLE_CLASS
 90
     4095
280
     0
281
     0
  0
ENDSEC
  0
SECTION
  2
TABLES
  0
TABLE
  2
VPORT
  5
8
102
{ACAD_XDICTIONARY
360
80D
102
}
330
0
100
AcDbSymbolTable
 70
     1
  0
VPORT
  5
39A
330
8
100
AcDbSymbolTableRecord
100
AcDbViewportTableRecord
  2
*Active
 70
     0
 10
0.0
 20
0.0
 11
1.0
 21
1.0
 12
218.9201881351169
 22
109.7549380673833
 13
0.0
 23
0.0
 14
5.0
 24
5.0
 15
5.0
 25
5.0
 16
0.0
 26
0.0
 36
1.0
 17
0.0
 27
0.0
 37
0.0
 40
564.6711112651689
 41
1.066073697585768
 42
50.0
 43
0.0
 44
0.0
 50
0.0
 51
0.0
 71
     0
 72
  2000
 73
     1
 74
     1
 75
     0
 76
     0
 77
     0
 78
     0
281
     0
 65
     1
110
0.0
120
0.0
130
0.0
111
1.0
121
0.0
131
0.0
112
0.0
122
1.0
132
0.0
 79
     0
146
0.0
  0
ENDTAB
  0
TABLE
  2
LTYPE
  5
5
330
0
100
AcDbSymbolTable
 70
     3
  0
LTYPE
  5
12
330
5
100
AcDbSymbolTableRecord
100
AcDbLinetypeTableRecord
  2
BYBLOCK
 70
     0
  3

 72
    65
 73
     0
 40
0.0
  0
LTYPE
  5
13
330
5
100
AcDbSymbolTableRecord
100
AcDbLinetypeTableRecord
  2
BYLAYER
 70
     0
  3

 72
    65
 73
     0
 40
0.0
  0
LTYPE
  5
14
330
5
100
AcDbSymbolTableRecord
100
AcDbLinetypeTableRecord
  2
CONTINUOUS
 70
     0
  3
Solid line
 72
    65
 73
     0
 40
0.0
  0
LTYPE
  5
20
330
5
100
AcDbSymbolTableRecord
100
AcDbLinetypeTableRecord
  2
HIDDEN
 70
     0
  3
Hidden __ __ __ __ __ __ __ __ __ __ __ __ __ _
 72
    65
 73
     2
 40
9.524999999999997
 49
6.349999999999998
 74
     0
 49
-3.174999999999998
 74
     0
  0
LTYPE
  5
351
330
5
100
AcDbSymbolTableRecord
100
AcDbLinetypeTableRecord
  2
CENTER
 70
     0
  3
Dash dot __ . __ . __ . __ . __ . __ . __ . __
 72
    65
 73
     4
 40
25.4
 49
12.7
 74
     0
 49
-6.349999999999998
 74
     0
 49
0.0
 74
     0
 49
-6.349999999999998
 74
     0
  0
ENDTAB
  0
TABLE
  2
LAYER
  5
2
330
0
100
AcDbSymbolTable
 70
    16
  0
LAYER
  5
F
330
2
100
AcDbSymbolTableRecord
100
AcDbLayerTableRecord
  2
0
 70
     0
 62
     7
  6
CONTINUOUS
370
    -3
390
300
  0
LAYER
  5
23
330
2
100
AcDbSymbolTableRecord
100
AcDbLayerTableRecord
  2
1
 70
     0
 62
     4
  6
CONTINUOUS
370
    -3
390
300
  0
LAYER
  5
24
330
2
100
AcDbSymbolTableRecord
100
AcDbLayerTableRecord
  2
SK1
 70
     0
 62
     4
  6
CONTINUOUS
370
    -3
390
300
  0
LAYER
  5
25
330
2
100
AcDbSymbolTableRecord
100
AcDbLayerTableRecord
  2
2
 70
     0
 62
     7
  6
CONTINUOUS
370
    -3
390
300
  0
LAYER
  5
26
330
2
100
AcDbSymbolTableRecord
100
AcDbLayerTableRecord
  2
2L
 70
     0
 62
     7
  6
CONTINUOUS
370
    -3
390
300
  0
LAYER
  5
27
330
2
100
AcDbSymbolTableRecord
100
AcDbLayerTableRecord
  2
SK2
 70
     0
 62
     7
  6
CONTINUOUS
370
    -3
390
300
  0
LAYER
  5
28
330
2
100
AcDbSymbolTableRecord
100
AcDbLayerTableRecord
  2
3
 70
     0
 62
     1
  6
HIDDEN
370
    -3
390
300
  0
LAYER
  5
29
330
2
100
AcDbSymbolTableRecord
100
AcDbLayerTableRecord
  2
SK3
 70
     0
 62
     1
  6
HIDDEN
370
    -3
390
300
  0
LAYER
  5
2A
330
2
100
AcDbSymbolTableRecord
100
AcDbLayerTableRecord
  2
4
 70
     0
 62
     2
  6
CENTER
370
    -3
390
300
  0
LAYER
  5
2B
330
2
100
AcDbSymbolTableRecord
100
AcDbLayerTableRecord
  2
SK4
 70
     0
 62
     2
  6
CENTER
370
    -3
390
300
  0
LAYER
  5
2C
330
2
100
AcDbSymbolTableRecord
100
AcDbLayerTableRecord
  2
5
 70
     0
 62
    -7
  6
CONTINUOUS
370
    -3
390
300
  0
LAYER
  5
2D
330
2
100
AcDbSymbolTableRecord
100
AcDbLayerTableRecord
  2
6
 70
     0
 62
     5
  6
CONTINUOUS
370
    -3
390
300
  0
LAYER
  5
2E
330
2
100
AcDbSymbolTableRecord
100
AcDbLayerTableRecord
  2
SK6
 70
     0
 62
     5
  6
CONTINUOUS
370
    -3
390
300
  0
LAYER
  5
2F
330
2
100
AcDbSymbolTableRecord
100
AcDbLayerTableRecord
  2
DEFPOINTS
 70
     0
 62
     7
  6
CONTINUOUS
290
     0
370
    -3
390
300
  0
LAYER
  5
375
330
2
100
AcDbSymbolTableRecord
100
AcDbLayerTableRecord
  2
CUT
 70
     0
 62
     1
  6
CONTINUOUS
370
    -3
390
300
  0
LAYER
  5
376
330
2
100
AcDbSymbolTableRecord
100
AcDbLayerTableRecord
  2
NOCUT
 70
     0
 62
     7
  6
CONTINUOUS
370
    -3
390
300
  0
ENDTAB
  0
TABLE
  2
STYLE
  5
3
330
0
100
AcDbSymbolTable
 70
     4
  0
STYLE
  5
10
330
3
100
AcDbSymbolTableRecord
100
AcDbTextStyleTableRecord
  2
STANDARD
 70
     0
 40
0.0
 41
1.0
 50
0.0
 71
     0
 42
5.0
  3
txt
  4

  0
STYLE
  5
1D
330
3
100
AcDbSymbolTableRecord
100
AcDbTextStyleTableRecord
  2
TXT
 70
     0
 40
8.0
 41
1.0
 50
0.0
 71
     0
 42
8.0
  3
txt
  4

  0
STYLE
  5
1E
330
3
100
AcDbSymbolTableRecord
100
AcDbTextStyleTableRecord
  2
SIMPLEX
 70
     0
 40
0.0
 41
1.0
 50
0.0
 71
     0
 42
3.5
  3
simplex
  4

  0
STYLE
  5
34C
330
3
100
AcDbSymbolTableRecord
100
AcDbTextStyleTableRecord
  2

 70
     1
 40
0.0
 41
1.0
 50
0.0
 71
     0
 42
2.5
  3
ltypeshp.shx
  4

  0
ENDTAB
  0
TABLE
  2
VIEW
  5
6
330
0
100
AcDbSymbolTable
 70
     0
  0
ENDTAB
  0
TABLE
  2
UCS
  5
7
330
0
100
AcDbSymbolTable
 70
     0
  0
ENDTAB
  0
TABLE
  2
APPID
  5
9
330
0
100
AcDbSymbolTable
 70
     2
  0
APPID
  5
11
330
9
100
AcDbSymbolTableRecord
100
AcDbRegAppTableRecord
  2
ACAD
 70
     0
  0
APPID
  5
846
330
9
100
AcDbSymbolTableRecord
100
AcDbRegAppTableRecord
  2
ACAD_MLEADERVER
 70
     0
  0
ENDTAB
  0
TABLE
  2
DIMSTYLE
  5
A
330
0
100
AcDbSymbolTable
 70
     1
100
AcDbDimStyleTable
  0
DIMSTYLE
105
3F
102
{ACAD_REACTORS
330
7BA
330
7C8
330
7D5
330
7E2
330
7F0
330
7FD
102
}
330
A
100
AcDbSymbolTableRecord
100
AcDbDimStyleTableRecord
  2
STANDARD
 70
     0
 41
2.5
 42
0.0
 43
3.75
 44
1.25
 73
     0
 74
     0
 77
     1
 78
     8
 79
     2
140
3.5
141
0.0
143
0.039370078
147
0.625
171
     3
178
     0
179
     2
271
     2
272
     2
274
     3
283
     0
284
     8
340
1E
  0
ENDTAB
  0
TABLE
  2
BLOCK_RECORD
  5
1
330
0
100
AcDbSymbolTable
 70
     6
  0
BLOCK_RECORD
  5
18
330
1
100
AcDbSymbolTableRecord
100
AcDbBlockTableRecord
  2
*MODEL_SPACE
340
303
  0
BLOCK_RECORD
  5
338
330
1
100
AcDbSymbolTableRecord
100
AcDbBlockTableRecord
  2
*Paper_Space
340
33B
  0
BLOCK_RECORD
  5
7BB
330
1
100
AcDbSymbolTableRecord
100
AcDbBlockTableRecord
  2
*D0
340
0
  0
BLOCK_RECORD
  5
7C9
330
1
100
AcDbSymbolTableRecord
100
AcDbBlockTableRecord
  2
*D1
340
0
  0
BLOCK_RECORD
  5
7D6
330
1
100
AcDbSymbolTableRecord
100
AcDbBlockTableRecord
  2
*D2
340
0
  0
BLOCK_RECORD
  5
7E3
330
1
100
AcDbSymbolTableRecord
100
AcDbBlockTableRecord
  2
*D3
340
0
  0
BLOCK_RECORD
  5
7F1
330
1
100
AcDbSymbolTableRecord
100
AcDbBlockTableRecord
  2
*D4
340
0
  0
BLOCK_RECORD
  5
7FE
330
1
100
AcDbSymbolTableRecord
100
AcDbBlockTableRecord
  2
*D5
340
0
  0
ENDTAB
  0
ENDSEC
  0
SECTION
  2
BLOCKS
  0
BLOCK
  5
32
330
18
100
AcDbEntity
  8
0
100
AcDbBlockBegin
  2
*MODEL_SPACE
 70
     0
 10
0.0
 20
0.0
 30
0.0
  3
*MODEL_SPACE
  1

  0
ENDBLK
  5
33
330
18
100
AcDbEntity
  8
0
100
AcDbBlockEnd
  0
BLOCK
  5
339
330
338
100
AcDbEntity
 67
     1
  8
0
100
AcDbBlockBegin
  2
*Paper_Space
 70
     0
 10
0.0
 20
0.0
 30
0.0
  3
*Paper_Space
  1

  0
ENDBLK
  5
33A
330
338
100
AcDbEntity
 67
     1
  8
0
100
AcDbBlockEnd
  0
BLOCK
  5
7BC
330
7BB
100
AcDbEntity
  8
0
100
AcDbBlockBegin
  2
*D0
 70
     1
 10
0.0
 20
0.0
 30
0.0
  3
*D0
  1

  0
LINE
  5
7BE
330
7BB
100
AcDbEntity
  8
2
 62
     0
370
    -2
100
AcDbLine
 10
52.9
 20
4.7625
 30
0.0
 11
69.14999999999999
 21
4.762500000000057
 31
0.0
  0
LINE
  5
7BF
330
7BB
100
AcDbEntity
  8
2
 62
     0
370
    -2
100
AcDbLine
 10
52.9
 20
-4.7625
 30
0.0
 11
69.15000000000002
 21
-4.762499999999943
 31
0.0
  0
LINE
  5
7C0
330
7BB
100
AcDbEntity
  8
2
 62
     0
370
    -2
100
AcDbLine
 10
67.90000000000002
 20
-4.762499999999948
 30
0.0
 11
67.90000000000008
 21
-22.69099999999994
 31
0.0
  0
LINE
  5
7C1
330
7BB
100
AcDbEntity
  8
2
 62
     0
370
    -2
100
AcDbLine
 10
67.9
 20
2.262500000000053
 30
0.0
 11
67.9
 21
-2.262499999999948
 31
0.0
  0
SOLID
  5
7C2
330
7BB
100
AcDbEntity
  8
2
 62
     0
100
AcDbTrace
 10
68.31666666666668
 20
2.262500000000054
 30
0.0
 11
67.48333333333333
 21
2.262500000000051
 31
0.0
 12
67.89999999999999
 22
4.762500000000053
 32
0.0
 13
67.89999999999999
 23
4.762500000000053
 33
0.0
  0
SOLID
  5
7C3
330
7BB
100
AcDbEntity
  8
2
 62
     0
100
AcDbTrace
 10
67.48333333333333
 20
-2.262499999999949
 30
0.0
 11
68.31666666666668
 21
-2.262499999999946
 31
0.0
 12
67.90000000000002
 22
-4.762499999999948
 32
0.0
 13
67.90000000000002
 23
-4.762499999999948
 33
0.0
  0
MTEXT
  5
7C4
330
7BB
100
AcDbEntity
  8
2
 62
     0
100
AcDbMText
 10
65.50225000000005
 20
-14.97674999999995
 30
0.0
 40
3.5
 41
0.0
 71
     5
 72
     1
  1
%%c9.53
  7
SIMPLEX
 11
-2.983906501879686E-15
 21
1.0
 31
0.0
 73
     1
 44
1.0
  0
POINT
  5
7C5
330
7BB
100
AcDbEntity
  8
DEFPOINTS
 62
     0
100
AcDbPoint
 10
52.9
 20
4.7625
 30
0.0
  0
POINT
  5
7C6
330
7BB
100
AcDbEntity
  8
DEFPOINTS
 62
     0
100
AcDbPoint
 10
52.9
 20
-4.7625
 30
0.0
  0
POINT
  5
7C7
330
7BB
100
AcDbEntity
  8
DEFPOINTS
 62
     0
100
AcDbPoint
 10
67.90000000000002
 20
-4.762499999999948
 30
0.0
  0
ENDBLK
  5
7BD
330
7BB
100
AcDbEntity
  8
0
100
AcDbBlockEnd
  0
BLOCK
  5
7CA
330
7C9
100
AcDbEntity
  8
0
100
AcDbBlockBegin
  2
*D1
 70
     1
 10
0.0
 20
0.0
 30
0.0
  3
*D1
  1

  0
LINE
  5
7CC
330
7C9
100
AcDbEntity
  8
2
 62
     0
370
    -2
100
AcDbLine
 10
0.0
 20
0.0
 30
0.0
 11
0.0
 21
76.25
 31
0.0
  0
LINE
  5
7CD
330
7C9
100
AcDbEntity
  8
2
 62
     0
370
    -2
100
AcDbLine
 10
52.9
 20
0.0
 30
0.0
 11
52.9
 21
76.25
 31
0.0
  0
LINE
  5
7CE
330
7C9
100
AcDbEntity
  8
2
 62
     0
370
    -2
100
AcDbLine
 10
2.5
 20
75.0
 30
0.0
 11
50.4
 21
75.0
 31
0.0
  0
SOLID
  5
7CF
330
7C9
100
AcDbEntity
  8
2
 62
     0
100
AcDbTrace
 10
2.5
 20
75.41666666666667
 30
0.0
 11
2.5
 21
74.58333333333333
 31
0.0
 12
0.0
 22
75.0
 32
0.0
 13
0.0
 23
75.0
 33
0.0
  0
SOLID
  5
7D0
330
7C9
100
AcDbEntity
  8
2
 62
     0
100
AcDbTrace
 10
50.4
 20
74.58333333333333
 30
0.0
 11
50.4
 21
75.41666666666667
 31
0.0
 12
52.9
 22
75.0
 32
0.0
 13
52.9
 23
75.0
 33
0.0
  0
MTEXT
  5
7D1
330
7C9
100
AcDbEntity
  8
2
 62
     0
100
AcDbMText
 10
26.45
 20
77.39775
 30
0.0
 40
3.5
 41
0.0
 71
     5
 72
     1
  1
52.9
  7
SIMPLEX
 73
     1
 44
1.0
  0
POINT
  5
7D2
330
7C9
100
AcDbEntity
  8
DEFPOINTS
 62
     0
100
AcDbPoint
 10
0.0
 20
0.0
 30
0.0
  0
POINT
  5
7D3
330
7C9
100
AcDbEntity
  8
DEFPOINTS
 62
     0
100
AcDbPoint
 10
52.9
 20
0.0
 30
0.0
  0
POINT
  5
7D4
330
7C9
100
AcDbEntity
  8
DEFPOINTS
 62
     0
100
AcDbPoint
 10
52.9
 20
75.0
 30
0.0
  0
ENDBLK
  5
7CB
330
7C9
100
AcDbEntity
  8
0
100
AcDbBlockEnd
  0
BLOCK
  5
7D7
330
7D6
100
AcDbEntity
  8
0
100
AcDbBlockBegin
  2
*D2
 70
     1
 10
0.0
 20
0.0
 30
0.0
  3
*D2
  1

  0
LINE
  5
7D9
330
7D6
100
AcDbEntity
  8
2
 62
     0
370
    -2
100
AcDbLine
 10
24.325
 20
4.7625
 30
0.0
 11
24.325
 21
61.25
 31
0.0
  0
LINE
  5
7DA
330
7D6
100
AcDbEntity
  8
2
 62
     0
370
    -2
100
AcDbLine
 10
52.9
 20
4.7625
 30
0.0
 11
52.9
 21
61.25
 31
0.0
  0
LINE
  5
7DB
330
7D6
100
AcDbEntity
  8
2
 62
     0
370
    -2
100
AcDbLine
 10
26.825
 20
60.0
 30
0.0
 11
50.4
 21
60.0
 31
0.0
  0
SOLID
  5
7DC
330
7D6
100
AcDbEntity
  8
2
 62
     0
100
AcDbTrace
 10
26.825
 20
60.41666666666666
 30
0.0
 11
26.825
 21
59.58333333333334
 31
0.0
 12
24.325
 22
60.0
 32
0.0
 13
24.325
 23
60.0
 33
0.0
  0
SOLID
  5
7DD
330
7D6
100
AcDbEntity
  8
2
 62
     0
100
AcDbTrace
 10
50.4
 20
59.58333333333334
 30
0.0
 11
50.4
 21
60.41666666666666
 31
0.0
 12
52.9
 22
60.0
 32
0.0
 13
52.9
 23
60.0
 33
0.0
  0
MTEXT
  5
7DE
330
7D6
100
AcDbEntity
  8
2
 62
     0
100
AcDbMText
 10
38.6125
 20
62.39775
 30
0.0
 40
3.5
 41
0.0
 71
     5
 72
     1
  1
28.58
  7
SIMPLEX
 73
     1
 44
1.0
  0
POINT
  5
7DF
330
7D6
100
AcDbEntity
  8
DEFPOINTS
 62
     0
100
AcDbPoint
 10
24.325
 20
4.7625
 30
0.0
  0
POINT
  5
7E0
330
7D6
100
AcDbEntity
  8
DEFPOINTS
 62
     0
100
AcDbPoint
 10
52.9
 20
4.7625
 30
0.0
  0
POINT
  5
7E1
330
7D6
100
AcDbEntity
  8
DEFPOINTS
 62
     0
100
AcDbPoint
 10
52.9
 20
60.0
 30
0.0
  0
ENDBLK
  5
7D8
330
7D6
100
AcDbEntity
  8
0
100
AcDbBlockEnd
  0
BLOCK
  5
7E4
330
7E3
100
AcDbEntity
  8
0
100
AcDbBlockBegin
  2
*D3
 70
     1
 10
0.0
 20
0.0
 30
0.0
  3
*D3
  1

  0
LINE
  5
7E6
330
7E3
100
AcDbEntity
  8
SK2
 62
     0
370
    -2
100
AcDbLine
 10
-36.00000000000001
 20
4.7625
 30
0.0
 11
-52.25000000002431
 21
4.762499999917071
 31
0.0
  0
LINE
  5
7E7
330
7E3
100
AcDbEntity
  8
SK2
 62
     0
370
    -2
100
AcDbLine
 10
-36.00000000000001
 20
-4.7625
 30
0.0
 11
-52.2499999999757
 21
-4.762500000082929
 31
0.0
  0
LINE
  5
7E8
330
7E3
100
AcDbEntity
  8
SK2
 62
     0
370
    -2
100
AcDbLine
 10
-50.9999999999757
 20
-4.76250000007655
 30
0.0
 11
-50.9999999998842
 21
-22.69100000007655
 31
0.0
  0
LINE
  5
7E9
330
7E3
100
AcDbEntity
  8
SK2
 62
     0
370
    -2
100
AcDbLine
 10
-51.00000000001155
 20
2.26249999992345
 30
0.0
 11
-50.99999999998846
 21
-2.26250000007655
 31
0.0
  0
SOLID
  5
7EA
330
7E3
100
AcDbEntity
  8
SK2
 62
     0
100
AcDbTrace
 10
-50.58333333334488
 20
2.262499999925576
 30
0.0
 11
-51.41666666667821
 21
2.262499999921324
 31
0.0
 12
-51.00000000002431
 22
4.76249999992345
 32
0.0
 13
-51.00000000002431
 23
4.76249999992345
 33
0.0
  0
SOLID
  5
7EB
330
7E3
100
AcDbEntity
  8
SK2
 62
     0
100
AcDbTrace
 10
-51.41666666665513
 20
-2.262500000078677
 30
0.0
 11
-50.5833333333218
 21
-2.262500000074424
 31
0.0
 12
-50.9999999999757
 22
-4.76250000007655
 32
0.0
 13
-50.9999999999757
 23
-4.76250000007655
 33
0.0
  0
MTEXT
  5
7EC
330
7E3
100
AcDbEntity
  8
SK2
 62
     0
100
AcDbMText
 10
-53.39774999992358
 20
-14.97675000008878
 30
0.0
 40
3.5
 41
0.0
 71
     5
 72
     1
  1
%%c9.53
  7
SIMPLEX
 11
-5.103226094839732E-12
 21
1.0
 31
0.0
 73
     1
 44
1.0
  0
POINT
  5
7ED
330
7E3
100
AcDbEntity
  8
DEFPOINTS
 62
     0
100
AcDbPoint
 10
-36.00000000000001
 20
4.7625
 30
0.0
  0
POINT
  5
7EE
330
7E3
100
AcDbEntity
  8
DEFPOINTS
 62
     0
100
AcDbPoint
 10
-36.00000000000001
 20
-4.7625
 30
0.0
  0
POINT
  5
7EF
330
7E3
100
AcDbEntity
  8
DEFPOINTS
 62
     0
100
AcDbPoint
 10
-50.9999999999757
 20
-4.76250000007655
 30
0.0
  0
ENDBLK
  5
7E5
330
7E3
100
AcDbEntity
  8
0
100
AcDbBlockEnd
  0
BLOCK
  5
7F2
330
7F1
100
AcDbEntity
  8
0
100
AcDbBlockBegin
  2
*D4
 70
     1
 10
0.0
 20
0.0
 30
0.0
  3
*D4
  1

  0
LINE
  5
7F4
330
7F1
100
AcDbEntity
  8
SK2
 62
     0
370
    -2
100
AcDbLine
 10
-36.00000000000001
 20
0.0
 30
0.0
 11
-36.00000000000001
 21
91.25
 31
0.0
  0
LINE
  5
7F5
330
7F1
100
AcDbEntity
  8
SK2
 62
     0
370
    -2
100
AcDbLine
 10
52.9
 20
0.0
 30
0.0
 11
52.9
 21
91.25
 31
0.0
  0
LINE
  5
7F6
330
7F1
100
AcDbEntity
  8
SK2
 62
     0
370
    -2
100
AcDbLine
 10
-33.50000000000001
 20
90.0
 30
0.0
 11
50.4
 21
90.0
 31
0.0
  0
SOLID
  5
7F7
330
7F1
100
AcDbEntity
  8
SK2
 62
     0
100
AcDbTrace
 10
-33.50000000000001
 20
90.41666666666667
 30
0.0
 11
-33.50000000000001
 21
89.58333333333333
 31
0.0
 12
-36.00000000000001
 22
90.0
 32
0.0
 13
-36.00000000000001
 23
90.0
 33
0.0
  0
SOLID
  5
7F8
330
7F1
100
AcDbEntity
  8
SK2
 62
     0
100
AcDbTrace
 10
50.4
 20
89.58333333333333
 30
0.0
 11
50.4
 21
90.41666666666667
 31
0.0
 12
52.9
 22
90.0
 32
0.0
 13
52.9
 23
90.0
 33
0.0
  0
MTEXT
  5
7F9
330
7F1
100
AcDbEntity
  8
SK2
 62
     0
100
AcDbMText
 10
8.449999999999996
 20
92.39775
 30
0.0
 40
3.5
 41
0.0
 71
     5
 72
     1
  1
88.9
  7
SIMPLEX
 73
     1
 44
1.0
  0
POINT
  5
7FA
330
7F1
100
AcDbEntity
  8
DEFPOINTS
 62
     0
100
AcDbPoint
 10
-36.00000000000001
 20
0.0
 30
0.0
  0
POINT
  5
7FB
330
7F1
100
AcDbEntity
  8
DEFPOINTS
 62
     0
100
AcDbPoint
 10
52.9
 20
0.0
 30
0.0
  0
POINT
  5
7FC
330
7F1
100
AcDbEntity
  8
DEFPOINTS
 62
     0
100
AcDbPoint
 10
52.9
 20
90.0
 30
0.0
  0
ENDBLK
  5
7F3
330
7F1
100
AcDbEntity
  8
0
100
AcDbBlockEnd
  0
BLOCK
  5
7FF
330
7FE
100
AcDbEntity
  8
0
100
AcDbBlockBegin
  2
*D5
 70
     1
 10
0.0
 20
0.0
 30
0.0
  3
*D5
  1

  0
LINE
  5
801
330
7FE
100
AcDbEntity
  8
2
 62
     0
370
    -2
100
AcDbLine
 10
52.67799709723487
 20
-7.212456738422214
 30
0.0
 11
56.52512911859077
 21
-29.03062662880691
 31
0.0
  0
MTEXT
  5
802
330
7FE
100
AcDbEntity
  8
2
 62
     0
100
AcDbMText
 10
57.57545157903488
 20
-21.17920937750211
 30
0.0
 40
3.5
 41
0.0
 71
     5
 72
     1
  1
R0.79
  7
SIMPLEX
 11
0.1736481776669312
 21
-0.9848077530122079
 31
0.0
 73
     1
 44
1.0
  0
SOLID
  5
803
330
7FE
100
AcDbEntity
  8
2
 62
     0
100
AcDbTrace
 10
53.08833366098996
 20
-7.140103331060992
 30
0.0
 11
52.26766053347978
 21
-7.284810145783435
 31
0.0
 12
52.24387665306755
 22
-4.750437355891694
 32
0.0
 13
52.24387665306755
 23
-4.750437355891694
 33
0.0
  0
POINT
  5
804
330
7FE
100
AcDbEntity
  8
DEFPOINTS
 62
     0
100
AcDbPoint
 10
52.24387665306755
 20
-4.750437355891694
 30
0.0
  0
POINT
  5
805
330
7FE
100
AcDbEntity
  8
DEFPOINTS
 62
     0
100
AcDbPoint
 10
52.106
 20
-3.9685
 30
0.0
  0
ENDBLK
  5
800
330
7FE
100
AcDbEntity
  8
0
100
AcDbBlockEnd
  0
ENDSEC
  0
SECTION
  2
ENTITIES
  0
LINE
  5
3E0
330
18
100
AcDbEntity
  8
SK4
100
AcDbLine
 10
-38.00000000000001
 20
0.0
 30
0.0
 11
0.0
 21
0.0
 31
0.0
  0
LINE
  5
3E1
330
18
100
AcDbEntity
  8
4
100
AcDbLine
 10
-2.0
 20
0.0
 30
0.0
 11
54.9
 21
0.0
 31
0.0
  0
LINE
  5
3E2
330
18
100
AcDbEntity
  8
SK4
100
AcDbLine
 10
-2.0
 20
0.0
 30
0.0
 11
54.9
 21
0.0
 31
0.0
  0
LINE
  5
3E3
330
18
100
AcDbEntity
  8
1
100
AcDbLine
 10
23.325
 20
-4.762285600040919
 30
0.0
 11
23.325
 21
-4.762446504286737
 31
0.0
  0
LINE
  5
3E4
330
18
100
AcDbEntity
  8
1
100
AcDbLine
 10
23.325
 20
-4.762446504286737
 30
0.0
 11
23.325
 21
-4.762486639134118
 31
0.0
  0
LINE
  5
3E5
330
18
100
AcDbEntity
  8
1
100
AcDbLine
 10
23.325
 20
-4.762486639134118
 30
0.0
 11
23.325
 21
-4.762496661418055
 31
0.0
  0
LINE
  5
3E6
330
18
100
AcDbEntity
  8
1
100
AcDbLine
 10
23.325
 20
-4.762496661418055
 30
0.0
 11
23.325
 21
-4.762499165558936
 31
0.0
  0
LINE
  5
3E7
330
18
100
AcDbEntity
  8
1
100
AcDbLine
 10
23.325
 20
-4.762499165558936
 30
0.0
 11
23.325
 21
-4.762499791415292
 31
0.0
  0
LINE
  5
3E8
330
18
100
AcDbEntity
  8
1
100
AcDbLine
 10
23.325
 20
-4.762499791415292
 30
0.0
 11
23.325
 21
-4.762499947857018
 31
0.0
  0
LINE
  5
3E9
330
18
100
AcDbEntity
  8
1
100
AcDbLine
 10
23.325
 20
-4.762499947857018
 30
0.0
 11
23.325
 21
-4.762499986964653
 31
0.0
  0
LINE
  5
3EA
330
18
100
AcDbEntity
  8
1
100
AcDbLine
 10
23.325
 20
-4.762499986964653
 30
0.0
 11
23.325
 21
-4.762499996741212
 31
0.0
  0
LINE
  5
3EB
330
18
100
AcDbEntity
  8
1
100
AcDbLine
 10
23.325
 20
-4.762499996741212
 30
0.0
 11
23.325
 21
-4.762499999185309
 31
0.0
  0
LINE
  5
3EC
330
18
100
AcDbEntity
  8
1
100
AcDbLine
 10
23.325
 20
-4.762499999185309
 30
0.0
 11
23.325
 21
-4.762499999796328
 31
0.0
  0
LINE
  5
3ED
330
18
100
AcDbEntity
  8
1
100
AcDbLine
 10
23.325
 20
-4.762499999796328
 30
0.0
 11
23.325
 21
-4.762499999949082
 31
0.0
  0
LINE
  5
3EE
330
18
100
AcDbEntity
  8
1
100
AcDbLine
 10
23.325
 20
-4.762499999949082
 30
0.0
 11
23.325
 21
-4.76249999998727
 31
0.0
  0
LINE
  5
3EF
330
18
100
AcDbEntity
  8
1
100
AcDbLine
 10
23.325
 20
-4.76249999998727
 30
0.0
 11
23.325
 21
-4.762499999996817
 31
0.0
  0
LINE
  5
3F0
330
18
100
AcDbEntity
  8
1
100
AcDbLine
 10
23.325
 20
-4.762499999996817
 30
0.0
 11
23.325
 21
-4.762499999999203
 31
0.0
  0
LINE
  5
3F1
330
18
100
AcDbEntity
  8
1
100
AcDbLine
 10
23.325
 20
-4.762499999999203
 30
0.0
 11
23.325
 21
-4.7624999999998
 31
0.0
  0
LINE
  5
3F2
330
18
100
AcDbEntity
  8
1
100
AcDbLine
 10
23.325
 20
-4.7624999999998
 30
0.0
 11
23.325
 21
-4.76249999999995
 31
0.0
  0
LINE
  5
3F3
330
18
100
AcDbEntity
  8
1
100
AcDbLine
 10
23.325
 20
-4.76249999999995
 30
0.0
 11
23.325
 21
-4.762499999999994
 31
0.0
  0
LINE
  5
3F4
330
18
100
AcDbEntity
  8
1
100
AcDbLine
 10
23.325
 20
-4.762499999999994
 30
0.0
 11
23.325
 21
-4.762499999999999
 31
0.0
  0
LINE
  5
3F5
330
18
100
AcDbEntity
  8
1
100
AcDbLine
 10
23.32499999999999
 20
-2.34200732720952
 30
0.0
 11
23.325
 21
-4.485663614492529
 31
0.0
  0
LINE
  5
3F6
330
18
100
AcDbEntity
  8
1
100
AcDbLine
 10
23.32499999999999
 20
2.420278272831831
 30
0.0
 11
23.325
 21
-0.8571294074816727
 31
0.0
  0
LINE
  5
3F7
330
18
100
AcDbEntity
  8
1
100
AcDbLine
 10
24.325
 20
-1.979804738473853
 30
0.0
 11
24.325
 21
0.8123505636832243
 31
0.0
  0
ARC
  5
3F8
330
18
100
AcDbEntity
  8
1
100
AcDbCircle
 10
10.08145988815281
 20
-19.85026291341413
 30
0.0
 40
25.0961977581974
100
AcDbArc
 50
55.41999929489445
 51
58.14863810850085
  0
LINE
  5
3F9
330
18
100
AcDbEntity
  8
1
100
AcDbLine
 10
23.325
 20
4.762499999999999
 30
0.0
 11
23.325
 21
4.762262335177773
 31
0.0
  0
LINE
  5
3FA
330
18
100
AcDbEntity
  8
1
100
AcDbLine
 10
23.325
 20
4.762262335177773
 30
0.0
 11
23.325
 21
4.689591476467923
 31
0.0
  0
LINE
  5
3FB
330
18
100
AcDbEntity
  8
1
100
AcDbLine
 10
23.325
 20
4.689591476467923
 30
0.0
 11
23.325
 21
3.628534207010857
 31
0.0
  0
LINE
  5
3FC
330
18
100
AcDbEntity
  8
1
100
AcDbLine
 10
24.325
 20
2.804536493130227
 30
0.0
 11
24.325
 21
4.627948045753956
 31
0.0
  0
LINE
  5
3FD
330
18
100
AcDbEntity
  8
1
100
AcDbLine
 10
24.325
 20
2.804536493130225
 30
0.0
 11
24.27042298666645
 21
2.813490899589158
 31
0.0
  0
ARC
  5
3FE
330
18
100
AcDbEntity
  8
1
100
AcDbCircle
 10
23.35026067160586
 20
1.172798705924826
 30
0.0
 40
3.58995810244114
100
AcDbArc
 50
74.2456002132358
 51
89.79191251246972
  0
LINE
  5
3FF
330
18
100
AcDbEntity
  8
1
100
AcDbLine
 10
23.325
 20
-4.762285600040919
 30
0.0
 11
23.36329784840712
 21
-4.762499999999282
 31
0.0
  0
ARC
  5
400
330
18
100
AcDbEntity
  8
1
100
AcDbCircle
 10
24.78912528455268
 20
-0.847694640303112
 30
0.0
 40
3.921439963613054
100
AcDbArc
 50
248.0773458133152
 51
263.2019273159649
  0
ARC
  5
401
330
18
100
AcDbEntity
  8
1
100
AcDbCircle
 10
34.43337413486403
 20
8.394876851081298
 30
0.0
 40
15.44905576763708
100
AcDbArc
 50
224.0257494360528
 51
229.1312916578534
  0
ARC
  5
402
330
18
100
AcDbEntity
  8
1
100
AcDbCircle
 10
54.18260469395916
 20
25.60422757518347
 30
0.0
 40
40.64958574890126
100
AcDbArc
 50
220.6141169634419
 51
222.7333838903154
  0
ARC
  5
403
330
18
100
AcDbEntity
  8
1
100
AcDbCircle
 10
4.412992428933855
 20
-16.08435506119902
 30
0.0
 40
26.45921474359362
100
AcDbArc
 50
41.18895779077445
 51
44.37621599086894
  0
ARC
  5
404
330
18
100
AcDbEntity
  8
1
100
AcDbCircle
 10
16.44044654323971
 20
-5.303954283629971
 30
0.0
 40
11.27780199506046
100
AcDbArc
 50
46.03270373462704
 51
52.37741359167914
  0
LINE
  5
405
330
18
100
AcDbEntity
  8
1
100
AcDbLine
 10
-0.0000000000000018
 20
4.7625
 30
0.0
 11
23.325
 21
4.7625
 31
0.0
  0
LINE
  5
406
330
18
100
AcDbEntity
  8
1
100
AcDbLine
 10
23.325
 20
4.76228560004092
 30
0.0
 11
23.36329784840726
 21
4.762499999999999
 31
0.0
  0
LINE
  5
407
330
18
100
AcDbEntity
  8
1
100
AcDbLine
 10
23.36329784840726
 20
4.7625
 30
0.0
 11
24.32500000000001
 21
4.7625
 31
0.0
  0
LINE
  5
408
330
18
100
AcDbEntity
  8
1
100
AcDbLine
 10
24.32499999999999
 20
-4.741080129039499
 30
0.0
 11
24.325
 21
-3.287435553627744
 31
0.0
  0
LINE
  5
409
330
18
100
AcDbEntity
  8
1
100
AcDbLine
 10
24.325
 20
-4.741080129039486
 30
0.0
 11
24.325
 21
-4.762499999999998
 31
0.0
  0
LINE
  5
40A
330
18
100
AcDbEntity
  8
1
100
AcDbLine
 10
24.325
 20
4.762499999999999
 30
0.0
 11
24.325
 21
4.762469708849693
 31
0.0
  0
LINE
  5
40B
330
18
100
AcDbEntity
  8
1
100
AcDbLine
 10
24.325
 20
4.762469708849693
 30
0.0
 11
24.32500000000001
 21
4.753543606159145
 31
0.0
  0
LINE
  5
40C
330
18
100
AcDbEntity
  8
1
100
AcDbLine
 10
24.32500000000001
 20
4.753543606159145
 30
0.0
 11
24.325
 21
4.627948045753951
 31
0.0
  0
LINE
  5
40D
330
18
100
AcDbEntity
  8
1
100
AcDbLine
 10
24.325
 20
2.761275390565647
 30
0.0
 11
24.325
 21
2.804536493130227
 31
0.0
  0
LINE
  5
40E
330
18
100
AcDbEntity
  8
1
100
AcDbLine
 10
24.325
 20
2.761275390565621
 30
0.0
 11
24.325
 21
1.340512492126206
 31
0.0
  0
LINE
  5
40F
330
18
100
AcDbEntity
  8
1
100
AcDbLine
 10
24.325
 20
0.8123505636832243
 30
0.0
 11
24.325
 21
1.340512492126212
 31
0.0
  0
LINE
  5
410
330
18
100
AcDbEntity
  8
1
100
AcDbLine
 10
24.325
 20
-1.97980473847387
 30
0.0
 11
24.325
 21
-3.287435553627743
 31
0.0
  0
LINE
  5
411
330
18
100
AcDbEntity
  8
1
100
AcDbLine
 10
24.27042296226251
 20
2.813490873955983
 30
0.0
 11
24.325
 21
2.761275390565621
 31
0.0
  0
LINE
  5
412
330
18
100
AcDbEntity
  8
1
100
AcDbLine
 10
-0.0000000000000036
 20
-4.762499999999998
 30
0.0
 11
23.325
 21
-4.762499999999998
 31
0.0
  0
LINE
  5
413
330
18
100
AcDbEntity
  8
1
100
AcDbLine
 10
23.36329784840713
 20
-4.762499999999998
 30
0.0
 11
24.32500000000001
 21
-4.762499999999998
 31
0.0
  0
LINE
  5
414
330
18
100
AcDbEntity
  8
1
 62
     1
100
AcDbLine
 10
33.16128972786061
 20
4.762499999999999
 30
0.0
 11
33.39811523331512
 21
4.754303855809964
 31
0.0
  0
LINE
  5
415
330
18
100
AcDbEntity
  8
1
 62
     1
100
AcDbLine
 10
33.39811523331512
 20
4.754303855809964
 30
0.0
 11
33.63493614291159
 21
4.72974456366334
 31
0.0
  0
LINE
  5
416
330
18
100
AcDbEntity
  8
1
 62
     1
100
AcDbLine
 10
33.63493614291159
 20
4.72974456366334
 30
0.0
 11
33.87175543735489
 21
4.688907475718107
 31
0.0
  0
LINE
  5
417
330
18
100
AcDbEntity
  8
1
 62
     1
100
AcDbLine
 10
33.87175543735489
 20
4.688907475718107
 30
0.0
 11
34.10857477069894
 21
4.6319328500636
 31
0.0
  0
LINE
  5
418
330
18
100
AcDbEntity
  8
1
 62
     1
100
AcDbLine
 10
34.10857477069894
 20
4.6319328500636
 30
0.0
 11
34.34539749995876
 21
4.559015926456175
 31
0.0
  0
LINE
  5
419
330
18
100
AcDbEntity
  8
1
 62
     1
100
AcDbLine
 10
34.34539749995876
 20
4.559015926456175
 30
0.0
 11
34.58222351828093
 21
4.470405721838513
 31
0.0
  0
LINE
  5
41A
330
18
100
AcDbEntity
  8
1
 62
     1
100
AcDbLine
 10
34.58222351828093
 20
4.470405721838513
 30
0.0
 11
34.81904738339443
 21
4.366410124289112
 31
0.0
  0
LINE
  5
41B
330
18
100
AcDbEntity
  8
1
 62
     1
100
AcDbLine
 10
34.81904738339443
 20
4.366410124289112
 30
0.0
 11
35.05586748252986
 21
4.247388033803915
 31
0.0
  0
LINE
  5
41C
330
18
100
AcDbEntity
  8
1
 62
     1
100
AcDbLine
 10
35.05586748252986
 20
4.247388033803915
 30
0.0
 11
35.29268646693349
 21
4.113748679642388
 31
0.0
  0
LINE
  5
41D
330
18
100
AcDbEntity
  8
1
 62
     1
100
AcDbLine
 10
35.29268646693349
 20
4.113748679642388
 30
0.0
 11
35.52950646779953
 21
3.965950679577277
 31
0.0
  0
LINE
  5
41E
330
18
100
AcDbEntity
  8
1
 62
     1
100
AcDbLine
 10
35.52950646779953
 20
3.965950679577277
 30
0.0
 11
35.76632966907678
 21
3.804500637577477
 31
0.0
  0
LINE
  5
41F
330
18
100
AcDbEntity
  8
1
 62
     1
100
AcDbLine
 10
35.76632966907678
 20
3.804500637577477
 30
0.0
 11
36.00315655457256
 21
3.629954014721057
 31
0.0
  0
LINE
  5
420
330
18
100
AcDbEntity
  8
1
 62
     1
100
AcDbLine
 10
36.00315655457256
 20
3.629954014721057
 30
0.0
 11
36.47679811317141
 21
3.244031571289753
 31
0.0
  0
LINE
  5
421
330
18
100
AcDbEntity
  8
1
 62
     1
100
AcDbLine
 10
36.47679811317141
 20
3.244031571289753
 30
0.0
 11
36.95043776328775
 21
2.813490312908562
 31
0.0
  0
LINE
  5
422
330
18
100
AcDbEntity
  8
1
 62
     1
100
AcDbLine
 10
31.81664177883481
 20
4.7625
 30
0.0
 11
33.16128972786062
 21
4.7625
 31
0.0
  0
LINE
  5
423
330
18
100
AcDbEntity
  8
1
 62
     1
100
AcDbLine
 10
31.8166417788348
 20
4.7625
 30
0.0
 11
32.01477018609108
 21
4.756762663225523
 31
0.0
  0
LINE
  5
424
330
18
100
AcDbEntity
  8
1
 62
     1
100
AcDbLine
 10
32.01477018609108
 20
4.756762663225523
 30
0.0
 11
32.21289081226617
 21
4.739566815743104
 31
0.0
  0
LINE
  5
425
330
18
100
AcDbEntity
  8
1
 62
     1
100
AcDbLine
 10
32.21289081226617
 20
4.739566815743104
 30
0.0
 11
32.41101653220356
 21
4.710953250512705
 31
0.0
  0
LINE
  5
426
330
18
100
AcDbEntity
  8
1
 62
     1
100
AcDbLine
 10
32.41101653220356
 20
4.710953250512705
 30
0.0
 11
32.60914725821233
 21
4.670988473185531
 31
0.0
  0
LINE
  5
427
330
18
100
AcDbEntity
  8
1
 62
     1
100
AcDbLine
 10
32.60914725821233
 20
4.670988473185531
 30
0.0
 11
32.80726844175945
 21
4.619773047534837
 31
0.0
  0
LINE
  5
428
330
18
100
AcDbEntity
  8
1
 62
     1
100
AcDbLine
 10
32.80726844175945
 20
4.619773047534837
 30
0.0
 11
33.00539191325895
 21
4.557428626640725
 31
0.0
  0
LINE
  5
429
330
18
100
AcDbEntity
  8
1
 62
     1
100
AcDbLine
 10
33.00539191325895
 20
4.557428626640725
 30
0.0
 11
33.20352373640311
 21
4.484101273779823
 31
0.0
  0
LINE
  5
42A
330
18
100
AcDbEntity
  8
1
 62
     1
100
AcDbLine
 10
33.20352373640311
 20
4.484101273779823
 30
0.0
 11
33.40164604851622
 21
4.39997454029084
 31
0.0
  0
LINE
  5
42B
330
18
100
AcDbEntity
  8
1
 62
     1
100
AcDbLine
 10
33.40164604851622
 20
4.39997454029084
 30
0.0
 11
33.59976794228167
 21
4.305249236421066
 31
0.0
  0
LINE
  5
42C
330
18
100
AcDbEntity
  8
1
 62
     1
100
AcDbLine
 10
33.59976794228167
 20
4.305249236421066
 30
0.0
 11
33.7978993936355
 21
4.200146959749578
 31
0.0
  0
LINE
  5
42D
330
18
100
AcDbEntity
  8
1
 62
     1
100
AcDbLine
 10
33.7978993936355
 20
4.200146959749578
 30
0.0
 11
33.99602356894317
 21
4.084929384349977
 31
0.0
  0
LINE
  5
42E
330
18
100
AcDbEntity
  8
1
 62
     1
100
AcDbLine
 10
33.99602356894317
 20
4.084929384349977
 30
0.0
 11
34.19414438861923
 21
3.95987377499465
 31
0.0
  0
LINE
  5
42F
330
18
100
AcDbEntity
  8
1
 62
     1
100
AcDbLine
 10
34.19414438861923
 20
3.95987377499465
 30
0.0
 11
34.59040078332348
 21
3.681457521877052
 31
0.0
  0
LINE
  5
430
330
18
100
AcDbEntity
  8
1
 62
     1
100
AcDbLine
 10
34.59040078332348
 20
3.681457521877052
 30
0.0
 11
34.98664800189601
 21
3.367593936060703
 31
0.0
  0
LINE
  5
431
330
18
100
AcDbEntity
  8
1
 62
     1
100
AcDbLine
 10
34.98664800189601
 20
3.367593936060703
 30
0.0
 11
35.38289838347222
 21
3.021295406911902
 31
0.0
  0
LINE
  5
432
330
18
100
AcDbEntity
  8
1
 62
     1
100
AcDbLine
 10
35.38289838347222
 20
3.021295406911902
 30
0.0
 11
35.77915378697426
 21
2.645895868151282
 31
0.0
  0
LINE
  5
433
330
18
100
AcDbEntity
  8
1
 62
     1
100
AcDbLine
 10
35.77915378697426
 20
2.645895868151282
 30
0.0
 11
36.57165274832501
 21
1.82252374286004
 31
0.0
  0
LINE
  5
434
330
18
100
AcDbEntity
  8
1
 62
     1
100
AcDbLine
 10
36.57165274832501
 20
1.82252374286004
 30
0.0
 11
38.15664924542416
 21
-0.0000000000010485
 31
0.0
  0
LINE
  5
435
330
18
100
AcDbEntity
  8
1
 62
     1
100
AcDbLine
 10
37.38796141228109
 20
4.762499999999999
 30
0.0
 11
37.62478687178692
 21
4.754303853611573
 31
0.0
  0
LINE
  5
436
330
18
100
AcDbEntity
  8
1
 62
     1
100
AcDbLine
 10
37.62478687178692
 20
4.754303853611573
 30
0.0
 11
37.86160780730737
 21
4.729744562809369
 31
0.0
  0
LINE
  5
437
330
18
100
AcDbEntity
  8
1
 62
     1
100
AcDbLine
 10
37.86160780730737
 20
4.729744562809369
 30
0.0
 11
38.09842709108473
 21
4.688907474199963
 31
0.0
  0
LINE
  5
438
330
18
100
AcDbEntity
  8
1
 62
     1
100
AcDbLine
 10
38.09842709108473
 20
4.688907474199963
 30
0.0
 11
38.33524642871918
 21
4.631932848866359
 31
0.0
  0
LINE
  5
439
330
18
100
AcDbEntity
  8
1
 62
     1
100
AcDbLine
 10
38.33524642871918
 20
4.631932848866359
 30
0.0
 11
38.57206915118163
 21
4.559015925094578
 31
0.0
  0
LINE
  5
43A
330
18
100
AcDbEntity
  8
1
 62
     1
100
AcDbLine
 10
38.57206915118163
 20
4.559015925094578
 30
0.0
 11
38.8088951586805
 21
4.470405718703681
 31
0.0
  0
LINE
  5
43B
330
18
100
AcDbEntity
  8
1
 62
     1
100
AcDbLine
 10
38.8088951586805
 20
4.470405718703681
 30
0.0
 11
39.04571904705388
 21
4.366410130726424
 31
0.0
  0
LINE
  5
43C
330
18
100
AcDbEntity
  8
1
 62
     1
100
AcDbLine
 10
39.04571904705388
 20
4.366410130726424
 30
0.0
 11
39.28253910729959
 21
4.247388027502751
 31
0.0
  0
LINE
  5
43D
330
18
100
AcDbEntity
  8
1
 62
     1
100
AcDbLine
 10
39.28253910729959
 20
4.247388027502751
 30
0.0
 11
39.51935812664233
 21
4.113748690100849
 31
0.0
  0
LINE
  5
43E
330
18
100
AcDbEntity
  8
1
 62
     1
100
AcDbLine
 10
39.51935812664233
 20
4.113748690100849
 30
0.0
 11
39.75617809085356
 21
3.965950677135172
 31
0.0
  0
LINE
  5
43F
330
18
100
AcDbEntity
  8
1
 62
     1
100
AcDbLine
 10
39.75617809085356
 20
3.965950677135172
 30
0.0
 11
39.99300131991347
 21
3.804500651606199
 31
0.0
  0
LINE
  5
440
330
18
100
AcDbEntity
  8
1
 62
     1
100
AcDbLine
 10
39.99300131991347
 20
3.804500651606199
 30
0.0
 11
40.22982818126781
 21
3.629954019587189
 31
0.0
  0
LINE
  5
441
330
18
100
AcDbEntity
  8
1
 62
     1
100
AcDbLine
 10
40.22982818126781
 20
3.629954019587189
 30
0.0
 11
40.70346974627693
 21
3.244031588154976
 31
0.0
  0
LINE
  5
442
330
18
100
AcDbEntity
  8
1
 62
     1
100
AcDbLine
 10
40.70346974627693
 20
3.244031588154976
 30
0.0
 11
41.1771094096286
 21
2.813490347558452
 31
0.0
  0
LINE
  5
443
330
18
100
AcDbEntity
  8
1
 62
     1
100
AcDbLine
 10
36.04331342326097
 20
4.7625
 30
0.0
 11
36.24144183367894
 21
4.75676266338031
 31
0.0
  0
LINE
  5
444
330
18
100
AcDbEntity
  8
1
 62
     1
100
AcDbLine
 10
36.24144183367894
 20
4.75676266338031
 30
0.0
 11
36.43956245785294
 21
4.739566815865389
 31
0.0
  0
LINE
  5
445
330
18
100
AcDbEntity
  8
1
 62
     1
100
AcDbLine
 10
36.43956245785294
 20
4.739566815865389
 30
0.0
 11
36.63768818036131
 21
4.71095325097631
 31
0.0
  0
LINE
  5
446
330
18
100
AcDbEntity
  8
1
 62
     1
100
AcDbLine
 10
36.63768818036131
 20
4.71095325097631
 30
0.0
 11
36.83581890272869
 21
4.670988473171215
 31
0.0
  0
LINE
  5
447
330
18
100
AcDbEntity
  8
1
 62
     1
100
AcDbLine
 10
36.83581890272869
 20
4.670988473171215
 30
0.0
 11
37.03394008883911
 21
4.619773048105145
 31
0.0
  0
LINE
  5
448
330
18
100
AcDbEntity
  8
1
 62
     1
100
AcDbLine
 10
37.03394008883911
 20
4.619773048105145
 30
0.0
 11
37.23206355863643
 21
4.557428626892115
 31
0.0
  0
LINE
  5
449
330
18
100
AcDbEntity
  8
1
 62
     1
100
AcDbLine
 10
37.23206355863643
 20
4.557428626892115
 30
0.0
 11
37.43019538395259
 21
4.484101274697995
 31
0.0
  0
LINE
  5
44A
330
18
100
AcDbEntity
  8
1
 62
     1
100
AcDbLine
 10
37.43019538395259
 20
4.484101274697995
 30
0.0
 11
37.62831769437236
 21
4.399974540716618
 31
0.0
  0
LINE
  5
44B
330
18
100
AcDbEntity
  8
1
 62
     1
100
AcDbLine
 10
37.62831769437236
 20
4.399974540716618
 30
0.0
 11
37.82643958865319
 21
4.305249237147455
 31
0.0
  0
LINE
  5
44C
330
18
100
AcDbEntity
  8
1
 62
     1
100
AcDbLine
 10
37.82643958865319
 20
4.305249237147455
 30
0.0
 11
38.02457104009772
 21
4.200146960587329
 31
0.0
  0
LINE
  5
44D
330
18
100
AcDbEntity
  8
1
 62
     1
100
AcDbLine
 10
38.02457104009772
 20
4.200146960587329
 30
0.0
 11
38.22269521530473
 21
4.084929385262482
 31
0.0
  0
LINE
  5
44E
330
18
100
AcDbEntity
  8
1
 62
     1
100
AcDbLine
 10
38.22269521530473
 20
4.084929385262482
 30
0.0
 11
38.42081603595373
 21
3.959873776371607
 31
0.0
  0
LINE
  5
44F
330
18
100
AcDbEntity
  8
1
 62
     1
100
AcDbLine
 10
38.42081603595373
 20
3.959873776371607
 30
0.0
 11
38.81707243044659
 21
3.681457523367679
 31
0.0
  0
LINE
  5
450
330
18
100
AcDbEntity
  8
1
 62
     1
100
AcDbLine
 10
38.81707243044659
 20
3.681457523367679
 30
0.0
 11
39.21331965002942
 21
3.367593938340465
 31
0.0
  0
LINE
  5
451
330
18
100
AcDbEntity
  8
1
 62
     1
100
AcDbLine
 10
39.21331965002942
 20
3.367593938340465
 30
0.0
 11
39.60957003087077
 21
3.021295408918174
 31
0.0
  0
LINE
  5
452
330
18
100
AcDbEntity
  8
1
 62
     1
100
AcDbLine
 10
39.60957003087077
 20
3.021295408918174
 30
0.0
 11
40.00582543482666
 21
2.645895870662913
 31
0.0
  0
LINE
  5
453
330
18
100
AcDbEntity
  8
1
 62
     1
100
AcDbLine
 10
40.00582543482666
 20
2.645895870662913
 30
0.0
 11
40.79832439483822
 21
1.822523744625152
 31
0.0
  0
LINE
  5
454
330
18
100
AcDbEntity
  8
1
 62
     1
100
AcDbLine
 10
40.79832439483822
 20
1.822523744625152
 30
0.0
 11
42.38332088967254
 21
-0.0000000000010856
 31
0.0
  0
LINE
  5
455
330
18
100
AcDbEntity
  8
1
 62
     1
100
AcDbLine
 10
52.9
 20
-3.479721117217121
 30
0.0
 11
52.89707789692739
 21
-3.570172190107417
 31
0.0
  0
LINE
  5
456
330
18
100
AcDbEntity
  8
1
 62
     1
100
AcDbLine
 10
52.89707789692739
 20
-3.570172190107417
 30
0.0
 11
52.89321498703434
 21
-3.615694375548355
 31
0.0
  0
LINE
  5
457
330
18
100
AcDbEntity
  8
1
 62
     1
100
AcDbLine
 10
52.89321498703434
 20
-3.615694375548355
 30
0.0
 11
52.88754480644064
 21
-3.661348571311695
 31
0.0
  0
LINE
  5
458
330
18
100
AcDbEntity
  8
1
 62
     1
100
AcDbLine
 10
52.88754480644064
 20
-3.661348571311695
 30
0.0
 11
52.87989302608229
 21
-3.707003431379436
 31
0.0
  0
LINE
  5
459
330
18
100
AcDbEntity
  8
1
 62
     1
100
AcDbLine
 10
52.87989302608229
 20
-3.707003431379436
 30
0.0
 11
52.87006649155089
 21
-3.752539166316097
 31
0.0
  0
LINE
  5
45A
330
18
100
AcDbEntity
  8
1
 62
     1
100
AcDbLine
 10
52.87006649155089
 20
-3.752539166316097
 30
0.0
 11
52.85788392466237
 21
-3.797691363785578
 31
0.0
  0
LINE
  5
45B
330
18
100
AcDbEntity
  8
1
 62
     1
100
AcDbLine
 10
52.85788392466237
 20
-3.797691363785578
 30
0.0
 11
52.84315011963542
 21
-3.842219855949459
 31
0.0
  0
LINE
  5
45C
330
18
100
AcDbEntity
  8
1
 62
     1
100
AcDbLine
 10
52.84315011963542
 20
-3.842219855949459
 30
0.0
 11
52.82574476077187
 21
-3.885663668886988
 31
0.0
  0
LINE
  5
45D
330
18
100
AcDbEntity
  8
1
 62
     1
100
AcDbLine
 10
52.82574476077187
 20
-3.885663668886988
 30
0.0
 11
52.81600446228601
 21
-3.90685310953222
 31
0.0
  0
LINE
  5
45E
330
18
100
AcDbEntity
  8
1
 62
     1
100
AcDbLine
 10
52.81600446228601
 20
-3.90685310953222
 30
0.0
 11
52.8055726178669
 21
-3.927587525009492
 31
0.0
  0
LINE
  5
45F
330
18
100
AcDbEntity
  8
1
 62
     1
100
AcDbLine
 10
52.8055726178669
 20
-3.927587525009492
 30
0.0
 11
52.79444228012834
 21
-3.947820165348248
 31
0.0
  0
LINE
  5
460
330
18
100
AcDbEntity
  8
1
 62
     1
100
AcDbLine
 10
52.79444228012834
 20
-3.947820165348248
 30
0.0
 11
52.78263869036719
 21
-3.967458530063145
 31
0.0
  0
LINE
  5
461
330
18
100
AcDbEntity
  8
1
 62
     1
100
AcDbLine
 10
52.78263869036719
 20
-3.967458530063145
 30
0.0
 11
52.77017171942006
 21
-3.986440608886016
 31
0.0
  0
LINE
  5
462
330
18
100
AcDbEntity
  8
1
 62
     1
100
AcDbLine
 10
52.77017171942006
 20
-3.986440608886016
 30
0.0
 11
52.75706997842774
 21
-4.004703112470578
 31
0.0
  0
LINE
  5
463
330
18
100
AcDbEntity
  8
1
 62
     1
100
AcDbLine
 10
52.75706997842774
 20
-4.004703112470578
 30
0.0
 11
52.74337939330554
 21
-4.022161551282122
 31
0.0
  0
LINE
  5
464
330
18
100
AcDbEntity
  8
1
 62
     1
100
AcDbLine
 10
52.74337939330554
 20
-4.022161551282122
 30
0.0
 11
52.72912278537289
 21
-4.038782345395283
 31
0.0
  0
LINE
  5
465
330
18
100
AcDbEntity
  8
1
 62
     1
100
AcDbLine
 10
52.72912278537289
 20
-4.038782345395283
 30
0.0
 11
52.71436400533209
 21
-4.054499442268732
 31
0.0
  0
LINE
  5
466
330
18
100
AcDbEntity
  8
1
 62
     1
100
AcDbLine
 10
52.71436400533209
 20
-4.054499442268732
 30
0.0
 11
52.69914481550871
 21
-4.069275941852078
 31
0.0
  0
LINE
  5
467
330
18
100
AcDbEntity
  8
1
 62
     1
100
AcDbLine
 10
52.69914481550871
 20
-4.069275941852078
 30
0.0
 11
52.68351344413404
 21
-4.08309225990538
 31
0.0
  0
LINE
  5
468
330
18
100
AcDbEntity
  8
1
 62
     1
100
AcDbLine
 10
52.68351344413404
 20
-4.08309225990538
 30
0.0
 11
52.66753740741498
 21
-4.095913191552282
 31
0.0
  0
LINE
  5
469
330
18
100
AcDbEntity
  8
1
 62
     1
100
AcDbLine
 10
52.66753740741498
 20
-4.095913191552282
 30
0.0
 11
52.65124861371318
 21
-4.107746086328105
 31
0.0
  0
LINE
  5
46A
330
18
100
AcDbEntity
  8
1
 62
     1
100
AcDbLine
 10
52.65124861371318
 20
-4.107746086328105
 30
0.0
 11
52.63471029847022
 21
-4.118583047945209
 31
0.0
  0
LINE
  5
46B
330
18
100
AcDbEntity
  8
1
 62
     1
100
AcDbLine
 10
52.63471029847022
 20
-4.118583047945209
 30
0.0
 11
52.61796414170424
 21
-4.1284324900948
 31
0.0
  0
LINE
  5
46C
330
18
100
AcDbEntity
  8
1
 62
     1
100
AcDbLine
 10
52.61796414170424
 20
-4.1284324900948
 30
0.0
 11
52.60104628577011
 21
-4.137315677733493
 31
0.0
  0
LINE
  5
46D
330
18
100
AcDbEntity
  8
1
 62
     1
100
AcDbLine
 10
52.60104628577011
 20
-4.137315677733493
 30
0.0
 11
52.58400777673712
 21
-4.145245148154047
 31
0.0
  0
LINE
  5
46E
330
18
100
AcDbEntity
  8
1
 62
     1
100
AcDbLine
 10
52.58400777673712
 20
-4.145245148154047
 30
0.0
 11
52.56686820544346
 21
-4.152252331162904
 31
0.0
  0
LINE
  5
46F
330
18
100
AcDbEntity
  8
1
 62
     1
100
AcDbLine
 10
52.56686820544346
 20
-4.152252331162904
 30
0.0
 11
52.5496670666804
 21
-4.158361226792984
 31
0.0
  0
LINE
  5
470
330
18
100
AcDbEntity
  8
1
 62
     1
100
AcDbLine
 10
52.5496670666804
 20
-4.158361226792984
 30
0.0
 11
52.53242831891863
 21
-4.163601163974832
 31
0.0
  0
LINE
  5
471
330
18
100
AcDbEntity
  8
1
 62
     1
100
AcDbLine
 10
52.53242831891863
 20
-4.163601163974832
 30
0.0
 11
52.51517032037908
 21
-4.168004274394436
 31
0.0
  0
LINE
  5
472
330
18
100
AcDbEntity
  8
1
 62
     1
100
AcDbLine
 10
52.51517032037908
 20
-4.168004274394436
 30
0.0
 11
52.49792060246889
 21
-4.17159885500873
 31
0.0
  0
LINE
  5
473
330
18
100
AcDbEntity
  8
1
 62
     1
100
AcDbLine
 10
52.49792060246889
 20
-4.17159885500873
 30
0.0
 11
52.48068294559051
 21
-4.174417691720401
 31
0.0
  0
LINE
  5
474
330
18
100
AcDbEntity
  8
1
 62
     1
100
AcDbLine
 10
52.48068294559051
 20
-4.174417691720401
 30
0.0
 11
52.46347566301806
 21
-4.176489426313932
 31
0.0
  0
LINE
  5
475
330
18
100
AcDbEntity
  8
1
 62
     1
100
AcDbLine
 10
52.46347566301806
 20
-4.176489426313932
 30
0.0
 11
52.44632012426217
 21
-4.177841974330597
 31
0.0
  0
LINE
  5
476
330
18
100
AcDbEntity
  8
1
 62
     1
100
AcDbLine
 10
52.44632012426217
 20
-4.177841974330597
 30
0.0
 11
52.42922764402308
 21
-4.178503731508317
 31
0.0
  0
LINE
  5
477
330
18
100
AcDbEntity
  8
1
 62
     1
100
AcDbLine
 10
52.42922764402308
 20
-4.178503731508317
 30
0.0
 11
52.41219403536844
 21
-4.178501985280306
 31
0.0
  0
LINE
  5
478
330
18
100
AcDbEntity
  8
1
 62
     1
100
AcDbLine
 10
52.41219403536844
 20
-4.178501985280306
 30
0.0
 11
52.3952316156121
 21
-4.177861669221473
 31
0.0
  0
LINE
  5
479
330
18
100
AcDbEntity
  8
1
 62
     1
100
AcDbLine
 10
52.3952316156121
 20
-4.177861669221473
 30
0.0
 11
52.37835326679847
 21
-4.176607661504733
 31
0.0
  0
LINE
  5
47A
330
18
100
AcDbEntity
  8
1
 62
     1
100
AcDbLine
 10
52.37835326679847
 20
-4.176607661504733
 30
0.0
 11
52.34484815533917
 21
-4.172348717928211
 31
0.0
  0
LINE
  5
47B
330
18
100
AcDbEntity
  8
1
 62
     1
100
AcDbLine
 10
52.34484815533917
 20
-4.172348717928211
 30
0.0
 11
52.31170721691516
 21
-4.165893422898671
 31
0.0
  0
LINE
  5
47C
330
18
100
AcDbEntity
  8
1
 62
     1
100
AcDbLine
 10
52.31170721691516
 20
-4.165893422898671
 30
0.0
 11
52.27894058445109
 21
-4.157390587661443
 31
0.0
  0
LINE
  5
47D
330
18
100
AcDbEntity
  8
1
 62
     1
100
AcDbLine
 10
52.27894058445109
 20
-4.157390587661443
 30
0.0
 11
52.24656245026127
 21
-4.146969519596331
 31
0.0
  0
LINE
  5
47E
330
18
100
AcDbEntity
  8
1
 62
     1
100
AcDbLine
 10
52.24656245026127
 20
-4.146969519596331
 30
0.0
 11
52.21460580487262
 21
-4.134758601592941
 31
0.0
  0
LINE
  5
47F
330
18
100
AcDbEntity
  8
1
 62
     1
100
AcDbLine
 10
52.21460580487262
 20
-4.134758601592941
 30
0.0
 11
52.18305219172084
 21
-4.120855244439623
 31
0.0
  0
LINE
  5
480
330
18
100
AcDbEntity
  8
1
 62
     1
100
AcDbLine
 10
52.18305219172084
 20
-4.120855244439623
 30
0.0
 11
52.15191106634978
 21
-4.105352873991288
 31
0.0
  0
LINE
  5
481
330
18
100
AcDbEntity
  8
1
 62
     1
100
AcDbLine
 10
52.15191106634978
 20
-4.105352873991288
 30
0.0
 11
52.10600000000002
 21
-4.079297881329866
 31
0.0
  0
LINE
  5
482
330
18
100
AcDbEntity
  8
1
 62
     1
100
AcDbLine
 10
52.9
 20
-3.968195488347494
 30
0.0
 11
52.89844423572983
 21
-4.017807536528793
 31
0.0
  0
LINE
  5
483
330
18
100
AcDbEntity
  8
1
 62
     1
100
AcDbLine
 10
52.89844423572983
 20
-4.017807536528793
 30
0.0
 11
52.89381951798371
 21
-4.066977933197788
 31
0.0
  0
LINE
  5
484
330
18
100
AcDbEntity
  8
1
 62
     1
100
AcDbLine
 10
52.89381951798371
 20
-4.066977933197788
 30
0.0
 11
52.88620222544633
 21
-4.115353717305621
 31
0.0
  0
LINE
  5
485
330
18
100
AcDbEntity
  8
1
 62
     1
100
AcDbLine
 10
52.88620222544633
 20
-4.115353717305621
 30
0.0
 11
52.87575180936992
 21
-4.162516890173426
 31
0.0
  0
LINE
  5
486
330
18
100
AcDbEntity
  8
1
 62
     1
100
AcDbLine
 10
52.87575180936992
 20
-4.162516890173426
 30
0.0
 11
52.86264101051481
 21
-4.208198631660069
 31
0.0
  0
LINE
  5
487
330
18
100
AcDbEntity
  8
1
 62
     1
100
AcDbLine
 10
52.86264101051481
 20
-4.208198631660069
 30
0.0
 11
52.8471050994482
 21
-4.252069266668551
 31
0.0
  0
LINE
  5
488
330
18
100
AcDbEntity
  8
1
 62
     1
100
AcDbLine
 10
52.8471050994482
 20
-4.252069266668551
 30
0.0
 11
52.82936375096222
 21
-4.293965931252098
 31
0.0
  0
LINE
  5
489
330
18
100
AcDbEntity
  8
1
 62
     1
100
AcDbLine
 10
52.82936375096222
 20
-4.293965931252098
 30
0.0
 11
52.80966607839394
 21
-4.333695229283318
 31
0.0
  0
LINE
  5
48A
330
18
100
AcDbEntity
  8
1
 62
     1
100
AcDbLine
 10
52.80966607839394
 20
-4.333695229283318
 30
0.0
 11
52.78823469439041
 21
-4.371178675767204
 31
0.0
  0
LINE
  5
48B
330
18
100
AcDbEntity
  8
1
 62
     1
100
AcDbLine
 10
52.78823469439041
 20
-4.371178675767204
 30
0.0
 11
52.76528362900025
 21
-4.406352240466759
 31
0.0
  0
LINE
  5
48C
330
18
100
AcDbEntity
  8
1
 62
     1
100
AcDbLine
 10
52.76528362900025
 20
-4.406352240466759
 30
0.0
 11
52.74101496791782
 21
-4.439189113214675
 31
0.0
  0
LINE
  5
48D
330
18
100
AcDbEntity
  8
1
 62
     1
100
AcDbLine
 10
52.74101496791782
 20
-4.439189113214675
 30
0.0
 11
52.71559266824801
 21
-4.469707289104815
 31
0.0
  0
LINE
  5
48E
330
18
100
AcDbEntity
  8
1
 62
     1
100
AcDbLine
 10
52.71559266824801
 20
-4.469707289104815
 30
0.0
 11
52.68918474732564
 21
-4.497916774681397
 31
0.0
  0
LINE
  5
48F
330
18
100
AcDbEntity
  8
1
 62
     1
100
AcDbLine
 10
52.68918474732564
 20
-4.497916774681397
 30
0.0
 11
52.66191242016082
 21
-4.523870985213626
 31
0.0
  0
LINE
  5
490
330
18
100
AcDbEntity
  8
1
 62
     1
100
AcDbLine
 10
52.66191242016082
 20
-4.523870985213626
 30
0.0
 11
52.63390520645709
 21
-4.547605142648705
 31
0.0
  0
LINE
  5
491
330
18
100
AcDbEntity
  8
1
 62
     1
100
AcDbLine
 10
52.63390520645709
 20
-4.547605142648705
 30
0.0
 11
52.60525567819665
 21
-4.569179545767867
 31
0.0
  0
LINE
  5
492
330
18
100
AcDbEntity
  8
1
 62
     1
100
AcDbLine
 10
52.60525567819665
 20
-4.569179545767867
 30
0.0
 11
52.57605011059972
 21
-4.588647978237484
 31
0.0
  0
LINE
  5
493
330
18
100
AcDbEntity
  8
1
 62
     1
100
AcDbLine
 10
52.57605011059972
 20
-4.588647978237484
 30
0.0
 11
52.54635733033589
 21
-4.606067947960481
 31
0.0
  0
LINE
  5
494
330
18
100
AcDbEntity
  8
1
 62
     1
100
AcDbLine
 10
52.54635733033589
 20
-4.606067947960481
 30
0.0
 11
52.51626848450498
 21
-4.621477833378253
 31
0.0
  0
LINE
  5
495
330
18
100
AcDbEntity
  8
1
 62
     1
100
AcDbLine
 10
52.51626848450498
 20
-4.621477833378253
 30
0.0
 11
52.48581722234198
 21
-4.634940933254004
 31
0.0
  0
LINE
  5
496
330
18
100
AcDbEntity
  8
1
 62
     1
100
AcDbLine
 10
52.48581722234198
 20
-4.634940933254004
 30
0.0
 11
52.4550600548808
 21
-4.646501817923258
 31
0.0
  0
LINE
  5
497
330
18
100
AcDbEntity
  8
1
 62
     1
100
AcDbLine
 10
52.4550600548808
 20
-4.646501817923258
 30
0.0
 11
52.42405112394586
 21
-4.656202248925743
 31
0.0
  0
LINE
  5
498
330
18
100
AcDbEntity
  8
1
 62
     1
100
AcDbLine
 10
52.42405112394586
 20
-4.656202248925743
 30
0.0
 11
52.39280688910586
 21
-4.664091000003045
 31
0.0
  0
LINE
  5
499
330
18
100
AcDbEntity
  8
1
 62
     1
100
AcDbLine
 10
52.39280688910586
 20
-4.664091000003045
 30
0.0
 11
52.36137818688248
 21
-4.6702021845566
 31
0.0
  0
LINE
  5
49A
330
18
100
AcDbEntity
  8
1
 62
     1
100
AcDbLine
 10
52.36137818688248
 20
-4.6702021845566
 30
0.0
 11
52.32978707907002
 21
-4.674573053500207
 31
0.0
  0
LINE
  5
49B
330
18
100
AcDbEntity
  8
1
 62
     1
100
AcDbLine
 10
52.32978707907002
 20
-4.674573053500207
 30
0.0
 11
52.29805443077755
 21
-4.677236381070125
 31
0.0
  0
LINE
  5
49C
330
18
100
AcDbEntity
  8
1
 62
     1
100
AcDbLine
 10
52.29805443077755
 20
-4.677236381070125
 30
0.0
 11
52.26621820774314
 21
-4.678220146348214
 31
0.0
  0
LINE
  5
49D
330
18
100
AcDbEntity
  8
1
 62
     1
100
AcDbLine
 10
52.26621820774314
 20
-4.678220146348214
 30
0.0
 11
52.23427487682298
 21
-4.677550268532539
 31
0.0
  0
LINE
  5
49E
330
18
100
AcDbEntity
  8
1
 62
     1
100
AcDbLine
 10
52.23427487682298
 20
-4.677550268532539
 30
0.0
 11
52.20225049761632
 21
-4.675248501091539
 31
0.0
  0
LINE
  5
49F
330
18
100
AcDbEntity
  8
1
 62
     1
100
AcDbLine
 10
52.20225049761632
 20
-4.675248501091539
 30
0.0
 11
52.17018105356987
 21
-4.671336177599541
 31
0.0
  0
LINE
  5
4A0
330
18
100
AcDbEntity
  8
1
 62
     1
100
AcDbLine
 10
52.17018105356987
 20
-4.671336177599541
 30
0.0
 11
52.13809771818806
 21
-4.665833823825104
 31
0.0
  0
LINE
  5
4A1
330
18
100
AcDbEntity
  8
1
 62
     1
100
AcDbLine
 10
52.13809771818806
 20
-4.665833823825104
 30
0.0
 11
52.10599999999999
 21
-4.658755038651784
 31
0.0
  0
LINE
  5
4A2
330
18
100
AcDbEntity
  8
1
 62
     1
100
AcDbLine
 10
41.61463309672141
 20
4.762499999999999
 30
0.0
 11
41.85145851043806
 21
4.754303851420989
 31
0.0
  0
LINE
  5
4A3
330
18
100
AcDbEntity
  8
1
 62
     1
100
AcDbLine
 10
41.85145851043806
 20
4.754303851420989
 30
0.0
 11
42.08827947173803
 21
4.729744562005875
 31
0.0
  0
LINE
  5
4A4
330
18
100
AcDbEntity
  8
1
 62
     1
100
AcDbLine
 10
42.08827947173803
 20
4.729744562005875
 30
0.0
 11
42.32509874490574
 21
4.688907472657528
 31
0.0
  0
LINE
  5
4A5
330
18
100
AcDbEntity
  8
1
 62
     1
100
AcDbLine
 10
42.32509874490574
 20
4.688907472657528
 30
0.0
 11
42.56191808819919
 21
4.631932847933091
 31
0.0
  0
LINE
  5
4A6
330
18
100
AcDbEntity
  8
1
 62
     1
100
AcDbLine
 10
42.56191808819919
 20
4.631932847933091
 30
0.0
 11
42.79874079962168
 21
4.559015923023758
 31
0.0
  0
LINE
  5
4A7
330
18
100
AcDbEntity
  8
1
 62
     1
100
AcDbLine
 10
42.79874079962168
 20
4.559015923023758
 30
0.0
 11
43.0355668004911
 21
4.470405715930115
 31
0.0
  0
LINE
  5
4A8
330
18
100
AcDbEntity
  8
1
 62
     1
100
AcDbLine
 10
43.0355668004911
 20
4.470405715930115
 30
0.0
 11
43.27239071076262
 21
4.366410137100955
 31
0.0
  0
LINE
  5
4A9
330
18
100
AcDbEntity
  8
1
 62
     1
100
AcDbLine
 10
43.27239071076262
 20
4.366410137100955
 30
0.0
 11
43.50921073302617
 21
4.247388021476832
 31
0.0
  0
LINE
  5
4AA
330
18
100
AcDbEntity
  8
1
 62
     1
100
AcDbLine
 10
43.50921073302617
 20
4.247388021476832
 30
0.0
 11
43.74602978382426
 21
4.113748699435054
 31
0.0
  0
LINE
  5
4AB
330
18
100
AcDbEntity
  8
1
 62
     1
100
AcDbLine
 10
43.74602978382426
 20
4.113748699435054
 30
0.0
 11
43.98284971445238
 21
3.965950674806191
 31
0.0
  0
LINE
  5
4AC
330
18
100
AcDbEntity
  8
1
 62
     1
100
AcDbLine
 10
43.98284971445238
 20
3.965950674806191
 30
0.0
 11
44.21967297192943
 21
3.804500666064826
 31
0.0
  0
LINE
  5
4AD
330
18
100
AcDbEntity
  8
1
 62
     1
100
AcDbLine
 10
44.21967297192943
 20
3.804500666064826
 30
0.0
 11
44.4564998047572
 21
3.62995402248785
 31
0.0
  0
LINE
  5
4AE
330
18
100
AcDbEntity
  8
1
 62
     1
100
AcDbLine
 10
44.4564998047572
 20
3.62995402248785
 30
0.0
 11
44.93014137960491
 21
3.244031604905858
 31
0.0
  0
LINE
  5
4AF
330
18
100
AcDbEntity
  8
1
 62
     1
100
AcDbLine
 10
44.93014137960491
 20
3.244031604905858
 30
0.0
 11
45.40378105569901
 21
2.81349038170215
 31
0.0
  0
LINE
  5
4B0
330
18
100
AcDbEntity
  8
1
 62
     1
100
AcDbLine
 10
40.2699850675619
 20
4.7625
 30
0.0
 11
41.61463309672142
 21
4.7625
 31
0.0
  0
LINE
  5
4B1
330
18
100
AcDbEntity
  8
1
 62
     1
100
AcDbLine
 10
40.2699850675619
 20
4.762499999999999
 30
0.0
 11
40.4681134812313
 21
4.756762663541715
 31
0.0
  0
LINE
  5
4B2
330
18
100
AcDbEntity
  8
1
 62
     1
100
AcDbLine
 10
40.4681134812313
 20
4.756762663541715
 30
0.0
 11
40.66623410345257
 21
4.73956681599513
 31
0.0
  0
LINE
  5
4B3
330
18
100
AcDbEntity
  8
1
 62
     1
100
AcDbLine
 10
40.66623410345257
 20
4.73956681599513
 30
0.0
 11
40.86435982842819
 21
4.710953251443724
 31
0.0
  0
LINE
  5
4B4
330
18
100
AcDbEntity
  8
1
 62
     1
100
AcDbLine
 10
40.86435982842819
 20
4.710953251443724
 30
0.0
 11
41.0624905471911
 21
4.670988473167782
 31
0.0
  0
LINE
  5
4B5
330
18
100
AcDbEntity
  8
1
 62
     1
100
AcDbLine
 10
41.0624905471911
 20
4.670988473167782
 30
0.0
 11
41.26061173578388
 21
4.619773048675911
 31
0.0
  0
LINE
  5
4B6
330
18
100
AcDbEntity
  8
1
 62
     1
100
AcDbLine
 10
41.26061173578388
 20
4.619773048675911
 30
0.0
 11
41.45873520411213
 21
4.557428627195995
 31
0.0
  0
LINE
  5
4B7
330
18
100
AcDbEntity
  8
1
 62
     1
100
AcDbLine
 10
41.45873520411213
 20
4.557428627195995
 30
0.0
 11
41.65686703136484
 21
4.484101275609001
 31
0.0
  0
LINE
  5
4B8
330
18
100
AcDbEntity
  8
1
 62
     1
100
AcDbLine
 10
41.65686703136484
 20
4.484101275609001
 30
0.0
 11
41.8549893402031
 21
4.399974541170122
 31
0.0
  0
LINE
  5
4B9
330
18
100
AcDbEntity
  8
1
 62
     1
100
AcDbLine
 10
41.8549893402031
 20
4.399974541170122
 30
0.0
 11
42.05311123482525
 21
4.305249237844212
 31
0.0
  0
LINE
  5
4BA
330
18
100
AcDbEntity
  8
1
 62
     1
100
AcDbLine
 10
42.05311123482525
 20
4.305249237844212
 30
0.0
 11
42.25124268666412
 21
4.200146961512425
 31
0.0
  0
LINE
  5
4BB
330
18
100
AcDbEntity
  8
1
 62
     1
100
AcDbLine
 10
42.25124268666412
 20
4.200146961512425
 30
0.0
 11
42.44936686158532
 21
4.084929386185676
 31
0.0
  0
LINE
  5
4BC
330
18
100
AcDbEntity
  8
1
 62
     1
100
AcDbLine
 10
42.44936686158532
 20
4.084929386185676
 30
0.0
 11
42.64748768329645
 21
3.959873777802893
 31
0.0
  0
LINE
  5
4BD
330
18
100
AcDbEntity
  8
1
 62
     1
100
AcDbLine
 10
42.64748768329645
 20
3.959873777802893
 30
0.0
 11
43.04374407760867
 21
3.681457524939484
 31
0.0
  0
LINE
  5
4BE
330
18
100
AcDbEntity
  8
1
 62
     1
100
AcDbLine
 10
43.04374407760867
 20
3.681457524939484
 30
0.0
 11
43.43999129815192
 21
3.367593940676469
 31
0.0
  0
LINE
  5
4BF
330
18
100
AcDbEntity
  8
1
 62
     1
100
AcDbLine
 10
43.43999129815192
 20
3.367593940676469
 30
0.0
 11
43.83624167820873
 21
3.021295410953778
 31
0.0
  0
LINE
  5
4C0
330
18
100
AcDbEntity
  8
1
 62
     1
100
AcDbLine
 10
43.83624167820873
 20
3.021295410953778
 30
0.0
 11
44.2324970826066
 21
2.645895873193194
 31
0.0
  0
LINE
  5
4C1
330
18
100
AcDbEntity
  8
1
 62
     1
100
AcDbLine
 10
44.2324970826066
 20
2.645895873193194
 30
0.0
 11
45.02499604126865
 21
1.822523746398958
 31
0.0
  0
LINE
  5
4C2
330
18
100
AcDbEntity
  8
1
 62
     1
100
AcDbLine
 10
45.02499604126865
 20
1.822523746398958
 30
0.0
 11
46.60999253383769
 21
-0.0000000000011071
 31
0.0
  0
LINE
  5
4C3
330
18
100
AcDbEntity
  8
1
 62
     1
100
AcDbLine
 10
52.90000000000001
 20
-0.0874683844274961
 30
0.0
 11
52.89929277642872
 21
-0.1210741203963603
 31
0.0
  0
LINE
  5
4C4
330
18
100
AcDbEntity
  8
1
 62
     1
100
AcDbLine
 10
52.89929277642872
 20
-0.1210741203963603
 30
0.0
 11
52.89707774322213
 21
-0.1538790929823589
 31
0.0
  0
LINE
  5
4C5
330
18
100
AcDbEntity
  8
1
 62
     1
100
AcDbLine
 10
52.89707774322213
 20
-0.1538790929823589
 30
0.0
 11
52.89321458861422
 21
-0.1856796914607667
 31
0.0
  0
LINE
  5
4C6
330
18
100
AcDbEntity
  8
1
 62
     1
100
AcDbLine
 10
52.89321458861422
 20
-0.1856796914607667
 30
0.0
 11
52.88754408336399
 21
-0.2162882986973187
 31
0.0
  0
LINE
  5
4C7
330
18
100
AcDbEntity
  8
1
 62
     1
100
AcDbLine
 10
52.88754408336399
 20
-0.2162882986973187
 30
0.0
 11
52.88397680493835
 21
-0.2310598268863057
 31
0.0
  0
LINE
  5
4C8
330
18
100
AcDbEntity
  8
1
 62
     1
100
AcDbLine
 10
52.88397680493835
 20
-0.2310598268863057
 30
0.0
 11
52.87989185096173
 21
-0.2454267135020873
 31
0.0
  0
LINE
  5
4C9
330
18
100
AcDbEntity
  8
1
 62
     1
100
AcDbLine
 10
52.87989185096173
 20
-0.2454267135020873
 30
0.0
 11
52.87526169219426
 21
-0.2593597744395145
 31
0.0
  0
LINE
  5
4CA
330
18
100
AcDbEntity
  8
1
 62
     1
100
AcDbLine
 10
52.87526169219426
 20
-0.2593597744395145
 30
0.0
 11
52.87006471140789
 21
-0.2728067648268748
 31
0.0
  0
LINE
  5
4CB
330
18
100
AcDbEntity
  8
1
 62
     1
100
AcDbLine
 10
52.87006471140789
 20
-0.2728067648268748
 30
0.0
 11
52.86428012843759
 21
-0.2857128429645278
 31
0.0
  0
LINE
  5
4CC
330
18
100
AcDbEntity
  8
1
 62
     1
100
AcDbLine
 10
52.86428012843759
 20
-0.2857128429645278
 30
0.0
 11
52.8578814451767
 21
-0.2980319903085616
 31
0.0
  0
LINE
  5
4CD
330
18
100
AcDbEntity
  8
1
 62
     1
100
AcDbLine
 10
52.8578814451767
 20
-0.2980319903085616
 30
0.0
 11
52.85084096556907
 21
-0.3097203546120052
 31
0.0
  0
LINE
  5
4CE
330
18
100
AcDbEntity
  8
1
 62
     1
100
AcDbLine
 10
52.85084096556907
 20
-0.3097203546120052
 30
0.0
 11
52.84707626193025
 21
-0.3153068659886878
 31
0.0
  0
LINE
  5
4CF
330
18
100
AcDbEntity
  8
1
 62
     1
100
AcDbLine
 10
52.84707626193025
 20
-0.3153068659886878
 30
0.0
 11
52.84314664622894
 21
-0.320710198264104
 31
0.0
  0
LINE
  5
4D0
330
18
100
AcDbEntity
  8
1
 62
     1
100
AcDbLine
 10
52.84314664622894
 20
-0.320710198264104
 30
0.0
 11
52.83905066633586
 21
-0.3259218024998238
 31
0.0
  0
LINE
  5
4D1
330
18
100
AcDbEntity
  8
1
 62
     1
100
AcDbLine
 10
52.83905066633586
 20
-0.3259218024998238
 30
0.0
 11
52.83478685907199
 21
-0.3309331425523192
 31
0.0
  0
LINE
  5
4D2
330
18
100
AcDbEntity
  8
1
 62
     1
100
AcDbLine
 10
52.83478685907199
 20
-0.3309331425523192
 30
0.0
 11
52.83035077073545
 21
-0.3357396197605824
 31
0.0
  0
LINE
  5
4D3
330
18
100
AcDbEntity
  8
1
 62
     1
100
AcDbLine
 10
52.83035077073545
 20
-0.3357396197605824
 30
0.0
 11
52.82574021149723
 21
-0.34033570134546
 31
0.0
  0
LINE
  5
4D4
330
18
100
AcDbEntity
  8
1
 62
     1
100
AcDbLine
 10
52.82574021149723
 20
-0.34033570134546
 30
0.0
 11
52.82095606988443
 21
-0.3447126635314517
 31
0.0
  0
LINE
  5
4D5
330
18
100
AcDbEntity
  8
1
 62
     1
100
AcDbLine
 10
52.82095606988443
 20
-0.3447126635314517
 30
0.0
 11
52.8159992344242
 21
-0.3488617825430571
 31
0.0
  0
LINE
  5
4D6
330
18
100
AcDbEntity
  8
1
 62
     1
100
AcDbLine
 10
52.8159992344242
 20
-0.3488617825430571
 30
0.0
 11
52.81087058275725
 21
-0.3527743415379225
 31
0.0
  0
LINE
  5
4D7
330
18
100
AcDbEntity
  8
1
 62
     1
100
AcDbLine
 10
52.81087058275725
 20
-0.3527743415379225
 30
0.0
 11
52.80556682113101
 21
-0.3564448948630854
 31
0.0
  0
LINE
  5
4D8
330
18
100
AcDbEntity
  8
1
 62
     1
100
AcDbLine
 10
52.80556682113101
 20
-0.3564448948630854
 30
0.0
 11
52.80008734401758
 21
-0.3598685100133406
 31
0.0
  0
LINE
  5
4D9
330
18
100
AcDbEntity
  8
1
 62
     1
100
AcDbLine
 10
52.80008734401758
 20
-0.3598685100133406
 30
0.0
 11
52.79443582892925
 21
-0.363038029028842
 31
0.0
  0
LINE
  5
4DA
330
18
100
AcDbEntity
  8
1
 62
     1
100
AcDbLine
 10
52.79443582892925
 20
-0.363038029028842
 30
0.0
 11
52.78861595337833
 21
-0.3659462939497438
 31
0.0
  0
LINE
  5
4DB
330
18
100
AcDbEntity
  8
1
 62
     1
100
AcDbLine
 10
52.78861595337833
 20
-0.3659462939497438
 30
0.0
 11
52.7826313855054
 21
-0.3685861503010159
 31
0.0
  0
LINE
  5
4DC
330
18
100
AcDbEntity
  8
1
 62
     1
100
AcDbLine
 10
52.7826313855054
 20
-0.3685861503010159
 30
0.0
 11
52.77648035014563
 21
-0.3709532568805937
 31
0.0
  0
LINE
  5
4DD
330
18
100
AcDbEntity
  8
1
 62
     1
100
AcDbLine
 10
52.77648035014563
 20
-0.3709532568805937
 30
0.0
 11
52.77016391666684
 21
-0.3730451247897466
 31
0.0
  0
LINE
  5
4DE
330
18
100
AcDbEntity
  8
1
 62
     1
100
AcDbLine
 10
52.77016391666684
 20
-0.3730451247897466
 30
0.0
 11
52.76368870601173
 21
-0.3748578703017538
 31
0.0
  0
LINE
  5
4DF
330
18
100
AcDbEntity
  8
1
 62
     1
100
AcDbLine
 10
52.76368870601173
 20
-0.3748578703017538
 30
0.0
 11
52.75706133912297
 21
-0.376387609689894
 31
0.0
  0
LINE
  5
4E0
330
18
100
AcDbEntity
  8
1
 62
     1
100
AcDbLine
 10
52.75706133912297
 20
-0.376387609689894
 30
0.0
 11
52.75028842999552
 21
-0.377630460352521
 31
0.0
  0
LINE
  5
4E1
330
18
100
AcDbEntity
  8
1
 62
     1
100
AcDbLine
 10
52.75028842999552
 20
-0.377630460352521
 30
0.0
 11
52.74337007634051
 21
-0.3785844088836976
 31
0.0
  0
LINE
  5
4E2
330
18
100
AcDbEntity
  8
1
 62
     1
100
AcDbLine
 10
52.74337007634051
 20
-0.3785844088836976
 30
0.0
 11
52.73630861923379
 21
-0.379250129905568
 31
0.0
  0
LINE
  5
4E3
330
18
100
AcDbEntity
  8
1
 62
     1
100
AcDbLine
 10
52.73630861923379
 20
-0.379250129905568
 30
0.0
 11
52.72911280299857
 21
-0.3796279752511945
 31
0.0
  0
LINE
  5
4E4
330
18
100
AcDbEntity
  8
1
 62
     1
100
AcDbLine
 10
52.72911280299857
 20
-0.3796279752511945
 30
0.0
 11
52.72179137195813
 21
-0.3797182967536404
 31
0.0
  0
LINE
  5
4E5
330
18
100
AcDbEntity
  8
1
 62
     1
100
AcDbLine
 10
52.72179137195813
 20
-0.3797182967536404
 30
0.0
 11
52.71435306562759
 21
-0.3795214461716939
 31
0.0
  0
LINE
  5
4E6
330
18
100
AcDbEntity
  8
1
 62
     1
100
AcDbLine
 10
52.71435306562759
 20
-0.3795214461716939
 30
0.0
 11
52.70679949788757
 21
-0.3790383412427334
 31
0.0
  0
LINE
  5
4E7
330
18
100
AcDbEntity
  8
1
 62
     1
100
AcDbLine
 10
52.70679949788757
 20
-0.3790383412427334
 30
0.0
 11
52.69136422151976
 21
-0.3772280839492983
 31
0.0
  0
LINE
  5
4E8
330
18
100
AcDbEntity
  8
1
 62
     1
100
AcDbLine
 10
52.69136422151976
 20
-0.3772280839492983
 30
0.0
 11
52.67555397633148
 21
-0.3743205087483185
 31
0.0
  0
LINE
  5
4E9
330
18
100
AcDbEntity
  8
1
 62
     1
100
AcDbLine
 10
52.67555397633148
 20
-0.3743205087483185
 30
0.0
 11
52.65941544558063
 21
-0.3703479472931795
 31
0.0
  0
LINE
  5
4EA
330
18
100
AcDbEntity
  8
1
 62
     1
100
AcDbLine
 10
52.65941544558063
 20
-0.3703479472931795
 30
0.0
 11
52.64299256783221
 21
-0.3653561479467236
 31
0.0
  0
LINE
  5
4EB
330
18
100
AcDbEntity
  8
1
 62
     1
100
AcDbLine
 10
52.64299256783221
 20
-0.3653561479467236
 30
0.0
 11
52.62634786591218
 21
-0.3593967821828607
 31
0.0
  0
LINE
  5
4EC
330
18
100
AcDbEntity
  8
1
 62
     1
100
AcDbLine
 10
52.62634786591218
 20
-0.3593967821828607
 30
0.0
 11
52.60950823841836
 21
-0.3525157258424267
 31
0.0
  0
LINE
  5
4ED
330
18
100
AcDbEntity
  8
1
 62
     1
100
AcDbLine
 10
52.60950823841836
 20
-0.3525157258424267
 30
0.0
 11
52.59252519328174
 21
-0.344771960640135
 31
0.0
  0
LINE
  5
4EE
330
18
100
AcDbEntity
  8
1
 62
     1
100
AcDbLine
 10
52.59252519328174
 20
-0.344771960640135
 30
0.0
 11
52.55825611314121
 21
-0.3269013885270219
 31
0.0
  0
LINE
  5
4EF
330
18
100
AcDbEntity
  8
1
 62
     1
100
AcDbLine
 10
52.55825611314121
 20
-0.3269013885270219
 30
0.0
 11
52.52378233517369
 21
-0.3062021753383113
 31
0.0
  0
LINE
  5
4F0
330
18
100
AcDbEntity
  8
1
 62
     1
100
AcDbLine
 10
52.52378233517369
 20
-0.3062021753383113
 30
0.0
 11
52.48928113830412
 21
-0.2830539873427184
 31
0.0
  0
LINE
  5
4F1
330
18
100
AcDbEntity
  8
1
 62
     1
100
AcDbLine
 10
52.48928113830412
 20
-0.2830539873427184
 30
0.0
 11
52.45487117291415
 21
-0.257784485085884
 31
0.0
  0
LINE
  5
4F2
330
18
100
AcDbEntity
  8
1
 62
     1
100
AcDbLine
 10
52.45487117291415
 20
-0.257784485085884
 30
0.0
 11
52.38676081181502
 21
-0.2020820159638863
 31
0.0
  0
LINE
  5
4F3
330
18
100
AcDbEntity
  8
1
 62
     1
100
AcDbLine
 10
52.38676081181502
 20
-0.2020820159638863
 30
0.0
 11
52.31993390212266
 21
-0.141005860879962
 31
0.0
  0
LINE
  5
4F4
330
18
100
AcDbEntity
  8
1
 62
     1
100
AcDbLine
 10
52.31993390212266
 20
-0.141005860879962
 30
0.0
 11
52.25459598994387
 21
-0.0759374783500014
 31
0.0
  0
LINE
  5
4F5
330
18
100
AcDbEntity
  8
1
 62
     1
100
AcDbLine
 10
52.25459598994387
 20
-0.0759374783500014
 30
0.0
 11
52.10600000000001
 21
0.0888602286912837
 31
0.0
  0
LINE
  5
4F6
330
18
100
AcDbEntity
  8
1
 62
     1
100
AcDbLine
 10
52.89999999999999
 20
-1.941522960628321
 30
0.0
 11
52.89960970880472
 21
-1.953334839331803
 31
0.0
  0
LINE
  5
4F7
330
18
100
AcDbEntity
  8
1
 62
     1
100
AcDbLine
 10
52.89960970880472
 20
-1.953334839331803
 30
0.0
 11
52.89912336284538
 21
-1.958984005635951
 31
0.0
  0
LINE
  5
4F8
330
18
100
AcDbEntity
  8
1
 62
     1
100
AcDbLine
 10
52.89912336284538
 20
-1.958984005635951
 30
0.0
 11
52.89844423267574
 21
-1.964455148730447
 31
0.0
  0
LINE
  5
4F9
330
18
100
AcDbEntity
  8
1
 62
     1
100
AcDbLine
 10
52.89844423267574
 20
-1.964455148730447
 30
0.0
 11
52.89757333031905
 21
-1.969743137731853
 31
0.0
  0
LINE
  5
4FA
330
18
100
AcDbEntity
  8
1
 62
     1
100
AcDbLine
 10
52.89757333031905
 20
-1.969743137731853
 30
0.0
 11
52.89651166779839
 21
-1.974842841756726
 31
0.0
  0
LINE
  5
4FB
330
18
100
AcDbEntity
  8
1
 62
     1
100
AcDbLine
 10
52.89651166779839
 20
-1.974842841756726
 30
0.0
 11
52.89526025713696
 21
-1.979749129921625
 31
0.0
  0
LINE
  5
4FC
330
18
100
AcDbEntity
  8
1
 62
     1
100
AcDbLine
 10
52.89526025713696
 20
-1.979749129921625
 30
0.0
 11
52.89381950589142
 21
-1.984460027797763
 31
0.0
  0
LINE
  5
4FD
330
18
100
AcDbEntity
  8
1
 62
     1
100
AcDbLine
 10
52.89381950589142
 20
-1.984460027797763
 30
0.0
 11
52.8921904489798
 21
-1.988977131204621
 31
0.0
  0
LINE
  5
4FE
330
18
100
AcDbEntity
  8
1
 62
     1
100
AcDbLine
 10
52.8921904489798
 20
-1.988977131204621
 30
0.0
 11
52.89037595154589
 21
-1.993297586815763
 31
0.0
  0
LINE
  5
4FF
330
18
100
AcDbEntity
  8
1
 62
     1
100
AcDbLine
 10
52.89037595154589
 20
-1.993297586815763
 30
0.0
 11
52.88837890451367
 21
-1.997418451542422
 31
0.0
  0
LINE
  5
500
330
18
100
AcDbEntity
  8
1
 62
     1
100
AcDbLine
 10
52.88837890451367
 20
-1.997418451542422
 30
0.0
 11
52.886202198807
 21
-2.00133678229583
 31
0.0
  0
LINE
  5
501
330
18
100
AcDbEntity
  8
1
 62
     1
100
AcDbLine
 10
52.886202198807
 20
-2.00133678229583
 30
0.0
 11
52.88384872534982
 21
-2.005049635987217
 31
0.0
  0
LINE
  5
502
330
18
100
AcDbEntity
  8
1
 62
     1
100
AcDbLine
 10
52.88384872534982
 20
-2.005049635987217
 30
0.0
 11
52.88132137506605
 21
-2.008554069527813
 31
0.0
  0
LINE
  5
503
330
18
100
AcDbEntity
  8
1
 62
     1
100
AcDbLine
 10
52.88132137506605
 20
-2.008554069527813
 30
0.0
 11
52.87862209342106
 21
-2.01184874252146
 31
0.0
  0
LINE
  5
504
330
18
100
AcDbEntity
  8
1
 62
     1
100
AcDbLine
 10
52.87862209342106
 20
-2.01184874252146
 30
0.0
 11
52.87575176312507
 21
-2.01493630862694
 31
0.0
  0
LINE
  5
505
330
18
100
AcDbEntity
  8
1
 62
     1
100
AcDbLine
 10
52.87575176312507
 20
-2.01493630862694
 30
0.0
 11
52.87271434875796
 21
-2.017816424001214
 31
0.0
  0
LINE
  5
506
330
18
100
AcDbEntity
  8
1
 62
     1
100
AcDbLine
 10
52.87271434875796
 20
-2.017816424001214
 30
0.0
 11
52.86951398435835
 21
-2.020488518842124
 31
0.0
  0
LINE
  5
507
330
18
100
AcDbEntity
  8
1
 62
     1
100
AcDbLine
 10
52.86951398435835
 20
-2.020488518842124
 30
0.0
 11
52.86615480396476
 21
-2.022952023347509
 31
0.0
  0
LINE
  5
508
330
18
100
AcDbEntity
  8
1
 62
     1
100
AcDbLine
 10
52.86615480396476
 20
-2.022952023347509
 30
0.0
 11
52.8626409416158
 21
-2.025206367715211
 31
0.0
  0
LINE
  5
509
330
18
100
AcDbEntity
  8
1
 62
     1
100
AcDbLine
 10
52.8626409416158
 20
-2.025206367715211
 30
0.0
 11
52.85897653135002
 21
-2.02725098214307
 31
0.0
  0
LINE
  5
50A
330
18
100
AcDbEntity
  8
1
 62
     1
100
AcDbLine
 10
52.85897653135002
 20
-2.02725098214307
 30
0.0
 11
52.85516481067398
 21
-2.029085914928416
 31
0.0
  0
LINE
  5
50B
330
18
100
AcDbEntity
  8
1
 62
     1
100
AcDbLine
 10
52.85516481067398
 20
-2.029085914928416
 30
0.0
 11
52.85120626769732
 21
-2.03071402489162
 31
0.0
  0
LINE
  5
50C
330
18
100
AcDbEntity
  8
1
 62
     1
100
AcDbLine
 10
52.85120626769732
 20
-2.03071402489162
 30
0.0
 11
52.84710500346239
 21
-2.032136875301076
 31
0.0
  0
LINE
  5
50D
330
18
100
AcDbEntity
  8
1
 62
     1
100
AcDbLine
 10
52.84710500346239
 20
-2.032136875301076
 30
0.0
 11
52.84286556281688
 21
-2.033355784224884
 31
0.0
  0
LINE
  5
50E
330
18
100
AcDbEntity
  8
1
 62
     1
100
AcDbLine
 10
52.84286556281688
 20
-2.033355784224884
 30
0.0
 11
52.8384924906085
 21
-2.034372069731147
 31
0.0
  0
LINE
  5
50F
330
18
100
AcDbEntity
  8
1
 62
     1
100
AcDbLine
 10
52.8384924906085
 20
-2.034372069731147
 30
0.0
 11
52.83399033168496
 21
-2.035187049887964
 31
0.0
  0
LINE
  5
510
330
18
100
AcDbEntity
  8
1
 62
     1
100
AcDbLine
 10
52.83399033168496
 20
-2.035187049887964
 30
0.0
 11
52.82936363089398
 21
-2.035802042763436
 31
0.0
  0
LINE
  5
511
330
18
100
AcDbEntity
  8
1
 62
     1
100
AcDbLine
 10
52.82936363089398
 20
-2.035802042763436
 30
0.0
 11
52.8246162695111
 21
-2.03621849760818
 31
0.0
  0
LINE
  5
512
330
18
100
AcDbEntity
  8
1
 62
     1
100
AcDbLine
 10
52.8246162695111
 20
-2.03621849760818
 30
0.0
 11
52.8197483789145
 21
-2.036439001435696
 31
0.0
  0
LINE
  5
513
330
18
100
AcDbEntity
  8
1
 62
     1
100
AcDbLine
 10
52.8197483789145
 20
-2.036439001435696
 30
0.0
 11
52.81476349518474
 21
-2.03646610935103
 31
0.0
  0
LINE
  5
514
330
18
100
AcDbEntity
  8
1
 62
     1
100
AcDbLine
 10
52.81476349518474
 20
-2.03646610935103
 30
0.0
 11
52.80966592560664
 21
-2.036302273066938
 31
0.0
  0
LINE
  5
515
330
18
100
AcDbEntity
  8
1
 62
     1
100
AcDbLine
 10
52.80966592560664
 20
-2.036302273066938
 30
0.0
 11
52.79914995804477
 21
-2.03541157475149
 31
0.0
  0
LINE
  5
516
330
18
100
AcDbEntity
  8
1
 62
     1
100
AcDbLine
 10
52.79914995804477
 20
-2.03541157475149
 30
0.0
 11
52.78823452196935
 21
-2.033786478357574
 31
0.0
  0
LINE
  5
517
330
18
100
AcDbEntity
  8
1
 62
     1
100
AcDbLine
 10
52.78823452196935
 20
-2.033786478357574
 30
0.0
 11
52.7769380457411
 21
-2.031445974678133
 31
0.0
  0
LINE
  5
518
330
18
100
AcDbEntity
  8
1
 62
     1
100
AcDbLine
 10
52.7769380457411
 20
-2.031445974678133
 30
0.0
 11
52.76528341991348
 21
-2.028412288222151
 31
0.0
  0
LINE
  5
519
330
18
100
AcDbEntity
  8
1
 62
     1
100
AcDbLine
 10
52.76528341991348
 20
-2.028412288222151
 30
0.0
 11
52.75330053889471
 21
-2.024708818364181
 31
0.0
  0
LINE
  5
51A
330
18
100
AcDbEntity
  8
1
 62
     1
100
AcDbLine
 10
52.75330053889471
 20
-2.024708818364181
 30
0.0
 11
52.74101473814387
 21
-2.020357633791341
 31
0.0
  0
LINE
  5
51B
330
18
100
AcDbEntity
  8
1
 62
     1
100
AcDbLine
 10
52.74101473814387
 20
-2.020357633791341
 30
0.0
 11
52.71559240947529
 21
-2.009792103578447
 31
0.0
  0
LINE
  5
51C
330
18
100
AcDbEntity
  8
1
 62
     1
100
AcDbLine
 10
52.71559240947529
 20
-2.009792103578447
 30
0.0
 11
52.68918445952978
 21
-1.996894008587098
 31
0.0
  0
LINE
  5
51D
330
18
100
AcDbEntity
  8
1
 62
     1
100
AcDbLine
 10
52.68918445952978
 20
-1.996894008587098
 30
0.0
 11
52.66191212351875
 21
-1.981821548042624
 31
0.0
  0
LINE
  5
51E
330
18
100
AcDbEntity
  8
1
 62
     1
100
AcDbLine
 10
52.66191212351875
 20
-1.981821548042624
 30
0.0
 11
52.63390486254774
 21
-1.964736907589739
 31
0.0
  0
LINE
  5
51F
330
18
100
AcDbEntity
  8
1
 62
     1
100
AcDbLine
 10
52.63390486254774
 20
-1.964736907589739
 30
0.0
 11
52.57604967643386
 21
-1.925087372684216
 31
0.0
  0
LINE
  5
520
330
18
100
AcDbEntity
  8
1
 62
     1
100
AcDbLine
 10
52.57604967643386
 20
-1.925087372684216
 30
0.0
 11
52.51626813056019
 21
-1.878982155304085
 31
0.0
  0
LINE
  5
521
330
18
100
AcDbEntity
  8
1
 62
     1
100
AcDbLine
 10
52.51626813056019
 20
-1.878982155304085
 30
0.0
 11
52.4550597262214
 21
-1.827316601139875
 31
0.0
  0
LINE
  5
522
330
18
100
AcDbEntity
  8
1
 62
     1
100
AcDbLine
 10
52.4550597262214
 20
-1.827316601139875
 30
0.0
 11
52.32978662605075
 21
-1.710266862511292
 31
0.0
  0
LINE
  5
523
330
18
100
AcDbEntity
  8
1
 62
     1
100
AcDbLine
 10
52.32978662605075
 20
-1.710266862511292
 30
0.0
 11
52.10600000000001
 21
-1.473190737789628
 31
0.0
  0
ARC
  5
524
330
18
100
AcDbEntity
  8
1
 62
     1
100
AcDbCircle
 10
-35.03876553091493
 20
-50.78407053538329
 30
0.0
 40
79.00029007184818
100
AcDbArc
 50
40.00312281871624
 51
41.28487499009768
  0
LINE
  5
525
330
18
100
AcDbEntity
  8
1
 62
     1
100
AcDbLine
 10
24.325
 20
2.761275390565621
 30
0.0
 11
24.87726699845152
 21
2.206181435366925
 31
0.0
  0
LINE
  5
526
330
18
100
AcDbEntity
  8
1
 62
     1
100
AcDbLine
 10
24.87726699845152
 20
2.206181435366925
 30
0.0
 11
25.98180273436067
 21
0.9834208913275649
 31
0.0
  0
LINE
  5
527
330
18
100
AcDbEntity
  8
1
 62
     1
100
AcDbLine
 10
25.98180273436067
 20
0.9834208913275649
 30
0.0
 11
28.19087491745146
 21
-1.585221361614164
 31
0.0
  0
LINE
  5
528
330
18
100
AcDbEntity
  8
1
 62
     1
100
AcDbLine
 10
28.19087491745146
 20
-1.585221361614164
 30
0.0
 11
28.74314344592473
 21
-2.182981670595586
 31
0.0
  0
LINE
  5
529
330
18
100
AcDbEntity
  8
1
 62
     1
100
AcDbLine
 10
28.74314344592473
 20
-2.182981670595586
 30
0.0
 11
29.29541122640389
 21
-2.739935098588565
 31
0.0
  0
LINE
  5
52A
330
18
100
AcDbEntity
  8
1
 62
     1
100
AcDbLine
 10
29.29541122640389
 20
-2.739935098588565
 30
0.0
 11
29.84767876320965
 21
-3.245670482950382
 31
0.0
  0
LINE
  5
52B
330
18
100
AcDbEntity
  8
1
 62
     1
100
AcDbLine
 10
29.84767876320965
 20
-3.245670482950382
 30
0.0
 11
30.12381280496736
 21
-3.47633461532348
 31
0.0
  0
LINE
  5
52C
330
18
100
AcDbEntity
  8
1
 62
     1
100
AcDbLine
 10
30.12381280496736
 20
-3.47633461532348
 30
0.0
 11
30.39994650347597
 21
-3.690734090607326
 31
0.0
  0
LINE
  5
52D
330
18
100
AcDbEntity
  8
1
 62
     1
100
AcDbLine
 10
30.39994650347597
 20
-3.690734090607326
 30
0.0
 11
30.67608038944527
 21
-3.887865470511121
 31
0.0
  0
LINE
  5
52E
330
18
100
AcDbEntity
  8
1
 62
     1
100
AcDbLine
 10
30.67608038944527
 20
-3.887865470511121
 30
0.0
 11
30.95221458469042
 21
-4.066806423624238
 31
0.0
  0
LINE
  5
52F
330
18
100
AcDbEntity
  8
1
 62
     1
100
AcDbLine
 10
30.95221458469042
 20
-4.066806423624238
 30
0.0
 11
31.22834831704075
 21
-4.226720075139546
 31
0.0
  0
LINE
  5
530
330
18
100
AcDbEntity
  8
1
 62
     1
100
AcDbLine
 10
31.22834831704075
 20
-4.226720075139546
 30
0.0
 11
31.50448253409554
 21
-4.366857794854096
 31
0.0
  0
LINE
  5
531
330
18
100
AcDbEntity
  8
1
 62
     1
100
AcDbLine
 10
31.50448253409554
 20
-4.366857794854096
 30
0.0
 11
31.78061702095038
 21
-4.486564038241053
 31
0.0
  0
LINE
  5
532
330
18
100
AcDbEntity
  8
1
 62
     1
100
AcDbLine
 10
31.78061702095038
 20
-4.486564038241053
 30
0.0
 11
32.05675095973377
 21
-4.585278927808139
 31
0.0
  0
LINE
  5
533
330
18
100
AcDbEntity
  8
1
 62
     1
100
AcDbLine
 10
32.05675095973377
 20
-4.585278927808139
 30
0.0
 11
32.19482432083686
 21
-4.626617465885298
 31
0.0
  0
LINE
  5
534
330
18
100
AcDbEntity
  8
1
 62
     1
100
AcDbLine
 10
32.19482432083686
 20
-4.626617465885298
 30
0.0
 11
32.33288561460429
 21
-4.662540228403111
 31
0.0
  0
LINE
  5
535
330
18
100
AcDbEntity
  8
1
 62
     1
100
AcDbLine
 10
32.33288561460429
 20
-4.662540228403111
 30
0.0
 11
32.47095784858364
 21
-4.693009507546529
 31
0.0
  0
LINE
  5
536
330
18
100
AcDbEntity
  8
1
 62
     1
100
AcDbLine
 10
32.47095784858364
 20
-4.693009507546529
 30
0.0
 11
32.60902047220897
 21
-4.717986588209992
 31
0.0
  0
LINE
  5
537
330
18
100
AcDbEntity
  8
1
 62
     1
100
AcDbLine
 10
32.60902047220897
 20
-4.717986588209992
 30
0.0
 11
32.74709167997262
 21
-4.737444053164567
 31
0.0
  0
LINE
  5
538
330
18
100
AcDbEntity
  8
1
 62
     1
100
AcDbLine
 10
32.74709167997262
 20
-4.737444053164567
 30
0.0
 11
32.88515477672223
 21
-4.751358606822431
 31
0.0
  0
LINE
  5
539
330
18
100
AcDbEntity
  8
1
 62
     1
100
AcDbLine
 10
32.88515477672223
 20
-4.751358606822431
 30
0.0
 11
33.02322548534107
 21
-4.759713324009641
 31
0.0
  0
LINE
  5
53A
330
18
100
AcDbEntity
  8
1
 62
     1
100
AcDbLine
 10
33.02322548534107
 20
-4.759713324009641
 30
0.0
 11
33.16128972787025
 21
-4.762499999959627
 31
0.0
  0
LINE
  5
53B
330
18
100
AcDbEntity
  8
1
 62
     1
100
AcDbLine
 10
45.84130478096539
 20
4.7625
 30
0.0
 11
46.07813014933596
 21
4.754303849248608
 31
0.0
  0
LINE
  5
53C
330
18
100
AcDbEntity
  8
1
 62
     1
100
AcDbLine
 10
46.07813014933596
 20
4.754303849248608
 30
0.0
 11
46.31495113623313
 21
4.729744561259207
 31
0.0
  0
LINE
  5
53D
330
18
100
AcDbEntity
  8
1
 62
     1
100
AcDbLine
 10
46.31495113623313
 20
4.729744561259207
 30
0.0
 11
46.55177039879769
 21
4.688907471083438
 31
0.0
  0
LINE
  5
53E
330
18
100
AcDbEntity
  8
1
 62
     1
100
AcDbLine
 10
46.55177039879769
 20
4.688907471083438
 30
0.0
 11
46.78858974914533
 21
4.631932847248745
 31
0.0
  0
LINE
  5
53F
330
18
100
AcDbEntity
  8
1
 62
     1
100
AcDbLine
 10
46.78858974914533
 20
4.631932847248745
 30
0.0
 11
47.02541244558193
 21
4.559015920278815
 31
0.0
  0
LINE
  5
540
330
18
100
AcDbEntity
  8
1
 62
     1
100
AcDbLine
 10
47.02541244558193
 20
4.559015920278815
 30
0.0
 11
47.26223844384127
 21
4.470405713487367
 31
0.0
  0
LINE
  5
541
330
18
100
AcDbEntity
  8
1
 62
     1
100
AcDbLine
 10
47.26223844384127
 20
4.470405713487367
 30
0.0
 11
47.4990623745492
 21
4.366410143316907
 31
0.0
  0
LINE
  5
542
330
18
100
AcDbEntity
  8
1
 62
     1
100
AcDbLine
 10
47.4990623745492
 20
4.366410143316907
 30
0.0
 11
47.73588235995253
 21
4.247388015673013
 31
0.0
  0
LINE
  5
543
330
18
100
AcDbEntity
  8
1
 62
     1
100
AcDbLine
 10
47.73588235995253
 20
4.247388015673013
 30
0.0
 11
47.97270143886239
 21
4.113748707610516
 31
0.0
  0
LINE
  5
544
330
18
100
AcDbEntity
  8
1
 62
     1
100
AcDbLine
 10
47.97270143886239
 20
4.113748707610516
 30
0.0
 11
48.20952133889564
 21
3.965950672480206
 31
0.0
  0
LINE
  5
545
330
18
100
AcDbEntity
  8
1
 62
     1
100
AcDbLine
 10
48.20952133889564
 20
3.965950672480206
 30
0.0
 11
48.44634462532002
 21
3.804500680744615
 31
0.0
  0
LINE
  5
546
330
18
100
AcDbEntity
  8
1
 62
     1
100
AcDbLine
 10
48.44634462532002
 20
3.804500680744615
 30
0.0
 11
48.68317142548087
 21
3.629954023292534
 31
0.0
  0
LINE
  5
547
330
18
100
AcDbEntity
  8
1
 62
     1
100
AcDbLine
 10
48.68317142548087
 20
3.629954023292534
 30
0.0
 11
49.15681301349291
 21
3.244031621234217
 31
0.0
  0
LINE
  5
548
330
18
100
AcDbEntity
  8
1
 62
     1
100
AcDbLine
 10
49.15681301349291
 20
3.244031621234217
 30
0.0
 11
49.63045270178983
 21
2.813490414868607
 31
0.0
  0
LINE
  5
549
330
18
100
AcDbEntity
  8
1
 62
     1
100
AcDbLine
 10
44.49665671176496
 20
4.7625
 30
0.0
 11
45.8413047809654
 21
4.7625
 31
0.0
  0
LINE
  5
54A
330
18
100
AcDbEntity
  8
1
 62
     1
100
AcDbLine
 10
44.49665671176496
 20
4.762499999999999
 30
0.0
 11
44.69478512874468
 21
4.756762663708869
 31
0.0
  0
LINE
  5
54B
330
18
100
AcDbEntity
  8
1
 62
     1
100
AcDbLine
 10
44.69478512874468
 20
4.756762663708869
 30
0.0
 11
44.8929057490695
 21
4.739566816131966
 31
0.0
  0
LINE
  5
54C
330
18
100
AcDbEntity
  8
1
 62
     1
100
AcDbLine
 10
44.8929057490695
 20
4.739566816131966
 30
0.0
 11
45.09103147639314
 21
4.710953251913914
 31
0.0
  0
LINE
  5
54D
330
18
100
AcDbEntity
  8
1
 62
     1
100
AcDbLine
 10
45.09103147639314
 20
4.710953251913914
 30
0.0
 11
45.28916219161209
 21
4.670988473179629
 31
0.0
  0
LINE
  5
54E
330
18
100
AcDbEntity
  8
1
 62
     1
100
AcDbLine
 10
45.28916219161209
 20
4.670988473179629
 30
0.0
 11
45.48728338257537
 21
4.61977304924797
 31
0.0
  0
LINE
  5
54F
330
18
100
AcDbEntity
  8
1
 62
     1
100
AcDbLine
 10
45.48728338257537
 20
4.61977304924797
 30
0.0
 11
45.68540684967517
 21
4.557428627557616
 31
0.0
  0
LINE
  5
550
330
18
100
AcDbEntity
  8
1
 62
     1
100
AcDbLine
 10
45.68540684967517
 20
4.557428627557616
 30
0.0
 11
45.88353867861495
 21
4.484101276517762
 31
0.0
  0
LINE
  5
551
330
18
100
AcDbEntity
  8
1
 62
     1
100
AcDbLine
 10
45.88353867861495
 20
4.484101276517762
 30
0.0
 11
46.08166098599281
 21
4.399974541663632
 31
0.0
  0
LINE
  5
552
330
18
100
AcDbEntity
  8
1
 62
     1
100
AcDbLine
 10
46.08166098599281
 20
4.399974541663632
 30
0.0
 11
46.27978288076859
 21
4.305249238523303
 31
0.0
  0
LINE
  5
553
330
18
100
AcDbEntity
  8
1
 62
     1
100
AcDbLine
 10
46.27978288076859
 20
4.305249238523303
 30
0.0
 11
46.47791433330043
 21
4.200146962540039
 31
0.0
  0
LINE
  5
554
330
18
100
AcDbEntity
  8
1
 62
     1
100
AcDbLine
 10
46.47791433330043
 20
4.200146962540039
 30
0.0
 11
46.67603850775018
 21
4.08492938713997
 31
0.0
  0
LINE
  5
555
330
18
100
AcDbEntity
  8
1
 62
     1
100
AcDbLine
 10
46.67603850775018
 20
4.08492938713997
 30
0.0
 11
46.87415933060358
 21
3.959873779311421
 31
0.0
  0
LINE
  5
556
330
18
100
AcDbEntity
  8
1
 62
     1
100
AcDbLine
 10
46.87415933060358
 20
3.959873779311421
 30
0.0
 11
47.2704157247537
 21
3.681457526622628
 31
0.0
  0
LINE
  5
557
330
18
100
AcDbEntity
  8
1
 62
     1
100
AcDbLine
 10
47.2704157247537
 20
3.681457526622628
 30
0.0
 11
47.66666294619677
 21
3.367593943107805
 31
0.0
  0
LINE
  5
558
330
18
100
AcDbEntity
  8
1
 62
     1
100
AcDbLine
 10
47.66666294619677
 20
3.367593943107805
 30
0.0
 11
48.06291332541548
 21
3.021295413071931
 31
0.0
  0
LINE
  5
559
330
18
100
AcDbEntity
  8
1
 62
     1
100
AcDbLine
 10
48.06291332541548
 20
3.021295413071931
 30
0.0
 11
48.45916873022375
 21
2.645895875799408
 31
0.0
  0
LINE
  5
55A
330
18
100
AcDbEntity
  8
1
 62
     1
100
AcDbLine
 10
48.45916873022375
 20
2.645895875799408
 30
0.0
 11
49.25166768744248
 21
1.822523748210501
 31
0.0
  0
LINE
  5
55B
330
18
100
AcDbEntity
  8
1
 62
     1
100
AcDbLine
 10
49.25166768744248
 20
1.822523748210501
 30
0.0
 11
50.83666417762932
 21
-0.0000000000011635
 31
0.0
  0
LINE
  5
55C
330
18
100
AcDbEntity
  8
1
 62
     1
100
AcDbLine
 10
48.72332835590188
 20
4.762500000000001
 30
0.0
 11
48.54319967273083
 21
4.757757420639064
 31
0.0
  0
LINE
  5
55D
330
18
100
AcDbEntity
  8
1
 62
     1
100
AcDbLine
 10
48.54319967273083
 20
4.757757420639064
 30
0.0
 11
48.36307852321892
 21
4.743541958597176
 31
0.0
  0
LINE
  5
55E
330
18
100
AcDbEntity
  8
1
 62
     1
100
AcDbLine
 10
48.36307852321892
 20
4.743541958597176
 30
0.0
 11
48.18294572086916
 21
4.719879320244465
 31
0.0
  0
LINE
  5
55F
330
18
100
AcDbEntity
  8
1
 62
     1
100
AcDbLine
 10
48.18294572086916
 20
4.719879320244465
 30
0.0
 11
48.00282200885842
 21
4.686818251657292
 31
0.0
  0
LINE
  5
560
330
18
100
AcDbEntity
  8
1
 62
     1
100
AcDbLine
 10
48.00282200885842
 20
4.686818251657292
 30
0.0
 11
47.82269846944761
 21
4.644425628512241
 31
0.0
  0
LINE
  5
561
330
18
100
AcDbEntity
  8
1
 62
     1
100
AcDbLine
 10
47.82269846944761
 20
4.644425628512241
 30
0.0
 11
47.64256565751938
 21
4.592781037883241
 31
0.0
  0
LINE
  5
562
330
18
100
AcDbEntity
  8
1
 62
     1
100
AcDbLine
 10
47.64256565751938
 20
4.592781037883241
 30
0.0
 11
47.46244442702545
 21
4.531994274293417
 31
0.0
  0
LINE
  5
563
330
18
100
AcDbEntity
  8
1
 62
     1
100
AcDbLine
 10
47.46244442702545
 20
4.531994274293417
 30
0.0
 11
47.28231629254223
 21
4.462181314109865
 31
0.0
  0
LINE
  5
564
330
18
100
AcDbEntity
  8
1
 62
     1
100
AcDbLine
 10
52.89999999999998
 20
3.392252732789657
 30
0.0
 11
52.89982611951755
 21
3.397875440396986
 31
0.0
  0
LINE
  5
565
330
18
100
AcDbEntity
  8
1
 62
     1
100
AcDbLine
 10
52.89982611951755
 20
3.397875440396986
 30
0.0
 11
52.89929281010838
 21
3.403746759936863
 31
0.0
  0
LINE
  5
566
330
18
100
AcDbEntity
  8
1
 62
     1
100
AcDbLine
 10
52.89929281010838
 20
3.403746759936863
 30
0.0
 11
52.89838256982971
 21
3.409881620877193
 31
0.0
  0
LINE
  5
567
330
18
100
AcDbEntity
  8
1
 62
     1
100
AcDbLine
 10
52.89838256982971
 20
3.409881620877193
 30
0.0
 11
52.89707789673873
 21
3.416294952685885
 31
0.0
  0
LINE
  5
568
330
18
100
AcDbEntity
  8
1
 62
     1
100
AcDbLine
 10
52.89707789673873
 20
3.416294952685885
 30
0.0
 11
52.89536128889263
 21
3.423001684830843
 31
0.0
  0
LINE
  5
569
330
18
100
AcDbEntity
  8
1
 62
     1
100
AcDbLine
 10
52.89536128889263
 20
3.423001684830843
 30
0.0
 11
52.89321496914447
 21
3.430017354771423
 31
0.0
  0
LINE
  5
56A
330
18
100
AcDbEntity
  8
1
 62
     1
100
AcDbLine
 10
52.89321496914447
 20
3.430017354771423
 30
0.0
 11
52.89061680161394
 21
3.437365121164274
 31
0.0
  0
LINE
  5
56B
330
18
100
AcDbEntity
  8
1
 62
     1
100
AcDbLine
 10
52.89061680161394
 20
3.437365121164274
 30
0.0
 11
52.88754478298507
 21
3.445063598842004
 31
0.0
  0
LINE
  5
56C
330
18
100
AcDbEntity
  8
1
 62
     1
100
AcDbLine
 10
52.88754478298507
 20
3.445063598842004
 30
0.0
 11
52.88397771826799
 21
3.453129119527082
 31
0.0
  0
LINE
  5
56D
330
18
100
AcDbEntity
  8
1
 62
     1
100
AcDbLine
 10
52.88397771826799
 20
3.453129119527082
 30
0.0
 11
52.8752630997561
 21
3.470444940461453
 31
0.0
  0
LINE
  5
56E
330
18
100
AcDbEntity
  8
1
 62
     1
100
AcDbLine
 10
52.8752630997561
 20
3.470444940461453
 30
0.0
 11
52.86428222959559
 21
3.489469115007805
 31
0.0
  0
LINE
  5
56F
330
18
100
AcDbEntity
  8
1
 62
     1
100
AcDbLine
 10
52.86428222959559
 20
3.489469115007805
 30
0.0
 11
52.85084382646434
 21
3.510345275700065
 31
0.0
  0
LINE
  5
570
330
18
100
AcDbEntity
  8
1
 62
     1
100
AcDbLine
 10
52.85084382646434
 20
3.510345275700065
 30
0.0
 11
52.83479079275069
 21
3.533171665893986
 31
0.0
  0
LINE
  5
571
330
18
100
AcDbEntity
  8
1
 62
     1
100
AcDbLine
 10
52.83479079275069
 20
3.533171665893986
 30
0.0
 11
52.79444212223032
 21
3.584785720242512
 31
0.0
  0
LINE
  5
572
330
18
100
AcDbEntity
  8
1
 62
     1
100
AcDbLine
 10
52.79444212223032
 20
3.584785720242512
 30
0.0
 11
52.74337918596937
 21
3.643578493671183
 31
0.0
  0
LINE
  5
573
330
18
100
AcDbEntity
  8
1
 62
     1
100
AcDbLine
 10
52.74337918596937
 20
3.643578493671183
 30
0.0
 11
52.68351319909839
 21
3.707180888387767
 31
0.0
  0
LINE
  5
574
330
18
100
AcDbEntity
  8
1
 62
     1
100
AcDbLine
 10
52.68351319909839
 20
3.707180888387767
 30
0.0
 11
52.54966676335393
 21
3.836374642438854
 31
0.0
  0
LINE
  5
575
330
18
100
AcDbEntity
  8
1
 62
     1
100
AcDbLine
 10
52.54966676335393
 20
3.836374642438854
 30
0.0
 11
52.41219387298295
 21
3.954792118342159
 31
0.0
  0
LINE
  5
576
330
18
100
AcDbEntity
  8
1
 62
     1
100
AcDbLine
 10
52.41219387298295
 20
3.954792118342159
 30
0.0
 11
52.27894048389821
 21
4.056630509711486
 31
0.0
  0
LINE
  5
577
330
18
100
AcDbEntity
  8
1
 62
     1
100
AcDbLine
 10
52.27894048389821
 20
4.056630509711486
 30
0.0
 11
52.19090276293294
 21
4.116511123428567
 31
0.0
  0
LINE
  5
578
330
18
100
AcDbEntity
  8
1
 62
     1
100
AcDbLine
 10
52.19090276293294
 20
4.116511123428567
 30
0.0
 11
52.106
 21
4.168158110021118
 31
0.0
  0
LINE
  5
579
330
18
100
AcDbEntity
  8
1
 62
     1
100
AcDbLine
 10
52.89999999999999
 20
2.026672527719188
 30
0.0
 11
52.89960970917947
 21
2.039686172492617
 31
0.0
  0
LINE
  5
57A
330
18
100
AcDbEntity
  8
1
 62
     1
100
AcDbLine
 10
52.89960970917947
 20
2.039686172492617
 30
0.0
 11
52.89844423416689
 21
2.053352423091092
 31
0.0
  0
LINE
  5
57B
330
18
100
AcDbEntity
  8
1
 62
     1
100
AcDbLine
 10
52.89844423416689
 20
2.053352423091092
 30
0.0
 11
52.89651167113594
 21
2.067638978019385
 31
0.0
  0
LINE
  5
57C
330
18
100
AcDbEntity
  8
1
 62
     1
100
AcDbLine
 10
52.89651167113594
 20
2.067638978019385
 30
0.0
 11
52.89381951179551
 21
2.082517972355408
 31
0.0
  0
LINE
  5
57D
330
18
100
AcDbEntity
  8
1
 62
     1
100
AcDbLine
 10
52.89381951179551
 20
2.082517972355408
 30
0.0
 11
52.89037596068581
 21
2.0979893704398
 31
0.0
  0
LINE
  5
57E
330
18
100
AcDbEntity
  8
1
 62
     1
100
AcDbLine
 10
52.89037596068581
 20
2.0979893704398
 30
0.0
 11
52.88132139255165
 21
2.130555994914503
 31
0.0
  0
LINE
  5
57F
330
18
100
AcDbEntity
  8
1
 62
     1
100
AcDbLine
 10
52.88132139255165
 20
2.130555994914503
 30
0.0
 11
52.86951401233228
 21
2.165076049749056
 31
0.0
  0
LINE
  5
580
330
18
100
AcDbEntity
  8
1
 62
     1
100
AcDbLine
 10
52.86951401233228
 20
2.165076049749056
 30
0.0
 11
52.85516485065288
 21
2.201281840487975
 31
0.0
  0
LINE
  5
581
330
18
100
AcDbEntity
  8
1
 62
     1
100
AcDbLine
 10
52.85516485065288
 20
2.201281840487975
 30
0.0
 11
52.83849254373181
 21
2.238909341851319
 31
0.0
  0
LINE
  5
582
330
18
100
AcDbEntity
  8
1
 62
     1
100
AcDbLine
 10
52.83849254373181
 20
2.238909341851319
 30
0.0
 11
52.79915003781522
 21
2.317316896555471
 31
0.0
  0
LINE
  5
583
330
18
100
AcDbEntity
  8
1
 62
     1
100
AcDbLine
 10
52.79915003781522
 20
2.317316896555471
 30
0.0
 11
52.75330064214174
 21
2.3983571125475
 31
0.0
  0
LINE
  5
584
330
18
100
AcDbEntity
  8
1
 62
     1
100
AcDbLine
 10
52.75330064214174
 20
2.3983571125475
 30
0.0
 11
52.70250395616106
 21
2.480472677059427
 31
0.0
  0
LINE
  5
585
330
18
100
AcDbEntity
  8
1
 62
     1
100
AcDbLine
 10
52.70250395616106
 20
2.480472677059427
 30
0.0
 11
52.59071958836891
 21
2.643526962074084
 31
0.0
  0
LINE
  5
586
330
18
100
AcDbEntity
  8
1
 62
     1
100
AcDbLine
 10
52.59071958836891
 20
2.643526962074084
 30
0.0
 11
52.47047227693236
 21
2.800247491614757
 31
0.0
  0
LINE
  5
587
330
18
100
AcDbEntity
  8
1
 62
     1
100
AcDbLine
 10
52.47047227693236
 20
2.800247491614757
 30
0.0
 11
52.34560282050511
 21
2.946829148795842
 31
0.0
  0
LINE
  5
588
330
18
100
AcDbEntity
  8
1
 62
     1
100
AcDbLine
 10
52.34560282050511
 20
2.946829148795842
 30
0.0
 11
52.226274598404
 21
3.072745181596576
 31
0.0
  0
LINE
  5
589
330
18
100
AcDbEntity
  8
1
 62
     1
100
AcDbLine
 10
52.226274598404
 20
3.072745181596576
 30
0.0
 11
52.106
 21
3.185564300862168
 31
0.0
  0
LINE
  5
58A
330
18
100
AcDbEntity
  8
1
 62
     1
100
AcDbLine
 10
27.58997013426786
 20
4.762500000000001
 30
0.0
 11
27.78809853848385
 21
4.756762663078637
 31
0.0
  0
LINE
  5
58B
330
18
100
AcDbEntity
  8
1
 62
     1
100
AcDbLine
 10
27.78809853848385
 20
4.756762663078637
 30
0.0
 11
27.98621916668381
 21
4.739566815629064
 31
0.0
  0
LINE
  5
58C
330
18
100
AcDbEntity
  8
1
 62
     1
100
AcDbLine
 10
27.98621916668381
 20
4.739566815629064
 30
0.0
 11
28.18434488395433
 21
4.710953250054894
 31
0.0
  0
LINE
  5
58D
330
18
100
AcDbEntity
  8
1
 62
     1
100
AcDbLine
 10
28.18434488395433
 20
4.710953250054894
 30
0.0
 11
28.38247561361822
 21
4.670988473209388
 31
0.0
  0
LINE
  5
58E
330
18
100
AcDbEntity
  8
1
 62
     1
100
AcDbLine
 10
28.38247561361822
 20
4.670988473209388
 30
0.0
 11
28.58059679454806
 21
4.619773046969254
 31
0.0
  0
LINE
  5
58F
330
18
100
AcDbEntity
  8
1
 62
     1
100
AcDbLine
 10
28.58059679454806
 20
4.619773046969254
 30
0.0
 11
28.77872026796876
 21
4.557428626443611
 31
0.0
  0
LINE
  5
590
330
18
100
AcDbEntity
  8
1
 62
     1
100
AcDbLine
 10
28.77872026796876
 20
4.557428626443611
 30
0.0
 11
28.97685208871589
 21
4.484101272859681
 31
0.0
  0
LINE
  5
591
330
18
100
AcDbEntity
  8
1
 62
     1
100
AcDbLine
 10
28.97685208871589
 20
4.484101272859681
 30
0.0
 11
29.17497440262122
 21
4.399974539894174
 31
0.0
  0
LINE
  5
592
330
18
100
AcDbEntity
  8
1
 62
     1
100
AcDbLine
 10
29.17497440262122
 20
4.399974539894174
 30
0.0
 11
29.37309629570666
 21
4.305249235670566
 31
0.0
  0
LINE
  5
593
330
18
100
AcDbEntity
  8
1
 62
     1
100
AcDbLine
 10
29.37309629570666
 20
4.305249235670566
 30
0.0
 11
29.57122774727263
 21
4.200146959005071
 31
0.0
  0
LINE
  5
594
330
18
100
AcDbEntity
  8
1
 62
     1
100
AcDbLine
 10
29.57122774727263
 20
4.200146959005071
 30
0.0
 11
29.76935192249237
 21
4.084929383453529
 31
0.0
  0
LINE
  5
595
330
18
100
AcDbEntity
  8
1
 62
     1
100
AcDbLine
 10
29.76935192249237
 20
4.084929383453529
 30
0.0
 11
29.96747274128968
 21
3.959873773679945
 31
0.0
  0
LINE
  5
596
330
18
100
AcDbEntity
  8
1
 62
     1
100
AcDbLine
 10
29.96747274128968
 20
3.959873773679945
 30
0.0
 11
30.36372913623954
 21
3.681457520479174
 31
0.0
  0
LINE
  5
597
330
18
100
AcDbEntity
  8
1
 62
     1
100
AcDbLine
 10
30.36372913623954
 20
3.681457520479174
 30
0.0
 11
30.75997635375288
 21
3.367593933851128
 31
0.0
  0
LINE
  5
598
330
18
100
AcDbEntity
  8
1
 62
     1
100
AcDbLine
 10
30.75997635375288
 20
3.367593933851128
 30
0.0
 11
31.15622673601425
 21
3.021295404950756
 31
0.0
  0
LINE
  5
599
330
18
100
AcDbEntity
  8
1
 62
     1
100
AcDbLine
 10
31.15622673601425
 20
3.021295404950756
 30
0.0
 11
31.55248213904706
 21
2.645895865673531
 31
0.0
  0
LINE
  5
59A
330
18
100
AcDbEntity
  8
1
 62
     1
100
AcDbLine
 10
31.55248213904706
 20
2.645895865673531
 30
0.0
 11
32.34498110171454
 21
1.822523741112409
 31
0.0
  0
LINE
  5
59B
330
18
100
AcDbEntity
  8
1
 62
     1
100
AcDbLine
 10
32.34498110171454
 20
1.822523741112409
 30
0.0
 11
33.92997760106392
 21
-0.0000000000010241
 31
0.0
  0
LINE
  5
59C
330
18
100
AcDbEntity
  8
1
 62
     1
100
AcDbLine
 10
28.93461804366727
 20
4.762500000000001
 30
0.0
 11
29.17144359496164
 21
4.754303858004501
 31
0.0
  0
LINE
  5
59D
330
18
100
AcDbEntity
  8
1
 62
     1
100
AcDbLine
 10
29.17144359496164
 20
4.754303858004501
 30
0.0
 11
29.40826447854523
 21
4.729744564556688
 31
0.0
  0
LINE
  5
59E
330
18
100
AcDbEntity
  8
1
 62
     1
100
AcDbLine
 10
29.40826447854523
 20
4.729744564556688
 30
0.0
 11
29.64508378377795
 21
4.688907477208774
 31
0.0
  0
LINE
  5
59F
330
18
100
AcDbEntity
  8
1
 62
     1
100
AcDbLine
 10
29.64508378377795
 20
4.688907477208774
 30
0.0
 11
29.88190311419043
 21
4.631932851521135
 31
0.0
  0
LINE
  5
5A0
330
18
100
AcDbEntity
  8
1
 62
     1
100
AcDbLine
 10
29.88190311419043
 20
4.631932851521135
 30
0.0
 11
30.11872584572383
 21
4.559015927044037
 31
0.0
  0
LINE
  5
5A1
330
18
100
AcDbEntity
  8
1
 62
     1
100
AcDbLine
 10
30.11872584572383
 20
4.559015927044037
 30
0.0
 11
30.35555187925601
 21
4.470405725323515
 31
0.0
  0
LINE
  5
5A2
330
18
100
AcDbEntity
  8
1
 62
     1
100
AcDbLine
 10
30.35555187925601
 20
4.470405725323515
 30
0.0
 11
30.59237571986534
 21
4.366410117828913
 31
0.0
  0
LINE
  5
5A3
330
18
100
AcDbEntity
  8
1
 62
     1
100
AcDbLine
 10
30.59237571986534
 20
4.366410117828913
 30
0.0
 11
30.82919585759507
 21
4.247388039953311
 31
0.0
  0
LINE
  5
5A4
330
18
100
AcDbEntity
  8
1
 62
     1
100
AcDbLine
 10
30.82919585759507
 20
4.247388039953311
 30
0.0
 11
31.06601480550218
 21
4.113748668426878
 31
0.0
  0
LINE
  5
5A5
330
18
100
AcDbEntity
  8
1
 62
     1
100
AcDbLine
 10
31.06601480550218
 20
4.113748668426878
 30
0.0
 11
31.30283484515163
 21
3.965950682132203
 31
0.0
  0
LINE
  5
5A6
330
18
100
AcDbEntity
  8
1
 62
     1
100
AcDbLine
 10
31.30283484515163
 20
3.965950682132203
 30
0.0
 11
31.53965801941195
 21
3.804500624061245
 31
0.0
  0
LINE
  5
5A7
330
18
100
AcDbEntity
  8
1
 62
     1
100
AcDbLine
 10
31.53965801941195
 20
3.804500624061245
 30
0.0
 11
31.77648492479373
 21
3.62995400806848
 31
0.0
  0
LINE
  5
5A8
330
18
100
AcDbEntity
  8
1
 62
     1
100
AcDbLine
 10
31.77648492479373
 20
3.62995400806848
 30
0.0
 11
32.25012648017265
 21
3.244031554409285
 31
0.0
  0
LINE
  5
5A9
330
18
100
AcDbEntity
  8
1
 62
     1
100
AcDbLine
 10
32.25012648017265
 20
3.244031554409285
 30
0.0
 11
32.72376611667274
 21
2.813490277982545
 31
0.0
  0
LINE
  5
5AA
330
18
100
AcDbEntity
  8
1
 62
     1
100
AcDbLine
 10
50.06797646484583
 20
4.762499999999999
 30
0.0
 11
50.1953519081376
 21
4.760127932481355
 31
0.0
  0
LINE
  5
5AB
330
18
100
AcDbEntity
  8
1
 62
     1
100
AcDbLine
 10
50.1953519081376
 20
4.760127932481355
 30
0.0
 11
50.32273257949947
 21
4.753016342917894
 31
0.0
  0
LINE
  5
5AC
330
18
100
AcDbEntity
  8
1
 62
     1
100
AcDbLine
 10
50.32273257949947
 20
4.753016342917894
 30
0.0
 11
50.45010393663789
 21
4.741171124015972
 31
0.0
  0
LINE
  5
5AD
330
18
100
AcDbEntity
  8
1
 62
     1
100
AcDbLine
 10
50.45010393663789
 20
4.741171124015972
 30
0.0
 11
50.57748632183484
 21
4.724603559056822
 31
0.0
  0
LINE
  5
5AE
330
18
100
AcDbEntity
  8
1
 62
     1
100
AcDbLine
 10
50.57748632183484
 20
4.724603559056822
 30
0.0
 11
50.704856226135
 21
4.703332714731802
 31
0.0
  0
LINE
  5
5AF
330
18
100
AcDbEntity
  8
1
 62
     1
100
AcDbLine
 10
50.704856226135
 20
4.703332714731802
 30
0.0
 11
50.83223908903432
 21
4.677375382754279
 31
0.0
  0
LINE
  5
5B0
330
18
100
AcDbEntity
  8
1
 62
     1
100
AcDbLine
 10
50.83223908903432
 20
4.677375382754279
 30
0.0
 11
51.08699041559903
 21
4.611519955620206
 31
0.0
  0
LINE
  5
5B1
330
18
100
AcDbEntity
  8
1
 62
     1
100
AcDbLine
 10
51.08699041559903
 20
4.611519955620206
 30
0.0
 11
51.34174191732086
 21
4.52729970725302
 31
0.0
  0
LINE
  5
5B2
330
18
100
AcDbEntity
  8
1
 62
     1
100
AcDbLine
 10
51.34174191732086
 20
4.52729970725302
 30
0.0
 11
51.59649342192708
 21
4.425049648643832
 31
0.0
  0
LINE
  5
5B3
330
18
100
AcDbEntity
  8
1
 62
     1
100
AcDbLine
 10
51.59649342192708
 20
4.425049648643832
 30
0.0
 11
51.85124580813034
 21
4.305176999171964
 31
0.0
  0
LINE
  5
5B4
330
18
100
AcDbEntity
  8
1
 62
     1
100
AcDbLine
 10
51.85124580813034
 20
4.305176999171964
 30
0.0
 11
52.10600000000001
 21
4.168158110021119
 31
0.0
  0
LINE
  5
5B5
330
18
100
AcDbEntity
  8
1
 62
     1
100
AcDbLine
 10
48.72332835590188
 20
4.7625
 30
0.0
 11
50.06797646484583
 21
4.7625
 31
0.0
  0
LINE
  5
5B6
330
18
100
AcDbEntity
  8
1
 62
     1
100
AcDbLine
 10
48.72332835590188
 20
4.762500000000001
 30
0.0
 11
48.93474935998957
 21
4.755967336163862
 31
0.0
  0
LINE
  5
5B7
330
18
100
AcDbEntity
  8
1
 62
     1
100
AcDbLine
 10
48.93474935998957
 20
4.755967336163862
 30
0.0
 11
49.14616332374194
 21
4.736389142031719
 31
0.0
  0
LINE
  5
5B8
330
18
100
AcDbEntity
  8
1
 62
     1
100
AcDbLine
 10
49.14616332374194
 20
4.736389142031719
 30
0.0
 11
49.35757820692188
 21
4.703819444808966
 31
0.0
  0
LINE
  5
5B9
330
18
100
AcDbEntity
  8
1
 62
     1
100
AcDbLine
 10
49.35757820692188
 20
4.703819444808966
 30
0.0
 11
49.5690011125098
 21
4.658344871677432
 31
0.0
  0
LINE
  5
5BA
330
18
100
AcDbEntity
  8
1
 62
     1
100
AcDbLine
 10
49.5690011125098
 20
4.658344871677432
 30
0.0
 11
49.7804197341677
 21
4.600091877876457
 31
0.0
  0
LINE
  5
5BB
330
18
100
AcDbEntity
  8
1
 62
     1
100
AcDbLine
 10
49.7804197341677
 20
4.600091877876457
 30
0.0
 11
49.99183317476196
 21
4.529222481596598
 31
0.0
  0
LINE
  5
5BC
330
18
100
AcDbEntity
  8
1
 62
     1
100
AcDbLine
 10
49.99183317476196
 20
4.529222481596598
 30
0.0
 11
50.20324928251092
 21
4.445928843501728
 31
0.0
  0
LINE
  5
5BD
330
18
100
AcDbEntity
  8
1
 62
     1
100
AcDbLine
 10
50.20324928251092
 20
4.445928843501728
 30
0.0
 11
50.41467286779891
 21
4.350435710151797
 31
0.0
  0
LINE
  5
5BE
330
18
100
AcDbEntity
  8
1
 62
     1
100
AcDbLine
 10
50.41467286779891
 20
4.350435710151797
 30
0.0
 11
50.62608965532964
 21
4.243011328401705
 31
0.0
  0
LINE
  5
5BF
330
18
100
AcDbEntity
  8
1
 62
     1
100
AcDbLine
 10
50.62608965532964
 20
4.243011328401705
 30
0.0
 11
50.83750296727739
 21
4.123950525982573
 31
0.0
  0
LINE
  5
5C0
330
18
100
AcDbEntity
  8
1
 62
     1
100
AcDbLine
 10
50.83750296727739
 20
4.123950525982573
 30
0.0
 11
51.04892054998442
 21
3.993575366393262
 31
0.0
  0
LINE
  5
5C1
330
18
100
AcDbEntity
  8
1
 62
     1
100
AcDbLine
 10
51.04892054998442
 20
3.993575366393262
 30
0.0
 11
51.26034383361421
 21
3.852240916907031
 31
0.0
  0
LINE
  5
5C2
330
18
100
AcDbEntity
  8
1
 62
     1
100
AcDbLine
 10
51.26034383361421
 20
3.852240916907031
 30
0.0
 11
51.68317275338529
 21
3.538299589580636
 31
0.0
  0
LINE
  5
5C3
330
18
100
AcDbEntity
  8
1
 62
     1
100
AcDbLine
 10
51.68317275338529
 20
3.538299589580636
 30
0.0
 11
52.10600000000001
 21
3.185564300862176
 31
0.0
  0
LINE
  5
5C4
330
18
100
AcDbEntity
  8
1
 62
     1
100
AcDbLine
 10
52.90000000000001
 20
3.968195488347495
 30
0.0
 11
52.89844423572984
 21
4.017807536528795
 31
0.0
  0
LINE
  5
5C5
330
18
100
AcDbEntity
  8
1
 62
     1
100
AcDbLine
 10
52.89844423572984
 20
4.017807536528795
 30
0.0
 11
52.89381951798374
 21
4.06697793319779
 31
0.0
  0
LINE
  5
5C6
330
18
100
AcDbEntity
  8
1
 62
     1
100
AcDbLine
 10
52.89381951798374
 20
4.06697793319779
 30
0.0
 11
52.88620222544633
 21
4.115353717305613
 31
0.0
  0
LINE
  5
5C7
330
18
100
AcDbEntity
  8
1
 62
     1
100
AcDbLine
 10
52.88620222544633
 20
4.115353717305613
 30
0.0
 11
52.87575180936991
 21
4.162516890173417
 31
0.0
  0
LINE
  5
5C8
330
18
100
AcDbEntity
  8
1
 62
     1
100
AcDbLine
 10
52.87575180936991
 20
4.162516890173417
 30
0.0
 11
52.86264101051482
 21
4.208198631660074
 31
0.0
  0
LINE
  5
5C9
330
18
100
AcDbEntity
  8
1
 62
     1
100
AcDbLine
 10
52.86264101051482
 20
4.208198631660074
 30
0.0
 11
52.84710509944823
 21
4.252069266668552
 31
0.0
  0
LINE
  5
5CA
330
18
100
AcDbEntity
  8
1
 62
     1
100
AcDbLine
 10
52.84710509944823
 20
4.252069266668552
 30
0.0
 11
52.82936375096219
 21
4.293965931252083
 31
0.0
  0
LINE
  5
5CB
330
18
100
AcDbEntity
  8
1
 62
     1
100
AcDbLine
 10
52.82936375096219
 20
4.293965931252083
 30
0.0
 11
52.80966607839393
 21
4.333695229283305
 31
0.0
  0
LINE
  5
5CC
330
18
100
AcDbEntity
  8
1
 62
     1
100
AcDbLine
 10
52.80966607839393
 20
4.333695229283305
 30
0.0
 11
52.78823469439042
 21
4.371178675767194
 31
0.0
  0
LINE
  5
5CD
330
18
100
AcDbEntity
  8
1
 62
     1
100
AcDbLine
 10
52.78823469439042
 20
4.371178675767194
 30
0.0
 11
52.76528362900027
 21
4.40635224046675
 31
0.0
  0
LINE
  5
5CE
330
18
100
AcDbEntity
  8
1
 62
     1
100
AcDbLine
 10
52.76528362900027
 20
4.40635224046675
 30
0.0
 11
52.74101496791784
 21
4.439189113214665
 31
0.0
  0
LINE
  5
5CF
330
18
100
AcDbEntity
  8
1
 62
     1
100
AcDbLine
 10
52.74101496791784
 20
4.439189113214665
 30
0.0
 11
52.71559266824801
 21
4.469707289104803
 31
0.0
  0
LINE
  5
5D0
330
18
100
AcDbEntity
  8
1
 62
     1
100
AcDbLine
 10
52.71559266824801
 20
4.469707289104803
 30
0.0
 11
52.68918474732563
 21
4.497916774681385
 31
0.0
  0
LINE
  5
5D1
330
18
100
AcDbEntity
  8
1
 62
     1
100
AcDbLine
 10
52.68918474732563
 20
4.497916774681385
 30
0.0
 11
52.66191242016083
 21
4.523870985213617
 31
0.0
  0
LINE
  5
5D2
330
18
100
AcDbEntity
  8
1
 62
     1
100
AcDbLine
 10
52.66191242016083
 20
4.523870985213617
 30
0.0
 11
52.63390520645711
 21
4.54760514264869
 31
0.0
  0
LINE
  5
5D3
330
18
100
AcDbEntity
  8
1
 62
     1
100
AcDbLine
 10
52.63390520645711
 20
4.54760514264869
 30
0.0
 11
52.60525567819666
 21
4.569179545767843
 31
0.0
  0
LINE
  5
5D4
330
18
100
AcDbEntity
  8
1
 62
     1
100
AcDbLine
 10
52.60525567819666
 20
4.569179545767843
 30
0.0
 11
52.57605011059975
 21
4.588647978237467
 31
0.0
  0
LINE
  5
5D5
330
18
100
AcDbEntity
  8
1
 62
     1
100
AcDbLine
 10
52.57605011059975
 20
4.588647978237467
 30
0.0
 11
52.54635733033591
 21
4.606067947960474
 31
0.0
  0
LINE
  5
5D6
330
18
100
AcDbEntity
  8
1
 62
     1
100
AcDbLine
 10
52.54635733033591
 20
4.606067947960474
 30
0.0
 11
52.516268484505
 21
4.621477833378247
 31
0.0
  0
LINE
  5
5D7
330
18
100
AcDbEntity
  8
1
 62
     1
100
AcDbLine
 10
52.516268484505
 20
4.621477833378247
 30
0.0
 11
52.48581722234198
 21
4.634940933254004
 31
0.0
  0
LINE
  5
5D8
330
18
100
AcDbEntity
  8
1
 62
     1
100
AcDbLine
 10
52.48581722234198
 20
4.634940933254004
 30
0.0
 11
52.4550600548808
 21
4.646501817923262
 31
0.0
  0
LINE
  5
5D9
330
18
100
AcDbEntity
  8
1
 62
     1
100
AcDbLine
 10
52.4550600548808
 20
4.646501817923262
 30
0.0
 11
52.42405112394585
 21
4.656202248925744
 31
0.0
  0
LINE
  5
5DA
330
18
100
AcDbEntity
  8
1
 62
     1
100
AcDbLine
 10
52.42405112394585
 20
4.656202248925744
 30
0.0
 11
52.39280688910586
 21
4.664091000003044
 31
0.0
  0
LINE
  5
5DB
330
18
100
AcDbEntity
  8
1
 62
     1
100
AcDbLine
 10
52.39280688910586
 20
4.664091000003044
 30
0.0
 11
52.3613781868825
 21
4.670202184556598
 31
0.0
  0
LINE
  5
5DC
330
18
100
AcDbEntity
  8
1
 62
     1
100
AcDbLine
 10
52.3613781868825
 20
4.670202184556598
 30
0.0
 11
52.32978707907004
 21
4.674573053500207
 31
0.0
  0
LINE
  5
5DD
330
18
100
AcDbEntity
  8
1
 62
     1
100
AcDbLine
 10
52.32978707907004
 20
4.674573053500207
 30
0.0
 11
52.29805443077756
 21
4.677236381070127
 31
0.0
  0
LINE
  5
5DE
330
18
100
AcDbEntity
  8
1
 62
     1
100
AcDbLine
 10
52.29805443077756
 20
4.677236381070127
 30
0.0
 11
52.26621820774314
 21
4.678220146348217
 31
0.0
  0
LINE
  5
5DF
330
18
100
AcDbEntity
  8
1
 62
     1
100
AcDbLine
 10
52.26621820774314
 20
4.678220146348217
 30
0.0
 11
52.23427487682299
 21
4.677550268532544
 31
0.0
  0
LINE
  5
5E0
330
18
100
AcDbEntity
  8
1
 62
     1
100
AcDbLine
 10
52.23427487682299
 20
4.677550268532544
 30
0.0
 11
52.20225049761632
 21
4.675248501091539
 31
0.0
  0
LINE
  5
5E1
330
18
100
AcDbEntity
  8
1
 62
     1
100
AcDbLine
 10
52.20225049761632
 20
4.675248501091539
 30
0.0
 11
52.17018105356989
 21
4.671336177599541
 31
0.0
  0
LINE
  5
5E2
330
18
100
AcDbEntity
  8
1
 62
     1
100
AcDbLine
 10
52.17018105356989
 20
4.671336177599541
 30
0.0
 11
52.13809771818808
 21
4.665833823825106
 31
0.0
  0
LINE
  5
5E3
330
18
100
AcDbEntity
  8
1
 62
     1
100
AcDbLine
 10
52.13809771818808
 20
4.665833823825106
 30
0.0
 11
52.106
 21
4.658755038651786
 31
0.0
  0
LINE
  5
5E4
330
18
100
AcDbEntity
  8
1
 62
     1
100
AcDbLine
 10
52.90000000000001
 20
3.392252732789657
 30
0.0
 11
52.90000000000001
 21
3.968195488347496
 31
0.0
  0
LINE
  5
5E5
330
18
100
AcDbEntity
  8
1
 62
     1
100
AcDbLine
 10
52.90000000000001
 20
3.392252732789634
 30
0.0
 11
52.90000000000001
 21
2.026672527719201
 31
0.0
  0
LINE
  5
5E6
330
18
100
AcDbEntity
  8
1
 62
     1
100
AcDbLine
 10
52.90000000000001
 20
1.473892056568834
 30
0.0
 11
52.90000000000001
 21
2.026672527719176
 31
0.0
  0
LINE
  5
5E7
330
18
100
AcDbEntity
  8
1
 62
     1
100
AcDbLine
 10
52.90000000000001
 20
1.473892056568834
 30
0.0
 11
52.90000000000001
 21
-0.0874683844274891
 31
0.0
  0
LINE
  5
5E8
330
18
100
AcDbEntity
  8
1
 62
     1
100
AcDbLine
 10
52.89999999999999
 20
-0.087468384427496
 30
0.0
 11
52.89999999999999
 21
-1.941522960628321
 31
0.0
  0
LINE
  5
5E9
330
18
100
AcDbEntity
  8
1
 62
     1
100
AcDbLine
 10
52.89999999999999
 20
-1.941522960628321
 30
0.0
 11
52.89999999999998
 21
-3.479721117217124
 31
0.0
  0
LINE
  5
5EA
330
18
100
AcDbEntity
  8
1
 62
     1
100
AcDbLine
 10
52.9
 20
-3.479721117217121
 30
0.0
 11
52.9
 21
-3.968195488347495
 31
0.0
  0
LINE
  5
5EB
330
18
100
AcDbEntity
  8
1
 62
     1
100
AcDbLine
 10
24.325
 20
-3.287435553627743
 30
0.0
 11
24.73312648473944
 21
-3.618488874290763
 31
0.0
  0
LINE
  5
5EC
330
18
100
AcDbEntity
  8
1
 62
     1
100
AcDbLine
 10
24.73312648473944
 20
-3.618488874290763
 30
0.0
 11
25.14124553664705
 21
-3.912570234719849
 31
0.0
  0
LINE
  5
5ED
330
18
100
AcDbEntity
  8
1
 62
     1
100
AcDbLine
 10
25.14124553664705
 20
-3.912570234719849
 30
0.0
 11
25.34530861366375
 21
-4.044797507594401
 31
0.0
  0
LINE
  5
5EE
330
18
100
AcDbEntity
  8
1
 62
     1
100
AcDbLine
 10
25.34530861366375
 20
-4.044797507594401
 30
0.0
 11
25.54937530229926
 21
-4.166689064495188
 31
0.0
  0
LINE
  5
5EF
330
18
100
AcDbEntity
  8
1
 62
     1
100
AcDbLine
 10
25.54937530229926
 20
-4.166689064495188
 30
0.0
 11
25.7534334134428
 21
-4.277927374689421
 31
0.0
  0
LINE
  5
5F0
330
18
100
AcDbEntity
  8
1
 62
     1
100
AcDbLine
 10
25.7534334134428
 20
-4.277927374689421
 30
0.0
 11
25.95749252942755
 21
-4.378234532966169
 31
0.0
  0
LINE
  5
5F1
330
18
100
AcDbEntity
  8
1
 62
     1
100
AcDbLine
 10
25.95749252942755
 20
-4.378234532966169
 30
0.0
 11
26.16156022339632
 21
-4.46735635323442
 31
0.0
  0
LINE
  5
5F2
330
18
100
AcDbEntity
  8
1
 62
     1
100
AcDbLine
 10
26.16156022339632
 20
-4.46735635323442
 30
0.0
 11
26.36562147376076
 21
-4.545057814779319
 31
0.0
  0
LINE
  5
5F3
330
18
100
AcDbEntity
  8
1
 62
     1
100
AcDbLine
 10
26.36562147376076
 20
-4.545057814779319
 30
0.0
 11
26.56967881259243
 21
-4.611143484109431
 31
0.0
  0
LINE
  5
5F4
330
18
100
AcDbEntity
  8
1
 62
     1
100
AcDbLine
 10
26.56967881259243
 20
-4.611143484109431
 30
0.0
 11
26.7737421314478
 21
-4.665447285898714
 31
0.0
  0
LINE
  5
5F5
330
18
100
AcDbEntity
  8
1
 62
     1
100
AcDbLine
 10
26.7737421314478
 20
-4.665447285898714
 30
0.0
 11
26.97780844010338
 21
-4.707827659930111
 31
0.0
  0
LINE
  5
5F6
330
18
100
AcDbEntity
  8
1
 62
     1
100
AcDbLine
 10
26.97780844010338
 20
-4.707827659930111
 30
0.0
 11
27.18186647576023
 21
-4.738175273198423
 31
0.0
  0
LINE
  5
5F7
330
18
100
AcDbEntity
  8
1
 62
     1
100
AcDbLine
 10
27.18186647576023
 20
-4.738175273198423
 30
0.0
 11
27.38592438178415
 21
-4.756415376830614
 31
0.0
  0
LINE
  5
5F8
330
18
100
AcDbEntity
  8
1
 62
     1
100
AcDbLine
 10
27.38592438178415
 20
-4.756415376830614
 30
0.0
 11
27.58997013426549
 21
-4.762499999965383
 31
0.0
  0
LINE
  5
5F9
330
18
100
AcDbEntity
  8
1
 62
     1
100
AcDbLine
 10
24.325
 20
-1.979804738473868
 30
0.0
 11
24.90120439405263
 21
-2.575929759424255
 31
0.0
  0
LINE
  5
5FA
330
18
100
AcDbEntity
  8
1
 62
     1
100
AcDbLine
 10
24.90120439405263
 20
-2.575929759424255
 30
0.0
 11
25.47740932027951
 21
-3.119644990609953
 31
0.0
  0
LINE
  5
5FB
330
18
100
AcDbEntity
  8
1
 62
     1
100
AcDbLine
 10
25.47740932027951
 20
-3.119644990609953
 30
0.0
 11
25.76551164301529
 21
-3.368344133344592
 31
0.0
  0
LINE
  5
5FC
330
18
100
AcDbEntity
  8
1
 62
     1
100
AcDbLine
 10
25.76551164301529
 20
-3.368344133344592
 30
0.0
 11
26.05361382904201
 21
-3.599888497492566
 31
0.0
  0
LINE
  5
5FD
330
18
100
AcDbEntity
  8
1
 62
     1
100
AcDbLine
 10
26.05361382904201
 20
-3.599888497492566
 30
0.0
 11
26.34171633276842
 21
-3.813098618948844
 31
0.0
  0
LINE
  5
5FE
330
18
100
AcDbEntity
  8
1
 62
     1
100
AcDbLine
 10
26.34171633276842
 20
-3.813098618948844
 30
0.0
 11
26.62981863254785
 21
-4.006888926178205
 31
0.0
  0
LINE
  5
5FF
330
18
100
AcDbEntity
  8
1
 62
     1
100
AcDbLine
 10
26.62981863254785
 20
-4.006888926178205
 30
0.0
 11
26.91792070716401
 21
-4.180272409399097
 31
0.0
  0
LINE
  5
600
330
18
100
AcDbEntity
  8
1
 62
     1
100
AcDbLine
 10
26.91792070716401
 20
-4.180272409399097
 30
0.0
 11
27.20602315542573
 21
-4.332365819716858
 31
0.0
  0
LINE
  5
601
330
18
100
AcDbEntity
  8
1
 62
     1
100
AcDbLine
 10
27.20602315542573
 20
-4.332365819716858
 30
0.0
 11
27.49412543262704
 21
-4.462394795316128
 31
0.0
  0
LINE
  5
602
330
18
100
AcDbEntity
  8
1
 62
     1
100
AcDbLine
 10
27.49412543262704
 20
-4.462394795316128
 30
0.0
 11
27.63817464322633
 21
-4.518923549741429
 31
0.0
  0
LINE
  5
603
330
18
100
AcDbEntity
  8
1
 62
     1
100
AcDbLine
 10
27.63817464322633
 20
-4.518923549741429
 30
0.0
 11
27.78222741983113
 21
-4.569697077498336
 31
0.0
  0
LINE
  5
604
330
18
100
AcDbEntity
  8
1
 62
     1
100
AcDbLine
 10
27.78222741983113
 20
-4.569697077498336
 30
0.0
 11
27.92627657500287
 21
-4.614650187021593
 31
0.0
  0
LINE
  5
605
330
18
100
AcDbEntity
  8
1
 62
     1
100
AcDbLine
 10
27.92627657500287
 20
-4.614650187021593
 30
0.0
 11
28.07032978284112
 21
-4.653726041346024
 31
0.0
  0
LINE
  5
606
330
18
100
AcDbEntity
  8
1
 62
     1
100
AcDbLine
 10
28.07032978284112
 20
-4.653726041346024
 30
0.0
 11
28.21437802525652
 21
-4.686874786857136
 31
0.0
  0
LINE
  5
607
330
18
100
AcDbEntity
  8
1
 62
     1
100
AcDbLine
 10
28.21437802525652
 20
-4.686874786857136
 30
0.0
 11
28.35843203753254
 21
-4.714053883118718
 31
0.0
  0
LINE
  5
608
330
18
100
AcDbEntity
  8
1
 62
     1
100
AcDbLine
 10
28.35843203753254
 20
-4.714053883118718
 30
0.0
 11
28.50248014765058
 21
-4.735229332862938
 31
0.0
  0
LINE
  5
609
330
18
100
AcDbEntity
  8
1
 62
     1
100
AcDbLine
 10
28.50248014765058
 20
-4.735229332862938
 30
0.0
 11
28.64653395093508
 21
-4.750373322537763
 31
0.0
  0
LINE
  5
60A
330
18
100
AcDbEntity
  8
1
 62
     1
100
AcDbLine
 10
28.64653395093508
 20
-4.750373322537763
 30
0.0
 11
28.79058182621267
 21
-4.759467743713738
 31
0.0
  0
LINE
  5
60B
330
18
100
AcDbEntity
  8
1
 62
     1
100
AcDbLine
 10
28.79058182621267
 20
-4.759467743713738
 30
0.0
 11
28.93461804366727
 21
-4.762499999999987
 31
0.0
  0
LINE
  5
60C
330
18
100
AcDbEntity
  8
1
 62
     1
100
AcDbLine
 10
36.04331342326097
 20
4.7625
 30
0.0
 11
37.38796141228109
 21
4.7625
 31
0.0
  0
ARC
  5
60D
330
18
100
AcDbEntity
  8
1
 62
     1
100
AcDbCircle
 10
24.70877282088689
 20
-1.315052098956986
 30
0.0
 40
3.447454126832729
100
AcDbArc
 50
263.6085519907924
 51
269.9848288897941
  0
LINE
  5
60E
330
18
100
AcDbEntity
  8
1
 62
     1
100
AcDbLine
 10
24.70785998553173
 20
-4.762499998875494
 30
0.0
 11
24.70794610830486
 21
-4.762499999959587
 31
0.0
  0
LINE
  5
60F
330
18
100
AcDbEntity
  8
1
 62
     1
100
AcDbLine
 10
26.14895829034288
 20
4.462181261154301
 30
0.0
 11
26.32908262995264
 21
4.531992930558039
 31
0.0
  0
LINE
  5
610
330
18
100
AcDbEntity
  8
1
 62
     1
100
AcDbLine
 10
26.32908262995264
 20
4.531992930558039
 30
0.0
 11
26.50920781446861
 21
4.592781422217645
 31
0.0
  0
LINE
  5
611
330
18
100
AcDbEntity
  8
1
 62
     1
100
AcDbLine
 10
26.50920781446861
 20
4.592781422217645
 30
0.0
 11
26.6893414024749
 21
4.644425685737966
 31
0.0
  0
LINE
  5
612
330
18
100
AcDbEntity
  8
1
 62
     1
100
AcDbLine
 10
26.6893414024749
 20
4.644425685737966
 30
0.0
 11
26.86946376564307
 21
4.686818346222596
 31
0.0
  0
LINE
  5
613
330
18
100
AcDbEntity
  8
1
 62
     1
100
AcDbLine
 10
26.86946376564307
 20
4.686818346222596
 30
0.0
 11
27.04959318902354
 21
4.719880345949134
 31
0.0
  0
LINE
  5
614
330
18
100
AcDbEntity
  8
1
 62
     1
100
AcDbLine
 10
27.04959318902354
 20
4.719880345949134
 30
0.0
 11
27.22972319151441
 21
4.743542082417861
 31
0.0
  0
LINE
  5
615
330
18
100
AcDbEntity
  8
1
 62
     1
100
AcDbLine
 10
27.22972319151441
 20
4.743542082417861
 30
0.0
 11
27.4098446526066
 21
4.757757895607633
 31
0.0
  0
LINE
  5
616
330
18
100
AcDbEntity
  8
1
 62
     1
100
AcDbLine
 10
27.4098446526066
 20
4.757757895607633
 30
0.0
 11
27.58997013426786
 21
4.762500000000001
 31
0.0
  0
LINE
  5
617
330
18
100
AcDbEntity
  8
1
 62
     1
100
AcDbLine
 10
27.58997013426786
 20
4.7625
 30
0.0
 11
28.93461804366727
 21
4.7625
 31
0.0
  0
LINE
  5
618
330
18
100
AcDbEntity
  8
1
 62
     1
100
AcDbLine
 10
24.32500000000001
 20
4.7625
 30
0.0
 11
24.70794610829479
 21
4.7625
 31
0.0
  0
LINE
  5
619
330
18
100
AcDbEntity
  8
1
 62
     1
100
AcDbLine
 10
52.90000000000001
 20
1.473892056568824
 30
0.0
 11
52.0826131868371
 21
1.942850732752591
 31
0.0
  0
LINE
  5
61A
330
18
100
AcDbEntity
  8
1
 62
     1
100
AcDbLine
 10
52.0826131868371
 20
1.942850732752591
 30
0.0
 11
51.67391978025565
 21
2.148632761775987
 31
0.0
  0
LINE
  5
61B
330
18
100
AcDbEntity
  8
1
 62
     1
100
AcDbLine
 10
51.67391978025565
 20
2.148632761775987
 30
0.0
 11
51.26522637367421
 21
2.332403561684079
 31
0.0
  0
LINE
  5
61C
330
18
100
AcDbEntity
  8
1
 62
     1
100
AcDbLine
 10
51.26522637367421
 20
2.332403561684079
 30
0.0
 11
50.85653296709277
 21
2.492280377332738
 31
0.0
  0
LINE
  5
61D
330
18
100
AcDbEntity
  8
1
 62
     1
100
AcDbLine
 10
50.85653296709277
 20
2.492280377332738
 30
0.0
 11
50.44783956051132
 21
2.626625365065916
 31
0.0
  0
LINE
  5
61E
330
18
100
AcDbEntity
  8
1
 62
     1
100
AcDbLine
 10
50.44783956051132
 20
2.626625365065916
 30
0.0
 11
50.03914615392986
 21
2.734062268480835
 31
0.0
  0
LINE
  5
61F
330
18
100
AcDbEntity
  8
1
 62
     1
100
AcDbLine
 10
50.03914615392986
 20
2.734062268480835
 30
0.0
 11
49.63045274734842
 21
2.813490462721671
 31
0.0
  0
LINE
  5
620
330
18
100
AcDbEntity
  8
1
 62
     1
100
AcDbLine
 10
24.325
 20
-4.741080129039486
 30
0.0
 11
24.325
 21
-4.762499999999998
 31
0.0
  0
LINE
  5
621
330
18
100
AcDbEntity
  8
1
 62
     1
100
AcDbLine
 10
24.32499999999999
 20
-4.741080129039499
 30
0.0
 11
24.325
 21
-3.287435553627744
 31
0.0
  0
LINE
  5
622
330
18
100
AcDbEntity
  8
1
 62
     1
100
AcDbLine
 10
24.325
 20
-1.97980473847387
 30
0.0
 11
24.325
 21
-3.287435553627743
 31
0.0
  0
LINE
  5
623
330
18
100
AcDbEntity
  8
1
 62
     1
100
AcDbLine
 10
24.325
 20
-1.979804738473853
 30
0.0
 11
24.325
 21
0.8123505636832243
 31
0.0
  0
LINE
  5
624
330
18
100
AcDbEntity
  8
1
 62
     1
100
AcDbLine
 10
24.325
 20
0.8123505636832243
 30
0.0
 11
24.325
 21
1.340512492126212
 31
0.0
  0
LINE
  5
625
330
18
100
AcDbEntity
  8
1
 62
     1
100
AcDbLine
 10
24.325
 20
2.761275390565621
 30
0.0
 11
24.325
 21
1.340512492126206
 31
0.0
  0
LINE
  5
626
330
18
100
AcDbEntity
  8
1
 62
     1
100
AcDbLine
 10
24.325
 20
2.761275390565647
 30
0.0
 11
24.325
 21
2.804536493130227
 31
0.0
  0
LINE
  5
627
330
18
100
AcDbEntity
  8
1
 62
     1
100
AcDbLine
 10
24.325
 20
2.804536493130227
 30
0.0
 11
24.325
 21
4.627948045753956
 31
0.0
  0
LINE
  5
628
330
18
100
AcDbEntity
  8
1
 62
     1
100
AcDbLine
 10
24.325
 20
4.762499999999999
 30
0.0
 11
24.325
 21
4.762469708849693
 31
0.0
  0
LINE
  5
629
330
18
100
AcDbEntity
  8
1
 62
     1
100
AcDbLine
 10
24.325
 20
4.762469708849693
 30
0.0
 11
24.325
 21
4.753543606159145
 31
0.0
  0
LINE
  5
62A
330
18
100
AcDbEntity
  8
1
 62
     1
100
AcDbLine
 10
24.325
 20
4.753543606159145
 30
0.0
 11
24.325
 21
4.627948045753953
 31
0.0
  0
LINE
  5
62B
330
18
100
AcDbEntity
  8
1
 62
     1
100
AcDbLine
 10
45.84130478101179
 20
-4.762499999802584
 30
0.0
 11
46.02142942250496
 21
-4.757757550165808
 31
0.0
  0
LINE
  5
62C
330
18
100
AcDbEntity
  8
1
 62
     1
100
AcDbLine
 10
46.02142942250496
 20
-4.757757550165808
 30
0.0
 11
46.20155218728973
 21
-4.743542409998136
 31
0.0
  0
LINE
  5
62D
330
18
100
AcDbEntity
  8
1
 62
     1
100
AcDbLine
 10
46.20155218728973
 20
-4.743542409998136
 30
0.0
 11
46.38168500455085
 21
-4.719879456310867
 31
0.0
  0
LINE
  5
62E
330
18
100
AcDbEntity
  8
1
 62
     1
100
AcDbLine
 10
46.38168500455085
 20
-4.719879456310867
 30
0.0
 11
46.56180716580345
 21
-4.686819097875882
 31
0.0
  0
LINE
  5
62F
330
18
100
AcDbEntity
  8
1
 62
     1
100
AcDbLine
 10
46.56180716580345
 20
-4.686819097875882
 30
0.0
 11
46.74193323692467
 21
-4.644426016523417
 31
0.0
  0
LINE
  5
630
330
18
100
AcDbEntity
  8
1
 62
     1
100
AcDbLine
 10
46.74193323692467
 20
-4.644426016523417
 30
0.0
 11
46.92206434037418
 21
-4.592781872495848
 31
0.0
  0
LINE
  5
631
330
18
100
AcDbEntity
  8
1
 62
     1
100
AcDbLine
 10
46.92206434037418
 20
-4.592781872495848
 30
0.0
 11
47.10218532392938
 21
-4.53199567441475
 31
0.0
  0
LINE
  5
632
330
18
100
AcDbEntity
  8
1
 62
     1
100
AcDbLine
 10
47.10218532392938
 20
-4.53199567441475
 30
0.0
 11
47.28231625119665
 21
-4.462181296546611
 31
0.0
  0
LINE
  5
633
330
18
100
AcDbEntity
  8
1
 62
     1
100
AcDbLine
 10
44.49665671175062
 20
-4.762499999999998
 30
0.0
 11
45.8413047810118
 21
-4.762499999999998
 31
0.0
  0
LINE
  5
634
330
18
100
AcDbEntity
  8
1
 62
     1
100
AcDbLine
 10
50.06797646489179
 20
-4.762499999802461
 30
0.0
 11
50.24810107758586
 21
-4.757757548146573
 31
0.0
  0
LINE
  5
635
330
18
100
AcDbEntity
  8
1
 62
     1
100
AcDbLine
 10
50.24810107758586
 20
-4.757757548146573
 30
0.0
 11
50.42822385642884
 21
-4.743542407334748
 31
0.0
  0
LINE
  5
636
330
18
100
AcDbEntity
  8
1
 62
     1
100
AcDbLine
 10
50.42822385642884
 20
-4.743542407334748
 30
0.0
 11
50.60835667916535
 21
-4.719879451798638
 31
0.0
  0
LINE
  5
637
330
18
100
AcDbEntity
  8
1
 62
     1
100
AcDbLine
 10
50.60835667916535
 20
-4.719879451798638
 30
0.0
 11
50.78847883945208
 21
-4.686819090789498
 31
0.0
  0
LINE
  5
638
330
18
100
AcDbEntity
  8
1
 62
     1
100
AcDbLine
 10
50.78847883945208
 20
-4.686819090789498
 30
0.0
 11
50.96860494781071
 21
-4.644426012054804
 31
0.0
  0
LINE
  5
639
330
18
100
AcDbEntity
  8
1
 62
     1
100
AcDbLine
 10
50.96860494781071
 20
-4.644426012054804
 30
0.0
 11
51.14873602180806
 21
-4.592781857957248
 31
0.0
  0
LINE
  5
63A
330
18
100
AcDbEntity
  8
1
 62
     1
100
AcDbLine
 10
51.14873602180806
 20
-4.592781857957248
 30
0.0
 11
51.32885700555703
 21
-4.531995654870697
 31
0.0
  0
LINE
  5
63B
330
18
100
AcDbEntity
  8
1
 62
     1
100
AcDbLine
 10
51.32885700555703
 20
-4.531995654870697
 30
0.0
 11
51.50898786187992
 21
-4.46218125076088
 31
0.0
  0
LINE
  5
63C
330
18
100
AcDbEntity
  8
1
 62
     1
100
AcDbLine
 10
48.72332835589093
 20
-4.762499999999998
 30
0.0
 11
50.06797646489177
 21
-4.762499999999998
 31
0.0
  0
LINE
  5
63D
330
18
100
AcDbEntity
  8
1
 62
     1
100
AcDbLine
 10
33.16128972787027
 20
-4.762499999959627
 30
0.0
 11
33.34141634020623
 21
-4.757757483283384
 31
0.0
  0
LINE
  5
63E
330
18
100
AcDbEntity
  8
1
 62
     1
100
AcDbLine
 10
33.34141634020623
 20
-4.757757483283384
 30
0.0
 11
33.52153832265042
 21
-4.743542214886482
 31
0.0
  0
LINE
  5
63F
330
18
100
AcDbEntity
  8
1
 62
     1
100
AcDbLine
 10
33.52153832265042
 20
-4.743542214886482
 30
0.0
 11
33.70167105318349
 21
-4.719879374378111
 31
0.0
  0
LINE
  5
640
330
18
100
AcDbEntity
  8
1
 62
     1
100
AcDbLine
 10
33.70167105318349
 20
-4.719879374378111
 30
0.0
 11
33.88179400029424
 21
-4.686818709836989
 31
0.0
  0
LINE
  5
641
330
18
100
AcDbEntity
  8
1
 62
     1
100
AcDbLine
 10
33.88179400029424
 20
-4.686818709836989
 30
0.0
 11
34.06191857207278
 21
-4.644425880477418
 31
0.0
  0
LINE
  5
642
330
18
100
AcDbEntity
  8
1
 62
     1
100
AcDbLine
 10
34.06191857207278
 20
-4.644425880477418
 30
0.0
 11
34.24205087195533
 21
-4.592781506404696
 31
0.0
  0
LINE
  5
643
330
18
100
AcDbEntity
  8
1
 62
     1
100
AcDbLine
 10
34.24205087195533
 20
-4.592781506404696
 30
0.0
 11
34.42217179914272
 21
-4.531995070153491
 31
0.0
  0
LINE
  5
644
330
18
100
AcDbEntity
  8
1
 62
     1
100
AcDbLine
 10
34.42217179914272
 20
-4.531995070153491
 30
0.0
 11
34.60230141645732
 21
-4.462181305511757
 31
0.0
  0
LINE
  5
645
330
18
100
AcDbEntity
  8
1
 62
     1
100
AcDbLine
 10
31.81664177883344
 20
-4.762499999999998
 30
0.0
 11
33.16128972787027
 21
-4.762499999999998
 31
0.0
  0
LINE
  5
646
330
18
100
AcDbEntity
  8
1
 62
     1
100
AcDbLine
 10
36.04331342324642
 20
-4.762499999806336
 30
0.0
 11
35.84518863205357
 21
-4.756762760745119
 31
0.0
  0
LINE
  5
647
330
18
100
AcDbEntity
  8
1
 62
     1
100
AcDbLine
 10
35.84518863205357
 20
-4.756762760745119
 30
0.0
 11
35.64706796450294
 21
-4.739567352405831
 31
0.0
  0
LINE
  5
648
330
18
100
AcDbEntity
  8
1
 62
     1
100
AcDbLine
 10
35.64706796450294
 20
-4.739567352405831
 30
0.0
 11
35.44893903768433
 21
-4.710953363095328
 31
0.0
  0
LINE
  5
649
330
18
100
AcDbEntity
  8
1
 62
     1
100
AcDbLine
 10
35.44893903768433
 20
-4.710953363095328
 30
0.0
 11
35.2508111841601
 21
-4.670989077496167
 31
0.0
  0
LINE
  5
64A
330
18
100
AcDbEntity
  8
1
 62
     1
100
AcDbLine
 10
35.2508111841601
 20
-4.670989077496167
 30
0.0
 11
35.05269059057481
 21
-4.619774233307913
 31
0.0
  0
LINE
  5
64B
330
18
100
AcDbEntity
  8
1
 62
     1
100
AcDbLine
 10
35.05269059057481
 20
-4.619774233307913
 30
0.0
 11
34.85456460560043
 21
-4.557429195153207
 31
0.0
  0
LINE
  5
64C
330
18
100
AcDbEntity
  8
1
 62
     1
100
AcDbLine
 10
34.85456460560043
 20
-4.557429195153207
 30
0.0
 11
34.65643414001423
 21
-4.484102200385708
 31
0.0
  0
LINE
  5
64D
330
18
100
AcDbEntity
  8
1
 62
     1
100
AcDbLine
 10
34.65643414001423
 20
-4.484102200385708
 30
0.0
 11
34.4583131198109
 21
-4.399976365988
 31
0.0
  0
LINE
  5
64E
330
18
100
AcDbEntity
  8
1
 62
     1
100
AcDbLine
 10
34.4583131198109
 20
-4.399976365988
 30
0.0
 11
34.26018939995896
 21
-4.305250467959962
 31
0.0
  0
LINE
  5
64F
330
18
100
AcDbEntity
  8
1
 62
     1
100
AcDbLine
 10
34.26018939995896
 20
-4.305250467959962
 30
0.0
 11
34.06205776349249
 21
-4.200147940026019
 31
0.0
  0
LINE
  5
650
330
18
100
AcDbEntity
  8
1
 62
     1
100
AcDbLine
 10
34.06205776349249
 20
-4.200147940026019
 30
0.0
 11
33.8639355787262
 21
-4.084931762258634
 31
0.0
  0
LINE
  5
651
330
18
100
AcDbEntity
  8
1
 62
     1
100
AcDbLine
 10
33.8639355787262
 20
-4.084931762258634
 30
0.0
 11
33.66581362631494
 21
-3.959875780615504
 31
0.0
  0
LINE
  5
652
330
18
100
AcDbEntity
  8
1
 62
     1
100
AcDbLine
 10
33.66581362631494
 20
-3.959875780615504
 30
0.0
 11
33.26955815969706
 21
-3.681460291684366
 31
0.0
  0
LINE
  5
653
330
18
100
AcDbEntity
  8
1
 62
     1
100
AcDbLine
 10
33.26955815969706
 20
-3.681460291684366
 30
0.0
 11
32.8733074336494
 21
-3.367594176315582
 31
0.0
  0
LINE
  5
654
330
18
100
AcDbEntity
  8
1
 62
     1
100
AcDbLine
 10
32.8733074336494
 20
-3.367594176315582
 30
0.0
 11
32.47706052714673
 21
-3.021298897040218
 31
0.0
  0
LINE
  5
655
330
18
100
AcDbEntity
  8
1
 62
     1
100
AcDbLine
 10
32.47706052714673
 20
-3.021298897040218
 30
0.0
 11
32.08080425419396
 21
-2.645898610840837
 31
0.0
  0
LINE
  5
656
330
18
100
AcDbEntity
  8
1
 62
     1
100
AcDbLine
 10
32.08080425419396
 20
-2.645898610840837
 30
0.0
 11
31.28830638130896
 21
-1.822528048667913
 31
0.0
  0
LINE
  5
657
330
18
100
AcDbEntity
  8
1
 62
     1
100
AcDbLine
 10
31.28830638130896
 20
-1.822528048667913
 30
0.0
 11
29.70330595656529
 21
-0.0000000000014071
 31
0.0
  0
LINE
  5
658
330
18
100
AcDbEntity
  8
1
 62
     1
100
AcDbLine
 10
37.38796141232777
 20
-4.762499999802706
 30
0.0
 11
37.24904582189774
 21
-4.759678866613793
 31
0.0
  0
LINE
  5
659
330
18
100
AcDbEntity
  8
1
 62
     1
100
AcDbLine
 10
37.24904582189774
 20
-4.759678866613793
 30
0.0
 11
37.11012116713492
 21
-4.751220583638099
 31
0.0
  0
LINE
  5
65A
330
18
100
AcDbEntity
  8
1
 62
     1
100
AcDbLine
 10
37.11012116713492
 20
-4.751220583638099
 30
0.0
 11
36.97120628845115
 21
-4.737134038959896
 31
0.0
  0
LINE
  5
65B
330
18
100
AcDbEntity
  8
1
 62
     1
100
AcDbLine
 10
36.97120628845115
 20
-4.737134038959896
 30
0.0
 11
36.83228131405424
 21
-4.717435887421695
 31
0.0
  0
LINE
  5
65C
330
18
100
AcDbEntity
  8
1
 62
     1
100
AcDbLine
 10
36.83228131405424
 20
-4.717435887421695
 30
0.0
 11
36.6933667717712
 21
-4.692150835522975
 31
0.0
  0
LINE
  5
65D
330
18
100
AcDbEntity
  8
1
 62
     1
100
AcDbLine
 10
36.6933667717712
 20
-4.692150835522975
 30
0.0
 11
36.55444110525053
 21
-4.661306046712665
 31
0.0
  0
LINE
  5
65E
330
18
100
AcDbEntity
  8
1
 62
     1
100
AcDbLine
 10
36.55444110525053
 20
-4.661306046712665
 30
0.0
 11
36.41552765389883
 21
-4.624942206733988
 31
0.0
  0
LINE
  5
65F
330
18
100
AcDbEntity
  8
1
 62
     1
100
AcDbLine
 10
36.41552765389883
 20
-4.624942206733988
 30
0.0
 11
36.27660099590506
 21
-4.583096966157202
 31
0.0
  0
LINE
  5
660
330
18
100
AcDbEntity
  8
1
 62
     1
100
AcDbLine
 10
36.27660099590506
 20
-4.583096966157202
 30
0.0
 11
35.99876162888099
 21
-4.483178949323583
 31
0.0
  0
LINE
  5
661
330
18
100
AcDbEntity
  8
1
 62
     1
100
AcDbLine
 10
35.99876162888099
 20
-4.483178949323583
 30
0.0
 11
35.72092192550168
 21
-4.362025591315694
 31
0.0
  0
LINE
  5
662
330
18
100
AcDbEntity
  8
1
 62
     1
100
AcDbLine
 10
35.72092192550168
 20
-4.362025591315694
 30
0.0
 11
35.44308231953899
 21
-4.220210683620779
 31
0.0
  0
LINE
  5
663
330
18
100
AcDbEntity
  8
1
 62
     1
100
AcDbLine
 10
35.44308231953899
 20
-4.220210683620779
 30
0.0
 11
35.1652432201673
 21
-4.058405770743368
 31
0.0
  0
LINE
  5
664
330
18
100
AcDbEntity
  8
1
 62
     1
100
AcDbLine
 10
35.1652432201673
 20
-4.058405770743368
 30
0.0
 11
34.887403847972
 21
-3.877377622246345
 31
0.0
  0
LINE
  5
665
330
18
100
AcDbEntity
  8
1
 62
     1
100
AcDbLine
 10
34.887403847972
 20
-3.877377622246345
 30
0.0
 11
34.60956459618574
 21
-3.677983555316341
 31
0.0
  0
LINE
  5
666
330
18
100
AcDbEntity
  8
1
 62
     1
100
AcDbLine
 10
34.60956459618574
 20
-3.677983555316341
 30
0.0
 11
34.33172561131587
 21
-3.461167913135785
 31
0.0
  0
LINE
  5
667
330
18
100
AcDbEntity
  8
1
 62
     1
100
AcDbLine
 10
34.33172561131587
 20
-3.461167913135785
 30
0.0
 11
33.77604737670247
 21
-2.979458134567434
 31
0.0
  0
LINE
  5
668
330
18
100
AcDbEntity
  8
1
 62
     1
100
AcDbLine
 10
33.77604737670247
 20
-2.979458134567434
 30
0.0
 11
33.22036922411367
 21
-2.441364157637073
 31
0.0
  0
LINE
  5
669
330
18
100
AcDbEntity
  8
1
 62
     1
100
AcDbLine
 10
33.22036922411367
 20
-2.441364157637073
 30
0.0
 11
32.66469127566057
 21
-1.857068821835338
 31
0.0
  0
LINE
  5
66A
330
18
100
AcDbEntity
  8
1
 62
     1
100
AcDbLine
 10
32.66469127566057
 20
-1.857068821835338
 30
0.0
 11
31.55333449985333
 21
-0.5947692312131718
 31
0.0
  0
LINE
  5
66B
330
18
100
AcDbEntity
  8
1
 62
     1
100
AcDbLine
 10
31.55333449985333
 20
-0.5947692312131718
 30
0.0
 11
30.44197776479772
 21
0.7123409185570031
 31
0.0
  0
LINE
  5
66C
330
18
100
AcDbEntity
  8
1
 62
     1
100
AcDbLine
 10
30.44197776479772
 20
0.7123409185570031
 30
0.0
 11
29.46953758536731
 21
1.815347716666733
 31
0.0
  0
LINE
  5
66D
330
18
100
AcDbEntity
  8
1
 62
     1
100
AcDbLine
 10
29.46953758536731
 20
1.815347716666733
 30
0.0
 11
28.49709447747409
 21
2.813490251074808
 31
0.0
  0
LINE
  5
66E
330
18
100
AcDbEntity
  8
1
 62
     1
100
AcDbLine
 10
36.0433134232464
 20
-4.762499999999998
 30
0.0
 11
37.38796141232778
 21
-4.7625
 31
0.0
  0
LINE
  5
66F
330
18
100
AcDbEntity
  8
1
 62
     1
100
AcDbLine
 10
41.61463309676824
 20
-4.762499999802708
 30
0.0
 11
41.79475777462685
 21
-4.757757551953577
 31
0.0
  0
LINE
  5
670
330
18
100
AcDbEntity
  8
1
 62
     1
100
AcDbLine
 10
41.79475777462685
 20
-4.757757551953577
 30
0.0
 11
41.97488052668475
 21
-4.743542411256986
 31
0.0
  0
LINE
  5
671
330
18
100
AcDbEntity
  8
1
 62
     1
100
AcDbLine
 10
41.97488052668475
 20
-4.743542411256986
 30
0.0
 11
42.15501334602067
 21
-4.719879457997905
 31
0.0
  0
LINE
  5
672
330
18
100
AcDbEntity
  8
1
 62
     1
100
AcDbLine
 10
42.15501334602067
 20
-4.719879457997905
 30
0.0
 11
42.33513551440049
 21
-4.686819099994548
 31
0.0
  0
LINE
  5
673
330
18
100
AcDbEntity
  8
1
 62
     1
100
AcDbLine
 10
42.33513551440049
 20
-4.686819099994548
 30
0.0
 11
42.51526156435882
 21
-4.644426015235821
 31
0.0
  0
LINE
  5
674
330
18
100
AcDbEntity
  8
1
 62
     1
100
AcDbLine
 10
42.51526156435882
 20
-4.644426015235821
 30
0.0
 11
42.69539270874358
 21
-4.592781879691891
 31
0.0
  0
LINE
  5
675
330
18
100
AcDbEntity
  8
1
 62
     1
100
AcDbLine
 10
42.69539270874358
 20
-4.592781879691891
 30
0.0
 11
42.87551365653081
 21
-4.531995672241743
 31
0.0
  0
LINE
  5
676
330
18
100
AcDbEntity
  8
1
 62
     1
100
AcDbLine
 10
42.87551365653081
 20
-4.531995672241743
 30
0.0
 11
43.05564461156375
 21
-4.46218130094182
 31
0.0
  0
LINE
  5
677
330
18
100
AcDbEntity
  8
1
 62
     1
100
AcDbLine
 10
40.26998506754747
 20
-4.762499999999998
 30
0.0
 11
41.61463309676826
 21
-4.762499999999998
 31
0.0
  0
LINE
  5
678
330
18
100
AcDbEntity
  8
1
 62
     1
100
AcDbLine
 10
28.93461804366727
 20
-4.762499999999986
 30
0.0
 11
29.11474665746358
 21
-4.75775742359423
 31
0.0
  0
LINE
  5
679
330
18
100
AcDbEntity
  8
1
 62
     1
100
AcDbLine
 10
29.11474665746358
 20
-4.75775742359423
 30
0.0
 11
29.2948680982668
 21
-4.743541978708238
 31
0.0
  0
LINE
  5
67A
330
18
100
AcDbEntity
  8
1
 62
     1
100
AcDbLine
 10
29.2948680982668
 20
-4.743541978708238
 30
0.0
 11
29.47500035910743
 21
-4.719879297233728
 31
0.0
  0
LINE
  5
67B
330
18
100
AcDbEntity
  8
1
 62
     1
100
AcDbLine
 10
29.47500035910743
 20
-4.719879297233728
 30
0.0
 11
29.65512438108917
 21
-4.68681828251257
 31
0.0
  0
LINE
  5
67C
330
18
100
AcDbEntity
  8
1
 62
     1
100
AcDbLine
 10
29.65512438108917
 20
-4.68681828251257
 30
0.0
 11
29.83524766731605
 21
-4.644425621440667
 31
0.0
  0
LINE
  5
67D
330
18
100
AcDbEntity
  8
1
 62
     1
100
AcDbLine
 10
29.83524766731605
 20
-4.644425621440667
 30
0.0
 11
30.01538076422874
 21
-4.592781105045656
 31
0.0
  0
LINE
  5
67E
330
18
100
AcDbEntity
  8
1
 62
     1
100
AcDbLine
 10
30.01538076422874
 20
-4.592781105045656
 30
0.0
 11
30.19550196605316
 21
-4.531994347393355
 31
0.0
  0
LINE
  5
67F
330
18
100
AcDbEntity
  8
1
 62
     1
100
AcDbLine
 10
30.19550196605316
 20
-4.531994347393355
 30
0.0
 11
30.37562978556676
 21
-4.462181315149164
 31
0.0
  0
LINE
  5
680
330
18
100
AcDbEntity
  8
1
 62
     1
100
AcDbLine
 10
27.5899701342655
 20
-4.762499999999999
 30
0.0
 11
28.93461804366727
 21
-4.762499999999999
 31
0.0
  0
LINE
  5
681
330
18
100
AcDbEntity
  8
1
 62
     1
100
AcDbLine
 10
24.70794610830485
 20
-4.762499999959586
 30
0.0
 11
24.88807246356092
 21
-4.757757502999989
 31
0.0
  0
LINE
  5
682
330
18
100
AcDbEntity
  8
1
 62
     1
100
AcDbLine
 10
24.88807246356092
 20
-4.757757502999989
 30
0.0
 11
25.06819469646904
 21
-4.7435422692798
 31
0.0
  0
LINE
  5
683
330
18
100
AcDbEntity
  8
1
 62
     1
100
AcDbLine
 10
25.06819469646904
 20
-4.7435422692798
 30
0.0
 11
25.24832755294957
 21
-4.719879403543131
 31
0.0
  0
LINE
  5
684
330
18
100
AcDbEntity
  8
1
 62
     1
100
AcDbLine
 10
25.24832755294957
 20
-4.719879403543131
 30
0.0
 11
25.42845030845137
 21
-4.686818798772087
 31
0.0
  0
LINE
  5
685
330
18
100
AcDbEntity
  8
1
 62
     1
100
AcDbLine
 10
25.42845030845137
 20
-4.686818798772087
 30
0.0
 11
25.60857516099121
 21
-4.644425902913374
 31
0.0
  0
LINE
  5
686
330
18
100
AcDbEntity
  8
1
 62
     1
100
AcDbLine
 10
25.60857516099121
 20
-4.644425902913374
 30
0.0
 11
25.7887073651571
 21
-4.592781579666756
 31
0.0
  0
LINE
  5
687
330
18
100
AcDbEntity
  8
1
 62
     1
100
AcDbLine
 10
25.7887073651571
 20
-4.592781579666756
 30
0.0
 11
25.96882821963134
 21
-4.531995162805108
 31
0.0
  0
LINE
  5
688
330
18
100
AcDbEntity
  8
1
 62
     1
100
AcDbLine
 10
25.96882821963134
 20
-4.531995162805108
 30
0.0
 11
26.14895828181926
 21
-4.462181257639281
 31
0.0
  0
LINE
  5
689
330
18
100
AcDbEntity
  8
1
 62
     1
100
AcDbLine
 10
24.32499999999999
 20
-4.762499999999998
 30
0.0
 11
24.70794610830484
 21
-4.762499999999996
 31
0.0
  0
LINE
  5
68A
330
18
100
AcDbEntity
  8
1
 62
     1
100
AcDbLine
 10
33.92997760106392
 20
-0.0000000000010241
 30
0.0
 11
35.51497869936757
 21
-1.822528780868675
 31
0.0
  0
LINE
  5
68B
330
18
100
AcDbEntity
  8
1
 62
     1
100
AcDbLine
 10
35.51497869936757
 20
-1.822528780868675
 30
0.0
 11
36.30747789234479
 21
-2.645900639830315
 31
0.0
  0
LINE
  5
68C
330
18
100
AcDbEntity
  8
1
 62
     1
100
AcDbLine
 10
36.30747789234479
 20
-2.645900639830315
 30
0.0
 11
36.70373363587082
 21
-3.021300167855605
 31
0.0
  0
LINE
  5
68D
330
18
100
AcDbEntity
  8
1
 62
     1
100
AcDbLine
 10
36.70373363587082
 20
-3.021300167855605
 30
0.0
 11
37.09998364189338
 21
-3.367597987388534
 31
0.0
  0
LINE
  5
68E
330
18
100
AcDbEntity
  8
1
 62
     1
100
AcDbLine
 10
37.09998364189338
 20
-3.367597987388534
 30
0.0
 11
37.49623121373059
 21
-3.6814614003094
 31
0.0
  0
LINE
  5
68F
330
18
100
AcDbEntity
  8
1
 62
     1
100
AcDbLine
 10
37.49623121373059
 20
-3.6814614003094
 30
0.0
 11
37.8924873809778
 21
-3.959877053299262
 31
0.0
  0
LINE
  5
690
330
18
100
AcDbEntity
  8
1
 62
     1
100
AcDbLine
 10
37.8924873809778
 20
-3.959877053299262
 30
0.0
 11
38.09060827853813
 21
-4.084932430682721
 31
0.0
  0
LINE
  5
691
330
18
100
AcDbEntity
  8
1
 62
     1
100
AcDbLine
 10
38.09060827853813
 20
-4.084932430682721
 30
0.0
 11
38.28873190394438
 21
-4.200149433765375
 31
0.0
  0
LINE
  5
692
330
18
100
AcDbEntity
  8
1
 62
     1
100
AcDbLine
 10
38.28873190394438
 20
-4.200149433765375
 30
0.0
 11
38.48686330556847
 21
-4.305251505140639
 31
0.0
  0
LINE
  5
693
330
18
100
AcDbEntity
  8
1
 62
     1
100
AcDbLine
 10
38.48686330556847
 20
-4.305251505140639
 30
0.0
 11
38.68498544633631
 21
-4.399976660207249
 31
0.0
  0
LINE
  5
694
330
18
100
AcDbEntity
  8
1
 62
     1
100
AcDbLine
 10
38.68498544633631
 20
-4.399976660207249
 30
0.0
 11
38.8831071677204
 21
-4.484102860717988
 31
0.0
  0
LINE
  5
695
330
18
100
AcDbEntity
  8
1
 62
     1
100
AcDbLine
 10
38.8831071677204
 20
-4.484102860717988
 30
0.0
 11
39.08123838941981
 21
-4.557429864644892
 31
0.0
  0
LINE
  5
696
330
18
100
AcDbEntity
  8
1
 62
     1
100
AcDbLine
 10
39.08123838941981
 20
-4.557429864644892
 30
0.0
 11
39.27936245885108
 21
-4.619774257997284
 31
0.0
  0
LINE
  5
697
330
18
100
AcDbEntity
  8
1
 62
     1
100
AcDbLine
 10
39.27936245885108
 20
-4.619774257997284
 30
0.0
 11
39.47748314910486
 21
-4.670989236574503
 31
0.0
  0
LINE
  5
698
330
18
100
AcDbEntity
  8
1
 62
     1
100
AcDbLine
 10
39.47748314910486
 20
-4.670989236574503
 30
0.0
 11
39.67561223400185
 21
-4.710953625338909
 31
0.0
  0
LINE
  5
699
330
18
100
AcDbEntity
  8
1
 62
     1
100
AcDbLine
 10
39.67561223400185
 20
-4.710953625338909
 30
0.0
 11
39.87373919516099
 21
-4.739567263754471
 31
0.0
  0
LINE
  5
69A
330
18
100
AcDbEntity
  8
1
 62
     1
100
AcDbLine
 10
39.87373919516099
 20
-4.739567263754471
 30
0.0
 11
40.07185955611904
 21
-4.756762772507661
 31
0.0
  0
LINE
  5
69B
330
18
100
AcDbEntity
  8
1
 62
     1
100
AcDbLine
 10
40.07185955611904
 20
-4.756762772507661
 30
0.0
 11
40.26998506754746
 21
-4.762499999806328
 31
0.0
  0
ARC
  5
69C
330
18
100
AcDbEntity
  8
1
 62
     1
100
AcDbCircle
 10
53.11948748571469
 20
0.579229974540818
 30
0.0
 40
4.203664891993034
100
AcDbArc
 50
103.9516957930978
 51
112.5268027092622
  0
LINE
  5
69D
330
18
100
AcDbEntity
  8
1
 62
     1
100
AcDbLine
 10
33.92997760106516
 20
-0.0000000000000029
 30
0.0
 11
32.57175682921081
 21
0.9529722784160894
 31
0.0
  0
LINE
  5
69E
330
18
100
AcDbEntity
  8
1
 62
     1
100
AcDbLine
 10
32.57175682921081
 20
0.9529722784160894
 30
0.0
 11
31.89264644328362
 21
1.395718070677915
 31
0.0
  0
LINE
  5
69F
330
18
100
AcDbEntity
  8
1
 62
     1
100
AcDbLine
 10
31.89264644328362
 20
1.395718070677915
 30
0.0
 11
31.21353605735646
 21
1.799043933766346
 31
0.0
  0
LINE
  5
6A0
330
18
100
AcDbEntity
  8
1
 62
     1
100
AcDbLine
 10
31.21353605735646
 20
1.799043933766346
 30
0.0
 11
30.53442567142928
 21
2.151559541571924
 31
0.0
  0
LINE
  5
6A1
330
18
100
AcDbEntity
  8
1
 62
     1
100
AcDbLine
 10
30.53442567142928
 20
2.151559541571924
 30
0.0
 11
30.1948704784657
 21
2.305587241475779
 31
0.0
  0
LINE
  5
6A2
330
18
100
AcDbEntity
  8
1
 62
     1
100
AcDbLine
 10
30.1948704784657
 20
2.305587241475779
 30
0.0
 11
29.8553152855021
 21
2.443306689290558
 31
0.0
  0
LINE
  5
6A3
330
18
100
AcDbEntity
  8
1
 62
     1
100
AcDbLine
 10
29.8553152855021
 20
2.443306689290558
 30
0.0
 11
29.51576009253851
 21
2.563744183079749
 31
0.0
  0
LINE
  5
6A4
330
18
100
AcDbEntity
  8
1
 62
     1
100
AcDbLine
 10
29.51576009253851
 20
2.563744183079749
 30
0.0
 11
29.17620489957493
 21
2.666047833915519
 31
0.0
  0
LINE
  5
6A5
330
18
100
AcDbEntity
  8
1
 62
     1
100
AcDbLine
 10
29.17620489957493
 20
2.666047833915519
 30
0.0
 11
28.83664970661135
 21
2.749493464872338
 31
0.0
  0
LINE
  5
6A6
330
18
100
AcDbEntity
  8
1
 62
     1
100
AcDbLine
 10
28.83664970661135
 20
2.749493464872338
 30
0.0
 11
28.49709451364776
 21
2.813490289070285
 31
0.0
  0
LINE
  5
6A7
330
18
100
AcDbEntity
  8
1
 62
     1
100
AcDbLine
 10
28.49709447747409
 20
2.813490251074808
 30
0.0
 11
28.02345365236227
 21
3.244032574222796
 31
0.0
  0
LINE
  5
6A8
330
18
100
AcDbEntity
  8
1
 62
     1
100
AcDbLine
 10
28.02345365236227
 20
3.244032574222796
 30
0.0
 11
27.54981205205193
 21
3.629954915470971
 31
0.0
  0
LINE
  5
6A9
330
18
100
AcDbEntity
  8
1
 62
     1
100
AcDbLine
 10
27.54981205205193
 20
3.629954915470971
 30
0.0
 11
27.31298513686781
 21
3.804501499536014
 31
0.0
  0
LINE
  5
6AA
330
18
100
AcDbEntity
  8
1
 62
     1
100
AcDbLine
 10
27.31298513686781
 20
3.804501499536014
 30
0.0
 11
27.07616119681984
 21
3.965952067268528
 31
0.0
  0
LINE
  5
6AB
330
18
100
AcDbEntity
  8
1
 62
     1
100
AcDbLine
 10
27.07616119681984
 20
3.965952067268528
 30
0.0
 11
26.83934053949063
 21
4.11375023184137
 31
0.0
  0
LINE
  5
6AC
330
18
100
AcDbEntity
  8
1
 62
     1
100
AcDbLine
 10
26.83934053949063
 20
4.11375023184137
 30
0.0
 11
26.60252136521416
 21
4.247389556464099
 31
0.0
  0
LINE
  5
6AD
330
18
100
AcDbEntity
  8
1
 62
     1
100
AcDbLine
 10
26.60252136521416
 20
4.247389556464099
 30
0.0
 11
26.36570134580794
 21
4.3664113260794
 31
0.0
  0
LINE
  5
6AE
330
18
100
AcDbEntity
  8
1
 62
     1
100
AcDbLine
 10
26.36570134580794
 20
4.3664113260794
 30
0.0
 11
26.12887829639592
 21
4.470406485532703
 31
0.0
  0
LINE
  5
6AF
330
18
100
AcDbEntity
  8
1
 62
     1
100
AcDbLine
 10
26.12887829639592
 20
4.470406485532703
 30
0.0
 11
25.89205218078762
 21
4.559016666702081
 31
0.0
  0
LINE
  5
6B0
330
18
100
AcDbEntity
  8
1
 62
     1
100
AcDbLine
 10
25.89205218078762
 20
4.559016666702081
 30
0.0
 11
25.655228506246
 21
4.631933741959244
 31
0.0
  0
LINE
  5
6B1
330
18
100
AcDbEntity
  8
1
 62
     1
100
AcDbLine
 10
25.655228506246
 20
4.631933741959244
 30
0.0
 11
25.41840866160054
 21
4.688908242046426
 31
0.0
  0
LINE
  5
6B2
330
18
100
AcDbEntity
  8
1
 62
     1
100
AcDbLine
 10
25.41840866160054
 20
4.688908242046426
 30
0.0
 11
25.18158942882926
 21
4.72974500143799
 31
0.0
  0
LINE
  5
6B3
330
18
100
AcDbEntity
  8
1
 62
     1
100
AcDbLine
 10
25.18158942882926
 20
4.72974500143799
 30
0.0
 11
24.94476989712265
 21
4.754303861357541
 31
0.0
  0
LINE
  5
6B4
330
18
100
AcDbEntity
  8
1
 62
     1
100
AcDbLine
 10
24.94476989712265
 20
4.754303861357541
 30
0.0
 11
24.7079461082948
 21
4.762500000000001
 31
0.0
  0
LINE
  5
6B5
330
18
100
AcDbEntity
  8
1
 62
     1
100
AcDbLine
 10
38.82897301441015
 20
-4.462181322787528
 30
0.0
 11
38.64884397261864
 21
-4.531994877565284
 31
0.0
  0
LINE
  5
6B6
330
18
100
AcDbEntity
  8
1
 62
     1
100
AcDbLine
 10
38.64884397261864
 20
-4.531994877565284
 30
0.0
 11
38.46872263722931
 21
-4.592781483206185
 31
0.0
  0
LINE
  5
6B7
330
18
100
AcDbEntity
  8
1
 62
     1
100
AcDbLine
 10
38.46872263722931
 20
-4.592781483206185
 30
0.0
 11
38.2885901240763
 21
-4.644425904503279
 31
0.0
  0
LINE
  5
6B8
330
18
100
AcDbEntity
  8
1
 62
     1
100
AcDbLine
 10
38.2885901240763
 20
-4.644425904503279
 30
0.0
 11
38.10846555050018
 21
-4.686818747417671
 31
0.0
  0
LINE
  5
6B9
330
18
100
AcDbEntity
  8
1
 62
     1
100
AcDbLine
 10
38.10846555050018
 20
-4.686818747417671
 30
0.0
 11
37.92834236084629
 21
-4.719879431056624
 31
0.0
  0
LINE
  5
6BA
330
18
100
AcDbEntity
  8
1
 62
     1
100
AcDbLine
 10
37.92834236084629
 20
-4.719879431056624
 30
0.0
 11
37.74820968666325
 21
-4.743542266339423
 31
0.0
  0
LINE
  5
6BB
330
18
100
AcDbEntity
  8
1
 62
     1
100
AcDbLine
 10
37.74820968666325
 20
-4.743542266339423
 30
0.0
 11
37.56808733946312
 21
-4.757757527335683
 31
0.0
  0
LINE
  5
6BC
330
18
100
AcDbEntity
  8
1
 62
     1
100
AcDbLine
 10
37.56808733946312
 20
-4.757757527335683
 30
0.0
 11
37.38796141232777
 21
-4.762499999802706
 31
0.0
  0
LINE
  5
6BD
330
18
100
AcDbEntity
  8
1
 62
     1
100
AcDbLine
 10
29.70330595656529
 20
-0.0000000000014071
 30
0.0
 11
28.3587284675024
 21
1.557356991166011
 31
0.0
  0
LINE
  5
6BE
330
18
100
AcDbEntity
  8
1
 62
     1
100
AcDbLine
 10
28.3587284675024
 20
1.557356991166011
 30
0.0
 11
27.68644120036907
 21
2.281998336698237
 31
0.0
  0
LINE
  5
6BF
330
18
100
AcDbEntity
  8
1
 62
     1
100
AcDbLine
 10
27.68644120036907
 20
2.281998336698237
 30
0.0
 11
27.01415691969967
 21
2.943470634210047
 31
0.0
  0
LINE
  5
6C0
330
18
100
AcDbEntity
  8
1
 62
     1
100
AcDbLine
 10
27.01415691969967
 20
2.943470634210047
 30
0.0
 11
26.67801036935254
 21
3.244719512740137
 31
0.0
  0
LINE
  5
6C1
330
18
100
AcDbEntity
  8
1
 62
     1
100
AcDbLine
 10
26.67801036935254
 20
3.244719512740137
 30
0.0
 11
26.34186361149368
 21
3.523475935147159
 31
0.0
  0
LINE
  5
6C2
330
18
100
AcDbEntity
  8
1
 62
     1
100
AcDbLine
 10
26.34186361149368
 20
3.523475935147159
 30
0.0
 11
26.00571883431526
 21
3.77780591439745
 31
0.0
  0
LINE
  5
6C3
330
18
100
AcDbEntity
  8
1
 62
     1
100
AcDbLine
 10
26.00571883431526
 20
3.77780591439745
 30
0.0
 11
25.66957817224316
 21
4.005945192389285
 31
0.0
  0
LINE
  5
6C4
330
18
100
AcDbEntity
  8
1
 62
     1
100
AcDbLine
 10
25.66957817224316
 20
4.005945192389285
 30
0.0
 11
25.33343753181822
 21
4.206315372146212
 31
0.0
  0
LINE
  5
6C5
330
18
100
AcDbEntity
  8
1
 62
     1
100
AcDbLine
 10
25.33343753181822
 20
4.206315372146212
 30
0.0
 11
25.16535905964027
 21
4.295649525171923
 31
0.0
  0
LINE
  5
6C6
330
18
100
AcDbEntity
  8
1
 62
     1
100
AcDbLine
 10
25.16535905964027
 20
4.295649525171923
 30
0.0
 11
24.99729280329425
 21
4.377529664317707
 31
0.0
  0
LINE
  5
6C7
330
18
100
AcDbEntity
  8
1
 62
     1
100
AcDbLine
 10
24.99729280329425
 20
4.377529664317707
 30
0.0
 11
24.82921665883495
 21
4.45182557072235
 31
0.0
  0
LINE
  5
6C8
330
18
100
AcDbEntity
  8
1
 62
     1
100
AcDbLine
 10
24.82921665883495
 20
4.45182557072235
 30
0.0
 11
24.66114615821892
 21
4.518399577810627
 31
0.0
  0
LINE
  5
6C9
330
18
100
AcDbEntity
  8
1
 62
     1
100
AcDbLine
 10
24.66114615821892
 20
4.518399577810627
 30
0.0
 11
24.49307676017863
 21
4.57714072735947
 31
0.0
  0
LINE
  5
6CA
330
18
100
AcDbEntity
  8
1
 62
     1
100
AcDbLine
 10
24.49307676017863
 20
4.57714072735947
 30
0.0
 11
24.325
 21
4.627948045753953
 31
0.0
  0
LINE
  5
6CB
330
18
100
AcDbEntity
  8
1
 62
     1
100
AcDbLine
 10
29.70330595656692
 20
-0.0000000000000063
 30
0.0
 11
28.3587294674252
 21
0.9437577306028645
 31
0.0
  0
LINE
  5
6CC
330
18
100
AcDbEntity
  8
1
 62
     1
100
AcDbLine
 10
28.3587294674252
 20
0.9437577306028645
 30
0.0
 11
27.68644122285432
 21
1.38289066669601
 31
0.0
  0
LINE
  5
6CD
330
18
100
AcDbEntity
  8
1
 62
     1
100
AcDbLine
 10
27.68644122285432
 20
1.38289066669601
 30
0.0
 11
27.01415297828345
 21
1.783745233182948
 31
0.0
  0
LINE
  5
6CE
330
18
100
AcDbEntity
  8
1
 62
     1
100
AcDbLine
 10
27.01415297828345
 20
1.783745233182948
 30
0.0
 11
26.34186473371258
 21
2.135226001538882
 31
0.0
  0
LINE
  5
6CF
330
18
100
AcDbEntity
  8
1
 62
     1
100
AcDbLine
 10
26.34186473371258
 20
2.135226001538882
 30
0.0
 11
26.00572061142715
 21
2.289349146495244
 31
0.0
  0
LINE
  5
6D0
330
18
100
AcDbEntity
  8
1
 62
     1
100
AcDbLine
 10
26.00572061142715
 20
2.289349146495244
 30
0.0
 11
25.66957648914173
 21
2.427602671185217
 31
0.0
  0
LINE
  5
6D1
330
18
100
AcDbEntity
  8
1
 62
     1
100
AcDbLine
 10
25.66957648914173
 20
2.427602671185217
 30
0.0
 11
25.33343236685629
 21
2.549028528367842
 31
0.0
  0
LINE
  5
6D2
330
18
100
AcDbEntity
  8
1
 62
     1
100
AcDbLine
 10
25.33343236685629
 20
2.549028528367842
 30
0.0
 11
24.99728824457086
 21
2.6527845247317
 31
0.0
  0
LINE
  5
6D3
330
18
100
AcDbEntity
  8
1
 62
     1
100
AcDbLine
 10
24.99728824457086
 20
2.6527845247317
 30
0.0
 11
24.66114412228544
 21
2.738150622293534
 31
0.0
  0
LINE
  5
6D4
330
18
100
AcDbEntity
  8
1
 62
     1
100
AcDbLine
 10
24.66114412228544
 20
2.738150622293534
 30
0.0
 11
24.32500000000001
 21
2.804536493130224
 31
0.0
  0
LINE
  5
6D5
330
18
100
AcDbEntity
  8
1
 62
     1
100
AcDbLine
 10
49.63045270178982
 20
2.813490414868606
 30
0.0
 11
50.24934161737984
 21
2.193576416284085
 31
0.0
  0
LINE
  5
6D6
330
18
100
AcDbEntity
  8
1
 62
     1
100
AcDbLine
 10
50.24934161737984
 20
2.193576416284085
 30
0.0
 11
52.10599999999999
 21
0.0888602286912833
 31
0.0
  0
ARC
  5
6D7
330
18
100
AcDbEntity
  8
1
 62
     1
100
AcDbCircle
 10
118.0239501910375
 20
56.55238979176877
 30
0.0
 40
87.81958110645454
100
AcDbArc
 50
220.087743991189
 51
221.3564878097794
  0
LINE
  5
6D8
330
18
100
AcDbEntity
  8
1
 62
     1
100
AcDbLine
 10
25.47663430827743
 20
-0.0000000000001407
 30
0.0
 11
27.0616381860741
 21
-1.822531806656821
 31
0.0
  0
LINE
  5
6D9
330
18
100
AcDbEntity
  8
1
 62
     1
100
AcDbLine
 10
27.0616381860741
 20
-1.822531806656821
 30
0.0
 11
27.85413660981398
 21
-2.645902551937212
 31
0.0
  0
LINE
  5
6DA
330
18
100
AcDbEntity
  8
1
 62
     1
100
AcDbLine
 10
27.85413660981398
 20
-2.645902551937212
 30
0.0
 11
28.25039295663988
 21
-3.021302601402312
 31
0.0
  0
LINE
  5
6DB
330
18
100
AcDbEntity
  8
1
 62
     1
100
AcDbLine
 10
28.25039295663988
 20
-3.021302601402312
 30
0.0
 11
28.64664048319582
 21
-3.367598105343546
 31
0.0
  0
LINE
  5
6DC
330
18
100
AcDbEntity
  8
1
 62
     1
100
AcDbLine
 10
28.64664048319582
 20
-3.367598105343546
 30
0.0
 11
29.0428905346839
 21
-3.681463315104846
 31
0.0
  0
LINE
  5
6DD
330
18
100
AcDbEntity
  8
1
 62
     1
100
AcDbLine
 10
29.0428905346839
 20
-3.681463315104846
 30
0.0
 11
29.43914606351522
 21
-3.959878442260896
 31
0.0
  0
LINE
  5
6DE
330
18
100
AcDbEntity
  8
1
 62
     1
100
AcDbLine
 10
29.43914606351522
 20
-3.959878442260896
 30
0.0
 11
29.63726773449486
 21
-4.084934076454088
 31
0.0
  0
LINE
  5
6DF
330
18
100
AcDbEntity
  8
1
 62
     1
100
AcDbLine
 10
29.63726773449486
 20
-4.084934076454088
 30
0.0
 11
29.83539002034738
 21
-4.200150130508351
 31
0.0
  0
LINE
  5
6E0
330
18
100
AcDbEntity
  8
1
 62
     1
100
AcDbLine
 10
29.83539002034738
 20
-4.200150130508351
 30
0.0
 11
30.03352147262249
 21
-4.305252335957409
 31
0.0
  0
LINE
  5
6E1
330
18
100
AcDbEntity
  8
1
 62
     1
100
AcDbLine
 10
30.03352147262249
 20
-4.305252335957409
 30
0.0
 11
30.23164489812642
 21
-4.399977920931026
 31
0.0
  0
LINE
  5
6E2
330
18
100
AcDbEntity
  8
1
 62
     1
100
AcDbLine
 10
30.23164489812642
 20
-4.399977920931026
 30
0.0
 11
30.42976581770919
 21
-4.484103529837963
 31
0.0
  0
LINE
  5
6E3
330
18
100
AcDbEntity
  8
1
 62
     1
100
AcDbLine
 10
30.42976581770919
 20
-4.484103529837963
 30
0.0
 11
30.6278958982066
 21
-4.557430206050816
 31
0.0
  0
LINE
  5
6E4
330
18
100
AcDbEntity
  8
1
 62
     1
100
AcDbLine
 10
30.6278958982066
 20
-4.557430206050816
 30
0.0
 11
30.82602177623817
 21
-4.619775068134439
 31
0.0
  0
LINE
  5
6E5
330
18
100
AcDbEntity
  8
1
 62
     1
100
AcDbLine
 10
30.82602177623817
 20
-4.619775068134439
 30
0.0
 11
31.02414219866109
 21
-4.670989685052133
 31
0.0
  0
LINE
  5
6E6
330
18
100
AcDbEntity
  8
1
 62
     1
100
AcDbLine
 10
31.02414219866109
 20
-4.670989685052133
 30
0.0
 11
31.22226908339024
 21
-4.710953650664291
 31
0.0
  0
LINE
  5
6E7
330
18
100
AcDbEntity
  8
1
 62
     1
100
AcDbLine
 10
31.22226908339024
 20
-4.710953650664291
 30
0.0
 11
31.42039824283976
 21
-4.739567627074117
 31
0.0
  0
LINE
  5
6E8
330
18
100
AcDbEntity
  8
1
 62
     1
100
AcDbLine
 10
31.42039824283976
 20
-4.739567627074117
 30
0.0
 11
31.61851887082128
 21
-4.756762863440695
 31
0.0
  0
LINE
  5
6E9
330
18
100
AcDbEntity
  8
1
 62
     1
100
AcDbLine
 10
31.61851887082128
 20
-4.756762863440695
 30
0.0
 11
31.81664177883344
 21
-4.762499999980196
 31
0.0
  0
LINE
  5
6EA
330
18
100
AcDbEntity
  8
1
 62
     1
100
AcDbLine
 10
50.83666417763073
 20
-0.000000000000008
 30
0.0
 11
49.47844340845204
 21
0.952972236097245
 31
0.0
  0
LINE
  5
6EB
330
18
100
AcDbEntity
  8
1
 62
     1
100
AcDbLine
 10
49.47844340845204
 20
0.952972236097245
 30
0.0
 11
48.79933302386267
 21
1.395718145923798
 31
0.0
  0
LINE
  5
6EC
330
18
100
AcDbEntity
  8
1
 62
     1
100
AcDbLine
 10
48.79933302386267
 20
1.395718145923798
 30
0.0
 11
48.12022263927332
 21
1.799043893974464
 31
0.0
  0
LINE
  5
6ED
330
18
100
AcDbEntity
  8
1
 62
     1
100
AcDbLine
 10
48.12022263927332
 20
1.799043893974464
 30
0.0
 11
47.44111225468396
 21
2.151559547737247
 31
0.0
  0
LINE
  5
6EE
330
18
100
AcDbEntity
  8
1
 62
     1
100
AcDbLine
 10
47.44111225468396
 20
2.151559547737247
 30
0.0
 11
47.10155706238928
 21
2.305587358704038
 31
0.0
  0
LINE
  5
6EF
330
18
100
AcDbEntity
  8
1
 62
     1
100
AcDbLine
 10
47.10155706238928
 20
2.305587358704038
 30
0.0
 11
46.76200187009461
 21
2.443306754515988
 31
0.0
  0
LINE
  5
6F0
330
18
100
AcDbEntity
  8
1
 62
     1
100
AcDbLine
 10
46.76200187009461
 20
2.443306754515988
 30
0.0
 11
46.42244667779993
 21
2.56374412311217
 31
0.0
  0
LINE
  5
6F1
330
18
100
AcDbEntity
  8
1
 62
     1
100
AcDbLine
 10
46.42244667779993
 20
2.56374412311217
 30
0.0
 11
46.08289148550526
 21
2.666047701261688
 31
0.0
  0
LINE
  5
6F2
330
18
100
AcDbEntity
  8
1
 62
     1
100
AcDbLine
 10
46.08289148550526
 20
2.666047701261688
 30
0.0
 11
45.74333629321058
 21
2.74949345929401
 31
0.0
  0
LINE
  5
6F3
330
18
100
AcDbEntity
  8
1
 62
     1
100
AcDbLine
 10
45.74333629321058
 20
2.74949345929401
 30
0.0
 11
45.40378110091587
 21
2.813490429196284
 31
0.0
  0
LINE
  5
6F4
330
18
100
AcDbEntity
  8
1
 62
     1
100
AcDbLine
 10
43.0556446639651
 20
4.462181313773827
 30
0.0
 11
43.23577498294075
 21
4.531995143944968
 31
0.0
  0
LINE
  5
6F5
330
18
100
AcDbEntity
  8
1
 62
     1
100
AcDbLine
 10
43.23577498294075
 20
4.531995143944968
 30
0.0
 11
43.4158961899396
 21
4.592781634367505
 31
0.0
  0
LINE
  5
6F6
330
18
100
AcDbEntity
  8
1
 62
     1
100
AcDbLine
 10
43.4158961899396
 20
4.592781634367505
 30
0.0
 11
43.59602797174046
 21
4.644426012971605
 31
0.0
  0
LINE
  5
6F7
330
18
100
AcDbEntity
  8
1
 62
     1
100
AcDbLine
 10
43.59602797174046
 20
4.644426012971605
 30
0.0
 11
43.77615350567855
 21
4.686818943392677
 31
0.0
  0
LINE
  5
6F8
330
18
100
AcDbEntity
  8
1
 62
     1
100
AcDbLine
 10
43.77615350567855
 20
4.686818943392677
 30
0.0
 11
43.95627597503887
 21
4.719879506939051
 31
0.0
  0
LINE
  5
6F9
330
18
100
AcDbEntity
  8
1
 62
     1
100
AcDbLine
 10
43.95627597503887
 20
4.719879506939051
 30
0.0
 11
44.13640928963495
 21
4.743542357134542
 31
0.0
  0
LINE
  5
6FA
330
18
100
AcDbEntity
  8
1
 62
     1
100
AcDbLine
 10
44.13640928963495
 20
4.743542357134542
 30
0.0
 11
44.31653010857632
 21
4.757757382561334
 31
0.0
  0
LINE
  5
6FB
330
18
100
AcDbEntity
  8
1
 62
     1
100
AcDbLine
 10
44.31653010857632
 20
4.757757382561334
 30
0.0
 11
44.49665671176496
 21
4.762499999999999
 31
0.0
  0
ARC
  5
6FC
330
18
100
AcDbEntity
  8
1
 62
     1
100
AcDbCircle
 10
-21.8753855588456
 20
-65.85594421396668
 30
0.0
 40
81.11230570181142
100
AcDbArc
 50
54.28294962946836
 51
55.27847194918769
  0
LINE
  5
6FD
330
18
100
AcDbEntity
  8
1
 62
     1
100
AcDbLine
 10
45.40378105569901
 20
2.81349038170215
 30
0.0
 11
46.24156049527702
 21
1.961211655206665
 31
0.0
  0
LINE
  5
6FE
330
18
100
AcDbEntity
  8
1
 62
     1
100
AcDbLine
 10
46.24156049527702
 20
1.961211655206665
 30
0.0
 11
47.91712099970443
 21
0.0442710541615452
 31
0.0
  0
LINE
  5
6FF
330
18
100
AcDbEntity
  8
1
 62
     1
100
AcDbLine
 10
47.91712099970443
 20
0.0442710541615452
 30
0.0
 11
49.59267602083416
 21
-1.880184388038756
 31
0.0
  0
LINE
  5
700
330
18
100
AcDbEntity
  8
1
 62
     1
100
AcDbLine
 10
49.59267602083416
 20
-1.880184388038756
 30
0.0
 11
50.22101144102353
 21
-2.535883388848085
 31
0.0
  0
LINE
  5
701
330
18
100
AcDbEntity
  8
1
 62
     1
100
AcDbLine
 10
50.22101144102353
 20
-2.535883388848085
 30
0.0
 11
50.8493426507352
 21
-3.130244192001606
 31
0.0
  0
LINE
  5
702
330
18
100
AcDbEntity
  8
1
 62
     1
100
AcDbLine
 10
50.8493426507352
 20
-3.130244192001606
 30
0.0
 11
51.1635073597752
 21
-3.399864990386282
 31
0.0
  0
LINE
  5
703
330
18
100
AcDbEntity
  8
1
 62
     1
100
AcDbLine
 10
51.1635073597752
 20
-3.399864990386282
 30
0.0
 11
51.47767356533285
 21
-3.648898604016753
 31
0.0
  0
LINE
  5
704
330
18
100
AcDbEntity
  8
1
 62
     1
100
AcDbLine
 10
51.47767356533285
 20
-3.648898604016753
 30
0.0
 11
51.79184168024684
 21
-3.875836090165479
 31
0.0
  0
LINE
  5
705
330
18
100
AcDbEntity
  8
1
 62
     1
100
AcDbLine
 10
51.79184168024684
 20
-3.875836090165479
 30
0.0
 11
52.10599999999999
 21
-4.079297881329849
 31
0.0
  0
LINE
  5
706
330
18
100
AcDbEntity
  8
1
 62
     1
100
AcDbLine
 10
46.60999253383769
 20
-0.0000000000011071
 30
0.0
 11
47.98399771705494
 21
-1.590129714452994
 31
0.0
  0
LINE
  5
707
330
18
100
AcDbEntity
  8
1
 62
     1
100
AcDbLine
 10
47.98399771705494
 20
-1.590129714452994
 30
0.0
 11
48.6709937604996
 21
-2.327572145811637
 31
0.0
  0
LINE
  5
708
330
18
100
AcDbEntity
  8
1
 62
     1
100
AcDbLine
 10
48.6709937604996
 20
-2.327572145811637
 30
0.0
 11
49.3579981896742
 21
-2.997751445521145
 31
0.0
  0
LINE
  5
709
330
18
100
AcDbEntity
  8
1
 62
     1
100
AcDbLine
 10
49.3579981896742
 20
-2.997751445521145
 30
0.0
 11
49.70150189884137
 21
-3.301470963183943
 31
0.0
  0
LINE
  5
70A
330
18
100
AcDbEntity
  8
1
 62
     1
100
AcDbLine
 10
49.70150189884137
 20
-3.301470963183943
 30
0.0
 11
50.04500225170967
 21
-3.581289660515238
 31
0.0
  0
LINE
  5
70B
330
18
100
AcDbEntity
  8
1
 62
     1
100
AcDbLine
 10
50.04500225170967
 20
-3.581289660515238
 30
0.0
 11
50.38849791744504
 21
-3.835181465739014
 31
0.0
  0
LINE
  5
70C
330
18
100
AcDbEntity
  8
1
 62
     1
100
AcDbLine
 10
50.38849791744504
 20
-3.835181465739014
 30
0.0
 11
50.73199812354997
 21
-4.061315242686575
 31
0.0
  0
LINE
  5
70D
330
18
100
AcDbEntity
  8
1
 62
     1
100
AcDbLine
 10
50.73199812354997
 20
-4.061315242686575
 30
0.0
 11
51.07550166979061
 21
-4.258052860264215
 31
0.0
  0
LINE
  5
70E
330
18
100
AcDbEntity
  8
1
 62
     1
100
AcDbLine
 10
51.07550166979061
 20
-4.258052860264215
 30
0.0
 11
51.2472495716133
 21
-4.344942277738131
 31
0.0
  0
LINE
  5
70F
330
18
100
AcDbEntity
  8
1
 62
     1
100
AcDbLine
 10
51.2472495716133
 20
-4.344942277738131
 30
0.0
 11
51.41900529284469
 21
-4.423968050665895
 31
0.0
  0
LINE
  5
710
330
18
100
AcDbEntity
  8
1
 62
     1
100
AcDbLine
 10
51.41900529284469
 20
-4.423968050665895
 30
0.0
 11
51.59074970792565
 21
-4.494979901732866
 31
0.0
  0
LINE
  5
711
330
18
100
AcDbEntity
  8
1
 62
     1
100
AcDbLine
 10
51.59074970792565
 20
-4.494979901732866
 30
0.0
 11
51.76250542086531
 21
-4.557858545352946
 31
0.0
  0
LINE
  5
712
330
18
100
AcDbEntity
  8
1
 62
     1
100
AcDbLine
 10
51.76250542086531
 20
-4.557858545352946
 30
0.0
 11
51.934253084582
 21
-4.612481549887746
 31
0.0
  0
LINE
  5
713
330
18
100
AcDbEntity
  8
1
 62
     1
100
AcDbLine
 10
51.934253084582
 20
-4.612481549887746
 30
0.0
 11
52.10600000000001
 21
-4.658755038651783
 31
0.0
  0
LINE
  5
714
330
18
100
AcDbEntity
  8
1
 62
     1
100
AcDbLine
 10
46.60999253383901
 20
0.0000000000000058
 30
0.0
 11
45.25177176400581
 21
0.9529722464951064
 31
0.0
  0
LINE
  5
715
330
18
100
AcDbEntity
  8
1
 62
     1
100
AcDbLine
 10
45.25177176400581
 20
0.9529722464951064
 30
0.0
 11
44.57266137908921
 21
1.395718127098783
 31
0.0
  0
LINE
  5
716
330
18
100
AcDbEntity
  8
1
 62
     1
100
AcDbLine
 10
44.57266137908921
 20
1.395718127098783
 30
0.0
 11
43.89355099417262
 21
1.799043901636858
 31
0.0
  0
LINE
  5
717
330
18
100
AcDbEntity
  8
1
 62
     1
100
AcDbLine
 10
43.89355099417262
 20
1.799043901636858
 30
0.0
 11
43.21444060925599
 21
2.151559551162668
 31
0.0
  0
LINE
  5
718
330
18
100
AcDbEntity
  8
1
 62
     1
100
AcDbLine
 10
43.21444060925599
 20
2.151559551162668
 30
0.0
 11
42.8748854167977
 21
2.305587329594495
 31
0.0
  0
LINE
  5
719
330
18
100
AcDbEntity
  8
1
 62
     1
100
AcDbLine
 10
42.8748854167977
 20
2.305587329594495
 30
0.0
 11
42.5353302243394
 21
2.443306735418656
 31
0.0
  0
LINE
  5
71A
330
18
100
AcDbEntity
  8
1
 62
     1
100
AcDbLine
 10
42.5353302243394
 20
2.443306735418656
 30
0.0
 11
42.1957750318811
 21
2.563744135038149
 31
0.0
  0
LINE
  5
71B
330
18
100
AcDbEntity
  8
1
 62
     1
100
AcDbLine
 10
42.1957750318811
 20
2.563744135038149
 30
0.0
 11
41.8562198394228
 21
2.666047734370831
 31
0.0
  0
LINE
  5
71C
330
18
100
AcDbEntity
  8
1
 62
     1
100
AcDbLine
 10
41.8562198394228
 20
2.666047734370831
 30
0.0
 11
41.51666464696448
 21
2.749493467096803
 31
0.0
  0
LINE
  5
71D
330
18
100
AcDbEntity
  8
1
 62
     1
100
AcDbLine
 10
41.51666464696448
 20
2.749493467096803
 30
0.0
 11
41.17710945450618
 21
2.813490394696176
 31
0.0
  0
LINE
  5
71E
330
18
100
AcDbEntity
  8
1
 62
     1
100
AcDbLine
 10
38.8289730128146
 20
4.462181323662133
 30
0.0
 11
39.00910191165365
 21
4.531994584310262
 31
0.0
  0
LINE
  5
71F
330
18
100
AcDbEntity
  8
1
 62
     1
100
AcDbLine
 10
39.00910191165365
 20
4.531994584310262
 30
0.0
 11
39.18922329706526
 21
4.592781305641301
 31
0.0
  0
LINE
  5
720
330
18
100
AcDbEntity
  8
1
 62
     1
100
AcDbLine
 10
39.18922329706526
 20
4.592781305641301
 30
0.0
 11
39.36935583739546
 21
4.644425838847857
 31
0.0
  0
LINE
  5
721
330
18
100
AcDbEntity
  8
1
 62
     1
100
AcDbLine
 10
39.36935583739546
 20
4.644425838847857
 30
0.0
 11
39.54948027068261
 21
4.686818597965567
 31
0.0
  0
LINE
  5
722
330
18
100
AcDbEntity
  8
1
 62
     1
100
AcDbLine
 10
39.54948027068261
 20
4.686818597965567
 30
0.0
 11
39.72960345193543
 21
4.719879432410155
 31
0.0
  0
LINE
  5
723
330
18
100
AcDbEntity
  8
1
 62
     1
100
AcDbLine
 10
39.72960345193543
 20
4.719879432410155
 30
0.0
 11
39.90973661052264
 21
4.743542183489945
 31
0.0
  0
LINE
  5
724
330
18
100
AcDbEntity
  8
1
 62
     1
100
AcDbLine
 10
39.90973661052264
 20
4.743542183489945
 30
0.0
 11
40.08985758410986
 21
4.757757411481387
 31
0.0
  0
LINE
  5
725
330
18
100
AcDbEntity
  8
1
 62
     1
100
AcDbLine
 10
40.08985758410986
 20
4.757757411481387
 30
0.0
 11
40.2699850675619
 21
4.7625
 31
0.0
  0
LINE
  5
726
330
18
100
AcDbEntity
  8
1
 62
     1
100
AcDbLine
 10
41.1771094096286
 20
2.813490347558452
 30
0.0
 11
41.73278880330288
 21
2.259506588752188
 31
0.0
  0
LINE
  5
727
330
18
100
AcDbEntity
  8
1
 62
     1
100
AcDbLine
 10
41.73278880330288
 20
2.259506588752188
 30
0.0
 11
42.84415008064624
 21
1.034551667498353
 31
0.0
  0
LINE
  5
728
330
18
100
AcDbEntity
  8
1
 62
     1
100
AcDbLine
 10
42.84415008064624
 20
1.034551667498353
 30
0.0
 11
45.06686464105524
 21
-1.551020106645407
 31
0.0
  0
LINE
  5
729
330
18
100
AcDbEntity
  8
1
 62
     1
100
AcDbLine
 10
45.06686464105524
 20
-1.551020106645407
 30
0.0
 11
45.62254346131982
 21
-2.154316838583164
 31
0.0
  0
LINE
  5
72A
330
18
100
AcDbEntity
  8
1
 62
     1
100
AcDbLine
 10
45.62254346131982
 20
-2.154316838583164
 30
0.0
 11
46.17822216673783
 21
-2.716844345074794
 31
0.0
  0
LINE
  5
72B
330
18
100
AcDbEntity
  8
1
 62
     1
100
AcDbLine
 10
46.17822216673783
 20
-2.716844345074794
 30
0.0
 11
46.73390072484696
 21
-3.227957389129419
 31
0.0
  0
LINE
  5
72C
330
18
100
AcDbEntity
  8
1
 62
     1
100
AcDbLine
 10
46.73390072484696
 20
-3.227957389129419
 30
0.0
 11
47.01174013563872
 21
-3.46116761206206
 31
0.0
  0
LINE
  5
72D
330
18
100
AcDbEntity
  8
1
 62
     1
100
AcDbLine
 10
47.01174013563872
 20
-3.46116761206206
 30
0.0
 11
47.2895792938473
 21
-3.677983508784405
 31
0.0
  0
LINE
  5
72E
330
18
100
AcDbEntity
  8
1
 62
     1
100
AcDbLine
 10
47.2895792938473
 20
-3.677983508784405
 30
0.0
 11
47.56741886463963
 21
-3.877377708201646
 31
0.0
  0
LINE
  5
72F
330
18
100
AcDbEntity
  8
1
 62
     1
100
AcDbLine
 10
47.56741886463963
 20
-3.877377708201646
 30
0.0
 11
47.84525840194296
 21
-4.058406011693092
 31
0.0
  0
LINE
  5
730
330
18
100
AcDbEntity
  8
1
 62
     1
100
AcDbLine
 10
47.84525840194296
 20
-4.058406011693092
 30
0.0
 11
48.12309762710291
 21
-4.220211031096725
 31
0.0
  0
LINE
  5
731
330
18
100
AcDbEntity
  8
1
 62
     1
100
AcDbLine
 10
48.12309762710291
 20
-4.220211031096725
 30
0.0
 11
48.40093745670676
 21
-4.362025948314979
 31
0.0
  0
LINE
  5
732
330
18
100
AcDbEntity
  8
1
 62
     1
100
AcDbLine
 10
48.40093745670676
 20
-4.362025948314979
 30
0.0
 11
48.67877719522826
 21
-4.483179316189355
 31
0.0
  0
LINE
  5
733
330
18
100
AcDbEntity
  8
1
 62
     1
100
AcDbLine
 10
48.67877719522826
 20
-4.483179316189355
 30
0.0
 11
48.95661657292899
 21
-4.583097284682539
 31
0.0
  0
LINE
  5
734
330
18
100
AcDbEntity
  8
1
 62
     1
100
AcDbLine
 10
48.95661657292899
 20
-4.583097284682539
 30
0.0
 11
49.0955423788327
 21
-4.624942098005667
 31
0.0
  0
LINE
  5
735
330
18
100
AcDbEntity
  8
1
 62
     1
100
AcDbLine
 10
49.0955423788327
 20
-4.624942098005667
 30
0.0
 11
49.23445670442793
 21
-4.661306272793044
 31
0.0
  0
LINE
  5
736
330
18
100
AcDbEntity
  8
1
 62
     1
100
AcDbLine
 10
49.23445670442793
 20
-4.661306272793044
 30
0.0
 11
49.37338125089286
 21
-4.692150703980834
 31
0.0
  0
LINE
  5
737
330
18
100
AcDbEntity
  8
1
 62
     1
100
AcDbLine
 10
49.37338125089286
 20
-4.692150703980834
 30
0.0
 11
49.51229667678384
 21
-4.717436035204678
 31
0.0
  0
LINE
  5
738
330
18
100
AcDbEntity
  8
1
 62
     1
100
AcDbLine
 10
49.51229667678384
 20
-4.717436035204678
 30
0.0
 11
49.65122055135981
 21
-4.737133928652012
 31
0.0
  0
LINE
  5
739
330
18
100
AcDbEntity
  8
1
 62
     1
100
AcDbLine
 10
49.65122055135981
 20
-4.737133928652012
 30
0.0
 11
49.79013628771744
 21
-4.751220646501884
 31
0.0
  0
LINE
  5
73A
330
18
100
AcDbEntity
  8
1
 62
     1
100
AcDbLine
 10
49.79013628771744
 20
-4.751220646501884
 30
0.0
 11
49.92905976162797
 21
-4.759678826633594
 31
0.0
  0
LINE
  5
73B
330
18
100
AcDbEntity
  8
1
 62
     1
100
AcDbLine
 10
49.92905976162797
 20
-4.759678826633594
 30
0.0
 11
50.06797646489179
 21
-4.762499999802461
 31
0.0
  0
LINE
  5
73C
330
18
100
AcDbEntity
  8
1
 62
     1
100
AcDbLine
 10
36.95043776328775
 20
2.813490312908562
 30
0.0
 11
37.50611717151892
 21
2.259506565802821
 31
0.0
  0
LINE
  5
73D
330
18
100
AcDbEntity
  8
1
 62
     1
100
AcDbLine
 10
37.50611717151892
 20
2.259506565802821
 30
0.0
 11
38.61747843053473
 21
1.034551636028951
 31
0.0
  0
LINE
  5
73E
330
18
100
AcDbEntity
  8
1
 62
     1
100
AcDbLine
 10
38.61747843053473
 20
1.034551636028951
 30
0.0
 11
40.84019298960565
 21
-1.551020120564658
 31
0.0
  0
LINE
  5
73F
330
18
100
AcDbEntity
  8
1
 62
     1
100
AcDbLine
 10
40.84019298960565
 20
-1.551020120564658
 30
0.0
 11
41.39587183256394
 21
-2.154316830552658
 31
0.0
  0
LINE
  5
740
330
18
100
AcDbEntity
  8
1
 62
     1
100
AcDbLine
 10
41.39587183256394
 20
-2.154316830552658
 30
0.0
 11
41.95155052325055
 21
-2.716844343504051
 31
0.0
  0
LINE
  5
741
330
18
100
AcDbEntity
  8
1
 62
     1
100
AcDbLine
 10
41.95155052325055
 20
-2.716844343504051
 30
0.0
 11
42.50722905805932
 21
-3.227957399425337
 31
0.0
  0
LINE
  5
742
330
18
100
AcDbEntity
  8
1
 62
     1
100
AcDbLine
 10
42.50722905805932
 20
-3.227957399425337
 30
0.0
 11
42.78506849533272
 21
-3.461167603976415
 31
0.0
  0
LINE
  5
743
330
18
100
AcDbEntity
  8
1
 62
     1
100
AcDbLine
 10
42.78506849533272
 20
-3.461167603976415
 30
0.0
 11
43.06290764674116
 21
-3.67798350393174
 31
0.0
  0
LINE
  5
744
330
18
100
AcDbEntity
  8
1
 62
     1
100
AcDbLine
 10
43.06290764674116
 20
-3.67798350393174
 30
0.0
 11
43.34074719271276
 21
-3.877377714843521
 31
0.0
  0
LINE
  5
745
330
18
100
AcDbEntity
  8
1
 62
     1
100
AcDbLine
 10
43.34074719271276
 20
-3.877377714843521
 30
0.0
 11
43.61858676329868
 21
-4.058406001094804
 31
0.0
  0
LINE
  5
746
330
18
100
AcDbEntity
  8
1
 62
     1
100
AcDbLine
 10
43.61858676329868
 20
-4.058406001094804
 30
0.0
 11
43.89642597509326
 21
-4.220211026156474
 31
0.0
  0
LINE
  5
747
330
18
100
AcDbEntity
  8
1
 62
     1
100
AcDbLine
 10
43.89642597509326
 20
-4.220211026156474
 30
0.0
 11
44.17426578015042
 21
-4.362025951680261
 31
0.0
  0
LINE
  5
748
330
18
100
AcDbEntity
  8
1
 62
     1
100
AcDbLine
 10
44.17426578015042
 20
-4.362025951680261
 30
0.0
 11
44.45210555644444
 21
-4.483179307039613
 31
0.0
  0
LINE
  5
749
330
18
100
AcDbEntity
  8
1
 62
     1
100
AcDbLine
 10
44.45210555644444
 20
-4.483179307039613
 30
0.0
 11
44.72994491700475
 21
-4.5830972807395
 31
0.0
  0
LINE
  5
74A
330
18
100
AcDbEntity
  8
1
 62
     1
100
AcDbLine
 10
44.72994491700475
 20
-4.5830972807395
 30
0.0
 11
44.86887071898585
 21
-4.624942094974756
 31
0.0
  0
LINE
  5
74B
330
18
100
AcDbEntity
  8
1
 62
     1
100
AcDbLine
 10
44.86887071898585
 20
-4.624942094974756
 30
0.0
 11
45.00778502388712
 21
-4.661306273764401
 31
0.0
  0
LINE
  5
74C
330
18
100
AcDbEntity
  8
1
 62
     1
100
AcDbLine
 10
45.00778502388712
 20
-4.661306273764401
 30
0.0
 11
45.14670959605115
 21
-4.692150701208579
 31
0.0
  0
LINE
  5
74D
330
18
100
AcDbEntity
  8
1
 62
     1
100
AcDbLine
 10
45.14670959605115
 20
-4.692150701208579
 30
0.0
 11
45.28562503633986
 21
-4.717436030721683
 31
0.0
  0
LINE
  5
74E
330
18
100
AcDbEntity
  8
1
 62
     1
100
AcDbLine
 10
45.28562503633986
 20
-4.717436030721683
 30
0.0
 11
45.42454888471318
 21
-4.73713392708077
 31
0.0
  0
LINE
  5
74F
330
18
100
AcDbEntity
  8
1
 62
     1
100
AcDbLine
 10
45.42454888471318
 20
-4.73713392708077
 30
0.0
 11
45.56346462748638
 21
-4.75122064526048
 31
0.0
  0
LINE
  5
750
330
18
100
AcDbEntity
  8
1
 62
     1
100
AcDbLine
 10
45.56346462748638
 20
-4.75122064526048
 30
0.0
 11
45.7023880993419
 21
-4.759678825795993
 31
0.0
  0
LINE
  5
751
330
18
100
AcDbEntity
  8
1
 62
     1
100
AcDbLine
 10
45.7023880993419
 20
-4.759678825795993
 30
0.0
 11
45.84130478101179
 21
-4.762499999802584
 31
0.0
  0
LINE
  5
752
330
18
100
AcDbEntity
  8
1
 62
     1
100
AcDbLine
 10
38.15664924542416
 20
-0.0000000000010485
 30
0.0
 11
39.74165034554556
 21
-1.822528779389849
 31
0.0
  0
LINE
  5
753
330
18
100
AcDbEntity
  8
1
 62
     1
100
AcDbLine
 10
39.74165034554556
 20
-1.822528779389849
 30
0.0
 11
40.53414953980631
 21
-2.645900637586869
 31
0.0
  0
LINE
  5
754
330
18
100
AcDbEntity
  8
1
 62
     1
100
AcDbLine
 10
40.53414953980631
 20
-2.645900637586869
 30
0.0
 11
40.93040528291941
 21
-3.021300166041136
 31
0.0
  0
LINE
  5
755
330
18
100
AcDbEntity
  8
1
 62
     1
100
AcDbLine
 10
40.93040528291941
 20
-3.021300166041136
 30
0.0
 11
41.32665529001604
 21
-3.367597985082613
 31
0.0
  0
LINE
  5
756
330
18
100
AcDbEntity
  8
1
 62
     1
100
AcDbLine
 10
41.32665529001604
 20
-3.367597985082613
 30
0.0
 11
41.72290286118537
 21
-3.681461398582162
 31
0.0
  0
LINE
  5
757
330
18
100
AcDbEntity
  8
1
 62
     1
100
AcDbLine
 10
41.72290286118537
 20
-3.681461398582162
 30
0.0
 11
42.11915902859203
 21
-3.959877051747497
 31
0.0
  0
LINE
  5
758
330
18
100
AcDbEntity
  8
1
 62
     1
100
AcDbLine
 10
42.11915902859203
 20
-3.959877051747497
 30
0.0
 11
42.31727992456602
 21
-4.084932429886951
 31
0.0
  0
LINE
  5
759
330
18
100
AcDbEntity
  8
1
 62
     1
100
AcDbLine
 10
42.31727992456602
 20
-4.084932429886951
 30
0.0
 11
42.51540355127544
 21
-4.20014943252853
 31
0.0
  0
LINE
  5
75A
330
18
100
AcDbEntity
  8
1
 62
     1
100
AcDbLine
 10
42.51540355127544
 20
-4.20014943252853
 30
0.0
 11
42.71353495083629
 21
-4.305251504760819
 31
0.0
  0
LINE
  5
75B
330
18
100
AcDbEntity
  8
1
 62
     1
100
AcDbLine
 10
42.71353495083629
 20
-4.305251504760819
 30
0.0
 11
42.91165709252922
 21
-4.399976659627929
 31
0.0
  0
LINE
  5
75C
330
18
100
AcDbEntity
  8
1
 62
     1
100
AcDbLine
 10
42.91165709252922
 20
-4.399976659627929
 30
0.0
 11
43.10977881449221
 21
-4.484102859985959
 31
0.0
  0
LINE
  5
75D
330
18
100
AcDbEntity
  8
1
 62
     1
100
AcDbLine
 10
43.10977881449221
 20
-4.484102859985959
 30
0.0
 11
43.30791003569581
 21
-4.557429864138605
 31
0.0
  0
LINE
  5
75E
330
18
100
AcDbEntity
  8
1
 62
     1
100
AcDbLine
 10
43.30791003569581
 20
-4.557429864138605
 30
0.0
 11
43.50603410513592
 21
-4.619774257537208
 31
0.0
  0
LINE
  5
75F
330
18
100
AcDbEntity
  8
1
 62
     1
100
AcDbLine
 10
43.50603410513592
 20
-4.619774257537208
 30
0.0
 11
43.70415479392744
 21
-4.670989236510509
 31
0.0
  0
LINE
  5
760
330
18
100
AcDbEntity
  8
1
 62
     1
100
AcDbLine
 10
43.70415479392744
 20
-4.670989236510509
 30
0.0
 11
43.90228388164174
 21
-4.710953624912789
 31
0.0
  0
LINE
  5
761
330
18
100
AcDbEntity
  8
1
 62
     1
100
AcDbLine
 10
43.90228388164174
 20
-4.710953624912789
 30
0.0
 11
44.10041084099853
 21
-4.739567263613951
 31
0.0
  0
LINE
  5
762
330
18
100
AcDbEntity
  8
1
 62
     1
100
AcDbLine
 10
44.10041084099853
 20
-4.739567263613951
 30
0.0
 11
44.29853120343245
 21
-4.756762772338516
 31
0.0
  0
LINE
  5
763
330
18
100
AcDbEntity
  8
1
 62
     1
100
AcDbLine
 10
44.29853120343245
 20
-4.756762772338516
 30
0.0
 11
44.49665671175065
 21
-4.762499999806366
 31
0.0
  0
LINE
  5
764
330
18
100
AcDbEntity
  8
1
 62
     1
100
AcDbLine
 10
38.15664924542544
 20
-0.0000000000000016
 30
0.0
 11
36.79842847428732
 21
0.9529722677577673
 31
0.0
  0
LINE
  5
765
330
18
100
AcDbEntity
  8
1
 62
     1
100
AcDbLine
 10
36.79842847428732
 20
0.9529722677577673
 30
0.0
 11
36.11931808871826
 21
1.395718089429045
 31
0.0
  0
LINE
  5
766
330
18
100
AcDbEntity
  8
1
 62
     1
100
AcDbLine
 10
36.11931808871826
 20
1.395718089429045
 30
0.0
 11
35.44020770314919
 21
1.799043921615191
 31
0.0
  0
LINE
  5
767
330
18
100
AcDbEntity
  8
1
 62
     1
100
AcDbLine
 10
35.44020770314919
 20
1.799043921615191
 30
0.0
 11
34.76109731758014
 21
2.151559547943648
 31
0.0
  0
LINE
  5
768
330
18
100
AcDbEntity
  8
1
 62
     1
100
AcDbLine
 10
34.76109731758014
 20
2.151559547943648
 30
0.0
 11
34.4215421247956
 21
2.305587270820874
 31
0.0
  0
LINE
  5
769
330
18
100
AcDbEntity
  8
1
 62
     1
100
AcDbLine
 10
34.4215421247956
 20
2.305587270820874
 30
0.0
 11
34.08198693201108
 21
2.443306702750637
 31
0.0
  0
LINE
  5
76A
330
18
100
AcDbEntity
  8
1
 62
     1
100
AcDbLine
 10
34.08198693201108
 20
2.443306702750637
 30
0.0
 11
33.74243173922655
 21
2.563744165093122
 31
0.0
  0
LINE
  5
76B
330
18
100
AcDbEntity
  8
1
 62
     1
100
AcDbLine
 10
33.74243173922655
 20
2.563744165093122
 30
0.0
 11
33.40287654644201
 21
2.666047800911809
 31
0.0
  0
LINE
  5
76C
330
18
100
AcDbEntity
  8
1
 62
     1
100
AcDbLine
 10
33.40287654644201
 20
2.666047800911809
 30
0.0
 11
33.06332135365749
 21
2.749493469963735
 31
0.0
  0
LINE
  5
76D
330
18
100
AcDbEntity
  8
1
 62
     1
100
AcDbLine
 10
33.06332135365749
 20
2.749493469963735
 30
0.0
 11
32.72376616087296
 21
2.813490324408358
 31
0.0
  0
LINE
  5
76E
330
18
100
AcDbEntity
  8
1
 62
     1
100
AcDbLine
 10
30.37562978549747
 20
4.462181315120581
 30
0.0
 11
30.5557613063379
 21
4.531995653532351
 31
0.0
  0
LINE
  5
76F
330
18
100
AcDbEntity
  8
1
 62
     1
100
AcDbLine
 10
30.5557613063379
 20
4.531995653532351
 30
0.0
 11
30.7358825008824
 21
4.592781972776389
 31
0.0
  0
LINE
  5
770
330
18
100
AcDbEntity
  8
1
 62
     1
100
AcDbLine
 10
30.7358825008824
 20
4.592781972776389
 30
0.0
 11
30.91601325869042
 21
4.644426105278807
 31
0.0
  0
LINE
  5
771
330
18
100
AcDbEntity
  8
1
 62
     1
100
AcDbLine
 10
30.91601325869042
 20
4.644426105278807
 30
0.0
 11
31.09614008915025
 21
4.68681928740787
 31
0.0
  0
LINE
  5
772
330
18
100
AcDbEntity
  8
1
 62
     1
100
AcDbLine
 10
31.09614008915025
 20
4.68681928740787
 30
0.0
 11
31.27626200680163
 21
4.719879593720731
 31
0.0
  0
LINE
  5
773
330
18
100
AcDbEntity
  8
1
 62
     1
100
AcDbLine
 10
31.27626200680163
 20
4.719879593720731
 30
0.0
 11
31.45639522323605
 21
4.743542513969946
 31
0.0
  0
LINE
  5
774
330
18
100
AcDbEntity
  8
1
 62
     1
100
AcDbLine
 10
31.45639522323605
 20
4.743542513969946
 30
0.0
 11
31.63651837121243
 21
4.757757639487266
 31
0.0
  0
LINE
  5
775
330
18
100
AcDbEntity
  8
1
 62
     1
100
AcDbLine
 10
31.63651837121243
 20
4.757757639487266
 30
0.0
 11
31.8166417788348
 21
4.762500000000001
 31
0.0
  0
LINE
  5
776
330
18
100
AcDbEntity
  8
1
 62
     1
100
AcDbLine
 10
32.72376611667274
 20
2.813490277982545
 30
0.0
 11
33.27944554100379
 21
2.259506543721105
 31
0.0
  0
LINE
  5
777
330
18
100
AcDbEntity
  8
1
 62
     1
100
AcDbLine
 10
33.27944554100379
 20
2.259506543721105
 30
0.0
 11
34.39080677941621
 21
1.034551603695717
 31
0.0
  0
LINE
  5
778
330
18
100
AcDbEntity
  8
1
 62
     1
100
AcDbLine
 10
34.39080677941621
 20
1.034551603695717
 30
0.0
 11
36.61352133719046
 21
-1.551020135214514
 31
0.0
  0
LINE
  5
779
330
18
100
AcDbEntity
  8
1
 62
     1
100
AcDbLine
 10
36.61352133719046
 20
-1.551020135214514
 30
0.0
 11
37.16920020187109
 21
-2.154316823861827
 31
0.0
  0
LINE
  5
77A
330
18
100
AcDbEntity
  8
1
 62
     1
100
AcDbLine
 10
37.16920020187109
 20
-2.154316823861827
 30
0.0
 11
37.72487887971482
 21
-2.716844341865727
 31
0.0
  0
LINE
  5
77B
330
18
100
AcDbEntity
  8
1
 62
     1
100
AcDbLine
 10
37.72487887971482
 20
-2.716844341865727
 30
0.0
 11
38.28055739198594
 21
-3.227957409168472
 31
0.0
  0
LINE
  5
77C
330
18
100
AcDbEntity
  8
1
 62
     1
100
AcDbLine
 10
38.28055739198594
 20
-3.227957409168472
 30
0.0
 11
38.55839685479379
 21
-3.461167595921054
 31
0.0
  0
LINE
  5
77D
330
18
100
AcDbEntity
  8
1
 62
     1
100
AcDbLine
 10
38.55839685479379
 20
-3.461167595921054
 30
0.0
 11
38.83623599969139
 21
-3.677983498893686
 31
0.0
  0
LINE
  5
77E
330
18
100
AcDbEntity
  8
1
 62
     1
100
AcDbLine
 10
38.83623599969139
 20
-3.677983498893686
 30
0.0
 11
39.11407552126412
 21
-3.877377721142439
 31
0.0
  0
LINE
  5
77F
330
18
100
AcDbEntity
  8
1
 62
     1
100
AcDbLine
 10
39.11407552126412
 20
-3.877377721142439
 30
0.0
 11
39.39191512415593
 21
-4.058405990622572
 31
0.0
  0
LINE
  5
780
330
18
100
AcDbEntity
  8
1
 62
     1
100
AcDbLine
 10
39.39191512415593
 20
-4.058405990622572
 30
0.0
 11
39.66975432377325
 21
-4.220211020814165
 31
0.0
  0
LINE
  5
781
330
18
100
AcDbEntity
  8
1
 62
     1
100
AcDbLine
 10
39.66975432377325
 20
-4.220211020814165
 30
0.0
 11
39.9475941038048
 21
-4.362025954883622
 31
0.0
  0
LINE
  5
782
330
18
100
AcDbEntity
  8
1
 62
     1
100
AcDbLine
 10
39.9475941038048
 20
-4.362025954883622
 30
0.0
 11
40.22543391690665
 21
-4.483179298034149
 31
0.0
  0
LINE
  5
783
330
18
100
AcDbEntity
  8
1
 62
     1
100
AcDbLine
 10
40.22543391690665
 20
-4.483179298034149
 30
0.0
 11
40.50327326217614
 21
-4.583097276458318
 31
0.0
  0
LINE
  5
784
330
18
100
AcDbEntity
  8
1
 62
     1
100
AcDbLine
 10
40.50327326217614
 20
-4.583097276458318
 30
0.0
 11
40.64219905763887
 21
-4.624942092141775
 31
0.0
  0
LINE
  5
785
330
18
100
AcDbEntity
  8
1
 62
     1
100
AcDbLine
 10
40.64219905763887
 20
-4.624942092141775
 30
0.0
 11
40.78111334324642
 21
-4.661306274698816
 31
0.0
  0
LINE
  5
786
330
18
100
AcDbEntity
  8
1
 62
     1
100
AcDbLine
 10
40.78111334324642
 20
-4.661306274698816
 30
0.0
 11
40.92003794246711
 21
-4.692150698209969
 31
0.0
  0
LINE
  5
787
330
18
100
AcDbEntity
  8
1
 62
     1
100
AcDbLine
 10
40.92003794246711
 20
-4.692150698209969
 30
0.0
 11
41.05895339499236
 21
-4.717436026310582
 31
0.0
  0
LINE
  5
788
330
18
100
AcDbEntity
  8
1
 62
     1
100
AcDbLine
 10
41.05895339499236
 20
-4.717436026310582
 30
0.0
 11
41.19787721798912
 21
-4.737133925521102
 31
0.0
  0
LINE
  5
789
330
18
100
AcDbEntity
  8
1
 62
     1
100
AcDbLine
 10
41.19787721798912
 20
-4.737133925521102
 30
0.0
 11
41.33679296856452
 21
-4.751220643917955
 31
0.0
  0
LINE
  5
78A
330
18
100
AcDbEntity
  8
1
 62
     1
100
AcDbLine
 10
41.33679296856452
 20
-4.751220643917955
 30
0.0
 11
41.47571643610753
 21
-4.759678824929358
 31
0.0
  0
LINE
  5
78B
330
18
100
AcDbEntity
  8
1
 62
     1
100
AcDbLine
 10
41.47571643610753
 20
-4.759678824929358
 30
0.0
 11
41.61463309676824
 21
-4.762499999802708
 31
0.0
  0
LINE
  5
78C
330
18
100
AcDbEntity
  8
1
 62
     1
100
AcDbLine
 10
42.38332088967254
 20
-0.0000000000010856
 30
0.0
 11
43.96832199170829
 21
-1.822528777843739
 31
0.0
  0
LINE
  5
78D
330
18
100
AcDbEntity
  8
1
 62
     1
100
AcDbLine
 10
43.96832199170829
 20
-1.822528777843739
 30
0.0
 11
44.7608211873002
 21
-2.64590063525351
 31
0.0
  0
LINE
  5
78E
330
18
100
AcDbEntity
  8
1
 62
     1
100
AcDbLine
 10
44.7608211873002
 20
-2.64590063525351
 30
0.0
 11
45.15707693000904
 21
-3.021300164142381
 31
0.0
  0
LINE
  5
78F
330
18
100
AcDbEntity
  8
1
 62
     1
100
AcDbLine
 10
45.15707693000904
 20
-3.021300164142381
 30
0.0
 11
45.55332693813209
 21
-3.367597982727921
 31
0.0
  0
LINE
  5
790
330
18
100
AcDbEntity
  8
1
 62
     1
100
AcDbLine
 10
45.55332693813209
 20
-3.367597982727921
 30
0.0
 11
45.94957450858141
 21
-3.681461396843506
 31
0.0
  0
LINE
  5
791
330
18
100
AcDbEntity
  8
1
 62
     1
100
AcDbLine
 10
45.94957450858141
 20
-3.681461396843506
 30
0.0
 11
46.34583067614652
 21
-3.959877050185208
 31
0.0
  0
LINE
  5
792
330
18
100
AcDbEntity
  8
1
 62
     1
100
AcDbLine
 10
46.34583067614652
 20
-3.959877050185208
 30
0.0
 11
46.54395157059308
 21
-4.08493242905308
 31
0.0
  0
LINE
  5
793
330
18
100
AcDbEntity
  8
1
 62
     1
100
AcDbLine
 10
46.54395157059308
 20
-4.08493242905308
 30
0.0
 11
46.74207519845703
 21
-4.200149431320765
 31
0.0
  0
LINE
  5
794
330
18
100
AcDbEntity
  8
1
 62
     1
100
AcDbLine
 10
46.74207519845703
 20
-4.200149431320765
 30
0.0
 11
46.94020659622972
 21
-4.305251504308726
 31
0.0
  0
LINE
  5
795
330
18
100
AcDbEntity
  8
1
 62
     1
100
AcDbLine
 10
46.94020659622972
 20
-4.305251504308726
 30
0.0
 11
47.13832873862881
 21
-4.39997665905513
 31
0.0
  0
LINE
  5
796
330
18
100
AcDbEntity
  8
1
 62
     1
100
AcDbLine
 10
47.13832873862881
 20
-4.39997665905513
 30
0.0
 11
47.3364504613502
 21
-4.484102859206407
 31
0.0
  0
LINE
  5
797
330
18
100
AcDbEntity
  8
1
 62
     1
100
AcDbLine
 10
47.3364504613502
 20
-4.484102859206407
 30
0.0
 11
47.53458168178707
 21
-4.557429863659418
 31
0.0
  0
LINE
  5
798
330
18
100
AcDbEntity
  8
1
 62
     1
100
AcDbLine
 10
47.53458168178707
 20
-4.557429863659418
 30
0.0
 11
47.73270575152255
 21
-4.619774257045061
 31
0.0
  0
LINE
  5
799
330
18
100
AcDbEntity
  8
1
 62
     1
100
AcDbLine
 10
47.73270575152255
 20
-4.619774257045061
 30
0.0
 11
47.93082643863259
 21
-4.670989236455773
 31
0.0
  0
LINE
  5
79A
330
18
100
AcDbEntity
  8
1
 62
     1
100
AcDbLine
 10
47.93082643863259
 20
-4.670989236455773
 30
0.0
 11
48.12895552935242
 21
-4.710953624469464
 31
0.0
  0
LINE
  5
79B
330
18
100
AcDbEntity
  8
1
 62
     1
100
AcDbLine
 10
48.12895552935242
 20
-4.710953624469464
 30
0.0
 11
48.3270824867179
 21
-4.739567263474084
 31
0.0
  0
LINE
  5
79C
330
18
100
AcDbEntity
  8
1
 62
     1
100
AcDbLine
 10
48.3270824867179
 20
-4.739567263474084
 30
0.0
 11
48.52520285075262
 21
-4.756762772169611
 31
0.0
  0
LINE
  5
79D
330
18
100
AcDbEntity
  8
1
 62
     1
100
AcDbLine
 10
48.52520285075262
 20
-4.756762772169611
 30
0.0
 11
48.72332835589093
 21
-4.762499999806399
 31
0.0
  0
LINE
  5
79E
330
18
100
AcDbEntity
  8
1
 62
     1
100
AcDbLine
 10
42.38332088967384
 20
0.0000000000000005
 30
0.0
 11
41.02510011921201
 21
0.9529722570934881
 31
0.0
  0
LINE
  5
79F
330
18
100
AcDbEntity
  8
1
 62
     1
100
AcDbLine
 10
41.02510011921201
 20
0.9529722570934881
 30
0.0
 11
40.34598973398109
 21
1.395718108273464
 31
0.0
  0
LINE
  5
7A0
330
18
100
AcDbEntity
  8
1
 62
     1
100
AcDbLine
 10
40.34598973398109
 20
1.395718108273464
 30
0.0
 11
39.66687934875016
 21
1.799043910891776
 31
0.0
  0
LINE
  5
7A1
330
18
100
AcDbEntity
  8
1
 62
     1
100
AcDbLine
 10
39.66687934875016
 20
1.799043910891776
 30
0.0
 11
38.98776896351923
 21
2.151559551226687
 31
0.0
  0
LINE
  5
7A2
330
18
100
AcDbEntity
  8
1
 62
     1
100
AcDbLine
 10
38.98776896351923
 20
2.151559551226687
 30
0.0
 11
38.64821377090378
 21
2.305587300252636
 31
0.0
  0
LINE
  5
7A3
330
18
100
AcDbEntity
  8
1
 62
     1
100
AcDbLine
 10
38.64821377090378
 20
2.305587300252636
 30
0.0
 11
38.3086585782883
 21
2.443306718148532
 31
0.0
  0
LINE
  5
7A4
330
18
100
AcDbEntity
  8
1
 62
     1
100
AcDbLine
 10
38.3086585782883
 20
2.443306718148532
 30
0.0
 11
37.96910338567284
 21
2.563744149057071
 31
0.0
  0
LINE
  5
7A5
330
18
100
AcDbEntity
  8
1
 62
     1
100
AcDbLine
 10
37.96910338567284
 20
2.563744149057071
 30
0.0
 11
37.62954819305739
 21
2.666047767658889
 31
0.0
  0
LINE
  5
7A6
330
18
100
AcDbEntity
  8
1
 62
     1
100
AcDbLine
 10
37.62954819305739
 20
2.666047767658889
 30
0.0
 11
37.28999300044191
 21
2.749493470753858
 31
0.0
  0
LINE
  5
7A7
330
18
100
AcDbEntity
  8
1
 62
     1
100
AcDbLine
 10
37.28999300044191
 20
2.749493470753858
 30
0.0
 11
36.95043780782645
 21
2.813490359690358
 31
0.0
  0
LINE
  5
7A8
330
18
100
AcDbEntity
  8
1
 62
     1
100
AcDbLine
 10
34.60230137586639
 20
4.462181328574536
 30
0.0
 11
34.78243055523313
 21
4.531994696956136
 31
0.0
  0
LINE
  5
7A9
330
18
100
AcDbEntity
  8
1
 62
     1
100
AcDbLine
 10
34.78243055523313
 20
4.531994696956136
 30
0.0
 11
34.96255189072863
 21
4.592781370546299
 31
0.0
  0
LINE
  5
7AA
330
18
100
AcDbEntity
  8
1
 62
     1
100
AcDbLine
 10
34.96255189072863
 20
4.592781370546299
 30
0.0
 11
35.14268431211791
 21
4.644425879287883
 31
0.0
  0
LINE
  5
7AB
330
18
100
AcDbEntity
  8
1
 62
     1
100
AcDbLine
 10
35.14268431211791
 20
4.644425879287883
 30
0.0
 11
35.32280893062394
 21
4.686818664085428
 31
0.0
  0
LINE
  5
7AC
330
18
100
AcDbEntity
  8
1
 62
     1
100
AcDbLine
 10
35.32280893062394
 20
4.686818664085428
 30
0.0
 11
35.5029319661201
 21
4.719879446643088
 31
0.0
  0
LINE
  5
7AD
330
18
100
AcDbEntity
  8
1
 62
     1
100
AcDbLine
 10
35.5029319661201
 20
4.719879446643088
 30
0.0
 11
35.68306517069229
 21
4.74354221738245
 31
0.0
  0
LINE
  5
7AE
330
18
100
AcDbEntity
  8
1
 62
     1
100
AcDbLine
 10
35.68306517069229
 20
4.74354221738245
 30
0.0
 11
35.86318610541127
 21
4.757757406877574
 31
0.0
  0
LINE
  5
7AF
330
18
100
AcDbEntity
  8
1
 62
     1
100
AcDbLine
 10
35.86318610541127
 20
4.757757406877574
 30
0.0
 11
36.04331342326097
 21
4.7625
 31
0.0
  0
LINE
  5
7B0
330
18
100
AcDbEntity
  8
SK1
100
AcDbLine
 10
-35.52375000000001
 20
4.7625
 30
0.0
 11
-36.00000000000001
 21
4.28625
 31
0.0
  0
LINE
  5
7B1
330
18
100
AcDbEntity
  8
SK1
100
AcDbLine
 10
-36.00000000000001
 20
4.28625
 30
0.0
 11
-36.00000000000001
 21
4.281988638992177
 31
0.0
  0
LINE
  5
7B2
330
18
100
AcDbEntity
  8
SK1
100
AcDbLine
 10
-36.00000000000001
 20
4.281988638992177
 30
0.0
 11
-36.00000000000001
 21
3.901659308272384
 31
0.0
  0
LINE
  5
7B3
330
18
100
AcDbEntity
  8
SK1
100
AcDbLine
 10
-36.00000000000001
 20
3.901659308272384
 30
0.0
 11
-36.00000000000001
 21
-4.28625
 31
0.0
  0
LINE
  5
7B4
330
18
100
AcDbEntity
  8
SK1
100
AcDbLine
 10
-35.52375000000001
 20
4.7625
 30
0.0
 11
0.0000000000000036
 21
4.7625
 31
0.0
  0
LINE
  5
7B5
330
18
100
AcDbEntity
  8
SK1
100
AcDbLine
 10
-35.52375000000001
 20
4.7625
 30
0.0
 11
-35.52375000000001
 21
4.757765154435752
 31
0.0
  0
LINE
  5
7B6
330
18
100
AcDbEntity
  8
SK1
100
AcDbLine
 10
-35.52375000000001
 20
4.757765154435752
 30
0.0
 11
-35.52375
 21
4.335177009191538
 31
0.0
  0
LINE
  5
7B7
330
18
100
AcDbEntity
  8
SK1
100
AcDbLine
 10
-35.52375
 20
4.335177009191538
 30
0.0
 11
-35.52375000000001
 21
-4.7625
 31
0.0
  0
LINE
  5
7B8
330
18
100
AcDbEntity
  8
SK1
100
AcDbLine
 10
-36.00000000000001
 20
-4.28625
 30
0.0
 11
-35.52375000000001
 21
-4.7625
 31
0.0
  0
LINE
  5
7B9
330
18
100
AcDbEntity
  8
SK1
100
AcDbLine
 10
-35.52375000000001
 20
-4.762499999999998
 30
0.0
 11
0.0000000000000036
 21
-4.762499999999998
 31
0.0
  0
DIMENSION
  5
7BA
330
18
100
AcDbEntity
  8
2
100
AcDbDimension
  2
*D0
 10
67.90000000000002
 20
-4.762499999999948
 30
0.0
 11
65.50225000000005
 21
-14.97674999999995
 31
0.0
 70
    32
  1
%%c<>
 71
     5
 42
9.525
  3
STANDARD
100
AcDbAlignedDimension
 13
52.9
 23
4.7625
 33
0.0
 14
52.9
 24
-4.7625
 34
0.0
 50
90.0000000000002
100
AcDbRotatedDimension
  0
DIMENSION
  5
7C8
330
18
100
AcDbEntity
  8
2
100
AcDbDimension
  2
*D1
 10
52.9
 20
75.0
 30
0.0
 11
26.45
 21
77.39775
 31
0.0
 70
    32
  1
<>
 71
     5
 42
52.9
  3
STANDARD
100
AcDbAlignedDimension
 13
0.0
 23
0.0
 33
0.0
 14
52.9
 24
0.0
 34
0.0
100
AcDbRotatedDimension
  0
DIMENSION
  5
7D5
330
18
100
AcDbEntity
  8
2
100
AcDbDimension
  2
*D2
 10
52.9
 20
60.0
 30
0.0
 11
38.6125
 21
62.39775
 31
0.0
 70
    32
  1
<>
 71
     5
 42
28.575
  3
STANDARD
100
AcDbAlignedDimension
 13
24.325
 23
4.7625
 33
0.0
 14
52.9
 24
4.7625
 34
0.0
100
AcDbRotatedDimension
  0
DIMENSION
  5
7E2
330
18
100
AcDbEntity
  8
SK2
100
AcDbDimension
  2
*D3
 10
-50.9999999999757
 20
-4.76250000007655
 30
0.0
 11
-53.39774999992358
 21
-14.97675000008878
 31
0.0
 70
    32
  1
%%c<>
 71
     5
 42
9.525
  3
STANDARD
100
AcDbAlignedDimension
 13
-36.00000000000001
 23
4.7625
 33
0.0
 14
-36.00000000000001
 24
-4.7625
 34
0.0
 50
90.0000000002924
100
AcDbRotatedDimension
  0
DIMENSION
  5
7F0
330
18
100
AcDbEntity
  8
SK2
100
AcDbDimension
  2
*D4
 10
52.9
 20
90.0
 30
0.0
 11
8.449999999999996
 21
92.39775
 31
0.0
 70
    32
  1
<>
 71
     5
 42
88.9
  3
STANDARD
100
AcDbAlignedDimension
 13
-36.00000000000001
 23
0.0
 33
0.0
 14
52.9
 24
0.0
 34
0.0
100
AcDbRotatedDimension
  0
DIMENSION
  5
7FD
330
18
100
AcDbEntity
  8
2
100
AcDbDimension
  2
*D5
 10
52.106
 20
-3.9685
 30
0.0
 11
55.21412878924986
 21
-21.595574295503
 31
0.0
 70
   164
  1
<>
 71
     5
 42
0.7940000000000005
  3
STANDARD
100
AcDbRadialDimension
 15
52.24387665306755
 25
-4.750437355891694
 35
0.0
 40
0.0
  0
ENDSEC
  0
SECTION
  2
OBJECTS
  0
DICTIONARY
  5
C
330
0
100
AcDbDictionary
281
     1
  3
ACAD_COLOR
350
387
  3
ACAD_GROUP
350
D
  3
ACAD_LAYOUT
350
301
  3
ACAD_MATERIAL
350
386
  3
ACAD_MLEADERSTYLE
350
3DE
  3
ACAD_MLINESTYLE
350
E
  3
ACAD_PLOTSETTINGS
350
302
  3
ACAD_PLOTSTYLENAME
350
2FF
  3
ACAD_SCALELIST
350
3A0
  3
ACAD_TABLESTYLE
350
388
  3
ACAD_VISUALSTYLE
350
3C2
  3
ACDBHEADERROUNDTRIPXREC
350
80A
  3
AcDbVariableDictionary
350
357
  0
DICTIONARY
  5
80D
330
8
100
AcDbDictionary
280
     1
281
     1
  3
ACAD_XREC_ROUNDTRIP
360
80E
  0
DICTIONARY
  5
387
102
{ACAD_REACTORS
330
C
102
}
330
C
100
AcDbDictionary
281
     1
  0
DICTIONARY
  5
D
102
{ACAD_REACTORS
330
C
102
}
330
C
100
AcDbDictionary
281
     1
  0
DICTIONARY
  5
301
102
{ACAD_REACTORS
330
C
102
}
330
C
100
AcDbDictionary
281
     1
  3
Layout1
350
33B
  3
Model
350
303
  0
DICTIONARY
  5
386
102
{ACAD_REACTORS
330
C
102
}
330
C
100
AcDbDictionary
281
     1
  3
ByBlock
350
3DC
  3
ByLayer
350
3DB
  3
Global
350
3DD
  0
DICTIONARY
  5
3DE
102
{ACAD_REACTORS
330
C
102
}
330
C
100
AcDbDictionary
281
     1
  3
Standard
350
3DF
  0
DICTIONARY
  5
E
102
{ACAD_REACTORS
330
C
102
}
330
C
100
AcDbDictionary
281
     1
  3
STANDARD
350
1B
  0
DICTIONARY
  5
302
102
{ACAD_REACTORS
330
C
102
}
330
C
100
AcDbDictionary
281
     1
  0
ACDBDICTIONARYWDFLT
  5
2FF
102
{ACAD_REACTORS
330
C
102
}
330
C
100
AcDbDictionary
281
     1
  3
Normal
350
300
100
AcDbDictionaryWithDefault
340
300
  0
DICTIONARY
  5
3A0
102
{ACAD_REACTORS
330
C
102
}
330
C
100
AcDbDictionary
281
     1
  3
A0
350
3A1
  3
A1
350
3A2
  3
A2
350
3A3
  3
A3
350
3A4
  3
A4
350
3A5
  3
A5
350
3A6
  3
A6
350
3A7
  3
A7
350
3A8
  3
A8
350
3A9
  3
A9
350
3AA
  3
B0
350
3AB
  3
B1
350
3AC
  3
B2
350
3AD
  3
B3
350
3AE
  3
B4
350
3AF
  3
B5
350
3B0
  3
B6
350
3B1
  3
B7
350
3B2
  3
B8
350
3B3
  3
B9
350
3B4
  3
C0
350
3B5
  3
C1
350
3B6
  3
C2
350
3B7
  3
C3
350
3B8
  3
C4
350
3B9
  3
C5
350
3BA
  3
C6
350
3BB
  3
C7
350
3BC
  3
C8
350
3BD
  3
C9
350
3BE
  3
D0
350
3BF
  3
D1
350
3C0
  3
D2
350
3C1
  0
DICTIONARY
  5
388
102
{ACAD_REACTORS
330
C
102
}
330
C
100
AcDbDictionary
281
     1
  3
Standard
350
389
  0
DICTIONARY
  5
3C2
102
{ACAD_REACTORS
330
C
102
}
330
C
100
AcDbDictionary
281
     1
  3
2dWireframe
350
3C7
  3
Basic
350
3CA
  3
Brighten
350
3CE
  3
ColorChange
350
3D2
  3
Conceptual
350
3CC
  3
Dim
350
3CD
  3
EdgeColorOff
350
3D5
  3
Facepattern
350
3D1
  3
Flat
350
3C3
  3
FlatWithEdges
350
3C4
  3
Gouraud
350
3C5
  3
GouraudWithEdges
350
3C6
  3
Hidden
350
3C9
  3
JitterOff
350
3D3
  3
Linepattern
350
3D0
  3
OverhangOff
350
3D4
  3
Realistic
350
3CB
  3
Shaded
350
3DA
  3
Shaded with edges
350
3D9
  3
Shades of Gray
350
3D6
  3
Sketchy
350
3D7
  3
Thicken
350
3CF
  3
Wireframe
350
3C8
  3
X-Ray
350
3D8
  0
DICTIONARY
  5
80A
102
{ACAD_REACTORS
330
C
102
}
330
C
100
AcDbDictionary
281
     1
  3
COLORDICT
350
80B
  3
MATERIALDICT
350
80C
  0
DICTIONARY
  5
357
102
{ACAD_REACTORS
330
C
102
}
330
C
100
AcDbDictionary
281
     1
  3
CANNOSCALE
350
80F
  3
CMLEADERSTYLE
350
806
  3
CTABLESTYLE
350
38D
  3
DIMASSOC
350
359
  3
HIDETEXT
350
358
  3
MSLTSCALE
350
807
  3
PROJECTNAME
350
38E
  0
XRECORD
  5
80E
102
{ACAD_REACTORS
330
80D
102
}
330
80D
100
AcDbXrecord
280
     1
102
VTR_0.000_0.000_1.000_1.000_VISUALSTYLE
340
3C7
102
VTR_0.000_0.000_1.000_1.000_GRIDDISPLAY
 70
     3
102
VTR_0.000_0.000_1.000_1.000_GRIDMAJOR
 70
     5
102
VTR_0.000_0.000_1.000_1.000_DEFAULTLIGHTING
280
     1
102
VTR_0.000_0.000_1.000_1.000_DEFAULTLIGHTINGTYPE
 70
     1
102
VTR_0.000_0.000_1.000_1.000_BRIGHTNESS
141
0.0
102
VTR_0.000_0.000_1.000_1.000_CONTRAST
142
0.0
  0
LAYOUT
  5
33B
102
{ACAD_REACTORS
330
301
102
}
330
301
100
AcDbPlotSettings
  1

  2
Lexmark Optra PS2
  4

  6

 40
0.0
 41
0.0
 42
0.0
 43
0.0
 44
0.0
 45
0.0
 46
0.0
 47
0.0
 48
0.0
 49
0.0
140
0.0
141
0.0
142
1.0
143
1.0
 70
   688
 72
     0
 73
     0
 74
     5
  7
monochrome.ctb
 75
    16
147
1.0
148
0.0
149
0.0
100
AcDbLayout
  1
Layout1
 70
     1
 71
     1
 10
0.0
 20
0.0
 11
12.0
 21
9.0
 12
0.0
 22
0.0
 32
0.0
 14
0.0
 24
0.0
 34
0.0
 15
0.0
 25
0.0
 35
0.0
146
0.0
 13
0.0
 23
0.0
 33
0.0
 16
1.0
 26
0.0
 36
0.0
 17
0.0
 27
1.0
 37
0.0
 76
     0
330
338
  0
LAYOUT
  5
303
102
{ACAD_REACTORS
330
301
102
}
330
301
100
AcDbPlotSettings
  1

  2
Lexmark Optra Rx
  4
A4
  6

 40
6.805083274841307
 41
5.535083293914794
 42
6.974411010742187
 43
7.14373779296875
 44
209.9733276367186
 45
296.9259948730469
 46
0.0
 47
0.0
 48
0.0
 49
0.0
140
0.0
141
0.0
142
1.0
143
2.976565420630886
 70
 11952
 72
     1
 73
     1
 74
     0
  7
monochrome.ctb
 75
     0
147
0.335957675604539
148
204.1199660668592
149
172.3933209647495
100
AcDbLayout
  1
Model
 70
     1
 71
     0
 10
0.0
 20
0.0
 11
12.0
 21
9.0
 12
0.0
 22
0.0
 32
0.0
 14
0.0
 24
0.0
 34
0.0
 15
0.0
 25
0.0
 35
0.0
146
0.0
 13
0.0
 23
0.0
 33
0.0
 16
1.0
 26
0.0
 36
0.0
 17
0.0
 27
1.0
 37
0.0
 76
     0
330
18
331
39A
  0
MATERIAL
  5
3DC
102
{ACAD_REACTORS
330
386
102
}
102
{ACAD_XDICTIONARY
360
812
102
}
330
386
100
AcDbMaterial
  1
ByBlock
  0
MATERIAL
  5
3DB
102
{ACAD_REACTORS
330
386
102
}
102
{ACAD_XDICTIONARY
360
810
102
}
330
386
100
AcDbMaterial
  1
ByLayer
  0
MATERIAL
  5
3DD
102
{ACAD_REACTORS
330
386
102
}
102
{ACAD_XDICTIONARY
360
814
102
}
330
386
100
AcDbMaterial
  1
Global
  0
MLEADERSTYLE
  5
3DF
102
{ACAD_REACTORS
330
3DE
102
}
102
{ACAD_XDICTIONARY
360
847
102
}
330
3DE
100
AcDbMLeaderStyle
170
     2
171
     1
172
     0
 90
        2
 40
0.0
 41
0.0
173
     1
 91
-1056964608
340
12
 92
       -2
290
     1
 42
2.0
291
     1
 43
8.0
  3
Standard
341
0
 44
4.0
300

342
10
174
     1
178
     6
175
     1
176
     0
 93
-1056964608
 45
4.0
292
     0
297
     0
 46
4.0
343
0
 94
-1056964608
 47
1.0
 49
1.0
140
1.0
293
     1
141
0.0
294
     1
177
     0
142
1.0
295
     0
296
     0
143
3.75
1001
ACAD_MLEADERVER
1070
     2
  0
MLINESTYLE
  5
1B
102
{ACAD_REACTORS
330
E
102
}
330
E
100
AcDbMlineStyle
  2
STANDARD
 70
     0
  3

 62
     0
 51
90.0
 52
90.0
 71
     2
 49
0.5
 62
   256
  6
BYLAYER
 49
-0.5
 62
   256
  6
BYLAYER
  0
ACDBPLACEHOLDER
  5
300
102
{ACAD_REACTORS
330
2FF
102
}
330
2FF
  0
SCALE
  5
3A1
102
{ACAD_REACTORS
330
3A0
102
}
330
3A0
100
AcDbScale
 70
     0
300
1:1
140
1.0
141
1.0
290
     1
  0
SCALE
  5
3A2
102
{ACAD_REACTORS
330
3A0
102
}
330
3A0
100
AcDbScale
 70
     0
300
1:2
140
1.0
141
2.0
290
     0
  0
SCALE
  5
3A3
102
{ACAD_REACTORS
330
3A0
102
}
330
3A0
100
AcDbScale
 70
     0
300
1:4
140
1.0
141
4.0
290
     0
  0
SCALE
  5
3A4
102
{ACAD_REACTORS
330
3A0
102
}
330
3A0
100
AcDbScale
 70
     0
300
1:5
140
1.0
141
5.0
290
     0
  0
SCALE
  5
3A5
102
{ACAD_REACTORS
330
3A0
102
}
330
3A0
100
AcDbScale
 70
     0
300
1:8
140
1.0
141
8.0
290
     0
  0
SCALE
  5
3A6
102
{ACAD_REACTORS
330
3A0
102
}
330
3A0
100
AcDbScale
 70
     0
300
1:10
140
1.0
141
10.0
290
     0
  0
SCALE
  5
3A7
102
{ACAD_REACTORS
330
3A0
102
}
330
3A0
100
AcDbScale
 70
     0
300
1:16
140
1.0
141
16.0
290
     0
  0
SCALE
  5
3A8
102
{ACAD_REACTORS
330
3A0
102
}
330
3A0
100
AcDbScale
 70
     0
300
1:20
140
1.0
141
20.0
290
     0
  0
SCALE
  5
3A9
102
{ACAD_REACTORS
330
3A0
102
}
330
3A0
100
AcDbScale
 70
     0
300
1:30
140
1.0
141
30.0
290
     0
  0
SCALE
  5
3AA
102
{ACAD_REACTORS
330
3A0
102
}
330
3A0
100
AcDbScale
 70
     0
300
1:40
140
1.0
141
40.0
290
     0
  0
SCALE
  5
3AB
102
{ACAD_REACTORS
330
3A0
102
}
330
3A0
100
AcDbScale
 70
     0
300
1:50
140
1.0
141
50.0
290
     0
  0
SCALE
  5
3AC
102
{ACAD_REACTORS
330
3A0
102
}
330
3A0
100
AcDbScale
 70
     0
300
1:100
140
1.0
141
100.0
290
     0
  0
SCALE
  5
3AD
102
{ACAD_REACTORS
330
3A0
102
}
330
3A0
100
AcDbScale
 70
     0
300
2:1
140
2.0
141
1.0
290
     0
  0
SCALE
  5
3AE
102
{ACAD_REACTORS
330
3A0
102
}
330
3A0
100
AcDbScale
 70
     0
300
4:1
140
4.0
141
1.0
290
     0
  0
SCALE
  5
3AF
102
{ACAD_REACTORS
330
3A0
102
}
330
3A0
100
AcDbScale
 70
     0
300
8:1
140
8.0
141
1.0
290
     0
  0
SCALE
  5
3B0
102
{ACAD_REACTORS
330
3A0
102
}
330
3A0
100
AcDbScale
 70
     0
300
10:1
140
10.0
141
1.0
290
     0
  0
SCALE
  5
3B1
102
{ACAD_REACTORS
330
3A0
102
}
330
3A0
100
AcDbScale
 70
     0
300
100:1
140
100.0
141
1.0
290
     0
  0
SCALE
  5
3B2
102
{ACAD_REACTORS
330
3A0
102
}
330
3A0
100
AcDbScale
 70
     0
300
1/128" = 1'-0"
140
0.0078125
141
12.0
290
     0
  0
SCALE
  5
3B3
102
{ACAD_REACTORS
330
3A0
102
}
330
3A0
100
AcDbScale
 70
     0
300
1/64" = 1'-0"
140
0.015625
141
12.0
290
     0
  0
SCALE
  5
3B4
102
{ACAD_REACTORS
330
3A0
102
}
330
3A0
100
AcDbScale
 70
     0
300
1/32" = 1'-0"
140
0.03125
141
12.0
290
     0
  0
SCALE
  5
3B5
102
{ACAD_REACTORS
330
3A0
102
}
330
3A0
100
AcDbScale
 70
     0
300
1/16" = 1'-0"
140
0.0625
141
12.0
290
     0
  0
SCALE
  5
3B6
102
{ACAD_REACTORS
330
3A0
102
}
330
3A0
100
AcDbScale
 70
     0
300
3/32" = 1'-0"
140
0.09375
141
12.0
290
     0
  0
SCALE
  5
3B7
102
{ACAD_REACTORS
330
3A0
102
}
330
3A0
100
AcDbScale
 70
     0
300
1/8" = 1'-0"
140
0.125
141
12.0
290
     0
  0
SCALE
  5
3B8
102
{ACAD_REACTORS
330
3A0
102
}
330
3A0
100
AcDbScale
 70
     0
300
3/16" = 1'-0"
140
0.1875
141
12.0
290
     0
  0
SCALE
  5
3B9
102
{ACAD_REACTORS
330
3A0
102
}
330
3A0
100
AcDbScale
 70
     0
300
1/4" = 1'-0"
140
0.25
141
12.0
290
     0
  0
SCALE
  5
3BA
102
{ACAD_REACTORS
330
3A0
102
}
330
3A0
100
AcDbScale
 70
     0
300
3/8" = 1'-0"
140
0.375
141
12.0
290
     0
  0
SCALE
  5
3BB
102
{ACAD_REACTORS
330
3A0
102
}
330
3A0
100
AcDbScale
 70
     0
300
1/2" = 1'-0"
140
0.5
141
12.0
290
     0
  0
SCALE
  5
3BC
102
{ACAD_REACTORS
330
3A0
102
}
330
3A0
100
AcDbScale
 70
     0
300
3/4" = 1'-0"
140
0.75
141
12.0
290
     0
  0
SCALE
  5
3BD
102
{ACAD_REACTORS
330
3A0
102
}
330
3A0
100
AcDbScale
 70
     0
300
1" = 1'-0"
140
1.0
141
12.0
290
     0
  0
SCALE
  5
3BE
102
{ACAD_REACTORS
330
3A0
102
}
330
3A0
100
AcDbScale
 70
     0
300
1-1/2" = 1'-0"
140
1.5
141
12.0
290
     0
  0
SCALE
  5
3BF
102
{ACAD_REACTORS
330
3A0
102
}
330
3A0
100
AcDbScale
 70
     0
300
3" = 1'-0"
140
3.0
141
12.0
290
     0
  0
SCALE
  5
3C0
102
{ACAD_REACTORS
330
3A0
102
}
330
3A0
100
AcDbScale
 70
     0
300
6" = 1'-0"
140
6.0
141
12.0
290
     0
  0
SCALE
  5
3C1
102
{ACAD_REACTORS
330
3A0
102
}
330
3A0
100
AcDbScale
 70
     0
300
1'-0" = 1'-0"
140
12.0
141
12.0
290
     0
  0
TABLESTYLE
  5
389
102
{ACAD_REACTORS
330
388
102
}
330
388
100
AcDbTableStyle
  3
Standard
 70
     0
 71
     0
 40
1.5
 41
1.5
280
     0
281
     0
  7
STANDARD
140
4.5
170
     2
 62
     0
 63
   257
283
     0
274
    -2
284
     1
 64
     0
275
    -2
285
     1
 65
     0
276
    -2
286
     1
 66
     0
277
    -2
287
     1
 67
     0
278
    -2
288
     1
 68
     0
279
    -2
289
     1
 69
     0
  7
STANDARD
140
6.0
170
     5
 62
     0
 63
   257
283
     0
274
    -2
284
     1
 64
     0
275
    -2
285
     1
 65
     0
276
    -2
286
     1
 66
     0
277
    -2
287
     1
 67
     0
278
    -2
288
     1
 68
     0
279
    -2
289
     1
 69
     0
  7
STANDARD
140
4.5
170
     5
 62
     0
 63
   257
283
     0
274
    -2
284
     1
 64
     0
275
    -2
285
     1
 65
     0
276
    -2
286
     1
 66
     0
277
    -2
287
     1
 67
     0
278
    -2
288
     1
 68
     0
279
    -2
289
     1
 69
     0
  0
VISUALSTYLE
  5
3C7
102
{ACAD_REACTORS
330
3C2
102
}
102
{ACAD_XDICTIONARY
360
81E
102
}
330
3C2
100
AcDbVisualStyle
  2
2dWireframe
 70
     4
 71
     0
 72
     2
 73
     0
 90
        0
 40
0.6
 41
30.0
 62
     5
 63
     7
 74
     1
 91
        4
 64
     7
 65
   257
 75
     1
175
     1
 42
1.0
 92
        0
 66
   257
 43
1.0
 76
     1
 77
     6
 78
     2
 67
     7
 79
     5
170
     0
171
     0
290
     0
174
     0
 93
        1
 44
0.0
173
     0
291
     0
 45
0.0
1001
ACAD
1000
AcDbSavedByObjectVersion
1070
     0
  0
VISUALSTYLE
  5
3CA
102
{ACAD_REACTORS
330
3C2
102
}
102
{ACAD_XDICTIONARY
360
824
102
}
330
3C2
100
AcDbVisualStyle
  2
Basic
 70
     7
 71
     1
 72
     0
 73
     1
 90
        0
 40
0.6
 41
30.0
 62
     5
 63
     7
 74
     0
 91
        4
 64
     7
 65
   257
 75
     1
175
     1
 42
1.0
 92
        8
 66
     7
 43
1.0
 76
     1
 77
     6
 78
     2
 67
     7
 79
     5
170
     0
171
     0
290
     0
174
     0
 93
        1
 44
0.0
173
     0
291
     1
 45
0.0
1001
ACAD
1000
AcDbSavedByObjectVersion
1070
     0
  0
VISUALSTYLE
  5
3CE
102
{ACAD_REACTORS
330
3C2
102
}
102
{ACAD_XDICTIONARY
360
82C
102
}
330
3C2
100
AcDbVisualStyle
  2
Brighten
 70
    12
 71
     2
 72
     2
 73
     0
 90
        0
 40
0.6
 41
30.0
 62
     5
 63
     7
 74
     1
 91
        4
 64
     7
 65
   257
 75
     1
175
     1
 42
1.0
 92
        8
 66
     7
 43
1.0
 76
     1
 77
     6
 78
     2
 67
     7
 79
     5
170
     0
171
     0
290
     0
174
     0
 93
        1
 44
50.0
173
     0
291
     1
 45
0.0
1001
ACAD
1000
AcDbSavedByObjectVersion
1070
     0
  0
VISUALSTYLE
  5
3D2
102
{ACAD_REACTORS
330
3C2
102
}
102
{ACAD_XDICTIONARY
360
834
102
}
330
3C2
100
AcDbVisualStyle
  2
ColorChange
 70
    16
 71
     2
 72
     2
 73
     3
 90
        0
 40
0.6
 41
30.0
 62
     5
 63
     8
 74
     1
 91
        4
 64
     7
 65
   257
 75
     1
175
     1
 42
1.0
 92
        8
 66
     8
 43
1.0
 76
     1
 77
     6
 78
     2
 67
     7
 79
     5
170
     0
171
     0
290
     0
174
     0
 93
        1
 44
0.0
173
     0
291
     1
 45
0.0
1001
ACAD
1000
AcDbSavedByObjectVersion
1070
     0
  0
VISUALSTYLE
  5
3CC
102
{ACAD_REACTORS
330
3C2
102
}
102
{ACAD_XDICTIONARY
360
828
102
}
330
3C2
100
AcDbVisualStyle
  2
Conceptual
 70
     9
 71
     3
 72
     2
 73
     0
 90
        0
 40
0.6
 41
30.0
 62
     5
 63
     7
 74
     2
 91
        2
 64
     7
 65
   257
 75
     1
175
     1
 42
179.0
 92
        8
 66
     7
 43
1.0
 76
     1
 77
     6
 78
     2
 67
     7
 79
     3
170
     0
171
     0
290
     0
174
     0
 93
        1
 44
0.0
173
     0
291
     0
 45
0.0
1001
ACAD
1000
AcDbSavedByObjectVersion
1070
     0
  0
VISUALSTYLE
  5
3CD
102
{ACAD_REACTORS
330
3C2
102
}
102
{ACAD_XDICTIONARY
360
82A
102
}
330
3C2
100
AcDbVisualStyle
  2
Dim
 70
    11
 71
     2
 72
     2
 73
     0
 90
        0
 40
0.6
 41
30.0
 62
     5
 63
     7
 74
     1
 91
        4
 64
     7
 65
   257
 75
     1
175
     1
 42
1.0
 92
        8
 66
     7
 43
1.0
 76
     1
 77
     6
 78
     2
 67
     7
 79
     5
170
     0
171
     0
290
     0
174
     0
 93
        1
 44
-50.0
173
     0
291
     1
 45
0.0
1001
ACAD
1000
AcDbSavedByObjectVersion
1070
     0
  0
VISUALSTYLE
  5
3D5
102
{ACAD_REACTORS
330
3C2
102
}
102
{ACAD_XDICTIONARY
360
83A
102
}
330
3C2
100
AcDbVisualStyle
  2
EdgeColorOff
 70
    22
 71
     2
 72
     2
 73
     0
 90
        0
 40
0.6
 41
30.0
 62
     5
 63
     7
 74
     1
 91
        4
 64
     7
 65
   257
 75
     1
175
     1
 42
1.0
 92
        8
 66
     7
 43
1.0
 76
     1
 77
     6
 78
     2
 67
     7
 79
     5
170
     0
171
     0
290
     0
174
     0
 93
        1
 44
0.0
173
     0
291
     1
 45
0.0
1001
ACAD
1000
AcDbSavedByObjectVersion
1070
     0
  0
VISUALSTYLE
  5
3D1
102
{ACAD_REACTORS
330
3C2
102
}
102
{ACAD_XDICTIONARY
360
832
102
}
330
3C2
100
AcDbVisualStyle
  2
Facepattern
 70
    15
 71
     2
 72
     2
 73
     0
 90
        0
 40
0.6
 41
30.0
 62
     5
 63
     7
 74
     1
 91
        4
 64
     7
 65
   257
 75
     1
175
     1
 42
1.0
 92
        8
 66
     7
 43
1.0
 76
     1
 77
     6
 78
     2
 67
     7
 79
     5
170
     0
171
     0
290
     0
174
     0
 93
        1
 44
0.0
173
     0
291
     1
 45
0.0
1001
ACAD
1000
AcDbSavedByObjectVersion
1070
     0
  0
VISUALSTYLE
  5
3C3
102
{ACAD_REACTORS
330
3C2
102
}
102
{ACAD_XDICTIONARY
360
816
102
}
330
3C2
100
AcDbVisualStyle
  2
Flat
 70
     0
 71
     2
 72
     1
 73
     1
 90
        2
 40
0.6
 41
30.0
 62
     5
 63
     7
 74
     0
 91
        0
 64
     7
 65
   257
 75
     1
175
     1
 42
1.0
 92
        8
 66
     7
 43
1.0
 76
     1
 77
     6
 78
     2
 67
     7
 79
     5
170
     0
171
     0
290
     0
174
     0
 93
       13
 44
0.0
173
     0
291
     1
 45
0.0
1001
ACAD
1000
AcDbSavedByObjectVersion
1070
     0
  0
VISUALSTYLE
  5
3C4
102
{ACAD_REACTORS
330
3C2
102
}
102
{ACAD_XDICTIONARY
360
818
102
}
330
3C2
100
AcDbVisualStyle
  2
FlatWithEdges
 70
     1
 71
     2
 72
     1
 73
     1
 90
        2
 40
0.6
 41
30.0
 62
     5
 63
     7
 74
     1
 91
        0
 64
     7
 65
   257
 75
     1
175
     1
 42
1.0
 92
        0
 66
   257
 43
1.0
 76
     1
 77
     6
 78
     2
 67
     7
 79
     5
170
     0
171
     0
290
     0
174
     0
 93
       13
 44
0.0
173
     0
291
     1
 45
0.0
1001
ACAD
1000
AcDbSavedByObjectVersion
1070
     0
  0
VISUALSTYLE
  5
3C5
102
{ACAD_REACTORS
330
3C2
102
}
102
{ACAD_XDICTIONARY
360
81A
102
}
330
3C2
100
AcDbVisualStyle
  2
Gouraud
 70
     2
 71
     2
 72
     2
 73
     1
 90
        2
 40
0.6
 41
30.0
 62
     5
 63
     7
 74
     0
 91
        0
 64
     7
 65
   257
 75
     1
175
     1
 42
1.0
 92
        0
 66
     7
 43
1.0
 76
     1
 77
     6
 78
     2
 67
     7
 79
     5
170
     0
171
     0
290
     0
174
     0
 93
       13
 44
0.0
173
     0
291
     1
 45
0.0
1001
ACAD
1000
AcDbSavedByObjectVersion
1070
     0
  0
VISUALSTYLE
  5
3C6
102
{ACAD_REACTORS
330
3C2
102
}
102
{ACAD_XDICTIONARY
360
81C
102
}
330
3C2
100
AcDbVisualStyle
  2
GouraudWithEdges
 70
     3
 71
     2
 72
     2
 73
     1
 90
        2
 40
0.6
 41
30.0
 62
     5
 63
     7
 74
     1
 91
        0
 64
     7
 65
   257
 75
     1
175
     1
 42
1.0
 92
        0
 66
   257
 43
1.0
 76
     1
 77
     6
 78
     2
 67
     7
 79
     5
170
     0
171
     0
290
     0
174
     0
 93
       13
 44
0.0
173
     0
291
     1
 45
0.0
1001
ACAD
1000
AcDbSavedByObjectVersion
1070
     0
  0
VISUALSTYLE
  5
3C9
102
{ACAD_REACTORS
330
3C2
102
}
102
{ACAD_XDICTIONARY
360
822
102
}
330
3C2
100
AcDbVisualStyle
  2
Hidden
 70
     6
 71
     1
 72
     2
 73
     2
 90
        0
 40
0.6
 41
30.0
 62
     5
 63
     7
 74
     2
 91
        2
 64
     7
 65
   257
 75
     2
175
     1
 42
40.0
 92
        0
 66
   257
 43
1.0
 76
     1
 77
     6
 78
     2
 67
     7
 79
     3
170
     0
171
     0
290
     0
174
     0
 93
        1
 44
0.0
173
     0
291
     0
 45
0.0
1001
ACAD
1000
AcDbSavedByObjectVersion
1070
     0
  0
VISUALSTYLE
  5
3D3
102
{ACAD_REACTORS
330
3C2
102
}
102
{ACAD_XDICTIONARY
360
836
102
}
330
3C2
100
AcDbVisualStyle
  2
JitterOff
 70
    20
 71
     2
 72
     2
 73
     0
 90
        0
 40
0.6
 41
30.0
 62
     5
 63
     7
 74
     1
 91
        4
 64
     7
 65
   257
 75
     1
175
     1
 42
1.0
 92
       10
 66
     7
 43
1.0
 76
     1
 77
     6
 78
     2
 67
     7
 79
     5
170
     0
171
     0
290
     0
174
     0
 93
        1
 44
0.0
173
     0
291
     1
 45
0.0
1001
ACAD
1000
AcDbSavedByObjectVersion
1070
     0
  0
VISUALSTYLE
  5
3D0
102
{ACAD_REACTORS
330
3C2
102
}
102
{ACAD_XDICTIONARY
360
830
102
}
330
3C2
100
AcDbVisualStyle
  2
Linepattern
 70
    14
 71
     2
 72
     2
 73
     0
 90
        0
 40
0.6
 41
30.0
 62
     5
 63
     7
 74
     1
 91
        4
 64
     7
 65
   257
 75
     7
175
     7
 42
1.0
 92
        8
 66
     7
 43
1.0
 76
     1
 77
     6
 78
     2
 67
     7
 79
     5
170
     0
171
     0
290
     0
174
     0
 93
        1
 44
0.0
173
     0
291
     1
 45
0.0
1001
ACAD
1000
AcDbSavedByObjectVersion
1070
     0
  0
VISUALSTYLE
  5
3D4
102
{ACAD_REACTORS
330
3C2
102
}
102
{ACAD_XDICTIONARY
360
838
102
}
330
3C2
100
AcDbVisualStyle
  2
OverhangOff
 70
    21
 71
     2
 72
     2
 73
     0
 90
        0
 40
0.6
 41
30.0
 62
     5
 63
     7
 74
     1
 91
        4
 64
     7
 65
   257
 75
     1
175
     1
 42
1.0
 92
        9
 66
     7
 43
1.0
 76
     1
 77
     6
 78
     2
 67
     7
 79
     5
170
     0
171
     0
290
     0
174
     0
 93
        1
 44
0.0
173
     0
291
     1
 45
0.0
1001
ACAD
1000
AcDbSavedByObjectVersion
1070
     0
  0
VISUALSTYLE
  5
3CB
102
{ACAD_REACTORS
330
3C2
102
}
102
{ACAD_XDICTIONARY
360
826
102
}
330
3C2
100
AcDbVisualStyle
  2
Realistic
 70
     8
 71
     2
 72
     3
 73
     0
 90
        2
 40
0.6
 41
30.0
 62
     5
 63
     7
 74
     0
 91
        0
 64
     7
 65
   257
 75
     1
175
     1
 42
1.0
 92
        8
 66
   257
 43
1.0
 76
     1
 77
     6
 78
     2
 67
     7
 79
     3
170
     0
171
     0
290
     0
174
     0
 93
       13
 44
0.0
173
     0
291
     0
 45
0.0
1001
ACAD
1000
AcDbSavedByObjectVersion
1070
     0
  0
VISUALSTYLE
  5
3DA
102
{ACAD_REACTORS
330
3C2
102
}
102
{ACAD_XDICTIONARY
360
844
102
}
330
3C2
100
AcDbVisualStyle
  2
Shaded
 70
    27
 71
     2
 72
     2
 73
     1
 90
        2
 40
0.6
 41
30.0
 62
     5
 63
     7
 74
     0
 91
        4
 64
     7
 65
   257
 75
     1
175
     1
 42
1.0
 92
        8
 66
   257
 43
1.0
 76
     1
 77
     6
 78
     2
 67
     8
 79
     3
170
     0
171
     0
290
     0
174
     0
 93
        5
 44
0.0
173
     0
291
     0
 45
0.0
1001
ACAD
1000
AcDbSavedByObjectVersion
1070
     0
  0
VISUALSTYLE
  5
3D9
102
{ACAD_REACTORS
330
3C2
102
}
102
{ACAD_XDICTIONARY
360
842
102
}
330
3C2
100
AcDbVisualStyle
  2
Shaded with edges
 70
    26
 71
     2
 72
     2
 73
     1
 90
        2
 40
0.6
 41
30.0
 62
     5
 63
     7
 74
     1
 91
       10
 64
     7
 65
   257
 75
     2
175
     1
 42
1.0
 92
        8
 66
   257
 43
1.0
 76
     1
 77
     6
 78
     2
 67
     7
 79
     3
170
     0
171
     0
290
     0
174
     0
 93
        5
 44
0.0
173
     0
291
     0
 45
0.0
1001
ACAD
1000
AcDbSavedByObjectVersion
1070
     0
  0
VISUALSTYLE
  5
3D6
102
{ACAD_REACTORS
330
3C2
102
}
102
{ACAD_XDICTIONARY
360
83C
102
}
330
3C2
100
AcDbVisualStyle
  2
Shades of Gray
 70
    23
 71
     2
 72
     2
 73
     3
 90
        0
 40
0.6
 41
30.0
 62
     5
 63
     7
 74
     2
 91
        2
 64
     7
 65
     7
 75
     1
175
     1
 42
40.0
 92
        8
 66
     7
 43
1.0
 76
     1
 77
     6
 78
     2
 67
     7
 79
     3
170
     0
171
     0
290
     0
174
     0
 93
        1
 44
0.0
173
     0
291
     0
 45
0.0
1001
ACAD
1000
AcDbSavedByObjectVersion
1070
     0
  0
VISUALSTYLE
  5
3D7
102
{ACAD_REACTORS
330
3C2
102
}
102
{ACAD_XDICTIONARY
360
83E
102
}
330
3C2
100
AcDbVisualStyle
  2
Sketchy
 70
    24
 71
     1
 72
     2
 73
     2
 90
        0
 40
0.6
 41
30.0
 62
     5
 63
     7
 74
     2
 91
        2
 64
     7
 65
     7
 75
     1
175
     1
 42
40.0
 92
       11
 66
     7
 43
1.0
 76
     1
 77
     6
 78
     2
 67
     7
 79
     6
170
     0
171
     0
290
     0
174
     0
 93
        1
 44
0.0
173
     0
291
     0
 45
0.0
1001
ACAD
1000
AcDbSavedByObjectVersion
1070
     0
  0
VISUALSTYLE
  5
3CF
102
{ACAD_REACTORS
330
3C2
102
}
102
{ACAD_XDICTIONARY
360
82E
102
}
330
3C2
100
AcDbVisualStyle
  2
Thicken
 70
    13
 71
     2
 72
     2
 73
     0
 90
        0
 40
0.6
 41
30.0
 62
     5
 63
     7
 74
     1
 91
        4
 64
     7
 65
   257
 75
     1
175
     1
 42
1.0
 92
       12
 66
     7
 43
1.0
 76
     1
 77
     6
 78
     2
 67
     7
 79
     5
170
     0
171
     0
290
     0
174
     0
 93
        1
 44
0.0
173
     0
291
     1
 45
0.0
1001
ACAD
1000
AcDbSavedByObjectVersion
1070
     0
  0
VISUALSTYLE
  5
3C8
102
{ACAD_REACTORS
330
3C2
102
}
102
{ACAD_XDICTIONARY
360
820
102
}
330
3C2
100
AcDbVisualStyle
  2
Wireframe
 70
     5
 71
     0
 72
     2
 73
     0
 90
        0
 40
0.6
 41
30.0
 62
     5
 63
     7
 74
     1
 91
        4
 64
     7
 65
   257
 75
     1
175
     1
 42
1.0
 92
        0
 66
   257
 43
1.0
 76
     1
 77
     6
 78
     2
 67
     7
 79
     3
170
     0
171
     0
290
     0
174
     0
 93
        1
 44
0.0
173
     0
291
     0
 45
0.0
1001
ACAD
1000
AcDbSavedByObjectVersion
1070
     0
  0
VISUALSTYLE
  5
3D8
102
{ACAD_REACTORS
330
3C2
102
}
102
{ACAD_XDICTIONARY
360
840
102
}
330
3C2
100
AcDbVisualStyle
  2
X-Ray
 70
    25
 71
     2
 72
     2
 73
     1
 90
        1
 40
0.5
 41
30.0
 62
     5
 63
     7
 74
     1
 91
        0
 64
     7
 65
   257
 75
     1
175
     1
 42
1.0
 92
        8
 66
     7
 43
1.0
 76
     1
 77
     6
 78
     2
 67
     7
 79
     3
170
     0
171
     0
290
     0
174
     0
 93
       13
 44
0.0
173
     0
291
     0
 45
0.0
1001
ACAD
1000
AcDbSavedByObjectVersion
1070
     0
  0
XRECORD
  5
80B
102
{ACAD_REACTORS
330
80A
102
}
330
80A
100
AcDbXrecord
280
     1
340
387
  0
XRECORD
  5
80C
102
{ACAD_REACTORS
330
80A
102
}
330
80A
100
AcDbXrecord
280
     1
340
386
  0
DICTIONARYVAR
  5
80F
102
{ACAD_REACTORS
330
357
102
}
330
357
100
DictionaryVariables
280
     0
  1
1:1
  0
DICTIONARYVAR
  5
806
102
{ACAD_REACTORS
330
357
102
}
330
357
100
DictionaryVariables
280
     0
  1
Standard
  0
DICTIONARYVAR
  5
38D
102
{ACAD_REACTORS
330
357
102
}
330
357
100
DictionaryVariables
280
     0
  1
Standard
  0
DICTIONARYVAR
  5
359
102
{ACAD_REACTORS
330
357
102
}
330
357
100
DictionaryVariables
280
     0
  1
2
  0
DICTIONARYVAR
  5
358
102
{ACAD_REACTORS
330
357
102
}
330
357
100
DictionaryVariables
280
     0
  1
1
  0
DICTIONARYVAR
  5
807
102
{ACAD_REACTORS
330
357
102
}
330
357
100
DictionaryVariables
280
     0
  1
0
  0
DICTIONARYVAR
  5
38E
102
{ACAD_REACTORS
330
357
102
}
330
357
100
DictionaryVariables
280
     0
  1

  0
DICTIONARY
  5
812
330
3DC
100
AcDbDictionary
280
     1
281
     1
  3
ACAD_XREC_ROUNDTRIP
360
813
  0
DICTIONARY
  5
810
330
3DB
100
AcDbDictionary
280
     1
281
     1
  3
ACAD_XREC_ROUNDTRIP
360
811
  0
DICTIONARY
  5
814
330
3DD
100
AcDbDictionary
280
     1
281
     1
  3
ACAD_XREC_ROUNDTRIP
360
815
  0
DICTIONARY
  5
847
330
3DF
100
AcDbDictionary
280
     1
281
     1
  3
ACAD_XREC_ROUNDTRIP
360
848
  0
DICTIONARY
  5
81E
330
3C7
100
AcDbDictionary
280
     1
281
     1
  3
ACAD_XREC_ROUNDTRIP
360
81F
  0
DICTIONARY
  5
824
330
3CA
100
AcDbDictionary
280
     1
281
     1
  3
ACAD_XREC_ROUNDTRIP
360
825
  0
DICTIONARY
  5
82C
330
3CE
100
AcDbDictionary
280
     1
281
     1
  3
ACAD_XREC_ROUNDTRIP
360
82D
  0
DICTIONARY
  5
834
330
3D2
100
AcDbDictionary
280
     1
281
     1
  3
ACAD_XREC_ROUNDTRIP
360
835
  0
DICTIONARY
  5
828
330
3CC
100
AcDbDictionary
280
     1
281
     1
  3
ACAD_XREC_ROUNDTRIP
360
829
  0
DICTIONARY
  5
82A
330
3CD
100
AcDbDictionary
280
     1
281
     1
  3
ACAD_XREC_ROUNDTRIP
360
82B
  0
DICTIONARY
  5
83A
330
3D5
100
AcDbDictionary
280
     1
281
     1
  3
ACAD_XREC_ROUNDTRIP
360
83B
  0
DICTIONARY
  5
832
330
3D1
100
AcDbDictionary
280
     1
281
     1
  3
ACAD_XREC_ROUNDTRIP
360
833
  0
DICTIONARY
  5
816
330
3C3
100
AcDbDictionary
280
     1
281
     1
  3
ACAD_XREC_ROUNDTRIP
360
817
  0
DICTIONARY
  5
818
330
3C4
100
AcDbDictionary
280
     1
281
     1
  3
ACAD_XREC_ROUNDTRIP
360
819
  0
DICTIONARY
  5
81A
330
3C5
100
AcDbDictionary
280
     1
281
     1
  3
ACAD_XREC_ROUNDTRIP
360
81B
  0
DICTIONARY
  5
81C
330
3C6
100
AcDbDictionary
280
     1
281
     1
  3
ACAD_XREC_ROUNDTRIP
360
81D
  0
DICTIONARY
  5
822
330
3C9
100
AcDbDictionary
280
     1
281
     1
  3
ACAD_XREC_ROUNDTRIP
360
823
  0
DICTIONARY
  5
836
330
3D3
100
AcDbDictionary
280
     1
281
     1
  3
ACAD_XREC_ROUNDTRIP
360
837
  0
DICTIONARY
  5
830
330
3D0
100
AcDbDictionary
280
     1
281
     1
  3
ACAD_XREC_ROUNDTRIP
360
831
  0
DICTIONARY
  5
838
330
3D4
100
AcDbDictionary
280
     1
281
     1
  3
ACAD_XREC_ROUNDTRIP
360
839
  0
DICTIONARY
  5
826
330
3CB
100
AcDbDictionary
280
     1
281
     1
  3
ACAD_XREC_ROUNDTRIP
360
827
  0
DICTIONARY
  5
844
330
3DA
100
AcDbDictionary
280
     1
281
     1
  3
ACAD_XREC_ROUNDTRIP
360
845
  0
DICTIONARY
  5
842
330
3D9
100
AcDbDictionary
280
     1
281
     1
  3
ACAD_XREC_ROUNDTRIP
360
843
  0
DICTIONARY
  5
83C
330
3D6
100
AcDbDictionary
280
     1
281
     1
  3
ACAD_XREC_ROUNDTRIP
360
83D
  0
DICTIONARY
  5
83E
330
3D7
100
AcDbDictionary
280
     1
281
     1
  3
ACAD_XREC_ROUNDTRIP
360
83F
  0
DICTIONARY
  5
82E
330
3CF
100
AcDbDictionary
280
     1
281
     1
  3
ACAD_XREC_ROUNDTRIP
360
82F
  0
DICTIONARY
  5
820
330
3C8
100
AcDbDictionary
280
     1
281
     1
  3
ACAD_XREC_ROUNDTRIP
360
821
  0
DICTIONARY
  5
840
330
3D8
100
AcDbDictionary
280
     1
281
     1
  3
ACAD_XREC_ROUNDTRIP
360
841
  0
XRECORD
  5
813
102
{ACAD_REACTORS
330
812
102
}
330
812
100
AcDbXrecord
280
     1
102
MATERIAL
148
0.0
149
0.0
149
0.0
 93
        0
 94
      127
282
     0
 72
     1
 77
     1
171
     1
175
     1
179
     1
273
     0
  0
XRECORD
  5
811
102
{ACAD_REACTORS
330
810
102
}
330
810
100
AcDbXrecord
280
     1
102
MATERIAL
148
0.0
149
0.0
149
0.0
 93
        0
 94
      127
282
     0
 72
     1
 77
     1
171
     1
175
     1
179
     1
273
     0
  0
XRECORD
  5
815
102
{ACAD_REACTORS
330
814
102
}
330
814
100
AcDbXrecord
280
     1
102
MATERIAL
148
0.0
149
0.0
149
0.0
 93
        0
 94
      127
282
     0
 72
     1
 77
     1
171
     1
175
     1
179
     1
273
     0
  0
XRECORD
  5
848
102
{ACAD_REACTORS
330
847
102
}
330
847
100
AcDbXrecord
280
     1
102
ACAD_ROUNDTRIP_2010_MLEADER_STYLE
  0
XRECORD
  5
81F
102
{ACAD_REACTORS
330
81E
102
}
330
81E
100
AcDbXrecord
280
     1
102
RTVSPropertyOp0
 70
     1
102
RTVSPropertyOp1
 70
     1
102
RTVSPropertyOp2
 70
     1
102
RTVSPropertyOp3
 70
     1
102
RTVSPropertyOp4
 70
     1
102
RTVSPropertyOp5
 70
     1
102
RTVSPropertyOp6
 70
     1
102
RTVSPropertyOp7
 70
     1
102
RTVSPropertyOp8
 70
     1
102
RTVSPropertyOp9
 70
     1
102
RTVSPropertyOp10
 70
     1
102
RTVSPropertyOp11
 70
     1
102
RTVSPropertyOp12
 70
     1
102
RTVSPropertyOp13
 70
     1
102
RTVSPropertyOp14
 70
     1
102
RTVSPropertyOp15
 70
     1
102
RTVSPropertyOp16
 70
     1
102
RTVSPropertyOp17
 70
     1
102
RTVSPropertyOp18
 70
     1
102
RTVSPropertyOp19
 70
     1
102
RTVSPropertyOp20
 70
     1
102
RTVSPropertyOp21
 70
     1
102
RTVSPropertyOp22
 70
     1
102
RTVSPropertyOp23
 70
     1
102
RTVSPropertyOp24
 70
     1
102
RTVSPropertyOp25
 70
     1
102
RTVSPropertyOp26
 70
     1
102
RTVSPropertyOp27
 70
     1
102
RTVSPropertyOp28
 70
     1
102
RTVSPropertyOp29
 70
     1
102
RTVSPropertyOp30
 70
     1
102
RTVSPropertyOp31
 70
     1
102
RTVSPropertyOp32
 70
     1
102
RTVSPropertyOp33
 70
     1
102
RTVSPropertyOp34
 70
     1
102
RTVSPropertyOp35
 70
     1
102
RTVSPropertyOp36
 70
     1
102
RTVSPropertyOp37
 70
     1
102
RTVSPropertyOp38
 70
     1
102
RTVSPropertyOp39
 70
     1
102
RTVSPropertyOp40
 70
     1
102
RTVSPropertyOp41
 70
     1
102
RTVSPropertyOp42
 70
     1
102
RTVSPropertyOp43
 70
     1
102
RTVSPropertyOp44
 70
     1
102
RTVSPropertyOp45
 70
     1
102
RTVSPropertyOp46
 70
     1
102
RTVSPropertyOp47
 70
     1
102
RTVSPropertyOp48
 70
     1
102
RTVSPropertyOp49
 70
     1
102
RTVSPropertyOp50
 70
     1
102
RTVSPropertyOp51
 70
     0
102
RTVSPropertyOp52
 70
     0
102
RTVSPropertyOp53
 70
     1
102
RTVSPropertyOp54
 70
     1
102
RTVSPropertyOp55
 70
     1
102
RTVSPropertyOp56
 70
     1
102
RTVSPropertyOp57
 70
     1
102
RTVSPost2010Prop28
280
     1
102
RTVSPost2010PropOp28
 70
     1
102
RTVSPost2010Prop29
280
     1
102
RTVSPost2010PropOp29
 70
     1
102
RTVSPost2010Prop30
280
     0
102
RTVSPost2010PropOp30
 70
     1
102
RTVSPost2010Prop31
280
     0
102
RTVSPost2010PropOp31
 70
     1
102
RTVSPost2010Prop32
280
     0
102
RTVSPost2010PropOp32
 70
     1
102
RTVSPost2010Prop33
280
     0
102
RTVSPost2010PropOp33
 70
     1
102
RTVSPost2010Prop34
280
     0
102
RTVSPost2010PropOp34
 70
     1
102
RTVSPost2010Prop35
280
     0
102
RTVSPost2010PropOp35
 70
     1
102
RTVSPost2010Prop36
280
     0
102
RTVSPost2010PropOp36
 70
     1
102
RTVSPost2010Prop37
 90
       50
102
RTVSPost2010PropOp37
 70
     1
102
RTVSPost2010Prop38
140
0.0
102
RTVSPost2010PropOp38
 70
     1
102
RTVSPost2010Prop39
140
1.0
102
RTVSPost2010PropOp39
 70
     1
102
RTVSPost2010Prop40
 90
        0
102
RTVSPost2010PropOp40
 70
     1
102
RTVSPost2010Prop41ColorIndex
 90
       18
102
RTVSPost2010Prop41ColorRGB
 90
        0
102
RTVSPost2010PropOp41
 70
     1
102
RTVSPost2010Prop42
 90
       50
102
RTVSPost2010PropOp42
 70
     1
102
RTVSPost2010Prop43
 90
        3
102
RTVSPost2010PropOp43
 70
     1
102
RTVSPost2010Prop44ColorIndex
 90
        5
102
RTVSPost2010Prop44ColorRGB
 90
      255
102
RTVSPost2010PropOp44
 70
     1
102
RTVSPost2010Prop45
280
     0
102
RTVSPost2010PropOp45
 70
     1
102
RTVSPost2010Prop46
 90
       50
102
RTVSPost2010PropOp46
 70
     1
102
RTVSPost2010Prop47
 90
       50
102
RTVSPost2010PropOp47
 70
     1
102
RTVSPost2010Prop48
 90
       50
102
RTVSPost2010PropOp48
 70
     1
102
RTVSPost2010Prop49
280
     0
102
RTVSPost2010PropOp49
 70
     1
102
RTVSPost2010Prop50
 90
       50
102
RTVSPost2010PropOp50
 70
     1
102
RTVSPost2010Prop51ColorIndex
 90
      256
102
RTVSPost2010Prop51ColorRGB
 90
-16777216
102
RTVSPost2010PropOp51
 70
     0
102
RTVSPost2010Prop52
140
1.0
102
RTVSPost2010PropOp52
 70
     0
102
RTVSPost2010Prop53
 90
        2
102
RTVSPost2010PropOp53
 70
     1
102
RTVSPost2010Prop54
  1
strokes_ogs.tif
102
RTVSPost2010PropOp54
 70
     1
102
RTVSPost2010Prop55
280
     0
102
RTVSPost2010PropOp55
 70
     1
102
RTVSPost2010Prop56
140
1.0
102
RTVSPost2010PropOp56
 70
     1
102
RTVSPost2010Prop57
140
1.0
102
RTVSPost2010PropOp57
 70
     1
  0
XRECORD
  5
825
102
{ACAD_REACTORS
330
824
102
}
330
824
100
AcDbXrecord
280
     1
102
RTVSPropertyOp0
 70
     1
102
RTVSPropertyOp1
 70
     1
102
RTVSPropertyOp2
 70
     1
102
RTVSPropertyOp3
 70
     1
102
RTVSPropertyOp4
 70
     1
102
RTVSPropertyOp5
 70
     1
102
RTVSPropertyOp6
 70
     1
102
RTVSPropertyOp7
 70
     1
102
RTVSPropertyOp8
 70
     1
102
RTVSPropertyOp9
 70
     1
102
RTVSPropertyOp10
 70
     1
102
RTVSPropertyOp11
 70
     1
102
RTVSPropertyOp12
 70
     1
102
RTVSPropertyOp13
 70
     1
102
RTVSPropertyOp14
 70
     1
102
RTVSPropertyOp15
 70
     1
102
RTVSPropertyOp16
 70
     1
102
RTVSPropertyOp17
 70
     1
102
RTVSPropertyOp18
 70
     1
102
RTVSPropertyOp19
 70
     1
102
RTVSPropertyOp20
 70
     1
102
RTVSPropertyOp21
 70
     1
102
RTVSPropertyOp22
 70
     1
102
RTVSPropertyOp23
 70
     1
102
RTVSPropertyOp24
 70
     1
102
RTVSPropertyOp25
 70
     1
102
RTVSPropertyOp26
 70
     1
102
RTVSPropertyOp27
 70
     1
102
RTVSPropertyOp28
 70
     1
102
RTVSPropertyOp29
 70
     1
102
RTVSPropertyOp30
 70
     1
102
RTVSPropertyOp31
 70
     1
102
RTVSPropertyOp32
 70
     1
102
RTVSPropertyOp33
 70
     1
102
RTVSPropertyOp34
 70
     1
102
RTVSPropertyOp35
 70
     1
102
RTVSPropertyOp36
 70
     1
102
RTVSPropertyOp37
 70
     1
102
RTVSPropertyOp38
 70
     1
102
RTVSPropertyOp39
 70
     1
102
RTVSPropertyOp40
 70
     1
102
RTVSPropertyOp41
 70
     1
102
RTVSPropertyOp42
 70
     1
102
RTVSPropertyOp43
 70
     1
102
RTVSPropertyOp44
 70
     1
102
RTVSPropertyOp45
 70
     1
102
RTVSPropertyOp46
 70
     1
102
RTVSPropertyOp47
 70
     1
102
RTVSPropertyOp48
 70
     1
102
RTVSPropertyOp49
 70
     1
102
RTVSPropertyOp50
 70
     1
102
RTVSPropertyOp51
 70
     0
102
RTVSPropertyOp52
 70
     0
102
RTVSPropertyOp53
 70
     1
102
RTVSPropertyOp54
 70
     1
102
RTVSPropertyOp55
 70
     1
102
RTVSPropertyOp56
 70
     1
102
RTVSPropertyOp57
 70
     1
102
RTVSPost2010Prop28
280
     0
102
RTVSPost2010PropOp28
 70
     1
102
RTVSPost2010Prop29
280
     1
102
RTVSPost2010PropOp29
 70
     1
102
RTVSPost2010Prop30
280
     1
102
RTVSPost2010PropOp30
 70
     1
102
RTVSPost2010Prop31
280
     0
102
RTVSPost2010PropOp31
 70
     1
102
RTVSPost2010Prop32
280
     0
102
RTVSPost2010PropOp32
 70
     1
102
RTVSPost2010Prop33
280
     0
102
RTVSPost2010PropOp33
 70
     1
102
RTVSPost2010Prop34
280
     0
102
RTVSPost2010PropOp34
 70
     1
102
RTVSPost2010Prop35
280
     0
102
RTVSPost2010PropOp35
 70
     1
102
RTVSPost2010Prop36
280
     0
102
RTVSPost2010PropOp36
 70
     1
102
RTVSPost2010Prop37
 90
       50
102
RTVSPost2010PropOp37
 70
     1
102
RTVSPost2010Prop38
140
0.0
102
RTVSPost2010PropOp38
 70
     1
102
RTVSPost2010Prop39
140
1.0
102
RTVSPost2010PropOp39
 70
     1
102
RTVSPost2010Prop40
 90
        0
102
RTVSPost2010PropOp40
 70
     1
102
RTVSPost2010Prop41ColorIndex
 90
       18
102
RTVSPost2010Prop41ColorRGB
 90
        0
102
RTVSPost2010PropOp41
 70
     1
102
RTVSPost2010Prop42
 90
       50
102
RTVSPost2010PropOp42
 70
     1
102
RTVSPost2010Prop43
 90
        3
102
RTVSPost2010PropOp43
 70
     1
102
RTVSPost2010Prop44ColorIndex
 90
        5
102
RTVSPost2010Prop44ColorRGB
 90
      255
102
RTVSPost2010PropOp44
 70
     1
102
RTVSPost2010Prop45
280
     0
102
RTVSPost2010PropOp45
 70
     1
102
RTVSPost2010Prop46
 90
       50
102
RTVSPost2010PropOp46
 70
     1
102
RTVSPost2010Prop47
 90
       50
102
RTVSPost2010PropOp47
 70
     1
102
RTVSPost2010Prop48
 90
       50
102
RTVSPost2010PropOp48
 70
     1
102
RTVSPost2010Prop49
280
     0
102
RTVSPost2010PropOp49
 70
     1
102
RTVSPost2010Prop50
 90
       50
102
RTVSPost2010PropOp50
 70
     1
102
RTVSPost2010Prop51ColorIndex
 90
      256
102
RTVSPost2010Prop51ColorRGB
 90
-16777216
102
RTVSPost2010PropOp51
 70
     0
102
RTVSPost2010Prop52
140
1.0
102
RTVSPost2010PropOp52
 70
     0
102
RTVSPost2010Prop53
 90
        2
102
RTVSPost2010PropOp53
 70
     1
102
RTVSPost2010Prop54
  1
strokes_ogs.tif
102
RTVSPost2010PropOp54
 70
     1
102
RTVSPost2010Prop55
280
     0
102
RTVSPost2010PropOp55
 70
     1
102
RTVSPost2010Prop56
140
1.0
102
RTVSPost2010PropOp56
 70
     1
102
RTVSPost2010Prop57
140
1.0
102
RTVSPost2010PropOp57
 70
     1
  0
XRECORD
  5
82D
102
{ACAD_REACTORS
330
82C
102
}
330
82C
100
AcDbXrecord
280
     1
102
RTVSPropertyOp0
 70
     1
102
RTVSPropertyOp1
 70
     1
102
RTVSPropertyOp2
 70
     1
102
RTVSPropertyOp3
 70
     1
102
RTVSPropertyOp4
 70
     1
102
RTVSPropertyOp5
 70
     1
102
RTVSPropertyOp6
 70
     1
102
RTVSPropertyOp7
 70
     1
102
RTVSPropertyOp8
 70
     1
102
RTVSPropertyOp9
 70
     1
102
RTVSPropertyOp10
 70
     1
102
RTVSPropertyOp11
 70
     1
102
RTVSPropertyOp12
 70
     1
102
RTVSPropertyOp13
 70
     1
102
RTVSPropertyOp14
 70
     1
102
RTVSPropertyOp15
 70
     1
102
RTVSPropertyOp16
 70
     1
102
RTVSPropertyOp17
 70
     1
102
RTVSPropertyOp18
 70
     1
102
RTVSPropertyOp19
 70
     1
102
RTVSPropertyOp20
 70
     1
102
RTVSPropertyOp21
 70
     1
102
RTVSPropertyOp22
 70
     1
102
RTVSPropertyOp23
 70
     1
102
RTVSPropertyOp24
 70
     1
102
RTVSPropertyOp25
 70
     1
102
RTVSPropertyOp26
 70
     1
102
RTVSPropertyOp27
 70
     1
102
RTVSPropertyOp28
 70
     1
102
RTVSPropertyOp29
 70
     1
102
RTVSPropertyOp30
 70
     1
102
RTVSPropertyOp31
 70
     1
102
RTVSPropertyOp32
 70
     1
102
RTVSPropertyOp33
 70
     1
102
RTVSPropertyOp34
 70
     1
102
RTVSPropertyOp35
 70
     1
102
RTVSPropertyOp36
 70
     1
102
RTVSPropertyOp37
 70
     1
102
RTVSPropertyOp38
 70
     1
102
RTVSPropertyOp39
 70
     1
102
RTVSPropertyOp40
 70
     1
102
RTVSPropertyOp41
 70
     1
102
RTVSPropertyOp42
 70
     1
102
RTVSPropertyOp43
 70
     1
102
RTVSPropertyOp44
 70
     1
102
RTVSPropertyOp45
 70
     1
102
RTVSPropertyOp46
 70
     1
102
RTVSPropertyOp47
 70
     1
102
RTVSPropertyOp48
 70
     1
102
RTVSPropertyOp49
 70
     1
102
RTVSPropertyOp50
 70
     1
102
RTVSPropertyOp51
 70
     0
102
RTVSPropertyOp52
 70
     0
102
RTVSPropertyOp53
 70
     1
102
RTVSPropertyOp54
 70
     1
102
RTVSPropertyOp55
 70
     1
102
RTVSPropertyOp56
 70
     1
102
RTVSPropertyOp57
 70
     1
102
RTVSPost2010Prop28
280
     0
102
RTVSPost2010PropOp28
 70
     1
102
RTVSPost2010Prop29
280
     1
102
RTVSPost2010PropOp29
 70
     1
102
RTVSPost2010Prop30
280
     1
102
RTVSPost2010PropOp30
 70
     1
102
RTVSPost2010Prop31
280
     0
102
RTVSPost2010PropOp31
 70
     1
102
RTVSPost2010Prop32
280
     0
102
RTVSPost2010PropOp32
 70
     1
102
RTVSPost2010Prop33
280
     0
102
RTVSPost2010PropOp33
 70
     1
102
RTVSPost2010Prop34
280
     0
102
RTVSPost2010PropOp34
 70
     1
102
RTVSPost2010Prop35
280
     0
102
RTVSPost2010PropOp35
 70
     1
102
RTVSPost2010Prop36
280
     0
102
RTVSPost2010PropOp36
 70
     1
102
RTVSPost2010Prop37
 90
       50
102
RTVSPost2010PropOp37
 70
     1
102
RTVSPost2010Prop38
140
0.0
102
RTVSPost2010PropOp38
 70
     1
102
RTVSPost2010Prop39
140
1.0
102
RTVSPost2010PropOp39
 70
     1
102
RTVSPost2010Prop40
 90
        0
102
RTVSPost2010PropOp40
 70
     1
102
RTVSPost2010Prop41ColorIndex
 90
       18
102
RTVSPost2010Prop41ColorRGB
 90
        0
102
RTVSPost2010PropOp41
 70
     1
102
RTVSPost2010Prop42
 90
       50
102
RTVSPost2010PropOp42
 70
     1
102
RTVSPost2010Prop43
 90
        3
102
RTVSPost2010PropOp43
 70
     1
102
RTVSPost2010Prop44ColorIndex
 90
        5
102
RTVSPost2010Prop44ColorRGB
 90
      255
102
RTVSPost2010PropOp44
 70
     1
102
RTVSPost2010Prop45
280
     0
102
RTVSPost2010PropOp45
 70
     1
102
RTVSPost2010Prop46
 90
       50
102
RTVSPost2010PropOp46
 70
     1
102
RTVSPost2010Prop47
 90
       50
102
RTVSPost2010PropOp47
 70
     1
102
RTVSPost2010Prop48
 90
       50
102
RTVSPost2010PropOp48
 70
     1
102
RTVSPost2010Prop49
280
     0
102
RTVSPost2010PropOp49
 70
     1
102
RTVSPost2010Prop50
 90
       50
102
RTVSPost2010PropOp50
 70
     1
102
RTVSPost2010Prop51ColorIndex
 90
      256
102
RTVSPost2010Prop51ColorRGB
 90
-16777216
102
RTVSPost2010PropOp51
 70
     0
102
RTVSPost2010Prop52
140
1.0
102
RTVSPost2010PropOp52
 70
     0
102
RTVSPost2010Prop53
 90
        2
102
RTVSPost2010PropOp53
 70
     1
102
RTVSPost2010Prop54
  1
strokes_ogs.tif
102
RTVSPost2010PropOp54
 70
     1
102
RTVSPost2010Prop55
280
     0
102
RTVSPost2010PropOp55
 70
     1
102
RTVSPost2010Prop56
140
1.0
102
RTVSPost2010PropOp56
 70
     1
102
RTVSPost2010Prop57
140
1.0
102
RTVSPost2010PropOp57
 70
     1
  0
XRECORD
  5
835
102
{ACAD_REACTORS
330
834
102
}
330
834
100
AcDbXrecord
280
     1
102
RTVSPropertyOp0
 70
     1
102
RTVSPropertyOp1
 70
     1
102
RTVSPropertyOp2
 70
     1
102
RTVSPropertyOp3
 70
     1
102
RTVSPropertyOp4
 70
     1
102
RTVSPropertyOp5
 70
     1
102
RTVSPropertyOp6
 70
     1
102
RTVSPropertyOp7
 70
     1
102
RTVSPropertyOp8
 70
     1
102
RTVSPropertyOp9
 70
     1
102
RTVSPropertyOp10
 70
     1
102
RTVSPropertyOp11
 70
     1
102
RTVSPropertyOp12
 70
     1
102
RTVSPropertyOp13
 70
     1
102
RTVSPropertyOp14
 70
     1
102
RTVSPropertyOp15
 70
     1
102
RTVSPropertyOp16
 70
     1
102
RTVSPropertyOp17
 70
     1
102
RTVSPropertyOp18
 70
     1
102
RTVSPropertyOp19
 70
     1
102
RTVSPropertyOp20
 70
     1
102
RTVSPropertyOp21
 70
     1
102
RTVSPropertyOp22
 70
     1
102
RTVSPropertyOp23
 70
     1
102
RTVSPropertyOp24
 70
     1
102
RTVSPropertyOp25
 70
     1
102
RTVSPropertyOp26
 70
     1
102
RTVSPropertyOp27
 70
     1
102
RTVSPropertyOp28
 70
     1
102
RTVSPropertyOp29
 70
     1
102
RTVSPropertyOp30
 70
     1
102
RTVSPropertyOp31
 70
     1
102
RTVSPropertyOp32
 70
     1
102
RTVSPropertyOp33
 70
     1
102
RTVSPropertyOp34
 70
     1
102
RTVSPropertyOp35
 70
     1
102
RTVSPropertyOp36
 70
     1
102
RTVSPropertyOp37
 70
     1
102
RTVSPropertyOp38
 70
     1
102
RTVSPropertyOp39
 70
     1
102
RTVSPropertyOp40
 70
     1
102
RTVSPropertyOp41
 70
     1
102
RTVSPropertyOp42
 70
     1
102
RTVSPropertyOp43
 70
     1
102
RTVSPropertyOp44
 70
     1
102
RTVSPropertyOp45
 70
     1
102
RTVSPropertyOp46
 70
     1
102
RTVSPropertyOp47
 70
     1
102
RTVSPropertyOp48
 70
     1
102
RTVSPropertyOp49
 70
     1
102
RTVSPropertyOp50
 70
     1
102
RTVSPropertyOp51
 70
     0
102
RTVSPropertyOp52
 70
     0
102
RTVSPropertyOp53
 70
     1
102
RTVSPropertyOp54
 70
     1
102
RTVSPropertyOp55
 70
     1
102
RTVSPropertyOp56
 70
     1
102
RTVSPropertyOp57
 70
     1
102
RTVSPost2010Prop28
280
     0
102
RTVSPost2010PropOp28
 70
     1
102
RTVSPost2010Prop29
280
     1
102
RTVSPost2010PropOp29
 70
     1
102
RTVSPost2010Prop30
280
     1
102
RTVSPost2010PropOp30
 70
     1
102
RTVSPost2010Prop31
280
     0
102
RTVSPost2010PropOp31
 70
     1
102
RTVSPost2010Prop32
280
     0
102
RTVSPost2010PropOp32
 70
     1
102
RTVSPost2010Prop33
280
     0
102
RTVSPost2010PropOp33
 70
     1
102
RTVSPost2010Prop34
280
     0
102
RTVSPost2010PropOp34
 70
     1
102
RTVSPost2010Prop35
280
     0
102
RTVSPost2010PropOp35
 70
     1
102
RTVSPost2010Prop36
280
     0
102
RTVSPost2010PropOp36
 70
     1
102
RTVSPost2010Prop37
 90
       50
102
RTVSPost2010PropOp37
 70
     1
102
RTVSPost2010Prop38
140
0.0
102
RTVSPost2010PropOp38
 70
     1
102
RTVSPost2010Prop39
140
1.0
102
RTVSPost2010PropOp39
 70
     1
102
RTVSPost2010Prop40
 90
        0
102
RTVSPost2010PropOp40
 70
     1
102
RTVSPost2010Prop41ColorIndex
 90
       18
102
RTVSPost2010Prop41ColorRGB
 90
        0
102
RTVSPost2010PropOp41
 70
     1
102
RTVSPost2010Prop42
 90
       50
102
RTVSPost2010PropOp42
 70
     1
102
RTVSPost2010Prop43
 90
        3
102
RTVSPost2010PropOp43
 70
     1
102
RTVSPost2010Prop44ColorIndex
 90
        5
102
RTVSPost2010Prop44ColorRGB
 90
      255
102
RTVSPost2010PropOp44
 70
     1
102
RTVSPost2010Prop45
280
     0
102
RTVSPost2010PropOp45
 70
     1
102
RTVSPost2010Prop46
 90
       50
102
RTVSPost2010PropOp46
 70
     1
102
RTVSPost2010Prop47
 90
       50
102
RTVSPost2010PropOp47
 70
     1
102
RTVSPost2010Prop48
 90
       50
102
RTVSPost2010PropOp48
 70
     1
102
RTVSPost2010Prop49
280
     0
102
RTVSPost2010PropOp49
 70
     1
102
RTVSPost2010Prop50
 90
       50
102
RTVSPost2010PropOp50
 70
     1
102
RTVSPost2010Prop51ColorIndex
 90
      256
102
RTVSPost2010Prop51ColorRGB
 90
-16777216
102
RTVSPost2010PropOp51
 70
     0
102
RTVSPost2010Prop52
140
1.0
102
RTVSPost2010PropOp52
 70
     0
102
RTVSPost2010Prop53
 90
        2
102
RTVSPost2010PropOp53
 70
     1
102
RTVSPost2010Prop54
  1
strokes_ogs.tif
102
RTVSPost2010PropOp54
 70
     1
102
RTVSPost2010Prop55
280
     0
102
RTVSPost2010PropOp55
 70
     1
102
RTVSPost2010Prop56
140
1.0
102
RTVSPost2010PropOp56
 70
     1
102
RTVSPost2010Prop57
140
1.0
102
RTVSPost2010PropOp57
 70
     1
  0
XRECORD
  5
829
102
{ACAD_REACTORS
330
828
102
}
330
828
100
AcDbXrecord
280
     1
102
RTVSPropertyOp0
 70
     1
102
RTVSPropertyOp1
 70
     1
102
RTVSPropertyOp2
 70
     1
102
RTVSPropertyOp3
 70
     1
102
RTVSPropertyOp4
 70
     1
102
RTVSPropertyOp5
 70
     1
102
RTVSPropertyOp6
 70
     1
102
RTVSPropertyOp7
 70
     1
102
RTVSPropertyOp8
 70
     1
102
RTVSPropertyOp9
 70
     1
102
RTVSPropertyOp10
 70
     1
102
RTVSPropertyOp11
 70
     1
102
RTVSPropertyOp12
 70
     1
102
RTVSPropertyOp13
 70
     1
102
RTVSPropertyOp14
 70
     1
102
RTVSPropertyOp15
 70
     1
102
RTVSPropertyOp16
 70
     1
102
RTVSPropertyOp17
 70
     1
102
RTVSPropertyOp18
 70
     1
102
RTVSPropertyOp19
 70
     1
102
RTVSPropertyOp20
 70
     1
102
RTVSPropertyOp21
 70
     1
102
RTVSPropertyOp22
 70
     1
102
RTVSPropertyOp23
 70
     1
102
RTVSPropertyOp24
 70
     1
102
RTVSPropertyOp25
 70
     1
102
RTVSPropertyOp26
 70
     1
102
RTVSPropertyOp27
 70
     1
102
RTVSPropertyOp28
 70
     1
102
RTVSPropertyOp29
 70
     1
102
RTVSPropertyOp30
 70
     1
102
RTVSPropertyOp31
 70
     1
102
RTVSPropertyOp32
 70
     1
102
RTVSPropertyOp33
 70
     1
102
RTVSPropertyOp34
 70
     1
102
RTVSPropertyOp35
 70
     1
102
RTVSPropertyOp36
 70
     1
102
RTVSPropertyOp37
 70
     1
102
RTVSPropertyOp38
 70
     1
102
RTVSPropertyOp39
 70
     1
102
RTVSPropertyOp40
 70
     1
102
RTVSPropertyOp41
 70
     1
102
RTVSPropertyOp42
 70
     1
102
RTVSPropertyOp43
 70
     1
102
RTVSPropertyOp44
 70
     1
102
RTVSPropertyOp45
 70
     1
102
RTVSPropertyOp46
 70
     1
102
RTVSPropertyOp47
 70
     1
102
RTVSPropertyOp48
 70
     1
102
RTVSPropertyOp49
 70
     1
102
RTVSPropertyOp50
 70
     1
102
RTVSPropertyOp51
 70
     0
102
RTVSPropertyOp52
 70
     0
102
RTVSPropertyOp53
 70
     1
102
RTVSPropertyOp54
 70
     1
102
RTVSPropertyOp55
 70
     1
102
RTVSPropertyOp56
 70
     1
102
RTVSPropertyOp57
 70
     1
102
RTVSPost2010Prop28
280
     0
102
RTVSPost2010PropOp28
 70
     1
102
RTVSPost2010Prop29
280
     1
102
RTVSPost2010PropOp29
 70
     1
102
RTVSPost2010Prop30
280
     1
102
RTVSPost2010PropOp30
 70
     1
102
RTVSPost2010Prop31
280
     0
102
RTVSPost2010PropOp31
 70
     1
102
RTVSPost2010Prop32
280
     0
102
RTVSPost2010PropOp32
 70
     1
102
RTVSPost2010Prop33
280
     0
102
RTVSPost2010PropOp33
 70
     1
102
RTVSPost2010Prop34
280
     0
102
RTVSPost2010PropOp34
 70
     1
102
RTVSPost2010Prop35
280
     0
102
RTVSPost2010PropOp35
 70
     1
102
RTVSPost2010Prop36
280
     0
102
RTVSPost2010PropOp36
 70
     1
102
RTVSPost2010Prop37
 90
       50
102
RTVSPost2010PropOp37
 70
     1
102
RTVSPost2010Prop38
140
0.0
102
RTVSPost2010PropOp38
 70
     1
102
RTVSPost2010Prop39
140
1.0
102
RTVSPost2010PropOp39
 70
     1
102
RTVSPost2010Prop40
 90
        0
102
RTVSPost2010PropOp40
 70
     1
102
RTVSPost2010Prop41ColorIndex
 90
       18
102
RTVSPost2010Prop41ColorRGB
 90
        0
102
RTVSPost2010PropOp41
 70
     1
102
RTVSPost2010Prop42
 90
       50
102
RTVSPost2010PropOp42
 70
     1
102
RTVSPost2010Prop43
 90
        3
102
RTVSPost2010PropOp43
 70
     1
102
RTVSPost2010Prop44ColorIndex
 90
        5
102
RTVSPost2010Prop44ColorRGB
 90
      255
102
RTVSPost2010PropOp44
 70
     1
102
RTVSPost2010Prop45
280
     0
102
RTVSPost2010PropOp45
 70
     1
102
RTVSPost2010Prop46
 90
       50
102
RTVSPost2010PropOp46
 70
     1
102
RTVSPost2010Prop47
 90
       50
102
RTVSPost2010PropOp47
 70
     1
102
RTVSPost2010Prop48
 90
       50
102
RTVSPost2010PropOp48
 70
     1
102
RTVSPost2010Prop49
280
     0
102
RTVSPost2010PropOp49
 70
     1
102
RTVSPost2010Prop50
 90
       50
102
RTVSPost2010PropOp50
 70
     1
102
RTVSPost2010Prop51ColorIndex
 90
      256
102
RTVSPost2010Prop51ColorRGB
 90
-16777216
102
RTVSPost2010PropOp51
 70
     0
102
RTVSPost2010Prop52
140
1.0
102
RTVSPost2010PropOp52
 70
     0
102
RTVSPost2010Prop53
 90
        2
102
RTVSPost2010PropOp53
 70
     1
102
RTVSPost2010Prop54
  1
strokes_ogs.tif
102
RTVSPost2010PropOp54
 70
     1
102
RTVSPost2010Prop55
280
     0
102
RTVSPost2010PropOp55
 70
     1
102
RTVSPost2010Prop56
140
1.0
102
RTVSPost2010PropOp56
 70
     1
102
RTVSPost2010Prop57
140
1.0
102
RTVSPost2010PropOp57
 70
     1
  0
XRECORD
  5
82B
102
{ACAD_REACTORS
330
82A
102
}
330
82A
100
AcDbXrecord
280
     1
102
RTVSPropertyOp0
 70
     1
102
RTVSPropertyOp1
 70
     1
102
RTVSPropertyOp2
 70
     1
102
RTVSPropertyOp3
 70
     1
102
RTVSPropertyOp4
 70
     1
102
RTVSPropertyOp5
 70
     1
102
RTVSPropertyOp6
 70
     1
102
RTVSPropertyOp7
 70
     1
102
RTVSPropertyOp8
 70
     1
102
RTVSPropertyOp9
 70
     1
102
RTVSPropertyOp10
 70
     1
102
RTVSPropertyOp11
 70
     1
102
RTVSPropertyOp12
 70
     1
102
RTVSPropertyOp13
 70
     1
102
RTVSPropertyOp14
 70
     1
102
RTVSPropertyOp15
 70
     1
102
RTVSPropertyOp16
 70
     1
102
RTVSPropertyOp17
 70
     1
102
RTVSPropertyOp18
 70
     1
102
RTVSPropertyOp19
 70
     1
102
RTVSPropertyOp20
 70
     1
102
RTVSPropertyOp21
 70
     1
102
RTVSPropertyOp22
 70
     1
102
RTVSPropertyOp23
 70
     1
102
RTVSPropertyOp24
 70
     1
102
RTVSPropertyOp25
 70
     1
102
RTVSPropertyOp26
 70
     1
102
RTVSPropertyOp27
 70
     1
102
RTVSPropertyOp28
 70
     1
102
RTVSPropertyOp29
 70
     1
102
RTVSPropertyOp30
 70
     1
102
RTVSPropertyOp31
 70
     1
102
RTVSPropertyOp32
 70
     1
102
RTVSPropertyOp33
 70
     1
102
RTVSPropertyOp34
 70
     1
102
RTVSPropertyOp35
 70
     1
102
RTVSPropertyOp36
 70
     1
102
RTVSPropertyOp37
 70
     1
102
RTVSPropertyOp38
 70
     1
102
RTVSPropertyOp39
 70
     1
102
RTVSPropertyOp40
 70
     1
102
RTVSPropertyOp41
 70
     1
102
RTVSPropertyOp42
 70
     1
102
RTVSPropertyOp43
 70
     1
102
RTVSPropertyOp44
 70
     1
102
RTVSPropertyOp45
 70
     1
102
RTVSPropertyOp46
 70
     1
102
RTVSPropertyOp47
 70
     1
102
RTVSPropertyOp48
 70
     1
102
RTVSPropertyOp49
 70
     1
102
RTVSPropertyOp50
 70
     1
102
RTVSPropertyOp51
 70
     0
102
RTVSPropertyOp52
 70
     0
102
RTVSPropertyOp53
 70
     1
102
RTVSPropertyOp54
 70
     1
102
RTVSPropertyOp55
 70
     1
102
RTVSPropertyOp56
 70
     1
102
RTVSPropertyOp57
 70
     1
102
RTVSPost2010Prop28
280
     0
102
RTVSPost2010PropOp28
 70
     1
102
RTVSPost2010Prop29
280
     1
102
RTVSPost2010PropOp29
 70
     1
102
RTVSPost2010Prop30
280
     1
102
RTVSPost2010PropOp30
 70
     1
102
RTVSPost2010Prop31
280
     0
102
RTVSPost2010PropOp31
 70
     1
102
RTVSPost2010Prop32
280
     0
102
RTVSPost2010PropOp32
 70
     1
102
RTVSPost2010Prop33
280
     0
102
RTVSPost2010PropOp33
 70
     1
102
RTVSPost2010Prop34
280
     0
102
RTVSPost2010PropOp34
 70
     1
102
RTVSPost2010Prop35
280
     0
102
RTVSPost2010PropOp35
 70
     1
102
RTVSPost2010Prop36
280
     0
102
RTVSPost2010PropOp36
 70
     1
102
RTVSPost2010Prop37
 90
       50
102
RTVSPost2010PropOp37
 70
     1
102
RTVSPost2010Prop38
140
0.0
102
RTVSPost2010PropOp38
 70
     1
102
RTVSPost2010Prop39
140
1.0
102
RTVSPost2010PropOp39
 70
     1
102
RTVSPost2010Prop40
 90
        0
102
RTVSPost2010PropOp40
 70
     1
102
RTVSPost2010Prop41ColorIndex
 90
       18
102
RTVSPost2010Prop41ColorRGB
 90
        0
102
RTVSPost2010PropOp41
 70
     1
102
RTVSPost2010Prop42
 90
       50
102
RTVSPost2010PropOp42
 70
     1
102
RTVSPost2010Prop43
 90
        3
102
RTVSPost2010PropOp43
 70
     1
102
RTVSPost2010Prop44ColorIndex
 90
        5
102
RTVSPost2010Prop44ColorRGB
 90
      255
102
RTVSPost2010PropOp44
 70
     1
102
RTVSPost2010Prop45
280
     0
102
RTVSPost2010PropOp45
 70
     1
102
RTVSPost2010Prop46
 90
       50
102
RTVSPost2010PropOp46
 70
     1
102
RTVSPost2010Prop47
 90
       50
102
RTVSPost2010PropOp47
 70
     1
102
RTVSPost2010Prop48
 90
       50
102
RTVSPost2010PropOp48
 70
     1
102
RTVSPost2010Prop49
280
     0
102
RTVSPost2010PropOp49
 70
     1
102
RTVSPost2010Prop50
 90
       50
102
RTVSPost2010PropOp50
 70
     1
102
RTVSPost2010Prop51ColorIndex
 90
      256
102
RTVSPost2010Prop51ColorRGB
 90
-16777216
102
RTVSPost2010PropOp51
 70
     0
102
RTVSPost2010Prop52
140
1.0
102
RTVSPost2010PropOp52
 70
     0
102
RTVSPost2010Prop53
 90
        2
102
RTVSPost2010PropOp53
 70
     1
102
RTVSPost2010Prop54
  1
strokes_ogs.tif
102
RTVSPost2010PropOp54
 70
     1
102
RTVSPost2010Prop55
280
     0
102
RTVSPost2010PropOp55
 70
     1
102
RTVSPost2010Prop56
140
1.0
102
RTVSPost2010PropOp56
 70
     1
102
RTVSPost2010Prop57
140
1.0
102
RTVSPost2010PropOp57
 70
     1
  0
XRECORD
  5
83B
102
{ACAD_REACTORS
330
83A
102
}
330
83A
100
AcDbXrecord
280
     1
102
RTVSPropertyOp0
 70
     0
102
RTVSPropertyOp1
 70
     0
102
RTVSPropertyOp2
 70
     0
102
RTVSPropertyOp3
 70
     0
102
RTVSPropertyOp4
 70
     0
102
RTVSPropertyOp5
 70
     0
102
RTVSPropertyOp6
 70
     0
102
RTVSPropertyOp7
 70
     0
102
RTVSPropertyOp8
 70
     0
102
RTVSPropertyOp9
 70
     0
102
RTVSPropertyOp10
 70
     0
102
RTVSPropertyOp11
 70
     0
102
RTVSPropertyOp12
 70
     0
102
RTVSPropertyOp13
 70
     0
102
RTVSPropertyOp14
 70
     2
102
RTVSPropertyOp15
 70
     0
102
RTVSPropertyOp16
 70
     0
102
RTVSPropertyOp17
 70
     0
102
RTVSPropertyOp18
 70
     0
102
RTVSPropertyOp19
 70
     0
102
RTVSPropertyOp20
 70
     0
102
RTVSPropertyOp21
 70
     0
102
RTVSPropertyOp22
 70
     0
102
RTVSPropertyOp23
 70
     0
102
RTVSPropertyOp24
 70
     0
102
RTVSPropertyOp25
 70
     0
102
RTVSPropertyOp26
 70
     0
102
RTVSPropertyOp27
 70
     0
102
RTVSPropertyOp28
 70
     0
102
RTVSPropertyOp29
 70
     0
102
RTVSPropertyOp30
 70
     0
102
RTVSPropertyOp31
 70
     0
102
RTVSPropertyOp32
 70
     0
102
RTVSPropertyOp33
 70
     0
102
RTVSPropertyOp34
 70
     0
102
RTVSPropertyOp35
 70
     0
102
RTVSPropertyOp36
 70
     0
102
RTVSPropertyOp37
 70
     0
102
RTVSPropertyOp38
 70
     0
102
RTVSPropertyOp39
 70
     0
102
RTVSPropertyOp40
 70
     0
102
RTVSPropertyOp41
 70
     0
102
RTVSPropertyOp42
 70
     0
102
RTVSPropertyOp43
 70
     0
102
RTVSPropertyOp44
 70
     0
102
RTVSPropertyOp45
 70
     0
102
RTVSPropertyOp46
 70
     0
102
RTVSPropertyOp47
 70
     0
102
RTVSPropertyOp48
 70
     0
102
RTVSPropertyOp49
 70
     0
102
RTVSPropertyOp50
 70
     0
102
RTVSPropertyOp51
 70
     0
102
RTVSPropertyOp52
 70
     0
102
RTVSPropertyOp53
 70
     0
102
RTVSPropertyOp54
 70
     0
102
RTVSPropertyOp55
 70
     0
102
RTVSPropertyOp56
 70
     0
102
RTVSPropertyOp57
 70
     0
102
RTVSPost2010Prop28
280
     0
102
RTVSPost2010PropOp28
 70
     0
102
RTVSPost2010Prop29
280
     1
102
RTVSPost2010PropOp29
 70
     0
102
RTVSPost2010Prop30
280
     1
102
RTVSPost2010PropOp30
 70
     0
102
RTVSPost2010Prop31
280
     0
102
RTVSPost2010PropOp31
 70
     0
102
RTVSPost2010Prop32
280
     0
102
RTVSPost2010PropOp32
 70
     0
102
RTVSPost2010Prop33
280
     0
102
RTVSPost2010PropOp33
 70
     0
102
RTVSPost2010Prop34
280
     0
102
RTVSPost2010PropOp34
 70
     0
102
RTVSPost2010Prop35
280
     0
102
RTVSPost2010PropOp35
 70
     0
102
RTVSPost2010Prop36
280
     0
102
RTVSPost2010PropOp36
 70
     0
102
RTVSPost2010Prop37
 90
       50
102
RTVSPost2010PropOp37
 70
     0
102
RTVSPost2010Prop38
140
0.0
102
RTVSPost2010PropOp38
 70
     0
102
RTVSPost2010Prop39
140
1.0
102
RTVSPost2010PropOp39
 70
     0
102
RTVSPost2010Prop40
 90
        0
102
RTVSPost2010PropOp40
 70
     0
102
RTVSPost2010Prop41ColorIndex
 90
       18
102
RTVSPost2010Prop41ColorRGB
 90
        0
102
RTVSPost2010PropOp41
 70
     0
102
RTVSPost2010Prop42
 90
       50
102
RTVSPost2010PropOp42
 70
     0
102
RTVSPost2010Prop43
 90
        3
102
RTVSPost2010PropOp43
 70
     0
102
RTVSPost2010Prop44ColorIndex
 90
        5
102
RTVSPost2010Prop44ColorRGB
 90
      255
102
RTVSPost2010PropOp44
 70
     0
102
RTVSPost2010Prop45
280
     0
102
RTVSPost2010PropOp45
 70
     0
102
RTVSPost2010Prop46
 90
       50
102
RTVSPost2010PropOp46
 70
     0
102
RTVSPost2010Prop47
 90
       50
102
RTVSPost2010PropOp47
 70
     0
102
RTVSPost2010Prop48
 90
       50
102
RTVSPost2010PropOp48
 70
     0
102
RTVSPost2010Prop49
280
     0
102
RTVSPost2010PropOp49
 70
     0
102
RTVSPost2010Prop50
 90
       50
102
RTVSPost2010PropOp50
 70
     0
102
RTVSPost2010Prop51ColorIndex
 90
      256
102
RTVSPost2010Prop51ColorRGB
 90
-16777216
102
RTVSPost2010PropOp51
 70
     0
102
RTVSPost2010Prop52
140
1.0
102
RTVSPost2010PropOp52
 70
     0
102
RTVSPost2010Prop53
 90
        2
102
RTVSPost2010PropOp53
 70
     0
102
RTVSPost2010Prop54
  1
strokes_ogs.tif
102
RTVSPost2010PropOp54
 70
     0
102
RTVSPost2010Prop55
280
     0
102
RTVSPost2010PropOp55
 70
     0
102
RTVSPost2010Prop56
140
1.0
102
RTVSPost2010PropOp56
 70
     0
102
RTVSPost2010Prop57
140
1.0
102
RTVSPost2010PropOp57
 70
     0
  0
XRECORD
  5
833
102
{ACAD_REACTORS
330
832
102
}
330
832
100
AcDbXrecord
280
     1
102
RTVSPropertyOp0
 70
     1
102
RTVSPropertyOp1
 70
     1
102
RTVSPropertyOp2
 70
     1
102
RTVSPropertyOp3
 70
     1
102
RTVSPropertyOp4
 70
     1
102
RTVSPropertyOp5
 70
     1
102
RTVSPropertyOp6
 70
     1
102
RTVSPropertyOp7
 70
     1
102
RTVSPropertyOp8
 70
     1
102
RTVSPropertyOp9
 70
     1
102
RTVSPropertyOp10
 70
     1
102
RTVSPropertyOp11
 70
     1
102
RTVSPropertyOp12
 70
     1
102
RTVSPropertyOp13
 70
     1
102
RTVSPropertyOp14
 70
     1
102
RTVSPropertyOp15
 70
     1
102
RTVSPropertyOp16
 70
     1
102
RTVSPropertyOp17
 70
     1
102
RTVSPropertyOp18
 70
     1
102
RTVSPropertyOp19
 70
     1
102
RTVSPropertyOp20
 70
     1
102
RTVSPropertyOp21
 70
     1
102
RTVSPropertyOp22
 70
     1
102
RTVSPropertyOp23
 70
     1
102
RTVSPropertyOp24
 70
     1
102
RTVSPropertyOp25
 70
     1
102
RTVSPropertyOp26
 70
     1
102
RTVSPropertyOp27
 70
     1
102
RTVSPropertyOp28
 70
     1
102
RTVSPropertyOp29
 70
     1
102
RTVSPropertyOp30
 70
     1
102
RTVSPropertyOp31
 70
     1
102
RTVSPropertyOp32
 70
     1
102
RTVSPropertyOp33
 70
     1
102
RTVSPropertyOp34
 70
     1
102
RTVSPropertyOp35
 70
     1
102
RTVSPropertyOp36
 70
     1
102
RTVSPropertyOp37
 70
     1
102
RTVSPropertyOp38
 70
     1
102
RTVSPropertyOp39
 70
     1
102
RTVSPropertyOp40
 70
     1
102
RTVSPropertyOp41
 70
     1
102
RTVSPropertyOp42
 70
     1
102
RTVSPropertyOp43
 70
     1
102
RTVSPropertyOp44
 70
     1
102
RTVSPropertyOp45
 70
     1
102
RTVSPropertyOp46
 70
     1
102
RTVSPropertyOp47
 70
     1
102
RTVSPropertyOp48
 70
     1
102
RTVSPropertyOp49
 70
     1
102
RTVSPropertyOp50
 70
     1
102
RTVSPropertyOp51
 70
     0
102
RTVSPropertyOp52
 70
     0
102
RTVSPropertyOp53
 70
     1
102
RTVSPropertyOp54
 70
     1
102
RTVSPropertyOp55
 70
     1
102
RTVSPropertyOp56
 70
     1
102
RTVSPropertyOp57
 70
     1
102
RTVSPost2010Prop28
280
     0
102
RTVSPost2010PropOp28
 70
     1
102
RTVSPost2010Prop29
280
     1
102
RTVSPost2010PropOp29
 70
     1
102
RTVSPost2010Prop30
280
     1
102
RTVSPost2010PropOp30
 70
     1
102
RTVSPost2010Prop31
280
     0
102
RTVSPost2010PropOp31
 70
     1
102
RTVSPost2010Prop32
280
     0
102
RTVSPost2010PropOp32
 70
     1
102
RTVSPost2010Prop33
280
     0
102
RTVSPost2010PropOp33
 70
     1
102
RTVSPost2010Prop34
280
     0
102
RTVSPost2010PropOp34
 70
     1
102
RTVSPost2010Prop35
280
     0
102
RTVSPost2010PropOp35
 70
     1
102
RTVSPost2010Prop36
280
     0
102
RTVSPost2010PropOp36
 70
     1
102
RTVSPost2010Prop37
 90
       50
102
RTVSPost2010PropOp37
 70
     1
102
RTVSPost2010Prop38
140
0.0
102
RTVSPost2010PropOp38
 70
     1
102
RTVSPost2010Prop39
140
1.0
102
RTVSPost2010PropOp39
 70
     1
102
RTVSPost2010Prop40
 90
        0
102
RTVSPost2010PropOp40
 70
     1
102
RTVSPost2010Prop41ColorIndex
 90
       18
102
RTVSPost2010Prop41ColorRGB
 90
        0
102
RTVSPost2010PropOp41
 70
     1
102
RTVSPost2010Prop42
 90
       50
102
RTVSPost2010PropOp42
 70
     1
102
RTVSPost2010Prop43
 90
        3
102
RTVSPost2010PropOp43
 70
     1
102
RTVSPost2010Prop44ColorIndex
 90
        5
102
RTVSPost2010Prop44ColorRGB
 90
      255
102
RTVSPost2010PropOp44
 70
     1
102
RTVSPost2010Prop45
280
     0
102
RTVSPost2010PropOp45
 70
     1
102
RTVSPost2010Prop46
 90
       50
102
RTVSPost2010PropOp46
 70
     1
102
RTVSPost2010Prop47
 90
       50
102
RTVSPost2010PropOp47
 70
     1
102
RTVSPost2010Prop48
 90
       50
102
RTVSPost2010PropOp48
 70
     1
102
RTVSPost2010Prop49
280
     0
102
RTVSPost2010PropOp49
 70
     1
102
RTVSPost2010Prop50
 90
       50
102
RTVSPost2010PropOp50
 70
     1
102
RTVSPost2010Prop51ColorIndex
 90
      256
102
RTVSPost2010Prop51ColorRGB
 90
-16777216
102
RTVSPost2010PropOp51
 70
     0
102
RTVSPost2010Prop52
140
1.0
102
RTVSPost2010PropOp52
 70
     0
102
RTVSPost2010Prop53
 90
        2
102
RTVSPost2010PropOp53
 70
     1
102
RTVSPost2010Prop54
  1
strokes_ogs.tif
102
RTVSPost2010PropOp54
 70
     1
102
RTVSPost2010Prop55
280
     0
102
RTVSPost2010PropOp55
 70
     1
102
RTVSPost2010Prop56
140
1.0
102
RTVSPost2010PropOp56
 70
     1
102
RTVSPost2010Prop57
140
1.0
102
RTVSPost2010PropOp57
 70
     1
  0
XRECORD
  5
817
102
{ACAD_REACTORS
330
816
102
}
330
816
100
AcDbXrecord
280
     1
102
RTVSPropertyOp0
 70
     1
102
RTVSPropertyOp1
 70
     1
102
RTVSPropertyOp2
 70
     1
102
RTVSPropertyOp3
 70
     1
102
RTVSPropertyOp4
 70
     1
102
RTVSPropertyOp5
 70
     1
102
RTVSPropertyOp6
 70
     1
102
RTVSPropertyOp7
 70
     1
102
RTVSPropertyOp8
 70
     1
102
RTVSPropertyOp9
 70
     1
102
RTVSPropertyOp10
 70
     1
102
RTVSPropertyOp11
 70
     1
102
RTVSPropertyOp12
 70
     1
102
RTVSPropertyOp13
 70
     1
102
RTVSPropertyOp14
 70
     1
102
RTVSPropertyOp15
 70
     1
102
RTVSPropertyOp16
 70
     1
102
RTVSPropertyOp17
 70
     1
102
RTVSPropertyOp18
 70
     1
102
RTVSPropertyOp19
 70
     1
102
RTVSPropertyOp20
 70
     1
102
RTVSPropertyOp21
 70
     1
102
RTVSPropertyOp22
 70
     1
102
RTVSPropertyOp23
 70
     1
102
RTVSPropertyOp24
 70
     1
102
RTVSPropertyOp25
 70
     1
102
RTVSPropertyOp26
 70
     1
102
RTVSPropertyOp27
 70
     1
102
RTVSPropertyOp28
 70
     1
102
RTVSPropertyOp29
 70
     1
102
RTVSPropertyOp30
 70
     1
102
RTVSPropertyOp31
 70
     1
102
RTVSPropertyOp32
 70
     1
102
RTVSPropertyOp33
 70
     1
102
RTVSPropertyOp34
 70
     1
102
RTVSPropertyOp35
 70
     1
102
RTVSPropertyOp36
 70
     1
102
RTVSPropertyOp37
 70
     1
102
RTVSPropertyOp38
 70
     1
102
RTVSPropertyOp39
 70
     1
102
RTVSPropertyOp40
 70
     1
102
RTVSPropertyOp41
 70
     1
102
RTVSPropertyOp42
 70
     1
102
RTVSPropertyOp43
 70
     1
102
RTVSPropertyOp44
 70
     1
102
RTVSPropertyOp45
 70
     1
102
RTVSPropertyOp46
 70
     1
102
RTVSPropertyOp47
 70
     1
102
RTVSPropertyOp48
 70
     1
102
RTVSPropertyOp49
 70
     1
102
RTVSPropertyOp50
 70
     1
102
RTVSPropertyOp51
 70
     0
102
RTVSPropertyOp52
 70
     0
102
RTVSPropertyOp53
 70
     1
102
RTVSPropertyOp54
 70
     1
102
RTVSPropertyOp55
 70
     1
102
RTVSPropertyOp56
 70
     1
102
RTVSPropertyOp57
 70
     1
102
RTVSPost2010Prop28
280
     0
102
RTVSPost2010PropOp28
 70
     1
102
RTVSPost2010Prop29
280
     1
102
RTVSPost2010PropOp29
 70
     1
102
RTVSPost2010Prop30
280
     1
102
RTVSPost2010PropOp30
 70
     1
102
RTVSPost2010Prop31
280
     0
102
RTVSPost2010PropOp31
 70
     1
102
RTVSPost2010Prop32
280
     0
102
RTVSPost2010PropOp32
 70
     1
102
RTVSPost2010Prop33
280
     0
102
RTVSPost2010PropOp33
 70
     1
102
RTVSPost2010Prop34
280
     0
102
RTVSPost2010PropOp34
 70
     1
102
RTVSPost2010Prop35
280
     0
102
RTVSPost2010PropOp35
 70
     1
102
RTVSPost2010Prop36
280
     0
102
RTVSPost2010PropOp36
 70
     1
102
RTVSPost2010Prop37
 90
       50
102
RTVSPost2010PropOp37
 70
     1
102
RTVSPost2010Prop38
140
0.0
102
RTVSPost2010PropOp38
 70
     1
102
RTVSPost2010Prop39
140
1.0
102
RTVSPost2010PropOp39
 70
     1
102
RTVSPost2010Prop40
 90
        0
102
RTVSPost2010PropOp40
 70
     1
102
RTVSPost2010Prop41ColorIndex
 90
       18
102
RTVSPost2010Prop41ColorRGB
 90
        0
102
RTVSPost2010PropOp41
 70
     1
102
RTVSPost2010Prop42
 90
       50
102
RTVSPost2010PropOp42
 70
     1
102
RTVSPost2010Prop43
 90
        3
102
RTVSPost2010PropOp43
 70
     1
102
RTVSPost2010Prop44ColorIndex
 90
        5
102
RTVSPost2010Prop44ColorRGB
 90
      255
102
RTVSPost2010PropOp44
 70
     1
102
RTVSPost2010Prop45
280
     0
102
RTVSPost2010PropOp45
 70
     1
102
RTVSPost2010Prop46
 90
       50
102
RTVSPost2010PropOp46
 70
     1
102
RTVSPost2010Prop47
 90
       50
102
RTVSPost2010PropOp47
 70
     1
102
RTVSPost2010Prop48
 90
       50
102
RTVSPost2010PropOp48
 70
     1
102
RTVSPost2010Prop49
280
     0
102
RTVSPost2010PropOp49
 70
     1
102
RTVSPost2010Prop50
 90
       50
102
RTVSPost2010PropOp50
 70
     1
102
RTVSPost2010Prop51ColorIndex
 90
      256
102
RTVSPost2010Prop51ColorRGB
 90
-16777216
102
RTVSPost2010PropOp51
 70
     0
102
RTVSPost2010Prop52
140
1.0
102
RTVSPost2010PropOp52
 70
     0
102
RTVSPost2010Prop53
 90
        2
102
RTVSPost2010PropOp53
 70
     1
102
RTVSPost2010Prop54
  1
strokes_ogs.tif
102
RTVSPost2010PropOp54
 70
     1
102
RTVSPost2010Prop55
280
     0
102
RTVSPost2010PropOp55
 70
     1
102
RTVSPost2010Prop56
140
1.0
102
RTVSPost2010PropOp56
 70
     1
102
RTVSPost2010Prop57
140
1.0
102
RTVSPost2010PropOp57
 70
     1
  0
XRECORD
  5
819
102
{ACAD_REACTORS
330
818
102
}
330
818
100
AcDbXrecord
280
     1
102
RTVSPropertyOp0
 70
     1
102
RTVSPropertyOp1
 70
     1
102
RTVSPropertyOp2
 70
     1
102
RTVSPropertyOp3
 70
     1
102
RTVSPropertyOp4
 70
     1
102
RTVSPropertyOp5
 70
     1
102
RTVSPropertyOp6
 70
     1
102
RTVSPropertyOp7
 70
     1
102
RTVSPropertyOp8
 70
     1
102
RTVSPropertyOp9
 70
     1
102
RTVSPropertyOp10
 70
     1
102
RTVSPropertyOp11
 70
     1
102
RTVSPropertyOp12
 70
     1
102
RTVSPropertyOp13
 70
     1
102
RTVSPropertyOp14
 70
     1
102
RTVSPropertyOp15
 70
     1
102
RTVSPropertyOp16
 70
     1
102
RTVSPropertyOp17
 70
     1
102
RTVSPropertyOp18
 70
     1
102
RTVSPropertyOp19
 70
     1
102
RTVSPropertyOp20
 70
     1
102
RTVSPropertyOp21
 70
     1
102
RTVSPropertyOp22
 70
     1
102
RTVSPropertyOp23
 70
     1
102
RTVSPropertyOp24
 70
     1
102
RTVSPropertyOp25
 70
     1
102
RTVSPropertyOp26
 70
     1
102
RTVSPropertyOp27
 70
     1
102
RTVSPropertyOp28
 70
     1
102
RTVSPropertyOp29
 70
     1
102
RTVSPropertyOp30
 70
     1
102
RTVSPropertyOp31
 70
     1
102
RTVSPropertyOp32
 70
     1
102
RTVSPropertyOp33
 70
     1
102
RTVSPropertyOp34
 70
     1
102
RTVSPropertyOp35
 70
     1
102
RTVSPropertyOp36
 70
     1
102
RTVSPropertyOp37
 70
     1
102
RTVSPropertyOp38
 70
     1
102
RTVSPropertyOp39
 70
     1
102
RTVSPropertyOp40
 70
     1
102
RTVSPropertyOp41
 70
     1
102
RTVSPropertyOp42
 70
     1
102
RTVSPropertyOp43
 70
     1
102
RTVSPropertyOp44
 70
     1
102
RTVSPropertyOp45
 70
     1
102
RTVSPropertyOp46
 70
     1
102
RTVSPropertyOp47
 70
     1
102
RTVSPropertyOp48
 70
     1
102
RTVSPropertyOp49
 70
     1
102
RTVSPropertyOp50
 70
     1
102
RTVSPropertyOp51
 70
     0
102
RTVSPropertyOp52
 70
     0
102
RTVSPropertyOp53
 70
     1
102
RTVSPropertyOp54
 70
     1
102
RTVSPropertyOp55
 70
     1
102
RTVSPropertyOp56
 70
     1
102
RTVSPropertyOp57
 70
     1
102
RTVSPost2010Prop28
280
     0
102
RTVSPost2010PropOp28
 70
     1
102
RTVSPost2010Prop29
280
     1
102
RTVSPost2010PropOp29
 70
     1
102
RTVSPost2010Prop30
280
     1
102
RTVSPost2010PropOp30
 70
     1
102
RTVSPost2010Prop31
280
     0
102
RTVSPost2010PropOp31
 70
     1
102
RTVSPost2010Prop32
280
     0
102
RTVSPost2010PropOp32
 70
     1
102
RTVSPost2010Prop33
280
     0
102
RTVSPost2010PropOp33
 70
     1
102
RTVSPost2010Prop34
280
     0
102
RTVSPost2010PropOp34
 70
     1
102
RTVSPost2010Prop35
280
     0
102
RTVSPost2010PropOp35
 70
     1
102
RTVSPost2010Prop36
280
     0
102
RTVSPost2010PropOp36
 70
     1
102
RTVSPost2010Prop37
 90
       50
102
RTVSPost2010PropOp37
 70
     1
102
RTVSPost2010Prop38
140
0.0
102
RTVSPost2010PropOp38
 70
     1
102
RTVSPost2010Prop39
140
1.0
102
RTVSPost2010PropOp39
 70
     1
102
RTVSPost2010Prop40
 90
        0
102
RTVSPost2010PropOp40
 70
     1
102
RTVSPost2010Prop41ColorIndex
 90
       18
102
RTVSPost2010Prop41ColorRGB
 90
        0
102
RTVSPost2010PropOp41
 70
     1
102
RTVSPost2010Prop42
 90
       50
102
RTVSPost2010PropOp42
 70
     1
102
RTVSPost2010Prop43
 90
        3
102
RTVSPost2010PropOp43
 70
     1
102
RTVSPost2010Prop44ColorIndex
 90
        5
102
RTVSPost2010Prop44ColorRGB
 90
      255
102
RTVSPost2010PropOp44
 70
     1
102
RTVSPost2010Prop45
280
     0
102
RTVSPost2010PropOp45
 70
     1
102
RTVSPost2010Prop46
 90
       50
102
RTVSPost2010PropOp46
 70
     1
102
RTVSPost2010Prop47
 90
       50
102
RTVSPost2010PropOp47
 70
     1
102
RTVSPost2010Prop48
 90
       50
102
RTVSPost2010PropOp48
 70
     1
102
RTVSPost2010Prop49
280
     0
102
RTVSPost2010PropOp49
 70
     1
102
RTVSPost2010Prop50
 90
       50
102
RTVSPost2010PropOp50
 70
     1
102
RTVSPost2010Prop51ColorIndex
 90
      256
102
RTVSPost2010Prop51ColorRGB
 90
-16777216
102
RTVSPost2010PropOp51
 70
     0
102
RTVSPost2010Prop52
140
1.0
102
RTVSPost2010PropOp52
 70
     0
102
RTVSPost2010Prop53
 90
        2
102
RTVSPost2010PropOp53
 70
     1
102
RTVSPost2010Prop54
  1
strokes_ogs.tif
102
RTVSPost2010PropOp54
 70
     1
102
RTVSPost2010Prop55
280
     0
102
RTVSPost2010PropOp55
 70
     1
102
RTVSPost2010Prop56
140
1.0
102
RTVSPost2010PropOp56
 70
     1
102
RTVSPost2010Prop57
140
1.0
102
RTVSPost2010PropOp57
 70
     1
  0
XRECORD
  5
81B
102
{ACAD_REACTORS
330
81A
102
}
330
81A
100
AcDbXrecord
280
     1
102
RTVSPropertyOp0
 70
     1
102
RTVSPropertyOp1
 70
     1
102
RTVSPropertyOp2
 70
     1
102
RTVSPropertyOp3
 70
     1
102
RTVSPropertyOp4
 70
     1
102
RTVSPropertyOp5
 70
     1
102
RTVSPropertyOp6
 70
     1
102
RTVSPropertyOp7
 70
     1
102
RTVSPropertyOp8
 70
     1
102
RTVSPropertyOp9
 70
     1
102
RTVSPropertyOp10
 70
     1
102
RTVSPropertyOp11
 70
     1
102
RTVSPropertyOp12
 70
     1
102
RTVSPropertyOp13
 70
     1
102
RTVSPropertyOp14
 70
     1
102
RTVSPropertyOp15
 70
     1
102
RTVSPropertyOp16
 70
     1
102
RTVSPropertyOp17
 70
     1
102
RTVSPropertyOp18
 70
     1
102
RTVSPropertyOp19
 70
     1
102
RTVSPropertyOp20
 70
     1
102
RTVSPropertyOp21
 70
     1
102
RTVSPropertyOp22
 70
     1
102
RTVSPropertyOp23
 70
     1
102
RTVSPropertyOp24
 70
     1
102
RTVSPropertyOp25
 70
     1
102
RTVSPropertyOp26
 70
     1
102
RTVSPropertyOp27
 70
     1
102
RTVSPropertyOp28
 70
     1
102
RTVSPropertyOp29
 70
     1
102
RTVSPropertyOp30
 70
     1
102
RTVSPropertyOp31
 70
     1
102
RTVSPropertyOp32
 70
     1
102
RTVSPropertyOp33
 70
     1
102
RTVSPropertyOp34
 70
     1
102
RTVSPropertyOp35
 70
     1
102
RTVSPropertyOp36
 70
     1
102
RTVSPropertyOp37
 70
     1
102
RTVSPropertyOp38
 70
     1
102
RTVSPropertyOp39
 70
     1
102
RTVSPropertyOp40
 70
     1
102
RTVSPropertyOp41
 70
     1
102
RTVSPropertyOp42
 70
     1
102
RTVSPropertyOp43
 70
     1
102
RTVSPropertyOp44
 70
     1
102
RTVSPropertyOp45
 70
     1
102
RTVSPropertyOp46
 70
     1
102
RTVSPropertyOp47
 70
     1
102
RTVSPropertyOp48
 70
     1
102
RTVSPropertyOp49
 70
     1
102
RTVSPropertyOp50
 70
     1
102
RTVSPropertyOp51
 70
     0
102
RTVSPropertyOp52
 70
     0
102
RTVSPropertyOp53
 70
     1
102
RTVSPropertyOp54
 70
     1
102
RTVSPropertyOp55
 70
     1
102
RTVSPropertyOp56
 70
     1
102
RTVSPropertyOp57
 70
     1
102
RTVSPost2010Prop28
280
     0
102
RTVSPost2010PropOp28
 70
     1
102
RTVSPost2010Prop29
280
     1
102
RTVSPost2010PropOp29
 70
     1
102
RTVSPost2010Prop30
280
     1
102
RTVSPost2010PropOp30
 70
     1
102
RTVSPost2010Prop31
280
     0
102
RTVSPost2010PropOp31
 70
     1
102
RTVSPost2010Prop32
280
     0
102
RTVSPost2010PropOp32
 70
     1
102
RTVSPost2010Prop33
280
     0
102
RTVSPost2010PropOp33
 70
     1
102
RTVSPost2010Prop34
280
     0
102
RTVSPost2010PropOp34
 70
     1
102
RTVSPost2010Prop35
280
     0
102
RTVSPost2010PropOp35
 70
     1
102
RTVSPost2010Prop36
280
     0
102
RTVSPost2010PropOp36
 70
     1
102
RTVSPost2010Prop37
 90
       50
102
RTVSPost2010PropOp37
 70
     1
102
RTVSPost2010Prop38
140
0.0
102
RTVSPost2010PropOp38
 70
     1
102
RTVSPost2010Prop39
140
1.0
102
RTVSPost2010PropOp39
 70
     1
102
RTVSPost2010Prop40
 90
        0
102
RTVSPost2010PropOp40
 70
     1
102
RTVSPost2010Prop41ColorIndex
 90
       18
102
RTVSPost2010Prop41ColorRGB
 90
        0
102
RTVSPost2010PropOp41
 70
     1
102
RTVSPost2010Prop42
 90
       50
102
RTVSPost2010PropOp42
 70
     1
102
RTVSPost2010Prop43
 90
        3
102
RTVSPost2010PropOp43
 70
     1
102
RTVSPost2010Prop44ColorIndex
 90
        5
102
RTVSPost2010Prop44ColorRGB
 90
      255
102
RTVSPost2010PropOp44
 70
     1
102
RTVSPost2010Prop45
280
     0
102
RTVSPost2010PropOp45
 70
     1
102
RTVSPost2010Prop46
 90
       50
102
RTVSPost2010PropOp46
 70
     1
102
RTVSPost2010Prop47
 90
       50
102
RTVSPost2010PropOp47
 70
     1
102
RTVSPost2010Prop48
 90
       50
102
RTVSPost2010PropOp48
 70
     1
102
RTVSPost2010Prop49
280
     0
102
RTVSPost2010PropOp49
 70
     1
102
RTVSPost2010Prop50
 90
       50
102
RTVSPost2010PropOp50
 70
     1
102
RTVSPost2010Prop51ColorIndex
 90
      256
102
RTVSPost2010Prop51ColorRGB
 90
-16777216
102
RTVSPost2010PropOp51
 70
     0
102
RTVSPost2010Prop52
140
1.0
102
RTVSPost2010PropOp52
 70
     0
102
RTVSPost2010Prop53
 90
        2
102
RTVSPost2010PropOp53
 70
     1
102
RTVSPost2010Prop54
  1
strokes_ogs.tif
102
RTVSPost2010PropOp54
 70
     1
102
RTVSPost2010Prop55
280
     0
102
RTVSPost2010PropOp55
 70
     1
102
RTVSPost2010Prop56
140
1.0
102
RTVSPost2010PropOp56
 70
     1
102
RTVSPost2010Prop57
140
1.0
102
RTVSPost2010PropOp57
 70
     1
  0
XRECORD
  5
81D
102
{ACAD_REACTORS
330
81C
102
}
330
81C
100
AcDbXrecord
280
     1
102
RTVSPropertyOp0
 70
     1
102
RTVSPropertyOp1
 70
     1
102
RTVSPropertyOp2
 70
     1
102
RTVSPropertyOp3
 70
     1
102
RTVSPropertyOp4
 70
     1
102
RTVSPropertyOp5
 70
     1
102
RTVSPropertyOp6
 70
     1
102
RTVSPropertyOp7
 70
     1
102
RTVSPropertyOp8
 70
     1
102
RTVSPropertyOp9
 70
     1
102
RTVSPropertyOp10
 70
     1
102
RTVSPropertyOp11
 70
     1
102
RTVSPropertyOp12
 70
     1
102
RTVSPropertyOp13
 70
     1
102
RTVSPropertyOp14
 70
     1
102
RTVSPropertyOp15
 70
     1
102
RTVSPropertyOp16
 70
     1
102
RTVSPropertyOp17
 70
     1
102
RTVSPropertyOp18
 70
     1
102
RTVSPropertyOp19
 70
     1
102
RTVSPropertyOp20
 70
     1
102
RTVSPropertyOp21
 70
     1
102
RTVSPropertyOp22
 70
     1
102
RTVSPropertyOp23
 70
     1
102
RTVSPropertyOp24
 70
     1
102
RTVSPropertyOp25
 70
     1
102
RTVSPropertyOp26
 70
     1
102
RTVSPropertyOp27
 70
     1
102
RTVSPropertyOp28
 70
     1
102
RTVSPropertyOp29
 70
     1
102
RTVSPropertyOp30
 70
     1
102
RTVSPropertyOp31
 70
     1
102
RTVSPropertyOp32
 70
     1
102
RTVSPropertyOp33
 70
     1
102
RTVSPropertyOp34
 70
     1
102
RTVSPropertyOp35
 70
     1
102
RTVSPropertyOp36
 70
     1
102
RTVSPropertyOp37
 70
     1
102
RTVSPropertyOp38
 70
     1
102
RTVSPropertyOp39
 70
     1
102
RTVSPropertyOp40
 70
     1
102
RTVSPropertyOp41
 70
     1
102
RTVSPropertyOp42
 70
     1
102
RTVSPropertyOp43
 70
     1
102
RTVSPropertyOp44
 70
     1
102
RTVSPropertyOp45
 70
     1
102
RTVSPropertyOp46
 70
     1
102
RTVSPropertyOp47
 70
     1
102
RTVSPropertyOp48
 70
     1
102
RTVSPropertyOp49
 70
     1
102
RTVSPropertyOp50
 70
     1
102
RTVSPropertyOp51
 70
     0
102
RTVSPropertyOp52
 70
     0
102
RTVSPropertyOp53
 70
     1
102
RTVSPropertyOp54
 70
     1
102
RTVSPropertyOp55
 70
     1
102
RTVSPropertyOp56
 70
     1
102
RTVSPropertyOp57
 70
     1
102
RTVSPost2010Prop28
280
     0
102
RTVSPost2010PropOp28
 70
     1
102
RTVSPost2010Prop29
280
     1
102
RTVSPost2010PropOp29
 70
     1
102
RTVSPost2010Prop30
280
     1
102
RTVSPost2010PropOp30
 70
     1
102
RTVSPost2010Prop31
280
     0
102
RTVSPost2010PropOp31
 70
     1
102
RTVSPost2010Prop32
280
     0
102
RTVSPost2010PropOp32
 70
     1
102
RTVSPost2010Prop33
280
     0
102
RTVSPost2010PropOp33
 70
     1
102
RTVSPost2010Prop34
280
     0
102
RTVSPost2010PropOp34
 70
     1
102
RTVSPost2010Prop35
280
     0
102
RTVSPost2010PropOp35
 70
     1
102
RTVSPost2010Prop36
280
     0
102
RTVSPost2010PropOp36
 70
     1
102
RTVSPost2010Prop37
 90
       50
102
RTVSPost2010PropOp37
 70
     1
102
RTVSPost2010Prop38
140
0.0
102
RTVSPost2010PropOp38
 70
     1
102
RTVSPost2010Prop39
140
1.0
102
RTVSPost2010PropOp39
 70
     1
102
RTVSPost2010Prop40
 90
        0
102
RTVSPost2010PropOp40
 70
     1
102
RTVSPost2010Prop41ColorIndex
 90
       18
102
RTVSPost2010Prop41ColorRGB
 90
        0
102
RTVSPost2010PropOp41
 70
     1
102
RTVSPost2010Prop42
 90
       50
102
RTVSPost2010PropOp42
 70
     1
102
RTVSPost2010Prop43
 90
        3
102
RTVSPost2010PropOp43
 70
     1
102
RTVSPost2010Prop44ColorIndex
 90
        5
102
RTVSPost2010Prop44ColorRGB
 90
      255
102
RTVSPost2010PropOp44
 70
     1
102
RTVSPost2010Prop45
280
     0
102
RTVSPost2010PropOp45
 70
     1
102
RTVSPost2010Prop46
 90
       50
102
RTVSPost2010PropOp46
 70
     1
102
RTVSPost2010Prop47
 90
       50
102
RTVSPost2010PropOp47
 70
     1
102
RTVSPost2010Prop48
 90
       50
102
RTVSPost2010PropOp48
 70
     1
102
RTVSPost2010Prop49
280
     0
102
RTVSPost2010PropOp49
 70
     1
102
RTVSPost2010Prop50
 90
       50
102
RTVSPost2010PropOp50
 70
     1
102
RTVSPost2010Prop51ColorIndex
 90
      256
102
RTVSPost2010Prop51ColorRGB
 90
-16777216
102
RTVSPost2010PropOp51
 70
     0
102
RTVSPost2010Prop52
140
1.0
102
RTVSPost2010PropOp52
 70
     0
102
RTVSPost2010Prop53
 90
        2
102
RTVSPost2010PropOp53
 70
     1
102
RTVSPost2010Prop54
  1
strokes_ogs.tif
102
RTVSPost2010PropOp54
 70
     1
102
RTVSPost2010Prop55
280
     0
102
RTVSPost2010PropOp55
 70
     1
102
RTVSPost2010Prop56
140
1.0
102
RTVSPost2010PropOp56
 70
     1
102
RTVSPost2010Prop57
140
1.0
102
RTVSPost2010PropOp57
 70
     1
  0
XRECORD
  5
823
102
{ACAD_REACTORS
330
822
102
}
330
822
100
AcDbXrecord
280
     1
102
RTVSPropertyOp0
 70
     1
102
RTVSPropertyOp1
 70
     1
102
RTVSPropertyOp2
 70
     1
102
RTVSPropertyOp3
 70
     1
102
RTVSPropertyOp4
 70
     1
102
RTVSPropertyOp5
 70
     1
102
RTVSPropertyOp6
 70
     1
102
RTVSPropertyOp7
 70
     1
102
RTVSPropertyOp8
 70
     1
102
RTVSPropertyOp9
 70
     1
102
RTVSPropertyOp10
 70
     1
102
RTVSPropertyOp11
 70
     1
102
RTVSPropertyOp12
 70
     1
102
RTVSPropertyOp13
 70
     1
102
RTVSPropertyOp14
 70
     1
102
RTVSPropertyOp15
 70
     1
102
RTVSPropertyOp16
 70
     1
102
RTVSPropertyOp17
 70
     1
102
RTVSPropertyOp18
 70
     1
102
RTVSPropertyOp19
 70
     1
102
RTVSPropertyOp20
 70
     1
102
RTVSPropertyOp21
 70
     1
102
RTVSPropertyOp22
 70
     1
102
RTVSPropertyOp23
 70
     1
102
RTVSPropertyOp24
 70
     1
102
RTVSPropertyOp25
 70
     1
102
RTVSPropertyOp26
 70
     1
102
RTVSPropertyOp27
 70
     1
102
RTVSPropertyOp28
 70
     1
102
RTVSPropertyOp29
 70
     1
102
RTVSPropertyOp30
 70
     1
102
RTVSPropertyOp31
 70
     1
102
RTVSPropertyOp32
 70
     1
102
RTVSPropertyOp33
 70
     1
102
RTVSPropertyOp34
 70
     1
102
RTVSPropertyOp35
 70
     1
102
RTVSPropertyOp36
 70
     1
102
RTVSPropertyOp37
 70
     1
102
RTVSPropertyOp38
 70
     1
102
RTVSPropertyOp39
 70
     1
102
RTVSPropertyOp40
 70
     1
102
RTVSPropertyOp41
 70
     1
102
RTVSPropertyOp42
 70
     1
102
RTVSPropertyOp43
 70
     1
102
RTVSPropertyOp44
 70
     1
102
RTVSPropertyOp45
 70
     1
102
RTVSPropertyOp46
 70
     1
102
RTVSPropertyOp47
 70
     1
102
RTVSPropertyOp48
 70
     1
102
RTVSPropertyOp49
 70
     1
102
RTVSPropertyOp50
 70
     1
102
RTVSPropertyOp51
 70
     0
102
RTVSPropertyOp52
 70
     0
102
RTVSPropertyOp53
 70
     1
102
RTVSPropertyOp54
 70
     1
102
RTVSPropertyOp55
 70
     1
102
RTVSPropertyOp56
 70
     1
102
RTVSPropertyOp57
 70
     1
102
RTVSPost2010Prop28
280
     0
102
RTVSPost2010PropOp28
 70
     1
102
RTVSPost2010Prop29
280
     1
102
RTVSPost2010PropOp29
 70
     1
102
RTVSPost2010Prop30
280
     1
102
RTVSPost2010PropOp30
 70
     1
102
RTVSPost2010Prop31
280
     0
102
RTVSPost2010PropOp31
 70
     1
102
RTVSPost2010Prop32
280
     0
102
RTVSPost2010PropOp32
 70
     1
102
RTVSPost2010Prop33
280
     0
102
RTVSPost2010PropOp33
 70
     1
102
RTVSPost2010Prop34
280
     0
102
RTVSPost2010PropOp34
 70
     1
102
RTVSPost2010Prop35
280
     0
102
RTVSPost2010PropOp35
 70
     1
102
RTVSPost2010Prop36
280
     0
102
RTVSPost2010PropOp36
 70
     1
102
RTVSPost2010Prop37
 90
       50
102
RTVSPost2010PropOp37
 70
     1
102
RTVSPost2010Prop38
140
0.0
102
RTVSPost2010PropOp38
 70
     1
102
RTVSPost2010Prop39
140
1.0
102
RTVSPost2010PropOp39
 70
     1
102
RTVSPost2010Prop40
 90
        0
102
RTVSPost2010PropOp40
 70
     1
102
RTVSPost2010Prop41ColorIndex
 90
       18
102
RTVSPost2010Prop41ColorRGB
 90
        0
102
RTVSPost2010PropOp41
 70
     1
102
RTVSPost2010Prop42
 90
       50
102
RTVSPost2010PropOp42
 70
     1
102
RTVSPost2010Prop43
 90
        3
102
RTVSPost2010PropOp43
 70
     1
102
RTVSPost2010Prop44ColorIndex
 90
        5
102
RTVSPost2010Prop44ColorRGB
 90
      255
102
RTVSPost2010PropOp44
 70
     1
102
RTVSPost2010Prop45
280
     0
102
RTVSPost2010PropOp45
 70
     1
102
RTVSPost2010Prop46
 90
       50
102
RTVSPost2010PropOp46
 70
     1
102
RTVSPost2010Prop47
 90
       50
102
RTVSPost2010PropOp47
 70
     1
102
RTVSPost2010Prop48
 90
       50
102
RTVSPost2010PropOp48
 70
     1
102
RTVSPost2010Prop49
280
     0
102
RTVSPost2010PropOp49
 70
     1
102
RTVSPost2010Prop50
 90
       50
102
RTVSPost2010PropOp50
 70
     1
102
RTVSPost2010Prop51ColorIndex
 90
      256
102
RTVSPost2010Prop51ColorRGB
 90
-16777216
102
RTVSPost2010PropOp51
 70
     0
102
RTVSPost2010Prop52
140
1.0
102
RTVSPost2010PropOp52
 70
     0
102
RTVSPost2010Prop53
 90
        2
102
RTVSPost2010PropOp53
 70
     1
102
RTVSPost2010Prop54
  1
strokes_ogs.tif
102
RTVSPost2010PropOp54
 70
     1
102
RTVSPost2010Prop55
280
     0
102
RTVSPost2010PropOp55
 70
     1
102
RTVSPost2010Prop56
140
1.0
102
RTVSPost2010PropOp56
 70
     1
102
RTVSPost2010Prop57
140
1.0
102
RTVSPost2010PropOp57
 70
     1
  0
XRECORD
  5
837
102
{ACAD_REACTORS
330
836
102
}
330
836
100
AcDbXrecord
280
     1
102
RTVSPropertyOp0
 70
     0
102
RTVSPropertyOp1
 70
     0
102
RTVSPropertyOp2
 70
     0
102
RTVSPropertyOp3
 70
     0
102
RTVSPropertyOp4
 70
     0
102
RTVSPropertyOp5
 70
     0
102
RTVSPropertyOp6
 70
     0
102
RTVSPropertyOp7
 70
     0
102
RTVSPropertyOp8
 70
     0
102
RTVSPropertyOp9
 70
     0
102
RTVSPropertyOp10
 70
     0
102
RTVSPropertyOp11
 70
     0
102
RTVSPropertyOp12
 70
     0
102
RTVSPropertyOp13
 70
     0
102
RTVSPropertyOp14
 70
     2
102
RTVSPropertyOp15
 70
     0
102
RTVSPropertyOp16
 70
     0
102
RTVSPropertyOp17
 70
     0
102
RTVSPropertyOp18
 70
     0
102
RTVSPropertyOp19
 70
     0
102
RTVSPropertyOp20
 70
     0
102
RTVSPropertyOp21
 70
     0
102
RTVSPropertyOp22
 70
     0
102
RTVSPropertyOp23
 70
     0
102
RTVSPropertyOp24
 70
     0
102
RTVSPropertyOp25
 70
     0
102
RTVSPropertyOp26
 70
     0
102
RTVSPropertyOp27
 70
     0
102
RTVSPropertyOp28
 70
     0
102
RTVSPropertyOp29
 70
     0
102
RTVSPropertyOp30
 70
     0
102
RTVSPropertyOp31
 70
     0
102
RTVSPropertyOp32
 70
     0
102
RTVSPropertyOp33
 70
     0
102
RTVSPropertyOp34
 70
     0
102
RTVSPropertyOp35
 70
     0
102
RTVSPropertyOp36
 70
     0
102
RTVSPropertyOp37
 70
     0
102
RTVSPropertyOp38
 70
     0
102
RTVSPropertyOp39
 70
     0
102
RTVSPropertyOp40
 70
     0
102
RTVSPropertyOp41
 70
     0
102
RTVSPropertyOp42
 70
     0
102
RTVSPropertyOp43
 70
     0
102
RTVSPropertyOp44
 70
     0
102
RTVSPropertyOp45
 70
     0
102
RTVSPropertyOp46
 70
     0
102
RTVSPropertyOp47
 70
     0
102
RTVSPropertyOp48
 70
     0
102
RTVSPropertyOp49
 70
     0
102
RTVSPropertyOp50
 70
     0
102
RTVSPropertyOp51
 70
     0
102
RTVSPropertyOp52
 70
     0
102
RTVSPropertyOp53
 70
     0
102
RTVSPropertyOp54
 70
     0
102
RTVSPropertyOp55
 70
     0
102
RTVSPropertyOp56
 70
     0
102
RTVSPropertyOp57
 70
     0
102
RTVSPost2010Prop28
280
     0
102
RTVSPost2010PropOp28
 70
     0
102
RTVSPost2010Prop29
280
     1
102
RTVSPost2010PropOp29
 70
     0
102
RTVSPost2010Prop30
280
     1
102
RTVSPost2010PropOp30
 70
     0
102
RTVSPost2010Prop31
280
     0
102
RTVSPost2010PropOp31
 70
     0
102
RTVSPost2010Prop32
280
     0
102
RTVSPost2010PropOp32
 70
     0
102
RTVSPost2010Prop33
280
     0
102
RTVSPost2010PropOp33
 70
     0
102
RTVSPost2010Prop34
280
     0
102
RTVSPost2010PropOp34
 70
     0
102
RTVSPost2010Prop35
280
     0
102
RTVSPost2010PropOp35
 70
     0
102
RTVSPost2010Prop36
280
     0
102
RTVSPost2010PropOp36
 70
     0
102
RTVSPost2010Prop37
 90
       50
102
RTVSPost2010PropOp37
 70
     0
102
RTVSPost2010Prop38
140
0.0
102
RTVSPost2010PropOp38
 70
     0
102
RTVSPost2010Prop39
140
1.0
102
RTVSPost2010PropOp39
 70
     0
102
RTVSPost2010Prop40
 90
        0
102
RTVSPost2010PropOp40
 70
     0
102
RTVSPost2010Prop41ColorIndex
 90
       18
102
RTVSPost2010Prop41ColorRGB
 90
        0
102
RTVSPost2010PropOp41
 70
     0
102
RTVSPost2010Prop42
 90
       50
102
RTVSPost2010PropOp42
 70
     0
102
RTVSPost2010Prop43
 90
        3
102
RTVSPost2010PropOp43
 70
     0
102
RTVSPost2010Prop44ColorIndex
 90
        5
102
RTVSPost2010Prop44ColorRGB
 90
      255
102
RTVSPost2010PropOp44
 70
     0
102
RTVSPost2010Prop45
280
     0
102
RTVSPost2010PropOp45
 70
     0
102
RTVSPost2010Prop46
 90
       50
102
RTVSPost2010PropOp46
 70
     0
102
RTVSPost2010Prop47
 90
       50
102
RTVSPost2010PropOp47
 70
     0
102
RTVSPost2010Prop48
 90
       50
102
RTVSPost2010PropOp48
 70
     0
102
RTVSPost2010Prop49
280
     0
102
RTVSPost2010PropOp49
 70
     0
102
RTVSPost2010Prop50
 90
       50
102
RTVSPost2010PropOp50
 70
     0
102
RTVSPost2010Prop51ColorIndex
 90
      256
102
RTVSPost2010Prop51ColorRGB
 90
-16777216
102
RTVSPost2010PropOp51
 70
     0
102
RTVSPost2010Prop52
140
1.0
102
RTVSPost2010PropOp52
 70
     0
102
RTVSPost2010Prop53
 90
        2
102
RTVSPost2010PropOp53
 70
     0
102
RTVSPost2010Prop54
  1
strokes_ogs.tif
102
RTVSPost2010PropOp54
 70
     0
102
RTVSPost2010Prop55
280
     0
102
RTVSPost2010PropOp55
 70
     0
102
RTVSPost2010Prop56
140
1.0
102
RTVSPost2010PropOp56
 70
     0
102
RTVSPost2010Prop57
140
1.0
102
RTVSPost2010PropOp57
 70
     0
  0
XRECORD
  5
831
102
{ACAD_REACTORS
330
830
102
}
330
830
100
AcDbXrecord
280
     1
102
RTVSPropertyOp0
 70
     1
102
RTVSPropertyOp1
 70
     1
102
RTVSPropertyOp2
 70
     1
102
RTVSPropertyOp3
 70
     1
102
RTVSPropertyOp4
 70
     1
102
RTVSPropertyOp5
 70
     1
102
RTVSPropertyOp6
 70
     1
102
RTVSPropertyOp7
 70
     1
102
RTVSPropertyOp8
 70
     1
102
RTVSPropertyOp9
 70
     1
102
RTVSPropertyOp10
 70
     1
102
RTVSPropertyOp11
 70
     1
102
RTVSPropertyOp12
 70
     1
102
RTVSPropertyOp13
 70
     1
102
RTVSPropertyOp14
 70
     1
102
RTVSPropertyOp15
 70
     1
102
RTVSPropertyOp16
 70
     1
102
RTVSPropertyOp17
 70
     1
102
RTVSPropertyOp18
 70
     1
102
RTVSPropertyOp19
 70
     1
102
RTVSPropertyOp20
 70
     1
102
RTVSPropertyOp21
 70
     1
102
RTVSPropertyOp22
 70
     1
102
RTVSPropertyOp23
 70
     1
102
RTVSPropertyOp24
 70
     1
102
RTVSPropertyOp25
 70
     1
102
RTVSPropertyOp26
 70
     1
102
RTVSPropertyOp27
 70
     1
102
RTVSPropertyOp28
 70
     1
102
RTVSPropertyOp29
 70
     1
102
RTVSPropertyOp30
 70
     1
102
RTVSPropertyOp31
 70
     1
102
RTVSPropertyOp32
 70
     1
102
RTVSPropertyOp33
 70
     1
102
RTVSPropertyOp34
 70
     1
102
RTVSPropertyOp35
 70
     1
102
RTVSPropertyOp36
 70
     1
102
RTVSPropertyOp37
 70
     1
102
RTVSPropertyOp38
 70
     1
102
RTVSPropertyOp39
 70
     1
102
RTVSPropertyOp40
 70
     1
102
RTVSPropertyOp41
 70
     1
102
RTVSPropertyOp42
 70
     1
102
RTVSPropertyOp43
 70
     1
102
RTVSPropertyOp44
 70
     1
102
RTVSPropertyOp45
 70
     1
102
RTVSPropertyOp46
 70
     1
102
RTVSPropertyOp47
 70
     1
102
RTVSPropertyOp48
 70
     1
102
RTVSPropertyOp49
 70
     1
102
RTVSPropertyOp50
 70
     1
102
RTVSPropertyOp51
 70
     0
102
RTVSPropertyOp52
 70
     0
102
RTVSPropertyOp53
 70
     1
102
RTVSPropertyOp54
 70
     1
102
RTVSPropertyOp55
 70
     1
102
RTVSPropertyOp56
 70
     1
102
RTVSPropertyOp57
 70
     1
102
RTVSPost2010Prop28
280
     0
102
RTVSPost2010PropOp28
 70
     1
102
RTVSPost2010Prop29
280
     1
102
RTVSPost2010PropOp29
 70
     1
102
RTVSPost2010Prop30
280
     1
102
RTVSPost2010PropOp30
 70
     1
102
RTVSPost2010Prop31
280
     0
102
RTVSPost2010PropOp31
 70
     1
102
RTVSPost2010Prop32
280
     0
102
RTVSPost2010PropOp32
 70
     1
102
RTVSPost2010Prop33
280
     0
102
RTVSPost2010PropOp33
 70
     1
102
RTVSPost2010Prop34
280
     0
102
RTVSPost2010PropOp34
 70
     1
102
RTVSPost2010Prop35
280
     0
102
RTVSPost2010PropOp35
 70
     1
102
RTVSPost2010Prop36
280
     0
102
RTVSPost2010PropOp36
 70
     1
102
RTVSPost2010Prop37
 90
       50
102
RTVSPost2010PropOp37
 70
     1
102
RTVSPost2010Prop38
140
0.0
102
RTVSPost2010PropOp38
 70
     1
102
RTVSPost2010Prop39
140
1.0
102
RTVSPost2010PropOp39
 70
     1
102
RTVSPost2010Prop40
 90
        0
102
RTVSPost2010PropOp40
 70
     1
102
RTVSPost2010Prop41ColorIndex
 90
       18
102
RTVSPost2010Prop41ColorRGB
 90
        0
102
RTVSPost2010PropOp41
 70
     1
102
RTVSPost2010Prop42
 90
       50
102
RTVSPost2010PropOp42
 70
     1
102
RTVSPost2010Prop43
 90
        3
102
RTVSPost2010PropOp43
 70
     1
102
RTVSPost2010Prop44ColorIndex
 90
        5
102
RTVSPost2010Prop44ColorRGB
 90
      255
102
RTVSPost2010PropOp44
 70
     1
102
RTVSPost2010Prop45
280
     0
102
RTVSPost2010PropOp45
 70
     1
102
RTVSPost2010Prop46
 90
       50
102
RTVSPost2010PropOp46
 70
     1
102
RTVSPost2010Prop47
 90
       50
102
RTVSPost2010PropOp47
 70
     1
102
RTVSPost2010Prop48
 90
       50
102
RTVSPost2010PropOp48
 70
     1
102
RTVSPost2010Prop49
280
     0
102
RTVSPost2010PropOp49
 70
     1
102
RTVSPost2010Prop50
 90
       50
102
RTVSPost2010PropOp50
 70
     1
102
RTVSPost2010Prop51ColorIndex
 90
      256
102
RTVSPost2010Prop51ColorRGB
 90
-16777216
102
RTVSPost2010PropOp51
 70
     0
102
RTVSPost2010Prop52
140
1.0
102
RTVSPost2010PropOp52
 70
     0
102
RTVSPost2010Prop53
 90
        2
102
RTVSPost2010PropOp53
 70
     1
102
RTVSPost2010Prop54
  1
strokes_ogs.tif
102
RTVSPost2010PropOp54
 70
     1
102
RTVSPost2010Prop55
280
     0
102
RTVSPost2010PropOp55
 70
     1
102
RTVSPost2010Prop56
140
1.0
102
RTVSPost2010PropOp56
 70
     1
102
RTVSPost2010Prop57
140
1.0
102
RTVSPost2010PropOp57
 70
     1
  0
XRECORD
  5
839
102
{ACAD_REACTORS
330
838
102
}
330
838
100
AcDbXrecord
280
     1
102
RTVSPropertyOp0
 70
     0
102
RTVSPropertyOp1
 70
     0
102
RTVSPropertyOp2
 70
     0
102
RTVSPropertyOp3
 70
     0
102
RTVSPropertyOp4
 70
     0
102
RTVSPropertyOp5
 70
     0
102
RTVSPropertyOp6
 70
     0
102
RTVSPropertyOp7
 70
     0
102
RTVSPropertyOp8
 70
     0
102
RTVSPropertyOp9
 70
     0
102
RTVSPropertyOp10
 70
     0
102
RTVSPropertyOp11
 70
     0
102
RTVSPropertyOp12
 70
     0
102
RTVSPropertyOp13
 70
     0
102
RTVSPropertyOp14
 70
     2
102
RTVSPropertyOp15
 70
     0
102
RTVSPropertyOp16
 70
     0
102
RTVSPropertyOp17
 70
     0
102
RTVSPropertyOp18
 70
     0
102
RTVSPropertyOp19
 70
     0
102
RTVSPropertyOp20
 70
     0
102
RTVSPropertyOp21
 70
     0
102
RTVSPropertyOp22
 70
     0
102
RTVSPropertyOp23
 70
     0
102
RTVSPropertyOp24
 70
     0
102
RTVSPropertyOp25
 70
     0
102
RTVSPropertyOp26
 70
     0
102
RTVSPropertyOp27
 70
     0
102
RTVSPropertyOp28
 70
     0
102
RTVSPropertyOp29
 70
     0
102
RTVSPropertyOp30
 70
     0
102
RTVSPropertyOp31
 70
     0
102
RTVSPropertyOp32
 70
     0
102
RTVSPropertyOp33
 70
     0
102
RTVSPropertyOp34
 70
     0
102
RTVSPropertyOp35
 70
     0
102
RTVSPropertyOp36
 70
     0
102
RTVSPropertyOp37
 70
     0
102
RTVSPropertyOp38
 70
     0
102
RTVSPropertyOp39
 70
     0
102
RTVSPropertyOp40
 70
     0
102
RTVSPropertyOp41
 70
     0
102
RTVSPropertyOp42
 70
     0
102
RTVSPropertyOp43
 70
     0
102
RTVSPropertyOp44
 70
     0
102
RTVSPropertyOp45
 70
     0
102
RTVSPropertyOp46
 70
     0
102
RTVSPropertyOp47
 70
     0
102
RTVSPropertyOp48
 70
     0
102
RTVSPropertyOp49
 70
     0
102
RTVSPropertyOp50
 70
     0
102
RTVSPropertyOp51
 70
     0
102
RTVSPropertyOp52
 70
     0
102
RTVSPropertyOp53
 70
     0
102
RTVSPropertyOp54
 70
     0
102
RTVSPropertyOp55
 70
     0
102
RTVSPropertyOp56
 70
     0
102
RTVSPropertyOp57
 70
     0
102
RTVSPost2010Prop28
280
     0
102
RTVSPost2010PropOp28
 70
     0
102
RTVSPost2010Prop29
280
     1
102
RTVSPost2010PropOp29
 70
     0
102
RTVSPost2010Prop30
280
     1
102
RTVSPost2010PropOp30
 70
     0
102
RTVSPost2010Prop31
280
     0
102
RTVSPost2010PropOp31
 70
     0
102
RTVSPost2010Prop32
280
     0
102
RTVSPost2010PropOp32
 70
     0
102
RTVSPost2010Prop33
280
     0
102
RTVSPost2010PropOp33
 70
     0
102
RTVSPost2010Prop34
280
     0
102
RTVSPost2010PropOp34
 70
     0
102
RTVSPost2010Prop35
280
     0
102
RTVSPost2010PropOp35
 70
     0
102
RTVSPost2010Prop36
280
     0
102
RTVSPost2010PropOp36
 70
     0
102
RTVSPost2010Prop37
 90
       50
102
RTVSPost2010PropOp37
 70
     0
102
RTVSPost2010Prop38
140
0.0
102
RTVSPost2010PropOp38
 70
     0
102
RTVSPost2010Prop39
140
1.0
102
RTVSPost2010PropOp39
 70
     0
102
RTVSPost2010Prop40
 90
        0
102
RTVSPost2010PropOp40
 70
     0
102
RTVSPost2010Prop41ColorIndex
 90
       18
102
RTVSPost2010Prop41ColorRGB
 90
        0
102
RTVSPost2010PropOp41
 70
     0
102
RTVSPost2010Prop42
 90
       50
102
RTVSPost2010PropOp42
 70
     0
102
RTVSPost2010Prop43
 90
        3
102
RTVSPost2010PropOp43
 70
     0
102
RTVSPost2010Prop44ColorIndex
 90
        5
102
RTVSPost2010Prop44ColorRGB
 90
      255
102
RTVSPost2010PropOp44
 70
     0
102
RTVSPost2010Prop45
280
     0
102
RTVSPost2010PropOp45
 70
     0
102
RTVSPost2010Prop46
 90
       50
102
RTVSPost2010PropOp46
 70
     0
102
RTVSPost2010Prop47
 90
       50
102
RTVSPost2010PropOp47
 70
     0
102
RTVSPost2010Prop48
 90
       50
102
RTVSPost2010PropOp48
 70
     0
102
RTVSPost2010Prop49
280
     0
102
RTVSPost2010PropOp49
 70
     0
102
RTVSPost2010Prop50
 90
       50
102
RTVSPost2010PropOp50
 70
     0
102
RTVSPost2010Prop51ColorIndex
 90
      256
102
RTVSPost2010Prop51ColorRGB
 90
-16777216
102
RTVSPost2010PropOp51
 70
     0
102
RTVSPost2010Prop52
140
1.0
102
RTVSPost2010PropOp52
 70
     0
102
RTVSPost2010Prop53
 90
        2
102
RTVSPost2010PropOp53
 70
     0
102
RTVSPost2010Prop54
  1
strokes_ogs.tif
102
RTVSPost2010PropOp54
 70
     0
102
RTVSPost2010Prop55
280
     0
102
RTVSPost2010PropOp55
 70
     0
102
RTVSPost2010Prop56
140
1.0
102
RTVSPost2010PropOp56
 70
     0
102
RTVSPost2010Prop57
140
1.0
102
RTVSPost2010PropOp57
 70
     0
  0
XRECORD
  5
827
102
{ACAD_REACTORS
330
826
102
}
330
826
100
AcDbXrecord
280
     1
102
RTVSPropertyOp0
 70
     1
102
RTVSPropertyOp1
 70
     1
102
RTVSPropertyOp2
 70
     1
102
RTVSPropertyOp3
 70
     1
102
RTVSPropertyOp4
 70
     1
102
RTVSPropertyOp5
 70
     1
102
RTVSPropertyOp6
 70
     1
102
RTVSPropertyOp7
 70
     1
102
RTVSPropertyOp8
 70
     1
102
RTVSPropertyOp9
 70
     1
102
RTVSPropertyOp10
 70
     1
102
RTVSPropertyOp11
 70
     1
102
RTVSPropertyOp12
 70
     1
102
RTVSPropertyOp13
 70
     1
102
RTVSPropertyOp14
 70
     1
102
RTVSPropertyOp15
 70
     1
102
RTVSPropertyOp16
 70
     1
102
RTVSPropertyOp17
 70
     1
102
RTVSPropertyOp18
 70
     1
102
RTVSPropertyOp19
 70
     1
102
RTVSPropertyOp20
 70
     1
102
RTVSPropertyOp21
 70
     1
102
RTVSPropertyOp22
 70
     1
102
RTVSPropertyOp23
 70
     1
102
RTVSPropertyOp24
 70
     1
102
RTVSPropertyOp25
 70
     1
102
RTVSPropertyOp26
 70
     1
102
RTVSPropertyOp27
 70
     1
102
RTVSPropertyOp28
 70
     1
102
RTVSPropertyOp29
 70
     1
102
RTVSPropertyOp30
 70
     1
102
RTVSPropertyOp31
 70
     1
102
RTVSPropertyOp32
 70
     1
102
RTVSPropertyOp33
 70
     1
102
RTVSPropertyOp34
 70
     1
102
RTVSPropertyOp35
 70
     1
102
RTVSPropertyOp36
 70
     1
102
RTVSPropertyOp37
 70
     1
102
RTVSPropertyOp38
 70
     1
102
RTVSPropertyOp39
 70
     1
102
RTVSPropertyOp40
 70
     1
102
RTVSPropertyOp41
 70
     1
102
RTVSPropertyOp42
 70
     1
102
RTVSPropertyOp43
 70
     1
102
RTVSPropertyOp44
 70
     1
102
RTVSPropertyOp45
 70
     1
102
RTVSPropertyOp46
 70
     1
102
RTVSPropertyOp47
 70
     1
102
RTVSPropertyOp48
 70
     1
102
RTVSPropertyOp49
 70
     1
102
RTVSPropertyOp50
 70
     1
102
RTVSPropertyOp51
 70
     0
102
RTVSPropertyOp52
 70
     0
102
RTVSPropertyOp53
 70
     1
102
RTVSPropertyOp54
 70
     1
102
RTVSPropertyOp55
 70
     1
102
RTVSPropertyOp56
 70
     1
102
RTVSPropertyOp57
 70
     1
102
RTVSPost2010Prop28
280
     0
102
RTVSPost2010PropOp28
 70
     1
102
RTVSPost2010Prop29
280
     1
102
RTVSPost2010PropOp29
 70
     1
102
RTVSPost2010Prop30
280
     1
102
RTVSPost2010PropOp30
 70
     1
102
RTVSPost2010Prop31
280
     0
102
RTVSPost2010PropOp31
 70
     1
102
RTVSPost2010Prop32
280
     0
102
RTVSPost2010PropOp32
 70
     1
102
RTVSPost2010Prop33
280
     0
102
RTVSPost2010PropOp33
 70
     1
102
RTVSPost2010Prop34
280
     0
102
RTVSPost2010PropOp34
 70
     1
102
RTVSPost2010Prop35
280
     0
102
RTVSPost2010PropOp35
 70
     1
102
RTVSPost2010Prop36
280
     0
102
RTVSPost2010PropOp36
 70
     1
102
RTVSPost2010Prop37
 90
       50
102
RTVSPost2010PropOp37
 70
     1
102
RTVSPost2010Prop38
140
0.0
102
RTVSPost2010PropOp38
 70
     1
102
RTVSPost2010Prop39
140
1.0
102
RTVSPost2010PropOp39
 70
     1
102
RTVSPost2010Prop40
 90
        0
102
RTVSPost2010PropOp40
 70
     1
102
RTVSPost2010Prop41ColorIndex
 90
       18
102
RTVSPost2010Prop41ColorRGB
 90
        0
102
RTVSPost2010PropOp41
 70
     1
102
RTVSPost2010Prop42
 90
       50
102
RTVSPost2010PropOp42
 70
     1
102
RTVSPost2010Prop43
 90
        3
102
RTVSPost2010PropOp43
 70
     1
102
RTVSPost2010Prop44ColorIndex
 90
        5
102
RTVSPost2010Prop44ColorRGB
 90
      255
102
RTVSPost2010PropOp44
 70
     1
102
RTVSPost2010Prop45
280
     0
102
RTVSPost2010PropOp45
 70
     1
102
RTVSPost2010Prop46
 90
       50
102
RTVSPost2010PropOp46
 70
     1
102
RTVSPost2010Prop47
 90
       50
102
RTVSPost2010PropOp47
 70
     1
102
RTVSPost2010Prop48
 90
       50
102
RTVSPost2010PropOp48
 70
     1
102
RTVSPost2010Prop49
280
     0
102
RTVSPost2010PropOp49
 70
     1
102
RTVSPost2010Prop50
 90
       50
102
RTVSPost2010PropOp50
 70
     1
102
RTVSPost2010Prop51ColorIndex
 90
      256
102
RTVSPost2010Prop51ColorRGB
 90
-16777216
102
RTVSPost2010PropOp51
 70
     0
102
RTVSPost2010Prop52
140
1.0
102
RTVSPost2010PropOp52
 70
     0
102
RTVSPost2010Prop53
 90
        2
102
RTVSPost2010PropOp53
 70
     1
102
RTVSPost2010Prop54
  1
strokes_ogs.tif
102
RTVSPost2010PropOp54
 70
     1
102
RTVSPost2010Prop55
280
     0
102
RTVSPost2010PropOp55
 70
     1
102
RTVSPost2010Prop56
140
1.0
102
RTVSPost2010PropOp56
 70
     1
102
RTVSPost2010Prop57
140
1.0
102
RTVSPost2010PropOp57
 70
     1
  0
XRECORD
  5
845
102
{ACAD_REACTORS
330
844
102
}
330
844
100
AcDbXrecord
280
     1
102
RTVSPropertyOp0
 70
     1
102
RTVSPropertyOp1
 70
     1
102
RTVSPropertyOp2
 70
     1
102
RTVSPropertyOp3
 70
     1
102
RTVSPropertyOp4
 70
     1
102
RTVSPropertyOp5
 70
     1
102
RTVSPropertyOp6
 70
     1
102
RTVSPropertyOp7
 70
     1
102
RTVSPropertyOp8
 70
     1
102
RTVSPropertyOp9
 70
     1
102
RTVSPropertyOp10
 70
     1
102
RTVSPropertyOp11
 70
     1
102
RTVSPropertyOp12
 70
     1
102
RTVSPropertyOp13
 70
     1
102
RTVSPropertyOp14
 70
     1
102
RTVSPropertyOp15
 70
     1
102
RTVSPropertyOp16
 70
     1
102
RTVSPropertyOp17
 70
     1
102
RTVSPropertyOp18
 70
     1
102
RTVSPropertyOp19
 70
     1
102
RTVSPropertyOp20
 70
     1
102
RTVSPropertyOp21
 70
     1
102
RTVSPropertyOp22
 70
     1
102
RTVSPropertyOp23
 70
     1
102
RTVSPropertyOp24
 70
     1
102
RTVSPropertyOp25
 70
     1
102
RTVSPropertyOp26
 70
     1
102
RTVSPropertyOp27
 70
     1
102
RTVSPropertyOp28
 70
     1
102
RTVSPropertyOp29
 70
     1
102
RTVSPropertyOp30
 70
     1
102
RTVSPropertyOp31
 70
     1
102
RTVSPropertyOp32
 70
     1
102
RTVSPropertyOp33
 70
     1
102
RTVSPropertyOp34
 70
     1
102
RTVSPropertyOp35
 70
     1
102
RTVSPropertyOp36
 70
     1
102
RTVSPropertyOp37
 70
     1
102
RTVSPropertyOp38
 70
     1
102
RTVSPropertyOp39
 70
     1
102
RTVSPropertyOp40
 70
     1
102
RTVSPropertyOp41
 70
     1
102
RTVSPropertyOp42
 70
     1
102
RTVSPropertyOp43
 70
     1
102
RTVSPropertyOp44
 70
     1
102
RTVSPropertyOp45
 70
     1
102
RTVSPropertyOp46
 70
     1
102
RTVSPropertyOp47
 70
     1
102
RTVSPropertyOp48
 70
     1
102
RTVSPropertyOp49
 70
     1
102
RTVSPropertyOp50
 70
     1
102
RTVSPropertyOp51
 70
     0
102
RTVSPropertyOp52
 70
     0
102
RTVSPropertyOp53
 70
     1
102
RTVSPropertyOp54
 70
     1
102
RTVSPropertyOp55
 70
     1
102
RTVSPropertyOp56
 70
     1
102
RTVSPropertyOp57
 70
     1
102
RTVSPost2010Prop28
280
     0
102
RTVSPost2010PropOp28
 70
     1
102
RTVSPost2010Prop29
280
     1
102
RTVSPost2010PropOp29
 70
     1
102
RTVSPost2010Prop30
280
     1
102
RTVSPost2010PropOp30
 70
     1
102
RTVSPost2010Prop31
280
     0
102
RTVSPost2010PropOp31
 70
     1
102
RTVSPost2010Prop32
280
     0
102
RTVSPost2010PropOp32
 70
     1
102
RTVSPost2010Prop33
280
     0
102
RTVSPost2010PropOp33
 70
     1
102
RTVSPost2010Prop34
280
     0
102
RTVSPost2010PropOp34
 70
     1
102
RTVSPost2010Prop35
280
     0
102
RTVSPost2010PropOp35
 70
     1
102
RTVSPost2010Prop36
280
     0
102
RTVSPost2010PropOp36
 70
     1
102
RTVSPost2010Prop37
 90
       50
102
RTVSPost2010PropOp37
 70
     1
102
RTVSPost2010Prop38
140
0.0
102
RTVSPost2010PropOp38
 70
     1
102
RTVSPost2010Prop39
140
1.0
102
RTVSPost2010PropOp39
 70
     1
102
RTVSPost2010Prop40
 90
        0
102
RTVSPost2010PropOp40
 70
     1
102
RTVSPost2010Prop41ColorIndex
 90
       18
102
RTVSPost2010Prop41ColorRGB
 90
        0
102
RTVSPost2010PropOp41
 70
     1
102
RTVSPost2010Prop42
 90
       50
102
RTVSPost2010PropOp42
 70
     1
102
RTVSPost2010Prop43
 90
        3
102
RTVSPost2010PropOp43
 70
     1
102
RTVSPost2010Prop44ColorIndex
 90
        5
102
RTVSPost2010Prop44ColorRGB
 90
      255
102
RTVSPost2010PropOp44
 70
     1
102
RTVSPost2010Prop45
280
     0
102
RTVSPost2010PropOp45
 70
     1
102
RTVSPost2010Prop46
 90
       50
102
RTVSPost2010PropOp46
 70
     1
102
RTVSPost2010Prop47
 90
       50
102
RTVSPost2010PropOp47
 70
     1
102
RTVSPost2010Prop48
 90
       50
102
RTVSPost2010PropOp48
 70
     1
102
RTVSPost2010Prop49
280
     0
102
RTVSPost2010PropOp49
 70
     1
102
RTVSPost2010Prop50
 90
       50
102
RTVSPost2010PropOp50
 70
     1
102
RTVSPost2010Prop51ColorIndex
 90
      256
102
RTVSPost2010Prop51ColorRGB
 90
-16777216
102
RTVSPost2010PropOp51
 70
     0
102
RTVSPost2010Prop52
140
1.0
102
RTVSPost2010PropOp52
 70
     0
102
RTVSPost2010Prop53
 90
        2
102
RTVSPost2010PropOp53
 70
     1
102
RTVSPost2010Prop54
  1
strokes_ogs.tif
102
RTVSPost2010PropOp54
 70
     1
102
RTVSPost2010Prop55
280
     0
102
RTVSPost2010PropOp55
 70
     1
102
RTVSPost2010Prop56
140
1.0
102
RTVSPost2010PropOp56
 70
     1
102
RTVSPost2010Prop57
140
1.0
102
RTVSPost2010PropOp57
 70
     1
  0
XRECORD
  5
843
102
{ACAD_REACTORS
330
842
102
}
330
842
100
AcDbXrecord
280
     1
102
RTVSPropertyOp0
 70
     1
102
RTVSPropertyOp1
 70
     1
102
RTVSPropertyOp2
 70
     1
102
RTVSPropertyOp3
 70
     1
102
RTVSPropertyOp4
 70
     1
102
RTVSPropertyOp5
 70
     1
102
RTVSPropertyOp6
 70
     1
102
RTVSPropertyOp7
 70
     1
102
RTVSPropertyOp8
 70
     1
102
RTVSPropertyOp9
 70
     1
102
RTVSPropertyOp10
 70
     1
102
RTVSPropertyOp11
 70
     1
102
RTVSPropertyOp12
 70
     1
102
RTVSPropertyOp13
 70
     1
102
RTVSPropertyOp14
 70
     1
102
RTVSPropertyOp15
 70
     1
102
RTVSPropertyOp16
 70
     1
102
RTVSPropertyOp17
 70
     1
102
RTVSPropertyOp18
 70
     1
102
RTVSPropertyOp19
 70
     1
102
RTVSPropertyOp20
 70
     1
102
RTVSPropertyOp21
 70
     1
102
RTVSPropertyOp22
 70
     1
102
RTVSPropertyOp23
 70
     1
102
RTVSPropertyOp24
 70
     1
102
RTVSPropertyOp25
 70
     1
102
RTVSPropertyOp26
 70
     1
102
RTVSPropertyOp27
 70
     1
102
RTVSPropertyOp28
 70
     1
102
RTVSPropertyOp29
 70
     1
102
RTVSPropertyOp30
 70
     1
102
RTVSPropertyOp31
 70
     1
102
RTVSPropertyOp32
 70
     1
102
RTVSPropertyOp33
 70
     1
102
RTVSPropertyOp34
 70
     1
102
RTVSPropertyOp35
 70
     1
102
RTVSPropertyOp36
 70
     1
102
RTVSPropertyOp37
 70
     1
102
RTVSPropertyOp38
 70
     1
102
RTVSPropertyOp39
 70
     1
102
RTVSPropertyOp40
 70
     1
102
RTVSPropertyOp41
 70
     1
102
RTVSPropertyOp42
 70
     1
102
RTVSPropertyOp43
 70
     1
102
RTVSPropertyOp44
 70
     1
102
RTVSPropertyOp45
 70
     1
102
RTVSPropertyOp46
 70
     1
102
RTVSPropertyOp47
 70
     1
102
RTVSPropertyOp48
 70
     1
102
RTVSPropertyOp49
 70
     1
102
RTVSPropertyOp50
 70
     1
102
RTVSPropertyOp51
 70
     0
102
RTVSPropertyOp52
 70
     0
102
RTVSPropertyOp53
 70
     1
102
RTVSPropertyOp54
 70
     1
102
RTVSPropertyOp55
 70
     1
102
RTVSPropertyOp56
 70
     1
102
RTVSPropertyOp57
 70
     1
102
RTVSPost2010Prop28
280
     0
102
RTVSPost2010PropOp28
 70
     1
102
RTVSPost2010Prop29
280
     1
102
RTVSPost2010PropOp29
 70
     1
102
RTVSPost2010Prop30
280
     1
102
RTVSPost2010PropOp30
 70
     1
102
RTVSPost2010Prop31
280
     0
102
RTVSPost2010PropOp31
 70
     1
102
RTVSPost2010Prop32
280
     0
102
RTVSPost2010PropOp32
 70
     1
102
RTVSPost2010Prop33
280
     0
102
RTVSPost2010PropOp33
 70
     1
102
RTVSPost2010Prop34
280
     0
102
RTVSPost2010PropOp34
 70
     1
102
RTVSPost2010Prop35
280
     0
102
RTVSPost2010PropOp35
 70
     1
102
RTVSPost2010Prop36
280
     0
102
RTVSPost2010PropOp36
 70
     1
102
RTVSPost2010Prop37
 90
       50
102
RTVSPost2010PropOp37
 70
     1
102
RTVSPost2010Prop38
140
0.0
102
RTVSPost2010PropOp38
 70
     1
102
RTVSPost2010Prop39
140
1.0
102
RTVSPost2010PropOp39
 70
     1
102
RTVSPost2010Prop40
 90
        0
102
RTVSPost2010PropOp40
 70
     1
102
RTVSPost2010Prop41ColorIndex
 90
       18
102
RTVSPost2010Prop41ColorRGB
 90
        0
102
RTVSPost2010PropOp41
 70
     1
102
RTVSPost2010Prop42
 90
       50
102
RTVSPost2010PropOp42
 70
     1
102
RTVSPost2010Prop43
 90
        3
102
RTVSPost2010PropOp43
 70
     1
102
RTVSPost2010Prop44ColorIndex
 90
        5
102
RTVSPost2010Prop44ColorRGB
 90
      255
102
RTVSPost2010PropOp44
 70
     1
102
RTVSPost2010Prop45
280
     0
102
RTVSPost2010PropOp45
 70
     1
102
RTVSPost2010Prop46
 90
       50
102
RTVSPost2010PropOp46
 70
     1
102
RTVSPost2010Prop47
 90
       50
102
RTVSPost2010PropOp47
 70
     1
102
RTVSPost2010Prop48
 90
       50
102
RTVSPost2010PropOp48
 70
     1
102
RTVSPost2010Prop49
280
     0
102
RTVSPost2010PropOp49
 70
     1
102
RTVSPost2010Prop50
 90
       50
102
RTVSPost2010PropOp50
 70
     1
102
RTVSPost2010Prop51ColorIndex
 90
      256
102
RTVSPost2010Prop51ColorRGB
 90
-16777216
102
RTVSPost2010PropOp51
 70
     0
102
RTVSPost2010Prop52
140
1.0
102
RTVSPost2010PropOp52
 70
     0
102
RTVSPost2010Prop53
 90
        2
102
RTVSPost2010PropOp53
 70
     1
102
RTVSPost2010Prop54
  1
strokes_ogs.tif
102
RTVSPost2010PropOp54
 70
     1
102
RTVSPost2010Prop55
280
     0
102
RTVSPost2010PropOp55
 70
     1
102
RTVSPost2010Prop56
140
1.0
102
RTVSPost2010PropOp56
 70
     1
102
RTVSPost2010Prop57
140
1.0
102
RTVSPost2010PropOp57
 70
     1
  0
XRECORD
  5
83D
102
{ACAD_REACTORS
330
83C
102
}
330
83C
100
AcDbXrecord
280
     1
102
RTVSPropertyOp0
 70
     1
102
RTVSPropertyOp1
 70
     1
102
RTVSPropertyOp2
 70
     1
102
RTVSPropertyOp3
 70
     1
102
RTVSPropertyOp4
 70
     1
102
RTVSPropertyOp5
 70
     1
102
RTVSPropertyOp6
 70
     1
102
RTVSPropertyOp7
 70
     1
102
RTVSPropertyOp8
 70
     1
102
RTVSPropertyOp9
 70
     1
102
RTVSPropertyOp10
 70
     1
102
RTVSPropertyOp11
 70
     1
102
RTVSPropertyOp12
 70
     1
102
RTVSPropertyOp13
 70
     1
102
RTVSPropertyOp14
 70
     1
102
RTVSPropertyOp15
 70
     1
102
RTVSPropertyOp16
 70
     1
102
RTVSPropertyOp17
 70
     1
102
RTVSPropertyOp18
 70
     1
102
RTVSPropertyOp19
 70
     1
102
RTVSPropertyOp20
 70
     1
102
RTVSPropertyOp21
 70
     1
102
RTVSPropertyOp22
 70
     1
102
RTVSPropertyOp23
 70
     1
102
RTVSPropertyOp24
 70
     1
102
RTVSPropertyOp25
 70
     1
102
RTVSPropertyOp26
 70
     1
102
RTVSPropertyOp27
 70
     1
102
RTVSPropertyOp28
 70
     1
102
RTVSPropertyOp29
 70
     1
102
RTVSPropertyOp30
 70
     1
102
RTVSPropertyOp31
 70
     1
102
RTVSPropertyOp32
 70
     1
102
RTVSPropertyOp33
 70
     1
102
RTVSPropertyOp34
 70
     1
102
RTVSPropertyOp35
 70
     1
102
RTVSPropertyOp36
 70
     1
102
RTVSPropertyOp37
 70
     1
102
RTVSPropertyOp38
 70
     1
102
RTVSPropertyOp39
 70
     1
102
RTVSPropertyOp40
 70
     1
102
RTVSPropertyOp41
 70
     1
102
RTVSPropertyOp42
 70
     1
102
RTVSPropertyOp43
 70
     1
102
RTVSPropertyOp44
 70
     1
102
RTVSPropertyOp45
 70
     1
102
RTVSPropertyOp46
 70
     1
102
RTVSPropertyOp47
 70
     1
102
RTVSPropertyOp48
 70
     1
102
RTVSPropertyOp49
 70
     1
102
RTVSPropertyOp50
 70
     1
102
RTVSPropertyOp51
 70
     0
102
RTVSPropertyOp52
 70
     0
102
RTVSPropertyOp53
 70
     1
102
RTVSPropertyOp54
 70
     1
102
RTVSPropertyOp55
 70
     1
102
RTVSPropertyOp56
 70
     1
102
RTVSPropertyOp57
 70
     1
102
RTVSPost2010Prop28
280
     0
102
RTVSPost2010PropOp28
 70
     1
102
RTVSPost2010Prop29
280
     1
102
RTVSPost2010PropOp29
 70
     1
102
RTVSPost2010Prop30
280
     1
102
RTVSPost2010PropOp30
 70
     1
102
RTVSPost2010Prop31
280
     0
102
RTVSPost2010PropOp31
 70
     1
102
RTVSPost2010Prop32
280
     0
102
RTVSPost2010PropOp32
 70
     1
102
RTVSPost2010Prop33
280
     0
102
RTVSPost2010PropOp33
 70
     1
102
RTVSPost2010Prop34
280
     0
102
RTVSPost2010PropOp34
 70
     1
102
RTVSPost2010Prop35
280
     0
102
RTVSPost2010PropOp35
 70
     1
102
RTVSPost2010Prop36
280
     0
102
RTVSPost2010PropOp36
 70
     1
102
RTVSPost2010Prop37
 90
       50
102
RTVSPost2010PropOp37
 70
     1
102
RTVSPost2010Prop38
140
0.0
102
RTVSPost2010PropOp38
 70
     1
102
RTVSPost2010Prop39
140
1.0
102
RTVSPost2010PropOp39
 70
     1
102
RTVSPost2010Prop40
 90
        0
102
RTVSPost2010PropOp40
 70
     1
102
RTVSPost2010Prop41ColorIndex
 90
       18
102
RTVSPost2010Prop41ColorRGB
 90
        0
102
RTVSPost2010PropOp41
 70
     1
102
RTVSPost2010Prop42
 90
       50
102
RTVSPost2010PropOp42
 70
     1
102
RTVSPost2010Prop43
 90
        3
102
RTVSPost2010PropOp43
 70
     1
102
RTVSPost2010Prop44ColorIndex
 90
        5
102
RTVSPost2010Prop44ColorRGB
 90
      255
102
RTVSPost2010PropOp44
 70
     1
102
RTVSPost2010Prop45
280
     0
102
RTVSPost2010PropOp45
 70
     1
102
RTVSPost2010Prop46
 90
       50
102
RTVSPost2010PropOp46
 70
     1
102
RTVSPost2010Prop47
 90
       50
102
RTVSPost2010PropOp47
 70
     1
102
RTVSPost2010Prop48
 90
       50
102
RTVSPost2010PropOp48
 70
     1
102
RTVSPost2010Prop49
280
     0
102
RTVSPost2010PropOp49
 70
     1
102
RTVSPost2010Prop50
 90
       50
102
RTVSPost2010PropOp50
 70
     1
102
RTVSPost2010Prop51ColorIndex
 90
      256
102
RTVSPost2010Prop51ColorRGB
 90
-16777216
102
RTVSPost2010PropOp51
 70
     0
102
RTVSPost2010Prop52
140
1.0
102
RTVSPost2010PropOp52
 70
     0
102
RTVSPost2010Prop53
 90
        2
102
RTVSPost2010PropOp53
 70
     1
102
RTVSPost2010Prop54
  1
strokes_ogs.tif
102
RTVSPost2010PropOp54
 70
     1
102
RTVSPost2010Prop55
280
     0
102
RTVSPost2010PropOp55
 70
     1
102
RTVSPost2010Prop56
140
1.0
102
RTVSPost2010PropOp56
 70
     1
102
RTVSPost2010Prop57
140
1.0
102
RTVSPost2010PropOp57
 70
     1
  0
XRECORD
  5
83F
102
{ACAD_REACTORS
330
83E
102
}
330
83E
100
AcDbXrecord
280
     1
102
RTVSPropertyOp0
 70
     1
102
RTVSPropertyOp1
 70
     1
102
RTVSPropertyOp2
 70
     1
102
RTVSPropertyOp3
 70
     1
102
RTVSPropertyOp4
 70
     1
102
RTVSPropertyOp5
 70
     1
102
RTVSPropertyOp6
 70
     1
102
RTVSPropertyOp7
 70
     1
102
RTVSPropertyOp8
 70
     1
102
RTVSPropertyOp9
 70
     1
102
RTVSPropertyOp10
 70
     1
102
RTVSPropertyOp11
 70
     1
102
RTVSPropertyOp12
 70
     1
102
RTVSPropertyOp13
 70
     1
102
RTVSPropertyOp14
 70
     1
102
RTVSPropertyOp15
 70
     1
102
RTVSPropertyOp16
 70
     1
102
RTVSPropertyOp17
 70
     1
102
RTVSPropertyOp18
 70
     1
102
RTVSPropertyOp19
 70
     1
102
RTVSPropertyOp20
 70
     1
102
RTVSPropertyOp21
 70
     1
102
RTVSPropertyOp22
 70
     1
102
RTVSPropertyOp23
 70
     1
102
RTVSPropertyOp24
 70
     1
102
RTVSPropertyOp25
 70
     1
102
RTVSPropertyOp26
 70
     1
102
RTVSPropertyOp27
 70
     1
102
RTVSPropertyOp28
 70
     1
102
RTVSPropertyOp29
 70
     1
102
RTVSPropertyOp30
 70
     1
102
RTVSPropertyOp31
 70
     1
102
RTVSPropertyOp32
 70
     1
102
RTVSPropertyOp33
 70
     1
102
RTVSPropertyOp34
 70
     1
102
RTVSPropertyOp35
 70
     1
102
RTVSPropertyOp36
 70
     1
102
RTVSPropertyOp37
 70
     1
102
RTVSPropertyOp38
 70
     1
102
RTVSPropertyOp39
 70
     1
102
RTVSPropertyOp40
 70
     1
102
RTVSPropertyOp41
 70
     1
102
RTVSPropertyOp42
 70
     1
102
RTVSPropertyOp43
 70
     1
102
RTVSPropertyOp44
 70
     1
102
RTVSPropertyOp45
 70
     1
102
RTVSPropertyOp46
 70
     1
102
RTVSPropertyOp47
 70
     1
102
RTVSPropertyOp48
 70
     1
102
RTVSPropertyOp49
 70
     1
102
RTVSPropertyOp50
 70
     1
102
RTVSPropertyOp51
 70
     0
102
RTVSPropertyOp52
 70
     0
102
RTVSPropertyOp53
 70
     1
102
RTVSPropertyOp54
 70
     1
102
RTVSPropertyOp55
 70
     1
102
RTVSPropertyOp56
 70
     1
102
RTVSPropertyOp57
 70
     1
102
RTVSPost2010Prop28
280
     0
102
RTVSPost2010PropOp28
 70
     1
102
RTVSPost2010Prop29
280
     1
102
RTVSPost2010PropOp29
 70
     1
102
RTVSPost2010Prop30
280
     1
102
RTVSPost2010PropOp30
 70
     1
102
RTVSPost2010Prop31
280
     0
102
RTVSPost2010PropOp31
 70
     1
102
RTVSPost2010Prop32
280
     0
102
RTVSPost2010PropOp32
 70
     1
102
RTVSPost2010Prop33
280
     0
102
RTVSPost2010PropOp33
 70
     1
102
RTVSPost2010Prop34
280
     0
102
RTVSPost2010PropOp34
 70
     1
102
RTVSPost2010Prop35
280
     0
102
RTVSPost2010PropOp35
 70
     1
102
RTVSPost2010Prop36
280
     0
102
RTVSPost2010PropOp36
 70
     1
102
RTVSPost2010Prop37
 90
       50
102
RTVSPost2010PropOp37
 70
     1
102
RTVSPost2010Prop38
140
0.0
102
RTVSPost2010PropOp38
 70
     1
102
RTVSPost2010Prop39
140
1.0
102
RTVSPost2010PropOp39
 70
     1
102
RTVSPost2010Prop40
 90
        0
102
RTVSPost2010PropOp40
 70
     1
102
RTVSPost2010Prop41ColorIndex
 90
       18
102
RTVSPost2010Prop41ColorRGB
 90
        0
102
RTVSPost2010PropOp41
 70
     1
102
RTVSPost2010Prop42
 90
       50
102
RTVSPost2010PropOp42
 70
     1
102
RTVSPost2010Prop43
 90
        3
102
RTVSPost2010PropOp43
 70
     1
102
RTVSPost2010Prop44ColorIndex
 90
        5
102
RTVSPost2010Prop44ColorRGB
 90
      255
102
RTVSPost2010PropOp44
 70
     1
102
RTVSPost2010Prop45
280
     0
102
RTVSPost2010PropOp45
 70
     1
102
RTVSPost2010Prop46
 90
       50
102
RTVSPost2010PropOp46
 70
     1
102
RTVSPost2010Prop47
 90
       50
102
RTVSPost2010PropOp47
 70
     1
102
RTVSPost2010Prop48
 90
       50
102
RTVSPost2010PropOp48
 70
     1
102
RTVSPost2010Prop49
280
     0
102
RTVSPost2010PropOp49
 70
     1
102
RTVSPost2010Prop50
 90
       50
102
RTVSPost2010PropOp50
 70
     1
102
RTVSPost2010Prop51ColorIndex
 90
      256
102
RTVSPost2010Prop51ColorRGB
 90
-16777216
102
RTVSPost2010PropOp51
 70
     0
102
RTVSPost2010Prop52
140
1.0
102
RTVSPost2010PropOp52
 70
     0
102
RTVSPost2010Prop53
 90
        2
102
RTVSPost2010PropOp53
 70
     1
102
RTVSPost2010Prop54
  1
strokes_ogs.tif
102
RTVSPost2010PropOp54
 70
     1
102
RTVSPost2010Prop55
280
     0
102
RTVSPost2010PropOp55
 70
     1
102
RTVSPost2010Prop56
140
1.0
102
RTVSPost2010PropOp56
 70
     1
102
RTVSPost2010Prop57
140
1.0
102
RTVSPost2010PropOp57
 70
     1
  0
XRECORD
  5
82F
102
{ACAD_REACTORS
330
82E
102
}
330
82E
100
AcDbXrecord
280
     1
102
RTVSPropertyOp0
 70
     1
102
RTVSPropertyOp1
 70
     1
102
RTVSPropertyOp2
 70
     1
102
RTVSPropertyOp3
 70
     1
102
RTVSPropertyOp4
 70
     1
102
RTVSPropertyOp5
 70
     1
102
RTVSPropertyOp6
 70
     1
102
RTVSPropertyOp7
 70
     1
102
RTVSPropertyOp8
 70
     1
102
RTVSPropertyOp9
 70
     1
102
RTVSPropertyOp10
 70
     1
102
RTVSPropertyOp11
 70
     1
102
RTVSPropertyOp12
 70
     1
102
RTVSPropertyOp13
 70
     1
102
RTVSPropertyOp14
 70
     1
102
RTVSPropertyOp15
 70
     1
102
RTVSPropertyOp16
 70
     1
102
RTVSPropertyOp17
 70
     1
102
RTVSPropertyOp18
 70
     1
102
RTVSPropertyOp19
 70
     1
102
RTVSPropertyOp20
 70
     1
102
RTVSPropertyOp21
 70
     1
102
RTVSPropertyOp22
 70
     1
102
RTVSPropertyOp23
 70
     1
102
RTVSPropertyOp24
 70
     1
102
RTVSPropertyOp25
 70
     1
102
RTVSPropertyOp26
 70
     1
102
RTVSPropertyOp27
 70
     1
102
RTVSPropertyOp28
 70
     1
102
RTVSPropertyOp29
 70
     1
102
RTVSPropertyOp30
 70
     1
102
RTVSPropertyOp31
 70
     1
102
RTVSPropertyOp32
 70
     1
102
RTVSPropertyOp33
 70
     1
102
RTVSPropertyOp34
 70
     1
102
RTVSPropertyOp35
 70
     1
102
RTVSPropertyOp36
 70
     1
102
RTVSPropertyOp37
 70
     1
102
RTVSPropertyOp38
 70
     1
102
RTVSPropertyOp39
 70
     1
102
RTVSPropertyOp40
 70
     1
102
RTVSPropertyOp41
 70
     1
102
RTVSPropertyOp42
 70
     1
102
RTVSPropertyOp43
 70
     1
102
RTVSPropertyOp44
 70
     1
102
RTVSPropertyOp45
 70
     1
102
RTVSPropertyOp46
 70
     1
102
RTVSPropertyOp47
 70
     1
102
RTVSPropertyOp48
 70
     1
102
RTVSPropertyOp49
 70
     1
102
RTVSPropertyOp50
 70
     1
102
RTVSPropertyOp51
 70
     0
102
RTVSPropertyOp52
 70
     0
102
RTVSPropertyOp53
 70
     1
102
RTVSPropertyOp54
 70
     1
102
RTVSPropertyOp55
 70
     1
102
RTVSPropertyOp56
 70
     1
102
RTVSPropertyOp57
 70
     1
102
RTVSPost2010Prop28
280
     0
102
RTVSPost2010PropOp28
 70
     1
102
RTVSPost2010Prop29
280
     1
102
RTVSPost2010PropOp29
 70
     1
102
RTVSPost2010Prop30
280
     1
102
RTVSPost2010PropOp30
 70
     1
102
RTVSPost2010Prop31
280
     0
102
RTVSPost2010PropOp31
 70
     1
102
RTVSPost2010Prop32
280
     0
102
RTVSPost2010PropOp32
 70
     1
102
RTVSPost2010Prop33
280
     0
102
RTVSPost2010PropOp33
 70
     1
102
RTVSPost2010Prop34
280
     0
102
RTVSPost2010PropOp34
 70
     1
102
RTVSPost2010Prop35
280
     0
102
RTVSPost2010PropOp35
 70
     1
102
RTVSPost2010Prop36
280
     0
102
RTVSPost2010PropOp36
 70
     1
102
RTVSPost2010Prop37
 90
       50
102
RTVSPost2010PropOp37
 70
     1
102
RTVSPost2010Prop38
140
0.0
102
RTVSPost2010PropOp38
 70
     1
102
RTVSPost2010Prop39
140
1.0
102
RTVSPost2010PropOp39
 70
     1
102
RTVSPost2010Prop40
 90
        0
102
RTVSPost2010PropOp40
 70
     1
102
RTVSPost2010Prop41ColorIndex
 90
       18
102
RTVSPost2010Prop41ColorRGB
 90
        0
102
RTVSPost2010PropOp41
 70
     1
102
RTVSPost2010Prop42
 90
       50
102
RTVSPost2010PropOp42
 70
     1
102
RTVSPost2010Prop43
 90
        3
102
RTVSPost2010PropOp43
 70
     1
102
RTVSPost2010Prop44ColorIndex
 90
        5
102
RTVSPost2010Prop44ColorRGB
 90
      255
102
RTVSPost2010PropOp44
 70
     1
102
RTVSPost2010Prop45
280
     0
102
RTVSPost2010PropOp45
 70
     1
102
RTVSPost2010Prop46
 90
       50
102
RTVSPost2010PropOp46
 70
     1
102
RTVSPost2010Prop47
 90
       50
102
RTVSPost2010PropOp47
 70
     1
102
RTVSPost2010Prop48
 90
       50
102
RTVSPost2010PropOp48
 70
     1
102
RTVSPost2010Prop49
280
     0
102
RTVSPost2010PropOp49
 70
     1
102
RTVSPost2010Prop50
 90
       50
102
RTVSPost2010PropOp50
 70
     1
102
RTVSPost2010Prop51ColorIndex
 90
      256
102
RTVSPost2010Prop51ColorRGB
 90
-16777216
102
RTVSPost2010PropOp51
 70
     0
102
RTVSPost2010Prop52
140
1.0
102
RTVSPost2010PropOp52
 70
     0
102
RTVSPost2010Prop53
 90
        2
102
RTVSPost2010PropOp53
 70
     1
102
RTVSPost2010Prop54
  1
strokes_ogs.tif
102
RTVSPost2010PropOp54
 70
     1
102
RTVSPost2010Prop55
280
     0
102
RTVSPost2010PropOp55
 70
     1
102
RTVSPost2010Prop56
140
1.0
102
RTVSPost2010PropOp56
 70
     1
102
RTVSPost2010Prop57
140
1.0
102
RTVSPost2010PropOp57
 70
     1
  0
XRECORD
  5
821
102
{ACAD_REACTORS
330
820
102
}
330
820
100
AcDbXrecord
280
     1
102
RTVSPropertyOp0
 70
     1
102
RTVSPropertyOp1
 70
     1
102
RTVSPropertyOp2
 70
     1
102
RTVSPropertyOp3
 70
     1
102
RTVSPropertyOp4
 70
     1
102
RTVSPropertyOp5
 70
     1
102
RTVSPropertyOp6
 70
     1
102
RTVSPropertyOp7
 70
     1
102
RTVSPropertyOp8
 70
     1
102
RTVSPropertyOp9
 70
     1
102
RTVSPropertyOp10
 70
     1
102
RTVSPropertyOp11
 70
     1
102
RTVSPropertyOp12
 70
     1
102
RTVSPropertyOp13
 70
     1
102
RTVSPropertyOp14
 70
     1
102
RTVSPropertyOp15
 70
     1
102
RTVSPropertyOp16
 70
     1
102
RTVSPropertyOp17
 70
     1
102
RTVSPropertyOp18
 70
     1
102
RTVSPropertyOp19
 70
     1
102
RTVSPropertyOp20
 70
     1
102
RTVSPropertyOp21
 70
     1
102
RTVSPropertyOp22
 70
     1
102
RTVSPropertyOp23
 70
     1
102
RTVSPropertyOp24
 70
     1
102
RTVSPropertyOp25
 70
     1
102
RTVSPropertyOp26
 70
     1
102
RTVSPropertyOp27
 70
     1
102
RTVSPropertyOp28
 70
     1
102
RTVSPropertyOp29
 70
     1
102
RTVSPropertyOp30
 70
     1
102
RTVSPropertyOp31
 70
     1
102
RTVSPropertyOp32
 70
     1
102
RTVSPropertyOp33
 70
     1
102
RTVSPropertyOp34
 70
     1
102
RTVSPropertyOp35
 70
     1
102
RTVSPropertyOp36
 70
     1
102
RTVSPropertyOp37
 70
     1
102
RTVSPropertyOp38
 70
     1
102
RTVSPropertyOp39
 70
     1
102
RTVSPropertyOp40
 70
     1
102
RTVSPropertyOp41
 70
     1
102
RTVSPropertyOp42
 70
     1
102
RTVSPropertyOp43
 70
     1
102
RTVSPropertyOp44
 70
     1
102
RTVSPropertyOp45
 70
     1
102
RTVSPropertyOp46
 70
     1
102
RTVSPropertyOp47
 70
     1
102
RTVSPropertyOp48
 70
     1
102
RTVSPropertyOp49
 70
     1
102
RTVSPropertyOp50
 70
     1
102
RTVSPropertyOp51
 70
     0
102
RTVSPropertyOp52
 70
     0
102
RTVSPropertyOp53
 70
     1
102
RTVSPropertyOp54
 70
     1
102
RTVSPropertyOp55
 70
     1
102
RTVSPropertyOp56
 70
     1
102
RTVSPropertyOp57
 70
     1
102
RTVSPost2010Prop28
280
     0
102
RTVSPost2010PropOp28
 70
     1
102
RTVSPost2010Prop29
280
     1
102
RTVSPost2010PropOp29
 70
     1
102
RTVSPost2010Prop30
280
     1
102
RTVSPost2010PropOp30
 70
     1
102
RTVSPost2010Prop31
280
     0
102
RTVSPost2010PropOp31
 70
     1
102
RTVSPost2010Prop32
280
     0
102
RTVSPost2010PropOp32
 70
     1
102
RTVSPost2010Prop33
280
     0
102
RTVSPost2010PropOp33
 70
     1
102
RTVSPost2010Prop34
280
     0
102
RTVSPost2010PropOp34
 70
     1
102
RTVSPost2010Prop35
280
     0
102
RTVSPost2010PropOp35
 70
     1
102
RTVSPost2010Prop36
280
     0
102
RTVSPost2010PropOp36
 70
     1
102
RTVSPost2010Prop37
 90
       50
102
RTVSPost2010PropOp37
 70
     1
102
RTVSPost2010Prop38
140
0.0
102
RTVSPost2010PropOp38
 70
     1
102
RTVSPost2010Prop39
140
1.0
102
RTVSPost2010PropOp39
 70
     1
102
RTVSPost2010Prop40
 90
        0
102
RTVSPost2010PropOp40
 70
     1
102
RTVSPost2010Prop41ColorIndex
 90
       18
102
RTVSPost2010Prop41ColorRGB
 90
        0
102
RTVSPost2010PropOp41
 70
     1
102
RTVSPost2010Prop42
 90
       50
102
RTVSPost2010PropOp42
 70
     1
102
RTVSPost2010Prop43
 90
        3
102
RTVSPost2010PropOp43
 70
     1
102
RTVSPost2010Prop44ColorIndex
 90
        5
102
RTVSPost2010Prop44ColorRGB
 90
      255
102
RTVSPost2010PropOp44
 70
     1
102
RTVSPost2010Prop45
280
     0
102
RTVSPost2010PropOp45
 70
     1
102
RTVSPost2010Prop46
 90
       50
102
RTVSPost2010PropOp46
 70
     1
102
RTVSPost2010Prop47
 90
       50
102
RTVSPost2010PropOp47
 70
     1
102
RTVSPost2010Prop48
 90
       50
102
RTVSPost2010PropOp48
 70
     1
102
RTVSPost2010Prop49
280
     0
102
RTVSPost2010PropOp49
 70
     1
102
RTVSPost2010Prop50
 90
       50
102
RTVSPost2010PropOp50
 70
     1
102
RTVSPost2010Prop51ColorIndex
 90
      256
102
RTVSPost2010Prop51ColorRGB
 90
-16777216
102
RTVSPost2010PropOp51
 70
     0
102
RTVSPost2010Prop52
140
1.0
102
RTVSPost2010PropOp52
 70
     0
102
RTVSPost2010Prop53
 90
        2
102
RTVSPost2010PropOp53
 70
     1
102
RTVSPost2010Prop54
  1
strokes_ogs.tif
102
RTVSPost2010PropOp54
 70
     1
102
RTVSPost2010Prop55
280
     0
102
RTVSPost2010PropOp55
 70
     1
102
RTVSPost2010Prop56
140
1.0
102
RTVSPost2010PropOp56
 70
     1
102
RTVSPost2010Prop57
140
1.0
102
RTVSPost2010PropOp57
 70
     1
  0
XRECORD
  5
841
102
{ACAD_REACTORS
330
840
102
}
330
840
100
AcDbXrecord
280
     1
102
RTVSPropertyOp0
 70
     1
102
RTVSPropertyOp1
 70
     1
102
RTVSPropertyOp2
 70
     1
102
RTVSPropertyOp3
 70
     1
102
RTVSPropertyOp4
 70
     1
102
RTVSPropertyOp5
 70
     1
102
RTVSPropertyOp6
 70
     1
102
RTVSPropertyOp7
 70
     1
102
RTVSPropertyOp8
 70
     1
102
RTVSPropertyOp9
 70
     1
102
RTVSPropertyOp10
 70
     1
102
RTVSPropertyOp11
 70
     1
102
RTVSPropertyOp12
 70
     1
102
RTVSPropertyOp13
 70
     1
102
RTVSPropertyOp14
 70
     1
102
RTVSPropertyOp15
 70
     1
102
RTVSPropertyOp16
 70
     1
102
RTVSPropertyOp17
 70
     1
102
RTVSPropertyOp18
 70
     1
102
RTVSPropertyOp19
 70
     1
102
RTVSPropertyOp20
 70
     1
102
RTVSPropertyOp21
 70
     1
102
RTVSPropertyOp22
 70
     1
102
RTVSPropertyOp23
 70
     1
102
RTVSPropertyOp24
 70
     1
102
RTVSPropertyOp25
 70
     1
102
RTVSPropertyOp26
 70
     1
102
RTVSPropertyOp27
 70
     1
102
RTVSPropertyOp28
 70
     1
102
RTVSPropertyOp29
 70
     1
102
RTVSPropertyOp30
 70
     1
102
RTVSPropertyOp31
 70
     1
102
RTVSPropertyOp32
 70
     1
102
RTVSPropertyOp33
 70
     1
102
RTVSPropertyOp34
 70
     1
102
RTVSPropertyOp35
 70
     1
102
RTVSPropertyOp36
 70
     1
102
RTVSPropertyOp37
 70
     1
102
RTVSPropertyOp38
 70
     1
102
RTVSPropertyOp39
 70
     1
102
RTVSPropertyOp40
 70
     1
102
RTVSPropertyOp41
 70
     1
102
RTVSPropertyOp42
 70
     1
102
RTVSPropertyOp43
 70
     1
102
RTVSPropertyOp44
 70
     1
102
RTVSPropertyOp45
 70
     1
102
RTVSPropertyOp46
 70
     1
102
RTVSPropertyOp47
 70
     1
102
RTVSPropertyOp48
 70
     1
102
RTVSPropertyOp49
 70
     1
102
RTVSPropertyOp50
 70
     1
102
RTVSPropertyOp51
 70
     0
102
RTVSPropertyOp52
 70
     0
102
RTVSPropertyOp53
 70
     1
102
RTVSPropertyOp54
 70
     1
102
RTVSPropertyOp55
 70
     1
102
RTVSPropertyOp56
 70
     1
102
RTVSPropertyOp57
 70
     1
102
RTVSPost2010Prop28
280
     0
102
RTVSPost2010PropOp28
 70
     1
102
RTVSPost2010Prop29
280
     1
102
RTVSPost2010PropOp29
 70
     1
102
RTVSPost2010Prop30
280
     1
102
RTVSPost2010PropOp30
 70
     1
102
RTVSPost2010Prop31
280
     0
102
RTVSPost2010PropOp31
 70
     1
102
RTVSPost2010Prop32
280
     0
102
RTVSPost2010PropOp32
 70
     1
102
RTVSPost2010Prop33
280
     0
102
RTVSPost2010PropOp33
 70
     1
102
RTVSPost2010Prop34
280
     0
102
RTVSPost2010PropOp34
 70
     1
102
RTVSPost2010Prop35
280
     0
102
RTVSPost2010PropOp35
 70
     1
102
RTVSPost2010Prop36
280
     0
102
RTVSPost2010PropOp36
 70
     1
102
RTVSPost2010Prop37
 90
       50
102
RTVSPost2010PropOp37
 70
     1
102
RTVSPost2010Prop38
140
0.0
102
RTVSPost2010PropOp38
 70
     1
102
RTVSPost2010Prop39
140
1.0
102
RTVSPost2010PropOp39
 70
     1
102
RTVSPost2010Prop40
 90
        0
102
RTVSPost2010PropOp40
 70
     1
102
RTVSPost2010Prop41ColorIndex
 90
       18
102
RTVSPost2010Prop41ColorRGB
 90
        0
102
RTVSPost2010PropOp41
 70
     1
102
RTVSPost2010Prop42
 90
       50
102
RTVSPost2010PropOp42
 70
     1
102
RTVSPost2010Prop43
 90
        3
102
RTVSPost2010PropOp43
 70
     1
102
RTVSPost2010Prop44ColorIndex
 90
        5
102
RTVSPost2010Prop44ColorRGB
 90
      255
102
RTVSPost2010PropOp44
 70
     1
102
RTVSPost2010Prop45
280
     0
102
RTVSPost2010PropOp45
 70
     1
102
RTVSPost2010Prop46
 90
       50
102
RTVSPost2010PropOp46
 70
     1
102
RTVSPost2010Prop47
 90
       50
102
RTVSPost2010PropOp47
 70
     1
102
RTVSPost2010Prop48
 90
       50
102
RTVSPost2010PropOp48
 70
     1
102
RTVSPost2010Prop49
280
     0
102
RTVSPost2010PropOp49
 70
     1
102
RTVSPost2010Prop50
 90
       50
102
RTVSPost2010PropOp50
 70
     1
102
RTVSPost2010Prop51ColorIndex
 90
      256
102
RTVSPost2010Prop51ColorRGB
 90
-16777216
102
RTVSPost2010PropOp51
 70
     0
102
RTVSPost2010Prop52
140
1.0
102
RTVSPost2010PropOp52
 70
     0
102
RTVSPost2010Prop53
 90
        2
102
RTVSPost2010PropOp53
 70
     1
102
RTVSPost2010Prop54
  1
strokes_ogs.tif
102
RTVSPost2010PropOp54
 70
     1
102
RTVSPost2010Prop55
280
     0
102
RTVSPost2010PropOp55
 70
     1
102
RTVSPost2010Prop56
140
1.0
102
RTVSPost2010PropOp56
 70
     1
102
RTVSPost2010Prop57
140
1.0
102
RTVSPost2010PropOp57
 70
     1
  0
ENDSEC
  0
EOF
