  0
SECTION
  2
HEADER
  9
$ACADVER
  1
AC1015
  9
$ACADMAINTVER
 70
     6
  9
$DWGCODEPAGE
  3
ANSI_1252
  9
$INSBASE
 10
0.0
 20
0.0
 30
0.0
  9
$EXTMIN
 10
1.000000000000000E+20
 20
1.000000000000000E+20
 30
1.000000000000000E+20
  9
$EXTMAX
 10
-1.000000000000000E+20
 20
-1.000000000000000E+20
 30
-1.000000000000000E+20
  9
$LIMMIN
 10
-170.0
 20
-170.0
  9
$LIMMAX
 10
519.0
 20
260.0
  9
$ORTHOMODE
 70
     0
  9
$REGENMODE
 70
     1
  9
$FILLMODE
 70
     1
  9
$QTEXTMODE
 70
     0
  9
$MIRRTEXT
 70
     0
  9
$LTSCALE
 40
1.0
  9
$ATTMODE
 70
     1
  9
$TEXTSIZE
 40
3.5
  9
$TRACEWID
 40
1.0
  9
$TEXTSTYLE
  7
SIMPLEX
  9
$CLAYER
  8
1
  9
$CELTYPE
  6
BYLAYER
  9
$CECOLOR
 62
   256
  9
$CELTSCALE
 40
1.0
  9
$DISPSILH
 70
     0
  9
$DIMSCALE
 40
1.0
  9
$DIMASZ
 40
2.5
  9
$DIMEXO
 40
0.0
  9
$DIMDLI
 40
3.75
  9
$DIMRND
 40
0.0
  9
$DIMDLE
 40
0.0
  9
$DIMEXE
 40
1.25
  9
$DIMTP
 40
0.0
  9
$DIMTM
 40
0.0
  9
$DIMTXT
 40
3.5
  9
$DIMCEN
 40
0.0
  9
$DIMTSZ
 40
0.0
  9
$DIMTOL
 70
     0
  9
$DIMLIM
 70
     0
  9
$DIMTIH
 70
     0
  9
$DIMTOH
 70
     0
  9
$DIMSE1
 70
     0
  9
$DIMSE2
 70
     0
  9
$DIMTAD
 70
     1
  9
$DIMZIN
 70
     8
  9
$DIMBLK
  1

  9
$DIMASO
 70
     1
  9
$DIMSHO
 70
     1
  9
$DIMPOST
  1

  9
$DIMAPOST
  1

  9
$DIMALT
 70
     0
  9
$DIMALTD
 70
     3
  9
$DIMALTF
 40
0.039370078
  9
$DIMLFAC
 40
1.0
  9
$DIMTOFL
 70
     0
  9
$DIMTVP
 40
0.0
  9
$DIMTIX
 70
     0
  9
$DIMSOXD
 70
     0
  9
$DIMSAH
 70
     0
  9
$DIMBLK1
  1

  9
$DIMBLK2
  1

  9
$DIMSTYLE
  2
STANDARD
  9
$DIMCLRD
 70
     0
  9
$DIMCLRE
 70
     0
  9
$DIMCLRT
 70
     0
  9
$DIMTFAC
 40
1.0
  9
$DIMGAP
 40
0.625
  9
$DIMJUST
 70
     0
  9
$DIMSD1
 70
     0
  9
$DIMSD2
 70
     0
  9
$DIMTOLJ
 70
     0
  9
$DIMTZIN
 70
     8
  9
$DIMALTZ
 70
     0
  9
$DIMALTTZ
 70
     0
  9
$DIMUPT
 70
     0
  9
$DIMDEC
 70
     2
  9
$DIMTDEC
 70
     2
  9
$DIMALTU
 70
     2
  9
$DIMALTTD
 70
     3
  9
$DIMTXSTY
  7
SIMPLEX
  9
$DIMAUNIT
 70
     0
  9
$DIMADEC
 70
     2
  9
$DIMALTRND
 40
0.0
  9
$DIMAZIN
 70
     2
  9
$DIMDSEP
 70
    46
  9
$DIMATFIT
 70
     3
  9
$DIMFRAC
 70
     0
  9
$DIMLDRBLK
  1

  9
$DIMLUNIT
 70
     2
  9
$DIMLWD
 70
    -2
  9
$DIMLWE
 70
    -2
  9
$DIMTMOVE
 70
     0
  9
$LUNITS
 70
     2
  9
$LUPREC
 70
     4
  9
$SKETCHINC
 40
1.0
  9
$FILLETRAD
 40
0.0
  9
$AUNITS
 70
     0
  9
$AUPREC
 70
     0
  9
$MENU
  1
c:\tdm21\cad\caduti13\tdm13
  9
$ELEVATION
 40
0.0
  9
$PELEVATION
 40
0.0
  9
$THICKNESS
 40
0.0
  9
$LIMCHECK
 70
     0
  9
$CHAMFERA
 40
0.0
  9
$CHAMFERB
 40
0.0
  9
$CHAMFERC
 40
0.0
  9
$CHAMFERD
 40
0.0
  9
$SKPOLY
 70
     0
  9
$TDCREATE
 40
2454957.551975972
  9
$TDUCREATE
 40
2454957.510309306
  9
$TDUPDATE
 40
2457360.43519706
  9
$TDUUPDATE
 40
2457360.393530393
  9
$TDINDWG
 40
0.0009643519
  9
$TDUSRTIMER
 40
0.0009475231
  9
$USRTIMER
 70
     1
  9
$ANGBASE
 50
0.0
  9
$ANGDIR
 70
     0
  9
$PDMODE
 70
     1
  9
$PDSIZE
 40
0.0
  9
$PLINEWID
 40
0.0
  9
$SPLFRAME
 70
     0
  9
$SPLINETYPE
 70
     6
  9
$SPLINESEGS
 70
     8
  9
$HANDSEED
  5
823
  9
$SURFTAB1
 70
     6
  9
$SURFTAB2
 70
     6
  9
$SURFTYPE
 70
     6
  9
$SURFU
 70
     6
  9
$SURFV
 70
     6
  9
$UCSBASE
  2

  9
$UCSNAME
  2

  9
$UCSORG
 10
0.0
 20
0.0
 30
0.0
  9
$UCSXDIR
 10
1.0
 20
0.0
 30
0.0
  9
$UCSYDIR
 10
0.0
 20
1.0
 30
0.0
  9
$UCSORTHOREF
  2

  9
$UCSORTHOVIEW
 70
     0
  9
$UCSORGTOP
 10
0.0
 20
0.0
 30
0.0
  9
$UCSORGBOTTOM
 10
0.0
 20
0.0
 30
0.0
  9
$UCSORGLEFT
 10
0.0
 20
0.0
 30
0.0
  9
$UCSORGRIGHT
 10
0.0
 20
0.0
 30
0.0
  9
$UCSORGFRONT
 10
0.0
 20
0.0
 30
0.0
  9
$UCSORGBACK
 10
0.0
 20
0.0
 30
0.0
  9
$PUCSBASE
  2

  9
$PUCSNAME
  2

  9
$PUCSORG
 10
0.0
 20
0.0
 30
0.0
  9
$PUCSXDIR
 10
1.0
 20
0.0
 30
0.0
  9
$PUCSYDIR
 10
0.0
 20
1.0
 30
0.0
  9
$PUCSORTHOREF
  2

  9
$PUCSORTHOVIEW
 70
     0
  9
$PUCSORGTOP
 10
0.0
 20
0.0
 30
0.0
  9
$PUCSORGBOTTOM
 10
0.0
 20
0.0
 30
0.0
  9
$PUCSORGLEFT
 10
0.0
 20
0.0
 30
0.0
  9
$PUCSORGRIGHT
 10
0.0
 20
0.0
 30
0.0
  9
$PUCSORGFRONT
 10
0.0
 20
0.0
 30
0.0
  9
$PUCSORGBACK
 10
0.0
 20
0.0
 30
0.0
  9
$USERI1
 70
     0
  9
$USERI2
 70
     0
  9
$USERI3
 70
     0
  9
$USERI4
 70
     0
  9
$USERI5
 70
     0
  9
$USERR1
 40
0.0
  9
$USERR2
 40
0.0
  9
$USERR3
 40
0.0
  9
$USERR4
 40
0.0
  9
$USERR5
 40
0.0
  9
$WORLDVIEW
 70
     1
  9
$SHADEDGE
 70
     3
  9
$SHADEDIF
 70
    70
  9
$TILEMODE
 70
     1
  9
$MAXACTVP
 70
    64
  9
$PINSBASE
 10
0.0
 20
0.0
 30
0.0
  9
$PLIMCHECK
 70
     0
  9
$PEXTMIN
 10
0.0
 20
0.0
 30
0.0
  9
$PEXTMAX
 10
0.0
 20
0.0
 30
0.0
  9
$PLIMMIN
 10
0.0
 20
0.0
  9
$PLIMMAX
 10
12.0
 20
9.0
  9
$UNITMODE
 70
     0
  9
$VISRETAIN
 70
     0
  9
$PLINEGEN
 70
     0
  9
$PSLTSCALE
 70
     1
  9
$TREEDEPTH
 70
  3020
  9
$CMLSTYLE
  2
STANDARD
  9
$CMLJUST
 70
     0
  9
$CMLSCALE
 40
20.0
  9
$PROXYGRAPHICS
 70
     1
  9
$MEASUREMENT
 70
     1
  9
$CELWEIGHT
370
    -1
  9
$ENDCAPS
280
     0
  9
$JOINSTYLE
280
     0
  9
$LWDISPLAY
290
     0
  9
$INSUNITS
 70
     4
  9
$HYPERLINKBASE
  1

  9
$STYLESHEET
  1
MONOCHROME.CTB
  9
$XEDIT
290
     1
  9
$CEPSNTYPE
380
     0
  9
$PSTYLEMODE
290
     1
  9
$FINGERPRINTGUID
  2
{46B44192-1510-48B1-B61B-CBE2ADA013A7}
  9
$VERSIONGUID
  2
{6160D478-9A74-4C97-9D8A-D4A65CE74B12}
  9
$EXTNAMES
290
     1
  9
$PSVPSCALE
 40
0.0
  9
$OLESTARTUP
290
     0
  0
ENDSEC
  0
SECTION
  2
CLASSES
  0
CLASS
  1
ACDBDICTIONARYWDFLT
  2
AcDbDictionaryWithDefault
  3
ObjectDBX Classes
 90
        0
280
     0
281
     0
  0
CLASS
  1
ACDBPLACEHOLDER
  2
AcDbPlaceHolder
  3
ObjectDBX Classes
 90
        0
280
     0
281
     0
  0
CLASS
  1
LAYOUT
  2
AcDbLayout
  3
ObjectDBX Classes
 90
        0
280
     0
281
     0
  0
CLASS
  1
DICTIONARYVAR
  2
AcDbDictionaryVar
  3
ObjectDBX Classes
 90
        0
280
     0
281
     0
  0
CLASS
  1
TABLESTYLE
  2
AcDbTableStyle
  3
ObjectDBX Classes
 90
     4095
280
     0
281
     0
  0
CLASS
  1
SCALE
  2
AcDbScale
  3
ObjectDBX Classes
 90
     1153
280
     0
281
     0
  0
CLASS
  1
VISUALSTYLE
  2
AcDbVisualStyle
  3
ObjectDBX Classes
 90
     4095
280
     0
281
     0
  0
CLASS
  1
MATERIAL
  2
AcDbMaterial
  3
ObjectDBX Classes
 90
     1153
280
     0
281
     0
  0
CLASS
  1
MLEADERSTYLE
  2
AcDbMLeaderStyle
  3
ACDB_MLEADERSTYLE_CLASS
 90
     4095
280
     0
281
     0
  0
ENDSEC
  0
SECTION
  2
TABLES
  0
TABLE
  2
VPORT
  5
8
102
{ACAD_XDICTIONARY
360
7E7
102
}
330
0
100
AcDbSymbolTable
 70
     1
  0
VPORT
  5
39A
330
8
100
AcDbSymbolTableRecord
100
AcDbViewportTableRecord
  2
*Active
 70
     0
 10
0.0
 20
0.0
 11
1.0
 21
1.0
 12
218.9201881351169
 22
109.7549380673833
 13
0.0
 23
0.0
 14
5.0
 24
5.0
 15
5.0
 25
5.0
 16
0.0
 26
0.0
 36
1.0
 17
0.0
 27
0.0
 37
0.0
 40
564.6711112651689
 41
1.066073697585768
 42
50.0
 43
0.0
 44
0.0
 50
0.0
 51
0.0
 71
     0
 72
  2000
 73
     1
 74
     1
 75
     0
 76
     0
 77
     0
 78
     0
281
     0
 65
     1
110
0.0
120
0.0
130
0.0
111
1.0
121
0.0
131
0.0
112
0.0
122
1.0
132
0.0
 79
     0
146
0.0
  0
ENDTAB
  0
TABLE
  2
LTYPE
  5
5
330
0
100
AcDbSymbolTable
 70
     3
  0
LTYPE
  5
12
330
5
100
AcDbSymbolTableRecord
100
AcDbLinetypeTableRecord
  2
BYBLOCK
 70
     0
  3

 72
    65
 73
     0
 40
0.0
  0
LTYPE
  5
13
330
5
100
AcDbSymbolTableRecord
100
AcDbLinetypeTableRecord
  2
BYLAYER
 70
     0
  3

 72
    65
 73
     0
 40
0.0
  0
LTYPE
  5
14
330
5
100
AcDbSymbolTableRecord
100
AcDbLinetypeTableRecord
  2
CONTINUOUS
 70
     0
  3
Solid line
 72
    65
 73
     0
 40
0.0
  0
LTYPE
  5
20
330
5
100
AcDbSymbolTableRecord
100
AcDbLinetypeTableRecord
  2
HIDDEN
 70
     0
  3
Hidden __ __ __ __ __ __ __ __ __ __ __ __ __ _
 72
    65
 73
     2
 40
9.524999999999997
 49
6.349999999999998
 74
     0
 49
-3.174999999999998
 74
     0
  0
LTYPE
  5
351
330
5
100
AcDbSymbolTableRecord
100
AcDbLinetypeTableRecord
  2
CENTER
 70
     0
  3
Dash dot __ . __ . __ . __ . __ . __ . __ . __
 72
    65
 73
     4
 40
25.4
 49
12.7
 74
     0
 49
-6.349999999999998
 74
     0
 49
0.0
 74
     0
 49
-6.349999999999998
 74
     0
  0
ENDTAB
  0
TABLE
  2
LAYER
  5
2
330
0
100
AcDbSymbolTable
 70
    16
  0
LAYER
  5
F
330
2
100
AcDbSymbolTableRecord
100
AcDbLayerTableRecord
  2
0
 70
     0
 62
     7
  6
CONTINUOUS
370
    -3
390
300
  0
LAYER
  5
23
330
2
100
AcDbSymbolTableRecord
100
AcDbLayerTableRecord
  2
1
 70
     0
 62
     4
  6
CONTINUOUS
370
    -3
390
300
  0
LAYER
  5
24
330
2
100
AcDbSymbolTableRecord
100
AcDbLayerTableRecord
  2
SK1
 70
     0
 62
     4
  6
CONTINUOUS
370
    -3
390
300
  0
LAYER
  5
25
330
2
100
AcDbSymbolTableRecord
100
AcDbLayerTableRecord
  2
2
 70
     0
 62
     7
  6
CONTINUOUS
370
    -3
390
300
  0
LAYER
  5
26
330
2
100
AcDbSymbolTableRecord
100
AcDbLayerTableRecord
  2
2L
 70
     0
 62
     7
  6
CONTINUOUS
370
    -3
390
300
  0
LAYER
  5
27
330
2
100
AcDbSymbolTableRecord
100
AcDbLayerTableRecord
  2
SK2
 70
     0
 62
     7
  6
CONTINUOUS
370
    -3
390
300
  0
LAYER
  5
28
330
2
100
AcDbSymbolTableRecord
100
AcDbLayerTableRecord
  2
3
 70
     0
 62
     1
  6
HIDDEN
370
    -3
390
300
  0
LAYER
  5
29
330
2
100
AcDbSymbolTableRecord
100
AcDbLayerTableRecord
  2
SK3
 70
     0
 62
     1
  6
HIDDEN
370
    -3
390
300
  0
LAYER
  5
2A
330
2
100
AcDbSymbolTableRecord
100
AcDbLayerTableRecord
  2
4
 70
     0
 62
     2
  6
CENTER
370
    -3
390
300
  0
LAYER
  5
2B
330
2
100
AcDbSymbolTableRecord
100
AcDbLayerTableRecord
  2
SK4
 70
     0
 62
     2
  6
CENTER
370
    -3
390
300
  0
LAYER
  5
2C
330
2
100
AcDbSymbolTableRecord
100
AcDbLayerTableRecord
  2
5
 70
     0
 62
    -7
  6
CONTINUOUS
370
    -3
390
300
  0
LAYER
  5
2D
330
2
100
AcDbSymbolTableRecord
100
AcDbLayerTableRecord
  2
6
 70
     0
 62
     5
  6
CONTINUOUS
370
    -3
390
300
  0
LAYER
  5
2E
330
2
100
AcDbSymbolTableRecord
100
AcDbLayerTableRecord
  2
SK6
 70
     0
 62
     5
  6
CONTINUOUS
370
    -3
390
300
  0
LAYER
  5
2F
330
2
100
AcDbSymbolTableRecord
100
AcDbLayerTableRecord
  2
DEFPOINTS
 70
     0
 62
     7
  6
CONTINUOUS
290
     0
370
    -3
390
300
  0
LAYER
  5
375
330
2
100
AcDbSymbolTableRecord
100
AcDbLayerTableRecord
  2
CUT
 70
     0
 62
     1
  6
CONTINUOUS
370
    -3
390
300
  0
LAYER
  5
376
330
2
100
AcDbSymbolTableRecord
100
AcDbLayerTableRecord
  2
NOCUT
 70
     0
 62
     7
  6
CONTINUOUS
370
    -3
390
300
  0
ENDTAB
  0
TABLE
  2
STYLE
  5
3
330
0
100
AcDbSymbolTable
 70
     4
  0
STYLE
  5
10
330
3
100
AcDbSymbolTableRecord
100
AcDbTextStyleTableRecord
  2
STANDARD
 70
     0
 40
0.0
 41
1.0
 50
0.0
 71
     0
 42
5.0
  3
txt
  4

  0
STYLE
  5
1D
330
3
100
AcDbSymbolTableRecord
100
AcDbTextStyleTableRecord
  2
TXT
 70
     0
 40
8.0
 41
1.0
 50
0.0
 71
     0
 42
8.0
  3
txt
  4

  0
STYLE
  5
1E
330
3
100
AcDbSymbolTableRecord
100
AcDbTextStyleTableRecord
  2
SIMPLEX
 70
     0
 40
0.0
 41
1.0
 50
0.0
 71
     0
 42
3.5
  3
simplex
  4

  0
STYLE
  5
34C
330
3
100
AcDbSymbolTableRecord
100
AcDbTextStyleTableRecord
  2

 70
     1
 40
0.0
 41
1.0
 50
0.0
 71
     0
 42
2.5
  3
ltypeshp.shx
  4

  0
ENDTAB
  0
TABLE
  2
VIEW
  5
6
330
0
100
AcDbSymbolTable
 70
     0
  0
ENDTAB
  0
TABLE
  2
UCS
  5
7
330
0
100
AcDbSymbolTable
 70
     0
  0
ENDTAB
  0
TABLE
  2
APPID
  5
9
330
0
100
AcDbSymbolTable
 70
     2
  0
APPID
  5
11
330
9
100
AcDbSymbolTableRecord
100
AcDbRegAppTableRecord
  2
ACAD
 70
     0
  0
APPID
  5
820
330
9
100
AcDbSymbolTableRecord
100
AcDbRegAppTableRecord
  2
ACAD_MLEADERVER
 70
     0
  0
ENDTAB
  0
TABLE
  2
DIMSTYLE
  5
A
330
0
100
AcDbSymbolTable
 70
     1
100
AcDbDimStyleTable
  0
DIMSTYLE
105
3F
102
{ACAD_REACTORS
330
794
330
7A2
330
7AF
330
7BC
330
7CA
330
7D7
102
}
330
A
100
AcDbSymbolTableRecord
100
AcDbDimStyleTableRecord
  2
STANDARD
 70
     0
 41
2.5
 42
0.0
 43
3.75
 44
1.25
 73
     0
 74
     0
 77
     1
 78
     8
 79
     2
140
3.5
141
0.0
143
0.039370078
147
0.625
171
     3
178
     0
179
     2
271
     2
272
     2
274
     3
283
     0
284
     8
340
1E
  0
ENDTAB
  0
TABLE
  2
BLOCK_RECORD
  5
1
330
0
100
AcDbSymbolTable
 70
     6
  0
BLOCK_RECORD
  5
18
330
1
100
AcDbSymbolTableRecord
100
AcDbBlockTableRecord
  2
*MODEL_SPACE
340
303
  0
BLOCK_RECORD
  5
338
330
1
100
AcDbSymbolTableRecord
100
AcDbBlockTableRecord
  2
*Paper_Space
340
33B
  0
BLOCK_RECORD
  5
795
330
1
100
AcDbSymbolTableRecord
100
AcDbBlockTableRecord
  2
*D0
340
0
  0
BLOCK_RECORD
  5
7A3
330
1
100
AcDbSymbolTableRecord
100
AcDbBlockTableRecord
  2
*D1
340
0
  0
BLOCK_RECORD
  5
7B0
330
1
100
AcDbSymbolTableRecord
100
AcDbBlockTableRecord
  2
*D2
340
0
  0
BLOCK_RECORD
  5
7BD
330
1
100
AcDbSymbolTableRecord
100
AcDbBlockTableRecord
  2
*D3
340
0
  0
BLOCK_RECORD
  5
7CB
330
1
100
AcDbSymbolTableRecord
100
AcDbBlockTableRecord
  2
*D4
340
0
  0
BLOCK_RECORD
  5
7D8
330
1
100
AcDbSymbolTableRecord
100
AcDbBlockTableRecord
  2
*D5
340
0
  0
ENDTAB
  0
ENDSEC
  0
SECTION
  2
BLOCKS
  0
BLOCK
  5
32
330
18
100
AcDbEntity
  8
0
100
AcDbBlockBegin
  2
*MODEL_SPACE
 70
     0
 10
0.0
 20
0.0
 30
0.0
  3
*MODEL_SPACE
  1

  0
ENDBLK
  5
33
330
18
100
AcDbEntity
  8
0
100
AcDbBlockEnd
  0
BLOCK
  5
339
330
338
100
AcDbEntity
 67
     1
  8
0
100
AcDbBlockBegin
  2
*Paper_Space
 70
     0
 10
0.0
 20
0.0
 30
0.0
  3
*Paper_Space
  1

  0
ENDBLK
  5
33A
330
338
100
AcDbEntity
 67
     1
  8
0
100
AcDbBlockEnd
  0
BLOCK
  5
796
330
795
100
AcDbEntity
  8
0
100
AcDbBlockBegin
  2
*D0
 70
     1
 10
0.0
 20
0.0
 30
0.0
  3
*D0
  1

  0
LINE
  5
798
330
795
100
AcDbEntity
  8
2
 62
     0
370
    -2
100
AcDbLine
 10
40.2
 20
3.175
 30
0.0
 11
56.45
 21
3.175000000000057
 31
0.0
  0
LINE
  5
799
330
795
100
AcDbEntity
  8
2
 62
     0
370
    -2
100
AcDbLine
 10
40.2
 20
-3.175
 30
0.0
 11
56.45000000000002
 21
-3.174999999999943
 31
0.0
  0
LINE
  5
79A
330
795
100
AcDbEntity
  8
2
 62
     0
370
    -2
100
AcDbLine
 10
55.20000000000002
 20
-3.174999999999947
 30
0.0
 11
55.20000000000007
 21
-21.10349999999995
 31
0.0
  0
LINE
  5
79B
330
795
100
AcDbEntity
  8
2
 62
     0
370
    -2
100
AcDbLine
 10
55.2
 20
0.6750000000000522
 30
0.0
 11
55.20000000000001
 21
-0.6749999999999474
 31
0.0
  0
SOLID
  5
79C
330
795
100
AcDbEntity
  8
2
 62
     0
100
AcDbTrace
 10
55.61666666666667
 20
0.6750000000000537
 30
0.0
 11
54.78333333333334
 21
0.6750000000000508
 31
0.0
 12
55.2
 22
3.175000000000052
 32
0.0
 13
55.2
 23
3.175000000000052
 33
0.0
  0
SOLID
  5
79D
330
795
100
AcDbEntity
  8
2
 62
     0
100
AcDbTrace
 10
54.78333333333335
 20
-0.6749999999999489
 30
0.0
 11
55.61666666666667
 21
-0.674999999999946
 31
0.0
 12
55.20000000000002
 22
-3.174999999999947
 32
0.0
 13
55.20000000000002
 23
-3.174999999999947
 33
0.0
  0
MTEXT
  5
79E
330
795
100
AcDbEntity
  8
2
 62
     0
100
AcDbMText
 10
52.80225000000005
 20
-13.38924999999996
 30
0.0
 40
3.5
 41
0.0
 71
     5
 72
     1
  1
%%c6.35
  7
SIMPLEX
 11
-3.356894814614647E-15
 21
1.0
 31
0.0
 73
     1
 44
1.0
  0
POINT
  5
79F
330
795
100
AcDbEntity
  8
DEFPOINTS
 62
     0
100
AcDbPoint
 10
40.2
 20
3.175
 30
0.0
  0
POINT
  5
7A0
330
795
100
AcDbEntity
  8
DEFPOINTS
 62
     0
100
AcDbPoint
 10
40.2
 20
-3.175
 30
0.0
  0
POINT
  5
7A1
330
795
100
AcDbEntity
  8
DEFPOINTS
 62
     0
100
AcDbPoint
 10
55.20000000000002
 20
-3.174999999999947
 30
0.0
  0
ENDBLK
  5
797
330
795
100
AcDbEntity
  8
0
100
AcDbBlockEnd
  0
BLOCK
  5
7A4
330
7A3
100
AcDbEntity
  8
0
100
AcDbBlockBegin
  2
*D1
 70
     1
 10
0.0
 20
0.0
 30
0.0
  3
*D1
  1

  0
LINE
  5
7A6
330
7A3
100
AcDbEntity
  8
2
 62
     0
370
    -2
100
AcDbLine
 10
0.0
 20
0.0
 30
0.0
 11
0.0
 21
76.25
 31
0.0
  0
LINE
  5
7A7
330
7A3
100
AcDbEntity
  8
2
 62
     0
370
    -2
100
AcDbLine
 10
40.2
 20
0.0
 30
0.0
 11
40.2
 21
76.25
 31
0.0
  0
LINE
  5
7A8
330
7A3
100
AcDbEntity
  8
2
 62
     0
370
    -2
100
AcDbLine
 10
2.5
 20
75.0
 30
0.0
 11
37.7
 21
75.0
 31
0.0
  0
SOLID
  5
7A9
330
7A3
100
AcDbEntity
  8
2
 62
     0
100
AcDbTrace
 10
2.5
 20
75.41666666666667
 30
0.0
 11
2.5
 21
74.58333333333333
 31
0.0
 12
0.0
 22
75.0
 32
0.0
 13
0.0
 23
75.0
 33
0.0
  0
SOLID
  5
7AA
330
7A3
100
AcDbEntity
  8
2
 62
     0
100
AcDbTrace
 10
37.7
 20
74.58333333333333
 30
0.0
 11
37.7
 21
75.41666666666667
 31
0.0
 12
40.2
 22
75.0
 32
0.0
 13
40.2
 23
75.0
 33
0.0
  0
MTEXT
  5
7AB
330
7A3
100
AcDbEntity
  8
2
 62
     0
100
AcDbMText
 10
20.1
 20
77.438
 30
0.0
 40
3.5
 41
0.0
 71
     5
 72
     1
  1
40.2
  7
SIMPLEX
 73
     1
 44
1.0
  0
POINT
  5
7AC
330
7A3
100
AcDbEntity
  8
DEFPOINTS
 62
     0
100
AcDbPoint
 10
0.0
 20
0.0
 30
0.0
  0
POINT
  5
7AD
330
7A3
100
AcDbEntity
  8
DEFPOINTS
 62
     0
100
AcDbPoint
 10
40.2
 20
0.0
 30
0.0
  0
POINT
  5
7AE
330
7A3
100
AcDbEntity
  8
DEFPOINTS
 62
     0
100
AcDbPoint
 10
40.2
 20
75.0
 30
0.0
  0
ENDBLK
  5
7A5
330
7A3
100
AcDbEntity
  8
0
100
AcDbBlockEnd
  0
BLOCK
  5
7B1
330
7B0
100
AcDbEntity
  8
0
100
AcDbBlockBegin
  2
*D2
 70
     1
 10
0.0
 20
0.0
 30
0.0
  3
*D2
  1

  0
LINE
  5
7B3
330
7B0
100
AcDbEntity
  8
2
 62
     0
370
    -2
100
AcDbLine
 10
21.15
 20
3.175
 30
0.0
 11
21.15
 21
61.25
 31
0.0
  0
LINE
  5
7B4
330
7B0
100
AcDbEntity
  8
2
 62
     0
370
    -2
100
AcDbLine
 10
40.2
 20
3.175
 30
0.0
 11
40.2
 21
61.25
 31
0.0
  0
LINE
  5
7B5
330
7B0
100
AcDbEntity
  8
2
 62
     0
370
    -2
100
AcDbLine
 10
23.65
 20
60.0
 30
0.0
 11
37.7
 21
60.0
 31
0.0
  0
SOLID
  5
7B6
330
7B0
100
AcDbEntity
  8
2
 62
     0
100
AcDbTrace
 10
23.65
 20
60.41666666666666
 30
0.0
 11
23.65
 21
59.58333333333334
 31
0.0
 12
21.15
 22
60.0
 32
0.0
 13
21.15
 23
60.0
 33
0.0
  0
SOLID
  5
7B7
330
7B0
100
AcDbEntity
  8
2
 62
     0
100
AcDbTrace
 10
37.7
 20
59.58333333333334
 30
0.0
 11
37.7
 21
60.41666666666666
 31
0.0
 12
40.2
 22
60.0
 32
0.0
 13
40.2
 23
60.0
 33
0.0
  0
MTEXT
  5
7B8
330
7B0
100
AcDbEntity
  8
2
 62
     0
100
AcDbMText
 10
30.675
 20
62.39775
 30
0.0
 40
3.5
 41
0.0
 71
     5
 72
     1
  1
19.05
  7
SIMPLEX
 73
     1
 44
1.0
  0
POINT
  5
7B9
330
7B0
100
AcDbEntity
  8
DEFPOINTS
 62
     0
100
AcDbPoint
 10
21.15
 20
3.175
 30
0.0
  0
POINT
  5
7BA
330
7B0
100
AcDbEntity
  8
DEFPOINTS
 62
     0
100
AcDbPoint
 10
40.2
 20
3.175
 30
0.0
  0
POINT
  5
7BB
330
7B0
100
AcDbEntity
  8
DEFPOINTS
 62
     0
100
AcDbPoint
 10
40.2
 20
60.0
 30
0.0
  0
ENDBLK
  5
7B2
330
7B0
100
AcDbEntity
  8
0
100
AcDbBlockEnd
  0
BLOCK
  5
7BE
330
7BD
100
AcDbEntity
  8
0
100
AcDbBlockBegin
  2
*D3
 70
     1
 10
0.0
 20
0.0
 30
0.0
  3
*D3
  1

  0
LINE
  5
7C0
330
7BD
100
AcDbEntity
  8
SK2
 62
     0
370
    -2
100
AcDbLine
 10
-36.0
 20
3.175
 30
0.0
 11
-52.25000000001621
 21
3.174999999917069
 31
0.0
  0
LINE
  5
7C1
330
7BD
100
AcDbEntity
  8
SK2
 62
     0
370
    -2
100
AcDbLine
 10
-36.0
 20
-3.175
 30
0.0
 11
-52.2499999999838
 21
-3.17500000008293
 31
0.0
  0
LINE
  5
7C2
330
7BD
100
AcDbEntity
  8
SK2
 62
     0
370
    -2
100
AcDbLine
 10
-50.9999999999838
 20
-3.175000000076551
 30
0.0
 11
-50.9999999998923
 21
-21.10350000007655
 31
0.0
  0
LINE
  5
7C3
330
7BD
100
AcDbEntity
  8
SK2
 62
     0
370
    -2
100
AcDbLine
 10
-51.00000000000345
 20
0.6749999999234486
 30
0.0
 11
-50.99999999999656
 21
-0.675000000076551
 31
0.0
  0
SOLID
  5
7C4
330
7BD
100
AcDbEntity
  8
SK2
 62
     0
100
AcDbTrace
 10
-50.58333333333678
 20
0.6749999999255751
 30
0.0
 11
-51.41666666667011
 21
0.6749999999213221
 31
0.0
 12
-51.00000000001621
 22
3.174999999923449
 32
0.0
 13
-51.00000000001621
 23
3.174999999923449
 33
0.0
  0
SOLID
  5
7C5
330
7BD
100
AcDbEntity
  8
SK2
 62
     0
100
AcDbTrace
 10
-51.41666666666323
 20
-0.6750000000786776
 30
0.0
 11
-50.5833333333299
 21
-0.6750000000744245
 31
0.0
 12
-50.9999999999838
 22
-3.175000000076551
 32
0.0
 13
-50.9999999999838
 23
-3.175000000076551
 33
0.0
  0
MTEXT
  5
7C6
330
7BD
100
AcDbEntity
  8
SK2
 62
     0
100
AcDbMText
 10
-53.39774999993167
 20
-13.38925000008879
 30
0.0
 40
3.5
 41
0.0
 71
     5
 72
     1
  1
%%c6.35
  7
SIMPLEX
 11
-5.103599083152468E-12
 21
1.0
 31
0.0
 73
     1
 44
1.0
  0
POINT
  5
7C7
330
7BD
100
AcDbEntity
  8
DEFPOINTS
 62
     0
100
AcDbPoint
 10
-36.0
 20
3.175
 30
0.0
  0
POINT
  5
7C8
330
7BD
100
AcDbEntity
  8
DEFPOINTS
 62
     0
100
AcDbPoint
 10
-36.0
 20
-3.175
 30
0.0
  0
POINT
  5
7C9
330
7BD
100
AcDbEntity
  8
DEFPOINTS
 62
     0
100
AcDbPoint
 10
-50.9999999999838
 20
-3.175000000076551
 30
0.0
  0
ENDBLK
  5
7BF
330
7BD
100
AcDbEntity
  8
0
100
AcDbBlockEnd
  0
BLOCK
  5
7CC
330
7CB
100
AcDbEntity
  8
0
100
AcDbBlockBegin
  2
*D4
 70
     1
 10
0.0
 20
0.0
 30
0.0
  3
*D4
  1

  0
LINE
  5
7CE
330
7CB
100
AcDbEntity
  8
SK2
 62
     0
370
    -2
100
AcDbLine
 10
-36.0
 20
0.0
 30
0.0
 11
-36.0
 21
91.25
 31
0.0
  0
LINE
  5
7CF
330
7CB
100
AcDbEntity
  8
SK2
 62
     0
370
    -2
100
AcDbLine
 10
40.2
 20
0.0
 30
0.0
 11
40.2
 21
91.25
 31
0.0
  0
LINE
  5
7D0
330
7CB
100
AcDbEntity
  8
SK2
 62
     0
370
    -2
100
AcDbLine
 10
-33.5
 20
90.0
 30
0.0
 11
37.7
 21
90.0
 31
0.0
  0
SOLID
  5
7D1
330
7CB
100
AcDbEntity
  8
SK2
 62
     0
100
AcDbTrace
 10
-33.5
 20
90.41666666666667
 30
0.0
 11
-33.5
 21
89.58333333333333
 31
0.0
 12
-36.0
 22
90.0
 32
0.0
 13
-36.0
 23
90.0
 33
0.0
  0
SOLID
  5
7D2
330
7CB
100
AcDbEntity
  8
SK2
 62
     0
100
AcDbTrace
 10
37.7
 20
89.58333333333333
 30
0.0
 11
37.7
 21
90.41666666666667
 31
0.0
 12
40.2
 22
90.0
 32
0.0
 13
40.2
 23
90.0
 33
0.0
  0
MTEXT
  5
7D3
330
7CB
100
AcDbEntity
  8
SK2
 62
     0
100
AcDbMText
 10
2.100000000000001
 20
92.39775
 30
0.0
 40
3.5
 41
0.0
 71
     5
 72
     1
  1
76.2
  7
SIMPLEX
 73
     1
 44
1.0
  0
POINT
  5
7D4
330
7CB
100
AcDbEntity
  8
DEFPOINTS
 62
     0
100
AcDbPoint
 10
-36.0
 20
0.0
 30
0.0
  0
POINT
  5
7D5
330
7CB
100
AcDbEntity
  8
DEFPOINTS
 62
     0
100
AcDbPoint
 10
40.2
 20
0.0
 30
0.0
  0
POINT
  5
7D6
330
7CB
100
AcDbEntity
  8
DEFPOINTS
 62
     0
100
AcDbPoint
 10
40.2
 20
90.0
 30
0.0
  0
ENDBLK
  5
7CD
330
7CB
100
AcDbEntity
  8
0
100
AcDbBlockEnd
  0
BLOCK
  5
7D9
330
7D8
100
AcDbEntity
  8
0
100
AcDbBlockBegin
  2
*D5
 70
     1
 10
0.0
 20
0.0
 30
0.0
  3
*D5
  1

  0
LINE
  5
7DB
330
7D8
100
AcDbEntity
  8
2
 62
     0
370
    -2
100
AcDbLine
 10
39.97799709723488
 20
-5.624956738422213
 30
0.0
 11
43.82512911859077
 21
-27.44312662880691
 31
0.0
  0
MTEXT
  5
7DC
330
7D8
100
AcDbEntity
  8
2
 62
     0
100
AcDbMText
 10
44.87545157903488
 20
-19.59170937750211
 30
0.0
 40
3.5
 41
0.0
 71
     5
 72
     1
  1
R0.79
  7
SIMPLEX
 11
0.1736481776669313
 21
-0.9848077530122079
 31
0.0
 73
     1
 44
1.0
  0
SOLID
  5
7DD
330
7D8
100
AcDbEntity
  8
2
 62
     0
100
AcDbTrace
 10
40.38833366098996
 20
-5.552603331060991
 30
0.0
 11
39.56766053347979
 21
-5.697310145783435
 31
0.0
 12
39.54387665306755
 22
-3.162937355891693
 32
0.0
 13
39.54387665306755
 23
-3.162937355891693
 33
0.0
  0
POINT
  5
7DE
330
7D8
100
AcDbEntity
  8
DEFPOINTS
 62
     0
100
AcDbPoint
 10
39.54387665306755
 20
-3.162937355891693
 30
0.0
  0
POINT
  5
7DF
330
7D8
100
AcDbEntity
  8
DEFPOINTS
 62
     0
100
AcDbPoint
 10
39.40600000000001
 20
-2.381
 30
0.0
  0
ENDBLK
  5
7DA
330
7D8
100
AcDbEntity
  8
0
100
AcDbBlockEnd
  0
ENDSEC
  0
SECTION
  2
ENTITIES
  0
LINE
  5
3E0
330
18
100
AcDbEntity
  8
SK4
100
AcDbLine
 10
-38.0
 20
0.0
 30
0.0
 11
0.0
 21
0.0
 31
0.0
  0
LINE
  5
3E1
330
18
100
AcDbEntity
  8
4
100
AcDbLine
 10
-2.0
 20
0.0
 30
0.0
 11
42.2
 21
0.0
 31
0.0
  0
LINE
  5
3E2
330
18
100
AcDbEntity
  8
SK4
100
AcDbLine
 10
-2.0
 20
0.0
 30
0.0
 11
42.2
 21
0.0
 31
0.0
  0
LINE
  5
3E3
330
18
100
AcDbEntity
  8
1
100
AcDbLine
 10
20.14999999999999
 20
-3.144129330396704
 30
0.0
 11
20.14999999999999
 21
-3.174999999999998
 31
0.0
  0
LINE
  5
3E4
330
18
100
AcDbEntity
  8
1
100
AcDbLine
 10
20.14999999999999
 20
-1.189563926239105
 30
0.0
 11
20.14999999999999
 21
-2.826819661584282
 31
0.0
  0
LINE
  5
3E5
330
18
100
AcDbEntity
  8
1
100
AcDbLine
 10
20.15
 20
1.9545654041576
 30
0.0
 11
20.15
 21
-0.1614966146872156
 31
0.0
  0
LINE
  5
3E6
330
18
100
AcDbEntity
  8
1
100
AcDbLine
 10
21.15
 20
-1.301959485634455
 30
0.0
 11
21.15
 21
0.5529919586710729
 31
0.0
  0
LINE
  5
3E7
330
18
100
AcDbEntity
  8
1
100
AcDbLine
 10
21.15
 20
0.5529919586710729
 30
0.0
 11
21.15
 21
0.9125283307588532
 31
0.0
  0
ARC
  5
3E8
330
18
100
AcDbEntity
  8
1
100
AcDbCircle
 10
13.05399546664999
 20
-11.14160039588247
 30
0.0
 40
14.2233968594088
100
AcDbArc
 50
55.30568013598651
 51
60.0713576847908
  0
LINE
  5
3E9
330
18
100
AcDbEntity
  8
1
100
AcDbLine
 10
20.15000000000001
 20
3.174999999999999
 30
0.0
 11
20.15000000000001
 21
3.174892234925411
 31
0.0
  0
LINE
  5
3EA
330
18
100
AcDbEntity
  8
1
100
AcDbLine
 10
20.15000000000001
 20
3.174892234925411
 30
0.0
 11
20.15
 21
3.142252208969869
 31
0.0
  0
LINE
  5
3EB
330
18
100
AcDbEntity
  8
1
100
AcDbLine
 10
20.15
 20
3.142252208969869
 30
0.0
 11
20.15
 21
2.66532304689747
 31
0.0
  0
LINE
  5
3EC
330
18
100
AcDbEntity
  8
1
100
AcDbLine
 10
21.15
 20
1.856837011518071
 30
0.0
 11
21.15
 21
1.87246719326295
 31
0.0
  0
LINE
  5
3ED
330
18
100
AcDbEntity
  8
1
100
AcDbLine
 10
21.15
 20
1.872467193262951
 30
0.0
 11
21.13028184122054
 21
1.875659753735788
 31
0.0
  0
ARC
  5
3EE
330
18
100
AcDbEntity
  8
1
100
AcDbCircle
 10
20.51745986083324
 20
0.7873810539586961
 30
0.0
 40
2.38777419755086
100
AcDbArc
 50
74.63872610634262
 51
89.80628747088423
  0
ARC
  5
3EF
330
18
100
AcDbEntity
  8
1
100
AcDbCircle
 10
20.52734736126238
 20
-0.8551806816371257
 30
0.0
 40
2.319840002420961
100
AcDbArc
 50
260.6386362211628
 51
269.9551695446308
  0
LINE
  5
3F0
330
18
100
AcDbEntity
  8
1
100
AcDbLine
 10
20.15
 20
-2.826819661584683
 30
0.0
 11
20.27500140900592
 21
-2.890895813850262
 31
0.0
  0
LINE
  5
3F1
330
18
100
AcDbEntity
  8
1
100
AcDbLine
 10
20.27500140900592
 20
-2.890895813850262
 30
0.0
 11
20.40000754996422
 21
-2.948745599128604
 31
0.0
  0
LINE
  5
3F2
330
18
100
AcDbEntity
  8
1
100
AcDbLine
 10
20.40000754996422
 20
-2.948745599128604
 30
0.0
 11
20.52499288911316
 21
-3.00022045567421
 31
0.0
  0
LINE
  5
3F3
330
18
100
AcDbEntity
  8
1
100
AcDbLine
 10
20.52499288911316
 20
-3.00022045567421
 30
0.0
 11
20.65000715855838
 21
-3.045232668204642
 31
0.0
  0
LINE
  5
3F4
330
18
100
AcDbEntity
  8
1
100
AcDbLine
 10
20.65000715855838
 20
-3.045232668204642
 30
0.0
 11
20.77499331052996
 21
-3.08366488798373
 31
0.0
  0
LINE
  5
3F5
330
18
100
AcDbEntity
  8
1
100
AcDbLine
 10
20.77499331052996
 20
-3.08366488798373
 30
0.0
 11
20.90000529151962
 21
-3.115449895442745
 31
0.0
  0
LINE
  5
3F6
330
18
100
AcDbEntity
  8
1
100
AcDbLine
 10
20.90000529151962
 20
-3.115449895442745
 30
0.0
 11
21.02499716352537
 21
-3.140511125808878
 31
0.0
  0
LINE
  5
3F7
330
18
100
AcDbEntity
  8
1
100
AcDbLine
 10
21.02499716352537
 20
-3.140511125808878
 30
0.0
 11
21.15000000000001
 21
-3.158796497152528
 31
0.0
  0
LINE
  5
3F8
330
18
100
AcDbEntity
  8
1
100
AcDbLine
 10
20.15
 20
-1.189563926239105
 30
0.0
 11
20.65000785257501
 21
-1.712953513387408
 31
0.0
  0
LINE
  5
3F9
330
18
100
AcDbEntity
  8
1
100
AcDbLine
 10
20.65000785257501
 20
-1.712953513387408
 30
0.0
 11
20.90000490358618
 21
-1.953578522169956
 31
0.0
  0
LINE
  5
3FA
330
18
100
AcDbEntity
  8
1
100
AcDbLine
 10
20.90000490358618
 20
-1.953578522169956
 30
0.0
 11
21.15
 21
-2.177352698207949
 31
0.0
  0
LINE
  5
3FB
330
18
100
AcDbEntity
  8
1
100
AcDbLine
 10
20.15
 20
-0.1614966146872145
 30
0.0
 11
21.15000000000001
 21
-1.301959485634459
 31
0.0
  0
LINE
  5
3FC
330
18
100
AcDbEntity
  8
1
100
AcDbLine
 10
20.15
 20
1.954565404157599
 30
0.0
 11
20.6500075545956
 21
1.458648826287686
 31
0.0
  0
LINE
  5
3FD
330
18
100
AcDbEntity
  8
1
100
AcDbLine
 10
20.6500075545956
 20
1.458648826287686
 30
0.0
 11
21.15
 21
0.9125283307588588
 31
0.0
  0
LINE
  5
3FE
330
18
100
AcDbEntity
  8
1
100
AcDbLine
 10
20.15
 20
2.66532304689747
 30
0.0
 11
20.39507800183028
 21
2.497351570116379
 31
0.0
  0
LINE
  5
3FF
330
18
100
AcDbEntity
  8
1
100
AcDbLine
 10
20.39507800183028
 20
2.497351570116379
 30
0.0
 11
20.64014605877855
 21
2.308681669626619
 31
0.0
  0
LINE
  5
400
330
18
100
AcDbEntity
  8
1
100
AcDbLine
 10
20.64014605877855
 20
2.308681669626619
 30
0.0
 11
20.88521244950267
 21
2.100879770647088
 31
0.0
  0
LINE
  5
401
330
18
100
AcDbEntity
  8
1
100
AcDbLine
 10
20.88521244950267
 20
2.100879770647088
 30
0.0
 11
21.13028182028436
 21
1.875659731744959
 31
0.0
  0
LINE
  5
402
330
18
100
AcDbEntity
  8
1
100
AcDbLine
 10
0.0
 20
3.175
 30
0.0
 11
20.15000000000001
 21
3.175
 31
0.0
  0
ARC
  5
403
330
18
100
AcDbEntity
  8
1
100
AcDbCircle
 10
20.52734722430835
 20
0.8551817505998391
 30
0.0
 40
2.319838927609301
100
AcDbArc
 50
90.04482709348771
 51
99.36136473584229
  0
LINE
  5
404
330
18
100
AcDbEntity
  8
1
100
AcDbLine
 10
20.52553224366506
 20
3.175
 30
0.0
 11
21.15000000000001
 21
3.175
 31
0.0
  0
LINE
  5
405
330
18
100
AcDbEntity
  8
1
100
AcDbLine
 10
21.15
 20
-3.158796497152527
 30
0.0
 11
21.15
 21
-2.177356288944845
 31
0.0
  0
LINE
  5
406
330
18
100
AcDbEntity
  8
1
100
AcDbLine
 10
21.15
 20
-2.177356288944845
 30
0.0
 11
21.15
 21
-2.177352698207948
 31
0.0
  0
LINE
  5
407
330
18
100
AcDbEntity
  8
1
100
AcDbLine
 10
21.15000000000001
 20
-3.158796497152518
 30
0.0
 11
21.15000000000001
 21
-3.174999999999998
 31
0.0
  0
LINE
  5
408
330
18
100
AcDbEntity
  8
1
100
AcDbLine
 10
21.15000000000001
 20
3.174999999999999
 30
0.0
 11
21.15
 21
3.174980805472154
 31
0.0
  0
LINE
  5
409
330
18
100
AcDbEntity
  8
1
100
AcDbLine
 10
21.15
 20
3.174980805472154
 30
0.0
 11
21.15000000000001
 21
3.169327756049427
 31
0.0
  0
LINE
  5
40A
330
18
100
AcDbEntity
  8
1
100
AcDbLine
 10
21.15000000000001
 20
3.169327756049427
 30
0.0
 11
21.15000000000001
 21
3.089884675378312
 31
0.0
  0
LINE
  5
40B
330
18
100
AcDbEntity
  8
1
100
AcDbLine
 10
21.15
 20
1.87246719326295
 30
0.0
 11
21.15
 21
3.08988102896681
 31
0.0
  0
LINE
  5
40C
330
18
100
AcDbEntity
  8
1
100
AcDbLine
 10
21.15
 20
3.08988102896681
 30
0.0
 11
21.15
 21
3.089884675378311
 31
0.0
  0
LINE
  5
40D
330
18
100
AcDbEntity
  8
1
100
AcDbLine
 10
21.15
 20
1.856837011518091
 30
0.0
 11
21.15000000000001
 21
0.9125283307588588
 31
0.0
  0
LINE
  5
40E
330
18
100
AcDbEntity
  8
1
100
AcDbLine
 10
21.15000000000001
 20
-1.301959485634503
 30
0.0
 11
21.15000000000001
 21
-2.177352698207949
 31
0.0
  0
LINE
  5
40F
330
18
100
AcDbEntity
  8
1
100
AcDbLine
 10
21.13028182028436
 20
1.875659731744959
 30
0.0
 11
21.15000000000001
 21
1.856837011518074
 31
0.0
  0
LINE
  5
410
330
18
100
AcDbEntity
  8
1
100
AcDbLine
 10
0.0000000000000009
 20
-3.174999999999998
 30
0.0
 11
20.14999999999999
 21
-3.174999999999998
 31
0.0
  0
LINE
  5
411
330
18
100
AcDbEntity
  8
1
100
AcDbLine
 10
20.5255322436652
 20
-3.174999999999998
 30
0.0
 11
21.15000000000002
 21
-3.174999999999998
 31
0.0
  0
LINE
  5
412
330
18
100
AcDbEntity
  8
1
 62
     1
100
AcDbLine
 10
27.05752622718828
 20
3.175
 30
0.0
 11
27.21541018818345
 21
3.169535917771545
 31
0.0
  0
LINE
  5
413
330
18
100
AcDbEntity
  8
1
 62
     1
100
AcDbLine
 10
27.21541018818345
 20
3.169535917771545
 30
0.0
 11
27.3732906386944
 21
3.153163050961395
 31
0.0
  0
LINE
  5
414
330
18
100
AcDbEntity
  8
1
 62
     1
100
AcDbLine
 10
27.3732906386944
 20
3.153163050961395
 30
0.0
 11
27.53117025055684
 21
3.125938328264889
 31
0.0
  0
LINE
  5
415
330
18
100
AcDbEntity
  8
1
 62
     1
100
AcDbLine
 10
27.53117025055684
 20
3.125938328264889
 30
0.0
 11
27.68904980474167
 21
3.087955248771642
 31
0.0
  0
LINE
  5
416
330
18
100
AcDbEntity
  8
1
 62
     1
100
AcDbLine
 10
27.68904980474167
 20
3.087955248771642
 30
0.0
 11
27.84693152427606
 21
3.039343935087405
 31
0.0
  0
LINE
  5
417
330
18
100
AcDbEntity
  8
1
 62
     1
100
AcDbLine
 10
27.84693152427606
 20
3.039343935087405
 30
0.0
 11
28.00481577890243
 21
2.980270521962037
 31
0.0
  0
LINE
  5
418
330
18
100
AcDbEntity
  8
1
 62
     1
100
AcDbLine
 10
28.00481577890243
 20
2.980270521962037
 30
0.0
 11
28.16269814049366
 21
2.910940042382044
 31
0.0
  0
LINE
  5
419
330
18
100
AcDbEntity
  8
1
 62
     1
100
AcDbLine
 10
28.16269814049366
 20
2.910940042382044
 30
0.0
 11
28.32057840359322
 21
2.831592041781455
 31
0.0
  0
LINE
  5
41A
330
18
100
AcDbEntity
  8
1
 62
     1
100
AcDbLine
 10
28.32057840359322
 20
2.831592041781455
 30
0.0
 11
28.47845755775375
 21
2.742499055270039
 31
0.0
  0
LINE
  5
41B
330
18
100
AcDbEntity
  8
1
 62
     1
100
AcDbLine
 10
28.47845755775375
 20
2.742499055270039
 30
0.0
 11
28.63633781027112
 21
2.643967144851871
 31
0.0
  0
LINE
  5
41C
330
18
100
AcDbEntity
  8
1
 62
     1
100
AcDbLine
 10
28.63633781027112
 20
2.643967144851871
 30
0.0
 11
28.79421979213998
 21
2.536333691314301
 31
0.0
  0
LINE
  5
41D
330
18
100
AcDbEntity
  8
1
 62
     1
100
AcDbLine
 10
28.79421979213998
 20
2.536333691314301
 30
0.0
 11
28.95210440297391
 21
2.419969262160021
 31
0.0
  0
LINE
  5
41E
330
18
100
AcDbEntity
  8
1
 62
     1
100
AcDbLine
 10
28.95210440297391
 20
2.419969262160021
 30
0.0
 11
29.26786549566234
 21
2.162687608040605
 31
0.0
  0
LINE
  5
41F
330
18
100
AcDbEntity
  8
1
 62
     1
100
AcDbLine
 10
29.26786549566234
 20
2.162687608040605
 30
0.0
 11
29.58362517575923
 21
1.875659985762411
 31
0.0
  0
LINE
  5
420
330
18
100
AcDbEntity
  8
1
 62
     1
100
AcDbLine
 10
26.16109453571503
 20
3.175
 30
0.0
 11
27.05752622718828
 21
3.175
 31
0.0
  0
LINE
  5
421
330
18
100
AcDbEntity
  8
1
 62
     1
100
AcDbLine
 10
26.16109453571503
 20
3.175
 30
0.0
 11
26.29318492365878
 21
3.171172849018618
 31
0.0
  0
LINE
  5
422
330
18
100
AcDbEntity
  8
1
 62
     1
100
AcDbLine
 10
26.29318492365878
 20
3.171172849018618
 30
0.0
 11
26.4252838143269
 21
3.159708704299693
 31
0.0
  0
LINE
  5
423
330
18
100
AcDbEntity
  8
1
 62
     1
100
AcDbLine
 10
26.4252838143269
 20
3.159708704299693
 30
0.0
 11
26.5573659494136
 21
3.140629753800027
 31
0.0
  0
LINE
  5
424
330
18
100
AcDbEntity
  8
1
 62
     1
100
AcDbLine
 10
26.5573659494136
 20
3.140629753800027
 30
0.0
 11
26.68947009242792
 21
3.113982969076733
 31
0.0
  0
LINE
  5
425
330
18
100
AcDbEntity
  8
1
 62
     1
100
AcDbLine
 10
26.68947009242792
 20
3.113982969076733
 30
0.0
 11
26.8215477233431
 21
3.079837436371535
 31
0.0
  0
LINE
  5
426
330
18
100
AcDbEntity
  8
1
 62
     1
100
AcDbLine
 10
26.8215477233431
 20
3.079837436371535
 30
0.0
 11
26.95365402734637
 21
3.03826424235076
 31
0.0
  0
LINE
  5
427
330
18
100
AcDbEntity
  8
1
 62
     1
100
AcDbLine
 10
26.95365402734637
 20
3.03826424235076
 30
0.0
 11
27.08573075669803
 21
2.989380858969863
 31
0.0
  0
LINE
  5
428
330
18
100
AcDbEntity
  8
1
 62
     1
100
AcDbLine
 10
27.08573075669803
 20
2.989380858969863
 30
0.0
 11
27.21783623218126
 21
2.933282495591926
 31
0.0
  0
LINE
  5
429
330
18
100
AcDbEntity
  8
1
 62
     1
100
AcDbLine
 10
27.21783623218126
 20
2.933282495591926
 30
0.0
 11
27.34991552719069
 21
2.870130480660201
 31
0.0
  0
LINE
  5
42A
330
18
100
AcDbEntity
  8
1
 62
     1
100
AcDbLine
 10
27.34991552719069
 20
2.870130480660201
 30
0.0
 11
27.48201728047071
 21
2.800049212271545
 31
0.0
  0
LINE
  5
42B
330
18
100
AcDbEntity
  8
1
 62
     1
100
AcDbLine
 10
27.48201728047071
 20
2.800049212271545
 30
0.0
 11
27.61410248127319
 21
2.723233936049709
 31
0.0
  0
LINE
  5
42C
330
18
100
AcDbEntity
  8
1
 62
     1
100
AcDbLine
 10
27.61410248127319
 20
2.723233936049709
 30
0.0
 11
27.74619770980756
 21
2.639847677505344
 31
0.0
  0
LINE
  5
42D
330
18
100
AcDbEntity
  8
1
 62
     1
100
AcDbLine
 10
27.74619770980756
 20
2.639847677505344
 30
0.0
 11
28.0103780246228
 21
2.454220660717443
 31
0.0
  0
LINE
  5
42E
330
18
100
AcDbEntity
  8
1
 62
     1
100
AcDbLine
 10
28.0103780246228
 20
2.454220660717443
 30
0.0
 11
28.27455869829522
 21
2.24495560807796
 31
0.0
  0
LINE
  5
42F
330
18
100
AcDbEntity
  8
1
 62
     1
100
AcDbLine
 10
28.27455869829522
 20
2.24495560807796
 30
0.0
 11
28.53874017470085
 21
2.014067485222843
 31
0.0
  0
LINE
  5
430
330
18
100
AcDbEntity
  8
1
 62
     1
100
AcDbLine
 10
28.53874017470085
 20
2.014067485222843
 30
0.0
 11
28.80291994505961
 21
1.76378260213603
 31
0.0
  0
LINE
  5
431
330
18
100
AcDbEntity
  8
1
 62
     1
100
AcDbLine
 10
28.80291994505961
 20
1.76378260213603
 30
0.0
 11
29.33120633702859
 21
1.214902065154364
 31
0.0
  0
LINE
  5
432
330
18
100
AcDbEntity
  8
1
 62
     1
100
AcDbLine
 10
29.33120633702859
 20
1.214902065154364
 30
0.0
 11
30.38776618022493
 21
-0.0000000000004672
 31
0.0
  0
LINE
  5
433
330
18
100
AcDbEntity
  8
1
 62
     1
100
AcDbLine
 10
29.87530738604949
 20
3.174999999999999
 30
0.0
 11
30.03319129318254
 21
3.169535915410623
 31
0.0
  0
LINE
  5
434
330
18
100
AcDbEntity
  8
1
 62
     1
100
AcDbLine
 10
30.03319129318254
 20
3.169535915410623
 30
0.0
 11
30.19107175875183
 21
3.153163048175328
 31
0.0
  0
LINE
  5
435
330
18
100
AcDbEntity
  8
1
 62
     1
100
AcDbLine
 10
30.19107175875183
 20
3.153163048175328
 30
0.0
 11
30.3489513543202
 21
3.125938326199904
 31
0.0
  0
LINE
  5
436
330
18
100
AcDbEntity
  8
1
 62
     1
100
AcDbLine
 10
30.3489513543202
 20
3.125938326199904
 30
0.0
 11
30.5068309038708
 21
3.087955245138097
 31
0.0
  0
LINE
  5
437
330
18
100
AcDbEntity
  8
1
 62
     1
100
AcDbLine
 10
30.5068309038708
 20
3.087955245138097
 30
0.0
 11
30.66471267386326
 21
3.039343945436722
 31
0.0
  0
LINE
  5
438
330
18
100
AcDbEntity
  8
1
 62
     1
100
AcDbLine
 10
30.66471267386326
 20
3.039343945436722
 30
0.0
 11
30.8225968286576
 21
2.980270508345545
 31
0.0
  0
LINE
  5
439
330
18
100
AcDbEntity
  8
1
 62
     1
100
AcDbLine
 10
30.8225968286576
 20
2.980270508345545
 30
0.0
 11
30.98047926532002
 21
2.910940056306651
 31
0.0
  0
LINE
  5
43A
330
18
100
AcDbEntity
  8
1
 62
     1
100
AcDbLine
 10
30.98047926532002
 20
2.910940056306651
 30
0.0
 11
31.13835948494424
 21
2.831592044322668
 31
0.0
  0
LINE
  5
43B
330
18
100
AcDbEntity
  8
1
 62
     1
100
AcDbLine
 10
31.13835948494424
 20
2.831592044322668
 30
0.0
 11
31.29623867119291
 21
2.742499075071391
 31
0.0
  0
LINE
  5
43C
330
18
100
AcDbEntity
  8
1
 62
     1
100
AcDbLine
 10
31.29623867119291
 20
2.742499075071391
 30
0.0
 11
31.45411885203794
 21
2.64396713952378
 31
0.0
  0
LINE
  5
43D
330
18
100
AcDbEntity
  8
1
 62
     1
100
AcDbLine
 10
31.45411885203794
 20
2.64396713952378
 30
0.0
 11
31.61200087095557
 21
2.536333709205807
 31
0.0
  0
LINE
  5
43E
330
18
100
AcDbEntity
  8
1
 62
     1
100
AcDbLine
 10
31.61200087095557
 20
2.536333709205807
 30
0.0
 11
31.7698855058441
 21
2.419969300394527
 31
0.0
  0
LINE
  5
43F
330
18
100
AcDbEntity
  8
1
 62
     1
100
AcDbLine
 10
31.7698855058441
 20
2.419969300394527
 30
0.0
 11
32.08564656549324
 21
2.1626876443951
 31
0.0
  0
LINE
  5
440
330
18
100
AcDbEntity
  8
1
 62
     1
100
AcDbLine
 10
32.08564656549324
 20
2.1626876443951
 30
0.0
 11
32.40140627633417
 21
1.875660060112762
 31
0.0
  0
LINE
  5
441
330
18
100
AcDbEntity
  8
1
 62
     1
100
AcDbLine
 10
28.97887563265569
 20
3.175
 30
0.0
 11
29.87530738604949
 21
3.175
 31
0.0
  0
LINE
  5
442
330
18
100
AcDbEntity
  8
1
 62
     1
100
AcDbLine
 10
28.97887563265569
 20
3.174999999999999
 30
0.0
 11
29.11095896137197
 21
3.171173257533801
 31
0.0
  0
LINE
  5
443
330
18
100
AcDbEntity
  8
1
 62
     1
100
AcDbLine
 10
29.11095896137197
 20
3.171173257533801
 30
0.0
 11
29.24305079364179
 21
3.159710336630508
 31
0.0
  0
LINE
  5
444
330
18
100
AcDbEntity
  8
1
 62
     1
100
AcDbLine
 10
29.24305079364179
 20
3.159710336630508
 30
0.0
 11
29.37512586904155
 21
3.140633421229455
 31
0.0
  0
LINE
  5
445
330
18
100
AcDbEntity
  8
1
 62
     1
100
AcDbLine
 10
29.37512586904155
 20
3.140633421229455
 30
0.0
 11
29.50722295227369
 21
3.113989468067479
 31
0.0
  0
LINE
  5
446
330
18
100
AcDbEntity
  8
1
 62
     1
100
AcDbLine
 10
29.50722295227369
 20
3.113989468067479
 30
0.0
 11
29.63929352595907
 21
3.079847558153418
 31
0.0
  0
LINE
  5
447
330
18
100
AcDbEntity
  8
1
 62
     1
100
AcDbLine
 10
29.63929352595907
 20
3.079847558153418
 30
0.0
 11
29.77139276664768
 21
3.038278749587044
 31
0.0
  0
LINE
  5
448
330
18
100
AcDbEntity
  8
1
 62
     1
100
AcDbLine
 10
29.77139276664768
 20
3.038278749587044
 30
0.0
 11
29.90346244411827
 21
2.989400504614517
 31
0.0
  0
LINE
  5
449
330
18
100
AcDbEntity
  8
1
 62
     1
100
AcDbLine
 10
29.90346244411827
 20
2.989400504614517
 30
0.0
 11
30.03556085056528
 21
2.933307998122517
 31
0.0
  0
LINE
  5
44A
330
18
100
AcDbEntity
  8
1
 62
     1
100
AcDbLine
 10
30.03556085056528
 20
2.933307998122517
 30
0.0
 11
30.1676331019928
 21
2.8701625332367
 31
0.0
  0
LINE
  5
44B
330
18
100
AcDbEntity
  8
1
 62
     1
100
AcDbLine
 10
30.1676331019928
 20
2.8701625332367
 30
0.0
 11
30.29972777823725
 21
2.800088483097188
 31
0.0
  0
LINE
  5
44C
330
18
100
AcDbEntity
  8
1
 62
     1
100
AcDbLine
 10
30.29972777823725
 20
2.800088483097188
 30
0.0
 11
30.43180594681447
 21
2.723281034504291
 31
0.0
  0
LINE
  5
44D
330
18
100
AcDbEntity
  8
1
 62
     1
100
AcDbLine
 10
30.43180594681447
 20
2.723281034504291
 30
0.0
 11
30.56389408792082
 21
2.639903219252003
 31
0.0
  0
LINE
  5
44E
330
18
100
AcDbEntity
  8
1
 62
     1
100
AcDbLine
 10
30.56389408792082
 20
2.639903219252003
 30
0.0
 11
30.82806028471518
 21
2.454294653345024
 31
0.0
  0
LINE
  5
44F
330
18
100
AcDbEntity
  8
1
 62
     1
100
AcDbLine
 10
30.82806028471518
 20
2.454294653345024
 30
0.0
 11
31.09222684267618
 21
2.245049861414596
 31
0.0
  0
LINE
  5
450
330
18
100
AcDbEntity
  8
1
 62
     1
100
AcDbLine
 10
31.09222684267618
 20
2.245049861414596
 30
0.0
 11
31.3563942063658
 21
2.014183397044977
 31
0.0
  0
LINE
  5
451
330
18
100
AcDbEntity
  8
1
 62
     1
100
AcDbLine
 10
31.3563942063658
 20
2.014183397044977
 30
0.0
 11
31.62056279191776
 21
1.763917953525259
 31
0.0
  0
LINE
  5
452
330
18
100
AcDbEntity
  8
1
 62
     1
100
AcDbLine
 10
31.62056279191776
 20
1.763917953525259
 30
0.0
 11
32.14890515442611
 21
1.214991760832408
 31
0.0
  0
LINE
  5
453
330
18
100
AcDbEntity
  8
1
 62
     1
100
AcDbLine
 10
32.14890515442611
 20
1.214991760832408
 30
0.0
 11
33.20554727366394
 21
-0.0000000000008043
 31
0.0
  0
LINE
  5
454
330
18
100
AcDbEntity
  8
1
 62
     1
100
AcDbLine
 10
40.2
 20
-1.928249871572059
 30
0.0
 11
40.19762810288725
 21
-2.020857608457296
 31
0.0
  0
LINE
  5
455
330
18
100
AcDbEntity
  8
1
 62
     1
100
AcDbLine
 10
40.19762810288725
 20
-2.020857608457296
 30
0.0
 11
40.18973456966003
 21
-2.114037194961369
 31
0.0
  0
LINE
  5
456
330
18
100
AcDbEntity
  8
1
 62
     1
100
AcDbLine
 10
40.18973456966003
 20
-2.114037194961369
 30
0.0
 11
40.18329622153774
 21
-2.16074709161073
 31
0.0
  0
LINE
  5
457
330
18
100
AcDbEntity
  8
1
 62
     1
100
AcDbLine
 10
40.18329622153774
 20
-2.16074709161073
 30
0.0
 11
40.17492673626779
 21
-2.207443305148415
 31
0.0
  0
LINE
  5
458
330
18
100
AcDbEntity
  8
1
 62
     1
100
AcDbLine
 10
40.17492673626779
 20
-2.207443305148415
 30
0.0
 11
40.16440528459638
 21
-2.25395556495193
 31
0.0
  0
LINE
  5
459
330
18
100
AcDbEntity
  8
1
 62
     1
100
AcDbLine
 10
40.16440528459638
 20
-2.25395556495193
 30
0.0
 11
40.15148981606418
 21
-2.300097075813376
 31
0.0
  0
LINE
  5
45A
330
18
100
AcDbEntity
  8
1
 62
     1
100
AcDbLine
 10
40.15148981606418
 20
-2.300097075813376
 30
0.0
 11
40.1359518032915
 21
-2.345532090989511
 31
0.0
  0
LINE
  5
45B
330
18
100
AcDbEntity
  8
1
 62
     1
100
AcDbLine
 10
40.1359518032915
 20
-2.345532090989511
 30
0.0
 11
40.11758740168158
 21
-2.38986082997318
 31
0.0
  0
LINE
  5
45C
330
18
100
AcDbEntity
  8
1
 62
     1
100
AcDbLine
 10
40.11758740168158
 20
-2.38986082997318
 30
0.0
 11
40.10730862090448
 21
-2.41141791296501
 31
0.0
  0
LINE
  5
45D
330
18
100
AcDbEntity
  8
1
 62
     1
100
AcDbLine
 10
40.10730862090448
 20
-2.41141791296501
 30
0.0
 11
40.09627814626876
 21
-2.432492459570357
 31
0.0
  0
LINE
  5
45E
330
18
100
AcDbEntity
  8
1
 62
     1
100
AcDbLine
 10
40.09627814626876
 20
-2.432492459570357
 30
0.0
 11
40.08451002456717
 21
-2.452976452435509
 31
0.0
  0
LINE
  5
45F
330
18
100
AcDbEntity
  8
1
 62
     1
100
AcDbLine
 10
40.08451002456717
 20
-2.452976452435509
 30
0.0
 11
40.07199917241854
 21
-2.472807987976925
 31
0.0
  0
LINE
  5
460
330
18
100
AcDbEntity
  8
1
 62
     1
100
AcDbLine
 10
40.07199917241854
 20
-2.472807987976925
 30
0.0
 11
40.05878161400354
 21
-2.491884086182781
 31
0.0
  0
LINE
  5
461
330
18
100
AcDbEntity
  8
1
 62
     1
100
AcDbLine
 10
40.05878161400354
 20
-2.491884086182781
 30
0.0
 11
40.04488594655242
 21
-2.510116419186194
 31
0.0
  0
LINE
  5
462
330
18
100
AcDbEntity
  8
1
 62
     1
100
AcDbLine
 10
40.04488594655242
 20
-2.510116419186194
 30
0.0
 11
40.03034637159637
 21
-2.527444424630321
 31
0.0
  0
LINE
  5
463
330
18
100
AcDbEntity
  8
1
 62
     1
100
AcDbLine
 10
40.03034637159637
 20
-2.527444424630321
 30
0.0
 11
40.0152328888042
 21
-2.543772044195913
 31
0.0
  0
LINE
  5
464
330
18
100
AcDbEntity
  8
1
 62
     1
100
AcDbLine
 10
40.0152328888042
 20
-2.543772044195913
 30
0.0
 11
39.99957915056189
 21
-2.55906533670275
 31
0.0
  0
LINE
  5
465
330
18
100
AcDbEntity
  8
1
 62
     1
100
AcDbLine
 10
39.99957915056189
 20
-2.55906533670275
 30
0.0
 11
39.98346504117612
 21
-2.573266924277206
 31
0.0
  0
LINE
  5
466
330
18
100
AcDbEntity
  8
1
 62
     1
100
AcDbLine
 10
39.98346504117612
 20
-2.573266924277206
 30
0.0
 11
39.96694822614081
 21
-2.586344529438569
 31
0.0
  0
LINE
  5
467
330
18
100
AcDbEntity
  8
1
 62
     1
100
AcDbLine
 10
39.96694822614081
 20
-2.586344529438569
 30
0.0
 11
39.95008320234173
 21
-2.598294512226474
 31
0.0
  0
LINE
  5
468
330
18
100
AcDbEntity
  8
1
 62
     1
100
AcDbLine
 10
39.95008320234173
 20
-2.598294512226474
 30
0.0
 11
39.93294846010345
 21
-2.609097550876797
 31
0.0
  0
LINE
  5
469
330
18
100
AcDbEntity
  8
1
 62
     1
100
AcDbLine
 10
39.93294846010345
 20
-2.609097550876797
 30
0.0
 11
39.91557840066301
 21
-2.618776295919333
 31
0.0
  0
LINE
  5
46A
330
18
100
AcDbEntity
  8
1
 62
     1
100
AcDbLine
 10
39.91557840066301
 20
-2.618776295919333
 30
0.0
 11
39.89804046230852
 21
-2.627340930228374
 31
0.0
  0
LINE
  5
46B
330
18
100
AcDbEntity
  8
1
 62
     1
100
AcDbLine
 10
39.89804046230852
 20
-2.627340930228374
 30
0.0
 11
39.88037317692405
 21
-2.634818040148348
 31
0.0
  0
LINE
  5
46C
330
18
100
AcDbEntity
  8
1
 62
     1
100
AcDbLine
 10
39.88037317692405
 20
-2.634818040148348
 30
0.0
 11
39.86261377602245
 21
-2.641241766955605
 31
0.0
  0
LINE
  5
46D
330
18
100
AcDbEntity
  8
1
 62
     1
100
AcDbLine
 10
39.86261377602245
 20
-2.641241766955605
 30
0.0
 11
39.8448081393797
 21
-2.646641580760649
 31
0.0
  0
LINE
  5
46E
330
18
100
AcDbEntity
  8
1
 62
     1
100
AcDbLine
 10
39.8448081393797
 20
-2.646641580760649
 30
0.0
 11
39.82697162900557
 21
-2.651059330868297
 31
0.0
  0
LINE
  5
46F
330
18
100
AcDbEntity
  8
1
 62
     1
100
AcDbLine
 10
39.82697162900557
 20
-2.651059330868297
 30
0.0
 11
39.80914142250776
 21
-2.654530147102125
 31
0.0
  0
LINE
  5
470
330
18
100
AcDbEntity
  8
1
 62
     1
100
AcDbLine
 10
39.80914142250776
 20
-2.654530147102125
 30
0.0
 11
39.79133117556177
 21
-2.657093448314939
 31
0.0
  0
LINE
  5
471
330
18
100
AcDbEntity
  8
1
 62
     1
100
AcDbLine
 10
39.79133117556177
 20
-2.657093448314939
 30
0.0
 11
39.77355990331558
 21
-2.658786918627797
 31
0.0
  0
LINE
  5
472
330
18
100
AcDbEntity
  8
1
 62
     1
100
AcDbLine
 10
39.77355990331558
 20
-2.658786918627797
 30
0.0
 11
39.75584531798161
 21
-2.659646830296994
 31
0.0
  0
LINE
  5
473
330
18
100
AcDbEntity
  8
1
 62
     1
100
AcDbLine
 10
39.75584531798161
 20
-2.659646830296994
 30
0.0
 11
39.73818795285786
 21
-2.659708637433398
 31
0.0
  0
LINE
  5
474
330
18
100
AcDbEntity
  8
1
 62
     1
100
AcDbLine
 10
39.73818795285786
 20
-2.659708637433398
 30
0.0
 11
39.72060505000705
 21
-2.659005373527701
 31
0.0
  0
LINE
  5
475
330
18
100
AcDbEntity
  8
1
 62
     1
100
AcDbLine
 10
39.72060505000705
 20
-2.659005373527701
 30
0.0
 11
39.70311420554699
 21
-2.657569989392626
 31
0.0
  0
LINE
  5
476
330
18
100
AcDbEntity
  8
1
 62
     1
100
AcDbLine
 10
39.70311420554699
 20
-2.657569989392626
 30
0.0
 11
39.68571324621992
 21
-2.655432757374768
 31
0.0
  0
LINE
  5
477
330
18
100
AcDbEntity
  8
1
 62
     1
100
AcDbLine
 10
39.68571324621992
 20
-2.655432757374768
 30
0.0
 11
39.66840251981721
 21
-2.65262106271521
 31
0.0
  0
LINE
  5
478
330
18
100
AcDbEntity
  8
1
 62
     1
100
AcDbLine
 10
39.66840251981721
 20
-2.65262106271521
 30
0.0
 11
39.65119252188236
 21
-2.649162564360083
 31
0.0
  0
LINE
  5
479
330
18
100
AcDbEntity
  8
1
 62
     1
100
AcDbLine
 10
39.65119252188236
 20
-2.649162564360083
 30
0.0
 11
39.6340911063263
 21
-2.645084225268614
 31
0.0
  0
LINE
  5
47A
330
18
100
AcDbEntity
  8
1
 62
     1
100
AcDbLine
 10
39.6340911063263
 20
-2.645084225268614
 30
0.0
 11
39.60019480294956
 21
-2.6351542433573
 31
0.0
  0
LINE
  5
47B
330
18
100
AcDbEntity
  8
1
 62
     1
100
AcDbLine
 10
39.60019480294956
 20
-2.6351542433573
 30
0.0
 11
39.5667359472945
 21
-2.623006117967714
 31
0.0
  0
LINE
  5
47C
330
18
100
AcDbEntity
  8
1
 62
     1
100
AcDbLine
 10
39.5667359472945
 20
-2.623006117967714
 30
0.0
 11
39.53370005972731
 21
-2.608783490572547
 31
0.0
  0
LINE
  5
47D
330
18
100
AcDbEntity
  8
1
 62
     1
100
AcDbLine
 10
39.53370005972731
 20
-2.608783490572547
 30
0.0
 11
39.50110641796866
 21
-2.592624009678132
 31
0.0
  0
LINE
  5
47E
330
18
100
AcDbEntity
  8
1
 62
     1
100
AcDbLine
 10
39.50110641796866
 20
-2.592624009678132
 30
0.0
 11
39.46896894919003
 21
-2.574657039440103
 31
0.0
  0
LINE
  5
47F
330
18
100
AcDbEntity
  8
1
 62
     1
100
AcDbLine
 10
39.46896894919003
 20
-2.574657039440103
 30
0.0
 11
39.4372608747555
 21
-2.55497304544842
 31
0.0
  0
LINE
  5
480
330
18
100
AcDbEntity
  8
1
 62
     1
100
AcDbLine
 10
39.4372608747555
 20
-2.55497304544842
 30
0.0
 11
39.40600000000001
 21
-2.533677612738316
 31
0.0
  0
LINE
  5
481
330
18
100
AcDbEntity
  8
1
 62
     1
100
AcDbLine
 10
40.2
 20
-2.380588935040262
 30
0.0
 11
40.1984602439757
 21
-2.429937862652582
 31
0.0
  0
LINE
  5
482
330
18
100
AcDbEntity
  8
1
 62
     1
100
AcDbLine
 10
40.1984602439757
 20
-2.429937862652582
 30
0.0
 11
40.19387782492148
 21
-2.478867396627667
 31
0.0
  0
LINE
  5
483
330
18
100
AcDbEntity
  8
1
 62
     1
100
AcDbLine
 10
40.19387782492148
 20
-2.478867396627667
 30
0.0
 11
40.18631787726786
 21
-2.52704656574557
 31
0.0
  0
LINE
  5
484
330
18
100
AcDbEntity
  8
1
 62
     1
100
AcDbLine
 10
40.18631787726786
 20
-2.52704656574557
 30
0.0
 11
40.17592350622872
 21
-2.574065698200763
 31
0.0
  0
LINE
  5
485
330
18
100
AcDbEntity
  8
1
 62
     1
100
AcDbLine
 10
40.17592350622872
 20
-2.574065698200763
 30
0.0
 11
40.16285160497615
 21
-2.619646493951906
 31
0.0
  0
LINE
  5
486
330
18
100
AcDbEntity
  8
1
 62
     1
100
AcDbLine
 10
40.16285160497615
 20
-2.619646493951906
 30
0.0
 11
40.14732571280511
 21
-2.663436466787759
 31
0.0
  0
LINE
  5
487
330
18
100
AcDbEntity
  8
1
 62
     1
100
AcDbLine
 10
40.14732571280511
 20
-2.663436466787759
 30
0.0
 11
40.12955716871481
 21
-2.705244398880467
 31
0.0
  0
LINE
  5
488
330
18
100
AcDbEntity
  8
1
 62
     1
100
AcDbLine
 10
40.12955716871481
 20
-2.705244398880467
 30
0.0
 11
40.10979548796781
 21
-2.744837614122396
 31
0.0
  0
LINE
  5
489
330
18
100
AcDbEntity
  8
1
 62
     1
100
AcDbLine
 10
40.10979548796781
 20
-2.744837614122396
 30
0.0
 11
40.08826412199854
 21
-2.782109073140656
 31
0.0
  0
LINE
  5
48A
330
18
100
AcDbEntity
  8
1
 62
     1
100
AcDbLine
 10
40.08826412199854
 20
-2.782109073140656
 30
0.0
 11
40.0651861991633
 21
-2.816957940461905
 31
0.0
  0
LINE
  5
48B
330
18
100
AcDbEntity
  8
1
 62
     1
100
AcDbLine
 10
40.0651861991633
 20
-2.816957940461905
 30
0.0
 11
40.0407702765087
 21
-2.849336519061564
 31
0.0
  0
LINE
  5
48C
330
18
100
AcDbEntity
  8
1
 62
     1
100
AcDbLine
 10
40.0407702765087
 20
-2.849336519061564
 30
0.0
 11
40.01518994809236
 21
-2.879240034767282
 31
0.0
  0
LINE
  5
48D
330
18
100
AcDbEntity
  8
1
 62
     1
100
AcDbLine
 10
40.01518994809236
 20
-2.879240034767282
 30
0.0
 11
39.98862253164003
 21
-2.90666437693862
 31
0.0
  0
LINE
  5
48E
330
18
100
AcDbEntity
  8
1
 62
     1
100
AcDbLine
 10
39.98862253164003
 20
-2.90666437693862
 30
0.0
 11
39.96119504411561
 21
-2.931653894429172
 31
0.0
  0
LINE
  5
48F
330
18
100
AcDbEntity
  8
1
 62
     1
100
AcDbLine
 10
39.96119504411561
 20
-2.931653894429172
 30
0.0
 11
39.93304645731732
 21
-2.95423575891518
 31
0.0
  0
LINE
  5
490
330
18
100
AcDbEntity
  8
1
 62
     1
100
AcDbLine
 10
39.93304645731732
 20
-2.95423575891518
 30
0.0
 11
39.90427051350287
 21
-2.974470414125731
 31
0.0
  0
LINE
  5
491
330
18
100
AcDbEntity
  8
1
 62
     1
100
AcDbLine
 10
39.90427051350287
 20
-2.974470414125731
 30
0.0
 11
39.87496742428173
 21
-2.992404740851292
 31
0.0
  0
LINE
  5
492
330
18
100
AcDbEntity
  8
1
 62
     1
100
AcDbLine
 10
39.87496742428173
 20
-2.992404740851292
 30
0.0
 11
39.84521136080519
 21
-3.008098268549016
 31
0.0
  0
LINE
  5
493
330
18
100
AcDbEntity
  8
1
 62
     1
100
AcDbLine
 10
39.84521136080519
 20
-3.008098268549016
 30
0.0
 11
39.81506042837733
 21
-3.02160995723798
 31
0.0
  0
LINE
  5
494
330
18
100
AcDbEntity
  8
1
 62
     1
100
AcDbLine
 10
39.81506042837733
 20
-3.02160995723798
 30
0.0
 11
39.78457325752977
 21
-3.032993875264618
 31
0.0
  0
LINE
  5
495
330
18
100
AcDbEntity
  8
1
 62
     1
100
AcDbLine
 10
39.78457325752977
 20
-3.032993875264618
 30
0.0
 11
39.75382251325729
 21
-3.042294754876757
 31
0.0
  0
LINE
  5
496
330
18
100
AcDbEntity
  8
1
 62
     1
100
AcDbLine
 10
39.75382251325729
 20
-3.042294754876757
 30
0.0
 11
39.72282308832301
 21
-3.049572204004212
 31
0.0
  0
LINE
  5
497
330
18
100
AcDbEntity
  8
1
 62
     1
100
AcDbLine
 10
39.72282308832301
 20
-3.049572204004212
 30
0.0
 11
39.69162500197992
 21
-3.054871321054052
 31
0.0
  0
LINE
  5
498
330
18
100
AcDbEntity
  8
1
 62
     1
100
AcDbLine
 10
39.69162500197992
 20
-3.054871321054052
 30
0.0
 11
39.66026627480863
 21
-3.058236360066557
 31
0.0
  0
LINE
  5
499
330
18
100
AcDbEntity
  8
1
 62
     1
100
AcDbLine
 10
39.66026627480863
 20
-3.058236360066557
 30
0.0
 11
39.62875452325384
 21
-3.059712311382778
 31
0.0
  0
LINE
  5
49A
330
18
100
AcDbEntity
  8
1
 62
     1
100
AcDbLine
 10
39.62875452325384
 20
-3.059712311382778
 30
0.0
 11
39.59713468459667
 21
-3.059337620119987
 31
0.0
  0
LINE
  5
49B
330
18
100
AcDbEntity
  8
1
 62
     1
100
AcDbLine
 10
39.59713468459667
 20
-3.059337620119987
 30
0.0
 11
39.56541531613251
 21
-3.057148521371031
 31
0.0
  0
LINE
  5
49C
330
18
100
AcDbEntity
  8
1
 62
     1
100
AcDbLine
 10
39.56541531613251
 20
-3.057148521371031
 30
0.0
 11
39.53361436071
 21
-3.053178984894269
 31
0.0
  0
LINE
  5
49D
330
18
100
AcDbEntity
  8
1
 62
     1
100
AcDbLine
 10
39.53361436071
 20
-3.053178984894269
 30
0.0
 11
39.50176428267388
 21
-3.047461973392112
 31
0.0
  0
LINE
  5
49E
330
18
100
AcDbEntity
  8
1
 62
     1
100
AcDbLine
 10
39.50176428267388
 20
-3.047461973392112
 30
0.0
 11
39.46986099791071
 21
-3.040022509737681
 31
0.0
  0
LINE
  5
49F
330
18
100
AcDbEntity
  8
1
 62
     1
100
AcDbLine
 10
39.46986099791071
 20
-3.040022509737681
 30
0.0
 11
39.43793195252388
 21
-3.030889776574957
 31
0.0
  0
LINE
  5
4A0
330
18
100
AcDbEntity
  8
1
 62
     1
100
AcDbLine
 10
39.43793195252388
 20
-3.030889776574957
 30
0.0
 11
39.40600000000001
 21
-3.020090599348083
 31
0.0
  0
LINE
  5
4A1
330
18
100
AcDbEntity
  8
1
 62
     1
100
AcDbLine
 10
40.2
 20
-1.92824987157206
 30
0.0
 11
40.2
 21
-2.380588935040245
 31
0.0
  0
LINE
  5
4A2
330
18
100
AcDbEntity
  8
1
 62
     1
100
AcDbLine
 10
32.69308855939219
 20
3.174999999999999
 30
0.0
 11
32.85098774476157
 21
3.169532677560069
 31
0.0
  0
LINE
  5
4A3
330
18
100
AcDbEntity
  8
1
 62
     1
100
AcDbLine
 10
32.85098774476157
 20
3.169532677560069
 30
0.0
 11
33.00887746546695
 21
3.153159754018394
 31
0.0
  0
LINE
  5
4A4
330
18
100
AcDbEntity
  8
1
 62
     1
100
AcDbLine
 10
33.00887746546695
 20
3.153159754018394
 30
0.0
 11
33.16678561349642
 21
3.125925816255236
 31
0.0
  0
LINE
  5
4A5
330
18
100
AcDbEntity
  8
1
 62
     1
100
AcDbLine
 10
33.16678561349642
 20
3.125925816255236
 30
0.0
 11
33.32466975661568
 21
3.08793880466168
 31
0.0
  0
LINE
  5
4A6
330
18
100
AcDbEntity
  8
1
 62
     1
100
AcDbLine
 10
33.32466975661568
 20
3.08793880466168
 30
0.0
 11
33.48258203237852
 21
3.039312473707232
 31
0.0
  0
LINE
  5
4A7
330
18
100
AcDbEntity
  8
1
 62
     1
100
AcDbLine
 10
33.48258203237852
 20
3.039312473707232
 30
0.0
 11
33.64045817033946
 21
2.980237492102753
 31
0.0
  0
LINE
  5
4A8
330
18
100
AcDbEntity
  8
1
 62
     1
100
AcDbLine
 10
33.64045817033946
 20
2.980237492102753
 30
0.0
 11
33.79832959671918
 21
2.910907521763226
 31
0.0
  0
LINE
  5
4A9
330
18
100
AcDbEntity
  8
1
 62
     1
100
AcDbLine
 10
33.79832959671918
 20
2.910907521763226
 30
0.0
 11
33.95620288415756
 21
2.831559041687004
 31
0.0
  0
LINE
  5
4AA
330
18
100
AcDbEntity
  8
1
 62
     1
100
AcDbLine
 10
33.95620288415756
 20
2.831559041687004
 30
0.0
 11
34.11407858138158
 21
2.742464396382903
 31
0.0
  0
LINE
  5
4AB
330
18
100
AcDbEntity
  8
1
 62
     1
100
AcDbLine
 10
34.11407858138158
 20
2.742464396382903
 30
0.0
 11
34.27195198625242
 21
2.643933182750965
 31
0.0
  0
LINE
  5
4AC
330
18
100
AcDbEntity
  8
1
 62
     1
100
AcDbLine
 10
34.27195198625242
 20
2.643933182750965
 30
0.0
 11
34.42982291960242
 21
2.536304405421701
 31
0.0
  0
LINE
  5
4AD
330
18
100
AcDbEntity
  8
1
 62
     1
100
AcDbLine
 10
34.42982291960242
 20
2.536304405421701
 30
0.0
 11
34.58769375140322
 21
2.419948160593322
 31
0.0
  0
LINE
  5
4AE
330
18
100
AcDbEntity
  8
1
 62
     1
100
AcDbLine
 10
34.58769375140322
 20
2.419948160593322
 30
0.0
 11
34.90343964951903
 21
2.16267776899203
 31
0.0
  0
LINE
  5
4AF
330
18
100
AcDbEntity
  8
1
 62
     1
100
AcDbLine
 10
34.90343964951903
 20
2.16267776899203
 30
0.0
 11
35.21918725767365
 21
1.875660019802707
 31
0.0
  0
LINE
  5
4B0
330
18
100
AcDbEntity
  8
1
 62
     1
100
AcDbLine
 10
31.79665672721712
 20
3.175
 30
0.0
 11
32.6930885593922
 21
3.175
 31
0.0
  0
LINE
  5
4B1
330
18
100
AcDbEntity
  8
1
 62
     1
100
AcDbLine
 10
31.79665672721713
 20
3.174999999999999
 30
0.0
 11
31.92874005664228
 21
3.171173257241183
 31
0.0
  0
LINE
  5
4B2
330
18
100
AcDbEntity
  8
1
 62
     1
100
AcDbLine
 10
31.92874005664228
 20
3.171173257241183
 30
0.0
 11
32.06083188671225
 21
3.159710336493102
 31
0.0
  0
LINE
  5
4B3
330
18
100
AcDbEntity
  8
1
 62
     1
100
AcDbLine
 10
32.06083188671225
 20
3.159710336493102
 30
0.0
 11
32.19290696592751
 21
3.140633421266235
 31
0.0
  0
LINE
  5
4B4
330
18
100
AcDbEntity
  8
1
 62
     1
100
AcDbLine
 10
32.19290696592751
 20
3.140633421266235
 30
0.0
 11
32.32500404485454
 21
3.113989467707378
 31
0.0
  0
LINE
  5
4B5
330
18
100
AcDbEntity
  8
1
 62
     1
100
AcDbLine
 10
32.32500404485454
 20
3.113989467707378
 30
0.0
 11
32.45707462411567
 21
3.079847558782076
 31
0.0
  0
LINE
  5
4B6
330
18
100
AcDbEntity
  8
1
 62
     1
100
AcDbLine
 10
32.45707462411567
 20
3.079847558782076
 30
0.0
 11
32.5891738595818
 21
3.038278749161057
 31
0.0
  0
LINE
  5
4B7
330
18
100
AcDbEntity
  8
1
 62
     1
100
AcDbLine
 10
32.5891738595818
 20
3.038278749161057
 30
0.0
 11
32.72124354296818
 21
2.989400505916533
 31
0.0
  0
LINE
  5
4B8
330
18
100
AcDbEntity
  8
1
 62
     1
100
AcDbLine
 10
32.72124354296818
 20
2.989400505916533
 30
0.0
 11
32.85334194447238
 21
2.933307997941981
 31
0.0
  0
LINE
  5
4B9
330
18
100
AcDbEntity
  8
1
 62
     1
100
AcDbLine
 10
32.85334194447238
 20
2.933307997941981
 30
0.0
 11
32.98541420077554
 21
2.87016253505357
 31
0.0
  0
LINE
  5
4BA
330
18
100
AcDbEntity
  8
1
 62
     1
100
AcDbLine
 10
32.98541420077554
 20
2.87016253505357
 30
0.0
 11
33.11750887349226
 21
2.80008848352625
 31
0.0
  0
LINE
  5
4BB
330
18
100
AcDbEntity
  8
1
 62
     1
100
AcDbLine
 10
33.11750887349226
 20
2.80008848352625
 30
0.0
 11
33.24958704463805
 21
2.72328103641356
 31
0.0
  0
LINE
  5
4BC
330
18
100
AcDbEntity
  8
1
 62
     1
100
AcDbLine
 10
33.24958704463805
 20
2.72328103641356
 30
0.0
 11
33.38167518466069
 21
2.639903220613209
 31
0.0
  0
LINE
  5
4BD
330
18
100
AcDbEntity
  8
1
 62
     1
100
AcDbLine
 10
33.38167518466069
 20
2.639903220613209
 30
0.0
 11
33.64584138286274
 21
2.454294655844918
 31
0.0
  0
LINE
  5
4BE
330
18
100
AcDbEntity
  8
1
 62
     1
100
AcDbLine
 10
33.64584138286274
 20
2.454294655844918
 30
0.0
 11
33.91000794197328
 21
2.245049865095512
 31
0.0
  0
LINE
  5
4BF
330
18
100
AcDbEntity
  8
1
 62
     1
100
AcDbLine
 10
33.91000794197328
 20
2.245049865095512
 30
0.0
 11
34.1741753064101
 21
2.014183401764113
 31
0.0
  0
LINE
  5
4C0
330
18
100
AcDbEntity
  8
1
 62
     1
100
AcDbLine
 10
34.1741753064101
 20
2.014183401764113
 30
0.0
 11
34.43834389219905
 21
1.763917958958525
 31
0.0
  0
LINE
  5
4C1
330
18
100
AcDbEntity
  8
1
 62
     1
100
AcDbLine
 10
34.43834389219905
 20
1.763917958958525
 30
0.0
 11
34.9666862533795
 21
1.21499176612984
 31
0.0
  0
LINE
  5
4C2
330
18
100
AcDbEntity
  8
1
 62
     1
100
AcDbLine
 10
34.9666862533795
 20
1.21499176612984
 30
0.0
 11
36.02332836513457
 21
-0.000000000001358
 31
0.0
  0
LINE
  5
4C3
330
18
100
AcDbEntity
  8
1
 62
     1
100
AcDbLine
 10
40.2
 20
0.2455279378049021
 30
0.0
 11
40.19943054513183
 21
0.2111817630061332
 31
0.0
  0
LINE
  5
4C4
330
18
100
AcDbEntity
  8
1
 62
     1
100
AcDbLine
 10
40.19943054513183
 20
0.2111817630061332
 30
0.0
 11
40.19762765391292
 21
0.1773740912842586
 31
0.0
  0
LINE
  5
4C5
330
18
100
AcDbEntity
  8
1
 62
     1
100
AcDbLine
 10
40.19762765391292
 20
0.1773740912842586
 30
0.0
 11
40.19444911144163
 21
0.1442665458295039
 31
0.0
  0
LINE
  5
4C6
330
18
100
AcDbEntity
  8
1
 62
     1
100
AcDbLine
 10
40.19444911144163
 20
0.1442665458295039
 30
0.0
 11
40.18973262843394
 21
0.112023403804788
 31
0.0
  0
LINE
  5
4C7
330
18
100
AcDbEntity
  8
1
 62
     1
100
AcDbLine
 10
40.18973262843394
 20
0.112023403804788
 30
0.0
 11
40.18329299817906
 21
0.0808835085656888
 31
0.0
  0
LINE
  5
4C8
330
18
100
AcDbEntity
  8
1
 62
     1
100
AcDbLine
 10
40.18329299817906
 20
0.0808835085656888
 30
0.0
 11
40.17936230990688
 21
0.0658035897207744
 31
0.0
  0
LINE
  5
4C9
330
18
100
AcDbEntity
  8
1
 62
     1
100
AcDbLine
 10
40.17936230990688
 20
0.0658035897207744
 30
0.0
 11
40.174921804702
 21
0.0511092901017181
 31
0.0
  0
LINE
  5
4CA
330
18
100
AcDbEntity
  8
1
 62
     1
100
AcDbLine
 10
40.174921804702
 20
0.0511092901017181
 30
0.0
 11
40.16994499894982
 21
0.0368489216545666
 31
0.0
  0
LINE
  5
4CB
330
18
100
AcDbEntity
  8
1
 62
     1
100
AcDbLine
 10
40.16994499894982
 20
0.0368489216545666
 30
0.0
 11
40.1644003979725
 21
0.0230638795867563
 31
0.0
  0
LINE
  5
4CC
330
18
100
AcDbEntity
  8
1
 62
     1
100
AcDbLine
 10
40.1644003979725
 20
0.0230638795867563
 30
0.0
 11
40.15825883940157
 21
0.0098108809856708
 31
0.0
  0
LINE
  5
4CD
330
18
100
AcDbEntity
  8
1
 62
     1
100
AcDbLine
 10
40.15825883940157
 20
0.0098108809856708
 30
0.0
 11
40.15149221551471
 21
-0.0028484898661236
 31
0.0
  0
LINE
  5
4CE
330
18
100
AcDbEntity
  8
1
 62
     1
100
AcDbLine
 10
40.15149221551471
 20
-0.0028484898661236
 30
0.0
 11
40.14407063668475
 21
-0.0148535331701053
 31
0.0
  0
LINE
  5
4CF
330
18
100
AcDbEntity
  8
1
 62
     1
100
AcDbLine
 10
40.14407063668475
 20
-0.0148535331701053
 30
0.0
 11
40.14010475424043
 21
-0.0205903168720835
 31
0.0
  0
LINE
  5
4D0
330
18
100
AcDbEntity
  8
1
 62
     1
100
AcDbLine
 10
40.14010475424043
 20
-0.0205903168720835
 30
0.0
 11
40.1359638810886
 21
-0.0261392204314462
 31
0.0
  0
LINE
  5
4D1
330
18
100
AcDbEntity
  8
1
 62
     1
100
AcDbLine
 10
40.1359638810886
 20
-0.0261392204314462
 30
0.0
 11
40.13164644574492
 21
-0.0314896411902343
 31
0.0
  0
LINE
  5
4D2
330
18
100
AcDbEntity
  8
1
 62
     1
100
AcDbLine
 10
40.13164644574492
 20
-0.0314896411902343
 30
0.0
 11
40.12715087672507
 21
-0.0366309764904886
 31
0.0
  0
LINE
  5
4D3
330
18
100
AcDbEntity
  8
1
 62
     1
100
AcDbLine
 10
40.12715087672507
 20
-0.0366309764904886
 30
0.0
 11
40.12247536101445
 21
-0.0415528392486492
 31
0.0
  0
LINE
  5
4D4
330
18
100
AcDbEntity
  8
1
 62
     1
100
AcDbLine
 10
40.12247536101445
 20
-0.0415528392486492
 30
0.0
 11
40.11761411549777
 21
-0.0462489546272244
 31
0.0
  0
LINE
  5
4D5
330
18
100
AcDbEntity
  8
1
 62
     1
100
AcDbLine
 10
40.11761411549777
 20
-0.0462489546272244
 30
0.0
 11
40.11256596349173
 21
-0.0507103165184711
 31
0.0
  0
LINE
  5
4D6
330
18
100
AcDbEntity
  8
1
 62
     1
100
AcDbLine
 10
40.11256596349173
 20
-0.0507103165184711
 30
0.0
 11
40.10733188093131
 21
-0.0549261922413824
 31
0.0
  0
LINE
  5
4D7
330
18
100
AcDbEntity
  8
1
 62
     1
100
AcDbLine
 10
40.10733188093131
 20
-0.0549261922413824
 30
0.0
 11
40.10191284375141
 21
-0.0588858491149517
 31
0.0
  0
LINE
  5
4D8
330
18
100
AcDbEntity
  8
1
 62
     1
100
AcDbLine
 10
40.10191284375141
 20
-0.0588858491149517
 30
0.0
 11
40.0963091344987
 21
-0.0625789619848154
 31
0.0
  0
LINE
  5
4D9
330
18
100
AcDbEntity
  8
1
 62
     1
100
AcDbLine
 10
40.0963091344987
 20
-0.0625789619848154
 30
0.0
 11
40.09051544159882
 21
-0.0659998086727638
 31
0.0
  0
LINE
  5
4DA
330
18
100
AcDbEntity
  8
1
 62
     1
100
AcDbLine
 10
40.09051544159882
 20
-0.0659998086727638
 30
0.0
 11
40.0845341455459
 21
-0.0691407578066464
 31
0.0
  0
LINE
  5
4DB
330
18
100
AcDbEntity
  8
1
 62
     1
100
AcDbLine
 10
40.0845341455459
 20
-0.0691407578066464
 30
0.0
 11
40.07836988202186
 21
-0.0719931308749476
 31
0.0
  0
LINE
  5
4DC
330
18
100
AcDbEntity
  8
1
 62
     1
100
AcDbLine
 10
40.07836988202186
 20
-0.0719931308749476
 30
0.0
 11
40.0720272867086
 21
-0.0745482493661516
 31
0.0
  0
LINE
  5
4DD
330
18
100
AcDbEntity
  8
1
 62
     1
100
AcDbLine
 10
40.0720272867086
 20
-0.0745482493661516
 30
0.0
 11
40.06550948895744
 21
-0.0767979744958617
 31
0.0
  0
LINE
  5
4DE
330
18
100
AcDbEntity
  8
1
 62
     1
100
AcDbLine
 10
40.06550948895744
 20
-0.0767979744958617
 30
0.0
 11
40.05881262098411
 21
-0.0787388049956148
 31
0.0
  0
LINE
  5
4DF
330
18
100
AcDbEntity
  8
1
 62
     1
100
AcDbLine
 10
40.05881262098411
 20
-0.0787388049956148
 30
0.0
 11
40.05194316708562
 21
-0.0803669876463898
 31
0.0
  0
LINE
  5
4E0
330
18
100
AcDbEntity
  8
1
 62
     1
100
AcDbLine
 10
40.05194316708562
 20
-0.0803669876463898
 30
0.0
 11
40.04490958608046
 21
-0.081678327894575
 31
0.0
  0
LINE
  5
4E1
330
18
100
AcDbEntity
  8
1
 62
     1
100
AcDbLine
 10
40.04490958608046
 20
-0.081678327894575
 30
0.0
 11
40.03772033678716
 21
-0.0826686311865584
 31
0.0
  0
LINE
  5
4E2
330
18
100
AcDbEntity
  8
1
 62
     1
100
AcDbLine
 10
40.03772033678716
 20
-0.0826686311865584
 30
0.0
 11
40.03038120053769
 21
-0.0833341531593819
 31
0.0
  0
LINE
  5
4E3
330
18
100
AcDbEntity
  8
1
 62
     1
100
AcDbLine
 10
40.03038120053769
 20
-0.0833341531593819
 30
0.0
 11
40.02289011534737
 21
-0.083675034233901
 31
0.0
  0
LINE
  5
4E4
330
18
100
AcDbEntity
  8
1
 62
     1
100
AcDbLine
 10
40.02289011534737
 20
-0.083675034233901
 30
0.0
 11
40.01525665533625
 21
-0.0836928379790081
 31
0.0
  0
LINE
  5
4E5
330
18
100
AcDbEntity
  8
1
 62
     1
100
AcDbLine
 10
40.01525665533625
 20
-0.0836928379790081
 30
0.0
 11
40.00749180267399
 21
-0.0833890660207527
 31
0.0
  0
LINE
  5
4E6
330
18
100
AcDbEntity
  8
1
 62
     1
100
AcDbLine
 10
40.00749180267399
 20
-0.0833890660207527
 30
0.0
 11
39.99960653953022
 21
-0.0827652199851847
 31
0.0
  0
LINE
  5
4E7
330
18
100
AcDbEntity
  8
1
 62
     1
100
AcDbLine
 10
39.99960653953022
 20
-0.0827652199851847
 30
0.0
 11
39.99160778922663
 21
-0.0818227613999029
 31
0.0
  0
LINE
  5
4E8
330
18
100
AcDbEntity
  8
1
 62
     1
100
AcDbLine
 10
39.99160778922663
 20
-0.0818227613999029
 30
0.0
 11
39.98349479067547
 21
-0.0805653999845845
 31
0.0
  0
LINE
  5
4E9
330
18
100
AcDbEntity
  8
1
 62
     1
100
AcDbLine
 10
39.98349479067547
 20
-0.0805653999845845
 30
0.0
 11
39.96696912711276
 21
-0.0771311329725984
 31
0.0
  0
LINE
  5
4EA
330
18
100
AcDbEntity
  8
1
 62
     1
100
AcDbLine
 10
39.96696912711276
 20
-0.0771311329725984
 30
0.0
 11
39.95011424081169
 21
-0.0725121751014145
 31
0.0
  0
LINE
  5
4EB
330
18
100
AcDbEntity
  8
1
 62
     1
100
AcDbLine
 10
39.95011424081169
 20
-0.0725121751014145
 30
0.0
 11
39.93296873724311
 21
-0.0667575381709665
 31
0.0
  0
LINE
  5
4EC
330
18
100
AcDbEntity
  8
1
 62
     1
100
AcDbLine
 10
39.93296873724311
 20
-0.0667575381709665
 30
0.0
 11
39.91560130470723
 21
-0.0599362282324529
 31
0.0
  0
LINE
  5
4ED
330
18
100
AcDbEntity
  8
1
 62
     1
100
AcDbLine
 10
39.91560130470723
 20
-0.0599362282324529
 30
0.0
 11
39.89806301892138
 21
-0.0521115858502337
 31
0.0
  0
LINE
  5
4EE
330
18
100
AcDbEntity
  8
1
 62
     1
100
AcDbLine
 10
39.89806301892138
 20
-0.0521115858502337
 30
0.0
 11
39.88038944530187
 21
-0.0433487146314479
 31
0.0
  0
LINE
  5
4EF
330
18
100
AcDbEntity
  8
1
 62
     1
100
AcDbLine
 10
39.88038944530187
 20
-0.0433487146314479
 30
0.0
 11
39.8448222345396
 21
-0.0232872933236755
 31
0.0
  0
LINE
  5
4F0
330
18
100
AcDbEntity
  8
1
 62
     1
100
AcDbLine
 10
39.8448222345396
 20
-0.0232872933236755
 30
0.0
 11
39.80915500612846
 21
-0.000261686525462
 31
0.0
  0
LINE
  5
4F1
330
18
100
AcDbEntity
  8
1
 62
     1
100
AcDbLine
 10
39.80915500612846
 20
-0.000261686525462
 30
0.0
 11
39.77357170195828
 21
0.0252696943960843
 31
0.0
  0
LINE
  5
4F2
330
18
100
AcDbEntity
  8
1
 62
     1
100
AcDbLine
 10
39.77357170195828
 20
0.0252696943960843
 30
0.0
 11
39.73818497723092
 21
0.0529204567651613
 31
0.0
  0
LINE
  5
4F3
330
18
100
AcDbEntity
  8
1
 62
     1
100
AcDbLine
 10
39.73818497723092
 20
0.0529204567651613
 30
0.0
 11
39.66839544705138
 21
0.1132076528718414
 31
0.0
  0
LINE
  5
4F4
330
18
100
AcDbEntity
  8
1
 62
     1
100
AcDbLine
 10
39.66839544705138
 20
0.1132076528718414
 30
0.0
 11
39.60018376712112
 21
0.1784399280652473
 31
0.0
  0
LINE
  5
4F5
330
18
100
AcDbEntity
  8
1
 62
     1
100
AcDbLine
 10
39.60018376712112
 20
0.1784399280652473
 30
0.0
 11
39.53369765432043
 21
0.2470661143709362
 31
0.0
  0
LINE
  5
4F6
330
18
100
AcDbEntity
  8
1
 62
     1
100
AcDbLine
 10
39.53369765432043
 20
0.2470661143709362
 30
0.0
 11
39.40600000000001
 21
0.3902149242115824
 31
0.0
  0
LINE
  5
4F7
330
18
100
AcDbEntity
  8
1
 62
     1
100
AcDbLine
 10
40.2
 20
-1.15198008676091
 30
0.0
 11
40.1996138908595
 21
-1.16363055496793
 31
0.0
  0
LINE
  5
4F8
330
18
100
AcDbEntity
  8
1
 62
     1
100
AcDbLine
 10
40.1996138908595
 20
-1.16363055496793
 30
0.0
 11
40.1991325697716
 21
-1.169224033911214
 31
0.0
  0
LINE
  5
4F9
330
18
100
AcDbEntity
  8
1
 62
     1
100
AcDbLine
 10
40.1991325697716
 20
-1.169224033911214
 30
0.0
 11
40.19846024019435
 21
-1.174655499145589
 31
0.0
  0
LINE
  5
4FA
330
18
100
AcDbEntity
  8
1
 62
     1
100
AcDbLine
 10
40.19846024019435
 20
-1.174655499145589
 30
0.0
 11
40.19759777901954
 21
-1.179919317969486
 31
0.0
  0
LINE
  5
4FB
330
18
100
AcDbEntity
  8
1
 62
     1
100
AcDbLine
 10
40.19759777901954
 20
-1.179919317969486
 30
0.0
 11
40.196546063139
 21
-1.185009857681335
 31
0.0
  0
LINE
  5
4FC
330
18
100
AcDbEntity
  8
1
 62
     1
100
AcDbLine
 10
40.196546063139
 20
-1.185009857681335
 30
0.0
 11
40.19530596944453
 21
-1.189921485579569
 31
0.0
  0
LINE
  5
4FD
330
18
100
AcDbEntity
  8
1
 62
     1
100
AcDbLine
 10
40.19530596944453
 20
-1.189921485579569
 30
0.0
 11
40.1938778099291
 21
-1.194651209281938
 31
0.0
  0
LINE
  5
4FE
330
18
100
AcDbEntity
  8
1
 62
     1
100
AcDbLine
 10
40.1938778099291
 20
-1.194651209281938
 30
0.0
 11
40.19226231597914
 21
-1.199199536590908
 31
0.0
  0
LINE
  5
4FF
330
18
100
AcDbEntity
  8
1
 62
     1
100
AcDbLine
 10
40.19226231597914
 20
-1.199199536590908
 30
0.0
 11
40.19046207369437
 21
-1.203562731262841
 31
0.0
  0
LINE
  5
500
330
18
100
AcDbEntity
  8
1
 62
     1
100
AcDbLine
 10
40.19046207369437
 20
-1.203562731262841
 30
0.0
 11
40.18847970808712
 21
-1.207736931681035
 31
0.0
  0
LINE
  5
501
330
18
100
AcDbEntity
  8
1
 62
     1
100
AcDbLine
 10
40.18847970808712
 20
-1.207736931681035
 30
0.0
 11
40.18631784416969
 21
-1.211718276228787
 31
0.0
  0
LINE
  5
502
330
18
100
AcDbEntity
  8
1
 62
     1
100
AcDbLine
 10
40.18631784416969
 20
-1.211718276228787
 30
0.0
 11
40.1839791069544
 21
-1.215502903289394
 31
0.0
  0
LINE
  5
503
330
18
100
AcDbEntity
  8
1
 62
     1
100
AcDbLine
 10
40.1839791069544
 20
-1.215502903289394
 30
0.0
 11
40.18146612145357
 21
-1.219086951246155
 31
0.0
  0
LINE
  5
504
330
18
100
AcDbEntity
  8
1
 62
     1
100
AcDbLine
 10
40.18146612145357
 20
-1.219086951246155
 30
0.0
 11
40.17878073969774
 21
-1.22246780133466
 31
0.0
  0
LINE
  5
505
330
18
100
AcDbEntity
  8
1
 62
     1
100
AcDbLine
 10
40.17878073969774
 20
-1.22246780133466
 30
0.0
 11
40.17592344864147
 21
-1.22564701279361
 31
0.0
  0
LINE
  5
506
330
18
100
AcDbEntity
  8
1
 62
     1
100
AcDbLine
 10
40.17592344864147
 20
-1.22564701279361
 30
0.0
 11
40.17289793075873
 21
-1.228623340932379
 31
0.0
  0
LINE
  5
507
330
18
100
AcDbEntity
  8
1
 62
     1
100
AcDbLine
 10
40.17289793075873
 20
-1.228623340932379
 30
0.0
 11
40.16970813634064
 21
-1.231395204472279
 31
0.0
  0
LINE
  5
508
330
18
100
AcDbEntity
  8
1
 62
     1
100
AcDbLine
 10
40.16970813634064
 20
-1.231395204472279
 30
0.0
 11
40.16635801567836
 21
-1.233961022134624
 31
0.0
  0
LINE
  5
509
330
18
100
AcDbEntity
  8
1
 62
     1
100
AcDbLine
 10
40.16635801567836
 20
-1.233961022134624
 30
0.0
 11
40.16285151906304
 21
-1.236319212640727
 31
0.0
  0
LINE
  5
50A
330
18
100
AcDbEntity
  8
1
 62
     1
100
AcDbLine
 10
40.16285151906304
 20
-1.236319212640727
 30
0.0
 11
40.15919259678582
 21
-1.238468194711901
 31
0.0
  0
LINE
  5
50B
330
18
100
AcDbEntity
  8
1
 62
     1
100
AcDbLine
 10
40.15919259678582
 20
-1.238468194711901
 30
0.0
 11
40.15538458325504
 21
-1.240406800620135
 31
0.0
  0
LINE
  5
50C
330
18
100
AcDbEntity
  8
1
 62
     1
100
AcDbLine
 10
40.15538458325504
 20
-1.240406800620135
 30
0.0
 11
40.1514276492404
 21
-1.242136905034844
 31
0.0
  0
LINE
  5
50D
330
18
100
AcDbEntity
  8
1
 62
     1
100
AcDbLine
 10
40.1514276492404
 20
-1.242136905034844
 30
0.0
 11
40.14732559291151
 21
-1.243659428438801
 31
0.0
  0
LINE
  5
50E
330
18
100
AcDbEntity
  8
1
 62
     1
100
AcDbLine
 10
40.14732559291151
 20
-1.243659428438801
 30
0.0
 11
40.14308295800662
 21
-1.244974903620698
 31
0.0
  0
LINE
  5
50F
330
18
100
AcDbEntity
  8
1
 62
     1
100
AcDbLine
 10
40.14308295800662
 20
-1.244974903620698
 30
0.0
 11
40.13870428826398
 21
-1.246083863369222
 31
0.0
  0
LINE
  5
510
330
18
100
AcDbEntity
  8
1
 62
     1
100
AcDbLine
 10
40.13870428826398
 20
-1.246083863369222
 30
0.0
 11
40.13419412742181
 21
-1.246986840473062
 31
0.0
  0
LINE
  5
511
330
18
100
AcDbEntity
  8
1
 62
     1
100
AcDbLine
 10
40.13419412742181
 20
-1.246986840473062
 30
0.0
 11
40.12955701921832
 21
-1.247684367720906
 31
0.0
  0
LINE
  5
512
330
18
100
AcDbEntity
  8
1
 62
     1
100
AcDbLine
 10
40.12955701921832
 20
-1.247684367720906
 30
0.0
 11
40.12479717260775
 21
-1.248177042944846
 31
0.0
  0
LINE
  5
513
330
18
100
AcDbEntity
  8
1
 62
     1
100
AcDbLine
 10
40.12479717260775
 20
-1.248177042944846
 30
0.0
 11
40.11991465686941
 21
-1.248466703287113
 31
0.0
  0
LINE
  5
514
330
18
100
AcDbEntity
  8
1
 62
     1
100
AcDbLine
 10
40.11991465686941
 20
-1.248466703287113
 30
0.0
 11
40.11491254666803
 21
-1.248555533194786
 31
0.0
  0
LINE
  5
515
330
18
100
AcDbEntity
  8
1
 62
     1
100
AcDbLine
 10
40.11491254666803
 20
-1.248555533194786
 30
0.0
 11
40.10979529755473
 21
-1.248445559526274
 31
0.0
  0
LINE
  5
516
330
18
100
AcDbEntity
  8
1
 62
     1
100
AcDbLine
 10
40.10979529755473
 20
-1.248445559526274
 30
0.0
 11
40.10456736508061
 21
-1.248138809139988
 31
0.0
  0
LINE
  5
517
330
18
100
AcDbEntity
  8
1
 62
     1
100
AcDbLine
 10
40.10456736508061
 20
-1.248138809139988
 30
0.0
 11
40.09379727225442
 21
-1.246943085647736
 31
0.0
  0
LINE
  5
518
330
18
100
AcDbEntity
  8
1
 62
     1
100
AcDbLine
 10
40.09379727225442
 20
-1.246943085647736
 30
0.0
 11
40.08263336089787
 21
-1.244984293904813
 31
0.0
  0
LINE
  5
519
330
18
100
AcDbEntity
  8
1
 62
     1
100
AcDbLine
 10
40.08263336089787
 20
-1.244984293904813
 30
0.0
 11
40.07109042480268
 21
-1.242280159610349
 31
0.0
  0
LINE
  5
51A
330
18
100
AcDbEntity
  8
1
 62
     1
100
AcDbLine
 10
40.07109042480268
 20
-1.242280159610349
 30
0.0
 11
40.05919804693876
 21
-1.238852975691747
 31
0.0
  0
LINE
  5
51B
330
18
100
AcDbEntity
  8
1
 62
     1
100
AcDbLine
 10
40.05919804693876
 20
-1.238852975691747
 30
0.0
 11
40.04698782127291
 21
-1.234725340802251
 31
0.0
  0
LINE
  5
51C
330
18
100
AcDbEntity
  8
1
 62
     1
100
AcDbLine
 10
40.04698782127291
 20
-1.234725340802251
 30
0.0
 11
40.03447797768364
 21
-1.22991626303759
 31
0.0
  0
LINE
  5
51D
330
18
100
AcDbEntity
  8
1
 62
     1
100
AcDbLine
 10
40.03447797768364
 20
-1.22991626303759
 30
0.0
 11
40.02168449953552
 21
-1.224446558803463
 31
0.0
  0
LINE
  5
51E
330
18
100
AcDbEntity
  8
1
 62
     1
100
AcDbLine
 10
40.02168449953552
 20
-1.224446558803463
 30
0.0
 11
39.99534968161252
 21
-1.211623036359515
 31
0.0
  0
LINE
  5
51F
330
18
100
AcDbEntity
  8
1
 62
     1
100
AcDbLine
 10
39.99534968161252
 20
-1.211623036359515
 30
0.0
 11
39.96812388374243
 21
-1.196423757680455
 31
0.0
  0
LINE
  5
520
330
18
100
AcDbEntity
  8
1
 62
     1
100
AcDbLine
 10
39.96812388374243
 20
-1.196423757680455
 30
0.0
 11
39.94014679764375
 21
-1.179026204306131
 31
0.0
  0
LINE
  5
521
330
18
100
AcDbEntity
  8
1
 62
     1
100
AcDbLine
 10
39.94014679764375
 20
-1.179026204306131
 30
0.0
 11
39.91151584211649
 21
-1.159584107218692
 31
0.0
  0
LINE
  5
522
330
18
100
AcDbEntity
  8
1
 62
     1
100
AcDbLine
 10
39.91151584211649
 20
-1.159584107218692
 30
0.0
 11
39.85268704622924
 21
-1.115190076369141
 31
0.0
  0
LINE
  5
523
330
18
100
AcDbEntity
  8
1
 62
     1
100
AcDbLine
 10
39.85268704622924
 20
-1.115190076369141
 30
0.0
 11
39.79222158814246
 21
-1.064336967914585
 31
0.0
  0
LINE
  5
524
330
18
100
AcDbEntity
  8
1
 62
     1
100
AcDbLine
 10
39.79222158814246
 20
-1.064336967914585
 30
0.0
 11
39.73059335512673
 21
-1.008020060710696
 31
0.0
  0
LINE
  5
525
330
18
100
AcDbEntity
  8
1
 62
     1
100
AcDbLine
 10
39.73059335512673
 20
-1.008020060710696
 30
0.0
 11
39.60504747280217
 21
-0.8822489494453197
 31
0.0
  0
LINE
  5
526
330
18
100
AcDbEntity
  8
1
 62
     1
100
AcDbLine
 10
39.60504747280217
 20
-0.8822489494453197
 30
0.0
 11
39.40599999999999
 21
-0.6616595803240459
 31
0.0
  0
ARC
  5
527
330
18
100
AcDbEntity
  8
1
 62
     1
100
AcDbCircle
 10
-17.52463521567282
 20
-33.0990684353865
 30
0.0
 40
51.5026603555163
100
AcDbArc
 50
39.99061496286682
 51
41.32933510734844
  0
LINE
  5
528
330
18
100
AcDbEntity
  8
1
 62
     1
100
AcDbLine
 10
34.61443781961528
 20
3.175
 30
0.0
 11
35.51086974264971
 21
3.175
 31
0.0
  0
LINE
  5
529
330
18
100
AcDbEntity
  8
1
 62
     1
100
AcDbLine
 10
21.15000000000001
 20
1.856837011518074
 30
0.0
 11
21.51927098353313
 21
1.487048817319968
 31
0.0
  0
LINE
  5
52A
330
18
100
AcDbEntity
  8
1
 62
     1
100
AcDbLine
 10
21.51927098353313
 20
1.487048817319968
 30
0.0
 11
22.2577826307478
 21
0.671098368935689
 31
0.0
  0
LINE
  5
52B
330
18
100
AcDbEntity
  8
1
 62
     1
100
AcDbLine
 10
22.2577826307478
 20
0.671098368935689
 30
0.0
 11
23.73467277944066
 21
-1.046522535889016
 31
0.0
  0
LINE
  5
52C
330
18
100
AcDbEntity
  8
1
 62
     1
100
AcDbLine
 10
23.73467277944066
 20
-1.046522535889016
 30
0.0
 11
24.10387869422568
 21
-1.446697277155633
 31
0.0
  0
LINE
  5
52D
330
18
100
AcDbEntity
  8
1
 62
     1
100
AcDbLine
 10
24.10387869422568
 20
-1.446697277155633
 30
0.0
 11
24.47308429033407
 21
-1.819677808773535
 31
0.0
  0
LINE
  5
52E
330
18
100
AcDbEntity
  8
1
 62
     1
100
AcDbLine
 10
24.47308429033407
 20
-1.819677808773535
 30
0.0
 11
24.84228976921342
 21
-2.158453132522927
 31
0.0
  0
LINE
  5
52F
330
18
100
AcDbEntity
  8
1
 62
     1
100
AcDbLine
 10
24.84228976921342
 20
-2.158453132522927
 30
0.0
 11
25.02689273480536
 21
-2.312995204542328
 31
0.0
  0
LINE
  5
530
330
18
100
AcDbEntity
  8
1
 62
     1
100
AcDbLine
 10
25.02689273480536
 20
-2.312995204542328
 30
0.0
 11
25.21149548780361
 21
-2.456655072358508
 31
0.0
  0
LINE
  5
531
330
18
100
AcDbEntity
  8
1
 62
     1
100
AcDbLine
 10
25.21149548780361
 20
-2.456655072358508
 30
0.0
 11
25.39609821836988
 21
-2.588756702281192
 31
0.0
  0
LINE
  5
532
330
18
100
AcDbEntity
  8
1
 62
     1
100
AcDbLine
 10
25.39609821836988
 20
-2.588756702281192
 30
0.0
 11
25.58070133734944
 21
-2.708678382242736
 31
0.0
  0
LINE
  5
533
330
18
100
AcDbEntity
  8
1
 62
     1
100
AcDbLine
 10
25.58070133734944
 20
-2.708678382242736
 30
0.0
 11
25.7653041432842
 21
-2.815856235371147
 31
0.0
  0
LINE
  5
534
330
18
100
AcDbEntity
  8
1
 62
     1
100
AcDbLine
 10
25.7653041432842
 20
-2.815856235371147
 30
0.0
 11
25.94990700778273
 21
-2.909785804323722
 31
0.0
  0
LINE
  5
535
330
18
100
AcDbEntity
  8
1
 62
     1
100
AcDbLine
 10
25.94990700778273
 20
-2.909785804323722
 30
0.0
 11
26.13451033541869
 21
-2.990025033556616
 31
0.0
  0
LINE
  5
536
330
18
100
AcDbEntity
  8
1
 62
     1
100
AcDbLine
 10
26.13451033541869
 20
-2.990025033556616
 30
0.0
 11
26.31911327834986
 21
-3.056196665658209
 31
0.0
  0
LINE
  5
537
330
18
100
AcDbEntity
  8
1
 62
     1
100
AcDbLine
 10
26.31911327834986
 20
-3.056196665658209
 30
0.0
 11
26.41141867970721
 21
-3.083907948248668
 31
0.0
  0
LINE
  5
538
330
18
100
AcDbEntity
  8
1
 62
     1
100
AcDbLine
 10
26.41141867970721
 20
-3.083907948248668
 30
0.0
 11
26.5037163459777
 21
-3.10798918410602
 31
0.0
  0
LINE
  5
539
330
18
100
AcDbEntity
  8
1
 62
     1
100
AcDbLine
 10
26.5037163459777
 20
-3.10798918410602
 30
0.0
 11
26.59602146603704
 21
-3.128414779373248
 31
0.0
  0
LINE
  5
53A
330
18
100
AcDbEntity
  8
1
 62
     1
100
AcDbLine
 10
26.59602146603704
 20
-3.128414779373248
 30
0.0
 11
26.6883199184708
 21
-3.14515885502296
 31
0.0
  0
LINE
  5
53B
330
18
100
AcDbEntity
  8
1
 62
     1
100
AcDbLine
 10
26.6883199184708
 20
-3.14515885502296
 30
0.0
 11
26.78062402930292
 21
-3.1582027943176
 31
0.0
  0
LINE
  5
53C
330
18
100
AcDbEntity
  8
1
 62
     1
100
AcDbLine
 10
26.78062402930292
 20
-3.1582027943176
 30
0.0
 11
26.87292305035431
 21
-3.167530912566695
 31
0.0
  0
LINE
  5
53D
330
18
100
AcDbEntity
  8
1
 62
     1
100
AcDbLine
 10
26.87292305035431
 20
-3.167530912566695
 30
0.0
 11
26.96522682532888
 21
-3.173131835703708
 31
0.0
  0
LINE
  5
53E
330
18
100
AcDbEntity
  8
1
 62
     1
100
AcDbLine
 10
26.96522682532888
 20
-3.173131835703708
 30
0.0
 11
27.05752622722198
 21
-3.174999999875929
 31
0.0
  0
LINE
  5
53F
330
18
100
AcDbEntity
  8
1
 62
     1
100
AcDbLine
 10
35.51086974264972
 20
3.175
 30
0.0
 11
35.66875788897117
 21
3.169533443118319
 31
0.0
  0
LINE
  5
540
330
18
100
AcDbEntity
  8
1
 62
     1
100
AcDbLine
 10
35.66875788897117
 20
3.169533443118319
 30
0.0
 11
35.8266365568787
 21
3.153162804302865
 31
0.0
  0
LINE
  5
541
330
18
100
AcDbEntity
  8
1
 62
     1
100
AcDbLine
 10
35.8266365568787
 20
3.153162804302865
 30
0.0
 11
35.98453367408057
 21
3.125932664349328
 31
0.0
  0
LINE
  5
542
330
18
100
AcDbEntity
  8
1
 62
     1
100
AcDbLine
 10
35.98453367408057
 20
3.125932664349328
 30
0.0
 11
36.1424067537763
 21
3.08795092328024
 31
0.0
  0
LINE
  5
543
330
18
100
AcDbEntity
  8
1
 62
     1
100
AcDbLine
 10
36.1424067537763
 20
3.08795092328024
 30
0.0
 11
36.30030801147559
 21
3.039331317543082
 31
0.0
  0
LINE
  5
544
330
18
100
AcDbEntity
  8
1
 62
     1
100
AcDbLine
 10
36.30030801147559
 20
3.039331317543082
 30
0.0
 11
36.45817956589418
 21
2.980260658526655
 31
0.0
  0
LINE
  5
545
330
18
100
AcDbEntity
  8
1
 62
     1
100
AcDbLine
 10
36.45817956589418
 20
2.980260658526655
 30
0.0
 11
36.61607999160255
 21
2.910921527341815
 31
0.0
  0
LINE
  5
546
330
18
100
AcDbEntity
  8
1
 62
     1
100
AcDbLine
 10
36.61607999160255
 20
2.910921527341815
 30
0.0
 11
36.77395417000067
 21
2.83157303158734
 31
0.0
  0
LINE
  5
547
330
18
100
AcDbEntity
  8
1
 62
     1
100
AcDbLine
 10
36.77395417000067
 20
2.83157303158734
 30
0.0
 11
36.93184865827378
 21
2.742470917349306
 31
0.0
  0
LINE
  5
548
330
18
100
AcDbEntity
  8
1
 62
     1
100
AcDbLine
 10
36.93184865827378
 20
2.742470917349306
 30
0.0
 11
37.08972969118071
 21
2.64393342135994
 31
0.0
  0
LINE
  5
549
330
18
100
AcDbEntity
  8
1
 62
     1
100
AcDbLine
 10
37.08972969118071
 20
2.64393342135994
 30
0.0
 11
37.24761360396876
 21
2.536297872300596
 31
0.0
  0
LINE
  5
54A
330
18
100
AcDbEntity
  8
1
 62
     1
100
AcDbLine
 10
37.24761360396876
 20
2.536297872300596
 30
0.0
 11
37.40550520560966
 21
2.419923423310254
 31
0.0
  0
LINE
  5
54B
330
18
100
AcDbEntity
  8
1
 62
     1
100
AcDbLine
 10
37.40550520560966
 20
2.419923423310254
 30
0.0
 11
37.72124292450776
 21
2.162658660011244
 31
0.0
  0
LINE
  5
54C
330
18
100
AcDbEntity
  8
1
 62
     1
100
AcDbLine
 10
37.72124292450776
 20
2.162658660011244
 30
0.0
 11
38.03696833331326
 21
1.875660083071681
 31
0.0
  0
LINE
  5
54D
330
18
100
AcDbEntity
  8
1
 62
     1
100
AcDbLine
 10
34.61443781961529
 20
3.175
 30
0.0
 11
34.74652114949781
 21
3.171173256977816
 31
0.0
  0
LINE
  5
54E
330
18
100
AcDbEntity
  8
1
 62
     1
100
AcDbLine
 10
34.74652114949781
 20
3.171173256977816
 30
0.0
 11
34.87861297773497
 21
3.159710336370019
 31
0.0
  0
LINE
  5
54F
330
18
100
AcDbEntity
  8
1
 62
     1
100
AcDbLine
 10
34.87861297773497
 20
3.159710336370019
 30
0.0
 11
35.01068806029969
 21
3.140633421283469
 31
0.0
  0
LINE
  5
550
330
18
100
AcDbEntity
  8
1
 62
     1
100
AcDbLine
 10
35.01068806029969
 20
3.140633421283469
 30
0.0
 11
35.14278513531505
 21
3.113989467365171
 31
0.0
  0
LINE
  5
551
330
18
100
AcDbEntity
  8
1
 62
     1
100
AcDbLine
 10
35.14278513531505
 20
3.113989467365171
 30
0.0
 11
35.27485571976899
 21
3.079847559351989
 31
0.0
  0
LINE
  5
552
330
18
100
AcDbEntity
  8
1
 62
     1
100
AcDbLine
 10
35.27485571976899
 20
3.079847559351989
 30
0.0
 11
35.40695495026531
 21
3.038278748725432
 31
0.0
  0
LINE
  5
553
330
18
100
AcDbEntity
  8
1
 62
     1
100
AcDbLine
 10
35.40695495026531
 20
3.038278748725432
 30
0.0
 11
35.53902463939271
 21
2.989400507148437
 31
0.0
  0
LINE
  5
554
330
18
100
AcDbEntity
  8
1
 62
     1
100
AcDbLine
 10
35.53902463939271
 20
2.989400507148437
 30
0.0
 11
35.67112303601981
 21
2.933307997704797
 31
0.0
  0
LINE
  5
555
330
18
100
AcDbEntity
  8
1
 62
     1
100
AcDbLine
 10
35.67112303601981
 20
2.933307997704797
 30
0.0
 11
35.80319529722415
 21
2.870162536814175
 31
0.0
  0
LINE
  5
556
330
18
100
AcDbEntity
  8
1
 62
     1
100
AcDbLine
 10
35.80319529722415
 20
2.870162536814175
 30
0.0
 11
35.93528996633999
 21
2.800088483856463
 31
0.0
  0
LINE
  5
557
330
18
100
AcDbEntity
  8
1
 62
     1
100
AcDbLine
 10
35.93528996633999
 20
2.800088483856463
 30
0.0
 11
36.06736814017124
 21
2.723281038280634
 31
0.0
  0
LINE
  5
558
330
18
100
AcDbEntity
  8
1
 62
     1
100
AcDbLine
 10
36.06736814017124
 20
2.723281038280634
 30
0.0
 11
36.19945627901841
 21
2.639903221861273
 31
0.0
  0
LINE
  5
559
330
18
100
AcDbEntity
  8
1
 62
     1
100
AcDbLine
 10
36.19945627901841
 20
2.639903221861273
 30
0.0
 11
36.46362247871667
 21
2.454294658258713
 31
0.0
  0
LINE
  5
55A
330
18
100
AcDbEntity
  8
1
 62
     1
100
AcDbLine
 10
36.46362247871667
 20
2.454294658258713
 30
0.0
 11
36.72778903910317
 21
2.245049868756884
 31
0.0
  0
LINE
  5
55B
330
18
100
AcDbEntity
  8
1
 62
     1
100
AcDbLine
 10
36.72778903910317
 20
2.245049868756884
 30
0.0
 11
36.99195640442182
 21
2.014183406555962
 31
0.0
  0
LINE
  5
55C
330
18
100
AcDbEntity
  8
1
 62
     1
100
AcDbLine
 10
36.99195640442182
 20
2.014183406555962
 30
0.0
 11
37.25612499053542
 21
1.763917964541776
 31
0.0
  0
LINE
  5
55D
330
18
100
AcDbEntity
  8
1
 62
     1
100
AcDbLine
 10
37.25612499053542
 20
1.763917964541776
 30
0.0
 11
37.78446735024699
 21
1.214991771510836
 31
0.0
  0
LINE
  5
55E
330
18
100
AcDbEntity
  8
1
 62
     1
100
AcDbLine
 10
37.78446735024699
 20
1.214991771510836
 30
0.0
 11
38.84110945441347
 21
-0.0000000000007494
 31
0.0
  0
LINE
  5
55F
330
18
100
AcDbEntity
  8
1
 62
     1
100
AcDbLine
 10
37.43221891030749
 20
3.174999999999999
 30
0.0
 11
37.31213702626247
 21
3.171836662671029
 31
0.0
  0
LINE
  5
560
330
18
100
AcDbEntity
  8
1
 62
     1
100
AcDbLine
 10
37.31213702626247
 20
3.171836662671029
 30
0.0
 11
37.19204117386818
 21
3.162359658151399
 31
0.0
  0
LINE
  5
561
330
18
100
AcDbEntity
  8
1
 62
     1
100
AcDbLine
 10
37.19204117386818
 20
3.162359658151399
 30
0.0
 11
37.07197101382555
 21
3.146586126946084
 31
0.0
  0
LINE
  5
562
330
18
100
AcDbEntity
  8
1
 62
     1
100
AcDbLine
 10
37.07197101382555
 20
3.146586126946084
 30
0.0
 11
36.95187251514274
 21
3.124542267221512
 31
0.0
  0
LINE
  5
563
330
18
100
AcDbEntity
  8
1
 62
     1
100
AcDbLine
 10
36.95187251514274
 20
3.124542267221512
 30
0.0
 11
36.83179840408742
 21
3.096283483107979
 31
0.0
  0
LINE
  5
564
330
18
100
AcDbEntity
  8
1
 62
     1
100
AcDbLine
 10
36.83179840408742
 20
3.096283483107979
 30
0.0
 11
36.71170833792566
 21
3.061851353318477
 31
0.0
  0
LINE
  5
565
330
18
100
AcDbEntity
  8
1
 62
     1
100
AcDbLine
 10
36.71170833792566
 20
3.061851353318477
 30
0.0
 11
36.5916182452499
 21
3.021325572581313
 31
0.0
  0
LINE
  5
566
330
18
100
AcDbEntity
  8
1
 62
     1
100
AcDbLine
 10
36.5916182452499
 20
3.021325572581313
 30
0.0
 11
36.47154420601122
 21
2.974785820451508
 31
0.0
  0
LINE
  5
567
330
18
100
AcDbEntity
  8
1
 62
     1
100
AcDbLine
 10
21.15000000000001
 20
3.175
 30
0.0
 11
21.42196401671968
 21
3.175
 31
0.0
  0
LINE
  5
568
330
18
100
AcDbEntity
  8
1
 62
     1
100
AcDbLine
 10
40.2
 20
2.173777809376937
 30
0.0
 11
40.19986062216294
 21
2.179634932498794
 31
0.0
  0
LINE
  5
569
330
18
100
AcDbEntity
  8
1
 62
     1
100
AcDbLine
 10
40.19986062216294
 20
2.179634932498794
 30
0.0
 11
40.19943066870714
 21
2.185653304934643
 31
0.0
  0
LINE
  5
56A
330
18
100
AcDbEntity
  8
1
 62
     1
100
AcDbLine
 10
40.19943066870714
 20
2.185653304934643
 30
0.0
 11
40.19869240971565
 21
2.191848853705755
 31
0.0
  0
LINE
  5
56B
330
18
100
AcDbEntity
  8
1
 62
     1
100
AcDbLine
 10
40.19869240971565
 20
2.191848853705755
 30
0.0
 11
40.19762811527158
 21
2.198237505833404
 31
0.0
  0
LINE
  5
56C
330
18
100
AcDbEntity
  8
1
 62
     1
100
AcDbLine
 10
40.19762811527158
 20
2.198237505833404
 30
0.0
 11
40.19622005545799
 21
2.204835188338863
 31
0.0
  0
LINE
  5
56D
330
18
100
AcDbEntity
  8
1
 62
     1
100
AcDbLine
 10
40.19622005545799
 20
2.204835188338863
 30
0.0
 11
40.19445011064649
 21
2.211658620563939
 31
0.0
  0
LINE
  5
56E
330
18
100
AcDbEntity
  8
1
 62
     1
100
AcDbLine
 10
40.19445011064649
 20
2.211658620563939
 30
0.0
 11
40.19229600581873
 21
2.218730576362346
 31
0.0
  0
LINE
  5
56F
330
18
100
AcDbEntity
  8
1
 62
     1
100
AcDbLine
 10
40.19229600581873
 20
2.218730576362346
 30
0.0
 11
40.18973454941973
 21
2.22607172556067
 31
0.0
  0
LINE
  5
570
330
18
100
AcDbEntity
  8
1
 62
     1
100
AcDbLine
 10
40.18973454941973
 20
2.22607172556067
 30
0.0
 11
40.18674281281247
 21
2.233701886727434
 31
0.0
  0
LINE
  5
571
330
18
100
AcDbEntity
  8
1
 62
     1
100
AcDbLine
 10
40.18674281281247
 20
2.233701886727434
 30
0.0
 11
40.17936630803892
 21
2.249925547644719
 31
0.0
  0
LINE
  5
572
330
18
100
AcDbEntity
  8
1
 62
     1
100
AcDbLine
 10
40.17936630803892
 20
2.249925547644719
 30
0.0
 11
40.16995081403912
 21
2.267592400310725
 31
0.0
  0
LINE
  5
573
330
18
100
AcDbEntity
  8
1
 62
     1
100
AcDbLine
 10
40.16995081403912
 20
2.267592400310725
 30
0.0
 11
40.15825989898791
 21
2.286909875581792
 31
0.0
  0
LINE
  5
574
330
18
100
AcDbEntity
  8
1
 62
     1
100
AcDbLine
 10
40.15825989898791
 20
2.286909875581792
 30
0.0
 11
40.14406690007897
 21
2.308056054961107
 31
0.0
  0
LINE
  5
575
330
18
100
AcDbEntity
  8
1
 62
     1
100
AcDbLine
 10
40.14406690007897
 20
2.308056054961107
 30
0.0
 11
40.12712869377224
 21
2.331225433221763
 31
0.0
  0
LINE
  5
576
330
18
100
AcDbEntity
  8
1
 62
     1
100
AcDbLine
 10
40.12712869377224
 20
2.331225433221763
 30
0.0
 11
40.08450962782656
 21
2.383822504278059
 31
0.0
  0
LINE
  5
577
330
18
100
AcDbEntity
  8
1
 62
     1
100
AcDbLine
 10
40.08450962782656
 20
2.383822504278059
 30
0.0
 11
40.03034590935035
 21
2.44410922401027
 31
0.0
  0
LINE
  5
578
330
18
100
AcDbEntity
  8
1
 62
     1
100
AcDbLine
 10
40.03034590935035
 20
2.44410922401027
 30
0.0
 11
39.96694782462789
 21
2.509219335533421
 31
0.0
  0
LINE
  5
579
330
18
100
AcDbEntity
  8
1
 62
     1
100
AcDbLine
 10
39.96694782462789
 20
2.509219335533421
 30
0.0
 11
39.82697115759746
 21
2.638955382751919
 31
0.0
  0
LINE
  5
57A
330
18
100
AcDbEntity
  8
1
 62
     1
100
AcDbLine
 10
39.82697115759746
 20
2.638955382751919
 30
0.0
 11
39.75584488502501
 21
2.698501488003287
 31
0.0
  0
LINE
  5
57B
330
18
100
AcDbEntity
  8
1
 62
     1
100
AcDbLine
 10
39.75584488502501
 20
2.698501488003287
 30
0.0
 11
39.68571290492518
 21
2.753025286807436
 31
0.0
  0
LINE
  5
57C
330
18
100
AcDbEntity
  8
1
 62
     1
100
AcDbLine
 10
39.68571290492518
 20
2.753025286807436
 30
0.0
 11
39.6170903358932
 21
2.80215645006734
 31
0.0
  0
LINE
  5
57D
330
18
100
AcDbEntity
  8
1
 62
     1
100
AcDbLine
 10
39.6170903358932
 20
2.80215645006734
 30
0.0
 11
39.55016452391729
 21
2.845793022261051
 31
0.0
  0
LINE
  5
57E
330
18
100
AcDbEntity
  8
1
 62
     1
100
AcDbLine
 10
39.55016452391729
 20
2.845793022261051
 30
0.0
 11
39.48498388138364
 21
2.883932677156188
 31
0.0
  0
LINE
  5
57F
330
18
100
AcDbEntity
  8
1
 62
     1
100
AcDbLine
 10
39.48498388138364
 20
2.883932677156188
 30
0.0
 11
39.44514675998936
 21
2.904980463850599
 31
0.0
  0
LINE
  5
580
330
18
100
AcDbEntity
  8
1
 62
     1
100
AcDbLine
 10
39.44514675998936
 20
2.904980463850599
 30
0.0
 11
39.406
 21
2.923892536949889
 31
0.0
  0
LINE
  5
581
330
18
100
AcDbEntity
  8
1
 62
     1
100
AcDbLine
 10
40.2
 20
1.228608848279346
 30
0.0
 11
40.19961389132632
 21
1.241652441028146
 31
0.0
  0
LINE
  5
582
330
18
100
AcDbEntity
  8
1
 62
     1
100
AcDbLine
 10
40.19961389132632
 20
1.241652441028146
 30
0.0
 11
40.19846024205313
 21
1.255282407285812
 31
0.0
  0
LINE
  5
583
330
18
100
AcDbEntity
  8
1
 62
     1
100
AcDbLine
 10
40.19846024205313
 20
1.255282407285812
 30
0.0
 11
40.19654606730215
 21
1.26947649002139
 31
0.0
  0
LINE
  5
584
330
18
100
AcDbEntity
  8
1
 62
     1
100
AcDbLine
 10
40.19654606730215
 20
1.26947649002139
 30
0.0
 11
40.19387781729889
 21
1.284216270670196
 31
0.0
  0
LINE
  5
585
330
18
100
AcDbEntity
  8
1
 62
     1
100
AcDbLine
 10
40.19387781729889
 20
1.284216270670196
 30
0.0
 11
40.19046208511483
 21
1.29950924013668
 31
0.0
  0
LINE
  5
586
330
18
100
AcDbEntity
  8
1
 62
     1
100
AcDbLine
 10
40.19046208511483
 20
1.29950924013668
 30
0.0
 11
40.18146614335317
 21
1.331637878630199
 31
0.0
  0
LINE
  5
587
330
18
100
AcDbEntity
  8
1
 62
     1
100
AcDbLine
 10
40.18146614335317
 20
1.331637878630199
 30
0.0
 11
40.16970817143884
 21
1.365663280180497
 31
0.0
  0
LINE
  5
588
330
18
100
AcDbEntity
  8
1
 62
     1
100
AcDbLine
 10
40.16970817143884
 20
1.365663280180497
 30
0.0
 11
40.15538463345634
 21
1.401368239612418
 31
0.0
  0
LINE
  5
589
330
18
100
AcDbEntity
  8
1
 62
     1
100
AcDbLine
 10
40.15538463345634
 20
1.401368239612418
 30
0.0
 11
40.13870435501472
 21
1.438523425859187
 31
0.0
  0
LINE
  5
58A
330
18
100
AcDbEntity
  8
1
 62
     1
100
AcDbLine
 10
40.13870435501472
 20
1.438523425859187
 30
0.0
 11
40.09923330450341
 21
1.516139493213958
 31
0.0
  0
LINE
  5
58B
330
18
100
AcDbEntity
  8
1
 62
     1
100
AcDbLine
 10
40.09923330450341
 20
1.516139493213958
 30
0.0
 11
40.05313082020675
 21
1.596586364298002
 31
0.0
  0
LINE
  5
58C
330
18
100
AcDbEntity
  8
1
 62
     1
100
AcDbLine
 10
40.05313082020675
 20
1.596586364298002
 30
0.0
 11
40.00202026297704
 21
1.678203387700078
 31
0.0
  0
LINE
  5
58D
330
18
100
AcDbEntity
  8
1
 62
     1
100
AcDbLine
 10
40.00202026297704
 20
1.678203387700078
 30
0.0
 11
39.88968190465124
 21
1.839959300742932
 31
0.0
  0
LINE
  5
58E
330
18
100
AcDbEntity
  8
1
 62
     1
100
AcDbLine
 10
39.88968190465124
 20
1.839959300742932
 30
0.0
 11
39.76922884272362
 21
1.99408927176023
 31
0.0
  0
LINE
  5
58F
330
18
100
AcDbEntity
  8
1
 62
     1
100
AcDbLine
 10
39.76922884272362
 20
1.99408927176023
 30
0.0
 11
39.64452649304727
 21
2.136024476940297
 31
0.0
  0
LINE
  5
590
330
18
100
AcDbEntity
  8
1
 62
     1
100
AcDbLine
 10
39.64452649304727
 20
2.136024476940297
 30
0.0
 11
39.52565584837676
 21
2.255145903738546
 31
0.0
  0
LINE
  5
591
330
18
100
AcDbEntity
  8
1
 62
     1
100
AcDbLine
 10
39.52565584837676
 20
2.255145903738546
 30
0.0
 11
39.4658703357578
 21
2.308909683763172
 31
0.0
  0
LINE
  5
592
330
18
100
AcDbEntity
  8
1
 62
     1
100
AcDbLine
 10
39.4658703357578
 20
2.308909683763172
 30
0.0
 11
39.40600000000001
 21
2.358431019024037
 31
0.0
  0
LINE
  5
593
330
18
100
AcDbEntity
  8
1
 62
     1
100
AcDbLine
 10
23.34331343638103
 20
3.174999999999999
 30
0.0
 11
23.47540931158102
 21
3.171172531490178
 31
0.0
  0
LINE
  5
594
330
18
100
AcDbEntity
  8
1
 62
     1
100
AcDbLine
 10
23.47540931158102
 20
3.171172531490178
 30
0.0
 11
23.6075136895997
 21
3.159707435363694
 31
0.0
  0
LINE
  5
595
330
18
100
AcDbEntity
  8
1
 62
     1
100
AcDbLine
 10
23.6075136895997
 20
3.159707435363694
 30
0.0
 11
23.73960131187496
 21
3.140626902756043
 31
0.0
  0
LINE
  5
596
330
18
100
AcDbEntity
  8
1
 62
     1
100
AcDbLine
 10
23.73960131187496
 20
3.140626902756043
 30
0.0
 11
23.87171094349937
 21
3.113977916867229
 31
0.0
  0
LINE
  5
597
330
18
100
AcDbEntity
  8
1
 62
     1
100
AcDbLine
 10
23.87171094349937
 20
3.113977916867229
 30
0.0
 11
24.00379405962966
 21
3.07982956770003
 31
0.0
  0
LINE
  5
598
330
18
100
AcDbEntity
  8
1
 62
     1
100
AcDbLine
 10
24.00379405962966
 20
3.07982956770003
 30
0.0
 11
24.13590585493646
 21
3.038252964598837
 31
0.0
  0
LINE
  5
599
330
18
100
AcDbEntity
  8
1
 62
     1
100
AcDbLine
 10
24.13590585493646
 20
3.038252964598837
 30
0.0
 11
24.26798806550622
 21
2.989365586493206
 31
0.0
  0
LINE
  5
59A
330
18
100
AcDbEntity
  8
1
 62
     1
100
AcDbLine
 10
24.26798806550622
 20
2.989365586493206
 30
0.0
 11
24.40009903655025
 21
2.933262670172925
 31
0.0
  0
LINE
  5
59B
330
18
100
AcDbEntity
  8
1
 62
     1
100
AcDbLine
 10
24.40009903655025
 20
2.933262670172925
 30
0.0
 11
24.53218380658973
 21
2.870105563166583
 31
0.0
  0
LINE
  5
59C
330
18
100
AcDbEntity
  8
1
 62
     1
100
AcDbLine
 10
24.53218380658973
 20
2.870105563166583
 30
0.0
 11
24.66429106141354
 21
2.800018683492295
 31
0.0
  0
LINE
  5
59D
330
18
100
AcDbEntity
  8
1
 62
     1
100
AcDbLine
 10
24.66429106141354
 20
2.800018683492295
 30
0.0
 11
24.79638155131725
 21
2.72319746551435
 31
0.0
  0
LINE
  5
59E
330
18
100
AcDbEntity
  8
1
 62
     1
100
AcDbLine
 10
24.79638155131725
 20
2.72319746551435
 30
0.0
 11
24.92846203008691
 21
2.63981960143367
 31
0.0
  0
LINE
  5
59F
330
18
100
AcDbEntity
  8
1
 62
     1
100
AcDbLine
 10
24.92846203008691
 20
2.63981960143367
 30
0.0
 11
25.19261161147094
 21
2.454211253407727
 31
0.0
  0
LINE
  5
5A0
330
18
100
AcDbEntity
  8
1
 62
     1
100
AcDbLine
 10
25.19261161147094
 20
2.454211253407727
 30
0.0
 11
25.45676777090224
 21
2.244964795124092
 31
0.0
  0
LINE
  5
5A1
330
18
100
AcDbEntity
  8
1
 62
     1
100
AcDbLine
 10
25.45676777090224
 20
2.244964795124092
 30
0.0
 11
25.7209228850332
 21
2.014101319430911
 31
0.0
  0
LINE
  5
5A2
330
18
100
AcDbEntity
  8
1
 62
     1
100
AcDbLine
 10
25.7209228850332
 20
2.014101319430911
 30
0.0
 11
25.98507303318591
 21
1.763847168014263
 31
0.0
  0
LINE
  5
5A3
330
18
100
AcDbEntity
  8
1
 62
     1
100
AcDbLine
 10
25.98507303318591
 20
1.763847168014263
 30
0.0
 11
26.5133813535958
 21
1.214949898001748
 31
0.0
  0
LINE
  5
5A4
330
18
100
AcDbEntity
  8
1
 62
     1
100
AcDbLine
 10
26.5133813535958
 20
1.214949898001748
 30
0.0
 11
27.56998508448735
 21
-0.0000000000004333
 31
0.0
  0
LINE
  5
5A5
330
18
100
AcDbEntity
  8
1
 62
     1
100
AcDbLine
 10
24.23974508632564
 20
3.174999999999999
 30
0.0
 11
24.39762906718168
 21
3.169535918357953
 31
0.0
  0
LINE
  5
5A6
330
18
100
AcDbEntity
  8
1
 62
     1
100
AcDbLine
 10
24.39762906718168
 20
3.169535918357953
 30
0.0
 11
24.55550953691355
 21
3.153163054284605
 31
0.0
  0
LINE
  5
5A7
330
18
100
AcDbEntity
  8
1
 62
     1
100
AcDbLine
 10
24.55550953691355
 20
3.153163054284605
 30
0.0
 11
24.71338914969327
 21
3.125938329348054
 31
0.0
  0
LINE
  5
5A8
330
18
100
AcDbEntity
  8
1
 62
     1
100
AcDbLine
 10
24.71338914969327
 20
3.125938329348054
 30
0.0
 11
24.87126871389351
 21
3.087955252047482
 31
0.0
  0
LINE
  5
5A9
330
18
100
AcDbEntity
  8
1
 62
     1
100
AcDbLine
 10
24.87126871389351
 20
3.087955252047482
 30
0.0
 11
25.02915037356104
 21
3.039343923026201
 31
0.0
  0
LINE
  5
5AA
330
18
100
AcDbEntity
  8
1
 62
     1
100
AcDbLine
 10
25.02915037356104
 20
3.039343923026201
 30
0.0
 11
25.18703473538621
 21
2.980270536399491
 31
0.0
  0
LINE
  5
5AB
330
18
100
AcDbEntity
  8
1
 62
     1
100
AcDbLine
 10
25.18703473538621
 20
2.980270536399491
 30
0.0
 11
25.34491702258307
 21
2.910940030581709
 31
0.0
  0
LINE
  5
5AC
330
18
100
AcDbEntity
  8
1
 62
     1
100
AcDbLine
 10
25.34491702258307
 20
2.910940030581709
 30
0.0
 11
25.50279731174516
 21
2.831592035362336
 31
0.0
  0
LINE
  5
5AD
330
18
100
AcDbEntity
  8
1
 62
     1
100
AcDbLine
 10
25.50279731174516
 20
2.831592035362336
 30
0.0
 11
25.66067645382691
 21
2.742499041193589
 31
0.0
  0
LINE
  5
5AE
330
18
100
AcDbEntity
  8
1
 62
     1
100
AcDbLine
 10
25.66067645382691
 20
2.742499041193589
 30
0.0
 11
25.81855675729362
 21
2.643967148008417
 31
0.0
  0
LINE
  5
5AF
330
18
100
AcDbEntity
  8
1
 62
     1
100
AcDbLine
 10
25.81855675729362
 20
2.643967148008417
 30
0.0
 11
25.9764387222284
 21
2.536333682382158
 31
0.0
  0
LINE
  5
5B0
330
18
100
AcDbEntity
  8
1
 62
     1
100
AcDbLine
 10
25.9764387222284
 20
2.536333682382158
 30
0.0
 11
26.13432328455896
 21
2.419969221448834
 31
0.0
  0
LINE
  5
5B1
330
18
100
AcDbEntity
  8
1
 62
     1
100
AcDbLine
 10
26.13432328455896
 20
2.419969221448834
 30
0.0
 11
26.45008441624117
 21
2.162687575922668
 31
0.0
  0
LINE
  5
5B2
330
18
100
AcDbEntity
  8
1
 62
     1
100
AcDbLine
 10
26.45008441624117
 20
2.162687575922668
 30
0.0
 11
26.76584407323765
 21
1.875659924329903
 31
0.0
  0
LINE
  5
5B3
330
18
100
AcDbEntity
  8
1
 62
     1
100
AcDbLine
 10
38.328650930282
 20
3.175
 30
0.0
 11
38.4633216272773
 21
3.171021986468915
 31
0.0
  0
LINE
  5
5B4
330
18
100
AcDbEntity
  8
1
 62
     1
100
AcDbLine
 10
38.4633216272773
 20
3.171021986468915
 30
0.0
 11
38.59799937965089
 21
3.159106247220445
 31
0.0
  0
LINE
  5
5B5
330
18
100
AcDbEntity
  8
1
 62
     1
100
AcDbLine
 10
38.59799937965089
 20
3.159106247220445
 30
0.0
 11
38.73266312167351
 21
3.139276367899288
 31
0.0
  0
LINE
  5
5B6
330
18
100
AcDbEntity
  8
1
 62
     1
100
AcDbLine
 10
38.73266312167351
 20
3.139276367899288
 30
0.0
 11
38.86734579345931
 21
3.111584671696889
 31
0.0
  0
LINE
  5
5B7
330
18
100
AcDbEntity
  8
1
 62
     1
100
AcDbLine
 10
38.86734579345931
 20
3.111584671696889
 30
0.0
 11
39.00200494842399
 21
3.076102808202373
 31
0.0
  0
LINE
  5
5B8
330
18
100
AcDbEntity
  8
1
 62
     1
100
AcDbLine
 10
39.00200494842399
 20
3.076102808202373
 30
0.0
 11
39.13669051621869
 21
3.032911728895068
 31
0.0
  0
LINE
  5
5B9
330
18
100
AcDbEntity
  8
1
 62
     1
100
AcDbLine
 10
39.13669051621869
 20
3.032911728895068
 30
0.0
 11
39.27134273436882
 21
2.982136152048685
 31
0.0
  0
LINE
  5
5BA
330
18
100
AcDbEntity
  8
1
 62
     1
100
AcDbLine
 10
39.27134273436882
 20
2.982136152048685
 30
0.0
 11
39.40600000000001
 21
2.923892536949889
 31
0.0
  0
LINE
  5
5BB
330
18
100
AcDbEntity
  8
1
 62
     1
100
AcDbLine
 10
37.43221891030749
 20
3.175
 30
0.0
 11
38.328650930282
 21
3.175
 31
0.0
  0
LINE
  5
5BC
330
18
100
AcDbEntity
  8
1
 62
     1
100
AcDbLine
 10
37.43221891030749
 20
3.174999999999999
 30
0.0
 11
37.55557867310687
 21
3.171661727664196
 31
0.0
  0
LINE
  5
5BD
330
18
100
AcDbEntity
  8
1
 62
     1
100
AcDbLine
 10
37.55557867310687
 20
3.171661727664196
 30
0.0
 11
37.67895117459103
 21
3.161661012191857
 31
0.0
  0
LINE
  5
5BE
330
18
100
AcDbEntity
  8
1
 62
     1
100
AcDbLine
 10
37.67895117459103
 20
3.161661012191857
 30
0.0
 11
37.80229963462672
 21
3.14501618663451
 31
0.0
  0
LINE
  5
5BF
330
18
100
AcDbEntity
  8
1
 62
     1
100
AcDbLine
 10
37.80229963462672
 20
3.14501618663451
 30
0.0
 11
37.925676159533
 21
3.121758434629604
 31
0.0
  0
LINE
  5
5C0
330
18
100
AcDbEntity
  8
1
 62
     1
100
AcDbLine
 10
37.925676159533
 20
3.121758434629604
 30
0.0
 11
38.04902481676903
 21
3.091947312865995
 31
0.0
  0
LINE
  5
5C1
330
18
100
AcDbEntity
  8
1
 62
     1
100
AcDbLine
 10
38.04902481676903
 20
3.091947312865995
 30
0.0
 11
38.17239686826611
 21
3.055629665277985
 31
0.0
  0
LINE
  5
5C2
330
18
100
AcDbEntity
  8
1
 62
     1
100
AcDbLine
 10
38.17239686826611
 20
3.055629665277985
 30
0.0
 11
38.29575693425282
 21
3.012897854476767
 31
0.0
  0
LINE
  5
5C3
330
18
100
AcDbEntity
  8
1
 62
     1
100
AcDbLine
 10
38.29575693425282
 20
3.012897854476767
 30
0.0
 11
38.4191161814576
 21
2.963830728445072
 31
0.0
  0
LINE
  5
5C4
330
18
100
AcDbEntity
  8
1
 62
     1
100
AcDbLine
 10
38.4191161814576
 20
2.963830728445072
 30
0.0
 11
38.54248850768025
 21
2.908532812234489
 31
0.0
  0
LINE
  5
5C5
330
18
100
AcDbEntity
  8
1
 62
     1
100
AcDbLine
 10
38.54248850768025
 20
2.908532812234489
 30
0.0
 11
38.66583687982286
 21
2.847131741576414
 31
0.0
  0
LINE
  5
5C6
330
18
100
AcDbEntity
  8
1
 62
     1
100
AcDbLine
 10
38.66583687982286
 20
2.847131741576414
 30
0.0
 11
38.78921312927962
 21
2.779733644188741
 31
0.0
  0
LINE
  5
5C7
330
18
100
AcDbEntity
  8
1
 62
     1
100
AcDbLine
 10
38.78921312927962
 20
2.779733644188741
 30
0.0
 11
39.03593360929796
 21
2.627583284707628
 31
0.0
  0
LINE
  5
5C8
330
18
100
AcDbEntity
  8
1
 62
     1
100
AcDbLine
 10
39.03593360929796
 20
2.627583284707628
 30
0.0
 11
39.22096511369385
 21
2.498914771636824
 31
0.0
  0
LINE
  5
5C9
330
18
100
AcDbEntity
  8
1
 62
     1
100
AcDbLine
 10
39.22096511369385
 20
2.498914771636824
 30
0.0
 11
39.40600000000001
 21
2.358431019024031
 31
0.0
  0
LINE
  5
5CA
330
18
100
AcDbEntity
  8
1
 62
     1
100
AcDbLine
 10
40.2
 20
2.380588935040262
 30
0.0
 11
40.19846024397571
 21
2.429937862652582
 31
0.0
  0
LINE
  5
5CB
330
18
100
AcDbEntity
  8
1
 62
     1
100
AcDbLine
 10
40.19846024397571
 20
2.429937862652582
 30
0.0
 11
40.19387782492149
 21
2.478867396627667
 31
0.0
  0
LINE
  5
5CC
330
18
100
AcDbEntity
  8
1
 62
     1
100
AcDbLine
 10
40.19387782492149
 20
2.478867396627667
 30
0.0
 11
40.18631787726788
 21
2.527046565745573
 31
0.0
  0
LINE
  5
5CD
330
18
100
AcDbEntity
  8
1
 62
     1
100
AcDbLine
 10
40.18631787726788
 20
2.527046565745573
 30
0.0
 11
40.17592350622873
 21
2.574065698200765
 31
0.0
  0
LINE
  5
5CE
330
18
100
AcDbEntity
  8
1
 62
     1
100
AcDbLine
 10
40.17592350622873
 20
2.574065698200765
 30
0.0
 11
40.16285160497613
 21
2.619646493951901
 31
0.0
  0
LINE
  5
5CF
330
18
100
AcDbEntity
  8
1
 62
     1
100
AcDbLine
 10
40.16285160497613
 20
2.619646493951901
 30
0.0
 11
40.1473257128051
 21
2.663436466787756
 31
0.0
  0
LINE
  5
5D0
330
18
100
AcDbEntity
  8
1
 62
     1
100
AcDbLine
 10
40.1473257128051
 20
2.663436466787756
 30
0.0
 11
40.1295571687148
 21
2.70524439888047
 31
0.0
  0
LINE
  5
5D1
330
18
100
AcDbEntity
  8
1
 62
     1
100
AcDbLine
 10
40.1295571687148
 20
2.70524439888047
 30
0.0
 11
40.10979548796779
 21
2.744837614122398
 31
0.0
  0
LINE
  5
5D2
330
18
100
AcDbEntity
  8
1
 62
     1
100
AcDbLine
 10
40.10979548796779
 20
2.744837614122398
 30
0.0
 11
40.08826412199855
 21
2.782109073140657
 31
0.0
  0
LINE
  5
5D3
330
18
100
AcDbEntity
  8
1
 62
     1
100
AcDbLine
 10
40.08826412199855
 20
2.782109073140657
 30
0.0
 11
40.0651861991633
 21
2.816957940461905
 31
0.0
  0
LINE
  5
5D4
330
18
100
AcDbEntity
  8
1
 62
     1
100
AcDbLine
 10
40.0651861991633
 20
2.816957940461905
 30
0.0
 11
40.0407702765087
 21
2.849336519061566
 31
0.0
  0
LINE
  5
5D5
330
18
100
AcDbEntity
  8
1
 62
     1
100
AcDbLine
 10
40.0407702765087
 20
2.849336519061566
 30
0.0
 11
40.01518994809236
 21
2.879240034767285
 31
0.0
  0
LINE
  5
5D6
330
18
100
AcDbEntity
  8
1
 62
     1
100
AcDbLine
 10
40.01518994809236
 20
2.879240034767285
 30
0.0
 11
39.98862253164003
 21
2.906664376938622
 31
0.0
  0
LINE
  5
5D7
330
18
100
AcDbEntity
  8
1
 62
     1
100
AcDbLine
 10
39.98862253164003
 20
2.906664376938622
 30
0.0
 11
39.96119504411561
 21
2.931653894429176
 31
0.0
  0
LINE
  5
5D8
330
18
100
AcDbEntity
  8
1
 62
     1
100
AcDbLine
 10
39.96119504411561
 20
2.931653894429176
 30
0.0
 11
39.93304645731732
 21
2.954235758915181
 31
0.0
  0
LINE
  5
5D9
330
18
100
AcDbEntity
  8
1
 62
     1
100
AcDbLine
 10
39.93304645731732
 20
2.954235758915181
 30
0.0
 11
39.90427051350285
 21
2.974470414125728
 31
0.0
  0
LINE
  5
5DA
330
18
100
AcDbEntity
  8
1
 62
     1
100
AcDbLine
 10
39.90427051350285
 20
2.974470414125728
 30
0.0
 11
39.87496742428173
 21
2.992404740851297
 31
0.0
  0
LINE
  5
5DB
330
18
100
AcDbEntity
  8
1
 62
     1
100
AcDbLine
 10
39.87496742428173
 20
2.992404740851297
 30
0.0
 11
39.84521136080519
 21
3.008098268549027
 31
0.0
  0
LINE
  5
5DC
330
18
100
AcDbEntity
  8
1
 62
     1
100
AcDbLine
 10
39.84521136080519
 20
3.008098268549027
 30
0.0
 11
39.81506042837733
 21
3.021609957237988
 31
0.0
  0
LINE
  5
5DD
330
18
100
AcDbEntity
  8
1
 62
     1
100
AcDbLine
 10
39.81506042837733
 20
3.021609957237988
 30
0.0
 11
39.78457325752977
 21
3.032993875264623
 31
0.0
  0
LINE
  5
5DE
330
18
100
AcDbEntity
  8
1
 62
     1
100
AcDbLine
 10
39.78457325752977
 20
3.032993875264623
 30
0.0
 11
39.75382251325728
 21
3.042294754876759
 31
0.0
  0
LINE
  5
5DF
330
18
100
AcDbEntity
  8
1
 62
     1
100
AcDbLine
 10
39.75382251325728
 20
3.042294754876759
 30
0.0
 11
39.722823088323
 21
3.049572204004215
 31
0.0
  0
LINE
  5
5E0
330
18
100
AcDbEntity
  8
1
 62
     1
100
AcDbLine
 10
39.722823088323
 20
3.049572204004215
 30
0.0
 11
39.69162500197992
 21
3.054871321054055
 31
0.0
  0
LINE
  5
5E1
330
18
100
AcDbEntity
  8
1
 62
     1
100
AcDbLine
 10
39.69162500197992
 20
3.054871321054055
 30
0.0
 11
39.66026627480863
 21
3.058236360066561
 31
0.0
  0
LINE
  5
5E2
330
18
100
AcDbEntity
  8
1
 62
     1
100
AcDbLine
 10
39.66026627480863
 20
3.058236360066561
 30
0.0
 11
39.62875452325382
 21
3.059712311382781
 31
0.0
  0
LINE
  5
5E3
330
18
100
AcDbEntity
  8
1
 62
     1
100
AcDbLine
 10
39.62875452325382
 20
3.059712311382781
 30
0.0
 11
39.59713468459665
 21
3.059337620119991
 31
0.0
  0
LINE
  5
5E4
330
18
100
AcDbEntity
  8
1
 62
     1
100
AcDbLine
 10
39.59713468459665
 20
3.059337620119991
 30
0.0
 11
39.56541531613251
 21
3.057148521371033
 31
0.0
  0
LINE
  5
5E5
330
18
100
AcDbEntity
  8
1
 62
     1
100
AcDbLine
 10
39.56541531613251
 20
3.057148521371033
 30
0.0
 11
39.53361436070998
 21
3.053178984894267
 31
0.0
  0
LINE
  5
5E6
330
18
100
AcDbEntity
  8
1
 62
     1
100
AcDbLine
 10
39.53361436070998
 20
3.053178984894267
 30
0.0
 11
39.50176428267388
 21
3.047461973392111
 31
0.0
  0
LINE
  5
5E7
330
18
100
AcDbEntity
  8
1
 62
     1
100
AcDbLine
 10
39.50176428267388
 20
3.047461973392111
 30
0.0
 11
39.46986099791069
 21
3.04002250973768
 31
0.0
  0
LINE
  5
5E8
330
18
100
AcDbEntity
  8
1
 62
     1
100
AcDbLine
 10
39.46986099791069
 20
3.04002250973768
 30
0.0
 11
39.43793195252388
 21
3.030889776574957
 31
0.0
  0
LINE
  5
5E9
330
18
100
AcDbEntity
  8
1
 62
     1
100
AcDbLine
 10
39.43793195252388
 20
3.030889776574957
 30
0.0
 11
39.406
 21
3.02009059934808
 31
0.0
  0
LINE
  5
5EA
330
18
100
AcDbEntity
  8
1
 62
     1
100
AcDbLine
 10
40.19999999999999
 20
2.173777809376937
 30
0.0
 11
40.19999999999999
 21
2.380588935040245
 31
0.0
  0
LINE
  5
5EB
330
18
100
AcDbEntity
  8
1
 62
     1
100
AcDbLine
 10
40.2
 20
2.173777809376933
 30
0.0
 11
40.2
 21
1.228608848279362
 31
0.0
  0
LINE
  5
5EC
330
18
100
AcDbEntity
  8
1
 62
     1
100
AcDbLine
 10
40.2
 20
0.992822830469047
 30
0.0
 11
40.2
 21
1.22860884827934
 31
0.0
  0
LINE
  5
5ED
330
18
100
AcDbEntity
  8
1
 62
     1
100
AcDbLine
 10
40.2
 20
0.992822830469047
 30
0.0
 11
40.2
 21
0.2455279378048972
 31
0.0
  0
LINE
  5
5EE
330
18
100
AcDbEntity
  8
1
 62
     1
100
AcDbLine
 10
40.20000000000001
 20
0.2455279378049019
 30
0.0
 11
40.19999999999999
 21
-1.15198008676091
 31
0.0
  0
LINE
  5
5EF
330
18
100
AcDbEntity
  8
1
 62
     1
100
AcDbLine
 10
40.2
 20
-1.15198008676091
 30
0.0
 11
40.19999999999999
 21
-1.928249871572061
 31
0.0
  0
LINE
  5
5F0
330
18
100
AcDbEntity
  8
1
 62
     1
100
AcDbLine
 10
21.15
 20
-2.177352698207949
 30
0.0
 11
21.42416435503415
 21
-2.401098364718734
 31
0.0
  0
LINE
  5
5F1
330
18
100
AcDbEntity
  8
1
 62
     1
100
AcDbLine
 10
21.42416435503415
 20
-2.401098364718734
 30
0.0
 11
21.69832867454533
 21
-2.599940026066156
 31
0.0
  0
LINE
  5
5F2
330
18
100
AcDbEntity
  8
1
 62
     1
100
AcDbLine
 10
21.69832867454533
 20
-2.599940026066156
 30
0.0
 11
21.83542192245559
 21
-2.689374315379778
 31
0.0
  0
LINE
  5
5F3
330
18
100
AcDbEntity
  8
1
 62
     1
100
AcDbLine
 10
21.83542192245559
 20
-2.689374315379778
 30
0.0
 11
21.97249310132645
 21
-2.771813579557103
 31
0.0
  0
LINE
  5
5F4
330
18
100
AcDbEntity
  8
1
 62
     1
100
AcDbLine
 10
21.97249310132645
 20
-2.771813579557103
 30
0.0
 11
22.10958841556571
 21
-2.847076575948011
 31
0.0
  0
LINE
  5
5F5
330
18
100
AcDbEntity
  8
1
 62
     1
100
AcDbLine
 10
22.10958841556571
 20
-2.847076575948011
 30
0.0
 11
22.24665766915528
 21
-2.914936248971696
 31
0.0
  0
LINE
  5
5F6
330
18
100
AcDbEntity
  8
1
 62
     1
100
AcDbLine
 10
22.24665766915528
 20
-2.914936248971696
 30
0.0
 11
22.38375424305512
 21
-2.975246387356854
 31
0.0
  0
LINE
  5
5F7
330
18
100
AcDbEntity
  8
1
 62
     1
100
AcDbLine
 10
22.38375424305512
 20
-2.975246387356854
 30
0.0
 11
22.52082243464585
 21
-3.027823428048148
 31
0.0
  0
LINE
  5
5F8
330
18
100
AcDbEntity
  8
1
 62
     1
100
AcDbLine
 10
22.52082243464585
 20
-3.027823428048148
 30
0.0
 11
22.65791949973602
 21
-3.072554546997178
 31
0.0
  0
LINE
  5
5F9
330
18
100
AcDbEntity
  8
1
 62
     1
100
AcDbLine
 10
22.65791949973602
 20
-3.072554546997178
 30
0.0
 11
22.79498743582254
 21
-3.109304104447474
 31
0.0
  0
LINE
  5
5FA
330
18
100
AcDbEntity
  8
1
 62
     1
100
AcDbLine
 10
22.79498743582254
 20
-3.109304104447474
 30
0.0
 11
22.9320842703339
 21
-3.137991939266268
 31
0.0
  0
LINE
  5
5FB
330
18
100
AcDbEntity
  8
1
 62
     1
100
AcDbLine
 10
22.9320842703339
 20
-3.137991939266268
 30
0.0
 11
23.06915270587896
 21
-3.158533006920128
 31
0.0
  0
LINE
  5
5FC
330
18
100
AcDbEntity
  8
1
 62
     1
100
AcDbLine
 10
23.06915270587896
 20
-3.158533006920128
 30
0.0
 11
23.20624863221195
 21
-3.170879997903667
 31
0.0
  0
LINE
  5
5FD
330
18
100
AcDbEntity
  8
1
 62
     1
100
AcDbLine
 10
23.20624863221195
 20
-3.170879997903667
 30
0.0
 11
23.34331343638016
 21
-3.174999999975661
 31
0.0
  0
LINE
  5
5FE
330
18
100
AcDbEntity
  8
1
 62
     1
100
AcDbLine
 10
21.15000000000001
 20
-1.301959485634459
 30
0.0
 11
21.5362190040609
 21
-1.702786688934542
 31
0.0
  0
LINE
  5
5FF
330
18
100
AcDbEntity
  8
1
 62
     1
100
AcDbLine
 10
21.5362190040609
 20
-1.702786688934542
 30
0.0
 11
21.92241370715598
 21
-2.068573035488483
 31
0.0
  0
LINE
  5
600
330
18
100
AcDbEntity
  8
1
 62
     1
100
AcDbLine
 10
21.92241370715598
 20
-2.068573035488483
 30
0.0
 11
22.11553309821781
 21
-2.235970114441955
 31
0.0
  0
LINE
  5
601
330
18
100
AcDbEntity
  8
1
 62
     1
100
AcDbLine
 10
22.11553309821781
 20
-2.235970114441955
 30
0.0
 11
22.30863076784982
 21
-2.391836799157836
 31
0.0
  0
LINE
  5
602
330
18
100
AcDbEntity
  8
1
 62
     1
100
AcDbLine
 10
22.30863076784982
 20
-2.391836799157836
 30
0.0
 11
22.50172746128435
 21
-2.535392724620191
 31
0.0
  0
LINE
  5
603
330
18
100
AcDbEntity
  8
1
 62
     1
100
AcDbLine
 10
22.50172746128435
 20
-2.535392724620191
 30
0.0
 11
22.69484647792397
 21
-2.665910580428876
 31
0.0
  0
LINE
  5
604
330
18
100
AcDbEntity
  8
1
 62
     1
100
AcDbLine
 10
22.69484647792397
 20
-2.665910580428876
 30
0.0
 11
22.88794530964252
 21
-2.782689229685793
 31
0.0
  0
LINE
  5
605
330
18
100
AcDbEntity
  8
1
 62
     1
100
AcDbLine
 10
22.88794530964252
 20
-2.782689229685793
 30
0.0
 11
23.08104082496423
 21
-2.885144329861005
 31
0.0
  0
LINE
  5
606
330
18
100
AcDbEntity
  8
1
 62
     1
100
AcDbLine
 10
23.08104082496423
 20
-2.885144329861005
 30
0.0
 11
23.27415906177422
 21
-2.972756651318947
 31
0.0
  0
LINE
  5
607
330
18
100
AcDbEntity
  8
1
 62
     1
100
AcDbLine
 10
23.27415906177422
 20
-2.972756651318947
 30
0.0
 11
23.37069737681575
 21
-3.010839645274439
 31
0.0
  0
LINE
  5
608
330
18
100
AcDbEntity
  8
1
 62
     1
100
AcDbLine
 10
23.37069737681575
 20
-3.010839645274439
 30
0.0
 11
23.46725942644248
 21
-3.045054858558827
 31
0.0
  0
LINE
  5
609
330
18
100
AcDbEntity
  8
1
 62
     1
100
AcDbLine
 10
23.46725942644248
 20
-3.045054858558827
 30
0.0
 11
23.56381502154786
 21
-3.075350056851897
 31
0.0
  0
LINE
  5
60A
330
18
100
AcDbEntity
  8
1
 62
     1
100
AcDbLine
 10
23.56381502154786
 20
-3.075350056851897
 30
0.0
 11
23.66035384919874
 21
-3.101678915879428
 31
0.0
  0
LINE
  5
60B
330
18
100
AcDbEntity
  8
1
 62
     1
100
AcDbLine
 10
23.66035384919874
 20
-3.101678915879428
 30
0.0
 11
23.75691631378475
 21
-3.124020439304436
 31
0.0
  0
LINE
  5
60C
330
18
100
AcDbEntity
  8
1
 62
     1
100
AcDbLine
 10
23.75691631378475
 20
-3.124020439304436
 30
0.0
 11
23.85347073667869
 21
-3.142340728432708
 31
0.0
  0
LINE
  5
60D
330
18
100
AcDbEntity
  8
1
 62
     1
100
AcDbLine
 10
23.85347073667869
 20
-3.142340728432708
 30
0.0
 11
23.95001024619293
 21
-3.156610543750557
 31
0.0
  0
LINE
  5
60E
330
18
100
AcDbEntity
  8
1
 62
     1
100
AcDbLine
 10
23.95001024619293
 20
-3.156610543750557
 30
0.0
 11
24.04657307735434
 21
-3.166819652169733
 31
0.0
  0
LINE
  5
60F
330
18
100
AcDbEntity
  8
1
 62
     1
100
AcDbLine
 10
24.04657307735434
 20
-3.166819652169733
 30
0.0
 11
24.14312618585036
 21
-3.172953215033467
 31
0.0
  0
LINE
  5
610
330
18
100
AcDbEntity
  8
1
 62
     1
100
AcDbLine
 10
24.14312618585036
 20
-3.172953215033467
 30
0.0
 11
24.23965348951203
 21
-3.174999997467346
 31
0.0
  0
LINE
  5
611
330
18
100
AcDbEntity
  8
1
 62
     1
100
AcDbLine
 10
24.23965348951203
 20
-3.174999997467346
 30
0.0
 11
24.23974508651798
 21
-3.174999999307479
 31
0.0
  0
ARC
  5
612
330
18
100
AcDbEntity
  8
1
 62
     1
100
AcDbCircle
 10
21.42265510352313
 20
-0.8739565118714645
 30
0.0
 40
2.301049554994517
100
AcDbArc
 50
263.1949455279824
 51
269.912585878348
  0
LINE
  5
613
330
18
100
AcDbEntity
  8
1
 62
     1
100
AcDbLine
 10
21.41914448370429
 20
-3.17499825694201
 30
0.0
 11
21.42196401672603
 21
-3.174999999978303
 31
0.0
  0
ARC
  5
614
330
18
100
AcDbEntity
  8
1
 62
     1
100
AcDbCircle
 10
23.37253688013005
 20
0.6413554566463038
 30
0.0
 40
2.534554021278745
100
AcDbArc
 50
90.66082898197158
 51
112.9878026761611
  0
LINE
  5
615
330
18
100
AcDbEntity
  8
1
 62
     1
100
AcDbLine
 10
23.34331343638103
 20
3.175
 30
0.0
 11
24.23974508632564
 21
3.175
 31
0.0
  0
LINE
  5
616
330
18
100
AcDbEntity
  8
1
 62
     1
100
AcDbLine
 10
40.20000000000001
 20
0.9928228304690405
 30
0.0
 11
39.65924212518753
 21
1.301829408866541
 31
0.0
  0
LINE
  5
617
330
18
100
AcDbEntity
  8
1
 62
     1
100
AcDbLine
 10
39.65924212518753
 20
1.301829408866541
 30
0.0
 11
39.3888631877813
 21
1.437383973865882
 31
0.0
  0
LINE
  5
618
330
18
100
AcDbEntity
  8
1
 62
     1
100
AcDbLine
 10
39.3888631877813
 20
1.437383973865882
 30
0.0
 11
39.11848425037505
 21
1.558437761314255
 31
0.0
  0
LINE
  5
619
330
18
100
AcDbEntity
  8
1
 62
     1
100
AcDbLine
 10
39.11848425037505
 20
1.558437761314255
 30
0.0
 11
38.8481053129688
 21
1.663769333294949
 31
0.0
  0
LINE
  5
61A
330
18
100
AcDbEntity
  8
1
 62
     1
100
AcDbLine
 10
38.8481053129688
 20
1.663769333294949
 30
0.0
 11
38.57772637556256
 21
1.752316072906658
 31
0.0
  0
LINE
  5
61B
330
18
100
AcDbEntity
  8
1
 62
     1
100
AcDbLine
 10
38.57772637556256
 20
1.752316072906658
 30
0.0
 11
38.30734743815633
 21
1.82318469841366
 31
0.0
  0
LINE
  5
61C
330
18
100
AcDbEntity
  8
1
 62
     1
100
AcDbLine
 10
38.30734743815633
 20
1.82318469841366
 30
0.0
 11
38.0369685007501
 21
1.875660258942816
 31
0.0
  0
LINE
  5
61D
330
18
100
AcDbEntity
  8
1
 62
     1
100
AcDbLine
 10
21.15
 20
0.5529919586710729
 30
0.0
 11
21.15
 21
0.9125283307588532
 31
0.0
  0
LINE
  5
61E
330
18
100
AcDbEntity
  8
1
 62
     1
100
AcDbLine
 10
21.15
 20
-1.301959485634455
 30
0.0
 11
21.15
 21
0.5529919586710729
 31
0.0
  0
LINE
  5
61F
330
18
100
AcDbEntity
  8
1
 62
     1
100
AcDbLine
 10
21.15000000000001
 20
-3.158796497152518
 30
0.0
 11
21.15000000000001
 21
-3.174999999999998
 31
0.0
  0
LINE
  5
620
330
18
100
AcDbEntity
  8
1
 62
     1
100
AcDbLine
 10
21.15
 20
-3.158796497152527
 30
0.0
 11
21.15
 21
-2.177356288944845
 31
0.0
  0
LINE
  5
621
330
18
100
AcDbEntity
  8
1
 62
     1
100
AcDbLine
 10
21.15
 20
-2.177356288944845
 30
0.0
 11
21.15
 21
-2.177352698207948
 31
0.0
  0
LINE
  5
622
330
18
100
AcDbEntity
  8
1
 62
     1
100
AcDbLine
 10
21.15000000000001
 20
-1.301959485634503
 30
0.0
 11
21.15000000000001
 21
-2.177352698207949
 31
0.0
  0
LINE
  5
623
330
18
100
AcDbEntity
  8
1
 62
     1
100
AcDbLine
 10
21.15
 20
1.856837011518091
 30
0.0
 11
21.15000000000001
 21
0.9125283307588588
 31
0.0
  0
LINE
  5
624
330
18
100
AcDbEntity
  8
1
 62
     1
100
AcDbLine
 10
21.15
 20
1.856837011518071
 30
0.0
 11
21.15
 21
1.87246719326295
 31
0.0
  0
LINE
  5
625
330
18
100
AcDbEntity
  8
1
 62
     1
100
AcDbLine
 10
21.15
 20
1.87246719326295
 30
0.0
 11
21.15
 21
3.08988102896681
 31
0.0
  0
LINE
  5
626
330
18
100
AcDbEntity
  8
1
 62
     1
100
AcDbLine
 10
21.15
 20
3.08988102896681
 30
0.0
 11
21.15
 21
3.089884675378311
 31
0.0
  0
LINE
  5
627
330
18
100
AcDbEntity
  8
1
 62
     1
100
AcDbLine
 10
21.15000000000001
 20
3.174999999999999
 30
0.0
 11
21.15
 21
3.174980805472154
 31
0.0
  0
LINE
  5
628
330
18
100
AcDbEntity
  8
1
 62
     1
100
AcDbLine
 10
21.15
 20
3.174980805472154
 30
0.0
 11
21.15000000000001
 21
3.169327756049428
 31
0.0
  0
LINE
  5
629
330
18
100
AcDbEntity
  8
1
 62
     1
100
AcDbLine
 10
21.15000000000001
 20
3.169327756049428
 30
0.0
 11
21.15
 21
3.089884675378312
 31
0.0
  0
LINE
  5
62A
330
18
100
AcDbEntity
  8
1
 62
     1
100
AcDbLine
 10
35.51086974265261
 20
-3.174999999988305
 30
0.0
 11
35.63094780218445
 21
-3.171837041336733
 31
0.0
  0
LINE
  5
62B
330
18
100
AcDbEntity
  8
1
 62
     1
100
AcDbLine
 10
35.63094780218445
 20
-3.171837041336733
 30
0.0
 11
35.75104729532629
 21
-3.162359358071795
 31
0.0
  0
LINE
  5
62C
330
18
100
AcDbEntity
  8
1
 62
     1
100
AcDbLine
 10
35.75104729532629
 20
-3.162359358071795
 30
0.0
 11
35.87111839251149
 21
-3.146586294478143
 31
0.0
  0
LINE
  5
62D
330
18
100
AcDbEntity
  8
1
 62
     1
100
AcDbLine
 10
35.87111839251149
 20
-3.146586294478143
 30
0.0
 11
35.99121742707678
 21
-3.124541773958947
 31
0.0
  0
LINE
  5
62E
330
18
100
AcDbEntity
  8
1
 62
     1
100
AcDbLine
 10
35.99121742707678
 20
-3.124541773958947
 30
0.0
 11
36.11129689761816
 21
-3.096281855183348
 31
0.0
  0
LINE
  5
62F
330
18
100
AcDbEntity
  8
1
 62
     1
100
AcDbLine
 10
36.11129689761816
 20
-3.096281855183348
 30
0.0
 11
36.23138428435762
 21
-3.061850098967824
 31
0.0
  0
LINE
  5
630
330
18
100
AcDbEntity
  8
1
 62
     1
100
AcDbLine
 10
36.23138428435762
 20
-3.061850098967824
 30
0.0
 11
36.35147949486971
 21
-3.021322015096788
 31
0.0
  0
LINE
  5
631
330
18
100
AcDbEntity
  8
1
 62
     1
100
AcDbLine
 10
36.35147949486971
 20
-3.021322015096788
 30
0.0
 11
36.47154584437457
 21
-2.974786524343196
 31
0.0
  0
LINE
  5
632
330
18
100
AcDbEntity
  8
1
 62
     1
100
AcDbLine
 10
34.61443781956869
 20
-3.174999999999998
 30
0.0
 11
35.5108697426526
 21
-3.174999999999998
 31
0.0
  0
LINE
  5
633
330
18
100
AcDbEntity
  8
1
 62
     1
100
AcDbLine
 10
38.32865093028442
 20
-3.174999999987629
 30
0.0
 11
38.44873367016866
 21
-3.171836623887685
 31
0.0
  0
LINE
  5
634
330
18
100
AcDbEntity
  8
1
 62
     1
100
AcDbLine
 10
38.44873367016866
 20
-3.171836623887685
 30
0.0
 11
38.56883049019931
 21
-3.162359491964747
 31
0.0
  0
LINE
  5
635
330
18
100
AcDbEntity
  8
1
 62
     1
100
AcDbLine
 10
38.56883049019931
 20
-3.162359491964747
 30
0.0
 11
38.68890127076952
 21
-3.146585706403945
 31
0.0
  0
LINE
  5
636
330
18
100
AcDbEntity
  8
1
 62
     1
100
AcDbLine
 10
38.68890127076952
 20
-3.146585706403945
 30
0.0
 11
38.80900082283162
 21
-3.1245415673387
 31
0.0
  0
LINE
  5
637
330
18
100
AcDbEntity
  8
1
 62
     1
100
AcDbLine
 10
38.80900082283162
 20
-3.1245415673387
 30
0.0
 11
38.92907556763781
 21
-3.096282350013282
 31
0.0
  0
LINE
  5
638
330
18
100
AcDbEntity
  8
1
 62
     1
100
AcDbLine
 10
38.92907556763781
 20
-3.096282350013282
 30
0.0
 11
39.04916659748864
 21
-3.061849748782296
 31
0.0
  0
LINE
  5
639
330
18
100
AcDbEntity
  8
1
 62
     1
100
AcDbLine
 10
39.04916659748864
 20
-3.061849748782296
 30
0.0
 11
39.16925753241084
 21
-3.02132342081894
 31
0.0
  0
LINE
  5
63A
330
18
100
AcDbEntity
  8
1
 62
     1
100
AcDbLine
 10
39.16925753241084
 20
-3.02132342081894
 30
0.0
 11
39.289325364272
 21
-2.974786918663411
 31
0.0
  0
LINE
  5
63B
330
18
100
AcDbEntity
  8
1
 62
     1
100
AcDbLine
 10
37.43221891029922
 20
-3.174999999999998
 30
0.0
 11
38.32865093028441
 21
-3.174999999999998
 31
0.0
  0
LINE
  5
63C
330
18
100
AcDbEntity
  8
1
 62
     1
100
AcDbLine
 10
27.05752622722199
 20
-3.17499999987593
 30
0.0
 11
27.1776097226936
 21
-3.171838375162971
 31
0.0
  0
LINE
  5
63D
330
18
100
AcDbEntity
  8
1
 62
     1
100
AcDbLine
 10
27.1776097226936
 20
-3.171838375162971
 30
0.0
 11
27.29769158424359
 21
-3.162361575563823
 31
0.0
  0
LINE
  5
63E
330
18
100
AcDbEntity
  8
1
 62
     1
100
AcDbLine
 10
27.29769158424359
 20
-3.162361575563823
 30
0.0
 11
27.41778057930256
 21
-3.146586234477844
 31
0.0
  0
LINE
  5
63F
330
18
100
AcDbEntity
  8
1
 62
     1
100
AcDbLine
 10
27.41778057930256
 20
-3.146586234477844
 30
0.0
 11
27.53786219130505
 21
-3.124545933167639
 31
0.0
  0
LINE
  5
640
330
18
100
AcDbEntity
  8
1
 62
     1
100
AcDbLine
 10
27.53786219130505
 20
-3.124545933167639
 30
0.0
 11
27.65794642287049
 21
-3.096283735352701
 31
0.0
  0
LINE
  5
641
330
18
100
AcDbEntity
  8
1
 62
     1
100
AcDbLine
 10
27.65794642287049
 20
-3.096283735352701
 30
0.0
 11
27.77803414446366
 21
-3.06185424383482
 31
0.0
  0
LINE
  5
642
330
18
100
AcDbEntity
  8
1
 62
     1
100
AcDbLine
 10
27.77803414446366
 20
-3.06185424383482
 30
0.0
 11
27.89811477011946
 21
-3.02132991425915
 31
0.0
  0
LINE
  5
643
330
18
100
AcDbEntity
  8
1
 62
     1
100
AcDbLine
 10
27.89811477011946
 20
-3.02132991425915
 30
0.0
 11
28.01820271753989
 21
-2.974786884711079
 31
0.0
  0
LINE
  5
644
330
18
100
AcDbEntity
  8
1
 62
     1
100
AcDbLine
 10
26.16109453571454
 20
-3.174999999999998
 30
0.0
 11
27.05752622722198
 21
-3.174999999999998
 31
0.0
  0
LINE
  5
645
330
18
100
AcDbEntity
  8
1
 62
     1
100
AcDbLine
 10
28.97887563264949
 20
-3.17499999988594
 30
0.0
 11
28.84679892708363
 21
-3.17117378821253
 31
0.0
  0
LINE
  5
646
330
18
100
AcDbEntity
  8
1
 62
     1
100
AcDbLine
 10
28.84679892708363
 20
-3.17117378821253
 30
0.0
 11
28.71470314685765
 21
-3.15971031936461
 31
0.0
  0
LINE
  5
647
330
18
100
AcDbEntity
  8
1
 62
     1
100
AcDbLine
 10
28.71470314685765
 20
-3.15971031936461
 30
0.0
 11
28.58263148863739
 21
-3.140634771006519
 31
0.0
  0
LINE
  5
648
330
18
100
AcDbEntity
  8
1
 62
     1
100
AcDbLine
 10
28.58263148863739
 20
-3.140634771006519
 30
0.0
 11
28.45053254973193
 21
-3.113990043800046
 31
0.0
  0
LINE
  5
649
330
18
100
AcDbEntity
  8
1
 62
     1
100
AcDbLine
 10
28.45053254973193
 20
-3.113990043800046
 30
0.0
 11
28.31846293418982
 21
-3.079849428974326
 31
0.0
  0
LINE
  5
64A
330
18
100
AcDbEntity
  8
1
 62
     1
100
AcDbLine
 10
28.31846293418982
 20
-3.079849428974326
 30
0.0
 11
28.18636390066034
 21
-3.038280238580385
 31
0.0
  0
LINE
  5
64B
330
18
100
AcDbEntity
  8
1
 62
     1
100
AcDbLine
 10
28.18636390066034
 20
-3.038280238580385
 30
0.0
 11
28.05429276647392
 21
-2.989402454683991
 31
0.0
  0
LINE
  5
64C
330
18
100
AcDbEntity
  8
1
 62
     1
100
AcDbLine
 10
28.05429276647392
 20
-2.989402454683991
 30
0.0
 11
27.92219659966301
 21
-2.933310541911466
 31
0.0
  0
LINE
  5
64D
330
18
100
AcDbEntity
  8
1
 62
     1
100
AcDbLine
 10
27.92219659966301
 20
-2.933310541911466
 30
0.0
 11
27.79012052113276
 21
-2.870164002348442
 31
0.0
  0
LINE
  5
64E
330
18
100
AcDbEntity
  8
1
 62
     1
100
AcDbLine
 10
27.79012052113276
 20
-2.870164002348442
 30
0.0
 11
27.65803008605033
 21
-2.800092054515645
 31
0.0
  0
LINE
  5
64F
330
18
100
AcDbEntity
  8
1
 62
     1
100
AcDbLine
 10
27.65803008605033
 20
-2.800092054515645
 30
0.0
 11
27.52594580965241
 21
-2.723281401549461
 31
0.0
  0
LINE
  5
650
330
18
100
AcDbEntity
  8
1
 62
     1
100
AcDbLine
 10
27.52594580965241
 20
-2.723281401549461
 30
0.0
 11
27.39386383481182
 21
-2.639907638302222
 31
0.0
  0
LINE
  5
651
330
18
100
AcDbEntity
  8
1
 62
     1
100
AcDbLine
 10
27.39386383481182
 20
-2.639907638302222
 30
0.0
 11
27.12969735382271
 21
-2.454299608328769
 31
0.0
  0
LINE
  5
652
330
18
100
AcDbEntity
  8
1
 62
     1
100
AcDbLine
 10
27.12969735382271
 20
-2.454299608328769
 30
0.0
 11
26.86553018172539
 21
-2.245054934601697
 31
0.0
  0
LINE
  5
653
330
18
100
AcDbEntity
  8
1
 62
     1
100
AcDbLine
 10
26.86553018172539
 20
-2.245054934601697
 30
0.0
 11
26.60136188638306
 21
-2.014188094021764
 31
0.0
  0
LINE
  5
654
330
18
100
AcDbEntity
  8
1
 62
     1
100
AcDbLine
 10
26.60136188638306
 20
-2.014188094021764
 30
0.0
 11
26.33719206383232
 21
-1.76392173525096
 31
0.0
  0
LINE
  5
655
330
18
100
AcDbEntity
  8
1
 62
     1
100
AcDbLine
 10
26.33719206383232
 20
-1.76392173525096
 30
0.0
 11
25.80884649475989
 21
-1.214992233458011
 31
0.0
  0
LINE
  5
656
330
18
100
AcDbEntity
  8
1
 62
     1
100
AcDbLine
 10
25.80884649475989
 20
-1.214992233458011
 30
0.0
 11
24.75220398634197
 21
-0.0000000000006894
 31
0.0
  0
LINE
  5
657
330
18
100
AcDbEntity
  8
1
 62
     1
100
AcDbLine
 10
29.87530738607926
 20
-3.174999999884669
 30
0.0
 11
29.78270132254302
 21
-3.173118418094269
 31
0.0
  0
LINE
  5
658
330
18
100
AcDbEntity
  8
1
 62
     1
100
AcDbLine
 10
29.78270132254302
 20
-3.173118418094269
 30
0.0
 11
29.69007240834554
 21
-3.167477562049068
 31
0.0
  0
LINE
  5
659
330
18
100
AcDbEntity
  8
1
 62
     1
100
AcDbLine
 10
29.69007240834554
 20
-3.167477562049068
 30
0.0
 11
29.59745213394892
 21
-3.158087235368323
 31
0.0
  0
LINE
  5
65A
330
18
100
AcDbEntity
  8
1
 62
     1
100
AcDbLine
 10
29.59745213394892
 20
-3.158087235368323
 30
0.0
 11
29.50484746802892
 21
-3.144955145291247
 31
0.0
  0
LINE
  5
65B
330
18
100
AcDbEntity
  8
1
 62
     1
100
AcDbLine
 10
29.50484746802892
 20
-3.144955145291247
 30
0.0
 11
29.41221967969402
 21
-3.12809362465048
 31
0.0
  0
LINE
  5
65C
330
18
100
AcDbEntity
  8
1
 62
     1
100
AcDbLine
 10
29.41221967969402
 20
-3.12809362465048
 30
0.0
 11
29.31959688824265
 21
-3.107529725136952
 31
0.0
  0
LINE
  5
65D
330
18
100
AcDbEntity
  8
1
 62
     1
100
AcDbLine
 10
29.31959688824265
 20
-3.107529725136952
 30
0.0
 11
29.22699340955748
 21
-3.083287221248189
 31
0.0
  0
LINE
  5
65E
330
18
100
AcDbEntity
  8
1
 62
     1
100
AcDbLine
 10
29.22699340955748
 20
-3.083287221248189
 30
0.0
 11
29.13436711285034
 21
-3.055385101875845
 31
0.0
  0
LINE
  5
65F
330
18
100
AcDbEntity
  8
1
 62
     1
100
AcDbLine
 10
29.13436711285034
 20
-3.055385101875845
 30
0.0
 11
28.94913912635281
 21
-2.988771529538472
 31
0.0
  0
LINE
  5
660
330
18
100
AcDbEntity
  8
1
 62
     1
100
AcDbLine
 10
28.94913912635281
 20
-2.988771529538472
 30
0.0
 11
28.76388817734107
 21
-2.907988234711776
 31
0.0
  0
LINE
  5
661
330
18
100
AcDbEntity
  8
1
 62
     1
100
AcDbLine
 10
28.76388817734107
 20
-2.907988234711776
 30
0.0
 11
28.57866227134184
 21
-2.81343952125368
 31
0.0
  0
LINE
  5
662
330
18
100
AcDbEntity
  8
1
 62
     1
100
AcDbLine
 10
28.57866227134184
 20
-2.81343952125368
 30
0.0
 11
28.39342983032971
 21
-2.705563364215986
 31
0.0
  0
LINE
  5
663
330
18
100
AcDbEntity
  8
1
 62
     1
100
AcDbLine
 10
28.39342983032971
 20
-2.705563364215986
 30
0.0
 11
28.20818134155915
 21
-2.584857425024356
 31
0.0
  0
LINE
  5
664
330
18
100
AcDbEntity
  8
1
 62
     1
100
AcDbLine
 10
28.20818134155915
 20
-2.584857425024356
 30
0.0
 11
28.02295756616134
 21
-2.451923471709907
 31
0.0
  0
LINE
  5
665
330
18
100
AcDbEntity
  8
1
 62
     1
100
AcDbLine
 10
28.02295756616134
 20
-2.451923471709907
 30
0.0
 11
27.8377195186281
 21
-2.30736643513858
 31
0.0
  0
LINE
  5
666
330
18
100
AcDbEntity
  8
1
 62
     1
100
AcDbLine
 10
27.8377195186281
 20
-2.30736643513858
 30
0.0
 11
27.46725277541799
 21
-1.986201117188765
 31
0.0
  0
LINE
  5
667
330
18
100
AcDbEntity
  8
1
 62
     1
100
AcDbLine
 10
27.46725277541799
 20
-1.986201117188765
 30
0.0
 11
27.09677146812685
 21
-1.627431872182028
 31
0.0
  0
LINE
  5
668
330
18
100
AcDbEntity
  8
1
 62
     1
100
AcDbLine
 10
27.09677146812685
 20
-1.627431872182028
 30
0.0
 11
26.7262998563385
 21
-1.237870984825673
 31
0.0
  0
LINE
  5
669
330
18
100
AcDbEntity
  8
1
 62
     1
100
AcDbLine
 10
26.7262998563385
 20
-1.237870984825673
 30
0.0
 11
25.9853645800448
 21
-0.3962875535425428
 31
0.0
  0
LINE
  5
66A
330
18
100
AcDbEntity
  8
1
 62
     1
100
AcDbLine
 10
25.9853645800448
 20
-0.3962875535425428
 30
0.0
 11
25.24451754402322
 21
0.4750509162883653
 31
0.0
  0
LINE
  5
66B
330
18
100
AcDbEntity
  8
1
 62
     1
100
AcDbLine
 10
25.24451754402322
 20
0.4750509162883653
 30
0.0
 11
24.59629160133865
 21
1.210304861285282
 31
0.0
  0
LINE
  5
66C
330
18
100
AcDbEntity
  8
1
 62
     1
100
AcDbLine
 10
24.59629160133865
 20
1.210304861285282
 30
0.0
 11
23.94806297115776
 21
1.875659881491384
 31
0.0
  0
LINE
  5
66D
330
18
100
AcDbEntity
  8
1
 62
     1
100
AcDbLine
 10
28.97887563264949
 20
-3.174999999999998
 30
0.0
 11
29.87530738607926
 21
-3.174999999999998
 31
0.0
  0
LINE
  5
66E
330
18
100
AcDbEntity
  8
1
 62
     1
100
AcDbLine
 10
32.69308855956911
 20
-3.174999999299605
 30
0.0
 11
32.81317140386782
 21
-3.171838393877237
 31
0.0
  0
LINE
  5
66F
330
18
100
AcDbEntity
  8
1
 62
     1
100
AcDbLine
 10
32.81317140386782
 20
-3.171838393877237
 30
0.0
 11
32.93325374603513
 21
-3.162361620762948
 31
0.0
  0
LINE
  5
670
330
18
100
AcDbEntity
  8
1
 62
     1
100
AcDbLine
 10
32.93325374603513
 20
-3.162361620762948
 30
0.0
 11
33.05334256361724
 21
-3.146586226466197
 31
0.0
  0
LINE
  5
671
330
18
100
AcDbEntity
  8
1
 62
     1
100
AcDbLine
 10
33.05334256361724
 20
-3.146586226466197
 30
0.0
 11
33.17342406847457
 21
-3.124546005956957
 31
0.0
  0
LINE
  5
672
330
18
100
AcDbEntity
  8
1
 62
     1
100
AcDbLine
 10
33.17342406847457
 20
-3.124546005956957
 30
0.0
 11
33.29350892287295
 21
-3.096283675882398
 31
0.0
  0
LINE
  5
673
330
18
100
AcDbEntity
  8
1
 62
     1
100
AcDbLine
 10
33.29350892287295
 20
-3.096283675882398
 30
0.0
 11
33.41359619579409
 21
-3.061854266316806
 31
0.0
  0
LINE
  5
674
330
18
100
AcDbEntity
  8
1
 62
     1
100
AcDbLine
 10
33.41359619579409
 20
-3.061854266316806
 30
0.0
 11
33.53367700375846
 21
-3.02132997275772
 31
0.0
  0
LINE
  5
675
330
18
100
AcDbEntity
  8
1
 62
     1
100
AcDbLine
 10
33.53367700375846
 20
-3.02132997275772
 30
0.0
 11
33.65376517097747
 21
-2.974786693975155
 31
0.0
  0
LINE
  5
676
330
18
100
AcDbEntity
  8
1
 62
     1
100
AcDbLine
 10
31.79665672721553
 20
-3.174999999999998
 30
0.0
 11
32.69308855956912
 21
-3.174999999999998
 31
0.0
  0
LINE
  5
677
330
18
100
AcDbEntity
  8
1
 62
     1
100
AcDbLine
 10
24.23974508651797
 20
-3.174999999307478
 30
0.0
 11
24.35982802635055
 21
-3.17183840161753
 31
0.0
  0
LINE
  5
678
330
18
100
AcDbEntity
  8
1
 62
     1
100
AcDbLine
 10
24.35982802635055
 20
-3.17183840161753
 30
0.0
 11
24.47990991962678
 21
-3.162361644756118
 31
0.0
  0
LINE
  5
679
330
18
100
AcDbEntity
  8
1
 62
     1
100
AcDbLine
 10
24.47990991962678
 20
-3.162361644756118
 30
0.0
 11
24.5999988216094
 21
-3.146586332485521
 31
0.0
  0
LINE
  5
67A
330
18
100
AcDbEntity
  8
1
 62
     1
100
AcDbLine
 10
24.5999988216094
 20
-3.146586332485521
 30
0.0
 11
24.7200801113279
 21
-3.124546151166494
 31
0.0
  0
LINE
  5
67B
330
18
100
AcDbEntity
  8
1
 62
     1
100
AcDbLine
 10
24.7200801113279
 20
-3.124546151166494
 30
0.0
 11
24.8401645908857
 21
-3.096283937031956
 31
0.0
  0
LINE
  5
67C
330
18
100
AcDbEntity
  8
1
 62
     1
100
AcDbLine
 10
24.8401645908857
 20
-3.096283937031956
 30
0.0
 11
24.9602517917972
 21
-3.061854606600968
 31
0.0
  0
LINE
  5
67D
330
18
100
AcDbEntity
  8
1
 62
     1
100
AcDbLine
 10
24.9602517917972
 20
-3.061854606600968
 30
0.0
 11
25.0803322968213
 21
-3.021330409689176
 31
0.0
  0
LINE
  5
67E
330
18
100
AcDbEntity
  8
1
 62
     1
100
AcDbLine
 10
25.0803322968213
 20
-3.021330409689176
 30
0.0
 11
25.20042046214342
 21
-2.974787389959161
 31
0.0
  0
LINE
  5
67F
330
18
100
AcDbEntity
  8
1
 62
     1
100
AcDbLine
 10
23.34331343638018
 20
-3.174999999999998
 30
0.0
 11
24.23974508651798
 21
-3.174999999999998
 31
0.0
  0
LINE
  5
680
330
18
100
AcDbEntity
  8
1
 62
     1
100
AcDbLine
 10
21.42196401672603
 20
-3.174999999978303
 30
0.0
 11
21.54204622185133
 21
-3.171838433483339
 31
0.0
  0
LINE
  5
681
330
18
100
AcDbEntity
  8
1
 62
     1
100
AcDbLine
 10
21.54204622185133
 20
-3.171838433483339
 30
0.0
 11
21.66212857022126
 21
-3.162361690018234
 31
0.0
  0
LINE
  5
682
330
18
100
AcDbEntity
  8
1
 62
     1
100
AcDbLine
 10
21.66212857022126
 20
-3.162361690018234
 30
0.0
 11
21.78221753369952
 21
-3.146586346188372
 31
0.0
  0
LINE
  5
683
330
18
100
AcDbEntity
  8
1
 62
     1
100
AcDbLine
 10
21.78221753369952
 20
-3.146586346188372
 30
0.0
 11
21.90229868905272
 21
-3.124546237540699
 31
0.0
  0
LINE
  5
684
330
18
100
AcDbEntity
  8
1
 62
     1
100
AcDbLine
 10
21.90229868905272
 20
-3.124546237540699
 30
0.0
 11
22.02238397738454
 21
-3.096283827543632
 31
0.0
  0
LINE
  5
685
330
18
100
AcDbEntity
  8
1
 62
     1
100
AcDbLine
 10
22.02238397738454
 20
-3.096283827543632
 30
0.0
 11
22.14247059321186
 21
-3.06185459695289
 31
0.0
  0
LINE
  5
686
330
18
100
AcDbEntity
  8
1
 62
     1
100
AcDbLine
 10
22.14247059321186
 20
-3.06185459695289
 30
0.0
 11
22.26255130285613
 21
-3.021330385164879
 31
0.0
  0
LINE
  5
687
330
18
100
AcDbEntity
  8
1
 62
     1
100
AcDbLine
 10
22.26255130285613
 20
-3.021330385164879
 30
0.0
 11
22.3826400216335
 21
-2.974787135672219
 31
0.0
  0
LINE
  5
688
330
18
100
AcDbEntity
  8
1
 62
     1
100
AcDbLine
 10
21.15
 20
-3.174999999999998
 30
0.0
 11
21.42196401672602
 21
-3.174999999999998
 31
0.0
  0
LINE
  5
689
330
18
100
AcDbEntity
  8
1
 62
     1
100
AcDbLine
 10
27.56998508448735
 20
-0.0000000000004333
 30
0.0
 11
28.62673091521204
 21
-1.215104071201413
 31
0.0
  0
LINE
  5
68A
330
18
100
AcDbEntity
  8
1
 62
     1
100
AcDbLine
 10
28.62673091521204
 20
-1.215104071201413
 30
0.0
 11
29.15509626828322
 21
-1.764041462069005
 31
0.0
  0
LINE
  5
68B
330
18
100
AcDbEntity
  8
1
 62
     1
100
AcDbLine
 10
29.15509626828322
 20
-1.764041462069005
 30
0.0
 11
29.41927889390314
 21
-2.014311334530293
 31
0.0
  0
LINE
  5
68C
330
18
100
AcDbEntity
  8
1
 62
     1
100
AcDbLine
 10
29.41927889390314
 20
-2.014311334530293
 30
0.0
 11
29.68346211594844
 21
-2.24518065905329
 31
0.0
  0
LINE
  5
68D
330
18
100
AcDbEntity
  8
1
 62
     1
100
AcDbLine
 10
29.68346211594844
 20
-2.24518065905329
 30
0.0
 11
29.94764220700809
 21
-2.454423439441702
 31
0.0
  0
LINE
  5
68E
330
18
100
AcDbEntity
  8
1
 62
     1
100
AcDbLine
 10
29.94764220700809
 20
-2.454423439441702
 30
0.0
 11
30.21179087822069
 21
-2.640004969225739
 31
0.0
  0
LINE
  5
68F
330
18
100
AcDbEntity
  8
1
 62
     1
100
AcDbLine
 10
30.21179087822069
 20
-2.640004969225739
 30
0.0
 11
30.34386032022472
 21
-2.723361971946912
 31
0.0
  0
LINE
  5
690
330
18
100
AcDbEntity
  8
1
 62
     1
100
AcDbLine
 10
30.34386032022472
 20
-2.723361971946912
 30
0.0
 11
30.47593189181294
 21
-2.800161172899507
 31
0.0
  0
LINE
  5
691
330
18
100
AcDbEntity
  8
1
 62
     1
100
AcDbLine
 10
30.47593189181294
 20
-2.800161172899507
 30
0.0
 11
30.60800834425469
 21
-2.870217827398322
 31
0.0
  0
LINE
  5
692
330
18
100
AcDbEntity
  8
1
 62
     1
100
AcDbLine
 10
30.60800834425469
 20
-2.870217827398322
 30
0.0
 11
30.74007850817311
 21
-2.933357603914475
 31
0.0
  0
LINE
  5
693
330
18
100
AcDbEntity
  8
1
 62
     1
100
AcDbLine
 10
30.74007850817311
 20
-2.933357603914475
 30
0.0
 11
30.87214874212346
 21
-2.989432648874948
 31
0.0
  0
LINE
  5
694
330
18
100
AcDbEntity
  8
1
 62
     1
100
AcDbLine
 10
30.87214874212346
 20
-2.989432648874948
 30
0.0
 11
31.00422524120211
 21
-3.038309278464058
 31
0.0
  0
LINE
  5
695
330
18
100
AcDbEntity
  8
1
 62
     1
100
AcDbLine
 10
31.00422524120211
 20
-3.038309278464058
 30
0.0
 11
31.13629662293177
 21
-3.07986526025584
 31
0.0
  0
LINE
  5
696
330
18
100
AcDbEntity
  8
1
 62
     1
100
AcDbLine
 10
31.13629662293177
 20
-3.07986526025584
 30
0.0
 11
31.26836608373993
 21
-3.11400296338623
 31
0.0
  0
LINE
  5
697
330
18
100
AcDbEntity
  8
1
 62
     1
100
AcDbLine
 10
31.26836608373993
 20
-3.11400296338623
 30
0.0
 11
31.40044135235183
 21
-3.140641493366228
 31
0.0
  0
LINE
  5
698
330
18
100
AcDbEntity
  8
1
 62
     1
100
AcDbLine
 10
31.40044135235183
 20
-3.140641493366228
 30
0.0
 11
31.5325145687873
 21
-3.159714013548174
 31
0.0
  0
LINE
  5
699
330
18
100
AcDbEntity
  8
1
 62
     1
100
AcDbLine
 10
31.5325145687873
 20
-3.159714013548174
 30
0.0
 11
31.66458371505267
 21
-3.171175813109738
 31
0.0
  0
LINE
  5
69A
330
18
100
AcDbEntity
  8
1
 62
     1
100
AcDbLine
 10
31.66458371505267
 20
-3.171175813109738
 30
0.0
 11
31.79665672721552
 21
-3.174999999973123
 31
0.0
  0
LINE
  5
69B
330
18
100
AcDbEntity
  8
1
 62
     1
100
AcDbLine
 10
39.28932536209679
 20
2.974786921537548
 30
0.0
 11
39.40600000000002
 21
3.020090599348092
 31
0.0
  0
LINE
  5
69C
330
18
100
AcDbEntity
  8
1
 62
     1
100
AcDbLine
 10
27.56998508448785
 20
-0.0000000000000041
 30
0.0
 11
26.66450456213269
 21
0.6353149157122392
 31
0.0
  0
LINE
  5
69D
330
18
100
AcDbEntity
  8
1
 62
     1
100
AcDbLine
 10
26.66450456213269
 20
0.6353149157122392
 30
0.0
 11
26.21176430095512
 21
0.9304785822718158
 31
0.0
  0
LINE
  5
69E
330
18
100
AcDbEntity
  8
1
 62
     1
100
AcDbLine
 10
26.21176430095512
 20
0.9304785822718158
 30
0.0
 11
25.75902403977753
 21
1.199362798206484
 31
0.0
  0
LINE
  5
69F
330
18
100
AcDbEntity
  8
1
 62
     1
100
AcDbLine
 10
25.75902403977753
 20
1.199362798206484
 30
0.0
 11
25.30628377859995
 21
1.434372839922339
 31
0.0
  0
LINE
  5
6A0
330
18
100
AcDbEntity
  8
1
 62
     1
100
AcDbLine
 10
25.30628377859995
 20
1.434372839922339
 30
0.0
 11
25.07991364801116
 21
1.537057940923926
 31
0.0
  0
LINE
  5
6A1
330
18
100
AcDbEntity
  8
1
 62
     1
100
AcDbLine
 10
25.07991364801116
 20
1.537057940923926
 30
0.0
 11
24.85354351742237
 21
1.628871143908385
 31
0.0
  0
LINE
  5
6A2
330
18
100
AcDbEntity
  8
1
 62
     1
100
AcDbLine
 10
24.85354351742237
 20
1.628871143908385
 30
0.0
 11
24.62717338683358
 21
1.709163061116096
 31
0.0
  0
LINE
  5
6A3
330
18
100
AcDbEntity
  8
1
 62
     1
100
AcDbLine
 10
24.62717338683358
 20
1.709163061116096
 30
0.0
 11
24.4008032562448
 21
1.777365417087413
 31
0.0
  0
LINE
  5
6A4
330
18
100
AcDbEntity
  8
1
 62
     1
100
AcDbLine
 10
24.4008032562448
 20
1.777365417087413
 30
0.0
 11
24.174433125656
 21
1.832995387381502
 31
0.0
  0
LINE
  5
6A5
330
18
100
AcDbEntity
  8
1
 62
     1
100
AcDbLine
 10
24.174433125656
 20
1.832995387381502
 30
0.0
 11
23.94806299506721
 21
1.875659906605075
 31
0.0
  0
LINE
  5
6A6
330
18
100
AcDbEntity
  8
1
 62
     1
100
AcDbLine
 10
23.94806297115776
 20
1.875659881491384
 30
0.0
 11
23.63230274111623
 21
2.162688053832915
 31
0.0
  0
LINE
  5
6A7
330
18
100
AcDbEntity
  8
1
 62
     1
100
AcDbLine
 10
23.63230274111623
 20
2.162688053832915
 30
0.0
 11
23.31654134161949
 21
2.419969791284335
 31
0.0
  0
LINE
  5
6A8
330
18
100
AcDbEntity
  8
1
 62
     1
100
AcDbLine
 10
23.31654134161949
 20
2.419969791284335
 30
0.0
 11
23.15865676807665
 21
2.536334322232249
 31
0.0
  0
LINE
  5
6A9
330
18
100
AcDbEntity
  8
1
 62
     1
100
AcDbLine
 10
23.15865676807665
 20
2.536334322232249
 30
0.0
 11
23.00077449967494
 21
2.643967941849763
 31
0.0
  0
LINE
  5
6AA
330
18
100
AcDbEntity
  8
1
 62
     1
100
AcDbLine
 10
23.00077449967494
 20
2.643967941849763
 30
0.0
 11
22.84289392914024
 21
2.742499893825559
 31
0.0
  0
LINE
  5
6AB
330
18
100
AcDbEntity
  8
1
 62
     1
100
AcDbLine
 10
22.84289392914024
 20
2.742499893825559
 30
0.0
 11
22.68501463840494
 21
2.831592857669085
 31
0.0
  0
LINE
  5
6AC
330
18
100
AcDbEntity
  8
1
 62
     1
100
AcDbLine
 10
22.68501463840494
 20
2.831592857669085
 30
0.0
 11
22.52713438629421
 21
2.910940724766832
 31
0.0
  0
LINE
  5
6AD
330
18
100
AcDbEntity
  8
1
 62
     1
100
AcDbLine
 10
22.52713438629421
 20
2.910940724766832
 30
0.0
 11
22.36925248928617
 21
2.980271026392799
 31
0.0
  0
LINE
  5
6AE
330
18
100
AcDbEntity
  8
1
 62
     1
100
AcDbLine
 10
22.36925248928617
 20
2.980271026392799
 30
0.0
 11
22.21136799797913
 21
3.039344353823579
 31
0.0
  0
LINE
  5
6AF
330
18
100
AcDbEntity
  8
1
 62
     1
100
AcDbLine
 10
22.21136799797913
 20
3.039344353823579
 30
0.0
 11
22.05348600865698
 21
3.087955743709061
 31
0.0
  0
LINE
  5
6B0
330
18
100
AcDbEntity
  8
1
 62
     1
100
AcDbLine
 10
22.05348600865698
 20
3.087955743709061
 30
0.0
 11
21.89560619842207
 21
3.125938743396664
 31
0.0
  0
LINE
  5
6B1
330
18
100
AcDbEntity
  8
1
 62
     1
100
AcDbLine
 10
21.89560619842207
 20
3.125938743396664
 30
0.0
 11
21.73772660798859
 21
3.153163289777079
 31
0.0
  0
LINE
  5
6B2
330
18
100
AcDbEntity
  8
1
 62
     1
100
AcDbLine
 10
21.73772660798859
 20
3.153163289777079
 30
0.0
 11
21.57984683712614
 21
3.169535919066064
 31
0.0
  0
LINE
  5
6B3
330
18
100
AcDbEntity
  8
1
 62
     1
100
AcDbLine
 10
21.57984683712614
 20
3.169535919066064
 30
0.0
 11
21.42196401671967
 21
3.175
 31
0.0
  0
ARC
  5
6B4
330
18
100
AcDbEntity
  8
1
 62
     1
100
AcDbCircle
 10
29.84609924433989
 20
-0.6414333804993331
 30
0.0
 40
2.534476215263324
100
AcDbArc
 50
270.6605033011132
 51
292.988165374131
  0
LINE
  5
6B5
330
18
100
AcDbEntity
  8
1
 62
     1
100
AcDbLine
 10
24.75220398634197
 20
-0.0000000000006894
 30
0.0
 11
23.85165865114493
 21
1.042875949664376
 31
0.0
  0
LINE
  5
6B6
330
18
100
AcDbEntity
  8
1
 62
     1
100
AcDbLine
 10
23.85165865114493
 20
1.042875949664376
 30
0.0
 11
23.40137177176398
 21
1.527806096866919
 31
0.0
  0
LINE
  5
6B7
330
18
100
AcDbEntity
  8
1
 62
     1
100
AcDbLine
 10
23.40137177176398
 20
1.527806096866919
 30
0.0
 11
22.95110881247928
 21
1.970030045529247
 31
0.0
  0
LINE
  5
6B8
330
18
100
AcDbEntity
  8
1
 62
     1
100
AcDbLine
 10
22.95110881247928
 20
1.970030045529247
 30
0.0
 11
22.72596362070646
 21
2.171232342185279
 31
0.0
  0
LINE
  5
6B9
330
18
100
AcDbEntity
  8
1
 62
     1
100
AcDbLine
 10
22.72596362070646
 20
2.171232342185279
 30
0.0
 11
22.50081797731516
 21
2.357241355601523
 31
0.0
  0
LINE
  5
6BA
330
18
100
AcDbEntity
  8
1
 62
     1
100
AcDbLine
 10
22.50081797731516
 20
2.357241355601523
 30
0.0
 11
22.27568497325755
 21
2.526747271555761
 31
0.0
  0
LINE
  5
6BB
330
18
100
AcDbEntity
  8
1
 62
     1
100
AcDbLine
 10
22.27568497325755
 20
2.526747271555761
 30
0.0
 11
22.0505552378508
 21
2.678574329634703
 31
0.0
  0
LINE
  5
6BC
330
18
100
AcDbEntity
  8
1
 62
     1
100
AcDbLine
 10
22.0505552378508
 20
2.678574329634703
 30
0.0
 11
21.82541960381797
 21
2.811666131506972
 31
0.0
  0
LINE
  5
6BD
330
18
100
AcDbEntity
  8
1
 62
     1
100
AcDbLine
 10
21.82541960381797
 20
2.811666131506972
 30
0.0
 11
21.71284229762188
 21
2.87089075395378
 31
0.0
  0
LINE
  5
6BE
330
18
100
AcDbEntity
  8
1
 62
     1
100
AcDbLine
 10
21.71284229762188
 20
2.87089075395378
 30
0.0
 11
21.60027107382697
 21
2.925091441726598
 31
0.0
  0
LINE
  5
6BF
330
18
100
AcDbEntity
  8
1
 62
     1
100
AcDbLine
 10
21.60027107382697
 20
2.925091441726598
 30
0.0
 11
21.48771237338715
 21
2.974164625354591
 31
0.0
  0
LINE
  5
6C0
330
18
100
AcDbEntity
  8
1
 62
     1
100
AcDbLine
 10
21.48771237338715
 20
2.974164625354591
 30
0.0
 11
21.37513084107541
 21
3.018044448127882
 31
0.0
  0
LINE
  5
6C1
330
18
100
AcDbEntity
  8
1
 62
     1
100
AcDbLine
 10
21.37513084107541
 20
3.018044448127882
 30
0.0
 11
21.2625728699164
 21
3.056635111266608
 31
0.0
  0
LINE
  5
6C2
330
18
100
AcDbEntity
  8
1
 62
     1
100
AcDbLine
 10
21.2625728699164
 20
3.056635111266608
 30
0.0
 11
21.15
 21
3.089881028966809
 31
0.0
  0
LINE
  5
6C3
330
18
100
AcDbEntity
  8
1
 62
     1
100
AcDbLine
 10
24.75220398634244
 20
-0.0000000000001708
 30
0.0
 11
23.85165298975684
 21
0.6319866779336667
 31
0.0
  0
LINE
  5
6C4
330
18
100
AcDbEntity
  8
1
 62
     1
100
AcDbLine
 10
23.85165298975684
 20
0.6319866779336667
 30
0.0
 11
23.40137749146404
 21
0.9258471458580733
 31
0.0
  0
LINE
  5
6C5
330
18
100
AcDbEntity
  8
1
 62
     1
100
AcDbLine
 10
23.40137749146404
 20
0.9258471458580733
 30
0.0
 11
22.95110199317122
 21
1.193842378939841
 31
0.0
  0
LINE
  5
6C6
330
18
100
AcDbEntity
  8
1
 62
     1
100
AcDbLine
 10
22.95110199317122
 20
1.193842378939841
 30
0.0
 11
22.50082649487842
 21
1.428484302836961
 31
0.0
  0
LINE
  5
6C7
330
18
100
AcDbEntity
  8
1
 62
     1
100
AcDbLine
 10
22.50082649487842
 20
1.428484302836961
 30
0.0
 11
22.27568874573203
 21
1.531207767241492
 31
0.0
  0
LINE
  5
6C8
330
18
100
AcDbEntity
  8
1
 62
     1
100
AcDbLine
 10
22.27568874573203
 20
1.531207767241492
 30
0.0
 11
22.05055099658562
 21
1.623218316960336
 31
0.0
  0
LINE
  5
6C9
330
18
100
AcDbEntity
  8
1
 62
     1
100
AcDbLine
 10
22.05055099658562
 20
1.623218316960336
 30
0.0
 11
21.82541324743922
 21
1.703872048318803
 31
0.0
  0
LINE
  5
6CA
330
18
100
AcDbEntity
  8
1
 62
     1
100
AcDbLine
 10
21.82541324743922
 20
1.703872048318803
 30
0.0
 11
21.60027549829282
 21
1.772604146674563
 31
0.0
  0
LINE
  5
6CB
330
18
100
AcDbEntity
  8
1
 62
     1
100
AcDbLine
 10
21.60027549829282
 20
1.772604146674563
 30
0.0
 11
21.37513774914641
 21
1.82893381472995
 31
0.0
  0
LINE
  5
6CC
330
18
100
AcDbEntity
  8
1
 62
     1
100
AcDbLine
 10
21.37513774914641
 20
1.82893381472995
 30
0.0
 11
21.15000000000001
 21
1.872467193262949
 31
0.0
  0
LINE
  5
6CD
330
18
100
AcDbEntity
  8
1
 62
     1
100
AcDbLine
 10
38.03696833331326
 20
1.875660083071681
 30
0.0
 11
38.37922584418658
 21
1.535541240659042
 31
0.0
  0
LINE
  5
6CE
330
18
100
AcDbEntity
  8
1
 62
     1
100
AcDbLine
 10
38.37922584418658
 20
1.535541240659042
 30
0.0
 11
39.40600000000001
 21
0.3902149242115698
 31
0.0
  0
ARC
  5
6CF
330
18
100
AcDbEntity
  8
1
 62
     1
100
AcDbCircle
 10
106.5087962877894
 20
57.17549924728467
 30
0.0
 40
88.58864809299686
100
AcDbArc
 50
220.1959839858495
 51
220.7586676806606
  0
LINE
  5
6D0
330
18
100
AcDbEntity
  8
1
 62
     1
100
AcDbLine
 10
21.93442288777454
 20
-0.0000000000023239
 30
0.0
 11
22.99112785787155
 21
-1.21506031201747
 31
0.0
  0
LINE
  5
6D1
330
18
100
AcDbEntity
  8
1
 62
     1
100
AcDbLine
 10
22.99112785787155
 20
-1.21506031201747
 30
0.0
 11
23.51945889806628
 21
-1.763968847461434
 31
0.0
  0
LINE
  5
6D2
330
18
100
AcDbEntity
  8
1
 62
     1
100
AcDbLine
 10
23.51945889806628
 20
-1.763968847461434
 30
0.0
 11
23.7836202814584
 21
-2.014224733672398
 31
0.0
  0
LINE
  5
6D3
330
18
100
AcDbEntity
  8
1
 62
     1
100
AcDbLine
 10
23.7836202814584
 20
-2.014224733672398
 30
0.0
 11
24.04778647351696
 21
-2.245086905051016
 31
0.0
  0
LINE
  5
6D4
330
18
100
AcDbEntity
  8
1
 62
     1
100
AcDbLine
 10
24.04778647351696
 20
-2.245086905051016
 30
0.0
 11
24.3119537730443
 21
-2.454329165803774
 31
0.0
  0
LINE
  5
6D5
330
18
100
AcDbEntity
  8
1
 62
     1
100
AcDbLine
 10
24.3119537730443
 20
-2.454329165803774
 30
0.0
 11
24.57611438858544
 21
-2.639930084880352
 31
0.0
  0
LINE
  5
6D6
330
18
100
AcDbEntity
  8
1
 62
     1
100
AcDbLine
 10
24.57611438858544
 20
-2.639930084880352
 30
0.0
 11
24.70820036607828
 21
-2.723303001677973
 31
0.0
  0
LINE
  5
6D7
330
18
100
AcDbEntity
  8
1
 62
     1
100
AcDbLine
 10
24.70820036607828
 20
-2.723303001677973
 30
0.0
 11
24.84028278367433
 21
-2.800112553200488
 31
0.0
  0
LINE
  5
6D8
330
18
100
AcDbEntity
  8
1
 62
     1
100
AcDbLine
 10
24.84028278367433
 20
-2.800112553200488
 30
0.0
 11
24.97236200553466
 21
-2.87017523878851
 31
0.0
  0
LINE
  5
6D9
330
18
100
AcDbEntity
  8
1
 62
     1
100
AcDbLine
 10
24.97236200553466
 20
-2.87017523878851
 30
0.0
 11
25.10444614167524
 21
-2.933326341518824
 31
0.0
  0
LINE
  5
6DA
330
18
100
AcDbEntity
  8
1
 62
     1
100
AcDbLine
 10
25.10444614167524
 20
-2.933326341518824
 30
0.0
 11
25.2365306205311
 21
-2.989410268086341
 31
0.0
  0
LINE
  5
6DB
330
18
100
AcDbEntity
  8
1
 62
     1
100
AcDbLine
 10
25.2365306205311
 20
-2.989410268086341
 30
0.0
 11
25.36860986954532
 21
-3.0382907516376
 31
0.0
  0
LINE
  5
6DC
330
18
100
AcDbEntity
  8
1
 62
     1
100
AcDbLine
 10
25.36860986954532
 20
-3.0382907516376
 30
0.0
 11
25.50069194323079
 21
-3.079853458723079
 31
0.0
  0
LINE
  5
6DD
330
18
100
AcDbEntity
  8
1
 62
     1
100
AcDbLine
 10
25.50069194323079
 20
-3.079853458723079
 30
0.0
 11
25.63277804493941
 21
-3.113997078999165
 31
0.0
  0
LINE
  5
6DE
330
18
100
AcDbEntity
  8
1
 62
     1
100
AcDbLine
 10
25.63277804493941
 20
-3.113997078999165
 30
0.0
 11
25.76485783576538
 21
-3.140637367952851
 31
0.0
  0
LINE
  5
6DF
330
18
100
AcDbEntity
  8
1
 62
     1
100
AcDbLine
 10
25.76485783576538
 20
-3.140637367952851
 30
0.0
 11
25.89693841291145
 21
-3.159712627643815
 31
0.0
  0
LINE
  5
6E0
330
18
100
AcDbEntity
  8
1
 62
     1
100
AcDbLine
 10
25.89693841291145
 20
-3.159712627643815
 30
0.0
 11
26.02902487338494
 21
-3.17117627108936
 31
0.0
  0
LINE
  5
6E1
330
18
100
AcDbEntity
  8
1
 62
     1
100
AcDbLine
 10
26.02902487338494
 20
-3.17117627108936
 30
0.0
 11
26.16109453571453
 21
-3.174999999988029
 31
0.0
  0
LINE
  5
6E2
330
18
100
AcDbEntity
  8
1
 62
     1
100
AcDbLine
 10
38.84110945441419
 20
-0.0000000000001026
 30
0.0
 11
37.93562894175367
 21
0.6353148389499375
 31
0.0
  0
LINE
  5
6E3
330
18
100
AcDbEntity
  8
1
 62
     1
100
AcDbLine
 10
37.93562894175367
 20
0.6353148389499375
 30
0.0
 11
37.48288868542341
 21
0.9304787313226853
 31
0.0
  0
LINE
  5
6E4
330
18
100
AcDbEntity
  8
1
 62
     1
100
AcDbLine
 10
37.48288868542341
 20
0.9304787313226853
 30
0.0
 11
37.03014842909315
 21
1.199362610593371
 31
0.0
  0
LINE
  5
6E5
330
18
100
AcDbEntity
  8
1
 62
     1
100
AcDbLine
 10
37.03014842909315
 20
1.199362610593371
 30
0.0
 11
36.57740817276288
 21
1.434373031248144
 31
0.0
  0
LINE
  5
6E6
330
18
100
AcDbEntity
  8
1
 62
     1
100
AcDbLine
 10
36.57740817276288
 20
1.434373031248144
 30
0.0
 11
36.35103804459775
 21
1.537058166166966
 31
0.0
  0
LINE
  5
6E7
330
18
100
AcDbEntity
  8
1
 62
     1
100
AcDbLine
 10
36.35103804459775
 20
1.537058166166966
 30
0.0
 11
36.12466791643262
 21
1.628871121518125
 31
0.0
  0
LINE
  5
6E8
330
18
100
AcDbEntity
  8
1
 62
     1
100
AcDbLine
 10
36.12466791643262
 20
1.628871121518125
 30
0.0
 11
35.89829778826748
 21
1.709162782817786
 31
0.0
  0
LINE
  5
6E9
330
18
100
AcDbEntity
  8
1
 62
     1
100
AcDbLine
 10
35.89829778826748
 20
1.709162782817786
 30
0.0
 11
35.67192766010236
 21
1.777365225333907
 31
0.0
  0
LINE
  5
6EA
330
18
100
AcDbEntity
  8
1
 62
     1
100
AcDbLine
 10
35.67192766010236
 20
1.777365225333907
 30
0.0
 11
35.44555753193723
 21
1.832995640789642
 31
0.0
  0
LINE
  5
6EB
330
18
100
AcDbEntity
  8
1
 62
     1
100
AcDbLine
 10
35.44555753193723
 20
1.832995640789642
 30
0.0
 11
35.21918740377209
 21
1.875660173260411
 31
0.0
  0
ARC
  5
6EC
330
18
100
AcDbEntity
  8
1
 62
     1
100
AcDbCircle
 10
34.64365375791625
 20
0.6413923447683074
 30
0.0
 40
2.534517862744386
100
AcDbArc
 50
90.66066889454498
 51
112.9879986625319
  0
ARC
  5
6ED
330
18
100
AcDbEntity
  8
1
 62
     1
100
AcDbCircle
 10
-8.956983253283205
 20
-42.95239849184805
 30
0.0
 40
52.90729115239257
100
AcDbArc
 50
54.27627547377702
 51
55.3156498261457
  0
LINE
  5
6EE
330
18
100
AcDbEntity
  8
1
 62
     1
100
AcDbLine
 10
35.21918725767365
 20
1.875660019802707
 30
0.0
 11
35.74250507246646
 21
1.34521245032842
 31
0.0
  0
LINE
  5
6EF
330
18
100
AcDbEntity
  8
1
 62
     1
100
AcDbLine
 10
35.74250507246646
 20
1.34521245032842
 30
0.0
 11
36.78914762992488
 21
0.1540564476672961
 31
0.0
  0
LINE
  5
6F0
330
18
100
AcDbEntity
  8
1
 62
     1
100
AcDbLine
 10
36.78914762992488
 20
0.1540564476672961
 30
0.0
 11
37.83590774685266
 21
-1.060246853576428
 31
0.0
  0
LINE
  5
6F1
330
18
100
AcDbEntity
  8
1
 62
     1
100
AcDbLine
 10
37.83590774685266
 20
-1.060246853576428
 30
0.0
 11
38.2284660678159
 21
-1.484046691209728
 31
0.0
  0
LINE
  5
6F2
330
18
100
AcDbEntity
  8
1
 62
     1
100
AcDbLine
 10
38.2284660678159
 20
-1.484046691209728
 30
0.0
 11
38.6210232667787
 21
-1.876316867855057
 31
0.0
  0
LINE
  5
6F3
330
18
100
AcDbEntity
  8
1
 62
     1
100
AcDbLine
 10
38.6210232667787
 20
-1.876316867855057
 30
0.0
 11
39.01351472961071
 21
-2.228667004681619
 31
0.0
  0
LINE
  5
6F4
330
18
100
AcDbEntity
  8
1
 62
     1
100
AcDbLine
 10
39.01351472961071
 20
-2.228667004681619
 30
0.0
 11
39.20975970209416
 21
-2.387521098232267
 31
0.0
  0
LINE
  5
6F5
330
18
100
AcDbEntity
  8
1
 62
     1
100
AcDbLine
 10
39.20975970209416
 20
-2.387521098232267
 30
0.0
 11
39.40600000000001
 21
-2.533677612738322
 31
0.0
  0
LINE
  5
6F6
330
18
100
AcDbEntity
  8
1
 62
     1
100
AcDbLine
 10
36.02332836513457
 20
-0.000000000001358
 30
0.0
 11
36.86900806779185
 21
-0.9815164212533793
 31
0.0
  0
LINE
  5
6F7
330
18
100
AcDbEntity
  8
1
 62
     1
100
AcDbLine
 10
36.86900806779185
 20
-0.9815164212533793
 30
0.0
 11
37.29183502720639
 21
-1.441949979023933
 31
0.0
  0
LINE
  5
6F8
330
18
100
AcDbEntity
  8
1
 62
     1
100
AcDbLine
 10
37.29183502720639
 20
-1.441949979023933
 30
0.0
 11
37.71468520337694
 21
-1.866874636208482
 31
0.0
  0
LINE
  5
6F9
330
18
100
AcDbEntity
  8
1
 62
     1
100
AcDbLine
 10
37.71468520337694
 20
-1.866874636208482
 30
0.0
 11
38.13750890736143
 21
-2.245767498556004
 31
0.0
  0
LINE
  5
6FA
330
18
100
AcDbEntity
  8
1
 62
     1
100
AcDbLine
 10
38.13750890736143
 20
-2.245767498556004
 30
0.0
 11
38.34893089193058
 21
-2.415003798060501
 31
0.0
  0
LINE
  5
6FB
330
18
100
AcDbEntity
  8
1
 62
     1
100
AcDbLine
 10
38.34893089193058
 20
-2.415003798060501
 30
0.0
 11
38.56036013481028
 21
-2.569341436791763
 31
0.0
  0
LINE
  5
6FC
330
18
100
AcDbEntity
  8
1
 62
     1
100
AcDbLine
 10
38.56036013481028
 20
-2.569341436791763
 30
0.0
 11
38.77177193858864
 21
-2.707812832678316
 31
0.0
  0
LINE
  5
6FD
330
18
100
AcDbEntity
  8
1
 62
     1
100
AcDbLine
 10
38.77177193858864
 20
-2.707812832678316
 30
0.0
 11
38.98318226624956
 21
-2.829578338537476
 31
0.0
  0
LINE
  5
6FE
330
18
100
AcDbEntity
  8
1
 62
     1
100
AcDbLine
 10
38.98318226624956
 20
-2.829578338537476
 30
0.0
 11
39.19460781327682
 21
-2.933893212315617
 31
0.0
  0
LINE
  5
6FF
330
18
100
AcDbEntity
  8
1
 62
     1
100
AcDbLine
 10
39.19460781327682
 20
-2.933893212315617
 30
0.0
 11
39.30030393848924
 21
-2.979289471488968
 31
0.0
  0
LINE
  5
700
330
18
100
AcDbEntity
  8
1
 62
     1
100
AcDbLine
 10
39.30030393848924
 20
-2.979289471488968
 30
0.0
 11
39.40600000000001
 21
-3.020090599348082
 31
0.0
  0
LINE
  5
701
330
18
100
AcDbEntity
  8
1
 62
     1
100
AcDbLine
 10
36.02332836513524
 20
-0.0000000000004977
 30
0.0
 11
35.11784785000902
 21
0.6353148645705667
 31
0.0
  0
LINE
  5
702
330
18
100
AcDbEntity
  8
1
 62
     1
100
AcDbLine
 10
35.11784785000902
 20
0.6353148645705667
 30
0.0
 11
34.66510759244591
 21
0.930478685974891
 31
0.0
  0
LINE
  5
703
330
18
100
AcDbEntity
  8
1
 62
     1
100
AcDbLine
 10
34.66510759244591
 20
0.930478685974891
 30
0.0
 11
34.2123673348828
 21
1.199362644361421
 31
0.0
  0
LINE
  5
704
330
18
100
AcDbEntity
  8
1
 62
     1
100
AcDbLine
 10
34.2123673348828
 20
1.199362644361421
 30
0.0
 11
33.75962707731968
 21
1.43437300459258
 31
0.0
  0
LINE
  5
705
330
18
100
AcDbEntity
  8
1
 62
     1
100
AcDbLine
 10
33.75962707731968
 20
1.43437300459258
 30
0.0
 11
33.53325694853815
 21
1.537058096334847
 31
0.0
  0
LINE
  5
706
330
18
100
AcDbEntity
  8
1
 62
     1
100
AcDbLine
 10
33.53325694853815
 20
1.537058096334847
 30
0.0
 11
33.30688681975658
 21
1.628871099203522
 31
0.0
  0
LINE
  5
707
330
18
100
AcDbEntity
  8
1
 62
     1
100
AcDbLine
 10
33.30688681975658
 20
1.628871099203522
 30
0.0
 11
33.08051669097504
 21
1.709162836888653
 31
0.0
  0
LINE
  5
708
330
18
100
AcDbEntity
  8
1
 62
     1
100
AcDbLine
 10
33.08051669097504
 20
1.709162836888653
 30
0.0
 11
32.85414656219349
 21
1.777365301460992
 31
0.0
  0
LINE
  5
709
330
18
100
AcDbEntity
  8
1
 62
     1
100
AcDbLine
 10
32.85414656219349
 20
1.777365301460992
 30
0.0
 11
32.62777643341192
 21
1.832995604130666
 31
0.0
  0
LINE
  5
70A
330
18
100
AcDbEntity
  8
1
 62
     1
100
AcDbLine
 10
32.62777643341192
 20
1.832995604130666
 30
0.0
 11
32.40140630463038
 21
1.875660089833926
 31
0.0
  0
ARC
  5
70B
330
18
100
AcDbEntity
  8
1
 62
     1
100
AcDbCircle
 10
31.82587145493116
 20
0.6413983078171825
 30
0.0
 40
2.534511833010484
100
AcDbArc
 50
90.66064307633965
 51
112.9880137338744
  0
LINE
  5
70C
330
18
100
AcDbEntity
  8
1
 62
     1
100
AcDbLine
 10
32.40140627633417
 20
1.875660060112761
 30
0.0
 11
32.77183778820841
 21
1.50635996169068
 31
0.0
  0
LINE
  5
70D
330
18
100
AcDbEntity
  8
1
 62
     1
100
AcDbLine
 10
32.77183778820841
 20
1.50635996169068
 30
0.0
 11
33.51270219921641
 21
0.6897752631025614
 31
0.0
  0
LINE
  5
70E
330
18
100
AcDbEntity
  8
1
 62
     1
100
AcDbLine
 10
33.51270219921641
 20
0.6897752631025614
 30
0.0
 11
34.99455835169999
 21
-1.033993491753203
 31
0.0
  0
LINE
  5
70F
330
18
100
AcDbEntity
  8
1
 62
     1
100
AcDbLine
 10
34.99455835169999
 20
-1.033993491753203
 30
0.0
 11
35.3650367079273
 21
-1.4362192897751
 31
0.0
  0
LINE
  5
710
330
18
100
AcDbEntity
  8
1
 62
     1
100
AcDbLine
 10
35.3650367079273
 20
-1.4362192897751
 30
0.0
 11
35.73546762248144
 21
-1.811216165475424
 31
0.0
  0
LINE
  5
711
330
18
100
AcDbEntity
  8
1
 62
     1
100
AcDbLine
 10
35.73546762248144
 20
-1.811216165475424
 30
0.0
 11
36.10589840128907
 21
-2.151940920553996
 31
0.0
  0
LINE
  5
712
330
18
100
AcDbEntity
  8
1
 62
     1
100
AcDbLine
 10
36.10589840128907
 20
-2.151940920553996
 30
0.0
 11
36.29111393951648
 21
-2.307407638215301
 31
0.0
  0
LINE
  5
713
330
18
100
AcDbEntity
  8
1
 62
     1
100
AcDbLine
 10
36.29111393951648
 20
-2.307407638215301
 30
0.0
 11
36.47632926195262
 21
-2.451946276003088
 31
0.0
  0
LINE
  5
714
330
18
100
AcDbEntity
  8
1
 62
     1
100
AcDbLine
 10
36.47632926195262
 20
-2.451946276003088
 30
0.0
 11
36.66154477750568
 21
-2.584872035718161
 31
0.0
  0
LINE
  5
715
330
18
100
AcDbEntity
  8
1
 62
     1
100
AcDbLine
 10
36.66154477750568
 20
-2.584872035718161
 30
0.0
 11
36.84676037557293
 21
-2.705555452208564
 31
0.0
  0
LINE
  5
716
330
18
100
AcDbEntity
  8
1
 62
     1
100
AcDbLine
 10
36.84676037557293
 20
-2.705555452208564
 30
0.0
 11
37.03197570929574
 21
-2.813425094195092
 31
0.0
  0
LINE
  5
717
330
18
100
AcDbEntity
  8
1
 62
     1
100
AcDbLine
 10
37.03197570929574
 20
-2.813425094195092
 30
0.0
 11
37.2171913881022
 21
-2.907969803017883
 31
0.0
  0
LINE
  5
718
330
18
100
AcDbEntity
  8
1
 62
     1
100
AcDbLine
 10
37.2171913881022
 20
-2.907969803017883
 30
0.0
 11
37.40240709517775
 21
-2.988741946136195
 31
0.0
  0
LINE
  5
719
330
18
100
AcDbEntity
  8
1
 62
     1
100
AcDbLine
 10
37.40240709517775
 20
-2.988741946136195
 30
0.0
 11
37.58762250290434
 21
-3.055359039168724
 31
0.0
  0
LINE
  5
71A
330
18
100
AcDbEntity
  8
1
 62
     1
100
AcDbLine
 10
37.58762250290434
 20
-3.055359039168724
 30
0.0
 11
37.68023467179773
 21
-3.083259023983055
 31
0.0
  0
LINE
  5
71B
330
18
100
AcDbEntity
  8
1
 62
     1
100
AcDbLine
 10
37.68023467179773
 20
-3.083259023983055
 30
0.0
 11
37.77283837728264
 21
-3.107505360135682
 31
0.0
  0
LINE
  5
71C
330
18
100
AcDbEntity
  8
1
 62
     1
100
AcDbLine
 10
37.77283837728264
 20
-3.107505360135682
 30
0.0
 11
37.86544985028711
 21
-3.128072682731915
 31
0.0
  0
LINE
  5
71D
330
18
100
AcDbEntity
  8
1
 62
     1
100
AcDbLine
 10
37.86544985028711
 20
-3.128072682731915
 30
0.0
 11
37.95805421723252
 21
-3.144934060396235
 31
0.0
  0
LINE
  5
71E
330
18
100
AcDbEntity
  8
1
 62
     1
100
AcDbLine
 10
37.95805421723252
 20
-3.144934060396235
 30
0.0
 11
38.05066530447112
 21
-3.158071262529747
 31
0.0
  0
LINE
  5
71F
330
18
100
AcDbEntity
  8
1
 62
     1
100
AcDbLine
 10
38.05066530447112
 20
-3.158071262529747
 30
0.0
 11
38.14326975630777
 21
-3.16746785828388
 31
0.0
  0
LINE
  5
720
330
18
100
AcDbEntity
  8
1
 62
     1
100
AcDbLine
 10
38.14326975630777
 20
-3.16746785828388
 30
0.0
 11
38.23588074671031
 21
-3.173112770552138
 31
0.0
  0
LINE
  5
721
330
18
100
AcDbEntity
  8
1
 62
     1
100
AcDbLine
 10
38.23588074671031
 20
-3.173112770552138
 30
0.0
 11
38.32848534642051
 21
-3.174999993988283
 31
0.0
  0
LINE
  5
722
330
18
100
AcDbEntity
  8
1
 62
     1
100
AcDbLine
 10
38.32848534642051
 20
-3.174999993988283
 30
0.0
 11
38.32865093028442
 21
-3.174999999987629
 31
0.0
  0
LINE
  5
723
330
18
100
AcDbEntity
  8
1
 62
     1
100
AcDbLine
 10
29.58362517575923
 20
1.875659985762411
 30
0.0
 11
29.95386058650868
 21
1.506563679472835
 31
0.0
  0
LINE
  5
724
330
18
100
AcDbEntity
  8
1
 62
     1
100
AcDbLine
 10
29.95386058650868
 20
1.506563679472835
 30
0.0
 11
30.69433264436499
 21
0.6904529156138663
 31
0.0
  0
LINE
  5
725
330
18
100
AcDbEntity
  8
1
 62
     1
100
AcDbLine
 10
30.69433264436499
 20
0.6904529156138663
 30
0.0
 11
32.17531438299275
 21
-1.032361374047991
 31
0.0
  0
LINE
  5
726
330
18
100
AcDbEntity
  8
1
 62
     1
100
AcDbLine
 10
32.17531438299275
 20
-1.032361374047991
 30
0.0
 11
32.54555086283976
 21
-1.434425295682741
 31
0.0
  0
LINE
  5
727
330
18
100
AcDbEntity
  8
1
 62
     1
100
AcDbLine
 10
32.54555086283976
 20
-1.434425295682741
 30
0.0
 11
32.91578778175523
 21
-1.809375664960669
 31
0.0
  0
LINE
  5
728
330
18
100
AcDbEntity
  8
1
 62
     1
100
AcDbLine
 10
32.91578778175523
 20
-1.809375664960669
 30
0.0
 11
33.28602407558017
 21
-2.150124655318019
 31
0.0
  0
LINE
  5
729
330
18
100
AcDbEntity
  8
1
 62
     1
100
AcDbLine
 10
33.28602407558017
 20
-2.150124655318019
 30
0.0
 11
33.47114246478305
 21
-2.305631640054181
 31
0.0
  0
LINE
  5
72A
330
18
100
AcDbEntity
  8
1
 62
     1
100
AcDbLine
 10
33.47114246478305
 20
-2.305631640054181
 30
0.0
 11
33.65626017864147
 21
-2.450230490379623
 31
0.0
  0
LINE
  5
72B
330
18
100
AcDbEntity
  8
1
 62
     1
100
AcDbLine
 10
33.65626017864147
 20
-2.450230490379623
 30
0.0
 11
33.84137794522117
 21
-2.58323669396855
 31
0.0
  0
LINE
  5
72C
330
18
100
AcDbEntity
  8
1
 62
     1
100
AcDbLine
 10
33.84137794522117
 20
-2.58323669396855
 30
0.0
 11
34.02649594992898
 21
-2.704020957029892
 31
0.0
  0
LINE
  5
72D
330
18
100
AcDbEntity
  8
1
 62
     1
100
AcDbLine
 10
34.02649594992898
 20
-2.704020957029892
 30
0.0
 11
34.21161333979379
 21
-2.812012242868241
 31
0.0
  0
LINE
  5
72E
330
18
100
AcDbEntity
  8
1
 62
     1
100
AcDbLine
 10
34.21161333979379
 20
-2.812012242868241
 30
0.0
 11
34.39673086343545
 21
-2.906699328273246
 31
0.0
  0
LINE
  5
72F
330
18
100
AcDbEntity
  8
1
 62
     1
100
AcDbLine
 10
34.39673086343545
 20
-2.906699328273246
 30
0.0
 11
34.58184855655052
 21
-2.987634292046911
 31
0.0
  0
LINE
  5
730
330
18
100
AcDbEntity
  8
1
 62
     1
100
AcDbLine
 10
34.58184855655052
 20
-2.987634292046911
 30
0.0
 11
34.76696573686738
 21
-3.054434425472214
 31
0.0
  0
LINE
  5
731
330
18
100
AcDbEntity
  8
1
 62
     1
100
AcDbLine
 10
34.76696573686738
 20
-3.054434425472214
 30
0.0
 11
34.85952067837038
 21
-3.082431465649476
 31
0.0
  0
LINE
  5
732
330
18
100
AcDbEntity
  8
1
 62
     1
100
AcDbLine
 10
34.85952067837038
 20
-3.082431465649476
 30
0.0
 11
34.95208310880368
 21
-3.106783518506444
 31
0.0
  0
LINE
  5
733
330
18
100
AcDbEntity
  8
1
 62
     1
100
AcDbLine
 10
34.95208310880368
 20
-3.106783518506444
 30
0.0
 11
35.04463805756046
 21
-3.127458401734977
 31
0.0
  0
LINE
  5
734
330
18
100
AcDbEntity
  8
1
 62
     1
100
AcDbLine
 10
35.04463805756046
 20
-3.127458401734977
 30
0.0
 11
35.1372005538006
 21
-3.144433984465231
 31
0.0
  0
LINE
  5
735
330
18
100
AcDbEntity
  8
1
 62
     1
100
AcDbLine
 10
35.1372005538006
 20
-3.144433984465231
 30
0.0
 11
35.22975593252363
 21
-3.157688775764256
 31
0.0
  0
LINE
  5
736
330
18
100
AcDbEntity
  8
1
 62
     1
100
AcDbLine
 10
35.22975593252363
 20
-3.157688775764256
 30
0.0
 11
35.32231761219833
 21
-3.167207733994757
 31
0.0
  0
LINE
  5
737
330
18
100
AcDbEntity
  8
1
 62
     1
100
AcDbLine
 10
35.32231761219833
 20
-3.167207733994757
 30
0.0
 11
35.41487355192884
 21
-3.172979669504178
 31
0.0
  0
LINE
  5
738
330
18
100
AcDbEntity
  8
1
 62
     1
100
AcDbLine
 10
35.41487355192884
 20
-3.172979669504178
 30
0.0
 11
35.50742280145001
 21
-3.174997394866556
 31
0.0
  0
LINE
  5
739
330
18
100
AcDbEntity
  8
1
 62
     1
100
AcDbLine
 10
35.50742280145001
 20
-3.174997394866556
 30
0.0
 11
35.51086974265261
 21
-3.174999999988305
 31
0.0
  0
LINE
  5
73A
330
18
100
AcDbEntity
  8
1
 62
     1
100
AcDbLine
 10
30.38776618022493
 20
-0.0000000000004672
 30
0.0
 11
31.44446001485642
 21
-1.215047384245067
 31
0.0
  0
LINE
  5
73B
330
18
100
AcDbEntity
  8
1
 62
     1
100
AcDbLine
 10
31.44446001485642
 20
-1.215047384245067
 30
0.0
 11
31.97279940402606
 21
-1.763964970343309
 31
0.0
  0
LINE
  5
73C
330
18
100
AcDbEntity
  8
1
 62
     1
100
AcDbLine
 10
31.97279940402606
 20
-1.763964970343309
 30
0.0
 11
32.23696905624721
 21
-2.014228388516942
 31
0.0
  0
LINE
  5
73D
330
18
100
AcDbEntity
  8
1
 62
     1
100
AcDbLine
 10
32.23696905624721
 20
-2.014228388516942
 30
0.0
 11
32.50113931125317
 21
-2.245093967721901
 31
0.0
  0
LINE
  5
73E
330
18
100
AcDbEntity
  8
1
 62
     1
100
AcDbLine
 10
32.50113931125317
 20
-2.245093967721901
 30
0.0
 11
32.76531060535714
 21
-2.454338456506818
 31
0.0
  0
LINE
  5
73F
330
18
100
AcDbEntity
  8
1
 62
     1
100
AcDbLine
 10
32.76531060535714
 20
-2.454338456506818
 30
0.0
 11
33.02948334657689
 21
-2.63994658056097
 31
0.0
  0
LINE
  5
740
330
18
100
AcDbEntity
  8
1
 62
     1
100
AcDbLine
 10
33.02948334657689
 20
-2.63994658056097
 30
0.0
 11
33.16158065450783
 21
-2.723323702797923
 31
0.0
  0
LINE
  5
741
330
18
100
AcDbEntity
  8
1
 62
     1
100
AcDbLine
 10
33.16158065450783
 20
-2.723323702797923
 30
0.0
 11
33.29365791519245
 21
-2.800130443793683
 31
0.0
  0
LINE
  5
742
330
18
100
AcDbEntity
  8
1
 62
     1
100
AcDbLine
 10
33.29365791519245
 20
-2.800130443793683
 30
0.0
 11
33.42574993773402
 21
-2.870196009203834
 31
0.0
  0
LINE
  5
743
330
18
100
AcDbEntity
  8
1
 62
     1
100
AcDbLine
 10
33.42574993773402
 20
-2.870196009203834
 30
0.0
 11
33.55783466256052
 21
-2.933346752836436
 31
0.0
  0
LINE
  5
744
330
18
100
AcDbEntity
  8
1
 62
     1
100
AcDbLine
 10
33.55783466256052
 20
-2.933346752836436
 30
0.0
 11
33.68991895205209
 21
-2.989426349430997
 31
0.0
  0
LINE
  5
745
330
18
100
AcDbEntity
  8
1
 62
     1
100
AcDbLine
 10
33.68991895205209
 20
-2.989426349430997
 30
0.0
 11
33.82201113377365
 21
-3.038310818472695
 31
0.0
  0
LINE
  5
746
330
18
100
AcDbEntity
  8
1
 62
     1
100
AcDbLine
 10
33.82201113377365
 20
-3.038310818472695
 30
0.0
 11
33.95408810464466
 21
-3.079866671047458
 31
0.0
  0
LINE
  5
747
330
18
100
AcDbEntity
  8
1
 62
     1
100
AcDbLine
 10
33.95408810464466
 20
-3.079866671047458
 30
0.0
 11
34.08618521018913
 21
-3.114011400843153
 31
0.0
  0
LINE
  5
748
330
18
100
AcDbEntity
  8
1
 62
     1
100
AcDbLine
 10
34.08618521018913
 20
-3.114011400843153
 30
0.0
 11
34.21825026236919
 21
-3.140645874514423
 31
0.0
  0
LINE
  5
749
330
18
100
AcDbEntity
  8
1
 62
     1
100
AcDbLine
 10
34.21825026236919
 20
-3.140645874514423
 30
0.0
 11
34.35031445332584
 21
-3.159716421612261
 31
0.0
  0
LINE
  5
74A
330
18
100
AcDbEntity
  8
1
 62
     1
100
AcDbLine
 10
34.35031445332584
 20
-3.159716421612261
 30
0.0
 11
34.48238446546144
 21
-3.17117720760988
 31
0.0
  0
LINE
  5
74B
330
18
100
AcDbEntity
  8
1
 62
     1
100
AcDbLine
 10
34.48238446546144
 20
-3.17117720760988
 30
0.0
 11
34.61443781956869
 21
-3.174999999309935
 31
0.0
  0
LINE
  5
74C
330
18
100
AcDbEntity
  8
1
 62
     1
100
AcDbLine
 10
30.3877661802255
 20
-0.0000000000000019
 30
0.0
 11
29.48228566014912
 21
0.6353149066947733
 31
0.0
  0
LINE
  5
74D
330
18
100
AcDbEntity
  8
1
 62
     1
100
AcDbLine
 10
29.48228566014912
 20
0.6353149066947733
 30
0.0
 11
29.02954540011093
 21
0.9304786091956131
 31
0.0
  0
LINE
  5
74E
330
18
100
AcDbEntity
  8
1
 62
     1
100
AcDbLine
 10
29.02954540011093
 20
0.9304786091956131
 30
0.0
 11
28.57680514007274
 21
1.199362741408134
 31
0.0
  0
LINE
  5
74F
330
18
100
AcDbEntity
  8
1
 62
     1
100
AcDbLine
 10
28.57680514007274
 20
1.199362741408134
 30
0.0
 11
28.12406488003454
 21
1.434372902452238
 31
0.0
  0
LINE
  5
750
330
18
100
AcDbEntity
  8
1
 62
     1
100
AcDbLine
 10
28.12406488003454
 20
1.434372902452238
 30
0.0
 11
27.89769475001544
 21
1.53705798022218
 31
0.0
  0
LINE
  5
751
330
18
100
AcDbEntity
  8
1
 62
     1
100
AcDbLine
 10
27.89769475001544
 20
1.53705798022218
 30
0.0
 11
27.67132461999635
 21
1.628871110707951
 31
0.0
  0
LINE
  5
752
330
18
100
AcDbEntity
  8
1
 62
     1
100
AcDbLine
 10
27.67132461999635
 20
1.628871110707951
 30
0.0
 11
27.44495448997725
 21
1.709162980780098
 31
0.0
  0
LINE
  5
753
330
18
100
AcDbEntity
  8
1
 62
     1
100
AcDbLine
 10
27.44495448997725
 20
1.709162980780098
 30
0.0
 11
27.21858435995816
 21
1.777365406879787
 31
0.0
  0
LINE
  5
754
330
18
100
AcDbEntity
  8
1
 62
     1
100
AcDbLine
 10
27.21858435995816
 20
1.777365406879787
 30
0.0
 11
26.99221422993906
 21
1.832995468967882
 31
0.0
  0
LINE
  5
755
330
18
100
AcDbEntity
  8
1
 62
     1
100
AcDbLine
 10
26.99221422993906
 20
1.832995468967882
 30
0.0
 11
26.76584409991996
 21
1.875659952356064
 31
0.0
  0
ARC
  5
756
330
18
100
AcDbEntity
  8
1
 62
     1
100
AcDbCircle
 10
26.19030875746871
 20
0.6414005200469566
 30
0.0
 40
2.534509585607956
100
AcDbArc
 50
90.66063221267548
 51
112.9880205916132
  0
LINE
  5
757
330
18
100
AcDbEntity
  8
1
 62
     1
100
AcDbLine
 10
26.76584407323765
 20
1.875659924329903
 30
0.0
 11
27.13629720866216
 21
1.506337587165832
 31
0.0
  0
LINE
  5
758
330
18
100
AcDbEntity
  8
1
 62
     1
100
AcDbLine
 10
27.13629720866216
 20
1.506337587165832
 30
0.0
 11
27.87720445197846
 21
0.6897008288908608
 31
0.0
  0
LINE
  5
759
330
18
100
AcDbEntity
  8
1
 62
     1
100
AcDbLine
 10
27.87720445197846
 20
0.6897008288908608
 30
0.0
 11
29.35901567463704
 21
-1.034015139350943
 31
0.0
  0
LINE
  5
75A
330
18
100
AcDbEntity
  8
1
 62
     1
100
AcDbLine
 10
29.35901567463704
 20
-1.034015139350943
 30
0.0
 11
29.72946840360898
 21
-1.436212796350505
 31
0.0
  0
LINE
  5
75B
330
18
100
AcDbEntity
  8
1
 62
     1
100
AcDbLine
 10
29.72946840360898
 20
-1.436212796350505
 30
0.0
 11
30.0999207772547
 21
-1.811231046850749
 31
0.0
  0
LINE
  5
75C
330
18
100
AcDbEntity
  8
1
 62
     1
100
AcDbLine
 10
30.0999207772547
 20
-1.811231046850749
 30
0.0
 11
30.47037299632992
 21
-2.151972915888614
 31
0.0
  0
LINE
  5
75D
330
18
100
AcDbEntity
  8
1
 62
     1
100
AcDbLine
 10
30.47037299632992
 20
-2.151972915888614
 30
0.0
 11
30.65559934892487
 21
-2.307446186209845
 31
0.0
  0
LINE
  5
75E
330
18
100
AcDbEntity
  8
1
 62
     1
100
AcDbLine
 10
30.65559934892487
 20
-2.307446186209845
 30
0.0
 11
30.84082541719499
 21
-2.451989971180917
 31
0.0
  0
LINE
  5
75F
330
18
100
AcDbEntity
  8
1
 62
     1
100
AcDbLine
 10
30.84082541719499
 20
-2.451989971180917
 30
0.0
 11
31.02605156985365
 21
-2.584919376921778
 31
0.0
  0
LINE
  5
760
330
18
100
AcDbEntity
  8
1
 62
     1
100
AcDbLine
 10
31.02605156985365
 20
-2.584919376921778
 30
0.0
 11
31.21127801031015
 21
-2.705604688711946
 31
0.0
  0
LINE
  5
761
330
18
100
AcDbEntity
  8
1
 62
     1
100
AcDbLine
 10
31.21127801031015
 20
-2.705604688711946
 30
0.0
 11
31.39650406576258
 21
-2.813474568302661
 31
0.0
  0
LINE
  5
762
330
18
100
AcDbEntity
  8
1
 62
     1
100
AcDbLine
 10
31.39650406576258
 20
-2.813474568302661
 30
0.0
 11
31.58173035677699
 21
-2.908017772606456
 31
0.0
  0
LINE
  5
763
330
18
100
AcDbEntity
  8
1
 62
     1
100
AcDbLine
 10
31.58173035677699
 20
-2.908017772606456
 30
0.0
 11
31.76695692764612
 21
-2.988786499515825
 31
0.0
  0
LINE
  5
764
330
18
100
AcDbEntity
  8
1
 62
     1
100
AcDbLine
 10
31.76695692764612
 20
-2.988786499515825
 30
0.0
 11
31.95218303807613
 21
-3.055398380786368
 31
0.0
  0
LINE
  5
765
330
18
100
AcDbEntity
  8
1
 62
     1
100
AcDbLine
 10
31.95218303807613
 20
-3.055398380786368
 30
0.0
 11
32.04480059120322
 21
-3.08329512211057
 31
0.0
  0
LINE
  5
766
330
18
100
AcDbEntity
  8
1
 62
     1
100
AcDbLine
 10
32.04480059120322
 20
-3.08329512211057
 30
0.0
 11
32.13740950362145
 21
-3.107537646006743
 31
0.0
  0
LINE
  5
767
330
18
100
AcDbEntity
  8
1
 62
     1
100
AcDbLine
 10
32.13740950362145
 20
-3.107537646006743
 30
0.0
 11
32.23002661643415
 21
-3.128100758456777
 31
0.0
  0
LINE
  5
768
330
18
100
AcDbEntity
  8
1
 62
     1
100
AcDbLine
 10
32.23002661643415
 20
-3.128100758456777
 30
0.0
 11
32.32263622341743
 21
-3.144957383435638
 31
0.0
  0
LINE
  5
769
330
18
100
AcDbEntity
  8
1
 62
     1
100
AcDbLine
 10
32.32263622341743
 20
-3.144957383435638
 30
0.0
 11
32.41525273490946
 21
-3.158089481034036
 31
0.0
  0
LINE
  5
76A
330
18
100
AcDbEntity
  8
1
 62
     1
100
AcDbLine
 10
32.41525273490946
 20
-3.158089481034036
 30
0.0
 11
32.50786244537448
 21
-3.167480416629692
 31
0.0
  0
LINE
  5
76B
330
18
100
AcDbEntity
  8
1
 62
     1
100
AcDbLine
 10
32.50786244537448
 20
-3.167480416629692
 30
0.0
 11
32.60047895714141
 21
-3.173119296343485
 31
0.0
  0
LINE
  5
76C
330
18
100
AcDbEntity
  8
1
 62
     1
100
AcDbLine
 10
32.60047895714141
 20
-3.173119296343485
 30
0.0
 11
32.69308855956911
 21
-3.174999999299605
 31
0.0
  0
LINE
  5
76D
330
18
100
AcDbEntity
  8
1
 62
     1
100
AcDbLine
 10
33.20554727366393
 20
-0.000000000000805
 30
0.0
 11
34.26222780304334
 21
-1.215032873617714
 31
0.0
  0
LINE
  5
76E
330
18
100
AcDbEntity
  8
1
 62
     1
100
AcDbLine
 10
34.26222780304334
 20
-1.215032873617714
 30
0.0
 11
34.79056062850441
 21
-1.763945470526155
 31
0.0
  0
LINE
  5
76F
330
18
100
AcDbEntity
  8
1
 62
     1
100
AcDbLine
 10
34.79056062850441
 20
-1.763945470526155
 30
0.0
 11
35.05472701547945
 21
-2.014207282959188
 31
0.0
  0
LINE
  5
770
330
18
100
AcDbEntity
  8
1
 62
     1
100
AcDbLine
 10
35.05472701547945
 20
-2.014207282959188
 30
0.0
 11
35.31889401587787
 21
-2.245071948491618
 31
0.0
  0
LINE
  5
771
330
18
100
AcDbEntity
  8
1
 62
     1
100
AcDbLine
 10
35.31889401587787
 20
-2.245071948491618
 30
0.0
 11
35.58306206573891
 21
-2.454316275621228
 31
0.0
  0
LINE
  5
772
330
18
100
AcDbEntity
  8
1
 62
     1
100
AcDbLine
 10
35.58306206573891
 20
-2.454316275621228
 30
0.0
 11
35.84723157284026
 21
-2.639925037064216
 31
0.0
  0
LINE
  5
773
330
18
100
AcDbEntity
  8
1
 62
     1
100
AcDbLine
 10
35.84723157284026
 20
-2.639925037064216
 30
0.0
 11
35.97932714181329
 21
-2.723302699875642
 31
0.0
  0
LINE
  5
774
330
18
100
AcDbEntity
  8
1
 62
     1
100
AcDbLine
 10
35.97932714181329
 20
-2.723302699875642
 30
0.0
 11
36.11140291724709
 21
-2.800110370069978
 31
0.0
  0
LINE
  5
775
330
18
100
AcDbEntity
  8
1
 62
     1
100
AcDbLine
 10
36.11140291724709
 20
-2.800110370069978
 30
0.0
 11
36.24349313910747
 21
-2.870176886549222
 31
0.0
  0
LINE
  5
776
330
18
100
AcDbEntity
  8
1
 62
     1
100
AcDbLine
 10
36.24349313910747
 20
-2.870176886549222
 30
0.0
 11
36.37557644539286
 21
-2.93332899823793
 31
0.0
  0
LINE
  5
777
330
18
100
AcDbEntity
  8
1
 62
     1
100
AcDbLine
 10
36.37557644539286
 20
-2.93332899823793
 30
0.0
 11
36.50765887776858
 21
-2.989409983579711
 31
0.0
  0
LINE
  5
778
330
18
100
AcDbEntity
  8
1
 62
     1
100
AcDbLine
 10
36.50765887776858
 20
-2.989409983579711
 30
0.0
 11
36.63974957727041
 21
-3.038296200160294
 31
0.0
  0
LINE
  5
779
330
18
100
AcDbEntity
  8
1
 62
     1
100
AcDbLine
 10
36.63974957727041
 20
-3.038296200160294
 30
0.0
 11
36.7718247647019
 21
-3.07985393633475
 31
0.0
  0
LINE
  5
77A
330
18
100
AcDbEntity
  8
1
 62
     1
100
AcDbLine
 10
36.7718247647019
 20
-3.07985393633475
 30
0.0
 11
36.90392032523481
 21
-3.114000803944112
 31
0.0
  0
LINE
  5
77B
330
18
100
AcDbEntity
  8
1
 62
     1
100
AcDbLine
 10
36.90392032523481
 20
-3.114000803944112
 30
0.0
 11
37.03599117979204
 21
-3.140637720843312
 31
0.0
  0
LINE
  5
77C
330
18
100
AcDbEntity
  8
1
 62
     1
100
AcDbLine
 10
37.03599117979204
 20
-3.140637720843312
 30
0.0
 11
37.16808914938899
 21
-3.159714700273724
 31
0.0
  0
LINE
  5
77D
330
18
100
AcDbEntity
  8
1
 62
     1
100
AcDbLine
 10
37.16808914938899
 20
-3.159714700273724
 30
0.0
 11
37.30015417630803
 21
-3.171176286290799
 31
0.0
  0
LINE
  5
77E
330
18
100
AcDbEntity
  8
1
 62
     1
100
AcDbLine
 10
37.30015417630803
 20
-3.171176286290799
 30
0.0
 11
37.43221891029924
 21
-3.174999999886106
 31
0.0
  0
LINE
  5
77F
330
18
100
AcDbEntity
  8
1
 62
     1
100
AcDbLine
 10
33.2055472736645
 20
-0.0000000000001971
 30
0.0
 11
32.30006675605998
 21
0.6353148883449535
 31
0.0
  0
LINE
  5
780
330
18
100
AcDbEntity
  8
1
 62
     1
100
AcDbLine
 10
32.30006675605998
 20
0.6353148883449535
 30
0.0
 11
31.84732649725773
 21
0.930478644469919
 31
0.0
  0
LINE
  5
781
330
18
100
AcDbEntity
  8
1
 62
     1
100
AcDbLine
 10
31.84732649725773
 20
0.930478644469919
 30
0.0
 11
31.39458623845546
 21
1.199362688937397
 31
0.0
  0
LINE
  5
782
330
18
100
AcDbEntity
  8
1
 62
     1
100
AcDbLine
 10
31.39458623845546
 20
1.199362688937397
 30
0.0
 11
30.94184597965321
 21
1.434372959393815
 31
0.0
  0
LINE
  5
783
330
18
100
AcDbEntity
  8
1
 62
     1
100
AcDbLine
 10
30.94184597965321
 20
1.434372959393815
 30
0.0
 11
30.71547585025208
 21
1.537058033055669
 31
0.0
  0
LINE
  5
784
330
18
100
AcDbEntity
  8
1
 62
     1
100
AcDbLine
 10
30.71547585025208
 20
1.537058033055669
 30
0.0
 11
30.48910572085095
 21
1.628871095547412
 31
0.0
  0
LINE
  5
785
330
18
100
AcDbEntity
  8
1
 62
     1
100
AcDbLine
 10
30.48910572085095
 20
1.628871095547412
 30
0.0
 11
30.26273559144982
 21
1.709162904283858
 31
0.0
  0
LINE
  5
786
330
18
100
AcDbEntity
  8
1
 62
     1
100
AcDbLine
 10
30.26273559144982
 20
1.709162904283858
 30
0.0
 11
30.03636546204869
 21
1.777365364993493
 31
0.0
  0
LINE
  5
787
330
18
100
AcDbEntity
  8
1
 62
     1
100
AcDbLine
 10
30.03636546204869
 20
1.777365364993493
 30
0.0
 11
29.80999533264756
 21
1.832995543866873
 31
0.0
  0
LINE
  5
788
330
18
100
AcDbEntity
  8
1
 62
     1
100
AcDbLine
 10
29.80999533264756
 20
1.832995543866873
 30
0.0
 11
29.58362520324643
 21
1.875660014633906
 31
0.0
  0
ARC
  5
789
330
18
100
AcDbEntity
  8
1
 62
     1
100
AcDbCircle
 10
29.00809023166266
 20
0.6413988694134791
 30
0.0
 40
2.534511263240851
100
AcDbArc
 50
90.66064031252297
 51
112.9880149753224
  0
LINE
  5
78A
330
18
100
AcDbEntity
  8
SK1
100
AcDbLine
 10
-35.6825
 20
3.175
 30
0.0
 11
-36.0
 21
2.8575
 31
0.0
  0
LINE
  5
78B
330
18
100
AcDbEntity
  8
SK1
100
AcDbLine
 10
-36.0
 20
2.8575
 30
0.0
 11
-36.00000000000001
 21
2.854659092661451
 31
0.0
  0
LINE
  5
78C
330
18
100
AcDbEntity
  8
SK1
100
AcDbLine
 10
-36.00000000000001
 20
2.854659092661451
 30
0.0
 11
-36.0
 21
2.601106205514923
 31
0.0
  0
LINE
  5
78D
330
18
100
AcDbEntity
  8
SK1
100
AcDbLine
 10
-36.0
 20
2.601106205514923
 30
0.0
 11
-36.0
 21
-2.8575
 31
0.0
  0
LINE
  5
78E
330
18
100
AcDbEntity
  8
SK1
100
AcDbLine
 10
-35.6825
 20
3.175
 30
0.0
 11
0.0000000000000053
 21
3.175
 31
0.0
  0
LINE
  5
78F
330
18
100
AcDbEntity
  8
SK1
100
AcDbLine
 10
-35.6825
 20
3.175
 30
0.0
 11
-35.6825
 21
3.171843436290501
 31
0.0
  0
LINE
  5
790
330
18
100
AcDbEntity
  8
SK1
100
AcDbLine
 10
-35.6825
 20
3.171843436290501
 30
0.0
 11
-35.6825
 21
2.890118006127691
 31
0.0
  0
LINE
  5
791
330
18
100
AcDbEntity
  8
SK1
100
AcDbLine
 10
-35.6825
 20
2.890118006127691
 30
0.0
 11
-35.6825
 21
-3.175
 31
0.0
  0
LINE
  5
792
330
18
100
AcDbEntity
  8
SK1
100
AcDbLine
 10
-36.0
 20
-2.8575
 30
0.0
 11
-35.6825
 21
-3.175
 31
0.0
  0
LINE
  5
793
330
18
100
AcDbEntity
  8
SK1
100
AcDbLine
 10
-35.6825
 20
-3.174999999999998
 30
0.0
 11
0.0000000000000009
 21
-3.174999999999998
 31
0.0
  0
DIMENSION
  5
794
330
18
100
AcDbEntity
  8
2
100
AcDbDimension
  2
*D0
 10
55.20000000000002
 20
-3.174999999999947
 30
0.0
 11
52.80225000000005
 21
-13.38924999999996
 31
0.0
 70
    32
  1
%%c<>
 71
     5
 42
6.35
  3
STANDARD
100
AcDbAlignedDimension
 13
40.2
 23
3.175
 33
0.0
 14
40.2
 24
-3.175
 34
0.0
 50
90.0000000000002
100
AcDbRotatedDimension
  0
DIMENSION
  5
7A2
330
18
100
AcDbEntity
  8
2
100
AcDbDimension
  2
*D1
 10
40.2
 20
75.0
 30
0.0
 11
20.1
 21
77.438
 31
0.0
 70
    32
  1
<>
 71
     5
 42
40.2
  3
STANDARD
100
AcDbAlignedDimension
 13
0.0
 23
0.0
 33
0.0
 14
40.2
 24
0.0
 34
0.0
100
AcDbRotatedDimension
  0
DIMENSION
  5
7AF
330
18
100
AcDbEntity
  8
2
100
AcDbDimension
  2
*D2
 10
40.2
 20
60.0
 30
0.0
 11
30.675
 21
62.39775
 31
0.0
 70
    32
  1
<>
 71
     5
 42
19.05
  3
STANDARD
100
AcDbAlignedDimension
 13
21.15
 23
3.175
 33
0.0
 14
40.2
 24
3.175
 34
0.0
100
AcDbRotatedDimension
  0
DIMENSION
  5
7BC
330
18
100
AcDbEntity
  8
SK2
100
AcDbDimension
  2
*D3
 10
-50.9999999999838
 20
-3.175000000076551
 30
0.0
 11
-53.39774999993167
 21
-13.38925000008879
 31
0.0
 70
    32
  1
%%c<>
 71
     5
 42
6.35
  3
STANDARD
100
AcDbAlignedDimension
 13
-36.0
 23
3.175
 33
0.0
 14
-36.0
 24
-3.175
 34
0.0
 50
90.0000000002924
100
AcDbRotatedDimension
  0
DIMENSION
  5
7CA
330
18
100
AcDbEntity
  8
SK2
100
AcDbDimension
  2
*D4
 10
40.2
 20
90.0
 30
0.0
 11
2.100000000000001
 21
92.39775
 31
0.0
 70
    32
  1
<>
 71
     5
 42
76.2
  3
STANDARD
100
AcDbAlignedDimension
 13
-36.0
 23
0.0
 33
0.0
 14
40.2
 24
0.0
 34
0.0
100
AcDbRotatedDimension
  0
DIMENSION
  5
7D7
330
18
100
AcDbEntity
  8
2
100
AcDbDimension
  2
*D5
 10
39.40600000000001
 20
-2.381
 30
0.0
 11
42.51412878924986
 21
-20.008074295503
 31
0.0
 70
   164
  1
<>
 71
     5
 42
0.794
  3
STANDARD
100
AcDbRadialDimension
 15
39.54387665306755
 25
-3.162937355891693
 35
0.0
 40
0.0
  0
ENDSEC
  0
SECTION
  2
OBJECTS
  0
DICTIONARY
  5
C
330
0
100
AcDbDictionary
281
     1
  3
ACAD_COLOR
350
387
  3
ACAD_GROUP
350
D
  3
ACAD_LAYOUT
350
301
  3
ACAD_MATERIAL
350
386
  3
ACAD_MLEADERSTYLE
350
3DE
  3
ACAD_MLINESTYLE
350
E
  3
ACAD_PLOTSETTINGS
350
302
  3
ACAD_PLOTSTYLENAME
350
2FF
  3
ACAD_SCALELIST
350
3A0
  3
ACAD_TABLESTYLE
350
388
  3
ACAD_VISUALSTYLE
350
3C2
  3
ACDBHEADERROUNDTRIPXREC
350
7E4
  3
AcDbVariableDictionary
350
357
  0
DICTIONARY
  5
7E7
330
8
100
AcDbDictionary
280
     1
281
     1
  3
ACAD_XREC_ROUNDTRIP
360
7E8
  0
DICTIONARY
  5
387
102
{ACAD_REACTORS
330
C
102
}
330
C
100
AcDbDictionary
281
     1
  0
DICTIONARY
  5
D
102
{ACAD_REACTORS
330
C
102
}
330
C
100
AcDbDictionary
281
     1
  0
DICTIONARY
  5
301
102
{ACAD_REACTORS
330
C
102
}
330
C
100
AcDbDictionary
281
     1
  3
Layout1
350
33B
  3
Model
350
303
  0
DICTIONARY
  5
386
102
{ACAD_REACTORS
330
C
102
}
330
C
100
AcDbDictionary
281
     1
  3
ByBlock
350
3DC
  3
ByLayer
350
3DB
  3
Global
350
3DD
  0
DICTIONARY
  5
3DE
102
{ACAD_REACTORS
330
C
102
}
330
C
100
AcDbDictionary
281
     1
  3
Standard
350
3DF
  0
DICTIONARY
  5
E
102
{ACAD_REACTORS
330
C
102
}
330
C
100
AcDbDictionary
281
     1
  3
STANDARD
350
1B
  0
DICTIONARY
  5
302
102
{ACAD_REACTORS
330
C
102
}
330
C
100
AcDbDictionary
281
     1
  0
ACDBDICTIONARYWDFLT
  5
2FF
102
{ACAD_REACTORS
330
C
102
}
330
C
100
AcDbDictionary
281
     1
  3
Normal
350
300
100
AcDbDictionaryWithDefault
340
300
  0
DICTIONARY
  5
3A0
102
{ACAD_REACTORS
330
C
102
}
330
C
100
AcDbDictionary
281
     1
  3
A0
350
3A1
  3
A1
350
3A2
  3
A2
350
3A3
  3
A3
350
3A4
  3
A4
350
3A5
  3
A5
350
3A6
  3
A6
350
3A7
  3
A7
350
3A8
  3
A8
350
3A9
  3
A9
350
3AA
  3
B0
350
3AB
  3
B1
350
3AC
  3
B2
350
3AD
  3
B3
350
3AE
  3
B4
350
3AF
  3
B5
350
3B0
  3
B6
350
3B1
  3
B7
350
3B2
  3
B8
350
3B3
  3
B9
350
3B4
  3
C0
350
3B5
  3
C1
350
3B6
  3
C2
350
3B7
  3
C3
350
3B8
  3
C4
350
3B9
  3
C5
350
3BA
  3
C6
350
3BB
  3
C7
350
3BC
  3
C8
350
3BD
  3
C9
350
3BE
  3
D0
350
3BF
  3
D1
350
3C0
  3
D2
350
3C1
  0
DICTIONARY
  5
388
102
{ACAD_REACTORS
330
C
102
}
330
C
100
AcDbDictionary
281
     1
  3
Standard
350
389
  0
DICTIONARY
  5
3C2
102
{ACAD_REACTORS
330
C
102
}
330
C
100
AcDbDictionary
281
     1
  3
2dWireframe
350
3C7
  3
Basic
350
3CA
  3
Brighten
350
3CE
  3
ColorChange
350
3D2
  3
Conceptual
350
3CC
  3
Dim
350
3CD
  3
EdgeColorOff
350
3D5
  3
Facepattern
350
3D1
  3
Flat
350
3C3
  3
FlatWithEdges
350
3C4
  3
Gouraud
350
3C5
  3
GouraudWithEdges
350
3C6
  3
Hidden
350
3C9
  3
JitterOff
350
3D3
  3
Linepattern
350
3D0
  3
OverhangOff
350
3D4
  3
Realistic
350
3CB
  3
Shaded
350
3DA
  3
Shaded with edges
350
3D9
  3
Shades of Gray
350
3D6
  3
Sketchy
350
3D7
  3
Thicken
350
3CF
  3
Wireframe
350
3C8
  3
X-Ray
350
3D8
  0
DICTIONARY
  5
7E4
102
{ACAD_REACTORS
330
C
102
}
330
C
100
AcDbDictionary
281
     1
  3
COLORDICT
350
7E5
  3
MATERIALDICT
350
7E6
  0
DICTIONARY
  5
357
102
{ACAD_REACTORS
330
C
102
}
330
C
100
AcDbDictionary
281
     1
  3
CANNOSCALE
350
7E9
  3
CMLEADERSTYLE
350
7E0
  3
CTABLESTYLE
350
38D
  3
DIMASSOC
350
359
  3
HIDETEXT
350
358
  3
MSLTSCALE
350
7E1
  3
PROJECTNAME
350
38E
  0
XRECORD
  5
7E8
102
{ACAD_REACTORS
330
7E7
102
}
330
7E7
100
AcDbXrecord
280
     1
102
VTR_0.000_0.000_1.000_1.000_VISUALSTYLE
340
3C7
102
VTR_0.000_0.000_1.000_1.000_GRIDDISPLAY
 70
     3
102
VTR_0.000_0.000_1.000_1.000_GRIDMAJOR
 70
     5
102
VTR_0.000_0.000_1.000_1.000_DEFAULTLIGHTING
280
     1
102
VTR_0.000_0.000_1.000_1.000_DEFAULTLIGHTINGTYPE
 70
     1
102
VTR_0.000_0.000_1.000_1.000_BRIGHTNESS
141
0.0
102
VTR_0.000_0.000_1.000_1.000_CONTRAST
142
0.0
  0
LAYOUT
  5
33B
102
{ACAD_REACTORS
330
301
102
}
330
301
100
AcDbPlotSettings
  1

  2
Lexmark Optra PS2
  4

  6

 40
0.0
 41
0.0
 42
0.0
 43
0.0
 44
0.0
 45
0.0
 46
0.0
 47
0.0
 48
0.0
 49
0.0
140
0.0
141
0.0
142
1.0
143
1.0
 70
   688
 72
     0
 73
     0
 74
     5
  7
monochrome.ctb
 75
    16
147
1.0
148
0.0
149
0.0
100
AcDbLayout
  1
Layout1
 70
     1
 71
     1
 10
0.0
 20
0.0
 11
12.0
 21
9.0
 12
0.0
 22
0.0
 32
0.0
 14
0.0
 24
0.0
 34
0.0
 15
0.0
 25
0.0
 35
0.0
146
0.0
 13
0.0
 23
0.0
 33
0.0
 16
1.0
 26
0.0
 36
0.0
 17
0.0
 27
1.0
 37
0.0
 76
     0
330
338
  0
LAYOUT
  5
303
102
{ACAD_REACTORS
330
301
102
}
330
301
100
AcDbPlotSettings
  1

  2
Lexmark Optra Rx
  4
A4
  6

 40
6.805083274841307
 41
5.535083293914794
 42
6.974411010742187
 43
7.14373779296875
 44
209.9733276367186
 45
296.9259948730469
 46
0.0
 47
0.0
 48
0.0
 49
0.0
140
0.0
141
0.0
142
1.0
143
2.976565420630886
 70
 11952
 72
     1
 73
     1
 74
     0
  7
monochrome.ctb
 75
     0
147
0.335957675604539
148
204.1199660668592
149
172.3933209647495
100
AcDbLayout
  1
Model
 70
     1
 71
     0
 10
0.0
 20
0.0
 11
12.0
 21
9.0
 12
0.0
 22
0.0
 32
0.0
 14
0.0
 24
0.0
 34
0.0
 15
0.0
 25
0.0
 35
0.0
146
0.0
 13
0.0
 23
0.0
 33
0.0
 16
1.0
 26
0.0
 36
0.0
 17
0.0
 27
1.0
 37
0.0
 76
     0
330
18
331
39A
  0
MATERIAL
  5
3DC
102
{ACAD_REACTORS
330
386
102
}
102
{ACAD_XDICTIONARY
360
7EC
102
}
330
386
100
AcDbMaterial
  1
ByBlock
  0
MATERIAL
  5
3DB
102
{ACAD_REACTORS
330
386
102
}
102
{ACAD_XDICTIONARY
360
7EA
102
}
330
386
100
AcDbMaterial
  1
ByLayer
  0
MATERIAL
  5
3DD
102
{ACAD_REACTORS
330
386
102
}
102
{ACAD_XDICTIONARY
360
7EE
102
}
330
386
100
AcDbMaterial
  1
Global
  0
MLEADERSTYLE
  5
3DF
102
{ACAD_REACTORS
330
3DE
102
}
102
{ACAD_XDICTIONARY
360
821
102
}
330
3DE
100
AcDbMLeaderStyle
170
     2
171
     1
172
     0
 90
        2
 40
0.0
 41
0.0
173
     1
 91
-1056964608
340
12
 92
       -2
290
     1
 42
2.0
291
     1
 43
8.0
  3
Standard
341
0
 44
4.0
300

342
10
174
     1
178
     6
175
     1
176
     0
 93
-1056964608
 45
4.0
292
     0
297
     0
 46
4.0
343
0
 94
-1056964608
 47
1.0
 49
1.0
140
1.0
293
     1
141
0.0
294
     1
177
     0
142
1.0
295
     0
296
     0
143
3.75
1001
ACAD_MLEADERVER
1070
     2
  0
MLINESTYLE
  5
1B
102
{ACAD_REACTORS
330
E
102
}
330
E
100
AcDbMlineStyle
  2
STANDARD
 70
     0
  3

 62
     0
 51
90.0
 52
90.0
 71
     2
 49
0.5
 62
   256
  6
BYLAYER
 49
-0.5
 62
   256
  6
BYLAYER
  0
ACDBPLACEHOLDER
  5
300
102
{ACAD_REACTORS
330
2FF
102
}
330
2FF
  0
SCALE
  5
3A1
102
{ACAD_REACTORS
330
3A0
102
}
330
3A0
100
AcDbScale
 70
     0
300
1:1
140
1.0
141
1.0
290
     1
  0
SCALE
  5
3A2
102
{ACAD_REACTORS
330
3A0
102
}
330
3A0
100
AcDbScale
 70
     0
300
1:2
140
1.0
141
2.0
290
     0
  0
SCALE
  5
3A3
102
{ACAD_REACTORS
330
3A0
102
}
330
3A0
100
AcDbScale
 70
     0
300
1:4
140
1.0
141
4.0
290
     0
  0
SCALE
  5
3A4
102
{ACAD_REACTORS
330
3A0
102
}
330
3A0
100
AcDbScale
 70
     0
300
1:5
140
1.0
141
5.0
290
     0
  0
SCALE
  5
3A5
102
{ACAD_REACTORS
330
3A0
102
}
330
3A0
100
AcDbScale
 70
     0
300
1:8
140
1.0
141
8.0
290
     0
  0
SCALE
  5
3A6
102
{ACAD_REACTORS
330
3A0
102
}
330
3A0
100
AcDbScale
 70
     0
300
1:10
140
1.0
141
10.0
290
     0
  0
SCALE
  5
3A7
102
{ACAD_REACTORS
330
3A0
102
}
330
3A0
100
AcDbScale
 70
     0
300
1:16
140
1.0
141
16.0
290
     0
  0
SCALE
  5
3A8
102
{ACAD_REACTORS
330
3A0
102
}
330
3A0
100
AcDbScale
 70
     0
300
1:20
140
1.0
141
20.0
290
     0
  0
SCALE
  5
3A9
102
{ACAD_REACTORS
330
3A0
102
}
330
3A0
100
AcDbScale
 70
     0
300
1:30
140
1.0
141
30.0
290
     0
  0
SCALE
  5
3AA
102
{ACAD_REACTORS
330
3A0
102
}
330
3A0
100
AcDbScale
 70
     0
300
1:40
140
1.0
141
40.0
290
     0
  0
SCALE
  5
3AB
102
{ACAD_REACTORS
330
3A0
102
}
330
3A0
100
AcDbScale
 70
     0
300
1:50
140
1.0
141
50.0
290
     0
  0
SCALE
  5
3AC
102
{ACAD_REACTORS
330
3A0
102
}
330
3A0
100
AcDbScale
 70
     0
300
1:100
140
1.0
141
100.0
290
     0
  0
SCALE
  5
3AD
102
{ACAD_REACTORS
330
3A0
102
}
330
3A0
100
AcDbScale
 70
     0
300
2:1
140
2.0
141
1.0
290
     0
  0
SCALE
  5
3AE
102
{ACAD_REACTORS
330
3A0
102
}
330
3A0
100
AcDbScale
 70
     0
300
4:1
140
4.0
141
1.0
290
     0
  0
SCALE
  5
3AF
102
{ACAD_REACTORS
330
3A0
102
}
330
3A0
100
AcDbScale
 70
     0
300
8:1
140
8.0
141
1.0
290
     0
  0
SCALE
  5
3B0
102
{ACAD_REACTORS
330
3A0
102
}
330
3A0
100
AcDbScale
 70
     0
300
10:1
140
10.0
141
1.0
290
     0
  0
SCALE
  5
3B1
102
{ACAD_REACTORS
330
3A0
102
}
330
3A0
100
AcDbScale
 70
     0
300
100:1
140
100.0
141
1.0
290
     0
  0
SCALE
  5
3B2
102
{ACAD_REACTORS
330
3A0
102
}
330
3A0
100
AcDbScale
 70
     0
300
1/128" = 1'-0"
140
0.0078125
141
12.0
290
     0
  0
SCALE
  5
3B3
102
{ACAD_REACTORS
330
3A0
102
}
330
3A0
100
AcDbScale
 70
     0
300
1/64" = 1'-0"
140
0.015625
141
12.0
290
     0
  0
SCALE
  5
3B4
102
{ACAD_REACTORS
330
3A0
102
}
330
3A0
100
AcDbScale
 70
     0
300
1/32" = 1'-0"
140
0.03125
141
12.0
290
     0
  0
SCALE
  5
3B5
102
{ACAD_REACTORS
330
3A0
102
}
330
3A0
100
AcDbScale
 70
     0
300
1/16" = 1'-0"
140
0.0625
141
12.0
290
     0
  0
SCALE
  5
3B6
102
{ACAD_REACTORS
330
3A0
102
}
330
3A0
100
AcDbScale
 70
     0
300
3/32" = 1'-0"
140
0.09375
141
12.0
290
     0
  0
SCALE
  5
3B7
102
{ACAD_REACTORS
330
3A0
102
}
330
3A0
100
AcDbScale
 70
     0
300
1/8" = 1'-0"
140
0.125
141
12.0
290
     0
  0
SCALE
  5
3B8
102
{ACAD_REACTORS
330
3A0
102
}
330
3A0
100
AcDbScale
 70
     0
300
3/16" = 1'-0"
140
0.1875
141
12.0
290
     0
  0
SCALE
  5
3B9
102
{ACAD_REACTORS
330
3A0
102
}
330
3A0
100
AcDbScale
 70
     0
300
1/4" = 1'-0"
140
0.25
141
12.0
290
     0
  0
SCALE
  5
3BA
102
{ACAD_REACTORS
330
3A0
102
}
330
3A0
100
AcDbScale
 70
     0
300
3/8" = 1'-0"
140
0.375
141
12.0
290
     0
  0
SCALE
  5
3BB
102
{ACAD_REACTORS
330
3A0
102
}
330
3A0
100
AcDbScale
 70
     0
300
1/2" = 1'-0"
140
0.5
141
12.0
290
     0
  0
SCALE
  5
3BC
102
{ACAD_REACTORS
330
3A0
102
}
330
3A0
100
AcDbScale
 70
     0
300
3/4" = 1'-0"
140
0.75
141
12.0
290
     0
  0
SCALE
  5
3BD
102
{ACAD_REACTORS
330
3A0
102
}
330
3A0
100
AcDbScale
 70
     0
300
1" = 1'-0"
140
1.0
141
12.0
290
     0
  0
SCALE
  5
3BE
102
{ACAD_REACTORS
330
3A0
102
}
330
3A0
100
AcDbScale
 70
     0
300
1-1/2" = 1'-0"
140
1.5
141
12.0
290
     0
  0
SCALE
  5
3BF
102
{ACAD_REACTORS
330
3A0
102
}
330
3A0
100
AcDbScale
 70
     0
300
3" = 1'-0"
140
3.0
141
12.0
290
     0
  0
SCALE
  5
3C0
102
{ACAD_REACTORS
330
3A0
102
}
330
3A0
100
AcDbScale
 70
     0
300
6" = 1'-0"
140
6.0
141
12.0
290
     0
  0
SCALE
  5
3C1
102
{ACAD_REACTORS
330
3A0
102
}
330
3A0
100
AcDbScale
 70
     0
300
1'-0" = 1'-0"
140
12.0
141
12.0
290
     0
  0
TABLESTYLE
  5
389
102
{ACAD_REACTORS
330
388
102
}
330
388
100
AcDbTableStyle
  3
Standard
 70
     0
 71
     0
 40
1.5
 41
1.5
280
     0
281
     0
  7
STANDARD
140
4.5
170
     2
 62
     0
 63
   257
283
     0
274
    -2
284
     1
 64
     0
275
    -2
285
     1
 65
     0
276
    -2
286
     1
 66
     0
277
    -2
287
     1
 67
     0
278
    -2
288
     1
 68
     0
279
    -2
289
     1
 69
     0
  7
STANDARD
140
6.0
170
     5
 62
     0
 63
   257
283
     0
274
    -2
284
     1
 64
     0
275
    -2
285
     1
 65
     0
276
    -2
286
     1
 66
     0
277
    -2
287
     1
 67
     0
278
    -2
288
     1
 68
     0
279
    -2
289
     1
 69
     0
  7
STANDARD
140
4.5
170
     5
 62
     0
 63
   257
283
     0
274
    -2
284
     1
 64
     0
275
    -2
285
     1
 65
     0
276
    -2
286
     1
 66
     0
277
    -2
287
     1
 67
     0
278
    -2
288
     1
 68
     0
279
    -2
289
     1
 69
     0
  0
VISUALSTYLE
  5
3C7
102
{ACAD_REACTORS
330
3C2
102
}
102
{ACAD_XDICTIONARY
360
7F8
102
}
330
3C2
100
AcDbVisualStyle
  2
2dWireframe
 70
     4
 71
     0
 72
     2
 73
     0
 90
        0
 40
0.6
 41
30.0
 62
     5
 63
     7
 74
     1
 91
        4
 64
     7
 65
   257
 75
     1
175
     1
 42
1.0
 92
        0
 66
   257
 43
1.0
 76
     1
 77
     6
 78
     2
 67
     7
 79
     5
170
     0
171
     0
290
     0
174
     0
 93
        1
 44
0.0
173
     0
291
     0
 45
0.0
1001
ACAD
1000
AcDbSavedByObjectVersion
1070
     0
  0
VISUALSTYLE
  5
3CA
102
{ACAD_REACTORS
330
3C2
102
}
102
{ACAD_XDICTIONARY
360
7FE
102
}
330
3C2
100
AcDbVisualStyle
  2
Basic
 70
     7
 71
     1
 72
     0
 73
     1
 90
        0
 40
0.6
 41
30.0
 62
     5
 63
     7
 74
     0
 91
        4
 64
     7
 65
   257
 75
     1
175
     1
 42
1.0
 92
        8
 66
     7
 43
1.0
 76
     1
 77
     6
 78
     2
 67
     7
 79
     5
170
     0
171
     0
290
     0
174
     0
 93
        1
 44
0.0
173
     0
291
     1
 45
0.0
1001
ACAD
1000
AcDbSavedByObjectVersion
1070
     0
  0
VISUALSTYLE
  5
3CE
102
{ACAD_REACTORS
330
3C2
102
}
102
{ACAD_XDICTIONARY
360
806
102
}
330
3C2
100
AcDbVisualStyle
  2
Brighten
 70
    12
 71
     2
 72
     2
 73
     0
 90
        0
 40
0.6
 41
30.0
 62
     5
 63
     7
 74
     1
 91
        4
 64
     7
 65
   257
 75
     1
175
     1
 42
1.0
 92
        8
 66
     7
 43
1.0
 76
     1
 77
     6
 78
     2
 67
     7
 79
     5
170
     0
171
     0
290
     0
174
     0
 93
        1
 44
50.0
173
     0
291
     1
 45
0.0
1001
ACAD
1000
AcDbSavedByObjectVersion
1070
     0
  0
VISUALSTYLE
  5
3D2
102
{ACAD_REACTORS
330
3C2
102
}
102
{ACAD_XDICTIONARY
360
80E
102
}
330
3C2
100
AcDbVisualStyle
  2
ColorChange
 70
    16
 71
     2
 72
     2
 73
     3
 90
        0
 40
0.6
 41
30.0
 62
     5
 63
     8
 74
     1
 91
        4
 64
     7
 65
   257
 75
     1
175
     1
 42
1.0
 92
        8
 66
     8
 43
1.0
 76
     1
 77
     6
 78
     2
 67
     7
 79
     5
170
     0
171
     0
290
     0
174
     0
 93
        1
 44
0.0
173
     0
291
     1
 45
0.0
1001
ACAD
1000
AcDbSavedByObjectVersion
1070
     0
  0
VISUALSTYLE
  5
3CC
102
{ACAD_REACTORS
330
3C2
102
}
102
{ACAD_XDICTIONARY
360
802
102
}
330
3C2
100
AcDbVisualStyle
  2
Conceptual
 70
     9
 71
     3
 72
     2
 73
     0
 90
        0
 40
0.6
 41
30.0
 62
     5
 63
     7
 74
     2
 91
        2
 64
     7
 65
   257
 75
     1
175
     1
 42
179.0
 92
        8
 66
     7
 43
1.0
 76
     1
 77
     6
 78
     2
 67
     7
 79
     3
170
     0
171
     0
290
     0
174
     0
 93
        1
 44
0.0
173
     0
291
     0
 45
0.0
1001
ACAD
1000
AcDbSavedByObjectVersion
1070
     0
  0
VISUALSTYLE
  5
3CD
102
{ACAD_REACTORS
330
3C2
102
}
102
{ACAD_XDICTIONARY
360
804
102
}
330
3C2
100
AcDbVisualStyle
  2
Dim
 70
    11
 71
     2
 72
     2
 73
     0
 90
        0
 40
0.6
 41
30.0
 62
     5
 63
     7
 74
     1
 91
        4
 64
     7
 65
   257
 75
     1
175
     1
 42
1.0
 92
        8
 66
     7
 43
1.0
 76
     1
 77
     6
 78
     2
 67
     7
 79
     5
170
     0
171
     0
290
     0
174
     0
 93
        1
 44
-50.0
173
     0
291
     1
 45
0.0
1001
ACAD
1000
AcDbSavedByObjectVersion
1070
     0
  0
VISUALSTYLE
  5
3D5
102
{ACAD_REACTORS
330
3C2
102
}
102
{ACAD_XDICTIONARY
360
814
102
}
330
3C2
100
AcDbVisualStyle
  2
EdgeColorOff
 70
    22
 71
     2
 72
     2
 73
     0
 90
        0
 40
0.6
 41
30.0
 62
     5
 63
     7
 74
     1
 91
        4
 64
     7
 65
   257
 75
     1
175
     1
 42
1.0
 92
        8
 66
     7
 43
1.0
 76
     1
 77
     6
 78
     2
 67
     7
 79
     5
170
     0
171
     0
290
     0
174
     0
 93
        1
 44
0.0
173
     0
291
     1
 45
0.0
1001
ACAD
1000
AcDbSavedByObjectVersion
1070
     0
  0
VISUALSTYLE
  5
3D1
102
{ACAD_REACTORS
330
3C2
102
}
102
{ACAD_XDICTIONARY
360
80C
102
}
330
3C2
100
AcDbVisualStyle
  2
Facepattern
 70
    15
 71
     2
 72
     2
 73
     0
 90
        0
 40
0.6
 41
30.0
 62
     5
 63
     7
 74
     1
 91
        4
 64
     7
 65
   257
 75
     1
175
     1
 42
1.0
 92
        8
 66
     7
 43
1.0
 76
     1
 77
     6
 78
     2
 67
     7
 79
     5
170
     0
171
     0
290
     0
174
     0
 93
        1
 44
0.0
173
     0
291
     1
 45
0.0
1001
ACAD
1000
AcDbSavedByObjectVersion
1070
     0
  0
VISUALSTYLE
  5
3C3
102
{ACAD_REACTORS
330
3C2
102
}
102
{ACAD_XDICTIONARY
360
7F0
102
}
330
3C2
100
AcDbVisualStyle
  2
Flat
 70
     0
 71
     2
 72
     1
 73
     1
 90
        2
 40
0.6
 41
30.0
 62
     5
 63
     7
 74
     0
 91
        0
 64
     7
 65
   257
 75
     1
175
     1
 42
1.0
 92
        8
 66
     7
 43
1.0
 76
     1
 77
     6
 78
     2
 67
     7
 79
     5
170
     0
171
     0
290
     0
174
     0
 93
       13
 44
0.0
173
     0
291
     1
 45
0.0
1001
ACAD
1000
AcDbSavedByObjectVersion
1070
     0
  0
VISUALSTYLE
  5
3C4
102
{ACAD_REACTORS
330
3C2
102
}
102
{ACAD_XDICTIONARY
360
7F2
102
}
330
3C2
100
AcDbVisualStyle
  2
FlatWithEdges
 70
     1
 71
     2
 72
     1
 73
     1
 90
        2
 40
0.6
 41
30.0
 62
     5
 63
     7
 74
     1
 91
        0
 64
     7
 65
   257
 75
     1
175
     1
 42
1.0
 92
        0
 66
   257
 43
1.0
 76
     1
 77
     6
 78
     2
 67
     7
 79
     5
170
     0
171
     0
290
     0
174
     0
 93
       13
 44
0.0
173
     0
291
     1
 45
0.0
1001
ACAD
1000
AcDbSavedByObjectVersion
1070
     0
  0
VISUALSTYLE
  5
3C5
102
{ACAD_REACTORS
330
3C2
102
}
102
{ACAD_XDICTIONARY
360
7F4
102
}
330
3C2
100
AcDbVisualStyle
  2
Gouraud
 70
     2
 71
     2
 72
     2
 73
     1
 90
        2
 40
0.6
 41
30.0
 62
     5
 63
     7
 74
     0
 91
        0
 64
     7
 65
   257
 75
     1
175
     1
 42
1.0
 92
        0
 66
     7
 43
1.0
 76
     1
 77
     6
 78
     2
 67
     7
 79
     5
170
     0
171
     0
290
     0
174
     0
 93
       13
 44
0.0
173
     0
291
     1
 45
0.0
1001
ACAD
1000
AcDbSavedByObjectVersion
1070
     0
  0
VISUALSTYLE
  5
3C6
102
{ACAD_REACTORS
330
3C2
102
}
102
{ACAD_XDICTIONARY
360
7F6
102
}
330
3C2
100
AcDbVisualStyle
  2
GouraudWithEdges
 70
     3
 71
     2
 72
     2
 73
     1
 90
        2
 40
0.6
 41
30.0
 62
     5
 63
     7
 74
     1
 91
        0
 64
     7
 65
   257
 75
     1
175
     1
 42
1.0
 92
        0
 66
   257
 43
1.0
 76
     1
 77
     6
 78
     2
 67
     7
 79
     5
170
     0
171
     0
290
     0
174
     0
 93
       13
 44
0.0
173
     0
291
     1
 45
0.0
1001
ACAD
1000
AcDbSavedByObjectVersion
1070
     0
  0
VISUALSTYLE
  5
3C9
102
{ACAD_REACTORS
330
3C2
102
}
102
{ACAD_XDICTIONARY
360
7FC
102
}
330
3C2
100
AcDbVisualStyle
  2
Hidden
 70
     6
 71
     1
 72
     2
 73
     2
 90
        0
 40
0.6
 41
30.0
 62
     5
 63
     7
 74
     2
 91
        2
 64
     7
 65
   257
 75
     2
175
     1
 42
40.0
 92
        0
 66
   257
 43
1.0
 76
     1
 77
     6
 78
     2
 67
     7
 79
     3
170
     0
171
     0
290
     0
174
     0
 93
        1
 44
0.0
173
     0
291
     0
 45
0.0
1001
ACAD
1000
AcDbSavedByObjectVersion
1070
     0
  0
VISUALSTYLE
  5
3D3
102
{ACAD_REACTORS
330
3C2
102
}
102
{ACAD_XDICTIONARY
360
810
102
}
330
3C2
100
AcDbVisualStyle
  2
JitterOff
 70
    20
 71
     2
 72
     2
 73
     0
 90
        0
 40
0.6
 41
30.0
 62
     5
 63
     7
 74
     1
 91
        4
 64
     7
 65
   257
 75
     1
175
     1
 42
1.0
 92
       10
 66
     7
 43
1.0
 76
     1
 77
     6
 78
     2
 67
     7
 79
     5
170
     0
171
     0
290
     0
174
     0
 93
        1
 44
0.0
173
     0
291
     1
 45
0.0
1001
ACAD
1000
AcDbSavedByObjectVersion
1070
     0
  0
VISUALSTYLE
  5
3D0
102
{ACAD_REACTORS
330
3C2
102
}
102
{ACAD_XDICTIONARY
360
80A
102
}
330
3C2
100
AcDbVisualStyle
  2
Linepattern
 70
    14
 71
     2
 72
     2
 73
     0
 90
        0
 40
0.6
 41
30.0
 62
     5
 63
     7
 74
     1
 91
        4
 64
     7
 65
   257
 75
     7
175
     7
 42
1.0
 92
        8
 66
     7
 43
1.0
 76
     1
 77
     6
 78
     2
 67
     7
 79
     5
170
     0
171
     0
290
     0
174
     0
 93
        1
 44
0.0
173
     0
291
     1
 45
0.0
1001
ACAD
1000
AcDbSavedByObjectVersion
1070
     0
  0
VISUALSTYLE
  5
3D4
102
{ACAD_REACTORS
330
3C2
102
}
102
{ACAD_XDICTIONARY
360
812
102
}
330
3C2
100
AcDbVisualStyle
  2
OverhangOff
 70
    21
 71
     2
 72
     2
 73
     0
 90
        0
 40
0.6
 41
30.0
 62
     5
 63
     7
 74
     1
 91
        4
 64
     7
 65
   257
 75
     1
175
     1
 42
1.0
 92
        9
 66
     7
 43
1.0
 76
     1
 77
     6
 78
     2
 67
     7
 79
     5
170
     0
171
     0
290
     0
174
     0
 93
        1
 44
0.0
173
     0
291
     1
 45
0.0
1001
ACAD
1000
AcDbSavedByObjectVersion
1070
     0
  0
VISUALSTYLE
  5
3CB
102
{ACAD_REACTORS
330
3C2
102
}
102
{ACAD_XDICTIONARY
360
800
102
}
330
3C2
100
AcDbVisualStyle
  2
Realistic
 70
     8
 71
     2
 72
     3
 73
     0
 90
        2
 40
0.6
 41
30.0
 62
     5
 63
     7
 74
     0
 91
        0
 64
     7
 65
   257
 75
     1
175
     1
 42
1.0
 92
        8
 66
   257
 43
1.0
 76
     1
 77
     6
 78
     2
 67
     7
 79
     3
170
     0
171
     0
290
     0
174
     0
 93
       13
 44
0.0
173
     0
291
     0
 45
0.0
1001
ACAD
1000
AcDbSavedByObjectVersion
1070
     0
  0
VISUALSTYLE
  5
3DA
102
{ACAD_REACTORS
330
3C2
102
}
102
{ACAD_XDICTIONARY
360
81E
102
}
330
3C2
100
AcDbVisualStyle
  2
Shaded
 70
    27
 71
     2
 72
     2
 73
     1
 90
        2
 40
0.6
 41
30.0
 62
     5
 63
     7
 74
     0
 91
        4
 64
     7
 65
   257
 75
     1
175
     1
 42
1.0
 92
        8
 66
   257
 43
1.0
 76
     1
 77
     6
 78
     2
 67
     8
 79
     3
170
     0
171
     0
290
     0
174
     0
 93
        5
 44
0.0
173
     0
291
     0
 45
0.0
1001
ACAD
1000
AcDbSavedByObjectVersion
1070
     0
  0
VISUALSTYLE
  5
3D9
102
{ACAD_REACTORS
330
3C2
102
}
102
{ACAD_XDICTIONARY
360
81C
102
}
330
3C2
100
AcDbVisualStyle
  2
Shaded with edges
 70
    26
 71
     2
 72
     2
 73
     1
 90
        2
 40
0.6
 41
30.0
 62
     5
 63
     7
 74
     1
 91
       10
 64
     7
 65
   257
 75
     2
175
     1
 42
1.0
 92
        8
 66
   257
 43
1.0
 76
     1
 77
     6
 78
     2
 67
     7
 79
     3
170
     0
171
     0
290
     0
174
     0
 93
        5
 44
0.0
173
     0
291
     0
 45
0.0
1001
ACAD
1000
AcDbSavedByObjectVersion
1070
     0
  0
VISUALSTYLE
  5
3D6
102
{ACAD_REACTORS
330
3C2
102
}
102
{ACAD_XDICTIONARY
360
816
102
}
330
3C2
100
AcDbVisualStyle
  2
Shades of Gray
 70
    23
 71
     2
 72
     2
 73
     3
 90
        0
 40
0.6
 41
30.0
 62
     5
 63
     7
 74
     2
 91
        2
 64
     7
 65
     7
 75
     1
175
     1
 42
40.0
 92
        8
 66
     7
 43
1.0
 76
     1
 77
     6
 78
     2
 67
     7
 79
     3
170
     0
171
     0
290
     0
174
     0
 93
        1
 44
0.0
173
     0
291
     0
 45
0.0
1001
ACAD
1000
AcDbSavedByObjectVersion
1070
     0
  0
VISUALSTYLE
  5
3D7
102
{ACAD_REACTORS
330
3C2
102
}
102
{ACAD_XDICTIONARY
360
818
102
}
330
3C2
100
AcDbVisualStyle
  2
Sketchy
 70
    24
 71
     1
 72
     2
 73
     2
 90
        0
 40
0.6
 41
30.0
 62
     5
 63
     7
 74
     2
 91
        2
 64
     7
 65
     7
 75
     1
175
     1
 42
40.0
 92
       11
 66
     7
 43
1.0
 76
     1
 77
     6
 78
     2
 67
     7
 79
     6
170
     0
171
     0
290
     0
174
     0
 93
        1
 44
0.0
173
     0
291
     0
 45
0.0
1001
ACAD
1000
AcDbSavedByObjectVersion
1070
     0
  0
VISUALSTYLE
  5
3CF
102
{ACAD_REACTORS
330
3C2
102
}
102
{ACAD_XDICTIONARY
360
808
102
}
330
3C2
100
AcDbVisualStyle
  2
Thicken
 70
    13
 71
     2
 72
     2
 73
     0
 90
        0
 40
0.6
 41
30.0
 62
     5
 63
     7
 74
     1
 91
        4
 64
     7
 65
   257
 75
     1
175
     1
 42
1.0
 92
       12
 66
     7
 43
1.0
 76
     1
 77
     6
 78
     2
 67
     7
 79
     5
170
     0
171
     0
290
     0
174
     0
 93
        1
 44
0.0
173
     0
291
     1
 45
0.0
1001
ACAD
1000
AcDbSavedByObjectVersion
1070
     0
  0
VISUALSTYLE
  5
3C8
102
{ACAD_REACTORS
330
3C2
102
}
102
{ACAD_XDICTIONARY
360
7FA
102
}
330
3C2
100
AcDbVisualStyle
  2
Wireframe
 70
     5
 71
     0
 72
     2
 73
     0
 90
        0
 40
0.6
 41
30.0
 62
     5
 63
     7
 74
     1
 91
        4
 64
     7
 65
   257
 75
     1
175
     1
 42
1.0
 92
        0
 66
   257
 43
1.0
 76
     1
 77
     6
 78
     2
 67
     7
 79
     3
170
     0
171
     0
290
     0
174
     0
 93
        1
 44
0.0
173
     0
291
     0
 45
0.0
1001
ACAD
1000
AcDbSavedByObjectVersion
1070
     0
  0
VISUALSTYLE
  5
3D8
102
{ACAD_REACTORS
330
3C2
102
}
102
{ACAD_XDICTIONARY
360
81A
102
}
330
3C2
100
AcDbVisualStyle
  2
X-Ray
 70
    25
 71
     2
 72
     2
 73
     1
 90
        1
 40
0.5
 41
30.0
 62
     5
 63
     7
 74
     1
 91
        0
 64
     7
 65
   257
 75
     1
175
     1
 42
1.0
 92
        8
 66
     7
 43
1.0
 76
     1
 77
     6
 78
     2
 67
     7
 79
     3
170
     0
171
     0
290
     0
174
     0
 93
       13
 44
0.0
173
     0
291
     0
 45
0.0
1001
ACAD
1000
AcDbSavedByObjectVersion
1070
     0
  0
XRECORD
  5
7E5
102
{ACAD_REACTORS
330
7E4
102
}
330
7E4
100
AcDbXrecord
280
     1
340
387
  0
XRECORD
  5
7E6
102
{ACAD_REACTORS
330
7E4
102
}
330
7E4
100
AcDbXrecord
280
     1
340
386
  0
DICTIONARYVAR
  5
7E9
102
{ACAD_REACTORS
330
357
102
}
330
357
100
DictionaryVariables
280
     0
  1
1:1
  0
DICTIONARYVAR
  5
7E0
102
{ACAD_REACTORS
330
357
102
}
330
357
100
DictionaryVariables
280
     0
  1
Standard
  0
DICTIONARYVAR
  5
38D
102
{ACAD_REACTORS
330
357
102
}
330
357
100
DictionaryVariables
280
     0
  1
Standard
  0
DICTIONARYVAR
  5
359
102
{ACAD_REACTORS
330
357
102
}
330
357
100
DictionaryVariables
280
     0
  1
2
  0
DICTIONARYVAR
  5
358
102
{ACAD_REACTORS
330
357
102
}
330
357
100
DictionaryVariables
280
     0
  1
1
  0
DICTIONARYVAR
  5
7E1
102
{ACAD_REACTORS
330
357
102
}
330
357
100
DictionaryVariables
280
     0
  1
0
  0
DICTIONARYVAR
  5
38E
102
{ACAD_REACTORS
330
357
102
}
330
357
100
DictionaryVariables
280
     0
  1

  0
DICTIONARY
  5
7EC
330
3DC
100
AcDbDictionary
280
     1
281
     1
  3
ACAD_XREC_ROUNDTRIP
360
7ED
  0
DICTIONARY
  5
7EA
330
3DB
100
AcDbDictionary
280
     1
281
     1
  3
ACAD_XREC_ROUNDTRIP
360
7EB
  0
DICTIONARY
  5
7EE
330
3DD
100
AcDbDictionary
280
     1
281
     1
  3
ACAD_XREC_ROUNDTRIP
360
7EF
  0
DICTIONARY
  5
821
330
3DF
100
AcDbDictionary
280
     1
281
     1
  3
ACAD_XREC_ROUNDTRIP
360
822
  0
DICTIONARY
  5
7F8
330
3C7
100
AcDbDictionary
280
     1
281
     1
  3
ACAD_XREC_ROUNDTRIP
360
7F9
  0
DICTIONARY
  5
7FE
330
3CA
100
AcDbDictionary
280
     1
281
     1
  3
ACAD_XREC_ROUNDTRIP
360
7FF
  0
DICTIONARY
  5
806
330
3CE
100
AcDbDictionary
280
     1
281
     1
  3
ACAD_XREC_ROUNDTRIP
360
807
  0
DICTIONARY
  5
80E
330
3D2
100
AcDbDictionary
280
     1
281
     1
  3
ACAD_XREC_ROUNDTRIP
360
80F
  0
DICTIONARY
  5
802
330
3CC
100
AcDbDictionary
280
     1
281
     1
  3
ACAD_XREC_ROUNDTRIP
360
803
  0
DICTIONARY
  5
804
330
3CD
100
AcDbDictionary
280
     1
281
     1
  3
ACAD_XREC_ROUNDTRIP
360
805
  0
DICTIONARY
  5
814
330
3D5
100
AcDbDictionary
280
     1
281
     1
  3
ACAD_XREC_ROUNDTRIP
360
815
  0
DICTIONARY
  5
80C
330
3D1
100
AcDbDictionary
280
     1
281
     1
  3
ACAD_XREC_ROUNDTRIP
360
80D
  0
DICTIONARY
  5
7F0
330
3C3
100
AcDbDictionary
280
     1
281
     1
  3
ACAD_XREC_ROUNDTRIP
360
7F1
  0
DICTIONARY
  5
7F2
330
3C4
100
AcDbDictionary
280
     1
281
     1
  3
ACAD_XREC_ROUNDTRIP
360
7F3
  0
DICTIONARY
  5
7F4
330
3C5
100
AcDbDictionary
280
     1
281
     1
  3
ACAD_XREC_ROUNDTRIP
360
7F5
  0
DICTIONARY
  5
7F6
330
3C6
100
AcDbDictionary
280
     1
281
     1
  3
ACAD_XREC_ROUNDTRIP
360
7F7
  0
DICTIONARY
  5
7FC
330
3C9
100
AcDbDictionary
280
     1
281
     1
  3
ACAD_XREC_ROUNDTRIP
360
7FD
  0
DICTIONARY
  5
810
330
3D3
100
AcDbDictionary
280
     1
281
     1
  3
ACAD_XREC_ROUNDTRIP
360
811
  0
DICTIONARY
  5
80A
330
3D0
100
AcDbDictionary
280
     1
281
     1
  3
ACAD_XREC_ROUNDTRIP
360
80B
  0
DICTIONARY
  5
812
330
3D4
100
AcDbDictionary
280
     1
281
     1
  3
ACAD_XREC_ROUNDTRIP
360
813
  0
DICTIONARY
  5
800
330
3CB
100
AcDbDictionary
280
     1
281
     1
  3
ACAD_XREC_ROUNDTRIP
360
801
  0
DICTIONARY
  5
81E
330
3DA
100
AcDbDictionary
280
     1
281
     1
  3
ACAD_XREC_ROUNDTRIP
360
81F
  0
DICTIONARY
  5
81C
330
3D9
100
AcDbDictionary
280
     1
281
     1
  3
ACAD_XREC_ROUNDTRIP
360
81D
  0
DICTIONARY
  5
816
330
3D6
100
AcDbDictionary
280
     1
281
     1
  3
ACAD_XREC_ROUNDTRIP
360
817
  0
DICTIONARY
  5
818
330
3D7
100
AcDbDictionary
280
     1
281
     1
  3
ACAD_XREC_ROUNDTRIP
360
819
  0
DICTIONARY
  5
808
330
3CF
100
AcDbDictionary
280
     1
281
     1
  3
ACAD_XREC_ROUNDTRIP
360
809
  0
DICTIONARY
  5
7FA
330
3C8
100
AcDbDictionary
280
     1
281
     1
  3
ACAD_XREC_ROUNDTRIP
360
7FB
  0
DICTIONARY
  5
81A
330
3D8
100
AcDbDictionary
280
     1
281
     1
  3
ACAD_XREC_ROUNDTRIP
360
81B
  0
XRECORD
  5
7ED
102
{ACAD_REACTORS
330
7EC
102
}
330
7EC
100
AcDbXrecord
280
     1
102
MATERIAL
148
0.0
149
0.0
149
0.0
 93
        0
 94
      127
282
     0
 72
     1
 77
     1
171
     1
175
     1
179
     1
273
     0
  0
XRECORD
  5
7EB
102
{ACAD_REACTORS
330
7EA
102
}
330
7EA
100
AcDbXrecord
280
     1
102
MATERIAL
148
0.0
149
0.0
149
0.0
 93
        0
 94
      127
282
     0
 72
     1
 77
     1
171
     1
175
     1
179
     1
273
     0
  0
XRECORD
  5
7EF
102
{ACAD_REACTORS
330
7EE
102
}
330
7EE
100
AcDbXrecord
280
     1
102
MATERIAL
148
0.0
149
0.0
149
0.0
 93
        0
 94
      127
282
     0
 72
     1
 77
     1
171
     1
175
     1
179
     1
273
     0
  0
XRECORD
  5
822
102
{ACAD_REACTORS
330
821
102
}
330
821
100
AcDbXrecord
280
     1
102
ACAD_ROUNDTRIP_2010_MLEADER_STYLE
  0
XRECORD
  5
7F9
102
{ACAD_REACTORS
330
7F8
102
}
330
7F8
100
AcDbXrecord
280
     1
102
RTVSPropertyOp0
 70
     1
102
RTVSPropertyOp1
 70
     1
102
RTVSPropertyOp2
 70
     1
102
RTVSPropertyOp3
 70
     1
102
RTVSPropertyOp4
 70
     1
102
RTVSPropertyOp5
 70
     1
102
RTVSPropertyOp6
 70
     1
102
RTVSPropertyOp7
 70
     1
102
RTVSPropertyOp8
 70
     1
102
RTVSPropertyOp9
 70
     1
102
RTVSPropertyOp10
 70
     1
102
RTVSPropertyOp11
 70
     1
102
RTVSPropertyOp12
 70
     1
102
RTVSPropertyOp13
 70
     1
102
RTVSPropertyOp14
 70
     1
102
RTVSPropertyOp15
 70
     1
102
RTVSPropertyOp16
 70
     1
102
RTVSPropertyOp17
 70
     1
102
RTVSPropertyOp18
 70
     1
102
RTVSPropertyOp19
 70
     1
102
RTVSPropertyOp20
 70
     1
102
RTVSPropertyOp21
 70
     1
102
RTVSPropertyOp22
 70
     1
102
RTVSPropertyOp23
 70
     1
102
RTVSPropertyOp24
 70
     1
102
RTVSPropertyOp25
 70
     1
102
RTVSPropertyOp26
 70
     1
102
RTVSPropertyOp27
 70
     1
102
RTVSPropertyOp28
 70
     1
102
RTVSPropertyOp29
 70
     1
102
RTVSPropertyOp30
 70
     1
102
RTVSPropertyOp31
 70
     1
102
RTVSPropertyOp32
 70
     1
102
RTVSPropertyOp33
 70
     1
102
RTVSPropertyOp34
 70
     1
102
RTVSPropertyOp35
 70
     1
102
RTVSPropertyOp36
 70
     1
102
RTVSPropertyOp37
 70
     1
102
RTVSPropertyOp38
 70
     1
102
RTVSPropertyOp39
 70
     1
102
RTVSPropertyOp40
 70
     1
102
RTVSPropertyOp41
 70
     1
102
RTVSPropertyOp42
 70
     1
102
RTVSPropertyOp43
 70
     1
102
RTVSPropertyOp44
 70
     1
102
RTVSPropertyOp45
 70
     1
102
RTVSPropertyOp46
 70
     1
102
RTVSPropertyOp47
 70
     1
102
RTVSPropertyOp48
 70
     1
102
RTVSPropertyOp49
 70
     1
102
RTVSPropertyOp50
 70
     1
102
RTVSPropertyOp51
 70
     0
102
RTVSPropertyOp52
 70
     0
102
RTVSPropertyOp53
 70
     1
102
RTVSPropertyOp54
 70
     1
102
RTVSPropertyOp55
 70
     1
102
RTVSPropertyOp56
 70
     1
102
RTVSPropertyOp57
 70
     1
102
RTVSPost2010Prop28
280
     1
102
RTVSPost2010PropOp28
 70
     1
102
RTVSPost2010Prop29
280
     1
102
RTVSPost2010PropOp29
 70
     1
102
RTVSPost2010Prop30
280
     0
102
RTVSPost2010PropOp30
 70
     1
102
RTVSPost2010Prop31
280
     0
102
RTVSPost2010PropOp31
 70
     1
102
RTVSPost2010Prop32
280
     0
102
RTVSPost2010PropOp32
 70
     1
102
RTVSPost2010Prop33
280
     0
102
RTVSPost2010PropOp33
 70
     1
102
RTVSPost2010Prop34
280
     0
102
RTVSPost2010PropOp34
 70
     1
102
RTVSPost2010Prop35
280
     0
102
RTVSPost2010PropOp35
 70
     1
102
RTVSPost2010Prop36
280
     0
102
RTVSPost2010PropOp36
 70
     1
102
RTVSPost2010Prop37
 90
       50
102
RTVSPost2010PropOp37
 70
     1
102
RTVSPost2010Prop38
140
0.0
102
RTVSPost2010PropOp38
 70
     1
102
RTVSPost2010Prop39
140
1.0
102
RTVSPost2010PropOp39
 70
     1
102
RTVSPost2010Prop40
 90
        0
102
RTVSPost2010PropOp40
 70
     1
102
RTVSPost2010Prop41ColorIndex
 90
       18
102
RTVSPost2010Prop41ColorRGB
 90
        0
102
RTVSPost2010PropOp41
 70
     1
102
RTVSPost2010Prop42
 90
       50
102
RTVSPost2010PropOp42
 70
     1
102
RTVSPost2010Prop43
 90
        3
102
RTVSPost2010PropOp43
 70
     1
102
RTVSPost2010Prop44ColorIndex
 90
        5
102
RTVSPost2010Prop44ColorRGB
 90
      255
102
RTVSPost2010PropOp44
 70
     1
102
RTVSPost2010Prop45
280
     0
102
RTVSPost2010PropOp45
 70
     1
102
RTVSPost2010Prop46
 90
       50
102
RTVSPost2010PropOp46
 70
     1
102
RTVSPost2010Prop47
 90
       50
102
RTVSPost2010PropOp47
 70
     1
102
RTVSPost2010Prop48
 90
       50
102
RTVSPost2010PropOp48
 70
     1
102
RTVSPost2010Prop49
280
     0
102
RTVSPost2010PropOp49
 70
     1
102
RTVSPost2010Prop50
 90
       50
102
RTVSPost2010PropOp50
 70
     1
102
RTVSPost2010Prop51ColorIndex
 90
      256
102
RTVSPost2010Prop51ColorRGB
 90
-16777216
102
RTVSPost2010PropOp51
 70
     0
102
RTVSPost2010Prop52
140
1.0
102
RTVSPost2010PropOp52
 70
     0
102
RTVSPost2010Prop53
 90
        2
102
RTVSPost2010PropOp53
 70
     1
102
RTVSPost2010Prop54
  1
strokes_ogs.tif
102
RTVSPost2010PropOp54
 70
     1
102
RTVSPost2010Prop55
280
     0
102
RTVSPost2010PropOp55
 70
     1
102
RTVSPost2010Prop56
140
1.0
102
RTVSPost2010PropOp56
 70
     1
102
RTVSPost2010Prop57
140
1.0
102
RTVSPost2010PropOp57
 70
     1
  0
XRECORD
  5
7FF
102
{ACAD_REACTORS
330
7FE
102
}
330
7FE
100
AcDbXrecord
280
     1
102
RTVSPropertyOp0
 70
     1
102
RTVSPropertyOp1
 70
     1
102
RTVSPropertyOp2
 70
     1
102
RTVSPropertyOp3
 70
     1
102
RTVSPropertyOp4
 70
     1
102
RTVSPropertyOp5
 70
     1
102
RTVSPropertyOp6
 70
     1
102
RTVSPropertyOp7
 70
     1
102
RTVSPropertyOp8
 70
     1
102
RTVSPropertyOp9
 70
     1
102
RTVSPropertyOp10
 70
     1
102
RTVSPropertyOp11
 70
     1
102
RTVSPropertyOp12
 70
     1
102
RTVSPropertyOp13
 70
     1
102
RTVSPropertyOp14
 70
     1
102
RTVSPropertyOp15
 70
     1
102
RTVSPropertyOp16
 70
     1
102
RTVSPropertyOp17
 70
     1
102
RTVSPropertyOp18
 70
     1
102
RTVSPropertyOp19
 70
     1
102
RTVSPropertyOp20
 70
     1
102
RTVSPropertyOp21
 70
     1
102
RTVSPropertyOp22
 70
     1
102
RTVSPropertyOp23
 70
     1
102
RTVSPropertyOp24
 70
     1
102
RTVSPropertyOp25
 70
     1
102
RTVSPropertyOp26
 70
     1
102
RTVSPropertyOp27
 70
     1
102
RTVSPropertyOp28
 70
     1
102
RTVSPropertyOp29
 70
     1
102
RTVSPropertyOp30
 70
     1
102
RTVSPropertyOp31
 70
     1
102
RTVSPropertyOp32
 70
     1
102
RTVSPropertyOp33
 70
     1
102
RTVSPropertyOp34
 70
     1
102
RTVSPropertyOp35
 70
     1
102
RTVSPropertyOp36
 70
     1
102
RTVSPropertyOp37
 70
     1
102
RTVSPropertyOp38
 70
     1
102
RTVSPropertyOp39
 70
     1
102
RTVSPropertyOp40
 70
     1
102
RTVSPropertyOp41
 70
     1
102
RTVSPropertyOp42
 70
     1
102
RTVSPropertyOp43
 70
     1
102
RTVSPropertyOp44
 70
     1
102
RTVSPropertyOp45
 70
     1
102
RTVSPropertyOp46
 70
     1
102
RTVSPropertyOp47
 70
     1
102
RTVSPropertyOp48
 70
     1
102
RTVSPropertyOp49
 70
     1
102
RTVSPropertyOp50
 70
     1
102
RTVSPropertyOp51
 70
     0
102
RTVSPropertyOp52
 70
     0
102
RTVSPropertyOp53
 70
     1
102
RTVSPropertyOp54
 70
     1
102
RTVSPropertyOp55
 70
     1
102
RTVSPropertyOp56
 70
     1
102
RTVSPropertyOp57
 70
     1
102
RTVSPost2010Prop28
280
     0
102
RTVSPost2010PropOp28
 70
     1
102
RTVSPost2010Prop29
280
     1
102
RTVSPost2010PropOp29
 70
     1
102
RTVSPost2010Prop30
280
     1
102
RTVSPost2010PropOp30
 70
     1
102
RTVSPost2010Prop31
280
     0
102
RTVSPost2010PropOp31
 70
     1
102
RTVSPost2010Prop32
280
     0
102
RTVSPost2010PropOp32
 70
     1
102
RTVSPost2010Prop33
280
     0
102
RTVSPost2010PropOp33
 70
     1
102
RTVSPost2010Prop34
280
     0
102
RTVSPost2010PropOp34
 70
     1
102
RTVSPost2010Prop35
280
     0
102
RTVSPost2010PropOp35
 70
     1
102
RTVSPost2010Prop36
280
     0
102
RTVSPost2010PropOp36
 70
     1
102
RTVSPost2010Prop37
 90
       50
102
RTVSPost2010PropOp37
 70
     1
102
RTVSPost2010Prop38
140
0.0
102
RTVSPost2010PropOp38
 70
     1
102
RTVSPost2010Prop39
140
1.0
102
RTVSPost2010PropOp39
 70
     1
102
RTVSPost2010Prop40
 90
        0
102
RTVSPost2010PropOp40
 70
     1
102
RTVSPost2010Prop41ColorIndex
 90
       18
102
RTVSPost2010Prop41ColorRGB
 90
        0
102
RTVSPost2010PropOp41
 70
     1
102
RTVSPost2010Prop42
 90
       50
102
RTVSPost2010PropOp42
 70
     1
102
RTVSPost2010Prop43
 90
        3
102
RTVSPost2010PropOp43
 70
     1
102
RTVSPost2010Prop44ColorIndex
 90
        5
102
RTVSPost2010Prop44ColorRGB
 90
      255
102
RTVSPost2010PropOp44
 70
     1
102
RTVSPost2010Prop45
280
     0
102
RTVSPost2010PropOp45
 70
     1
102
RTVSPost2010Prop46
 90
       50
102
RTVSPost2010PropOp46
 70
     1
102
RTVSPost2010Prop47
 90
       50
102
RTVSPost2010PropOp47
 70
     1
102
RTVSPost2010Prop48
 90
       50
102
RTVSPost2010PropOp48
 70
     1
102
RTVSPost2010Prop49
280
     0
102
RTVSPost2010PropOp49
 70
     1
102
RTVSPost2010Prop50
 90
       50
102
RTVSPost2010PropOp50
 70
     1
102
RTVSPost2010Prop51ColorIndex
 90
      256
102
RTVSPost2010Prop51ColorRGB
 90
-16777216
102
RTVSPost2010PropOp51
 70
     0
102
RTVSPost2010Prop52
140
1.0
102
RTVSPost2010PropOp52
 70
     0
102
RTVSPost2010Prop53
 90
        2
102
RTVSPost2010PropOp53
 70
     1
102
RTVSPost2010Prop54
  1
strokes_ogs.tif
102
RTVSPost2010PropOp54
 70
     1
102
RTVSPost2010Prop55
280
     0
102
RTVSPost2010PropOp55
 70
     1
102
RTVSPost2010Prop56
140
1.0
102
RTVSPost2010PropOp56
 70
     1
102
RTVSPost2010Prop57
140
1.0
102
RTVSPost2010PropOp57
 70
     1
  0
XRECORD
  5
807
102
{ACAD_REACTORS
330
806
102
}
330
806
100
AcDbXrecord
280
     1
102
RTVSPropertyOp0
 70
     1
102
RTVSPropertyOp1
 70
     1
102
RTVSPropertyOp2
 70
     1
102
RTVSPropertyOp3
 70
     1
102
RTVSPropertyOp4
 70
     1
102
RTVSPropertyOp5
 70
     1
102
RTVSPropertyOp6
 70
     1
102
RTVSPropertyOp7
 70
     1
102
RTVSPropertyOp8
 70
     1
102
RTVSPropertyOp9
 70
     1
102
RTVSPropertyOp10
 70
     1
102
RTVSPropertyOp11
 70
     1
102
RTVSPropertyOp12
 70
     1
102
RTVSPropertyOp13
 70
     1
102
RTVSPropertyOp14
 70
     1
102
RTVSPropertyOp15
 70
     1
102
RTVSPropertyOp16
 70
     1
102
RTVSPropertyOp17
 70
     1
102
RTVSPropertyOp18
 70
     1
102
RTVSPropertyOp19
 70
     1
102
RTVSPropertyOp20
 70
     1
102
RTVSPropertyOp21
 70
     1
102
RTVSPropertyOp22
 70
     1
102
RTVSPropertyOp23
 70
     1
102
RTVSPropertyOp24
 70
     1
102
RTVSPropertyOp25
 70
     1
102
RTVSPropertyOp26
 70
     1
102
RTVSPropertyOp27
 70
     1
102
RTVSPropertyOp28
 70
     1
102
RTVSPropertyOp29
 70
     1
102
RTVSPropertyOp30
 70
     1
102
RTVSPropertyOp31
 70
     1
102
RTVSPropertyOp32
 70
     1
102
RTVSPropertyOp33
 70
     1
102
RTVSPropertyOp34
 70
     1
102
RTVSPropertyOp35
 70
     1
102
RTVSPropertyOp36
 70
     1
102
RTVSPropertyOp37
 70
     1
102
RTVSPropertyOp38
 70
     1
102
RTVSPropertyOp39
 70
     1
102
RTVSPropertyOp40
 70
     1
102
RTVSPropertyOp41
 70
     1
102
RTVSPropertyOp42
 70
     1
102
RTVSPropertyOp43
 70
     1
102
RTVSPropertyOp44
 70
     1
102
RTVSPropertyOp45
 70
     1
102
RTVSPropertyOp46
 70
     1
102
RTVSPropertyOp47
 70
     1
102
RTVSPropertyOp48
 70
     1
102
RTVSPropertyOp49
 70
     1
102
RTVSPropertyOp50
 70
     1
102
RTVSPropertyOp51
 70
     0
102
RTVSPropertyOp52
 70
     0
102
RTVSPropertyOp53
 70
     1
102
RTVSPropertyOp54
 70
     1
102
RTVSPropertyOp55
 70
     1
102
RTVSPropertyOp56
 70
     1
102
RTVSPropertyOp57
 70
     1
102
RTVSPost2010Prop28
280
     0
102
RTVSPost2010PropOp28
 70
     1
102
RTVSPost2010Prop29
280
     1
102
RTVSPost2010PropOp29
 70
     1
102
RTVSPost2010Prop30
280
     1
102
RTVSPost2010PropOp30
 70
     1
102
RTVSPost2010Prop31
280
     0
102
RTVSPost2010PropOp31
 70
     1
102
RTVSPost2010Prop32
280
     0
102
RTVSPost2010PropOp32
 70
     1
102
RTVSPost2010Prop33
280
     0
102
RTVSPost2010PropOp33
 70
     1
102
RTVSPost2010Prop34
280
     0
102
RTVSPost2010PropOp34
 70
     1
102
RTVSPost2010Prop35
280
     0
102
RTVSPost2010PropOp35
 70
     1
102
RTVSPost2010Prop36
280
     0
102
RTVSPost2010PropOp36
 70
     1
102
RTVSPost2010Prop37
 90
       50
102
RTVSPost2010PropOp37
 70
     1
102
RTVSPost2010Prop38
140
0.0
102
RTVSPost2010PropOp38
 70
     1
102
RTVSPost2010Prop39
140
1.0
102
RTVSPost2010PropOp39
 70
     1
102
RTVSPost2010Prop40
 90
        0
102
RTVSPost2010PropOp40
 70
     1
102
RTVSPost2010Prop41ColorIndex
 90
       18
102
RTVSPost2010Prop41ColorRGB
 90
        0
102
RTVSPost2010PropOp41
 70
     1
102
RTVSPost2010Prop42
 90
       50
102
RTVSPost2010PropOp42
 70
     1
102
RTVSPost2010Prop43
 90
        3
102
RTVSPost2010PropOp43
 70
     1
102
RTVSPost2010Prop44ColorIndex
 90
        5
102
RTVSPost2010Prop44ColorRGB
 90
      255
102
RTVSPost2010PropOp44
 70
     1
102
RTVSPost2010Prop45
280
     0
102
RTVSPost2010PropOp45
 70
     1
102
RTVSPost2010Prop46
 90
       50
102
RTVSPost2010PropOp46
 70
     1
102
RTVSPost2010Prop47
 90
       50
102
RTVSPost2010PropOp47
 70
     1
102
RTVSPost2010Prop48
 90
       50
102
RTVSPost2010PropOp48
 70
     1
102
RTVSPost2010Prop49
280
     0
102
RTVSPost2010PropOp49
 70
     1
102
RTVSPost2010Prop50
 90
       50
102
RTVSPost2010PropOp50
 70
     1
102
RTVSPost2010Prop51ColorIndex
 90
      256
102
RTVSPost2010Prop51ColorRGB
 90
-16777216
102
RTVSPost2010PropOp51
 70
     0
102
RTVSPost2010Prop52
140
1.0
102
RTVSPost2010PropOp52
 70
     0
102
RTVSPost2010Prop53
 90
        2
102
RTVSPost2010PropOp53
 70
     1
102
RTVSPost2010Prop54
  1
strokes_ogs.tif
102
RTVSPost2010PropOp54
 70
     1
102
RTVSPost2010Prop55
280
     0
102
RTVSPost2010PropOp55
 70
     1
102
RTVSPost2010Prop56
140
1.0
102
RTVSPost2010PropOp56
 70
     1
102
RTVSPost2010Prop57
140
1.0
102
RTVSPost2010PropOp57
 70
     1
  0
XRECORD
  5
80F
102
{ACAD_REACTORS
330
80E
102
}
330
80E
100
AcDbXrecord
280
     1
102
RTVSPropertyOp0
 70
     1
102
RTVSPropertyOp1
 70
     1
102
RTVSPropertyOp2
 70
     1
102
RTVSPropertyOp3
 70
     1
102
RTVSPropertyOp4
 70
     1
102
RTVSPropertyOp5
 70
     1
102
RTVSPropertyOp6
 70
     1
102
RTVSPropertyOp7
 70
     1
102
RTVSPropertyOp8
 70
     1
102
RTVSPropertyOp9
 70
     1
102
RTVSPropertyOp10
 70
     1
102
RTVSPropertyOp11
 70
     1
102
RTVSPropertyOp12
 70
     1
102
RTVSPropertyOp13
 70
     1
102
RTVSPropertyOp14
 70
     1
102
RTVSPropertyOp15
 70
     1
102
RTVSPropertyOp16
 70
     1
102
RTVSPropertyOp17
 70
     1
102
RTVSPropertyOp18
 70
     1
102
RTVSPropertyOp19
 70
     1
102
RTVSPropertyOp20
 70
     1
102
RTVSPropertyOp21
 70
     1
102
RTVSPropertyOp22
 70
     1
102
RTVSPropertyOp23
 70
     1
102
RTVSPropertyOp24
 70
     1
102
RTVSPropertyOp25
 70
     1
102
RTVSPropertyOp26
 70
     1
102
RTVSPropertyOp27
 70
     1
102
RTVSPropertyOp28
 70
     1
102
RTVSPropertyOp29
 70
     1
102
RTVSPropertyOp30
 70
     1
102
RTVSPropertyOp31
 70
     1
102
RTVSPropertyOp32
 70
     1
102
RTVSPropertyOp33
 70
     1
102
RTVSPropertyOp34
 70
     1
102
RTVSPropertyOp35
 70
     1
102
RTVSPropertyOp36
 70
     1
102
RTVSPropertyOp37
 70
     1
102
RTVSPropertyOp38
 70
     1
102
RTVSPropertyOp39
 70
     1
102
RTVSPropertyOp40
 70
     1
102
RTVSPropertyOp41
 70
     1
102
RTVSPropertyOp42
 70
     1
102
RTVSPropertyOp43
 70
     1
102
RTVSPropertyOp44
 70
     1
102
RTVSPropertyOp45
 70
     1
102
RTVSPropertyOp46
 70
     1
102
RTVSPropertyOp47
 70
     1
102
RTVSPropertyOp48
 70
     1
102
RTVSPropertyOp49
 70
     1
102
RTVSPropertyOp50
 70
     1
102
RTVSPropertyOp51
 70
     0
102
RTVSPropertyOp52
 70
     0
102
RTVSPropertyOp53
 70
     1
102
RTVSPropertyOp54
 70
     1
102
RTVSPropertyOp55
 70
     1
102
RTVSPropertyOp56
 70
     1
102
RTVSPropertyOp57
 70
     1
102
RTVSPost2010Prop28
280
     0
102
RTVSPost2010PropOp28
 70
     1
102
RTVSPost2010Prop29
280
     1
102
RTVSPost2010PropOp29
 70
     1
102
RTVSPost2010Prop30
280
     1
102
RTVSPost2010PropOp30
 70
     1
102
RTVSPost2010Prop31
280
     0
102
RTVSPost2010PropOp31
 70
     1
102
RTVSPost2010Prop32
280
     0
102
RTVSPost2010PropOp32
 70
     1
102
RTVSPost2010Prop33
280
     0
102
RTVSPost2010PropOp33
 70
     1
102
RTVSPost2010Prop34
280
     0
102
RTVSPost2010PropOp34
 70
     1
102
RTVSPost2010Prop35
280
     0
102
RTVSPost2010PropOp35
 70
     1
102
RTVSPost2010Prop36
280
     0
102
RTVSPost2010PropOp36
 70
     1
102
RTVSPost2010Prop37
 90
       50
102
RTVSPost2010PropOp37
 70
     1
102
RTVSPost2010Prop38
140
0.0
102
RTVSPost2010PropOp38
 70
     1
102
RTVSPost2010Prop39
140
1.0
102
RTVSPost2010PropOp39
 70
     1
102
RTVSPost2010Prop40
 90
        0
102
RTVSPost2010PropOp40
 70
     1
102
RTVSPost2010Prop41ColorIndex
 90
       18
102
RTVSPost2010Prop41ColorRGB
 90
        0
102
RTVSPost2010PropOp41
 70
     1
102
RTVSPost2010Prop42
 90
       50
102
RTVSPost2010PropOp42
 70
     1
102
RTVSPost2010Prop43
 90
        3
102
RTVSPost2010PropOp43
 70
     1
102
RTVSPost2010Prop44ColorIndex
 90
        5
102
RTVSPost2010Prop44ColorRGB
 90
      255
102
RTVSPost2010PropOp44
 70
     1
102
RTVSPost2010Prop45
280
     0
102
RTVSPost2010PropOp45
 70
     1
102
RTVSPost2010Prop46
 90
       50
102
RTVSPost2010PropOp46
 70
     1
102
RTVSPost2010Prop47
 90
       50
102
RTVSPost2010PropOp47
 70
     1
102
RTVSPost2010Prop48
 90
       50
102
RTVSPost2010PropOp48
 70
     1
102
RTVSPost2010Prop49
280
     0
102
RTVSPost2010PropOp49
 70
     1
102
RTVSPost2010Prop50
 90
       50
102
RTVSPost2010PropOp50
 70
     1
102
RTVSPost2010Prop51ColorIndex
 90
      256
102
RTVSPost2010Prop51ColorRGB
 90
-16777216
102
RTVSPost2010PropOp51
 70
     0
102
RTVSPost2010Prop52
140
1.0
102
RTVSPost2010PropOp52
 70
     0
102
RTVSPost2010Prop53
 90
        2
102
RTVSPost2010PropOp53
 70
     1
102
RTVSPost2010Prop54
  1
strokes_ogs.tif
102
RTVSPost2010PropOp54
 70
     1
102
RTVSPost2010Prop55
280
     0
102
RTVSPost2010PropOp55
 70
     1
102
RTVSPost2010Prop56
140
1.0
102
RTVSPost2010PropOp56
 70
     1
102
RTVSPost2010Prop57
140
1.0
102
RTVSPost2010PropOp57
 70
     1
  0
XRECORD
  5
803
102
{ACAD_REACTORS
330
802
102
}
330
802
100
AcDbXrecord
280
     1
102
RTVSPropertyOp0
 70
     1
102
RTVSPropertyOp1
 70
     1
102
RTVSPropertyOp2
 70
     1
102
RTVSPropertyOp3
 70
     1
102
RTVSPropertyOp4
 70
     1
102
RTVSPropertyOp5
 70
     1
102
RTVSPropertyOp6
 70
     1
102
RTVSPropertyOp7
 70
     1
102
RTVSPropertyOp8
 70
     1
102
RTVSPropertyOp9
 70
     1
102
RTVSPropertyOp10
 70
     1
102
RTVSPropertyOp11
 70
     1
102
RTVSPropertyOp12
 70
     1
102
RTVSPropertyOp13
 70
     1
102
RTVSPropertyOp14
 70
     1
102
RTVSPropertyOp15
 70
     1
102
RTVSPropertyOp16
 70
     1
102
RTVSPropertyOp17
 70
     1
102
RTVSPropertyOp18
 70
     1
102
RTVSPropertyOp19
 70
     1
102
RTVSPropertyOp20
 70
     1
102
RTVSPropertyOp21
 70
     1
102
RTVSPropertyOp22
 70
     1
102
RTVSPropertyOp23
 70
     1
102
RTVSPropertyOp24
 70
     1
102
RTVSPropertyOp25
 70
     1
102
RTVSPropertyOp26
 70
     1
102
RTVSPropertyOp27
 70
     1
102
RTVSPropertyOp28
 70
     1
102
RTVSPropertyOp29
 70
     1
102
RTVSPropertyOp30
 70
     1
102
RTVSPropertyOp31
 70
     1
102
RTVSPropertyOp32
 70
     1
102
RTVSPropertyOp33
 70
     1
102
RTVSPropertyOp34
 70
     1
102
RTVSPropertyOp35
 70
     1
102
RTVSPropertyOp36
 70
     1
102
RTVSPropertyOp37
 70
     1
102
RTVSPropertyOp38
 70
     1
102
RTVSPropertyOp39
 70
     1
102
RTVSPropertyOp40
 70
     1
102
RTVSPropertyOp41
 70
     1
102
RTVSPropertyOp42
 70
     1
102
RTVSPropertyOp43
 70
     1
102
RTVSPropertyOp44
 70
     1
102
RTVSPropertyOp45
 70
     1
102
RTVSPropertyOp46
 70
     1
102
RTVSPropertyOp47
 70
     1
102
RTVSPropertyOp48
 70
     1
102
RTVSPropertyOp49
 70
     1
102
RTVSPropertyOp50
 70
     1
102
RTVSPropertyOp51
 70
     0
102
RTVSPropertyOp52
 70
     0
102
RTVSPropertyOp53
 70
     1
102
RTVSPropertyOp54
 70
     1
102
RTVSPropertyOp55
 70
     1
102
RTVSPropertyOp56
 70
     1
102
RTVSPropertyOp57
 70
     1
102
RTVSPost2010Prop28
280
     0
102
RTVSPost2010PropOp28
 70
     1
102
RTVSPost2010Prop29
280
     1
102
RTVSPost2010PropOp29
 70
     1
102
RTVSPost2010Prop30
280
     1
102
RTVSPost2010PropOp30
 70
     1
102
RTVSPost2010Prop31
280
     0
102
RTVSPost2010PropOp31
 70
     1
102
RTVSPost2010Prop32
280
     0
102
RTVSPost2010PropOp32
 70
     1
102
RTVSPost2010Prop33
280
     0
102
RTVSPost2010PropOp33
 70
     1
102
RTVSPost2010Prop34
280
     0
102
RTVSPost2010PropOp34
 70
     1
102
RTVSPost2010Prop35
280
     0
102
RTVSPost2010PropOp35
 70
     1
102
RTVSPost2010Prop36
280
     0
102
RTVSPost2010PropOp36
 70
     1
102
RTVSPost2010Prop37
 90
       50
102
RTVSPost2010PropOp37
 70
     1
102
RTVSPost2010Prop38
140
0.0
102
RTVSPost2010PropOp38
 70
     1
102
RTVSPost2010Prop39
140
1.0
102
RTVSPost2010PropOp39
 70
     1
102
RTVSPost2010Prop40
 90
        0
102
RTVSPost2010PropOp40
 70
     1
102
RTVSPost2010Prop41ColorIndex
 90
       18
102
RTVSPost2010Prop41ColorRGB
 90
        0
102
RTVSPost2010PropOp41
 70
     1
102
RTVSPost2010Prop42
 90
       50
102
RTVSPost2010PropOp42
 70
     1
102
RTVSPost2010Prop43
 90
        3
102
RTVSPost2010PropOp43
 70
     1
102
RTVSPost2010Prop44ColorIndex
 90
        5
102
RTVSPost2010Prop44ColorRGB
 90
      255
102
RTVSPost2010PropOp44
 70
     1
102
RTVSPost2010Prop45
280
     0
102
RTVSPost2010PropOp45
 70
     1
102
RTVSPost2010Prop46
 90
       50
102
RTVSPost2010PropOp46
 70
     1
102
RTVSPost2010Prop47
 90
       50
102
RTVSPost2010PropOp47
 70
     1
102
RTVSPost2010Prop48
 90
       50
102
RTVSPost2010PropOp48
 70
     1
102
RTVSPost2010Prop49
280
     0
102
RTVSPost2010PropOp49
 70
     1
102
RTVSPost2010Prop50
 90
       50
102
RTVSPost2010PropOp50
 70
     1
102
RTVSPost2010Prop51ColorIndex
 90
      256
102
RTVSPost2010Prop51ColorRGB
 90
-16777216
102
RTVSPost2010PropOp51
 70
     0
102
RTVSPost2010Prop52
140
1.0
102
RTVSPost2010PropOp52
 70
     0
102
RTVSPost2010Prop53
 90
        2
102
RTVSPost2010PropOp53
 70
     1
102
RTVSPost2010Prop54
  1
strokes_ogs.tif
102
RTVSPost2010PropOp54
 70
     1
102
RTVSPost2010Prop55
280
     0
102
RTVSPost2010PropOp55
 70
     1
102
RTVSPost2010Prop56
140
1.0
102
RTVSPost2010PropOp56
 70
     1
102
RTVSPost2010Prop57
140
1.0
102
RTVSPost2010PropOp57
 70
     1
  0
XRECORD
  5
805
102
{ACAD_REACTORS
330
804
102
}
330
804
100
AcDbXrecord
280
     1
102
RTVSPropertyOp0
 70
     1
102
RTVSPropertyOp1
 70
     1
102
RTVSPropertyOp2
 70
     1
102
RTVSPropertyOp3
 70
     1
102
RTVSPropertyOp4
 70
     1
102
RTVSPropertyOp5
 70
     1
102
RTVSPropertyOp6
 70
     1
102
RTVSPropertyOp7
 70
     1
102
RTVSPropertyOp8
 70
     1
102
RTVSPropertyOp9
 70
     1
102
RTVSPropertyOp10
 70
     1
102
RTVSPropertyOp11
 70
     1
102
RTVSPropertyOp12
 70
     1
102
RTVSPropertyOp13
 70
     1
102
RTVSPropertyOp14
 70
     1
102
RTVSPropertyOp15
 70
     1
102
RTVSPropertyOp16
 70
     1
102
RTVSPropertyOp17
 70
     1
102
RTVSPropertyOp18
 70
     1
102
RTVSPropertyOp19
 70
     1
102
RTVSPropertyOp20
 70
     1
102
RTVSPropertyOp21
 70
     1
102
RTVSPropertyOp22
 70
     1
102
RTVSPropertyOp23
 70
     1
102
RTVSPropertyOp24
 70
     1
102
RTVSPropertyOp25
 70
     1
102
RTVSPropertyOp26
 70
     1
102
RTVSPropertyOp27
 70
     1
102
RTVSPropertyOp28
 70
     1
102
RTVSPropertyOp29
 70
     1
102
RTVSPropertyOp30
 70
     1
102
RTVSPropertyOp31
 70
     1
102
RTVSPropertyOp32
 70
     1
102
RTVSPropertyOp33
 70
     1
102
RTVSPropertyOp34
 70
     1
102
RTVSPropertyOp35
 70
     1
102
RTVSPropertyOp36
 70
     1
102
RTVSPropertyOp37
 70
     1
102
RTVSPropertyOp38
 70
     1
102
RTVSPropertyOp39
 70
     1
102
RTVSPropertyOp40
 70
     1
102
RTVSPropertyOp41
 70
     1
102
RTVSPropertyOp42
 70
     1
102
RTVSPropertyOp43
 70
     1
102
RTVSPropertyOp44
 70
     1
102
RTVSPropertyOp45
 70
     1
102
RTVSPropertyOp46
 70
     1
102
RTVSPropertyOp47
 70
     1
102
RTVSPropertyOp48
 70
     1
102
RTVSPropertyOp49
 70
     1
102
RTVSPropertyOp50
 70
     1
102
RTVSPropertyOp51
 70
     0
102
RTVSPropertyOp52
 70
     0
102
RTVSPropertyOp53
 70
     1
102
RTVSPropertyOp54
 70
     1
102
RTVSPropertyOp55
 70
     1
102
RTVSPropertyOp56
 70
     1
102
RTVSPropertyOp57
 70
     1
102
RTVSPost2010Prop28
280
     0
102
RTVSPost2010PropOp28
 70
     1
102
RTVSPost2010Prop29
280
     1
102
RTVSPost2010PropOp29
 70
     1
102
RTVSPost2010Prop30
280
     1
102
RTVSPost2010PropOp30
 70
     1
102
RTVSPost2010Prop31
280
     0
102
RTVSPost2010PropOp31
 70
     1
102
RTVSPost2010Prop32
280
     0
102
RTVSPost2010PropOp32
 70
     1
102
RTVSPost2010Prop33
280
     0
102
RTVSPost2010PropOp33
 70
     1
102
RTVSPost2010Prop34
280
     0
102
RTVSPost2010PropOp34
 70
     1
102
RTVSPost2010Prop35
280
     0
102
RTVSPost2010PropOp35
 70
     1
102
RTVSPost2010Prop36
280
     0
102
RTVSPost2010PropOp36
 70
     1
102
RTVSPost2010Prop37
 90
       50
102
RTVSPost2010PropOp37
 70
     1
102
RTVSPost2010Prop38
140
0.0
102
RTVSPost2010PropOp38
 70
     1
102
RTVSPost2010Prop39
140
1.0
102
RTVSPost2010PropOp39
 70
     1
102
RTVSPost2010Prop40
 90
        0
102
RTVSPost2010PropOp40
 70
     1
102
RTVSPost2010Prop41ColorIndex
 90
       18
102
RTVSPost2010Prop41ColorRGB
 90
        0
102
RTVSPost2010PropOp41
 70
     1
102
RTVSPost2010Prop42
 90
       50
102
RTVSPost2010PropOp42
 70
     1
102
RTVSPost2010Prop43
 90
        3
102
RTVSPost2010PropOp43
 70
     1
102
RTVSPost2010Prop44ColorIndex
 90
        5
102
RTVSPost2010Prop44ColorRGB
 90
      255
102
RTVSPost2010PropOp44
 70
     1
102
RTVSPost2010Prop45
280
     0
102
RTVSPost2010PropOp45
 70
     1
102
RTVSPost2010Prop46
 90
       50
102
RTVSPost2010PropOp46
 70
     1
102
RTVSPost2010Prop47
 90
       50
102
RTVSPost2010PropOp47
 70
     1
102
RTVSPost2010Prop48
 90
       50
102
RTVSPost2010PropOp48
 70
     1
102
RTVSPost2010Prop49
280
     0
102
RTVSPost2010PropOp49
 70
     1
102
RTVSPost2010Prop50
 90
       50
102
RTVSPost2010PropOp50
 70
     1
102
RTVSPost2010Prop51ColorIndex
 90
      256
102
RTVSPost2010Prop51ColorRGB
 90
-16777216
102
RTVSPost2010PropOp51
 70
     0
102
RTVSPost2010Prop52
140
1.0
102
RTVSPost2010PropOp52
 70
     0
102
RTVSPost2010Prop53
 90
        2
102
RTVSPost2010PropOp53
 70
     1
102
RTVSPost2010Prop54
  1
strokes_ogs.tif
102
RTVSPost2010PropOp54
 70
     1
102
RTVSPost2010Prop55
280
     0
102
RTVSPost2010PropOp55
 70
     1
102
RTVSPost2010Prop56
140
1.0
102
RTVSPost2010PropOp56
 70
     1
102
RTVSPost2010Prop57
140
1.0
102
RTVSPost2010PropOp57
 70
     1
  0
XRECORD
  5
815
102
{ACAD_REACTORS
330
814
102
}
330
814
100
AcDbXrecord
280
     1
102
RTVSPropertyOp0
 70
     0
102
RTVSPropertyOp1
 70
     0
102
RTVSPropertyOp2
 70
     0
102
RTVSPropertyOp3
 70
     0
102
RTVSPropertyOp4
 70
     0
102
RTVSPropertyOp5
 70
     0
102
RTVSPropertyOp6
 70
     0
102
RTVSPropertyOp7
 70
     0
102
RTVSPropertyOp8
 70
     0
102
RTVSPropertyOp9
 70
     0
102
RTVSPropertyOp10
 70
     0
102
RTVSPropertyOp11
 70
     0
102
RTVSPropertyOp12
 70
     0
102
RTVSPropertyOp13
 70
     0
102
RTVSPropertyOp14
 70
     2
102
RTVSPropertyOp15
 70
     0
102
RTVSPropertyOp16
 70
     0
102
RTVSPropertyOp17
 70
     0
102
RTVSPropertyOp18
 70
     0
102
RTVSPropertyOp19
 70
     0
102
RTVSPropertyOp20
 70
     0
102
RTVSPropertyOp21
 70
     0
102
RTVSPropertyOp22
 70
     0
102
RTVSPropertyOp23
 70
     0
102
RTVSPropertyOp24
 70
     0
102
RTVSPropertyOp25
 70
     0
102
RTVSPropertyOp26
 70
     0
102
RTVSPropertyOp27
 70
     0
102
RTVSPropertyOp28
 70
     0
102
RTVSPropertyOp29
 70
     0
102
RTVSPropertyOp30
 70
     0
102
RTVSPropertyOp31
 70
     0
102
RTVSPropertyOp32
 70
     0
102
RTVSPropertyOp33
 70
     0
102
RTVSPropertyOp34
 70
     0
102
RTVSPropertyOp35
 70
     0
102
RTVSPropertyOp36
 70
     0
102
RTVSPropertyOp37
 70
     0
102
RTVSPropertyOp38
 70
     0
102
RTVSPropertyOp39
 70
     0
102
RTVSPropertyOp40
 70
     0
102
RTVSPropertyOp41
 70
     0
102
RTVSPropertyOp42
 70
     0
102
RTVSPropertyOp43
 70
     0
102
RTVSPropertyOp44
 70
     0
102
RTVSPropertyOp45
 70
     0
102
RTVSPropertyOp46
 70
     0
102
RTVSPropertyOp47
 70
     0
102
RTVSPropertyOp48
 70
     0
102
RTVSPropertyOp49
 70
     0
102
RTVSPropertyOp50
 70
     0
102
RTVSPropertyOp51
 70
     0
102
RTVSPropertyOp52
 70
     0
102
RTVSPropertyOp53
 70
     0
102
RTVSPropertyOp54
 70
     0
102
RTVSPropertyOp55
 70
     0
102
RTVSPropertyOp56
 70
     0
102
RTVSPropertyOp57
 70
     0
102
RTVSPost2010Prop28
280
     0
102
RTVSPost2010PropOp28
 70
     0
102
RTVSPost2010Prop29
280
     1
102
RTVSPost2010PropOp29
 70
     0
102
RTVSPost2010Prop30
280
     1
102
RTVSPost2010PropOp30
 70
     0
102
RTVSPost2010Prop31
280
     0
102
RTVSPost2010PropOp31
 70
     0
102
RTVSPost2010Prop32
280
     0
102
RTVSPost2010PropOp32
 70
     0
102
RTVSPost2010Prop33
280
     0
102
RTVSPost2010PropOp33
 70
     0
102
RTVSPost2010Prop34
280
     0
102
RTVSPost2010PropOp34
 70
     0
102
RTVSPost2010Prop35
280
     0
102
RTVSPost2010PropOp35
 70
     0
102
RTVSPost2010Prop36
280
     0
102
RTVSPost2010PropOp36
 70
     0
102
RTVSPost2010Prop37
 90
       50
102
RTVSPost2010PropOp37
 70
     0
102
RTVSPost2010Prop38
140
0.0
102
RTVSPost2010PropOp38
 70
     0
102
RTVSPost2010Prop39
140
1.0
102
RTVSPost2010PropOp39
 70
     0
102
RTVSPost2010Prop40
 90
        0
102
RTVSPost2010PropOp40
 70
     0
102
RTVSPost2010Prop41ColorIndex
 90
       18
102
RTVSPost2010Prop41ColorRGB
 90
        0
102
RTVSPost2010PropOp41
 70
     0
102
RTVSPost2010Prop42
 90
       50
102
RTVSPost2010PropOp42
 70
     0
102
RTVSPost2010Prop43
 90
        3
102
RTVSPost2010PropOp43
 70
     0
102
RTVSPost2010Prop44ColorIndex
 90
        5
102
RTVSPost2010Prop44ColorRGB
 90
      255
102
RTVSPost2010PropOp44
 70
     0
102
RTVSPost2010Prop45
280
     0
102
RTVSPost2010PropOp45
 70
     0
102
RTVSPost2010Prop46
 90
       50
102
RTVSPost2010PropOp46
 70
     0
102
RTVSPost2010Prop47
 90
       50
102
RTVSPost2010PropOp47
 70
     0
102
RTVSPost2010Prop48
 90
       50
102
RTVSPost2010PropOp48
 70
     0
102
RTVSPost2010Prop49
280
     0
102
RTVSPost2010PropOp49
 70
     0
102
RTVSPost2010Prop50
 90
       50
102
RTVSPost2010PropOp50
 70
     0
102
RTVSPost2010Prop51ColorIndex
 90
      256
102
RTVSPost2010Prop51ColorRGB
 90
-16777216
102
RTVSPost2010PropOp51
 70
     0
102
RTVSPost2010Prop52
140
1.0
102
RTVSPost2010PropOp52
 70
     0
102
RTVSPost2010Prop53
 90
        2
102
RTVSPost2010PropOp53
 70
     0
102
RTVSPost2010Prop54
  1
strokes_ogs.tif
102
RTVSPost2010PropOp54
 70
     0
102
RTVSPost2010Prop55
280
     0
102
RTVSPost2010PropOp55
 70
     0
102
RTVSPost2010Prop56
140
1.0
102
RTVSPost2010PropOp56
 70
     0
102
RTVSPost2010Prop57
140
1.0
102
RTVSPost2010PropOp57
 70
     0
  0
XRECORD
  5
80D
102
{ACAD_REACTORS
330
80C
102
}
330
80C
100
AcDbXrecord
280
     1
102
RTVSPropertyOp0
 70
     1
102
RTVSPropertyOp1
 70
     1
102
RTVSPropertyOp2
 70
     1
102
RTVSPropertyOp3
 70
     1
102
RTVSPropertyOp4
 70
     1
102
RTVSPropertyOp5
 70
     1
102
RTVSPropertyOp6
 70
     1
102
RTVSPropertyOp7
 70
     1
102
RTVSPropertyOp8
 70
     1
102
RTVSPropertyOp9
 70
     1
102
RTVSPropertyOp10
 70
     1
102
RTVSPropertyOp11
 70
     1
102
RTVSPropertyOp12
 70
     1
102
RTVSPropertyOp13
 70
     1
102
RTVSPropertyOp14
 70
     1
102
RTVSPropertyOp15
 70
     1
102
RTVSPropertyOp16
 70
     1
102
RTVSPropertyOp17
 70
     1
102
RTVSPropertyOp18
 70
     1
102
RTVSPropertyOp19
 70
     1
102
RTVSPropertyOp20
 70
     1
102
RTVSPropertyOp21
 70
     1
102
RTVSPropertyOp22
 70
     1
102
RTVSPropertyOp23
 70
     1
102
RTVSPropertyOp24
 70
     1
102
RTVSPropertyOp25
 70
     1
102
RTVSPropertyOp26
 70
     1
102
RTVSPropertyOp27
 70
     1
102
RTVSPropertyOp28
 70
     1
102
RTVSPropertyOp29
 70
     1
102
RTVSPropertyOp30
 70
     1
102
RTVSPropertyOp31
 70
     1
102
RTVSPropertyOp32
 70
     1
102
RTVSPropertyOp33
 70
     1
102
RTVSPropertyOp34
 70
     1
102
RTVSPropertyOp35
 70
     1
102
RTVSPropertyOp36
 70
     1
102
RTVSPropertyOp37
 70
     1
102
RTVSPropertyOp38
 70
     1
102
RTVSPropertyOp39
 70
     1
102
RTVSPropertyOp40
 70
     1
102
RTVSPropertyOp41
 70
     1
102
RTVSPropertyOp42
 70
     1
102
RTVSPropertyOp43
 70
     1
102
RTVSPropertyOp44
 70
     1
102
RTVSPropertyOp45
 70
     1
102
RTVSPropertyOp46
 70
     1
102
RTVSPropertyOp47
 70
     1
102
RTVSPropertyOp48
 70
     1
102
RTVSPropertyOp49
 70
     1
102
RTVSPropertyOp50
 70
     1
102
RTVSPropertyOp51
 70
     0
102
RTVSPropertyOp52
 70
     0
102
RTVSPropertyOp53
 70
     1
102
RTVSPropertyOp54
 70
     1
102
RTVSPropertyOp55
 70
     1
102
RTVSPropertyOp56
 70
     1
102
RTVSPropertyOp57
 70
     1
102
RTVSPost2010Prop28
280
     0
102
RTVSPost2010PropOp28
 70
     1
102
RTVSPost2010Prop29
280
     1
102
RTVSPost2010PropOp29
 70
     1
102
RTVSPost2010Prop30
280
     1
102
RTVSPost2010PropOp30
 70
     1
102
RTVSPost2010Prop31
280
     0
102
RTVSPost2010PropOp31
 70
     1
102
RTVSPost2010Prop32
280
     0
102
RTVSPost2010PropOp32
 70
     1
102
RTVSPost2010Prop33
280
     0
102
RTVSPost2010PropOp33
 70
     1
102
RTVSPost2010Prop34
280
     0
102
RTVSPost2010PropOp34
 70
     1
102
RTVSPost2010Prop35
280
     0
102
RTVSPost2010PropOp35
 70
     1
102
RTVSPost2010Prop36
280
     0
102
RTVSPost2010PropOp36
 70
     1
102
RTVSPost2010Prop37
 90
       50
102
RTVSPost2010PropOp37
 70
     1
102
RTVSPost2010Prop38
140
0.0
102
RTVSPost2010PropOp38
 70
     1
102
RTVSPost2010Prop39
140
1.0
102
RTVSPost2010PropOp39
 70
     1
102
RTVSPost2010Prop40
 90
        0
102
RTVSPost2010PropOp40
 70
     1
102
RTVSPost2010Prop41ColorIndex
 90
       18
102
RTVSPost2010Prop41ColorRGB
 90
        0
102
RTVSPost2010PropOp41
 70
     1
102
RTVSPost2010Prop42
 90
       50
102
RTVSPost2010PropOp42
 70
     1
102
RTVSPost2010Prop43
 90
        3
102
RTVSPost2010PropOp43
 70
     1
102
RTVSPost2010Prop44ColorIndex
 90
        5
102
RTVSPost2010Prop44ColorRGB
 90
      255
102
RTVSPost2010PropOp44
 70
     1
102
RTVSPost2010Prop45
280
     0
102
RTVSPost2010PropOp45
 70
     1
102
RTVSPost2010Prop46
 90
       50
102
RTVSPost2010PropOp46
 70
     1
102
RTVSPost2010Prop47
 90
       50
102
RTVSPost2010PropOp47
 70
     1
102
RTVSPost2010Prop48
 90
       50
102
RTVSPost2010PropOp48
 70
     1
102
RTVSPost2010Prop49
280
     0
102
RTVSPost2010PropOp49
 70
     1
102
RTVSPost2010Prop50
 90
       50
102
RTVSPost2010PropOp50
 70
     1
102
RTVSPost2010Prop51ColorIndex
 90
      256
102
RTVSPost2010Prop51ColorRGB
 90
-16777216
102
RTVSPost2010PropOp51
 70
     0
102
RTVSPost2010Prop52
140
1.0
102
RTVSPost2010PropOp52
 70
     0
102
RTVSPost2010Prop53
 90
        2
102
RTVSPost2010PropOp53
 70
     1
102
RTVSPost2010Prop54
  1
strokes_ogs.tif
102
RTVSPost2010PropOp54
 70
     1
102
RTVSPost2010Prop55
280
     0
102
RTVSPost2010PropOp55
 70
     1
102
RTVSPost2010Prop56
140
1.0
102
RTVSPost2010PropOp56
 70
     1
102
RTVSPost2010Prop57
140
1.0
102
RTVSPost2010PropOp57
 70
     1
  0
XRECORD
  5
7F1
102
{ACAD_REACTORS
330
7F0
102
}
330
7F0
100
AcDbXrecord
280
     1
102
RTVSPropertyOp0
 70
     1
102
RTVSPropertyOp1
 70
     1
102
RTVSPropertyOp2
 70
     1
102
RTVSPropertyOp3
 70
     1
102
RTVSPropertyOp4
 70
     1
102
RTVSPropertyOp5
 70
     1
102
RTVSPropertyOp6
 70
     1
102
RTVSPropertyOp7
 70
     1
102
RTVSPropertyOp8
 70
     1
102
RTVSPropertyOp9
 70
     1
102
RTVSPropertyOp10
 70
     1
102
RTVSPropertyOp11
 70
     1
102
RTVSPropertyOp12
 70
     1
102
RTVSPropertyOp13
 70
     1
102
RTVSPropertyOp14
 70
     1
102
RTVSPropertyOp15
 70
     1
102
RTVSPropertyOp16
 70
     1
102
RTVSPropertyOp17
 70
     1
102
RTVSPropertyOp18
 70
     1
102
RTVSPropertyOp19
 70
     1
102
RTVSPropertyOp20
 70
     1
102
RTVSPropertyOp21
 70
     1
102
RTVSPropertyOp22
 70
     1
102
RTVSPropertyOp23
 70
     1
102
RTVSPropertyOp24
 70
     1
102
RTVSPropertyOp25
 70
     1
102
RTVSPropertyOp26
 70
     1
102
RTVSPropertyOp27
 70
     1
102
RTVSPropertyOp28
 70
     1
102
RTVSPropertyOp29
 70
     1
102
RTVSPropertyOp30
 70
     1
102
RTVSPropertyOp31
 70
     1
102
RTVSPropertyOp32
 70
     1
102
RTVSPropertyOp33
 70
     1
102
RTVSPropertyOp34
 70
     1
102
RTVSPropertyOp35
 70
     1
102
RTVSPropertyOp36
 70
     1
102
RTVSPropertyOp37
 70
     1
102
RTVSPropertyOp38
 70
     1
102
RTVSPropertyOp39
 70
     1
102
RTVSPropertyOp40
 70
     1
102
RTVSPropertyOp41
 70
     1
102
RTVSPropertyOp42
 70
     1
102
RTVSPropertyOp43
 70
     1
102
RTVSPropertyOp44
 70
     1
102
RTVSPropertyOp45
 70
     1
102
RTVSPropertyOp46
 70
     1
102
RTVSPropertyOp47
 70
     1
102
RTVSPropertyOp48
 70
     1
102
RTVSPropertyOp49
 70
     1
102
RTVSPropertyOp50
 70
     1
102
RTVSPropertyOp51
 70
     0
102
RTVSPropertyOp52
 70
     0
102
RTVSPropertyOp53
 70
     1
102
RTVSPropertyOp54
 70
     1
102
RTVSPropertyOp55
 70
     1
102
RTVSPropertyOp56
 70
     1
102
RTVSPropertyOp57
 70
     1
102
RTVSPost2010Prop28
280
     0
102
RTVSPost2010PropOp28
 70
     1
102
RTVSPost2010Prop29
280
     1
102
RTVSPost2010PropOp29
 70
     1
102
RTVSPost2010Prop30
280
     1
102
RTVSPost2010PropOp30
 70
     1
102
RTVSPost2010Prop31
280
     0
102
RTVSPost2010PropOp31
 70
     1
102
RTVSPost2010Prop32
280
     0
102
RTVSPost2010PropOp32
 70
     1
102
RTVSPost2010Prop33
280
     0
102
RTVSPost2010PropOp33
 70
     1
102
RTVSPost2010Prop34
280
     0
102
RTVSPost2010PropOp34
 70
     1
102
RTVSPost2010Prop35
280
     0
102
RTVSPost2010PropOp35
 70
     1
102
RTVSPost2010Prop36
280
     0
102
RTVSPost2010PropOp36
 70
     1
102
RTVSPost2010Prop37
 90
       50
102
RTVSPost2010PropOp37
 70
     1
102
RTVSPost2010Prop38
140
0.0
102
RTVSPost2010PropOp38
 70
     1
102
RTVSPost2010Prop39
140
1.0
102
RTVSPost2010PropOp39
 70
     1
102
RTVSPost2010Prop40
 90
        0
102
RTVSPost2010PropOp40
 70
     1
102
RTVSPost2010Prop41ColorIndex
 90
       18
102
RTVSPost2010Prop41ColorRGB
 90
        0
102
RTVSPost2010PropOp41
 70
     1
102
RTVSPost2010Prop42
 90
       50
102
RTVSPost2010PropOp42
 70
     1
102
RTVSPost2010Prop43
 90
        3
102
RTVSPost2010PropOp43
 70
     1
102
RTVSPost2010Prop44ColorIndex
 90
        5
102
RTVSPost2010Prop44ColorRGB
 90
      255
102
RTVSPost2010PropOp44
 70
     1
102
RTVSPost2010Prop45
280
     0
102
RTVSPost2010PropOp45
 70
     1
102
RTVSPost2010Prop46
 90
       50
102
RTVSPost2010PropOp46
 70
     1
102
RTVSPost2010Prop47
 90
       50
102
RTVSPost2010PropOp47
 70
     1
102
RTVSPost2010Prop48
 90
       50
102
RTVSPost2010PropOp48
 70
     1
102
RTVSPost2010Prop49
280
     0
102
RTVSPost2010PropOp49
 70
     1
102
RTVSPost2010Prop50
 90
       50
102
RTVSPost2010PropOp50
 70
     1
102
RTVSPost2010Prop51ColorIndex
 90
      256
102
RTVSPost2010Prop51ColorRGB
 90
-16777216
102
RTVSPost2010PropOp51
 70
     0
102
RTVSPost2010Prop52
140
1.0
102
RTVSPost2010PropOp52
 70
     0
102
RTVSPost2010Prop53
 90
        2
102
RTVSPost2010PropOp53
 70
     1
102
RTVSPost2010Prop54
  1
strokes_ogs.tif
102
RTVSPost2010PropOp54
 70
     1
102
RTVSPost2010Prop55
280
     0
102
RTVSPost2010PropOp55
 70
     1
102
RTVSPost2010Prop56
140
1.0
102
RTVSPost2010PropOp56
 70
     1
102
RTVSPost2010Prop57
140
1.0
102
RTVSPost2010PropOp57
 70
     1
  0
XRECORD
  5
7F3
102
{ACAD_REACTORS
330
7F2
102
}
330
7F2
100
AcDbXrecord
280
     1
102
RTVSPropertyOp0
 70
     1
102
RTVSPropertyOp1
 70
     1
102
RTVSPropertyOp2
 70
     1
102
RTVSPropertyOp3
 70
     1
102
RTVSPropertyOp4
 70
     1
102
RTVSPropertyOp5
 70
     1
102
RTVSPropertyOp6
 70
     1
102
RTVSPropertyOp7
 70
     1
102
RTVSPropertyOp8
 70
     1
102
RTVSPropertyOp9
 70
     1
102
RTVSPropertyOp10
 70
     1
102
RTVSPropertyOp11
 70
     1
102
RTVSPropertyOp12
 70
     1
102
RTVSPropertyOp13
 70
     1
102
RTVSPropertyOp14
 70
     1
102
RTVSPropertyOp15
 70
     1
102
RTVSPropertyOp16
 70
     1
102
RTVSPropertyOp17
 70
     1
102
RTVSPropertyOp18
 70
     1
102
RTVSPropertyOp19
 70
     1
102
RTVSPropertyOp20
 70
     1
102
RTVSPropertyOp21
 70
     1
102
RTVSPropertyOp22
 70
     1
102
RTVSPropertyOp23
 70
     1
102
RTVSPropertyOp24
 70
     1
102
RTVSPropertyOp25
 70
     1
102
RTVSPropertyOp26
 70
     1
102
RTVSPropertyOp27
 70
     1
102
RTVSPropertyOp28
 70
     1
102
RTVSPropertyOp29
 70
     1
102
RTVSPropertyOp30
 70
     1
102
RTVSPropertyOp31
 70
     1
102
RTVSPropertyOp32
 70
     1
102
RTVSPropertyOp33
 70
     1
102
RTVSPropertyOp34
 70
     1
102
RTVSPropertyOp35
 70
     1
102
RTVSPropertyOp36
 70
     1
102
RTVSPropertyOp37
 70
     1
102
RTVSPropertyOp38
 70
     1
102
RTVSPropertyOp39
 70
     1
102
RTVSPropertyOp40
 70
     1
102
RTVSPropertyOp41
 70
     1
102
RTVSPropertyOp42
 70
     1
102
RTVSPropertyOp43
 70
     1
102
RTVSPropertyOp44
 70
     1
102
RTVSPropertyOp45
 70
     1
102
RTVSPropertyOp46
 70
     1
102
RTVSPropertyOp47
 70
     1
102
RTVSPropertyOp48
 70
     1
102
RTVSPropertyOp49
 70
     1
102
RTVSPropertyOp50
 70
     1
102
RTVSPropertyOp51
 70
     0
102
RTVSPropertyOp52
 70
     0
102
RTVSPropertyOp53
 70
     1
102
RTVSPropertyOp54
 70
     1
102
RTVSPropertyOp55
 70
     1
102
RTVSPropertyOp56
 70
     1
102
RTVSPropertyOp57
 70
     1
102
RTVSPost2010Prop28
280
     0
102
RTVSPost2010PropOp28
 70
     1
102
RTVSPost2010Prop29
280
     1
102
RTVSPost2010PropOp29
 70
     1
102
RTVSPost2010Prop30
280
     1
102
RTVSPost2010PropOp30
 70
     1
102
RTVSPost2010Prop31
280
     0
102
RTVSPost2010PropOp31
 70
     1
102
RTVSPost2010Prop32
280
     0
102
RTVSPost2010PropOp32
 70
     1
102
RTVSPost2010Prop33
280
     0
102
RTVSPost2010PropOp33
 70
     1
102
RTVSPost2010Prop34
280
     0
102
RTVSPost2010PropOp34
 70
     1
102
RTVSPost2010Prop35
280
     0
102
RTVSPost2010PropOp35
 70
     1
102
RTVSPost2010Prop36
280
     0
102
RTVSPost2010PropOp36
 70
     1
102
RTVSPost2010Prop37
 90
       50
102
RTVSPost2010PropOp37
 70
     1
102
RTVSPost2010Prop38
140
0.0
102
RTVSPost2010PropOp38
 70
     1
102
RTVSPost2010Prop39
140
1.0
102
RTVSPost2010PropOp39
 70
     1
102
RTVSPost2010Prop40
 90
        0
102
RTVSPost2010PropOp40
 70
     1
102
RTVSPost2010Prop41ColorIndex
 90
       18
102
RTVSPost2010Prop41ColorRGB
 90
        0
102
RTVSPost2010PropOp41
 70
     1
102
RTVSPost2010Prop42
 90
       50
102
RTVSPost2010PropOp42
 70
     1
102
RTVSPost2010Prop43
 90
        3
102
RTVSPost2010PropOp43
 70
     1
102
RTVSPost2010Prop44ColorIndex
 90
        5
102
RTVSPost2010Prop44ColorRGB
 90
      255
102
RTVSPost2010PropOp44
 70
     1
102
RTVSPost2010Prop45
280
     0
102
RTVSPost2010PropOp45
 70
     1
102
RTVSPost2010Prop46
 90
       50
102
RTVSPost2010PropOp46
 70
     1
102
RTVSPost2010Prop47
 90
       50
102
RTVSPost2010PropOp47
 70
     1
102
RTVSPost2010Prop48
 90
       50
102
RTVSPost2010PropOp48
 70
     1
102
RTVSPost2010Prop49
280
     0
102
RTVSPost2010PropOp49
 70
     1
102
RTVSPost2010Prop50
 90
       50
102
RTVSPost2010PropOp50
 70
     1
102
RTVSPost2010Prop51ColorIndex
 90
      256
102
RTVSPost2010Prop51ColorRGB
 90
-16777216
102
RTVSPost2010PropOp51
 70
     0
102
RTVSPost2010Prop52
140
1.0
102
RTVSPost2010PropOp52
 70
     0
102
RTVSPost2010Prop53
 90
        2
102
RTVSPost2010PropOp53
 70
     1
102
RTVSPost2010Prop54
  1
strokes_ogs.tif
102
RTVSPost2010PropOp54
 70
     1
102
RTVSPost2010Prop55
280
     0
102
RTVSPost2010PropOp55
 70
     1
102
RTVSPost2010Prop56
140
1.0
102
RTVSPost2010PropOp56
 70
     1
102
RTVSPost2010Prop57
140
1.0
102
RTVSPost2010PropOp57
 70
     1
  0
XRECORD
  5
7F5
102
{ACAD_REACTORS
330
7F4
102
}
330
7F4
100
AcDbXrecord
280
     1
102
RTVSPropertyOp0
 70
     1
102
RTVSPropertyOp1
 70
     1
102
RTVSPropertyOp2
 70
     1
102
RTVSPropertyOp3
 70
     1
102
RTVSPropertyOp4
 70
     1
102
RTVSPropertyOp5
 70
     1
102
RTVSPropertyOp6
 70
     1
102
RTVSPropertyOp7
 70
     1
102
RTVSPropertyOp8
 70
     1
102
RTVSPropertyOp9
 70
     1
102
RTVSPropertyOp10
 70
     1
102
RTVSPropertyOp11
 70
     1
102
RTVSPropertyOp12
 70
     1
102
RTVSPropertyOp13
 70
     1
102
RTVSPropertyOp14
 70
     1
102
RTVSPropertyOp15
 70
     1
102
RTVSPropertyOp16
 70
     1
102
RTVSPropertyOp17
 70
     1
102
RTVSPropertyOp18
 70
     1
102
RTVSPropertyOp19
 70
     1
102
RTVSPropertyOp20
 70
     1
102
RTVSPropertyOp21
 70
     1
102
RTVSPropertyOp22
 70
     1
102
RTVSPropertyOp23
 70
     1
102
RTVSPropertyOp24
 70
     1
102
RTVSPropertyOp25
 70
     1
102
RTVSPropertyOp26
 70
     1
102
RTVSPropertyOp27
 70
     1
102
RTVSPropertyOp28
 70
     1
102
RTVSPropertyOp29
 70
     1
102
RTVSPropertyOp30
 70
     1
102
RTVSPropertyOp31
 70
     1
102
RTVSPropertyOp32
 70
     1
102
RTVSPropertyOp33
 70
     1
102
RTVSPropertyOp34
 70
     1
102
RTVSPropertyOp35
 70
     1
102
RTVSPropertyOp36
 70
     1
102
RTVSPropertyOp37
 70
     1
102
RTVSPropertyOp38
 70
     1
102
RTVSPropertyOp39
 70
     1
102
RTVSPropertyOp40
 70
     1
102
RTVSPropertyOp41
 70
     1
102
RTVSPropertyOp42
 70
     1
102
RTVSPropertyOp43
 70
     1
102
RTVSPropertyOp44
 70
     1
102
RTVSPropertyOp45
 70
     1
102
RTVSPropertyOp46
 70
     1
102
RTVSPropertyOp47
 70
     1
102
RTVSPropertyOp48
 70
     1
102
RTVSPropertyOp49
 70
     1
102
RTVSPropertyOp50
 70
     1
102
RTVSPropertyOp51
 70
     0
102
RTVSPropertyOp52
 70
     0
102
RTVSPropertyOp53
 70
     1
102
RTVSPropertyOp54
 70
     1
102
RTVSPropertyOp55
 70
     1
102
RTVSPropertyOp56
 70
     1
102
RTVSPropertyOp57
 70
     1
102
RTVSPost2010Prop28
280
     0
102
RTVSPost2010PropOp28
 70
     1
102
RTVSPost2010Prop29
280
     1
102
RTVSPost2010PropOp29
 70
     1
102
RTVSPost2010Prop30
280
     1
102
RTVSPost2010PropOp30
 70
     1
102
RTVSPost2010Prop31
280
     0
102
RTVSPost2010PropOp31
 70
     1
102
RTVSPost2010Prop32
280
     0
102
RTVSPost2010PropOp32
 70
     1
102
RTVSPost2010Prop33
280
     0
102
RTVSPost2010PropOp33
 70
     1
102
RTVSPost2010Prop34
280
     0
102
RTVSPost2010PropOp34
 70
     1
102
RTVSPost2010Prop35
280
     0
102
RTVSPost2010PropOp35
 70
     1
102
RTVSPost2010Prop36
280
     0
102
RTVSPost2010PropOp36
 70
     1
102
RTVSPost2010Prop37
 90
       50
102
RTVSPost2010PropOp37
 70
     1
102
RTVSPost2010Prop38
140
0.0
102
RTVSPost2010PropOp38
 70
     1
102
RTVSPost2010Prop39
140
1.0
102
RTVSPost2010PropOp39
 70
     1
102
RTVSPost2010Prop40
 90
        0
102
RTVSPost2010PropOp40
 70
     1
102
RTVSPost2010Prop41ColorIndex
 90
       18
102
RTVSPost2010Prop41ColorRGB
 90
        0
102
RTVSPost2010PropOp41
 70
     1
102
RTVSPost2010Prop42
 90
       50
102
RTVSPost2010PropOp42
 70
     1
102
RTVSPost2010Prop43
 90
        3
102
RTVSPost2010PropOp43
 70
     1
102
RTVSPost2010Prop44ColorIndex
 90
        5
102
RTVSPost2010Prop44ColorRGB
 90
      255
102
RTVSPost2010PropOp44
 70
     1
102
RTVSPost2010Prop45
280
     0
102
RTVSPost2010PropOp45
 70
     1
102
RTVSPost2010Prop46
 90
       50
102
RTVSPost2010PropOp46
 70
     1
102
RTVSPost2010Prop47
 90
       50
102
RTVSPost2010PropOp47
 70
     1
102
RTVSPost2010Prop48
 90
       50
102
RTVSPost2010PropOp48
 70
     1
102
RTVSPost2010Prop49
280
     0
102
RTVSPost2010PropOp49
 70
     1
102
RTVSPost2010Prop50
 90
       50
102
RTVSPost2010PropOp50
 70
     1
102
RTVSPost2010Prop51ColorIndex
 90
      256
102
RTVSPost2010Prop51ColorRGB
 90
-16777216
102
RTVSPost2010PropOp51
 70
     0
102
RTVSPost2010Prop52
140
1.0
102
RTVSPost2010PropOp52
 70
     0
102
RTVSPost2010Prop53
 90
        2
102
RTVSPost2010PropOp53
 70
     1
102
RTVSPost2010Prop54
  1
strokes_ogs.tif
102
RTVSPost2010PropOp54
 70
     1
102
RTVSPost2010Prop55
280
     0
102
RTVSPost2010PropOp55
 70
     1
102
RTVSPost2010Prop56
140
1.0
102
RTVSPost2010PropOp56
 70
     1
102
RTVSPost2010Prop57
140
1.0
102
RTVSPost2010PropOp57
 70
     1
  0
XRECORD
  5
7F7
102
{ACAD_REACTORS
330
7F6
102
}
330
7F6
100
AcDbXrecord
280
     1
102
RTVSPropertyOp0
 70
     1
102
RTVSPropertyOp1
 70
     1
102
RTVSPropertyOp2
 70
     1
102
RTVSPropertyOp3
 70
     1
102
RTVSPropertyOp4
 70
     1
102
RTVSPropertyOp5
 70
     1
102
RTVSPropertyOp6
 70
     1
102
RTVSPropertyOp7
 70
     1
102
RTVSPropertyOp8
 70
     1
102
RTVSPropertyOp9
 70
     1
102
RTVSPropertyOp10
 70
     1
102
RTVSPropertyOp11
 70
     1
102
RTVSPropertyOp12
 70
     1
102
RTVSPropertyOp13
 70
     1
102
RTVSPropertyOp14
 70
     1
102
RTVSPropertyOp15
 70
     1
102
RTVSPropertyOp16
 70
     1
102
RTVSPropertyOp17
 70
     1
102
RTVSPropertyOp18
 70
     1
102
RTVSPropertyOp19
 70
     1
102
RTVSPropertyOp20
 70
     1
102
RTVSPropertyOp21
 70
     1
102
RTVSPropertyOp22
 70
     1
102
RTVSPropertyOp23
 70
     1
102
RTVSPropertyOp24
 70
     1
102
RTVSPropertyOp25
 70
     1
102
RTVSPropertyOp26
 70
     1
102
RTVSPropertyOp27
 70
     1
102
RTVSPropertyOp28
 70
     1
102
RTVSPropertyOp29
 70
     1
102
RTVSPropertyOp30
 70
     1
102
RTVSPropertyOp31
 70
     1
102
RTVSPropertyOp32
 70
     1
102
RTVSPropertyOp33
 70
     1
102
RTVSPropertyOp34
 70
     1
102
RTVSPropertyOp35
 70
     1
102
RTVSPropertyOp36
 70
     1
102
RTVSPropertyOp37
 70
     1
102
RTVSPropertyOp38
 70
     1
102
RTVSPropertyOp39
 70
     1
102
RTVSPropertyOp40
 70
     1
102
RTVSPropertyOp41
 70
     1
102
RTVSPropertyOp42
 70
     1
102
RTVSPropertyOp43
 70
     1
102
RTVSPropertyOp44
 70
     1
102
RTVSPropertyOp45
 70
     1
102
RTVSPropertyOp46
 70
     1
102
RTVSPropertyOp47
 70
     1
102
RTVSPropertyOp48
 70
     1
102
RTVSPropertyOp49
 70
     1
102
RTVSPropertyOp50
 70
     1
102
RTVSPropertyOp51
 70
     0
102
RTVSPropertyOp52
 70
     0
102
RTVSPropertyOp53
 70
     1
102
RTVSPropertyOp54
 70
     1
102
RTVSPropertyOp55
 70
     1
102
RTVSPropertyOp56
 70
     1
102
RTVSPropertyOp57
 70
     1
102
RTVSPost2010Prop28
280
     0
102
RTVSPost2010PropOp28
 70
     1
102
RTVSPost2010Prop29
280
     1
102
RTVSPost2010PropOp29
 70
     1
102
RTVSPost2010Prop30
280
     1
102
RTVSPost2010PropOp30
 70
     1
102
RTVSPost2010Prop31
280
     0
102
RTVSPost2010PropOp31
 70
     1
102
RTVSPost2010Prop32
280
     0
102
RTVSPost2010PropOp32
 70
     1
102
RTVSPost2010Prop33
280
     0
102
RTVSPost2010PropOp33
 70
     1
102
RTVSPost2010Prop34
280
     0
102
RTVSPost2010PropOp34
 70
     1
102
RTVSPost2010Prop35
280
     0
102
RTVSPost2010PropOp35
 70
     1
102
RTVSPost2010Prop36
280
     0
102
RTVSPost2010PropOp36
 70
     1
102
RTVSPost2010Prop37
 90
       50
102
RTVSPost2010PropOp37
 70
     1
102
RTVSPost2010Prop38
140
0.0
102
RTVSPost2010PropOp38
 70
     1
102
RTVSPost2010Prop39
140
1.0
102
RTVSPost2010PropOp39
 70
     1
102
RTVSPost2010Prop40
 90
        0
102
RTVSPost2010PropOp40
 70
     1
102
RTVSPost2010Prop41ColorIndex
 90
       18
102
RTVSPost2010Prop41ColorRGB
 90
        0
102
RTVSPost2010PropOp41
 70
     1
102
RTVSPost2010Prop42
 90
       50
102
RTVSPost2010PropOp42
 70
     1
102
RTVSPost2010Prop43
 90
        3
102
RTVSPost2010PropOp43
 70
     1
102
RTVSPost2010Prop44ColorIndex
 90
        5
102
RTVSPost2010Prop44ColorRGB
 90
      255
102
RTVSPost2010PropOp44
 70
     1
102
RTVSPost2010Prop45
280
     0
102
RTVSPost2010PropOp45
 70
     1
102
RTVSPost2010Prop46
 90
       50
102
RTVSPost2010PropOp46
 70
     1
102
RTVSPost2010Prop47
 90
       50
102
RTVSPost2010PropOp47
 70
     1
102
RTVSPost2010Prop48
 90
       50
102
RTVSPost2010PropOp48
 70
     1
102
RTVSPost2010Prop49
280
     0
102
RTVSPost2010PropOp49
 70
     1
102
RTVSPost2010Prop50
 90
       50
102
RTVSPost2010PropOp50
 70
     1
102
RTVSPost2010Prop51ColorIndex
 90
      256
102
RTVSPost2010Prop51ColorRGB
 90
-16777216
102
RTVSPost2010PropOp51
 70
     0
102
RTVSPost2010Prop52
140
1.0
102
RTVSPost2010PropOp52
 70
     0
102
RTVSPost2010Prop53
 90
        2
102
RTVSPost2010PropOp53
 70
     1
102
RTVSPost2010Prop54
  1
strokes_ogs.tif
102
RTVSPost2010PropOp54
 70
     1
102
RTVSPost2010Prop55
280
     0
102
RTVSPost2010PropOp55
 70
     1
102
RTVSPost2010Prop56
140
1.0
102
RTVSPost2010PropOp56
 70
     1
102
RTVSPost2010Prop57
140
1.0
102
RTVSPost2010PropOp57
 70
     1
  0
XRECORD
  5
7FD
102
{ACAD_REACTORS
330
7FC
102
}
330
7FC
100
AcDbXrecord
280
     1
102
RTVSPropertyOp0
 70
     1
102
RTVSPropertyOp1
 70
     1
102
RTVSPropertyOp2
 70
     1
102
RTVSPropertyOp3
 70
     1
102
RTVSPropertyOp4
 70
     1
102
RTVSPropertyOp5
 70
     1
102
RTVSPropertyOp6
 70
     1
102
RTVSPropertyOp7
 70
     1
102
RTVSPropertyOp8
 70
     1
102
RTVSPropertyOp9
 70
     1
102
RTVSPropertyOp10
 70
     1
102
RTVSPropertyOp11
 70
     1
102
RTVSPropertyOp12
 70
     1
102
RTVSPropertyOp13
 70
     1
102
RTVSPropertyOp14
 70
     1
102
RTVSPropertyOp15
 70
     1
102
RTVSPropertyOp16
 70
     1
102
RTVSPropertyOp17
 70
     1
102
RTVSPropertyOp18
 70
     1
102
RTVSPropertyOp19
 70
     1
102
RTVSPropertyOp20
 70
     1
102
RTVSPropertyOp21
 70
     1
102
RTVSPropertyOp22
 70
     1
102
RTVSPropertyOp23
 70
     1
102
RTVSPropertyOp24
 70
     1
102
RTVSPropertyOp25
 70
     1
102
RTVSPropertyOp26
 70
     1
102
RTVSPropertyOp27
 70
     1
102
RTVSPropertyOp28
 70
     1
102
RTVSPropertyOp29
 70
     1
102
RTVSPropertyOp30
 70
     1
102
RTVSPropertyOp31
 70
     1
102
RTVSPropertyOp32
 70
     1
102
RTVSPropertyOp33
 70
     1
102
RTVSPropertyOp34
 70
     1
102
RTVSPropertyOp35
 70
     1
102
RTVSPropertyOp36
 70
     1
102
RTVSPropertyOp37
 70
     1
102
RTVSPropertyOp38
 70
     1
102
RTVSPropertyOp39
 70
     1
102
RTVSPropertyOp40
 70
     1
102
RTVSPropertyOp41
 70
     1
102
RTVSPropertyOp42
 70
     1
102
RTVSPropertyOp43
 70
     1
102
RTVSPropertyOp44
 70
     1
102
RTVSPropertyOp45
 70
     1
102
RTVSPropertyOp46
 70
     1
102
RTVSPropertyOp47
 70
     1
102
RTVSPropertyOp48
 70
     1
102
RTVSPropertyOp49
 70
     1
102
RTVSPropertyOp50
 70
     1
102
RTVSPropertyOp51
 70
     0
102
RTVSPropertyOp52
 70
     0
102
RTVSPropertyOp53
 70
     1
102
RTVSPropertyOp54
 70
     1
102
RTVSPropertyOp55
 70
     1
102
RTVSPropertyOp56
 70
     1
102
RTVSPropertyOp57
 70
     1
102
RTVSPost2010Prop28
280
     0
102
RTVSPost2010PropOp28
 70
     1
102
RTVSPost2010Prop29
280
     1
102
RTVSPost2010PropOp29
 70
     1
102
RTVSPost2010Prop30
280
     1
102
RTVSPost2010PropOp30
 70
     1
102
RTVSPost2010Prop31
280
     0
102
RTVSPost2010PropOp31
 70
     1
102
RTVSPost2010Prop32
280
     0
102
RTVSPost2010PropOp32
 70
     1
102
RTVSPost2010Prop33
280
     0
102
RTVSPost2010PropOp33
 70
     1
102
RTVSPost2010Prop34
280
     0
102
RTVSPost2010PropOp34
 70
     1
102
RTVSPost2010Prop35
280
     0
102
RTVSPost2010PropOp35
 70
     1
102
RTVSPost2010Prop36
280
     0
102
RTVSPost2010PropOp36
 70
     1
102
RTVSPost2010Prop37
 90
       50
102
RTVSPost2010PropOp37
 70
     1
102
RTVSPost2010Prop38
140
0.0
102
RTVSPost2010PropOp38
 70
     1
102
RTVSPost2010Prop39
140
1.0
102
RTVSPost2010PropOp39
 70
     1
102
RTVSPost2010Prop40
 90
        0
102
RTVSPost2010PropOp40
 70
     1
102
RTVSPost2010Prop41ColorIndex
 90
       18
102
RTVSPost2010Prop41ColorRGB
 90
        0
102
RTVSPost2010PropOp41
 70
     1
102
RTVSPost2010Prop42
 90
       50
102
RTVSPost2010PropOp42
 70
     1
102
RTVSPost2010Prop43
 90
        3
102
RTVSPost2010PropOp43
 70
     1
102
RTVSPost2010Prop44ColorIndex
 90
        5
102
RTVSPost2010Prop44ColorRGB
 90
      255
102
RTVSPost2010PropOp44
 70
     1
102
RTVSPost2010Prop45
280
     0
102
RTVSPost2010PropOp45
 70
     1
102
RTVSPost2010Prop46
 90
       50
102
RTVSPost2010PropOp46
 70
     1
102
RTVSPost2010Prop47
 90
       50
102
RTVSPost2010PropOp47
 70
     1
102
RTVSPost2010Prop48
 90
       50
102
RTVSPost2010PropOp48
 70
     1
102
RTVSPost2010Prop49
280
     0
102
RTVSPost2010PropOp49
 70
     1
102
RTVSPost2010Prop50
 90
       50
102
RTVSPost2010PropOp50
 70
     1
102
RTVSPost2010Prop51ColorIndex
 90
      256
102
RTVSPost2010Prop51ColorRGB
 90
-16777216
102
RTVSPost2010PropOp51
 70
     0
102
RTVSPost2010Prop52
140
1.0
102
RTVSPost2010PropOp52
 70
     0
102
RTVSPost2010Prop53
 90
        2
102
RTVSPost2010PropOp53
 70
     1
102
RTVSPost2010Prop54
  1
strokes_ogs.tif
102
RTVSPost2010PropOp54
 70
     1
102
RTVSPost2010Prop55
280
     0
102
RTVSPost2010PropOp55
 70
     1
102
RTVSPost2010Prop56
140
1.0
102
RTVSPost2010PropOp56
 70
     1
102
RTVSPost2010Prop57
140
1.0
102
RTVSPost2010PropOp57
 70
     1
  0
XRECORD
  5
811
102
{ACAD_REACTORS
330
810
102
}
330
810
100
AcDbXrecord
280
     1
102
RTVSPropertyOp0
 70
     0
102
RTVSPropertyOp1
 70
     0
102
RTVSPropertyOp2
 70
     0
102
RTVSPropertyOp3
 70
     0
102
RTVSPropertyOp4
 70
     0
102
RTVSPropertyOp5
 70
     0
102
RTVSPropertyOp6
 70
     0
102
RTVSPropertyOp7
 70
     0
102
RTVSPropertyOp8
 70
     0
102
RTVSPropertyOp9
 70
     0
102
RTVSPropertyOp10
 70
     0
102
RTVSPropertyOp11
 70
     0
102
RTVSPropertyOp12
 70
     0
102
RTVSPropertyOp13
 70
     0
102
RTVSPropertyOp14
 70
     2
102
RTVSPropertyOp15
 70
     0
102
RTVSPropertyOp16
 70
     0
102
RTVSPropertyOp17
 70
     0
102
RTVSPropertyOp18
 70
     0
102
RTVSPropertyOp19
 70
     0
102
RTVSPropertyOp20
 70
     0
102
RTVSPropertyOp21
 70
     0
102
RTVSPropertyOp22
 70
     0
102
RTVSPropertyOp23
 70
     0
102
RTVSPropertyOp24
 70
     0
102
RTVSPropertyOp25
 70
     0
102
RTVSPropertyOp26
 70
     0
102
RTVSPropertyOp27
 70
     0
102
RTVSPropertyOp28
 70
     0
102
RTVSPropertyOp29
 70
     0
102
RTVSPropertyOp30
 70
     0
102
RTVSPropertyOp31
 70
     0
102
RTVSPropertyOp32
 70
     0
102
RTVSPropertyOp33
 70
     0
102
RTVSPropertyOp34
 70
     0
102
RTVSPropertyOp35
 70
     0
102
RTVSPropertyOp36
 70
     0
102
RTVSPropertyOp37
 70
     0
102
RTVSPropertyOp38
 70
     0
102
RTVSPropertyOp39
 70
     0
102
RTVSPropertyOp40
 70
     0
102
RTVSPropertyOp41
 70
     0
102
RTVSPropertyOp42
 70
     0
102
RTVSPropertyOp43
 70
     0
102
RTVSPropertyOp44
 70
     0
102
RTVSPropertyOp45
 70
     0
102
RTVSPropertyOp46
 70
     0
102
RTVSPropertyOp47
 70
     0
102
RTVSPropertyOp48
 70
     0
102
RTVSPropertyOp49
 70
     0
102
RTVSPropertyOp50
 70
     0
102
RTVSPropertyOp51
 70
     0
102
RTVSPropertyOp52
 70
     0
102
RTVSPropertyOp53
 70
     0
102
RTVSPropertyOp54
 70
     0
102
RTVSPropertyOp55
 70
     0
102
RTVSPropertyOp56
 70
     0
102
RTVSPropertyOp57
 70
     0
102
RTVSPost2010Prop28
280
     0
102
RTVSPost2010PropOp28
 70
     0
102
RTVSPost2010Prop29
280
     1
102
RTVSPost2010PropOp29
 70
     0
102
RTVSPost2010Prop30
280
     1
102
RTVSPost2010PropOp30
 70
     0
102
RTVSPost2010Prop31
280
     0
102
RTVSPost2010PropOp31
 70
     0
102
RTVSPost2010Prop32
280
     0
102
RTVSPost2010PropOp32
 70
     0
102
RTVSPost2010Prop33
280
     0
102
RTVSPost2010PropOp33
 70
     0
102
RTVSPost2010Prop34
280
     0
102
RTVSPost2010PropOp34
 70
     0
102
RTVSPost2010Prop35
280
     0
102
RTVSPost2010PropOp35
 70
     0
102
RTVSPost2010Prop36
280
     0
102
RTVSPost2010PropOp36
 70
     0
102
RTVSPost2010Prop37
 90
       50
102
RTVSPost2010PropOp37
 70
     0
102
RTVSPost2010Prop38
140
0.0
102
RTVSPost2010PropOp38
 70
     0
102
RTVSPost2010Prop39
140
1.0
102
RTVSPost2010PropOp39
 70
     0
102
RTVSPost2010Prop40
 90
        0
102
RTVSPost2010PropOp40
 70
     0
102
RTVSPost2010Prop41ColorIndex
 90
       18
102
RTVSPost2010Prop41ColorRGB
 90
        0
102
RTVSPost2010PropOp41
 70
     0
102
RTVSPost2010Prop42
 90
       50
102
RTVSPost2010PropOp42
 70
     0
102
RTVSPost2010Prop43
 90
        3
102
RTVSPost2010PropOp43
 70
     0
102
RTVSPost2010Prop44ColorIndex
 90
        5
102
RTVSPost2010Prop44ColorRGB
 90
      255
102
RTVSPost2010PropOp44
 70
     0
102
RTVSPost2010Prop45
280
     0
102
RTVSPost2010PropOp45
 70
     0
102
RTVSPost2010Prop46
 90
       50
102
RTVSPost2010PropOp46
 70
     0
102
RTVSPost2010Prop47
 90
       50
102
RTVSPost2010PropOp47
 70
     0
102
RTVSPost2010Prop48
 90
       50
102
RTVSPost2010PropOp48
 70
     0
102
RTVSPost2010Prop49
280
     0
102
RTVSPost2010PropOp49
 70
     0
102
RTVSPost2010Prop50
 90
       50
102
RTVSPost2010PropOp50
 70
     0
102
RTVSPost2010Prop51ColorIndex
 90
      256
102
RTVSPost2010Prop51ColorRGB
 90
-16777216
102
RTVSPost2010PropOp51
 70
     0
102
RTVSPost2010Prop52
140
1.0
102
RTVSPost2010PropOp52
 70
     0
102
RTVSPost2010Prop53
 90
        2
102
RTVSPost2010PropOp53
 70
     0
102
RTVSPost2010Prop54
  1
strokes_ogs.tif
102
RTVSPost2010PropOp54
 70
     0
102
RTVSPost2010Prop55
280
     0
102
RTVSPost2010PropOp55
 70
     0
102
RTVSPost2010Prop56
140
1.0
102
RTVSPost2010PropOp56
 70
     0
102
RTVSPost2010Prop57
140
1.0
102
RTVSPost2010PropOp57
 70
     0
  0
XRECORD
  5
80B
102
{ACAD_REACTORS
330
80A
102
}
330
80A
100
AcDbXrecord
280
     1
102
RTVSPropertyOp0
 70
     1
102
RTVSPropertyOp1
 70
     1
102
RTVSPropertyOp2
 70
     1
102
RTVSPropertyOp3
 70
     1
102
RTVSPropertyOp4
 70
     1
102
RTVSPropertyOp5
 70
     1
102
RTVSPropertyOp6
 70
     1
102
RTVSPropertyOp7
 70
     1
102
RTVSPropertyOp8
 70
     1
102
RTVSPropertyOp9
 70
     1
102
RTVSPropertyOp10
 70
     1
102
RTVSPropertyOp11
 70
     1
102
RTVSPropertyOp12
 70
     1
102
RTVSPropertyOp13
 70
     1
102
RTVSPropertyOp14
 70
     1
102
RTVSPropertyOp15
 70
     1
102
RTVSPropertyOp16
 70
     1
102
RTVSPropertyOp17
 70
     1
102
RTVSPropertyOp18
 70
     1
102
RTVSPropertyOp19
 70
     1
102
RTVSPropertyOp20
 70
     1
102
RTVSPropertyOp21
 70
     1
102
RTVSPropertyOp22
 70
     1
102
RTVSPropertyOp23
 70
     1
102
RTVSPropertyOp24
 70
     1
102
RTVSPropertyOp25
 70
     1
102
RTVSPropertyOp26
 70
     1
102
RTVSPropertyOp27
 70
     1
102
RTVSPropertyOp28
 70
     1
102
RTVSPropertyOp29
 70
     1
102
RTVSPropertyOp30
 70
     1
102
RTVSPropertyOp31
 70
     1
102
RTVSPropertyOp32
 70
     1
102
RTVSPropertyOp33
 70
     1
102
RTVSPropertyOp34
 70
     1
102
RTVSPropertyOp35
 70
     1
102
RTVSPropertyOp36
 70
     1
102
RTVSPropertyOp37
 70
     1
102
RTVSPropertyOp38
 70
     1
102
RTVSPropertyOp39
 70
     1
102
RTVSPropertyOp40
 70
     1
102
RTVSPropertyOp41
 70
     1
102
RTVSPropertyOp42
 70
     1
102
RTVSPropertyOp43
 70
     1
102
RTVSPropertyOp44
 70
     1
102
RTVSPropertyOp45
 70
     1
102
RTVSPropertyOp46
 70
     1
102
RTVSPropertyOp47
 70
     1
102
RTVSPropertyOp48
 70
     1
102
RTVSPropertyOp49
 70
     1
102
RTVSPropertyOp50
 70
     1
102
RTVSPropertyOp51
 70
     0
102
RTVSPropertyOp52
 70
     0
102
RTVSPropertyOp53
 70
     1
102
RTVSPropertyOp54
 70
     1
102
RTVSPropertyOp55
 70
     1
102
RTVSPropertyOp56
 70
     1
102
RTVSPropertyOp57
 70
     1
102
RTVSPost2010Prop28
280
     0
102
RTVSPost2010PropOp28
 70
     1
102
RTVSPost2010Prop29
280
     1
102
RTVSPost2010PropOp29
 70
     1
102
RTVSPost2010Prop30
280
     1
102
RTVSPost2010PropOp30
 70
     1
102
RTVSPost2010Prop31
280
     0
102
RTVSPost2010PropOp31
 70
     1
102
RTVSPost2010Prop32
280
     0
102
RTVSPost2010PropOp32
 70
     1
102
RTVSPost2010Prop33
280
     0
102
RTVSPost2010PropOp33
 70
     1
102
RTVSPost2010Prop34
280
     0
102
RTVSPost2010PropOp34
 70
     1
102
RTVSPost2010Prop35
280
     0
102
RTVSPost2010PropOp35
 70
     1
102
RTVSPost2010Prop36
280
     0
102
RTVSPost2010PropOp36
 70
     1
102
RTVSPost2010Prop37
 90
       50
102
RTVSPost2010PropOp37
 70
     1
102
RTVSPost2010Prop38
140
0.0
102
RTVSPost2010PropOp38
 70
     1
102
RTVSPost2010Prop39
140
1.0
102
RTVSPost2010PropOp39
 70
     1
102
RTVSPost2010Prop40
 90
        0
102
RTVSPost2010PropOp40
 70
     1
102
RTVSPost2010Prop41ColorIndex
 90
       18
102
RTVSPost2010Prop41ColorRGB
 90
        0
102
RTVSPost2010PropOp41
 70
     1
102
RTVSPost2010Prop42
 90
       50
102
RTVSPost2010PropOp42
 70
     1
102
RTVSPost2010Prop43
 90
        3
102
RTVSPost2010PropOp43
 70
     1
102
RTVSPost2010Prop44ColorIndex
 90
        5
102
RTVSPost2010Prop44ColorRGB
 90
      255
102
RTVSPost2010PropOp44
 70
     1
102
RTVSPost2010Prop45
280
     0
102
RTVSPost2010PropOp45
 70
     1
102
RTVSPost2010Prop46
 90
       50
102
RTVSPost2010PropOp46
 70
     1
102
RTVSPost2010Prop47
 90
       50
102
RTVSPost2010PropOp47
 70
     1
102
RTVSPost2010Prop48
 90
       50
102
RTVSPost2010PropOp48
 70
     1
102
RTVSPost2010Prop49
280
     0
102
RTVSPost2010PropOp49
 70
     1
102
RTVSPost2010Prop50
 90
       50
102
RTVSPost2010PropOp50
 70
     1
102
RTVSPost2010Prop51ColorIndex
 90
      256
102
RTVSPost2010Prop51ColorRGB
 90
-16777216
102
RTVSPost2010PropOp51
 70
     0
102
RTVSPost2010Prop52
140
1.0
102
RTVSPost2010PropOp52
 70
     0
102
RTVSPost2010Prop53
 90
        2
102
RTVSPost2010PropOp53
 70
     1
102
RTVSPost2010Prop54
  1
strokes_ogs.tif
102
RTVSPost2010PropOp54
 70
     1
102
RTVSPost2010Prop55
280
     0
102
RTVSPost2010PropOp55
 70
     1
102
RTVSPost2010Prop56
140
1.0
102
RTVSPost2010PropOp56
 70
     1
102
RTVSPost2010Prop57
140
1.0
102
RTVSPost2010PropOp57
 70
     1
  0
XRECORD
  5
813
102
{ACAD_REACTORS
330
812
102
}
330
812
100
AcDbXrecord
280
     1
102
RTVSPropertyOp0
 70
     0
102
RTVSPropertyOp1
 70
     0
102
RTVSPropertyOp2
 70
     0
102
RTVSPropertyOp3
 70
     0
102
RTVSPropertyOp4
 70
     0
102
RTVSPropertyOp5
 70
     0
102
RTVSPropertyOp6
 70
     0
102
RTVSPropertyOp7
 70
     0
102
RTVSPropertyOp8
 70
     0
102
RTVSPropertyOp9
 70
     0
102
RTVSPropertyOp10
 70
     0
102
RTVSPropertyOp11
 70
     0
102
RTVSPropertyOp12
 70
     0
102
RTVSPropertyOp13
 70
     0
102
RTVSPropertyOp14
 70
     2
102
RTVSPropertyOp15
 70
     0
102
RTVSPropertyOp16
 70
     0
102
RTVSPropertyOp17
 70
     0
102
RTVSPropertyOp18
 70
     0
102
RTVSPropertyOp19
 70
     0
102
RTVSPropertyOp20
 70
     0
102
RTVSPropertyOp21
 70
     0
102
RTVSPropertyOp22
 70
     0
102
RTVSPropertyOp23
 70
     0
102
RTVSPropertyOp24
 70
     0
102
RTVSPropertyOp25
 70
     0
102
RTVSPropertyOp26
 70
     0
102
RTVSPropertyOp27
 70
     0
102
RTVSPropertyOp28
 70
     0
102
RTVSPropertyOp29
 70
     0
102
RTVSPropertyOp30
 70
     0
102
RTVSPropertyOp31
 70
     0
102
RTVSPropertyOp32
 70
     0
102
RTVSPropertyOp33
 70
     0
102
RTVSPropertyOp34
 70
     0
102
RTVSPropertyOp35
 70
     0
102
RTVSPropertyOp36
 70
     0
102
RTVSPropertyOp37
 70
     0
102
RTVSPropertyOp38
 70
     0
102
RTVSPropertyOp39
 70
     0
102
RTVSPropertyOp40
 70
     0
102
RTVSPropertyOp41
 70
     0
102
RTVSPropertyOp42
 70
     0
102
RTVSPropertyOp43
 70
     0
102
RTVSPropertyOp44
 70
     0
102
RTVSPropertyOp45
 70
     0
102
RTVSPropertyOp46
 70
     0
102
RTVSPropertyOp47
 70
     0
102
RTVSPropertyOp48
 70
     0
102
RTVSPropertyOp49
 70
     0
102
RTVSPropertyOp50
 70
     0
102
RTVSPropertyOp51
 70
     0
102
RTVSPropertyOp52
 70
     0
102
RTVSPropertyOp53
 70
     0
102
RTVSPropertyOp54
 70
     0
102
RTVSPropertyOp55
 70
     0
102
RTVSPropertyOp56
 70
     0
102
RTVSPropertyOp57
 70
     0
102
RTVSPost2010Prop28
280
     0
102
RTVSPost2010PropOp28
 70
     0
102
RTVSPost2010Prop29
280
     1
102
RTVSPost2010PropOp29
 70
     0
102
RTVSPost2010Prop30
280
     1
102
RTVSPost2010PropOp30
 70
     0
102
RTVSPost2010Prop31
280
     0
102
RTVSPost2010PropOp31
 70
     0
102
RTVSPost2010Prop32
280
     0
102
RTVSPost2010PropOp32
 70
     0
102
RTVSPost2010Prop33
280
     0
102
RTVSPost2010PropOp33
 70
     0
102
RTVSPost2010Prop34
280
     0
102
RTVSPost2010PropOp34
 70
     0
102
RTVSPost2010Prop35
280
     0
102
RTVSPost2010PropOp35
 70
     0
102
RTVSPost2010Prop36
280
     0
102
RTVSPost2010PropOp36
 70
     0
102
RTVSPost2010Prop37
 90
       50
102
RTVSPost2010PropOp37
 70
     0
102
RTVSPost2010Prop38
140
0.0
102
RTVSPost2010PropOp38
 70
     0
102
RTVSPost2010Prop39
140
1.0
102
RTVSPost2010PropOp39
 70
     0
102
RTVSPost2010Prop40
 90
        0
102
RTVSPost2010PropOp40
 70
     0
102
RTVSPost2010Prop41ColorIndex
 90
       18
102
RTVSPost2010Prop41ColorRGB
 90
        0
102
RTVSPost2010PropOp41
 70
     0
102
RTVSPost2010Prop42
 90
       50
102
RTVSPost2010PropOp42
 70
     0
102
RTVSPost2010Prop43
 90
        3
102
RTVSPost2010PropOp43
 70
     0
102
RTVSPost2010Prop44ColorIndex
 90
        5
102
RTVSPost2010Prop44ColorRGB
 90
      255
102
RTVSPost2010PropOp44
 70
     0
102
RTVSPost2010Prop45
280
     0
102
RTVSPost2010PropOp45
 70
     0
102
RTVSPost2010Prop46
 90
       50
102
RTVSPost2010PropOp46
 70
     0
102
RTVSPost2010Prop47
 90
       50
102
RTVSPost2010PropOp47
 70
     0
102
RTVSPost2010Prop48
 90
       50
102
RTVSPost2010PropOp48
 70
     0
102
RTVSPost2010Prop49
280
     0
102
RTVSPost2010PropOp49
 70
     0
102
RTVSPost2010Prop50
 90
       50
102
RTVSPost2010PropOp50
 70
     0
102
RTVSPost2010Prop51ColorIndex
 90
      256
102
RTVSPost2010Prop51ColorRGB
 90
-16777216
102
RTVSPost2010PropOp51
 70
     0
102
RTVSPost2010Prop52
140
1.0
102
RTVSPost2010PropOp52
 70
     0
102
RTVSPost2010Prop53
 90
        2
102
RTVSPost2010PropOp53
 70
     0
102
RTVSPost2010Prop54
  1
strokes_ogs.tif
102
RTVSPost2010PropOp54
 70
     0
102
RTVSPost2010Prop55
280
     0
102
RTVSPost2010PropOp55
 70
     0
102
RTVSPost2010Prop56
140
1.0
102
RTVSPost2010PropOp56
 70
     0
102
RTVSPost2010Prop57
140
1.0
102
RTVSPost2010PropOp57
 70
     0
  0
XRECORD
  5
801
102
{ACAD_REACTORS
330
800
102
}
330
800
100
AcDbXrecord
280
     1
102
RTVSPropertyOp0
 70
     1
102
RTVSPropertyOp1
 70
     1
102
RTVSPropertyOp2
 70
     1
102
RTVSPropertyOp3
 70
     1
102
RTVSPropertyOp4
 70
     1
102
RTVSPropertyOp5
 70
     1
102
RTVSPropertyOp6
 70
     1
102
RTVSPropertyOp7
 70
     1
102
RTVSPropertyOp8
 70
     1
102
RTVSPropertyOp9
 70
     1
102
RTVSPropertyOp10
 70
     1
102
RTVSPropertyOp11
 70
     1
102
RTVSPropertyOp12
 70
     1
102
RTVSPropertyOp13
 70
     1
102
RTVSPropertyOp14
 70
     1
102
RTVSPropertyOp15
 70
     1
102
RTVSPropertyOp16
 70
     1
102
RTVSPropertyOp17
 70
     1
102
RTVSPropertyOp18
 70
     1
102
RTVSPropertyOp19
 70
     1
102
RTVSPropertyOp20
 70
     1
102
RTVSPropertyOp21
 70
     1
102
RTVSPropertyOp22
 70
     1
102
RTVSPropertyOp23
 70
     1
102
RTVSPropertyOp24
 70
     1
102
RTVSPropertyOp25
 70
     1
102
RTVSPropertyOp26
 70
     1
102
RTVSPropertyOp27
 70
     1
102
RTVSPropertyOp28
 70
     1
102
RTVSPropertyOp29
 70
     1
102
RTVSPropertyOp30
 70
     1
102
RTVSPropertyOp31
 70
     1
102
RTVSPropertyOp32
 70
     1
102
RTVSPropertyOp33
 70
     1
102
RTVSPropertyOp34
 70
     1
102
RTVSPropertyOp35
 70
     1
102
RTVSPropertyOp36
 70
     1
102
RTVSPropertyOp37
 70
     1
102
RTVSPropertyOp38
 70
     1
102
RTVSPropertyOp39
 70
     1
102
RTVSPropertyOp40
 70
     1
102
RTVSPropertyOp41
 70
     1
102
RTVSPropertyOp42
 70
     1
102
RTVSPropertyOp43
 70
     1
102
RTVSPropertyOp44
 70
     1
102
RTVSPropertyOp45
 70
     1
102
RTVSPropertyOp46
 70
     1
102
RTVSPropertyOp47
 70
     1
102
RTVSPropertyOp48
 70
     1
102
RTVSPropertyOp49
 70
     1
102
RTVSPropertyOp50
 70
     1
102
RTVSPropertyOp51
 70
     0
102
RTVSPropertyOp52
 70
     0
102
RTVSPropertyOp53
 70
     1
102
RTVSPropertyOp54
 70
     1
102
RTVSPropertyOp55
 70
     1
102
RTVSPropertyOp56
 70
     1
102
RTVSPropertyOp57
 70
     1
102
RTVSPost2010Prop28
280
     0
102
RTVSPost2010PropOp28
 70
     1
102
RTVSPost2010Prop29
280
     1
102
RTVSPost2010PropOp29
 70
     1
102
RTVSPost2010Prop30
280
     1
102
RTVSPost2010PropOp30
 70
     1
102
RTVSPost2010Prop31
280
     0
102
RTVSPost2010PropOp31
 70
     1
102
RTVSPost2010Prop32
280
     0
102
RTVSPost2010PropOp32
 70
     1
102
RTVSPost2010Prop33
280
     0
102
RTVSPost2010PropOp33
 70
     1
102
RTVSPost2010Prop34
280
     0
102
RTVSPost2010PropOp34
 70
     1
102
RTVSPost2010Prop35
280
     0
102
RTVSPost2010PropOp35
 70
     1
102
RTVSPost2010Prop36
280
     0
102
RTVSPost2010PropOp36
 70
     1
102
RTVSPost2010Prop37
 90
       50
102
RTVSPost2010PropOp37
 70
     1
102
RTVSPost2010Prop38
140
0.0
102
RTVSPost2010PropOp38
 70
     1
102
RTVSPost2010Prop39
140
1.0
102
RTVSPost2010PropOp39
 70
     1
102
RTVSPost2010Prop40
 90
        0
102
RTVSPost2010PropOp40
 70
     1
102
RTVSPost2010Prop41ColorIndex
 90
       18
102
RTVSPost2010Prop41ColorRGB
 90
        0
102
RTVSPost2010PropOp41
 70
     1
102
RTVSPost2010Prop42
 90
       50
102
RTVSPost2010PropOp42
 70
     1
102
RTVSPost2010Prop43
 90
        3
102
RTVSPost2010PropOp43
 70
     1
102
RTVSPost2010Prop44ColorIndex
 90
        5
102
RTVSPost2010Prop44ColorRGB
 90
      255
102
RTVSPost2010PropOp44
 70
     1
102
RTVSPost2010Prop45
280
     0
102
RTVSPost2010PropOp45
 70
     1
102
RTVSPost2010Prop46
 90
       50
102
RTVSPost2010PropOp46
 70
     1
102
RTVSPost2010Prop47
 90
       50
102
RTVSPost2010PropOp47
 70
     1
102
RTVSPost2010Prop48
 90
       50
102
RTVSPost2010PropOp48
 70
     1
102
RTVSPost2010Prop49
280
     0
102
RTVSPost2010PropOp49
 70
     1
102
RTVSPost2010Prop50
 90
       50
102
RTVSPost2010PropOp50
 70
     1
102
RTVSPost2010Prop51ColorIndex
 90
      256
102
RTVSPost2010Prop51ColorRGB
 90
-16777216
102
RTVSPost2010PropOp51
 70
     0
102
RTVSPost2010Prop52
140
1.0
102
RTVSPost2010PropOp52
 70
     0
102
RTVSPost2010Prop53
 90
        2
102
RTVSPost2010PropOp53
 70
     1
102
RTVSPost2010Prop54
  1
strokes_ogs.tif
102
RTVSPost2010PropOp54
 70
     1
102
RTVSPost2010Prop55
280
     0
102
RTVSPost2010PropOp55
 70
     1
102
RTVSPost2010Prop56
140
1.0
102
RTVSPost2010PropOp56
 70
     1
102
RTVSPost2010Prop57
140
1.0
102
RTVSPost2010PropOp57
 70
     1
  0
XRECORD
  5
81F
102
{ACAD_REACTORS
330
81E
102
}
330
81E
100
AcDbXrecord
280
     1
102
RTVSPropertyOp0
 70
     1
102
RTVSPropertyOp1
 70
     1
102
RTVSPropertyOp2
 70
     1
102
RTVSPropertyOp3
 70
     1
102
RTVSPropertyOp4
 70
     1
102
RTVSPropertyOp5
 70
     1
102
RTVSPropertyOp6
 70
     1
102
RTVSPropertyOp7
 70
     1
102
RTVSPropertyOp8
 70
     1
102
RTVSPropertyOp9
 70
     1
102
RTVSPropertyOp10
 70
     1
102
RTVSPropertyOp11
 70
     1
102
RTVSPropertyOp12
 70
     1
102
RTVSPropertyOp13
 70
     1
102
RTVSPropertyOp14
 70
     1
102
RTVSPropertyOp15
 70
     1
102
RTVSPropertyOp16
 70
     1
102
RTVSPropertyOp17
 70
     1
102
RTVSPropertyOp18
 70
     1
102
RTVSPropertyOp19
 70
     1
102
RTVSPropertyOp20
 70
     1
102
RTVSPropertyOp21
 70
     1
102
RTVSPropertyOp22
 70
     1
102
RTVSPropertyOp23
 70
     1
102
RTVSPropertyOp24
 70
     1
102
RTVSPropertyOp25
 70
     1
102
RTVSPropertyOp26
 70
     1
102
RTVSPropertyOp27
 70
     1
102
RTVSPropertyOp28
 70
     1
102
RTVSPropertyOp29
 70
     1
102
RTVSPropertyOp30
 70
     1
102
RTVSPropertyOp31
 70
     1
102
RTVSPropertyOp32
 70
     1
102
RTVSPropertyOp33
 70
     1
102
RTVSPropertyOp34
 70
     1
102
RTVSPropertyOp35
 70
     1
102
RTVSPropertyOp36
 70
     1
102
RTVSPropertyOp37
 70
     1
102
RTVSPropertyOp38
 70
     1
102
RTVSPropertyOp39
 70
     1
102
RTVSPropertyOp40
 70
     1
102
RTVSPropertyOp41
 70
     1
102
RTVSPropertyOp42
 70
     1
102
RTVSPropertyOp43
 70
     1
102
RTVSPropertyOp44
 70
     1
102
RTVSPropertyOp45
 70
     1
102
RTVSPropertyOp46
 70
     1
102
RTVSPropertyOp47
 70
     1
102
RTVSPropertyOp48
 70
     1
102
RTVSPropertyOp49
 70
     1
102
RTVSPropertyOp50
 70
     1
102
RTVSPropertyOp51
 70
     0
102
RTVSPropertyOp52
 70
     0
102
RTVSPropertyOp53
 70
     1
102
RTVSPropertyOp54
 70
     1
102
RTVSPropertyOp55
 70
     1
102
RTVSPropertyOp56
 70
     1
102
RTVSPropertyOp57
 70
     1
102
RTVSPost2010Prop28
280
     0
102
RTVSPost2010PropOp28
 70
     1
102
RTVSPost2010Prop29
280
     1
102
RTVSPost2010PropOp29
 70
     1
102
RTVSPost2010Prop30
280
     1
102
RTVSPost2010PropOp30
 70
     1
102
RTVSPost2010Prop31
280
     0
102
RTVSPost2010PropOp31
 70
     1
102
RTVSPost2010Prop32
280
     0
102
RTVSPost2010PropOp32
 70
     1
102
RTVSPost2010Prop33
280
     0
102
RTVSPost2010PropOp33
 70
     1
102
RTVSPost2010Prop34
280
     0
102
RTVSPost2010PropOp34
 70
     1
102
RTVSPost2010Prop35
280
     0
102
RTVSPost2010PropOp35
 70
     1
102
RTVSPost2010Prop36
280
     0
102
RTVSPost2010PropOp36
 70
     1
102
RTVSPost2010Prop37
 90
       50
102
RTVSPost2010PropOp37
 70
     1
102
RTVSPost2010Prop38
140
0.0
102
RTVSPost2010PropOp38
 70
     1
102
RTVSPost2010Prop39
140
1.0
102
RTVSPost2010PropOp39
 70
     1
102
RTVSPost2010Prop40
 90
        0
102
RTVSPost2010PropOp40
 70
     1
102
RTVSPost2010Prop41ColorIndex
 90
       18
102
RTVSPost2010Prop41ColorRGB
 90
        0
102
RTVSPost2010PropOp41
 70
     1
102
RTVSPost2010Prop42
 90
       50
102
RTVSPost2010PropOp42
 70
     1
102
RTVSPost2010Prop43
 90
        3
102
RTVSPost2010PropOp43
 70
     1
102
RTVSPost2010Prop44ColorIndex
 90
        5
102
RTVSPost2010Prop44ColorRGB
 90
      255
102
RTVSPost2010PropOp44
 70
     1
102
RTVSPost2010Prop45
280
     0
102
RTVSPost2010PropOp45
 70
     1
102
RTVSPost2010Prop46
 90
       50
102
RTVSPost2010PropOp46
 70
     1
102
RTVSPost2010Prop47
 90
       50
102
RTVSPost2010PropOp47
 70
     1
102
RTVSPost2010Prop48
 90
       50
102
RTVSPost2010PropOp48
 70
     1
102
RTVSPost2010Prop49
280
     0
102
RTVSPost2010PropOp49
 70
     1
102
RTVSPost2010Prop50
 90
       50
102
RTVSPost2010PropOp50
 70
     1
102
RTVSPost2010Prop51ColorIndex
 90
      256
102
RTVSPost2010Prop51ColorRGB
 90
-16777216
102
RTVSPost2010PropOp51
 70
     0
102
RTVSPost2010Prop52
140
1.0
102
RTVSPost2010PropOp52
 70
     0
102
RTVSPost2010Prop53
 90
        2
102
RTVSPost2010PropOp53
 70
     1
102
RTVSPost2010Prop54
  1
strokes_ogs.tif
102
RTVSPost2010PropOp54
 70
     1
102
RTVSPost2010Prop55
280
     0
102
RTVSPost2010PropOp55
 70
     1
102
RTVSPost2010Prop56
140
1.0
102
RTVSPost2010PropOp56
 70
     1
102
RTVSPost2010Prop57
140
1.0
102
RTVSPost2010PropOp57
 70
     1
  0
XRECORD
  5
81D
102
{ACAD_REACTORS
330
81C
102
}
330
81C
100
AcDbXrecord
280
     1
102
RTVSPropertyOp0
 70
     1
102
RTVSPropertyOp1
 70
     1
102
RTVSPropertyOp2
 70
     1
102
RTVSPropertyOp3
 70
     1
102
RTVSPropertyOp4
 70
     1
102
RTVSPropertyOp5
 70
     1
102
RTVSPropertyOp6
 70
     1
102
RTVSPropertyOp7
 70
     1
102
RTVSPropertyOp8
 70
     1
102
RTVSPropertyOp9
 70
     1
102
RTVSPropertyOp10
 70
     1
102
RTVSPropertyOp11
 70
     1
102
RTVSPropertyOp12
 70
     1
102
RTVSPropertyOp13
 70
     1
102
RTVSPropertyOp14
 70
     1
102
RTVSPropertyOp15
 70
     1
102
RTVSPropertyOp16
 70
     1
102
RTVSPropertyOp17
 70
     1
102
RTVSPropertyOp18
 70
     1
102
RTVSPropertyOp19
 70
     1
102
RTVSPropertyOp20
 70
     1
102
RTVSPropertyOp21
 70
     1
102
RTVSPropertyOp22
 70
     1
102
RTVSPropertyOp23
 70
     1
102
RTVSPropertyOp24
 70
     1
102
RTVSPropertyOp25
 70
     1
102
RTVSPropertyOp26
 70
     1
102
RTVSPropertyOp27
 70
     1
102
RTVSPropertyOp28
 70
     1
102
RTVSPropertyOp29
 70
     1
102
RTVSPropertyOp30
 70
     1
102
RTVSPropertyOp31
 70
     1
102
RTVSPropertyOp32
 70
     1
102
RTVSPropertyOp33
 70
     1
102
RTVSPropertyOp34
 70
     1
102
RTVSPropertyOp35
 70
     1
102
RTVSPropertyOp36
 70
     1
102
RTVSPropertyOp37
 70
     1
102
RTVSPropertyOp38
 70
     1
102
RTVSPropertyOp39
 70
     1
102
RTVSPropertyOp40
 70
     1
102
RTVSPropertyOp41
 70
     1
102
RTVSPropertyOp42
 70
     1
102
RTVSPropertyOp43
 70
     1
102
RTVSPropertyOp44
 70
     1
102
RTVSPropertyOp45
 70
     1
102
RTVSPropertyOp46
 70
     1
102
RTVSPropertyOp47
 70
     1
102
RTVSPropertyOp48
 70
     1
102
RTVSPropertyOp49
 70
     1
102
RTVSPropertyOp50
 70
     1
102
RTVSPropertyOp51
 70
     0
102
RTVSPropertyOp52
 70
     0
102
RTVSPropertyOp53
 70
     1
102
RTVSPropertyOp54
 70
     1
102
RTVSPropertyOp55
 70
     1
102
RTVSPropertyOp56
 70
     1
102
RTVSPropertyOp57
 70
     1
102
RTVSPost2010Prop28
280
     0
102
RTVSPost2010PropOp28
 70
     1
102
RTVSPost2010Prop29
280
     1
102
RTVSPost2010PropOp29
 70
     1
102
RTVSPost2010Prop30
280
     1
102
RTVSPost2010PropOp30
 70
     1
102
RTVSPost2010Prop31
280
     0
102
RTVSPost2010PropOp31
 70
     1
102
RTVSPost2010Prop32
280
     0
102
RTVSPost2010PropOp32
 70
     1
102
RTVSPost2010Prop33
280
     0
102
RTVSPost2010PropOp33
 70
     1
102
RTVSPost2010Prop34
280
     0
102
RTVSPost2010PropOp34
 70
     1
102
RTVSPost2010Prop35
280
     0
102
RTVSPost2010PropOp35
 70
     1
102
RTVSPost2010Prop36
280
     0
102
RTVSPost2010PropOp36
 70
     1
102
RTVSPost2010Prop37
 90
       50
102
RTVSPost2010PropOp37
 70
     1
102
RTVSPost2010Prop38
140
0.0
102
RTVSPost2010PropOp38
 70
     1
102
RTVSPost2010Prop39
140
1.0
102
RTVSPost2010PropOp39
 70
     1
102
RTVSPost2010Prop40
 90
        0
102
RTVSPost2010PropOp40
 70
     1
102
RTVSPost2010Prop41ColorIndex
 90
       18
102
RTVSPost2010Prop41ColorRGB
 90
        0
102
RTVSPost2010PropOp41
 70
     1
102
RTVSPost2010Prop42
 90
       50
102
RTVSPost2010PropOp42
 70
     1
102
RTVSPost2010Prop43
 90
        3
102
RTVSPost2010PropOp43
 70
     1
102
RTVSPost2010Prop44ColorIndex
 90
        5
102
RTVSPost2010Prop44ColorRGB
 90
      255
102
RTVSPost2010PropOp44
 70
     1
102
RTVSPost2010Prop45
280
     0
102
RTVSPost2010PropOp45
 70
     1
102
RTVSPost2010Prop46
 90
       50
102
RTVSPost2010PropOp46
 70
     1
102
RTVSPost2010Prop47
 90
       50
102
RTVSPost2010PropOp47
 70
     1
102
RTVSPost2010Prop48
 90
       50
102
RTVSPost2010PropOp48
 70
     1
102
RTVSPost2010Prop49
280
     0
102
RTVSPost2010PropOp49
 70
     1
102
RTVSPost2010Prop50
 90
       50
102
RTVSPost2010PropOp50
 70
     1
102
RTVSPost2010Prop51ColorIndex
 90
      256
102
RTVSPost2010Prop51ColorRGB
 90
-16777216
102
RTVSPost2010PropOp51
 70
     0
102
RTVSPost2010Prop52
140
1.0
102
RTVSPost2010PropOp52
 70
     0
102
RTVSPost2010Prop53
 90
        2
102
RTVSPost2010PropOp53
 70
     1
102
RTVSPost2010Prop54
  1
strokes_ogs.tif
102
RTVSPost2010PropOp54
 70
     1
102
RTVSPost2010Prop55
280
     0
102
RTVSPost2010PropOp55
 70
     1
102
RTVSPost2010Prop56
140
1.0
102
RTVSPost2010PropOp56
 70
     1
102
RTVSPost2010Prop57
140
1.0
102
RTVSPost2010PropOp57
 70
     1
  0
XRECORD
  5
817
102
{ACAD_REACTORS
330
816
102
}
330
816
100
AcDbXrecord
280
     1
102
RTVSPropertyOp0
 70
     1
102
RTVSPropertyOp1
 70
     1
102
RTVSPropertyOp2
 70
     1
102
RTVSPropertyOp3
 70
     1
102
RTVSPropertyOp4
 70
     1
102
RTVSPropertyOp5
 70
     1
102
RTVSPropertyOp6
 70
     1
102
RTVSPropertyOp7
 70
     1
102
RTVSPropertyOp8
 70
     1
102
RTVSPropertyOp9
 70
     1
102
RTVSPropertyOp10
 70
     1
102
RTVSPropertyOp11
 70
     1
102
RTVSPropertyOp12
 70
     1
102
RTVSPropertyOp13
 70
     1
102
RTVSPropertyOp14
 70
     1
102
RTVSPropertyOp15
 70
     1
102
RTVSPropertyOp16
 70
     1
102
RTVSPropertyOp17
 70
     1
102
RTVSPropertyOp18
 70
     1
102
RTVSPropertyOp19
 70
     1
102
RTVSPropertyOp20
 70
     1
102
RTVSPropertyOp21
 70
     1
102
RTVSPropertyOp22
 70
     1
102
RTVSPropertyOp23
 70
     1
102
RTVSPropertyOp24
 70
     1
102
RTVSPropertyOp25
 70
     1
102
RTVSPropertyOp26
 70
     1
102
RTVSPropertyOp27
 70
     1
102
RTVSPropertyOp28
 70
     1
102
RTVSPropertyOp29
 70
     1
102
RTVSPropertyOp30
 70
     1
102
RTVSPropertyOp31
 70
     1
102
RTVSPropertyOp32
 70
     1
102
RTVSPropertyOp33
 70
     1
102
RTVSPropertyOp34
 70
     1
102
RTVSPropertyOp35
 70
     1
102
RTVSPropertyOp36
 70
     1
102
RTVSPropertyOp37
 70
     1
102
RTVSPropertyOp38
 70
     1
102
RTVSPropertyOp39
 70
     1
102
RTVSPropertyOp40
 70
     1
102
RTVSPropertyOp41
 70
     1
102
RTVSPropertyOp42
 70
     1
102
RTVSPropertyOp43
 70
     1
102
RTVSPropertyOp44
 70
     1
102
RTVSPropertyOp45
 70
     1
102
RTVSPropertyOp46
 70
     1
102
RTVSPropertyOp47
 70
     1
102
RTVSPropertyOp48
 70
     1
102
RTVSPropertyOp49
 70
     1
102
RTVSPropertyOp50
 70
     1
102
RTVSPropertyOp51
 70
     0
102
RTVSPropertyOp52
 70
     0
102
RTVSPropertyOp53
 70
     1
102
RTVSPropertyOp54
 70
     1
102
RTVSPropertyOp55
 70
     1
102
RTVSPropertyOp56
 70
     1
102
RTVSPropertyOp57
 70
     1
102
RTVSPost2010Prop28
280
     0
102
RTVSPost2010PropOp28
 70
     1
102
RTVSPost2010Prop29
280
     1
102
RTVSPost2010PropOp29
 70
     1
102
RTVSPost2010Prop30
280
     1
102
RTVSPost2010PropOp30
 70
     1
102
RTVSPost2010Prop31
280
     0
102
RTVSPost2010PropOp31
 70
     1
102
RTVSPost2010Prop32
280
     0
102
RTVSPost2010PropOp32
 70
     1
102
RTVSPost2010Prop33
280
     0
102
RTVSPost2010PropOp33
 70
     1
102
RTVSPost2010Prop34
280
     0
102
RTVSPost2010PropOp34
 70
     1
102
RTVSPost2010Prop35
280
     0
102
RTVSPost2010PropOp35
 70
     1
102
RTVSPost2010Prop36
280
     0
102
RTVSPost2010PropOp36
 70
     1
102
RTVSPost2010Prop37
 90
       50
102
RTVSPost2010PropOp37
 70
     1
102
RTVSPost2010Prop38
140
0.0
102
RTVSPost2010PropOp38
 70
     1
102
RTVSPost2010Prop39
140
1.0
102
RTVSPost2010PropOp39
 70
     1
102
RTVSPost2010Prop40
 90
        0
102
RTVSPost2010PropOp40
 70
     1
102
RTVSPost2010Prop41ColorIndex
 90
       18
102
RTVSPost2010Prop41ColorRGB
 90
        0
102
RTVSPost2010PropOp41
 70
     1
102
RTVSPost2010Prop42
 90
       50
102
RTVSPost2010PropOp42
 70
     1
102
RTVSPost2010Prop43
 90
        3
102
RTVSPost2010PropOp43
 70
     1
102
RTVSPost2010Prop44ColorIndex
 90
        5
102
RTVSPost2010Prop44ColorRGB
 90
      255
102
RTVSPost2010PropOp44
 70
     1
102
RTVSPost2010Prop45
280
     0
102
RTVSPost2010PropOp45
 70
     1
102
RTVSPost2010Prop46
 90
       50
102
RTVSPost2010PropOp46
 70
     1
102
RTVSPost2010Prop47
 90
       50
102
RTVSPost2010PropOp47
 70
     1
102
RTVSPost2010Prop48
 90
       50
102
RTVSPost2010PropOp48
 70
     1
102
RTVSPost2010Prop49
280
     0
102
RTVSPost2010PropOp49
 70
     1
102
RTVSPost2010Prop50
 90
       50
102
RTVSPost2010PropOp50
 70
     1
102
RTVSPost2010Prop51ColorIndex
 90
      256
102
RTVSPost2010Prop51ColorRGB
 90
-16777216
102
RTVSPost2010PropOp51
 70
     0
102
RTVSPost2010Prop52
140
1.0
102
RTVSPost2010PropOp52
 70
     0
102
RTVSPost2010Prop53
 90
        2
102
RTVSPost2010PropOp53
 70
     1
102
RTVSPost2010Prop54
  1
strokes_ogs.tif
102
RTVSPost2010PropOp54
 70
     1
102
RTVSPost2010Prop55
280
     0
102
RTVSPost2010PropOp55
 70
     1
102
RTVSPost2010Prop56
140
1.0
102
RTVSPost2010PropOp56
 70
     1
102
RTVSPost2010Prop57
140
1.0
102
RTVSPost2010PropOp57
 70
     1
  0
XRECORD
  5
819
102
{ACAD_REACTORS
330
818
102
}
330
818
100
AcDbXrecord
280
     1
102
RTVSPropertyOp0
 70
     1
102
RTVSPropertyOp1
 70
     1
102
RTVSPropertyOp2
 70
     1
102
RTVSPropertyOp3
 70
     1
102
RTVSPropertyOp4
 70
     1
102
RTVSPropertyOp5
 70
     1
102
RTVSPropertyOp6
 70
     1
102
RTVSPropertyOp7
 70
     1
102
RTVSPropertyOp8
 70
     1
102
RTVSPropertyOp9
 70
     1
102
RTVSPropertyOp10
 70
     1
102
RTVSPropertyOp11
 70
     1
102
RTVSPropertyOp12
 70
     1
102
RTVSPropertyOp13
 70
     1
102
RTVSPropertyOp14
 70
     1
102
RTVSPropertyOp15
 70
     1
102
RTVSPropertyOp16
 70
     1
102
RTVSPropertyOp17
 70
     1
102
RTVSPropertyOp18
 70
     1
102
RTVSPropertyOp19
 70
     1
102
RTVSPropertyOp20
 70
     1
102
RTVSPropertyOp21
 70
     1
102
RTVSPropertyOp22
 70
     1
102
RTVSPropertyOp23
 70
     1
102
RTVSPropertyOp24
 70
     1
102
RTVSPropertyOp25
 70
     1
102
RTVSPropertyOp26
 70
     1
102
RTVSPropertyOp27
 70
     1
102
RTVSPropertyOp28
 70
     1
102
RTVSPropertyOp29
 70
     1
102
RTVSPropertyOp30
 70
     1
102
RTVSPropertyOp31
 70
     1
102
RTVSPropertyOp32
 70
     1
102
RTVSPropertyOp33
 70
     1
102
RTVSPropertyOp34
 70
     1
102
RTVSPropertyOp35
 70
     1
102
RTVSPropertyOp36
 70
     1
102
RTVSPropertyOp37
 70
     1
102
RTVSPropertyOp38
 70
     1
102
RTVSPropertyOp39
 70
     1
102
RTVSPropertyOp40
 70
     1
102
RTVSPropertyOp41
 70
     1
102
RTVSPropertyOp42
 70
     1
102
RTVSPropertyOp43
 70
     1
102
RTVSPropertyOp44
 70
     1
102
RTVSPropertyOp45
 70
     1
102
RTVSPropertyOp46
 70
     1
102
RTVSPropertyOp47
 70
     1
102
RTVSPropertyOp48
 70
     1
102
RTVSPropertyOp49
 70
     1
102
RTVSPropertyOp50
 70
     1
102
RTVSPropertyOp51
 70
     0
102
RTVSPropertyOp52
 70
     0
102
RTVSPropertyOp53
 70
     1
102
RTVSPropertyOp54
 70
     1
102
RTVSPropertyOp55
 70
     1
102
RTVSPropertyOp56
 70
     1
102
RTVSPropertyOp57
 70
     1
102
RTVSPost2010Prop28
280
     0
102
RTVSPost2010PropOp28
 70
     1
102
RTVSPost2010Prop29
280
     1
102
RTVSPost2010PropOp29
 70
     1
102
RTVSPost2010Prop30
280
     1
102
RTVSPost2010PropOp30
 70
     1
102
RTVSPost2010Prop31
280
     0
102
RTVSPost2010PropOp31
 70
     1
102
RTVSPost2010Prop32
280
     0
102
RTVSPost2010PropOp32
 70
     1
102
RTVSPost2010Prop33
280
     0
102
RTVSPost2010PropOp33
 70
     1
102
RTVSPost2010Prop34
280
     0
102
RTVSPost2010PropOp34
 70
     1
102
RTVSPost2010Prop35
280
     0
102
RTVSPost2010PropOp35
 70
     1
102
RTVSPost2010Prop36
280
     0
102
RTVSPost2010PropOp36
 70
     1
102
RTVSPost2010Prop37
 90
       50
102
RTVSPost2010PropOp37
 70
     1
102
RTVSPost2010Prop38
140
0.0
102
RTVSPost2010PropOp38
 70
     1
102
RTVSPost2010Prop39
140
1.0
102
RTVSPost2010PropOp39
 70
     1
102
RTVSPost2010Prop40
 90
        0
102
RTVSPost2010PropOp40
 70
     1
102
RTVSPost2010Prop41ColorIndex
 90
       18
102
RTVSPost2010Prop41ColorRGB
 90
        0
102
RTVSPost2010PropOp41
 70
     1
102
RTVSPost2010Prop42
 90
       50
102
RTVSPost2010PropOp42
 70
     1
102
RTVSPost2010Prop43
 90
        3
102
RTVSPost2010PropOp43
 70
     1
102
RTVSPost2010Prop44ColorIndex
 90
        5
102
RTVSPost2010Prop44ColorRGB
 90
      255
102
RTVSPost2010PropOp44
 70
     1
102
RTVSPost2010Prop45
280
     0
102
RTVSPost2010PropOp45
 70
     1
102
RTVSPost2010Prop46
 90
       50
102
RTVSPost2010PropOp46
 70
     1
102
RTVSPost2010Prop47
 90
       50
102
RTVSPost2010PropOp47
 70
     1
102
RTVSPost2010Prop48
 90
       50
102
RTVSPost2010PropOp48
 70
     1
102
RTVSPost2010Prop49
280
     0
102
RTVSPost2010PropOp49
 70
     1
102
RTVSPost2010Prop50
 90
       50
102
RTVSPost2010PropOp50
 70
     1
102
RTVSPost2010Prop51ColorIndex
 90
      256
102
RTVSPost2010Prop51ColorRGB
 90
-16777216
102
RTVSPost2010PropOp51
 70
     0
102
RTVSPost2010Prop52
140
1.0
102
RTVSPost2010PropOp52
 70
     0
102
RTVSPost2010Prop53
 90
        2
102
RTVSPost2010PropOp53
 70
     1
102
RTVSPost2010Prop54
  1
strokes_ogs.tif
102
RTVSPost2010PropOp54
 70
     1
102
RTVSPost2010Prop55
280
     0
102
RTVSPost2010PropOp55
 70
     1
102
RTVSPost2010Prop56
140
1.0
102
RTVSPost2010PropOp56
 70
     1
102
RTVSPost2010Prop57
140
1.0
102
RTVSPost2010PropOp57
 70
     1
  0
XRECORD
  5
809
102
{ACAD_REACTORS
330
808
102
}
330
808
100
AcDbXrecord
280
     1
102
RTVSPropertyOp0
 70
     1
102
RTVSPropertyOp1
 70
     1
102
RTVSPropertyOp2
 70
     1
102
RTVSPropertyOp3
 70
     1
102
RTVSPropertyOp4
 70
     1
102
RTVSPropertyOp5
 70
     1
102
RTVSPropertyOp6
 70
     1
102
RTVSPropertyOp7
 70
     1
102
RTVSPropertyOp8
 70
     1
102
RTVSPropertyOp9
 70
     1
102
RTVSPropertyOp10
 70
     1
102
RTVSPropertyOp11
 70
     1
102
RTVSPropertyOp12
 70
     1
102
RTVSPropertyOp13
 70
     1
102
RTVSPropertyOp14
 70
     1
102
RTVSPropertyOp15
 70
     1
102
RTVSPropertyOp16
 70
     1
102
RTVSPropertyOp17
 70
     1
102
RTVSPropertyOp18
 70
     1
102
RTVSPropertyOp19
 70
     1
102
RTVSPropertyOp20
 70
     1
102
RTVSPropertyOp21
 70
     1
102
RTVSPropertyOp22
 70
     1
102
RTVSPropertyOp23
 70
     1
102
RTVSPropertyOp24
 70
     1
102
RTVSPropertyOp25
 70
     1
102
RTVSPropertyOp26
 70
     1
102
RTVSPropertyOp27
 70
     1
102
RTVSPropertyOp28
 70
     1
102
RTVSPropertyOp29
 70
     1
102
RTVSPropertyOp30
 70
     1
102
RTVSPropertyOp31
 70
     1
102
RTVSPropertyOp32
 70
     1
102
RTVSPropertyOp33
 70
     1
102
RTVSPropertyOp34
 70
     1
102
RTVSPropertyOp35
 70
     1
102
RTVSPropertyOp36
 70
     1
102
RTVSPropertyOp37
 70
     1
102
RTVSPropertyOp38
 70
     1
102
RTVSPropertyOp39
 70
     1
102
RTVSPropertyOp40
 70
     1
102
RTVSPropertyOp41
 70
     1
102
RTVSPropertyOp42
 70
     1
102
RTVSPropertyOp43
 70
     1
102
RTVSPropertyOp44
 70
     1
102
RTVSPropertyOp45
 70
     1
102
RTVSPropertyOp46
 70
     1
102
RTVSPropertyOp47
 70
     1
102
RTVSPropertyOp48
 70
     1
102
RTVSPropertyOp49
 70
     1
102
RTVSPropertyOp50
 70
     1
102
RTVSPropertyOp51
 70
     0
102
RTVSPropertyOp52
 70
     0
102
RTVSPropertyOp53
 70
     1
102
RTVSPropertyOp54
 70
     1
102
RTVSPropertyOp55
 70
     1
102
RTVSPropertyOp56
 70
     1
102
RTVSPropertyOp57
 70
     1
102
RTVSPost2010Prop28
280
     0
102
RTVSPost2010PropOp28
 70
     1
102
RTVSPost2010Prop29
280
     1
102
RTVSPost2010PropOp29
 70
     1
102
RTVSPost2010Prop30
280
     1
102
RTVSPost2010PropOp30
 70
     1
102
RTVSPost2010Prop31
280
     0
102
RTVSPost2010PropOp31
 70
     1
102
RTVSPost2010Prop32
280
     0
102
RTVSPost2010PropOp32
 70
     1
102
RTVSPost2010Prop33
280
     0
102
RTVSPost2010PropOp33
 70
     1
102
RTVSPost2010Prop34
280
     0
102
RTVSPost2010PropOp34
 70
     1
102
RTVSPost2010Prop35
280
     0
102
RTVSPost2010PropOp35
 70
     1
102
RTVSPost2010Prop36
280
     0
102
RTVSPost2010PropOp36
 70
     1
102
RTVSPost2010Prop37
 90
       50
102
RTVSPost2010PropOp37
 70
     1
102
RTVSPost2010Prop38
140
0.0
102
RTVSPost2010PropOp38
 70
     1
102
RTVSPost2010Prop39
140
1.0
102
RTVSPost2010PropOp39
 70
     1
102
RTVSPost2010Prop40
 90
        0
102
RTVSPost2010PropOp40
 70
     1
102
RTVSPost2010Prop41ColorIndex
 90
       18
102
RTVSPost2010Prop41ColorRGB
 90
        0
102
RTVSPost2010PropOp41
 70
     1
102
RTVSPost2010Prop42
 90
       50
102
RTVSPost2010PropOp42
 70
     1
102
RTVSPost2010Prop43
 90
        3
102
RTVSPost2010PropOp43
 70
     1
102
RTVSPost2010Prop44ColorIndex
 90
        5
102
RTVSPost2010Prop44ColorRGB
 90
      255
102
RTVSPost2010PropOp44
 70
     1
102
RTVSPost2010Prop45
280
     0
102
RTVSPost2010PropOp45
 70
     1
102
RTVSPost2010Prop46
 90
       50
102
RTVSPost2010PropOp46
 70
     1
102
RTVSPost2010Prop47
 90
       50
102
RTVSPost2010PropOp47
 70
     1
102
RTVSPost2010Prop48
 90
       50
102
RTVSPost2010PropOp48
 70
     1
102
RTVSPost2010Prop49
280
     0
102
RTVSPost2010PropOp49
 70
     1
102
RTVSPost2010Prop50
 90
       50
102
RTVSPost2010PropOp50
 70
     1
102
RTVSPost2010Prop51ColorIndex
 90
      256
102
RTVSPost2010Prop51ColorRGB
 90
-16777216
102
RTVSPost2010PropOp51
 70
     0
102
RTVSPost2010Prop52
140
1.0
102
RTVSPost2010PropOp52
 70
     0
102
RTVSPost2010Prop53
 90
        2
102
RTVSPost2010PropOp53
 70
     1
102
RTVSPost2010Prop54
  1
strokes_ogs.tif
102
RTVSPost2010PropOp54
 70
     1
102
RTVSPost2010Prop55
280
     0
102
RTVSPost2010PropOp55
 70
     1
102
RTVSPost2010Prop56
140
1.0
102
RTVSPost2010PropOp56
 70
     1
102
RTVSPost2010Prop57
140
1.0
102
RTVSPost2010PropOp57
 70
     1
  0
XRECORD
  5
7FB
102
{ACAD_REACTORS
330
7FA
102
}
330
7FA
100
AcDbXrecord
280
     1
102
RTVSPropertyOp0
 70
     1
102
RTVSPropertyOp1
 70
     1
102
RTVSPropertyOp2
 70
     1
102
RTVSPropertyOp3
 70
     1
102
RTVSPropertyOp4
 70
     1
102
RTVSPropertyOp5
 70
     1
102
RTVSPropertyOp6
 70
     1
102
RTVSPropertyOp7
 70
     1
102
RTVSPropertyOp8
 70
     1
102
RTVSPropertyOp9
 70
     1
102
RTVSPropertyOp10
 70
     1
102
RTVSPropertyOp11
 70
     1
102
RTVSPropertyOp12
 70
     1
102
RTVSPropertyOp13
 70
     1
102
RTVSPropertyOp14
 70
     1
102
RTVSPropertyOp15
 70
     1
102
RTVSPropertyOp16
 70
     1
102
RTVSPropertyOp17
 70
     1
102
RTVSPropertyOp18
 70
     1
102
RTVSPropertyOp19
 70
     1
102
RTVSPropertyOp20
 70
     1
102
RTVSPropertyOp21
 70
     1
102
RTVSPropertyOp22
 70
     1
102
RTVSPropertyOp23
 70
     1
102
RTVSPropertyOp24
 70
     1
102
RTVSPropertyOp25
 70
     1
102
RTVSPropertyOp26
 70
     1
102
RTVSPropertyOp27
 70
     1
102
RTVSPropertyOp28
 70
     1
102
RTVSPropertyOp29
 70
     1
102
RTVSPropertyOp30
 70
     1
102
RTVSPropertyOp31
 70
     1
102
RTVSPropertyOp32
 70
     1
102
RTVSPropertyOp33
 70
     1
102
RTVSPropertyOp34
 70
     1
102
RTVSPropertyOp35
 70
     1
102
RTVSPropertyOp36
 70
     1
102
RTVSPropertyOp37
 70
     1
102
RTVSPropertyOp38
 70
     1
102
RTVSPropertyOp39
 70
     1
102
RTVSPropertyOp40
 70
     1
102
RTVSPropertyOp41
 70
     1
102
RTVSPropertyOp42
 70
     1
102
RTVSPropertyOp43
 70
     1
102
RTVSPropertyOp44
 70
     1
102
RTVSPropertyOp45
 70
     1
102
RTVSPropertyOp46
 70
     1
102
RTVSPropertyOp47
 70
     1
102
RTVSPropertyOp48
 70
     1
102
RTVSPropertyOp49
 70
     1
102
RTVSPropertyOp50
 70
     1
102
RTVSPropertyOp51
 70
     0
102
RTVSPropertyOp52
 70
     0
102
RTVSPropertyOp53
 70
     1
102
RTVSPropertyOp54
 70
     1
102
RTVSPropertyOp55
 70
     1
102
RTVSPropertyOp56
 70
     1
102
RTVSPropertyOp57
 70
     1
102
RTVSPost2010Prop28
280
     0
102
RTVSPost2010PropOp28
 70
     1
102
RTVSPost2010Prop29
280
     1
102
RTVSPost2010PropOp29
 70
     1
102
RTVSPost2010Prop30
280
     1
102
RTVSPost2010PropOp30
 70
     1
102
RTVSPost2010Prop31
280
     0
102
RTVSPost2010PropOp31
 70
     1
102
RTVSPost2010Prop32
280
     0
102
RTVSPost2010PropOp32
 70
     1
102
RTVSPost2010Prop33
280
     0
102
RTVSPost2010PropOp33
 70
     1
102
RTVSPost2010Prop34
280
     0
102
RTVSPost2010PropOp34
 70
     1
102
RTVSPost2010Prop35
280
     0
102
RTVSPost2010PropOp35
 70
     1
102
RTVSPost2010Prop36
280
     0
102
RTVSPost2010PropOp36
 70
     1
102
RTVSPost2010Prop37
 90
       50
102
RTVSPost2010PropOp37
 70
     1
102
RTVSPost2010Prop38
140
0.0
102
RTVSPost2010PropOp38
 70
     1
102
RTVSPost2010Prop39
140
1.0
102
RTVSPost2010PropOp39
 70
     1
102
RTVSPost2010Prop40
 90
        0
102
RTVSPost2010PropOp40
 70
     1
102
RTVSPost2010Prop41ColorIndex
 90
       18
102
RTVSPost2010Prop41ColorRGB
 90
        0
102
RTVSPost2010PropOp41
 70
     1
102
RTVSPost2010Prop42
 90
       50
102
RTVSPost2010PropOp42
 70
     1
102
RTVSPost2010Prop43
 90
        3
102
RTVSPost2010PropOp43
 70
     1
102
RTVSPost2010Prop44ColorIndex
 90
        5
102
RTVSPost2010Prop44ColorRGB
 90
      255
102
RTVSPost2010PropOp44
 70
     1
102
RTVSPost2010Prop45
280
     0
102
RTVSPost2010PropOp45
 70
     1
102
RTVSPost2010Prop46
 90
       50
102
RTVSPost2010PropOp46
 70
     1
102
RTVSPost2010Prop47
 90
       50
102
RTVSPost2010PropOp47
 70
     1
102
RTVSPost2010Prop48
 90
       50
102
RTVSPost2010PropOp48
 70
     1
102
RTVSPost2010Prop49
280
     0
102
RTVSPost2010PropOp49
 70
     1
102
RTVSPost2010Prop50
 90
       50
102
RTVSPost2010PropOp50
 70
     1
102
RTVSPost2010Prop51ColorIndex
 90
      256
102
RTVSPost2010Prop51ColorRGB
 90
-16777216
102
RTVSPost2010PropOp51
 70
     0
102
RTVSPost2010Prop52
140
1.0
102
RTVSPost2010PropOp52
 70
     0
102
RTVSPost2010Prop53
 90
        2
102
RTVSPost2010PropOp53
 70
     1
102
RTVSPost2010Prop54
  1
strokes_ogs.tif
102
RTVSPost2010PropOp54
 70
     1
102
RTVSPost2010Prop55
280
     0
102
RTVSPost2010PropOp55
 70
     1
102
RTVSPost2010Prop56
140
1.0
102
RTVSPost2010PropOp56
 70
     1
102
RTVSPost2010Prop57
140
1.0
102
RTVSPost2010PropOp57
 70
     1
  0
XRECORD
  5
81B
102
{ACAD_REACTORS
330
81A
102
}
330
81A
100
AcDbXrecord
280
     1
102
RTVSPropertyOp0
 70
     1
102
RTVSPropertyOp1
 70
     1
102
RTVSPropertyOp2
 70
     1
102
RTVSPropertyOp3
 70
     1
102
RTVSPropertyOp4
 70
     1
102
RTVSPropertyOp5
 70
     1
102
RTVSPropertyOp6
 70
     1
102
RTVSPropertyOp7
 70
     1
102
RTVSPropertyOp8
 70
     1
102
RTVSPropertyOp9
 70
     1
102
RTVSPropertyOp10
 70
     1
102
RTVSPropertyOp11
 70
     1
102
RTVSPropertyOp12
 70
     1
102
RTVSPropertyOp13
 70
     1
102
RTVSPropertyOp14
 70
     1
102
RTVSPropertyOp15
 70
     1
102
RTVSPropertyOp16
 70
     1
102
RTVSPropertyOp17
 70
     1
102
RTVSPropertyOp18
 70
     1
102
RTVSPropertyOp19
 70
     1
102
RTVSPropertyOp20
 70
     1
102
RTVSPropertyOp21
 70
     1
102
RTVSPropertyOp22
 70
     1
102
RTVSPropertyOp23
 70
     1
102
RTVSPropertyOp24
 70
     1
102
RTVSPropertyOp25
 70
     1
102
RTVSPropertyOp26
 70
     1
102
RTVSPropertyOp27
 70
     1
102
RTVSPropertyOp28
 70
     1
102
RTVSPropertyOp29
 70
     1
102
RTVSPropertyOp30
 70
     1
102
RTVSPropertyOp31
 70
     1
102
RTVSPropertyOp32
 70
     1
102
RTVSPropertyOp33
 70
     1
102
RTVSPropertyOp34
 70
     1
102
RTVSPropertyOp35
 70
     1
102
RTVSPropertyOp36
 70
     1
102
RTVSPropertyOp37
 70
     1
102
RTVSPropertyOp38
 70
     1
102
RTVSPropertyOp39
 70
     1
102
RTVSPropertyOp40
 70
     1
102
RTVSPropertyOp41
 70
     1
102
RTVSPropertyOp42
 70
     1
102
RTVSPropertyOp43
 70
     1
102
RTVSPropertyOp44
 70
     1
102
RTVSPropertyOp45
 70
     1
102
RTVSPropertyOp46
 70
     1
102
RTVSPropertyOp47
 70
     1
102
RTVSPropertyOp48
 70
     1
102
RTVSPropertyOp49
 70
     1
102
RTVSPropertyOp50
 70
     1
102
RTVSPropertyOp51
 70
     0
102
RTVSPropertyOp52
 70
     0
102
RTVSPropertyOp53
 70
     1
102
RTVSPropertyOp54
 70
     1
102
RTVSPropertyOp55
 70
     1
102
RTVSPropertyOp56
 70
     1
102
RTVSPropertyOp57
 70
     1
102
RTVSPost2010Prop28
280
     0
102
RTVSPost2010PropOp28
 70
     1
102
RTVSPost2010Prop29
280
     1
102
RTVSPost2010PropOp29
 70
     1
102
RTVSPost2010Prop30
280
     1
102
RTVSPost2010PropOp30
 70
     1
102
RTVSPost2010Prop31
280
     0
102
RTVSPost2010PropOp31
 70
     1
102
RTVSPost2010Prop32
280
     0
102
RTVSPost2010PropOp32
 70
     1
102
RTVSPost2010Prop33
280
     0
102
RTVSPost2010PropOp33
 70
     1
102
RTVSPost2010Prop34
280
     0
102
RTVSPost2010PropOp34
 70
     1
102
RTVSPost2010Prop35
280
     0
102
RTVSPost2010PropOp35
 70
     1
102
RTVSPost2010Prop36
280
     0
102
RTVSPost2010PropOp36
 70
     1
102
RTVSPost2010Prop37
 90
       50
102
RTVSPost2010PropOp37
 70
     1
102
RTVSPost2010Prop38
140
0.0
102
RTVSPost2010PropOp38
 70
     1
102
RTVSPost2010Prop39
140
1.0
102
RTVSPost2010PropOp39
 70
     1
102
RTVSPost2010Prop40
 90
        0
102
RTVSPost2010PropOp40
 70
     1
102
RTVSPost2010Prop41ColorIndex
 90
       18
102
RTVSPost2010Prop41ColorRGB
 90
        0
102
RTVSPost2010PropOp41
 70
     1
102
RTVSPost2010Prop42
 90
       50
102
RTVSPost2010PropOp42
 70
     1
102
RTVSPost2010Prop43
 90
        3
102
RTVSPost2010PropOp43
 70
     1
102
RTVSPost2010Prop44ColorIndex
 90
        5
102
RTVSPost2010Prop44ColorRGB
 90
      255
102
RTVSPost2010PropOp44
 70
     1
102
RTVSPost2010Prop45
280
     0
102
RTVSPost2010PropOp45
 70
     1
102
RTVSPost2010Prop46
 90
       50
102
RTVSPost2010PropOp46
 70
     1
102
RTVSPost2010Prop47
 90
       50
102
RTVSPost2010PropOp47
 70
     1
102
RTVSPost2010Prop48
 90
       50
102
RTVSPost2010PropOp48
 70
     1
102
RTVSPost2010Prop49
280
     0
102
RTVSPost2010PropOp49
 70
     1
102
RTVSPost2010Prop50
 90
       50
102
RTVSPost2010PropOp50
 70
     1
102
RTVSPost2010Prop51ColorIndex
 90
      256
102
RTVSPost2010Prop51ColorRGB
 90
-16777216
102
RTVSPost2010PropOp51
 70
     0
102
RTVSPost2010Prop52
140
1.0
102
RTVSPost2010PropOp52
 70
     0
102
RTVSPost2010Prop53
 90
        2
102
RTVSPost2010PropOp53
 70
     1
102
RTVSPost2010Prop54
  1
strokes_ogs.tif
102
RTVSPost2010PropOp54
 70
     1
102
RTVSPost2010Prop55
280
     0
102
RTVSPost2010PropOp55
 70
     1
102
RTVSPost2010Prop56
140
1.0
102
RTVSPost2010PropOp56
 70
     1
102
RTVSPost2010Prop57
140
1.0
102
RTVSPost2010PropOp57
 70
     1
  0
ENDSEC
  0
EOF
