0
SECTION
2
HEADER
9
$ACADVER
1
AC1015
9
$DWGCODEPAGE
3
ANSI_1252
9
$HANDSEED
5
1b8
9
$ANGBASE
50
0
9
$ANGDIR
70
0
9
$ATTMODE
70
1
9
$AUNITS
70
0
9
$AUPREC
70
0
9
$CECOLOR
62
256
9
$CELTSCALE
40
1
9
$CELTYPE
6
ByLayer
9
$CELWEIGHT
370
18
9
$CLAYER
8
0
9
$CMLJUST
70
0
9
$CMLSCALE
40
1
9
$CMLSTYLE
2
Standard
9
$DIMSTYLE
2
Standard
9
$TEXTSIZE
40
0.2
9
$TEXTSTYLE
7
Standard
9
$LUNITS
70
2
9
$LUPREC
70
4
9
$EXTNAMES
290
1
9
$INSUNITS
70
4
9
$LTSCALE
40
1
9
$LWDISPLAY
290
1
9
$PDMODE
70
0
9
$PDSIZE
40
0
9
$PLINEGEN
70
0
0
ENDSEC
0
SECTION
2
CLASSES
0
CLASS
1
RASTERVARIABLES
2
AcDbRasterVariables
3
ISM
90
0
280
0
281
0
0
ENDSEC
0
SECTION
2
TABLES
0
TABLE
2
VPORT
5
1ae
100
AcDbSymbolTable
0
VPORT
5
1
100
AcDbSymbolTableRecord
100
AcDbViewportTableRecord
2
*Active
70
0
10
0
20
0
11
1
21
1
12
-1
22
1
13
0
23
0
14
0.5
24
0.5
15
10
25
10
16
0
26
0
36
1
17
0
27
0
37
0
0
ENDTAB
0
TABLE
2
LTYPE
5
1af
100
AcDbSymbolTable
0
LTYPE
5
14
100
AcDbSymbolTableRecord
100
AcDbLinetypeTableRecord
70
0
2
ByBlock
3

72
65
73
0
40
0
0
LTYPE
5
15
100
AcDbSymbolTableRecord
100
AcDbLinetypeTableRecord
70
0
2
ByLayer
3

72
65
73
0
40
0
0
LTYPE
5
16
100
AcDbSymbolTableRecord
100
AcDbLinetypeTableRecord
70
0
2
CONTINUOUS
3
Solid line
72
65
73
0
40
0
0
LTYPE
5
6A
100
AcDbSymbolTableRecord
100
AcDbLinetypeTableRecord
70
0
2
CENTER
3
____ _ ____ _ ____ _ ____
72
65
73
4
40
47.5
49
22
74
0
49
-8.5
74
0
49
8.5
74
0
49
-8.5
74
0
0
LTYPE
5
6B
100
AcDbSymbolTableRecord
100
AcDbLinetypeTableRecord
70
0
2
DASHED
3
__ __ __ __ __ __ __ __ __
72
65
73
2
40
25.72
49
12.86
74
0
49
-12.86
74
0
0
ENDTAB
0
TABLE
2
LAYER
5
1b0
100
AcDbSymbolTable
0
LAYER
5
10
100
AcDbSymbolTableRecord
100
AcDbLayerTableRecord
2
0
70
0
62
7
6
CONTINUOUS
290
1
370
-3
390
0
0
LAYER
5
6D
100
AcDbSymbolTableRecord
100
AcDbLayerTableRecord
2
81
70
0
62
-3
6
CONTINUOUS
290
1
370
-3
390
0
0
LAYER
5
6F
100
AcDbSymbolTableRecord
100
AcDbLayerTableRecord
2
80
70
0
62
-6
6
CONTINUOUS
290
1
370
-3
390
0
0
LAYER
5
74
100
AcDbSymbolTableRecord
100
AcDbLayerTableRecord
2
2
70
0
62
7
6
CONTINUOUS
290
1
370
-3
390
0
0
LAYER
5
78
100
AcDbSymbolTableRecord
100
AcDbLayerTableRecord
2
1
70
0
62
4
6
CONTINUOUS
290
1
370
-3
390
0
0
LAYER
5
84
100
AcDbSymbolTableRecord
100
AcDbLayerTableRecord
2
4
70
0
62
-2
6
CENTER
290
1
370
-3
390
0
0
LAYER
5
19a
100
AcDbSymbolTableRecord
100
AcDbLayerTableRecord
2
SK2
70
0
62
7
6
CONTINUOUS
290
1
370
-3
390
0
0
LAYER
5
19b
100
AcDbSymbolTableRecord
100
AcDbLayerTableRecord
2
SK1
70
0
62
4
6
CONTINUOUS
290
1
370
-3
390
0
0
LAYER
5
19c
100
AcDbSymbolTableRecord
100
AcDbLayerTableRecord
2
SK4
70
0
62
2
6
CENTER
290
1
370
-3
390
0
0
LAYER
5
19d
100
AcDbSymbolTableRecord
100
AcDbLayerTableRecord
2
SK6
70
0
62
5
6
CONTINUOUS
290
1
370
-3
390
0
0
ENDTAB
0
TABLE
2
STYLE
5
1b1
100
AcDbSymbolTable
0
STYLE
5
11
100
AcDbSymbolTableRecord
100
AcDbTextStyleTableRecord
2
Standard
3
txt
70
0
71
0
40
0
41
1
42
0
50
0
0
STYLE
5
F6
100
AcDbSymbolTableRecord
100
AcDbTextStyleTableRecord
2
iso_b_vert
3
simplex.shx
70
0
71
0
40
0
41
1
42
0
50
0
0
STYLE
5
F7
100
AcDbSymbolTableRecord
100
AcDbTextStyleTableRecord
2
DWGDirectTextStyle
3
simplex
70
0
71
0
40
0
41
1
42
0
50
0
0
ENDTAB
0
TABLE
2
DIMSTYLE
5
1b2
100
AcDbSymbolTable
100
AcDbDimStyleTable
0
DIMSTYLE
105
27
100
AcDbSymbolTableRecord
100
AcDbDimStyleTableRecord
2
Standard
70
0
3
<>
41
0.18
42
0.0625
44
0.18
140
0.18
147
0.09
73
0
74
0
77
1
271
2
275
0
278
52
280
0
340
11
0
ENDTAB
0
TABLE
2
VIEW
5
1b3
100
AcDbSymbolTable
0
ENDTAB
0
TABLE
2
UCS
5
1b4
100
AcDbSymbolTable
0
ENDTAB
0
TABLE
2
APPID
5
1b5
100
AcDbSymbolTable
0
APPID
5
12
100
AcDbSymbolTableRecord
100
AcDbRegAppTableRecord
2
ACAD
70
0
0
ENDTAB
0
TABLE
2
BLOCK_RECORD
5
1b6
100
AcDbSymbolTable
0
BLOCK_RECORD
5
1F
100
AcDbSymbolTableRecord
100
AcDbBlockTableRecord
2
*Model_Space
340
0
70
0
0
BLOCK_RECORD
5
1B
100
AcDbSymbolTableRecord
100
AcDbBlockTableRecord
2
*Paper_Space
340
0
70
0
0
BLOCK_RECORD
5
23
100
AcDbSymbolTableRecord
100
AcDbBlockTableRecord
2
*Paper_Space0
340
0
70
0
0
BLOCK_RECORD
5
F9
100
AcDbSymbolTableRecord
100
AcDbBlockTableRecord
2
DimnDraft3D1
340
0
70
0
0
BLOCK_RECORD
5
103
100
AcDbSymbolTableRecord
100
AcDbBlockTableRecord
2
DimnDraft3D2
340
0
70
0
0
BLOCK_RECORD
5
10D
100
AcDbSymbolTableRecord
100
AcDbBlockTableRecord
2
DimnDraft3D3
340
0
70
0
0
BLOCK_RECORD
5
117
100
AcDbSymbolTableRecord
100
AcDbBlockTableRecord
2
DimnDraft3D4
340
0
70
0
0
BLOCK_RECORD
5
121
100
AcDbSymbolTableRecord
100
AcDbBlockTableRecord
2
DimnDraft3D5
340
0
70
0
0
BLOCK_RECORD
5
12B
100
AcDbSymbolTableRecord
100
AcDbBlockTableRecord
2
DimnDraft3D6
340
0
70
0
0
BLOCK_RECORD
5
136
100
AcDbSymbolTableRecord
100
AcDbBlockTableRecord
2
DimnDraft3D7
340
0
70
0
0
ENDTAB
0
ENDSEC
0
SECTION
2
BLOCKS
0
BLOCK
5
20
100
AcDbEntity
8
0
100
AcDbBlockBegin
2
*Model_Space
70
0
10
0
20
0
30
0
3
*Model_Space
0
ENDBLK
5
21
100
AcDbEntity
8
0
100
AcDbBlockEnd
0
BLOCK
5
1C
100
AcDbEntity
8
0
100
AcDbBlockBegin
2
*Paper_Space
70
0
10
0
20
0
30
0
3
*Paper_Space
0
ENDBLK
5
1D
100
AcDbEntity
8
0
100
AcDbBlockEnd
0
BLOCK
5
24
100
AcDbEntity
8
0
100
AcDbBlockBegin
2
*Paper_Space0
70
0
10
0
20
0
30
0
3
*Paper_Space0
0
ENDBLK
5
25
100
AcDbEntity
8
0
100
AcDbBlockEnd
0
BLOCK
5
100
100
AcDbEntity
8
0
100
AcDbBlockBegin
2
DimnDraft3D1
70
0
10
0
20
0
30
0
3
DimnDraft3D1
0
MTEXT
5
FA
100
AcDbEntity
8
SK2
62
256
6
ByLayer
370
13
48
1
60
0
100
AcDbMText
10
17.497164
20
-14.138398
30
0
210
0
220
0
230
1
1
\W0.7581;47,38
40
3.5
41
0
44
1.084337
50
0
71
7
72
5
7
iso_b_vert
0
LINE
5
FB
100
AcDbEntity
8
SK2
62
256
6
ByLayer
370
13
48
1
60
0
100
AcDbLine
10
0
20
-1.5875
30
0
11
0
21
-17.013398
31
0
39
0
210
0
220
0
230
1
0
LINE
5
FC
100
AcDbEntity
8
SK2
62
256
6
ByLayer
370
13
48
1
60
0
100
AcDbLine
10
47.38
20
-6.3875
30
0
11
47.38
21
-17.013398
31
0
39
0
210
0
220
0
230
1
0
LINE
5
FD
100
AcDbEntity
8
SK2
62
256
6
ByLayer
370
13
48
1
60
0
100
AcDbLine
10
0
20
-15.013398
30
0
11
47.38
21
-15.013398
31
0
39
0
210
0
220
0
230
1
0
SOLID
5
FE
100
AcDbEntity
8
SK2
62
256
6
ByLayer
370
13
48
1
60
0
100
AcDbTrace
10
0
20
-15.013398
30
0
11
3.499998
21
-14.552615
31
0
12
3.500002
22
-15.474182
32
0
13
0
23
-15.013398
33
0
39
0
210
0
220
0
230
1
0
SOLID
5
FF
100
AcDbEntity
8
SK2
62
256
6
ByLayer
370
13
48
1
60
0
100
AcDbTrace
10
47.38
20
-15.013398
30
0
11
43.880002
21
-15.474182
31
0
12
43.879998
22
-14.552615
32
0
13
47.38
23
-15.013398
33
0
39
0
210
0
220
0
230
1
0
ENDBLK
5
101
100
AcDbEntity
8
0
100
AcDbBlockEnd
0
BLOCK
5
10A
100
AcDbEntity
8
0
100
AcDbBlockBegin
2
DimnDraft3D2
70
0
10
0
20
0
30
0
3
DimnDraft3D2
0
MTEXT
5
104
100
AcDbEntity
8
SK2
62
256
6
ByLayer
370
13
48
1
60
0
100
AcDbMText
10
-0.227384
20
-32.817985
30
0
210
0
220
0
230
1
1
\W0.7317;89,00
40
3.5
41
0
44
1.084337
50
0
71
7
72
5
7
iso_b_vert
0
LINE
5
105
100
AcDbEntity
8
SK2
62
256
6
ByLayer
370
13
48
1
60
0
100
AcDbLine
10
-40
20
-6.5875
30
0
11
-40
21
-35.692985
31
0
39
0
210
0
220
0
230
1
0
LINE
5
106
100
AcDbEntity
8
SK2
62
256
6
ByLayer
370
13
48
1
60
0
100
AcDbLine
10
49
20
-1.5875
30
0
11
49
21
-35.692985
31
0
39
0
210
0
220
0
230
1
0
LINE
5
107
100
AcDbEntity
8
SK2
62
256
6
ByLayer
370
13
48
1
60
0
100
AcDbLine
10
-40
20
-33.692985
30
0
11
49
21
-33.692985
31
0
39
0
210
0
220
0
230
1
0
SOLID
5
108
100
AcDbEntity
8
SK2
62
256
6
ByLayer
370
13
48
1
60
0
100
AcDbTrace
10
-40
20
-33.692985
30
0
11
-36.500002
21
-33.232202
31
0
12
-36.499998
22
-34.153769
32
0
13
-40
23
-33.692985
33
0
39
0
210
0
220
0
230
1
0
SOLID
5
109
100
AcDbEntity
8
SK2
62
256
6
ByLayer
370
13
48
1
60
0
100
AcDbTrace
10
49
20
-33.692985
30
0
11
45.500002
21
-34.153769
31
0
12
45.499998
22
-33.232202
32
0
13
49
23
-33.692985
33
0
39
0
210
0
220
0
230
1
0
ENDBLK
5
10B
100
AcDbEntity
8
0
100
AcDbBlockEnd
0
BLOCK
5
114
100
AcDbEntity
8
0
100
AcDbBlockBegin
2
DimnDraft3D3
70
0
10
0
20
0
30
0
3
DimnDraft3D3
0
MTEXT
5
10E
100
AcDbEntity
8
SK2
62
256
6
ByLayer
370
13
48
1
60
0
100
AcDbMText
10
29.157105
20
17.284119
30
0
210
0
220
0
230
1
1
\W0.7581;30,42
40
3.5
41
0
44
1.084337
50
0
71
7
72
5
7
iso_b_vert
0
LINE
5
10F
100
AcDbEntity
8
SK2
62
256
6
ByLayer
370
13
48
1
60
0
100
AcDbLine
10
18.58
20
6.3875
30
0
11
18.58
21
18.409119
31
0
39
0
210
0
220
0
230
1
0
LINE
5
110
100
AcDbEntity
8
SK2
62
256
6
ByLayer
370
13
48
1
60
0
100
AcDbLine
10
49
20
1.5875
30
0
11
49
21
18.409119
31
0
39
0
210
0
220
0
230
1
0
LINE
5
111
100
AcDbEntity
8
SK2
62
256
6
ByLayer
370
13
48
1
60
0
100
AcDbLine
10
18.58
20
16.409119
30
0
11
49
21
16.409119
31
0
39
0
210
0
220
0
230
1
0
SOLID
5
112
100
AcDbEntity
8
SK2
62
256
6
ByLayer
370
13
48
1
60
0
100
AcDbTrace
10
18.58
20
16.409119
30
0
11
22.079998
21
16.869903
31
0
12
22.080002
22
15.948335
32
0
13
18.58
23
16.409119
33
0
39
0
210
0
220
0
230
1
0
SOLID
5
113
100
AcDbEntity
8
SK2
62
256
6
ByLayer
370
13
48
1
60
0
100
AcDbTrace
10
49
20
16.409119
30
0
11
45.500002
21
15.948335
31
0
12
45.499998
22
16.869903
32
0
13
49
23
16.409119
33
0
39
0
210
0
220
0
230
1
0
ENDBLK
5
115
100
AcDbEntity
8
0
100
AcDbBlockEnd
0
BLOCK
5
11E
100
AcDbEntity
8
0
100
AcDbBlockBegin
2
DimnDraft3D4
70
0
10
0
20
0
30
0
3
DimnDraft3D4
0
MTEXT
5
118
100
AcDbEntity
8
SK2
62
256
6
ByLayer
370
13
48
1
60
0
100
AcDbMText
10
56.278136
20
-16.727503
30
0
210
0
220
0
230
1
1
\W0.6367;1,62
40
3.5
41
0
44
1.084337
50
0
71
7
72
5
7
iso_b_vert
0
LINE
5
119
100
AcDbEntity
8
SK2
62
256
6
ByLayer
370
13
48
1
60
0
100
AcDbLine
10
49
20
-1.5875
30
0
11
49
21
-19.602503
31
0
39
0
210
0
220
0
230
1
0
LINE
5
11A
100
AcDbEntity
8
SK2
62
256
6
ByLayer
370
13
48
1
60
0
100
AcDbLine
10
47.38
20
-6.3875
30
0
11
47.38
21
-19.602503
31
0
39
0
210
0
220
0
230
1
0
LINE
5
11B
100
AcDbEntity
8
SK2
62
256
6
ByLayer
370
13
48
1
60
0
100
AcDbLine
10
38.63
20
-17.602503
30
0
11
62.559715
21
-17.602503
31
0
39
0
210
0
220
0
230
1
0
SOLID
5
11C
100
AcDbEntity
8
SK2
62
256
6
ByLayer
370
13
48
1
60
0
100
AcDbTrace
10
49
20
-17.602503
30
0
11
52.499998
21
-17.141719
31
0
12
52.500002
22
-18.063287
32
0
13
49
23
-17.602503
33
0
39
0
210
0
220
0
230
1
0
SOLID
5
11D
100
AcDbEntity
8
SK2
62
256
6
ByLayer
370
13
48
1
60
0
100
AcDbTrace
10
47.38
20
-17.602503
30
0
11
43.880002
21
-18.063287
31
0
12
43.879998
22
-17.141719
32
0
13
47.38
23
-17.602503
33
0
39
0
210
0
220
0
230
1
0
ENDBLK
5
11F
100
AcDbEntity
8
0
100
AcDbBlockEnd
0
BLOCK
5
128
100
AcDbEntity
8
0
100
AcDbBlockBegin
2
DimnDraft3D5
70
0
10
0
20
0
30
0
3
DimnDraft3D5
0
MTEXT
5
122
100
AcDbEntity
8
SK2
62
256
6
ByLayer
370
13
48
1
60
0
100
AcDbMText
10
-3.308008
20
-22.468428
30
0
210
0
220
0
230
1
1
\W0.7317;87,38
40
3.5
41
0
44
1.084337
50
0
71
7
72
5
7
iso_b_vert
0
LINE
5
123
100
AcDbEntity
8
SK2
62
256
6
ByLayer
370
13
48
1
60
0
100
AcDbLine
10
-40
20
-6.5875
30
0
11
-40
21
-25.343428
31
0
39
0
210
0
220
0
230
1
0
LINE
5
124
100
AcDbEntity
8
SK2
62
256
6
ByLayer
370
13
48
1
60
0
100
AcDbLine
10
47.38
20
-6.3875
30
0
11
47.38
21
-25.343428
31
0
39
0
210
0
220
0
230
1
0
LINE
5
125
100
AcDbEntity
8
SK2
62
256
6
ByLayer
370
13
48
1
60
0
100
AcDbLine
10
-40
20
-23.343428
30
0
11
47.38
21
-23.343428
31
0
39
0
210
0
220
0
230
1
0
SOLID
5
126
100
AcDbEntity
8
SK2
62
256
6
ByLayer
370
13
48
1
60
0
100
AcDbTrace
10
-40
20
-23.343428
30
0
11
-36.500002
21
-22.882645
31
0
12
-36.499998
22
-23.804212
32
0
13
-40
23
-23.343428
33
0
39
0
210
0
220
0
230
1
0
SOLID
5
127
100
AcDbEntity
8
SK2
62
256
6
ByLayer
370
13
48
1
60
0
100
AcDbTrace
10
47.38
20
-23.343428
30
0
11
43.880002
21
-23.804212
31
0
12
43.879998
22
-22.882645
32
0
13
47.38
23
-23.343428
33
0
39
0
210
0
220
0
230
1
0
ENDBLK
5
129
100
AcDbEntity
8
0
100
AcDbBlockEnd
0
BLOCK
5
133
100
AcDbEntity
8
0
100
AcDbBlockBegin
2
DimnDraft3D6
70
0
10
0
20
0
30
0
3
DimnDraft3D6
0
MTEXT
5
12C
100
AcDbEntity
8
SK2
62
256
6
ByLayer
370
13
48
1
60
0
100
AcDbMText
10
-50.375163
20
24.34918
30
0
210
0
220
0
230
1
1
\W0.6930;10,000
40
3.5
41
0
44
1.084337
50
90
71
7
72
5
7
iso_b_vert
0
MTEXT
5
12D
100
AcDbEntity
8
SK2
62
256
6
ByLayer
370
13
48
1
60
0
100
AcDbMText
10
-50.375163
20
19.126524
30
0
210
0
220
0
230
1
1
%%c
40
3.5
41
0
44
1.084337
50
90
71
7
72
5
7
iso_b_vert
0
LINE
5
12E
100
AcDbEntity
8
SK2
62
256
6
ByLayer
370
13
48
1
60
0
100
AcDbLine
10
-41.5875
20
-5
30
0
11
-50.625163
21
-5
31
0
39
0
210
0
220
0
230
1
0
LINE
5
12F
100
AcDbEntity
8
SK2
62
256
6
ByLayer
370
13
48
1
60
0
100
AcDbLine
10
-41.5875
20
5
30
0
11
-50.625163
21
5
31
0
39
0
210
0
220
0
230
1
0
LINE
5
130
100
AcDbEntity
8
SK2
62
256
6
ByLayer
370
13
48
1
60
0
100
AcDbLine
10
-48.625163
20
-5
30
0
11
-48.625163
21
35.862338
31
0
39
0
210
0
220
0
230
1
0
SOLID
5
131
100
AcDbEntity
8
SK2
62
256
6
ByLayer
370
13
48
1
60
0
100
AcDbTrace
10
-48.625163
20
-5
30
0
11
-49.085946
21
-1.500002
31
0
12
-48.164379
22
-1.499998
32
0
13
-48.625163
23
-5
33
0
39
0
210
0
220
0
230
1
0
SOLID
5
132
100
AcDbEntity
8
SK2
62
256
6
ByLayer
370
13
48
1
60
0
100
AcDbTrace
10
-48.625163
20
5
30
0
11
-48.164379
21
1.500002
31
0
12
-49.085946
22
1.499998
32
0
13
-48.625163
23
5
33
0
39
0
210
0
220
0
230
1
0
ENDBLK
5
134
100
AcDbEntity
8
0
100
AcDbBlockEnd
0
BLOCK
5
13E
100
AcDbEntity
8
0
100
AcDbBlockBegin
2
DimnDraft3D7
70
0
10
0
20
0
30
0
3
DimnDraft3D7
0
MTEXT
5
137
100
AcDbEntity
8
2
62
256
6
ByLayer
370
13
48
1
60
0
100
AcDbMText
10
59.333343
20
22.742266
30
0
210
0
220
0
230
1
1
\W0.7317;9,600
40
3.5
41
0
44
1.084337
50
90
71
7
72
5
7
iso_b_vert
0
MTEXT
5
138
100
AcDbEntity
8
2
62
256
6
ByLayer
370
13
48
1
60
0
100
AcDbMText
10
59.333343
20
17.51961
30
0
210
0
220
0
230
1
1
%%c
40
3.5
41
0
44
1.084337
50
90
71
7
72
5
7
iso_b_vert
0
LINE
5
139
100
AcDbEntity
8
2
62
256
6
ByLayer
370
13
48
1
60
0
100
AcDbLine
10
48.9675
20
-4.8
30
0
11
63.083343
21
-4.8
31
0
39
0
210
0
220
0
230
1
0
LINE
5
13A
100
AcDbEntity
8
2
62
256
6
ByLayer
370
13
48
1
60
0
100
AcDbLine
10
48.9675
20
4.8
30
0
11
63.083343
21
4.8
31
0
39
0
210
0
220
0
230
1
0
LINE
5
13B
100
AcDbEntity
8
2
62
256
6
ByLayer
370
13
48
1
60
0
100
AcDbLine
10
61.083343
20
-4.8
30
0
11
61.083343
21
32.514635
31
0
39
0
210
0
220
0
230
1
0
SOLID
5
13C
100
AcDbEntity
8
2
62
256
6
ByLayer
370
13
48
1
60
0
100
AcDbTrace
10
61.083343
20
-4.8
30
0
11
60.622559
21
-1.300002
31
0
12
61.544126
22
-1.299998
32
0
13
61.083343
23
-4.8
33
0
39
0
210
0
220
0
230
1
0
SOLID
5
13D
100
AcDbEntity
8
2
62
256
6
ByLayer
370
13
48
1
60
0
100
AcDbTrace
10
61.083343
20
4.8
30
0
11
61.544126
21
1.300002
31
0
12
60.622559
22
1.299998
32
0
13
61.083343
23
4.8
33
0
39
0
210
0
220
0
230
1
0
ENDBLK
5
13F
100
AcDbEntity
8
0
100
AcDbBlockEnd
0
ENDSEC
0
SECTION
2
ENTITIES
0
ARC
5
A4
100
AcDbEntity
8
1
62
256
6
ByLayer
370
18
48
1
60
0
100
AcDbCircle
39
0
10
0
20
4.2
30
0
40
0.800000000000001
210
0
220
0
230
1
100
AcDbArc
50
57.143866
51
90
0
ARC
5
A5
100
AcDbEntity
8
1
62
256
6
ByLayer
370
18
48
1
60
0
100
AcDbCircle
39
0
10
-0.86805
20
5.544057
30
0
40
0.8
210
0
220
0
230
-1
100
AcDbArc
50
269.931245
51
302.856134
0
ARC
5
A6
100
AcDbEntity
8
1
62
256
6
ByLayer
370
18
48
1
60
0
100
AcDbCircle
39
0
10
0
20
-4.2
30
0
40
0.800000000000001
210
0
220
0
230
1
100
AcDbArc
50
270
51
302.856134
0
ARC
5
A7
100
AcDbEntity
8
1
62
256
6
ByLayer
370
18
48
1
60
0
100
AcDbCircle
39
0
10
-0.86805
20
-5.544057
30
0
40
0.8
210
0
220
0
230
-1
100
AcDbArc
50
57.143866
51
90.068755
0
ELLIPSE
5
A8
100
AcDbEntity
8
1
62
256
6
ByLayer
370
18
48
1
60
0
100
AcDbEllipse
10
4.25
20
4.806476
30
0
11
-0.25
21
3.06151588455594E-17
31
0
210
0
220
0
230
1
40
0.999995
41
0.3056041483561
42
1.58236818152247
0
ELLIPSE
5
A9
100
AcDbEntity
8
1
62
256
6
ByLayer
370
18
48
1
60
0
100
AcDbEllipse
10
4.25
20
-4.806476
30
0
11
-0.25
21
3.06151588455594E-17
31
0
210
0
220
0
230
1
40
0.999995
41
-1.56429340279397
42
-0.305955027251156
0
ELLIPSE
5
AA
100
AcDbEntity
8
1
62
256
6
ByLayer
370
18
48
1
60
0
100
AcDbEllipse
10
48.876739
20
0.068332
30
0
11
0.0285995734952852
21
0.209357732980246
31
0
210
0
220
0
230
-1
40
0.581075
41
1.54599173530027
42
1.60925544267672
0
ELLIPSE
5
AB
100
AcDbEntity
8
1
62
256
6
ByLayer
370
18
48
1
60
0
100
AcDbEllipse
10
49.000892
20
-0.002097
30
0
11
1.7807201933495
21
-4.79607995213308
31
0
210
0
220
0
230
-1
40
0.131755
41
-2.90971993561573
42
-2.8404039823211
0
ELLIPSE
5
AC
100
AcDbEntity
8
1
62
256
6
ByLayer
370
18
48
1
60
0
100
AcDbEllipse
10
48.876739
20
0.068332
30
0
11
0.028599587430451
21
0.209357847317351
31
0
210
0
220
0
230
-1
40
0.581076
41
2.24592701263608
42
2.30435527603593
0
ELLIPSE
5
AD
100
AcDbEntity
8
1
62
256
6
ByLayer
370
18
48
1
60
0
100
AcDbEllipse
10
48.001679
20
-2.566502
30
0
11
0.825867629000908
21
2.22399867509292
31
0
210
0
220
0
230
-1
40
0.131695
41
0.695742456843938
42
1.3531254163769
0
ELLIPSE
5
AE
100
AcDbEntity
8
1
62
256
6
ByLayer
370
18
48
1
60
0
100
AcDbEllipse
10
47.771538
20
0.965664
30
0
11
1.14362109654386
21
-0.774315726508526
31
0
210
0
220
0
230
-1
40
0.119708
41
-0.0808742920950303
42
0.0455337975422328
0
ELLIPSE
5
AF
100
AcDbEntity
8
1
62
256
6
ByLayer
370
18
48
1
60
0
100
AcDbEllipse
10
48.001679
20
2.566502
30
0
11
0.82586762899473
21
-2.22399867508024
31
0
210
0
220
0
230
-1
40
0.131695
41
-1.35312541638074
42
-0.695742456844661
0
ELLIPSE
5
B0
100
AcDbEntity
8
1
62
256
6
ByLayer
370
18
48
1
60
0
100
AcDbEllipse
10
49.000892
20
0.002097
30
0
11
1.780720243744
21
4.79608010422698
31
0
210
0
220
0
230
-1
40
0.131755
41
2.84040398714806
42
2.90971993931823
0
ELLIPSE
5
B1
100
AcDbEntity
8
1
62
256
6
ByLayer
370
18
48
1
60
0
100
AcDbEllipse
10
49.059485
20
-0.042067
30
0
11
0.0849081719536427
21
-0.283324697916808
31
0
210
0
220
0
230
-1
40
0.107659
41
1.95972865772044
42
2.31837586553054
0
ELLIPSE
5
B2
100
AcDbEntity
8
1
62
256
6
ByLayer
370
18
48
1
60
0
100
AcDbEllipse
10
48.918909
20
0.042856
30
0
11
0.114820264157127
21
0.164145553021606
31
0
210
0
220
0
230
-1
40
0.538873
41
-2.09460254623329
42
-0.977591824930439
0
ELLIPSE
5
B3
100
AcDbEntity
8
1
62
256
6
ByLayer
370
13
48
1
60
0
100
AcDbEllipse
10
47.930285
20
0.837987
30
0
11
0.125345333750274
21
0.155847833822073
31
0
210
0
220
0
230
1
40
0.510803
41
0.887301343709799
42
2.13072015490018
0
ELLIPSE
5
B4
100
AcDbEntity
8
1
62
256
6
ByLayer
370
13
48
1
60
0
100
AcDbEllipse
10
49.449867
20
2.561107
30
0
11
2.57095931929758
21
-1.5145890439279
31
0
210
0
220
0
230
-1
40
0.800068
41
1.75128578156161
42
1.9774041751195
0
ELLIPSE
5
B5
100
AcDbEntity
8
1
62
256
6
ByLayer
370
18
48
1
60
0
100
AcDbEllipse
10
48.951329
20
0.023271
30
0
11
0.0646175079150405
21
0.194424697660972
31
0
210
0
220
0
230
-1
40
0.183583
41
1.40490984592633
42
2.04158142162676
0
ELLIPSE
5
B6
100
AcDbEntity
8
1
62
256
6
ByLayer
370
18
48
1
60
0
100
AcDbEllipse
10
49.059485
20
0.042067
30
0
11
0.0849081714888386
21
0.283324696714381
31
0
210
0
220
0
230
-1
40
0.107659
41
-2.31837586449821
42
-1.95972865548387
0
POINT
5
6C
100
AcDbEntity
8
81
62
256
6
ByLayer
370
18
48
1
60
0
100
AcDbPoint
10
49
20
0
30
0
39
0
210
0
220
0
230
1
50
360
0
POINT
5
6E
100
AcDbEntity
8
80
62
256
6
ByLayer
370
18
48
1
60
0
100
AcDbPoint
10
0
20
0
30
0
39
0
210
0
220
0
230
1
50
360
0
POINT
5
70
100
AcDbEntity
8
SK2
62
256
6
ByLayer
370
18
48
1
60
1
100
AcDbPoint
10
-40
20
-5
30
0
39
0
210
0
220
0
230
1
50
360
0
POINT
5
72
100
AcDbEntity
8
SK2
62
256
6
ByLayer
370
18
48
1
60
1
100
AcDbPoint
10
-40
20
5
30
0
39
0
210
0
220
0
230
1
50
360
0
POINT
5
73
100
AcDbEntity
8
2
62
256
6
ByLayer
370
18
48
1
60
1
100
AcDbPoint
10
47.38
20
-4.8
30
0
39
0
210
0
220
0
230
1
50
360
0
POINT
5
75
100
AcDbEntity
8
2
62
256
6
ByLayer
370
18
48
1
60
1
100
AcDbPoint
10
47.38
20
4.8
30
0
39
0
210
0
220
0
230
1
50
360
0
SPLINE
5
B7
100
AcDbEntity
8
1
62
256
6
ByLayer
370
18
48
1
60
0
100
AcDbSpline
70
4
71
1
72
4
73
2
40
0
40
0
40
1
40
1
41
1
10
33.4540450820127
20
0.0005188745296607
30
0
41
1
10
33.4540292021088
20
0.0005281048094332
30
0
0
SPLINE
5
B8
100
AcDbEntity
8
1
62
256
6
ByLayer
370
18
48
1
60
0
100
AcDbSpline
70
4
71
3
72
25
73
21
40
0
40
0
40
0
40
0
40
0.0004761558744393
40
0.0008441219061183
40
0.0015034866426148
40
0.0026883396457997
40
0.0113151951628259
40
0.0681826042511938
40
0.105595001447534
40
0.154203250298641
40
0.300901340194918
40
0.420538205197871
40
0.550578351921777
40
0.603323894426332
40
0.651101873960689
40
0.703365426352197
40
0.756573121058842
40
0.812809309723067
40
0.898311210100117
40
1
40
1
40
1
40
1
41
1
10
33.3784608157963
20
-1.12878969485988
30
0
41
1
10
33.3782761019673
20
-1.12879235342177
30
0
41
1
10
33.3787193440031
20
-1.12887717474754
30
0
41
1
10
33.3789503572288
20
-1.1289684921334
30
0
41
1
10
33.3795136003506
20
-1.12912467606935
30
0
41
1
10
33.3821059348306
20
-1.12984232236795
30
0
41
1
10
33.4071583136213
20
-1.13483979670795
30
0
41
1
10
33.5036801032276
20
-1.14575746171792
30
0
41
1
10
33.6770699893803
20
-1.1700261889217
30
0
41
1
10
33.9551743800404
20
-1.21498963069016
30
0
41
1
10
34.3007709590927
20
-1.28690556115112
30
0
41
1
10
34.8590280691777
20
-1.43963130970067
30
0
41
1
10
35.2292534856742
20
-1.56124668858124
30
0
41
1
10
35.5329877823615
20
-1.67422338493472
30
0
41
1
10
35.7406414783896
20
-1.75565570737416
30
0
41
1
10
35.9576717870452
20
-1.84502046671696
30
0
41
1
10
36.1892895823401
20
-1.94505891167819
30
0
41
1
10
36.4723750497278
20
-2.07279214218571
30
0
41
1
10
36.8262827957992
20
-2.23974957849723
30
0
41
1
10
37.098832147977
20
-2.37731884912535
30
0
41
1
10
37.2470117193968
20
-2.45461241865811
30
0
0
SPLINE
5
B9
100
AcDbEntity
8
1
62
256
6
ByLayer
370
18
48
1
60
0
100
AcDbSpline
70
4
71
2
72
6
73
3
40
0
40
0
40
0
40
1
40
1
40
1
41
1
10
4.25059939850445
20
-4.55631438868474
30
0
41
1
10
4.99789496343499
20
-4.55825973101324
30
0
41
1
10
5.74518877273198
20
-4.55858454856599
30
0
0
SPLINE
5
BA
100
AcDbEntity
8
1
62
256
6
ByLayer
370
18
48
1
60
0
100
AcDbSpline
70
4
71
2
72
6
73
3
40
0
40
0
40
0
40
1
40
1
40
1
41
1
10
46.1579693145901
20
-4.60655610113295
30
0
41
1
10
46.7432284637516
20
-4.605758372124
30
0
41
1
10
47.3285852738611
20
-4.60894618166296
30
0
0
SPLINE
5
BB
100
AcDbEntity
8
1
62
256
6
ByLayer
370
18
48
1
60
0
100
AcDbSpline
70
4
71
3
72
24
73
20
40
0
40
0
40
0
40
0
40
0.0807144281664664
40
0.134188401880792
40
0.167556875551249
40
0.205013995480571
40
0.273155064057543
40
0.337343353316744
40
0.404704128375586
40
0.463293652305504
40
0.530944781284397
40
0.604366649427144
40
0.679100340273118
40
0.736865851244778
40
0.798177062899512
40
0.8524023432365
40
0.910042810623325
40
0.979123869026432
40
1
40
1
40
1
40
1
41
1
10
21.1010158126715
20
-4.57630827075005
30
0
41
1
10
21.355441832098
20
-4.57677891865981
30
0
41
1
10
21.7783379423757
20
-4.57740706767376
30
0
41
1
10
22.3062642675709
20
-4.57795618981052
30
0
41
1
10
22.6977440585832
20
-4.57810723440392
30
0
41
1
10
23.1358315040345
20
-4.57828481876024
30
0
41
1
10
23.6705006623226
20
-4.57903482133412
30
0
41
1
10
24.2998918906327
20
-4.58124766517815
30
0
41
1
10
24.899108919955
20
-4.58119699378292
30
0
41
1
10
25.5092630123704
20
-4.58127378328467
30
0
41
1
10
26.1385179606849
20
-4.58126694124385
30
0
41
1
10
26.8186263683677
20
-4.58518028951912
30
0
41
1
10
27.4675974353835
20
-4.58349484105025
30
0
41
1
10
28.0783726105992
20
-4.58338865278051
30
0
41
1
10
28.6244123980299
20
-4.58314587566935
30
0
41
1
10
29.170606472474
20
-4.58648193520318
30
0
41
1
10
29.738300624883
20
-4.58648100548024
30
0
41
1
10
30.2046499318514
20
-4.58672881744957
30
0
41
1
10
30.4872190414277
20
-4.58697769334046
30
0
41
1
10
30.5527767983309
20
-4.58704094557172
30
0
0
SPLINE
5
BC
100
AcDbEntity
8
1
62
256
6
ByLayer
370
18
48
1
60
0
100
AcDbSpline
70
4
71
3
72
23
73
19
40
0
40
0
40
0
40
0
40
0.0115686446814011
40
0.0912872812503654
40
0.155780256376617
40
0.216289529539669
40
0.273552040824601
40
0.325372483984118
40
0.380736086902688
40
0.447686059846881
40
0.525215439554803
40
0.597847701996564
40
0.680390472312624
40
0.751514243117846
40
0.831804732270263
40
0.923823817131398
40
0.976097677028722
40
1
40
1
40
1
40
1
41
1
10
30.5577362422039
20
4.58708867551059
30
0
41
1
10
30.5292071685796
20
4.58706583092896
30
0
41
1
10
30.3040491058657
20
4.58689683508027
30
0
41
1
10
29.9169520636349
20
4.58617452051371
30
0
41
1
10
29.41282255717
20
4.58693264718187
30
0
41
1
10
28.9618891798949
20
4.58496792942279
30
0
41
1
10
28.5420282093539
20
4.58337960774602
30
0
41
1
10
28.1349622397628
20
4.58333787580136
30
0
41
1
10
27.7039822739475
20
4.58347007211702
30
0
41
1
10
27.2092448432696
20
4.5839933786196
30
0
41
1
10
26.6718402689528
20
4.58453114941901
30
0
41
1
10
26.0957946320443
20
4.58122285768647
30
0
41
1
10
25.5356022539341
20
4.58128585487168
30
0
41
1
10
24.9564457208278
20
4.58120899854188
30
0
41
1
10
24.3538590660918
20
4.58124175495786
30
0
41
1
10
23.7978543670723
20
4.57952649295672
30
0
41
1
10
23.3817129508319
20
4.57856632310887
30
0
41
1
10
23.1932249381102
20
4.5783845322531
30
0
41
1
10
23.134075651698
20
4.57834058388858
30
0
0
SPLINE
5
BD
100
AcDbEntity
8
1
62
256
6
ByLayer
370
18
48
1
60
0
100
AcDbSpline
70
4
71
2
72
6
73
3
40
0
40
0
40
0
40
1
40
1
40
1
41
1
10
5.7477779566396
20
4.55858690583418
30
0
41
1
10
4.99918955690976
20
4.55826231332324
30
0
41
1
10
4.25059939850442
20
4.55631438868463
30
0
0
SPLINE
5
BE
100
AcDbEntity
8
1
62
256
6
ByLayer
370
18
48
1
60
0
100
AcDbSpline
70
4
71
3
72
15
73
11
40
0
40
0
40
0
40
0
40
0.112593869608716
40
0.327600928666989
40
0.482360157516295
40
0.613893851811372
40
0.678213300452593
40
0.765565055076774
40
0.893878093904538
40
1
40
1
40
1
40
1
41
1
10
18.391698641824
20
-0.208964686244002
30
0
41
1
10
18.3879088309423
20
-0.207371444139994
30
0
41
1
10
18.3532121164559
20
-0.194802679262438
30
0
41
1
10
18.3489321344698
20
-0.192083107807662
30
0
41
1
10
18.3056233320505
20
-0.172712510787449
30
0
41
1
10
18.1914436747542
20
-0.115986823320071
30
0
41
1
10
18.1079620418089
20
-0.0727906501985842
30
0
41
1
10
18.0040297384121
20
-0.0179303566778231
30
0
41
1
10
17.8702560239609
20
0.0556866333846813
30
0
41
1
10
17.7657090574757
20
0.115531821389197
30
0
41
1
10
17.7166228856676
20
0.144051178913827
30
0
0
SPLINE
5
BF
100
AcDbEntity
8
1
62
256
6
ByLayer
370
18
48
1
60
0
100
AcDbSpline
70
4
71
3
72
16
73
12
40
0
40
0
40
0
40
0
40
0.0393128744408491
40
0.181022262577241
40
0.306992403971142
40
0.40950099291835
40
0.616451956604882
40
0.67572588250343
40
0.767389422826501
40
0.889918040607569
40
1
40
1
40
1
40
1
41
1
10
43.4169505169859
20
-0.218392457973749
30
0
41
1
10
43.4164740012288
20
-0.218300540474189
30
0
41
1
10
43.4109852192872
20
-0.216870696638011
30
0
41
1
10
43.3954470746854
20
-0.212726468262616
30
0
41
1
10
43.3607711553205
20
-0.196560216047629
30
0
41
1
10
43.2786049684523
20
-0.159404715993389
30
0
41
1
10
43.1974061870728
20
-0.120106591405232
30
0
41
1
10
43.0868887265126
20
-0.0623983184532051
30
0
41
1
10
42.9824834893993
20
-0.0064491417542172
30
0
41
1
10
42.8475283771018
20
0.0686764519817586
30
0
41
1
10
42.743617098968
20
0.128311377533237
30
0
41
1
10
42.6927280932052
20
0.15790473128115
30
0
0
SPLINE
5
C0
100
AcDbEntity
8
1
62
256
6
ByLayer
370
18
48
1
60
0
100
AcDbSpline
70
4
71
3
72
20
73
16
40
0
40
0
40
0
40
0
40
0.249999999999997
40
0.249999999999997
40
0.499999999999993
40
0.499999999999993
40
0.624999999999991
40
0.624999999999991
40
0.74999999999999
40
0.74999999999999
40
0.874999999999988
40
0.874999999999988
40
0.937499999999994
40
0.937499999999994
40
1
40
1
40
1
40
1
41
1
10
47.3795049267538
20
1.51496086509664
30
0
41
1
10
47.4906323380576
20
1.53845150389463
30
0
41
1
10
47.6003261957943
20
1.56559152410631
30
0
41
1
10
47.8149990066632
20
1.63154764535153
30
0
41
1
10
47.9200963449208
20
1.67012986030571
30
0
41
1
10
48.0716198087872
20
1.74415302171388
30
0
41
1
10
48.1207302423642
20
1.77144071805469
30
0
41
1
10
48.2138901819758
20
1.8329166209362
30
0
41
1
10
48.2585086605018
20
1.86757309260912
30
0
41
1
10
48.3381258248814
20
1.94514129551771
30
0
41
1
10
48.3731242202168
20
1.98793666995718
30
0
41
1
10
48.4162116311211
20
2.0602289466519
30
0
41
1
10
48.4290434786882
20
2.08588569803553
30
0
41
1
10
48.4504328540898
20
2.13816410741728
30
0
41
1
10
48.4591378433568
20
2.16497004399849
30
0
41
1
10
48.4660072654306
20
2.1924116848395
30
0
0
SPLINE
5
C1
100
AcDbEntity
8
1
62
256
6
ByLayer
370
18
48
1
60
0
100
AcDbSpline
70
4
71
3
72
20
73
16
40
0
40
0
40
0
40
0
40
0.062500000000002
40
0.062500000000002
40
0.125000000000004
40
0.125000000000004
40
0.250000000000003
40
0.250000000000003
40
0.375000000000002
40
0.375000000000002
40
0.500000000000002
40
0.500000000000002
40
0.750000000000001
40
0.750000000000001
40
1
40
1
40
1
40
1
41
1
10
44.3051563966487
20
-0.7712873484559
30
0
41
1
10
44.3349726397514
20
-0.846366920658625
30
0
41
1
10
44.3666943349768
20
-0.920956885197967
30
0
41
1
10
44.432798378966
20
-1.06698413108995
30
0
41
1
10
44.467251089192
20
-1.13862504594172
30
0
41
1
10
44.5745044483114
20
-1.34973037310891
30
0
41
1
10
44.6511849680113
20
-1.4853924188869
30
0
41
1
10
44.8137082956633
20
-1.7477372479899
30
0
41
1
10
44.8995588997978
20
-1.874412390869
30
0
41
1
10
45.0796897401563
20
-2.1195014348028
30
0
41
1
10
45.1740391307783
20
-2.23788770183029
30
0
41
1
10
45.4633715151105
20
-2.57529396323946
30
0
41
1
10
45.6663545688377
20
-2.77916146318918
30
0
41
1
10
46.0884978940825
20
-3.15313113966229
30
0
41
1
10
46.3080665314036
20
-3.32349825024099
30
0
41
1
10
46.5339784531861
20
-3.47819488740615
30
0
0
SPLINE
5
C2
100
AcDbEntity
8
1
62
256
6
ByLayer
370
18
48
1
60
0
100
AcDbSpline
70
4
71
3
72
16
73
12
40
0
40
0
40
0
40
0
40
0.24999999999998
40
0.24999999999998
40
0.499999999999961
40
0.499999999999961
40
0.749999999999941
40
0.749999999999941
40
0.874999999999971
40
0.874999999999971
40
1
40
1
40
1
40
1
41
1
10
47.3200867568652
20
1.27088500325814
30
0
41
1
10
47.3136591001407
20
1.29353914736382
30
0
41
1
10
47.3086637241609
20
1.31638789894765
30
0
41
1
10
47.3026272068943
20
1.3626108079682
30
0
41
1
10
47.3015153391715
20
1.38626233158146
30
0
41
1
10
47.3062180314187
20
1.43295296610717
30
0
41
1
10
47.3119395752193
20
1.45614839223808
30
0
41
1
10
47.3306311520452
20
1.48587668290401
30
0
41
1
10
47.3385126795017
20
1.49459997172252
30
0
41
1
10
47.3573249595497
20
1.5079999613487
30
0
41
1
10
47.3680980224999
20
1.51254961962135
30
0
41
1
10
47.3795049267559
20
1.51496086509707
30
0
0
SPLINE
5
C3
100
AcDbEntity
8
1
62
256
6
ByLayer
370
13
48
1
60
0
100
AcDbSpline
70
4
71
3
72
24
73
20
40
0
40
0
40
0
40
0
40
0.15389553977557
40
0.15389553977557
40
0.307791079551141
40
0.307791079551141
40
0.461686619326711
40
0.461686619326711
40
0.538634389214496
40
0.538634389214496
40
0.615582159102281
40
0.615582159102281
40
0.769477698877851
40
0.769477698877851
40
0.846425468765636
40
0.846425468765636
40
0.923373238653421
40
0.923373238653421
40
1
40
1
40
1
40
1
41
1
10
4.25044586198939
20
2.3940700688876
30
0
41
1
10
4.25047152569368
20
2.59833168103157
30
0
41
1
10
4.25048988499398
20
2.79083734822001
30
0
41
1
10
4.25051679841218
20
3.15273622945219
30
0
41
1
10
4.25052532477466
20
3.32265473635618
30
0
41
1
10
4.25053689329209
20
3.62970494744201
30
0
41
1
10
4.25054004903862
20
3.76815554053633
30
0
41
1
10
4.25054429699048
20
3.95327831053723
30
0
41
1
10
4.25054562667927
20
4.01121026254364
30
0
41
1
10
4.25054864678768
20
4.11932088026396
30
0
41
1
10
4.25055033623181
20
4.16927203088358
30
0
41
1
10
4.25055657882535
20
4.30497183921182
30
0
41
1
10
4.25056235579922
20
4.37753366854963
30
0
41
1
10
4.2505756269797
20
4.45989120911949
30
0
41
1
10
4.25058081107585
20
4.48290947237695
30
0
41
1
10
4.25059298910671
20
4.51989306667386
30
0
41
1
10
4.25060000970441
20
4.53386462513993
30
0
41
1
10
4.25061586318063
20
4.5522086045703
30
0
41
1
10
4.25062469616381
20
4.55668621751616
30
0
41
1
10
4.25063448706035
20
4.55649628198665
30
0
0
SPLINE
5
C4
100
AcDbEntity
8
1
62
256
6
ByLayer
370
18
48
1
60
0
100
AcDbSpline
70
4
71
3
72
16
73
12
40
0
40
0
40
0
40
0
40
0.14419592993106
40
0.14419592993106
40
0.429179612890334
40
0.429179612890334
40
0.571671454369972
40
0.571671454369972
40
0.71416329584961
40
0.71416329584961
40
1
40
1
40
1
40
1
41
1
10
21.1428079213095
20
-4.57636362668342
30
0
41
1
10
20.9163541952918
20
-4.57593902829555
30
0
41
1
10
20.6899285236423
20
-4.56995985981564
30
0
41
1
10
20.0155025496516
20
-4.5356631200226
30
0
41
1
10
19.566881484538
20
-4.49115153893251
30
0
41
1
10
18.8904600538688
20
-4.39192565377269
30
0
41
1
10
18.664386461978
20
-4.3534226874192
30
0
41
1
10
18.210763630022
20
-4.26568742103476
30
0
41
1
10
17.984424749164
20
-4.21665543191071
30
0
41
1
10
17.3063013527993
20
-4.05474916308501
30
0
41
1
10
16.8560820471407
20
-3.92711769236976
30
0
41
1
10
16.4066569633119
20
-3.78168307792862
30
0
0
SPLINE
5
C5
100
AcDbEntity
8
1
62
256
6
ByLayer
370
13
48
1
60
0
100
AcDbSpline
70
4
71
3
72
20
73
16
40
0
40
0
40
0
40
0
40
0.110815385272635
40
0.110815385272635
40
0.221963462113555
40
0.221963462113555
40
0.333111538954475
40
0.333111538954475
40
0.555407692636316
40
0.555407692636316
40
0.666555769477237
40
0.666555769477237
40
0.777703846318158
40
0.777703846318158
40
1
40
1
40
1
40
1
41
1
10
16.4066569631623
20
-3.78168307788022
30
0
41
1
10
15.9599143138978
20
-3.63711650318334
30
0
41
1
10
15.5139564339857
20
-3.47495866991119
30
0
41
1
10
14.6192854984065
20
-3.11842928604818
30
0
41
1
10
14.1704439744568
20
-2.92402281944445
30
0
41
1
10
13.2679657939488
20
-2.50696068179511
30
0
41
1
10
12.8127968273627
20
-2.28336038363599
30
0
41
1
10
11.4592258319012
20
-1.58856789517608
30
0
41
1
10
10.5656871346267
20
-1.09155199097071
30
0
41
1
10
9.2211913642893
20
-0.32586859584876
30
0
41
1
10
8.77206354297959
20
-0.0677181065961179
30
0
41
1
10
7.86875500419993
20
0.44901309127772
30
0
41
1
10
7.41361625981986
20
0.708511164167106
30
0
41
1
10
6.05692565012873
20
1.4684692856317
30
0
41
1
10
5.15761734750296
20
1.95318388906972
30
0
41
1
10
4.25044586198945
20
2.39407006888757
30
0
0
SPLINE
5
C6
100
AcDbEntity
8
1
62
256
6
ByLayer
370
13
48
1
60
0
100
AcDbSpline
70
4
71
3
72
8
73
4
40
0
40
0
40
0
40
0
40
1
40
1
40
1
40
1
41
1
10
47.9477163906889
20
0.986050341249495
30
0
41
1
10
47.7450577625887
20
1.13671707833231
30
0
41
1
10
47.5516066806201
20
1.31270433926778
30
0
41
1
10
47.3795049267513
20
1.51496086510744
30
0
0
SPLINE
5
C7
100
AcDbEntity
8
1
62
256
6
ByLayer
370
18
48
1
60
0
100
AcDbSpline
70
4
71
3
72
38
73
34
40
0
40
0
40
0
40
0
40
0.0090293320997939
40
0.0090293320997939
40
0.0750940432931411
40
0.0750940432931411
40
0.141158754486488
40
0.141158754486488
40
0.207223465679835
40
0.207223465679835
40
0.273288176873183
40
0.273288176873183
40
0.33935288806653
40
0.33935288806653
40
0.405417599259877
40
0.405417599259877
40
0.471482310453224
40
0.471482310453224
40
0.537547021646571
40
0.537547021646571
40
0.603611732839918
40
0.603611732839918
40
0.669676444033265
40
0.669676444033265
40
0.735741155226612
40
0.735741155226612
40
0.801805866419959
40
0.801805866419959
40
0.867870577613306
40
0.867870577613306
40
0.933935288806653
40
0.933935288806653
40
1
40
1
40
1
40
1
41
1
10
48.3451631831084
20
-1.58370425100853
30
0
41
1
10
48.3420842716146
20
-1.58358753346883
30
0
41
1
10
48.3389750130959
20
-1.58357076918179
30
0
41
1
10
48.3128769692867
20
-1.58424057926183
30
0
41
1
10
48.2881033529444
20
-1.59011080386301
30
0
41
1
10
48.2363187243205
20
-1.61137738042993
30
0
41
1
10
48.2095616118027
20
-1.62660426908485
30
0
41
1
10
48.1544207478397
20
-1.66569836171021
30
0
41
1
10
48.1257953212009
20
-1.68983172704884
30
0
41
1
10
48.0684933307086
20
-1.74562005852314
30
0
41
1
10
48.0397304415353
20
-1.77726764191749
30
0
41
1
10
47.981968095388
20
-1.84849833999718
30
0
41
1
10
47.9526545633622
20
-1.88856510335711
30
0
41
1
10
47.895578441867
20
-1.97547613251268
30
0
41
1
10
47.8678364715498
20
-2.02215709169408
30
0
41
1
10
47.8142564006382
20
-2.12323273966632
30
0
41
1
10
47.788752592256
20
-2.17713764980533
30
0
41
1
10
47.7429788306527
20
-2.28848179855388
30
0
41
1
10
47.7223629151907
20
-2.34696213964713
30
0
41
1
10
47.6896879135879
20
-2.46145947677522
30
0
41
1
10
47.6773062179772
20
-2.51880717709551
30
0
41
1
10
47.6630696889086
20
-2.62361890146749
30
0
41
1
10
47.661014442135
20
-2.6724953469884
30
0
41
1
10
47.6666647299075
20
-2.75576703277426
30
0
41
1
10
47.6743384697722
20
-2.79114023844912
30
0
41
1
10
47.6969835705458
20
-2.84714876278795
30
0
41
1
10
47.7121339236423
20
-2.8683682292147
30
0
41
1
10
47.7471781387789
20
-2.89758395016619
30
0
41
1
10
47.7673739869621
20
-2.90599678583661
30
0
41
1
10
47.8116144641164
20
-2.91160461083948
30
0
41
1
10
47.8352574016049
20
-2.90883113866809
30
0
41
1
10
47.8851933154443
20
-2.89357755702486
30
0
41
1
10
47.9117259489837
20
-2.88091822674599
30
0
41
1
10
47.9389690155792
20
-2.86379443213079
30
0
0
SPLINE
5
C8
100
AcDbEntity
8
1
62
256
6
ByLayer
370
18
48
1
60
0
100
AcDbSpline
70
4
71
3
72
8
73
4
40
0
40
0
40
0
40
0
40
1
40
1
40
1
40
1
41
1
10
47.3048687983737
20
-4.60597046057026
30
0
41
1
10
47.3112889013652
20
-4.60724025695546
30
0
41
1
10
47.3179451186765
20
-4.60782317293348
30
0
41
1
10
47.3248360964949
20
-4.60772314688276
30
0
0
SPLINE
5
C9
100
AcDbEntity
8
1
62
256
6
ByLayer
370
18
48
1
60
0
100
AcDbSpline
70
4
71
3
72
8
73
4
40
0
40
0
40
0
40
0
40
1
40
1
40
1
40
1
41
1
10
47.3858480175584
20
-4.59201415543444
30
0
41
1
10
47.4081914164808
20
-4.5816956321263
30
0
41
1
10
47.432271552192
20
-4.566324766067
30
0
41
1
10
47.4580605340386
20
-4.54598269398392
30
0
0
SPLINE
5
CA
100
AcDbEntity
8
1
62
256
6
ByLayer
370
18
48
1
60
0
100
AcDbSpline
70
4
71
3
72
8
73
4
40
0
40
0
40
0
40
0
40
1
40
1
40
1
40
1
41
1
10
4.1219264432053
20
2.45927547232287
30
0
41
1
10
4.07560741489641
20
2.48288143541305
30
0
41
1
10
4.0394799830826
20
2.51861817643007
30
0
41
1
10
4.018978669615
20
2.56036301396208
30
0
0
SPLINE
5
CB
100
AcDbEntity
8
1
62
256
6
ByLayer
370
18
48
1
60
0
100
AcDbSpline
70
4
71
3
72
16
73
12
40
0
40
0
40
0
40
0
40
0.20817092631426
40
0.20817092631426
40
0.416341852628521
40
0.416341852628521
40
0.624512778942781
40
0.624512778942781
40
0.832683705257041
40
0.832683705257041
40
1
40
1
40
1
40
1
41
1
10
18.0634978337029
20
4.55350712581264
30
0
41
1
10
17.6768096572489
20
4.48449616895832
30
0
41
1
10
17.2855183577581
20
4.4025333142414
30
0
41
1
10
16.4941501776726
20
4.21963108173239
30
0
41
1
10
16.0940499713577
20
4.11863958099747
30
0
41
1
10
15.2845648097269
20
3.90329702175524
30
0
41
1
10
14.8749338320939
20
3.78884563355373
30
0
41
1
10
14.053500197563
20
3.55440341063653
30
0
41
1
10
13.6406879707602
20
3.43415044344624
30
0
41
1
10
12.8913871551628
20
3.21669966365275
30
0
41
1
10
12.5558049307941
20
3.11963865778239
30
0
41
1
10
12.2183133325554
20
3.02371225095541
30
0
0
SPLINE
5
CC
100
AcDbEntity
8
1
62
256
6
ByLayer
370
18
48
1
60
0
100
AcDbSpline
70
4
71
3
72
22
73
18
40
0
40
0
40
0
40
0
40
0.125
40
0.125
40
0.25
40
0.25
40
0.375
40
0.375
40
0.5
40
0.5
40
0.625
40
0.625
40
0.75
40
0.75
40
0.875
40
0.875
40
1
40
1
40
1
40
1
41
1
10
47.4877912799238
20
4.6476864265081
30
0
41
1
10
47.5292795328976
20
4.55440299509345
30
0
41
1
10
47.5708102792304
20
4.45986450702395
30
0
41
1
10
47.654003421418
20
4.26689921486556
30
0
41
1
10
47.695655148141
20
4.16878752741883
30
0
41
1
10
47.7790433342409
20
3.97006154309949
30
0
41
1
10
47.82078927303
20
3.8697366287617
30
0
41
1
10
47.9037103965572
20
3.66684536919516
30
0
41
1
10
47.9449600227482
20
3.56423166509478
30
0
41
1
10
48.0271649405116
20
3.35737435301229
30
0
41
1
10
48.0681785834312
20
3.25337309885481
30
0
41
1
10
48.1497733667012
20
3.04330377580124
30
0
41
1
10
48.1901600998991
20
2.93782826705492
30
0
41
1
10
48.2701513626624
20
2.72603754370178
30
0
41
1
10
48.3096955146546
20
2.61965751297799
30
0
41
1
10
48.3885749778145
20
2.40667325816568
30
0
41
1
10
48.4276244352774
20
2.29947524248777
30
0
41
1
10
48.4660072654307
20
2.1924116848395
30
0
0
SPLINE
5
CD
100
AcDbEntity
8
1
62
256
6
ByLayer
370
13
48
1
60
0
100
AcDbSpline
70
4
71
3
72
10
73
6
40
0
40
0
40
0
40
0
40
0.870577253834006
40
0.870577253834006
40
1
40
1
40
1
40
1
41
1
10
4.00693251418971
20
2.61035643486193
30
0
41
1
10
4.0145172730526
20
2.57787762561529
30
0
41
1
10
4.02792423030746
20
2.54748240092502
30
0
41
1
10
4.050432086288
20
2.51559963807401
30
0
41
1
10
4.05347319066368
20
2.51154981810097
30
0
41
1
10
4.05664136638518
20
2.50758404517396
30
0
0
SPLINE
5
CE
100
AcDbEntity
8
1
62
256
6
ByLayer
370
18
48
1
60
0
100
AcDbSpline
70
4
71
3
72
26
73
22
40
0
40
0
40
0
40
0
40
0.0714927026056119
40
0.0714927026056119
40
0.127128803729776
40
0.127128803729776
40
0.182764904853941
40
0.182764904853941
40
0.29403710710227
40
0.29403710710227
40
0.51658151159893
40
0.51658151159893
40
0.572217612723094
40
0.572217612723094
40
0.627853713847257
40
0.627853713847257
40
0.739125916095588
40
0.739125916095588
40
0.961670320592247
40
0.961670320592247
40
1
40
1
40
1
40
1
41
1
10
27.6840869626519
20
3.10665853201752
30
0
41
1
10
27.9743578140431
20
2.979056065311
30
0
41
1
10
28.2647637078556
20
2.8451377626705
30
0
41
1
10
28.7821691132538
20
2.59669358614403
30
0
41
1
10
29.0094404041226
20
2.48433399910127
30
0
41
1
10
29.4623602246923
20
2.25457394773008
30
0
41
1
10
29.6880575120306
20
2.13715963632615
30
0
41
1
10
30.3635406595845
20
1.7784238580027
30
0
41
1
10
30.811710000153
20
1.53062369297331
30
0
41
1
10
32.1547821262076
20
0.769820231175231
30
0
41
1
10
33.0480562095482
20
0.239051373647016
30
0
41
1
10
34.1784929075437
20
-0.4261627946685
30
0
41
1
10
34.405801876875
20
-0.559516363289021
30
0
41
1
10
34.8582488460197
20
-0.823469823283773
30
0
41
1
10
35.0837020683731
20
-0.954232432488681
30
0
41
1
10
35.7585214407916
20
-1.341632481337
30
0
41
1
10
36.2062913593401
20
-1.59351259588675
30
0
41
1
10
37.5480666173905
20
-2.3225137147555
30
0
41
1
10
38.4405110054905
20
-2.77302686581316
30
0
41
1
10
39.4996073781724
20
-3.23558084876422
30
0
41
1
10
39.6558143061476
20
-3.30198075233474
30
0
41
1
10
39.8119271091479
20
-3.36640935437413
30
0
0
SPLINE
5
CF
100
AcDbEntity
8
1
62
256
6
ByLayer
370
13
48
1
60
0
100
AcDbSpline
70
4
71
3
72
20
73
16
40
0
40
0
40
0
40
0
40
0.0275009129167038
40
0.0275009129167038
40
0.11590992083337
40
0.11590992083337
40
0.292727936666698
40
0.292727936666698
40
0.646363968333352
40
0.646363968333352
40
0.734772976250015
40
0.734772976250015
40
0.823181984166678
40
0.823181984166678
40
1
40
1
40
1
40
1
41
1
10
39.8119271094927
20
-3.36640935451643
30
0
41
1
10
39.8824143674451
20
-3.39549982886561
30
0
41
1
10
39.9528824365423
20
-3.42418842242344
30
0
41
1
10
40.2495402095041
20
-3.54325158153455
30
0
41
1
10
40.4750437909095
20
-3.6295820605441
30
0
41
1
10
41.1498701995537
20
-3.87463742616916
30
0
41
1
10
41.5974891079183
20
-4.01952402336463
30
0
41
1
10
42.9387415341013
20
-4.39486780302201
30
0
41
1
10
43.830720382743
20
-4.56609578779523
30
0
41
1
10
44.9591025868167
20
-4.66941477354973
30
0
41
1
10
45.1858660142823
20
-4.68454546607555
30
0
41
1
10
45.6390351282835
20
-4.70336053929515
30
0
41
1
10
45.8652905617761
20
-4.70706060831935
30
0
41
1
10
46.5436608576433
20
-4.70103718278497
30
0
41
1
10
46.9954114178475
20
-4.67384553992608
30
0
41
1
10
47.4481360846305
20
-4.62458042409909
30
0
0
SPLINE
5
D0
100
AcDbEntity
8
1
62
256
6
ByLayer
370
13
48
1
60
0
100
AcDbSpline
70
4
71
3
72
12
73
8
40
0
40
0
40
0
40
0
40
0.0016653533555543
40
0.0016653533555543
40
0.334443568903703
40
0.334443568903703
40
1
40
1
40
1
40
1
41
1
10
4.25063446118091
20
-4.5564967732254
30
0
41
1
10
4.25063451450268
20
-4.55649577454949
30
0
41
1
10
4.25063456197656
20
-4.55649477557671
30
0
41
1
10
4.25064445013354
20
-4.5562636471744
30
0
41
1
10
4.25065529339821
20
-4.55128732336954
30
0
41
1
10
4.25069039137793
20
-4.52233534754427
30
0
41
1
10
4.25071723361668
20
-4.48456056370526
30
0
41
1
10
4.25074681033877
20
-4.42863584497346
30
0
0
SPLINE
5
D1
100
AcDbEntity
8
1
62
256
6
ByLayer
370
18
48
1
60
0
100
AcDbSpline
70
4
71
3
72
10
73
6
40
0
40
0
40
0
40
0
40
0.369176766421617
40
0.369176766421617
40
1
40
1
40
1
40
1
41
1
10
4.00698377336749
20
-4.74782286589328
30
0
41
1
10
4.00698674786295
20
-4.74753965798285
30
0
41
1
10
4.0069900759346
20
-4.74079694438885
30
0
41
1
10
4.007000080929
20
-4.70463764552031
30
0
41
1
10
4.00700731036682
20
-4.66312581096119
30
0
41
1
10
4.00701527185413
20
-4.60364887222511
30
0
0
SPLINE
5
D2
100
AcDbEntity
8
1
62
256
6
ByLayer
370
18
48
1
60
0
100
AcDbSpline
70
4
71
3
72
18
73
14
40
0
40
0
40
0
40
0
40
0.261660239083553
40
0.261660239083553
40
0.39249035862533
40
0.39249035862533
40
0.523320478167106
40
0.523320478167106
40
0.784980717250658
40
0.784980717250658
40
0.915810836792434
40
0.915810836792434
40
1
40
1
40
1
40
1
41
1
10
4.19979248295127
20
2.37231041832982
30
0
41
1
10
5.10829843101041
20
1.91598066769814
30
0
41
1
10
6.00857301259333
20
1.41659270863559
30
0
41
1
10
7.36677771124641
20
0.636175813697463
30
0
41
1
10
7.82246570672356
20
0.370074545438911
30
0
41
1
10
8.72665418138533
20
-0.158705709003243
30
0
41
1
10
9.1761607448824
20
-0.422368877282565
30
0
41
1
10
10.5216579601879
20
-1.20317912017606
30
0
41
1
10
11.4157614615403
20
-1.70828127866275
30
0
41
1
10
12.7707581074911
20
-2.4117675543651
30
0
41
1
10
13.226488015872
20
-2.63773028089688
30
0
41
1
10
13.9687741031735
20
-2.98302190865641
30
0
41
1
10
14.2583892131425
20
-3.11208198728301
30
0
41
1
10
14.5474142373607
20
-3.23454707862013
30
0
0
SPLINE
5
D3
100
AcDbEntity
8
1
62
256
6
ByLayer
370
13
48
1
60
0
100
AcDbSpline
70
4
71
3
72
18
73
14
40
0
40
0
40
0
40
0
40
0.0603776872517197
40
0.0603776872517197
40
0.399101902620733
40
0.399101902620733
40
0.483782956462986
40
0.483782956462986
40
0.568464010305239
40
0.568464010305239
40
0.737826117989745
40
0.737826117989745
40
1
40
1
40
1
40
1
41
1
10
14.5474136674606
20
-3.23454683714323
30
0
41
1
10
14.7075342702766
20
-3.30239281566139
30
0
41
1
10
14.8674737645757
20
-3.36821466847022
30
0
41
1
10
15.923975677987
20
-3.78940772414813
30
0
41
1
10
16.8177371711196
20
-4.08046248317413
30
0
41
1
10
17.9469284381241
20
-4.34370920067167
30
0
41
1
10
18.1735947485738
20
-4.39138028843533
30
0
41
1
10
18.6276637631738
20
-4.47602049597731
30
0
41
1
10
18.8539480290063
20
-4.51279870335031
30
0
41
1
10
19.530968033965
20
-4.606417876216
30
0
41
1
10
19.9799240411384
20
-4.64662102827796
30
0
41
1
10
21.1218157414752
20
-4.69228289904802
30
0
41
1
10
21.8139711941994
20
-4.66688877140408
30
0
41
1
10
22.5103648882711
20
-4.5882021715087
30
0
0
SPLINE
5
D4
100
AcDbEntity
8
1
62
256
6
ByLayer
370
18
48
1
60
0
100
AcDbSpline
70
4
71
3
72
8
73
4
40
0
40
0
40
0
40
0
40
1
40
1
40
1
40
1
41
1
10
4.01897866961514
20
2.56036301396219
30
0
41
1
10
4.03871896830751
20
2.50518516553032
30
0
41
1
10
4.07401725965303
20
2.45499976402036
30
0
41
1
10
4.12338309725916
20
2.42134838316943
30
0
0
SPLINE
5
D5
100
AcDbEntity
8
1
62
256
6
ByLayer
370
18
48
1
60
0
100
AcDbSpline
70
4
71
3
72
16
73
12
40
0
40
0
40
0
40
0
40
0.249999999999977
40
0.249999999999977
40
0.374999999999966
40
0.374999999999966
40
0.499999999999955
40
0.499999999999955
40
0.749999999999977
40
0.749999999999977
40
1
40
1
40
1
40
1
41
1
10
4.25074681034059
20
-4.42863584497198
30
0
41
1
10
4.22714785989132
20
-4.42403943942585
30
0
41
1
10
4.20272799867172
20
-4.42284449852187
30
0
41
1
10
4.16419152062889
20
-4.42887073857099
30
0
41
1
10
4.15138843590671
20
-4.43216906843654
30
0
41
1
10
4.12593008690112
20
-4.4418498040701
30
0
41
1
10
4.11314552519821
20
-4.44835626394385
30
0
41
1
10
4.07733253889677
20
-4.47220134701209
30
0
41
1
10
4.05591247366635
20
-4.49475246582338
30
0
41
1
10
4.02389297842333
20
-4.54650282362104
30
0
41
1
10
4.01316103412063
20
-4.57532557132419
30
0
41
1
10
4.00701527185632
20
-4.60364887221655
30
0
0
SPLINE
5
D6
100
AcDbEntity
8
1
62
256
6
ByLayer
370
18
48
1
60
0
100
AcDbSpline
70
4
71
3
72
86
73
82
40
0
40
0
40
0
40
0
40
0.0335486007037314
40
0.0335486007037314
40
0.0503229010555972
40
0.0503229010555972
40
0.0670972014074629
40
0.0670972014074629
40
0.100645802111195
40
0.100645802111195
40
0.134194402814927
40
0.134194402814927
40
0.167743003518659
40
0.167743003518659
40
0.184517303870526
40
0.184517303870526
40
0.201291604222392
40
0.201291604222392
40
0.234840204926126
40
0.234840204926126
40
0.251614505277993
40
0.251614505277993
40
0.268388805629861
40
0.268388805629861
40
0.301937406333596
40
0.301937406333596
40
0.33548600703733
40
0.33548600703733
40
0.352260307389198
40
0.352260307389198
40
0.369034607741065
40
0.369034607741065
40
0.4025832084448
40
0.4025832084448
40
0.436131809148535
40
0.436131809148535
40
0.469680409852269
40
0.469680409852269
40
0.486454710204137
40
0.486454710204137
40
0.503229010556005
40
0.503229010556005
40
0.536777611259741
40
0.536777611259741
40
0.553551911611609
40
0.553551911611609
40
0.570326211963477
40
0.570326211963477
40
0.603874812667214
40
0.603874812667214
40
0.637423413370951
40
0.637423413370951
40
0.654197713722819
40
0.654197713722819
40
0.670972014074687
40
0.670972014074687
40
0.704520614778422
40
0.704520614778422
40
0.738069215482157
40
0.738069215482157
40
0.771617816185891
40
0.771617816185891
40
0.788392116537759
40
0.788392116537759
40
0.805166416889626
40
0.805166416889626
40
0.838715017593362
40
0.838715017593362
40
0.872263618297098
40
0.872263618297098
40
0.889037918648966
40
0.889037918648966
40
0.905812219000834
40
0.905812219000834
40
0.939360819704571
40
0.939360819704571
40
0.95613512005644
40
0.95613512005644
40
0.972909420408309
40
0.972909420408309
40
1
40
1
40
1
40
1
41
1
10
18.0634030983106
20
4.55348663325628
30
0
41
1
10
18.3702591584123
20
4.60830534079042
30
0
41
1
10
18.6774112700057
20
4.65224867657989
30
0
41
1
10
19.1375817077978
20
4.70279772861198
30
0
41
1
10
19.2908833980992
20
4.71706936297056
30
0
41
1
10
19.5971831212788
20
4.74043628344367
30
0
41
1
10
19.7500401810792
20
4.7495393064174
30
0
41
1
10
20.2095819255649
20
4.76876781852897
30
0
41
1
10
20.5174867676834
20
4.77096725364055
30
0
41
1
10
21.1321906959429
20
4.75422950951903
30
0
41
1
10
21.4379030169388
20
4.73509397000751
30
0
41
1
10
22.0508090802355
20
4.67622144916376
30
0
41
1
10
22.3576162182951
20
4.63656208151048
30
0
41
1
10
22.817591410019
20
4.5613629389475
30
0
41
1
10
22.9707492071343
20
4.53359037967408
30
0
41
1
10
23.2775953296463
20
4.47299444052857
30
0
41
1
10
23.4313458197353
20
4.44028192377499
30
0
41
1
10
23.8920476989591
20
4.33513092393193
30
0
41
1
10
24.1988995914566
20
4.2556253381434
30
0
41
1
10
24.6578237335301
20
4.12141427282913
30
0
41
1
10
24.8106787138092
20
4.07424445006498
30
0
41
1
10
25.1170702127038
20
3.97586819939153
30
0
41
1
10
25.2704815206739
20
3.92456388219699
30
0
41
1
10
25.7311114580408
20
3.76409695877501
30
0
41
1
10
26.0388331361439
20
3.64812599871746
30
0
41
1
10
26.6511199047071
20
3.39955095271685
30
0
41
1
10
26.9577730514666
20
3.26867239613395
30
0
41
1
10
27.4175759197382
20
3.06159312423702
30
0
41
1
10
27.5708191366769
20
2.99077034604525
30
0
41
1
10
27.8770695404805
20
2.84523153850924
30
0
41
1
10
28.0300508499016
20
2.77046659047266
30
0
41
1
10
28.4902676900307
20
2.54249218906062
30
0
41
1
10
28.7980784332695
20
2.38535328265974
30
0
41
1
10
29.4112078312161
20
2.06075332908623
30
0
41
1
10
29.7164776655155
20
1.89222900891195
30
0
41
1
10
30.3292437361656
20
1.55008865958953
30
0
41
1
10
30.6362879540381
20
1.37584374970859
30
0
41
1
10
31.0969037136796
20
1.10810329380388
30
0
41
1
10
31.2500856070669
20
1.01777124055323
30
0
41
1
10
31.5564317049074
20
0.836843635373214
30
0
41
1
10
31.7097068932013
20
0.746311550185936
30
0
41
1
10
32.1694696830179
20
0.473912527848597
30
0
41
1
10
32.4759336150111
20
0.291311388515538
30
0
41
1
10
32.9348211911236
20
0.0146452459423472
30
0
41
1
10
33.0877613395269
20
-0.077851889492365
30
0
41
1
10
33.3945160170366
20
-0.261849015766103
30
0
41
1
10
33.5483119689923
20
-0.353663981593002
30
0
41
1
10
34.0092174654982
20
-0.628179817247087
30
0
41
1
10
34.3154432042386
20
-0.810455604484474
30
0
41
1
10
34.926918970953
20
-1.17163010930585
30
0
41
1
10
35.2333845456818
20
-1.34855605605245
30
0
41
1
10
35.6933221670706
20
-1.60988135580845
30
0
41
1
10
35.846676204191
20
-1.69630676494447
30
0
41
1
10
36.1533484005349
20
-1.8679559503436
30
0
41
1
10
36.3065830760422
20
-1.95323712795002
30
0
41
1
10
36.7664398999404
20
-2.20377076352835
30
0
41
1
10
37.0731336539733
20
-2.36496384501373
30
0
41
1
10
37.6854270344701
20
-2.67777736037775
30
0
41
1
10
37.9906297537988
20
-2.82985677832795
30
0
41
1
10
38.6039560546033
20
-3.11873350640297
30
0
41
1
10
38.9117942953337
20
-3.25650079003677
30
0
41
1
10
39.371193541424
20
-3.45251398797581
30
0
41
1
10
39.5239079728956
20
-3.51626908333921
30
0
41
1
10
39.8297544822316
20
-3.6391764049659
30
0
41
1
10
39.9828380476334
20
-3.69840054949736
30
0
41
1
10
40.4422741344974
20
-3.8697879179208
30
0
41
1
10
40.748726544387
20
-3.97578392283469
30
0
41
1
10
41.3612276372672
20
-4.17150569247565
30
0
41
1
10
41.668349959553
20
-4.2598752800362
30
0
41
1
10
42.1280518351161
20
-4.37757980783985
30
0
41
1
10
42.2811814248643
20
-4.41442015510484
30
0
41
1
10
42.5871106148812
20
-4.48335949117674
30
0
41
1
10
42.7397781707083
20
-4.51552539900439
30
0
41
1
10
43.1982224946532
20
-4.60426851571077
30
0
41
1
10
43.5049684756314
20
-4.65293331561094
30
0
41
1
10
43.9656559194776
20
-4.71077522483881
30
0
41
1
10
44.1190965156837
20
-4.7274802038927
30
0
41
1
10
44.4251632126631
20
-4.75567959403529
30
0
41
1
10
44.5779601071978
20
-4.76713805513316
30
0
41
1
10
44.9781180780235
20
-4.79003482480536
30
0
41
1
10
45.2255004564698
20
-4.79725879010951
30
0
41
1
10
45.4728357848005
20
-4.79758687756674
30
0
0
SPLINE
5
D7
100
AcDbEntity
8
1
62
256
6
ByLayer
370
18
48
1
60
0
100
AcDbSpline
70
4
71
3
72
24
73
20
40
0
40
0
40
0
40
0
40
0.155891501341173
40
0.155891501341173
40
0.311783002682346
40
0.311783002682346
40
0.389728753352932
40
0.389728753352932
40
0.467674504023519
40
0.467674504023519
40
0.623566005364692
40
0.623566005364692
40
0.701511756035278
40
0.701511756035278
40
0.779457506705865
40
0.779457506705865
40
0.935349008047038
40
0.935349008047038
40
1
40
1
40
1
40
1
41
1
10
4.00693251419432
20
2.61035643485758
30
0
41
1
10
4.00693952503994
20
2.81614132180857
30
0
41
1
10
4.00694464333623
20
3.01155458905825
30
0
41
1
10
4.00695212972246
20
3.37267910758519
30
0
41
1
10
4.00695454283749
20
3.53960287241608
30
0
41
1
10
4.00695711398512
20
3.76953699635638
30
0
41
1
10
4.00695779524085
20
3.84275834820173
30
0
41
1
10
4.00695895697351
20
3.98216832268352
30
0
41
1
10
4.00695943482543
20
4.04801191192885
30
0
41
1
10
4.00696077404032
20
4.23176512640714
30
0
41
1
10
4.0069615561938
20
4.33700695101567
30
0
41
1
10
4.00696335872308
20
4.46932656160607
30
0
41
1
10
4.00696406266587
20
4.50915710763468
30
0
41
1
10
4.00696579265377
20
4.58009315049674
30
0
41
1
10
4.00696682459125
20
4.61128184035755
30
0
41
1
10
4.00697050253828
20
4.69015200062759
30
0
41
1
10
4.00697374107597
20
4.72370833584145
30
0
41
1
10
4.00697973452228
20
4.74497892616822
30
0
41
1
10
4.00698166477079
20
4.74802282055259
30
0
41
1
10
4.00698377257473
20
4.74782294121965
30
0
0
SPLINE
5
D8
100
AcDbEntity
8
1
62
256
6
ByLayer
370
18
48
1
60
0
100
AcDbSpline
70
4
71
3
72
10
73
6
40
0
40
0
40
0
40
0
40
0.926344971676374
40
0.926344971676374
40
1
40
1
40
1
40
1
41
1
10
47.4130410885864
20
4.71954479738798
30
0
41
1
10
46.9618783359104
20
4.76868346184168
30
0
41
1
10
46.5111181539561
20
4.79486553166674
30
0
41
1
10
46.0232760723972
20
4.79811670421893
30
0
41
1
10
45.9873405991383
20
4.79820919115551
30
0
41
1
10
45.9514041504997
20
4.79815492076153
30
0
0
SPLINE
5
D9
100
AcDbEntity
8
1
62
256
6
ByLayer
370
18
48
1
60
0
100
AcDbSpline
70
4
71
3
72
40
73
36
40
0
40
0
40
0
40
0
40
0.0030975322530274
40
0.0030975322530274
40
0.0387011918154195
40
0.0387011918154195
40
0.0743048513778113
40
0.0743048513778113
40
0.145512170502596
40
0.145512170502596
40
0.181115830064988
40
0.181115830064988
40
0.216719489627379
40
0.216719489627379
40
0.287926808752163
40
0.287926808752163
40
0.323530468314555
40
0.323530468314555
40
0.359134127876947
40
0.359134127876947
40
0.430341447001732
40
0.430341447001732
40
0.572756085251301
40
0.572756085251301
40
0.643963404376085
40
0.643963404376085
40
0.679567063938477
40
0.679567063938477
40
0.715170723500869
40
0.715170723500869
40
0.786378042625652
40
0.786378042625652
40
0.857585361750435
40
0.857585361750435
40
1
40
1
40
1
40
1
41
1
10
23.1299995751064
20
-4.59365710180245
30
0
41
1
10
23.1103431965064
20
-4.59681646590519
30
0
41
1
10
23.0906848329499
20
-4.59993402019961
30
0
41
1
10
22.8450426067591
20
-4.63836182928424
30
0
41
1
10
22.6184959986965
20
-4.6681976071381
30
0
41
1
10
22.166137641665
20
-4.71636493428389
30
0
41
1
10
21.9402687102446
20
-4.73472234053273
30
0
41
1
10
21.2629859479486
20
-4.77259402770946
30
0
41
1
10
20.8120513920479
20
-4.77491365259939
30
0
41
1
10
20.133649978496
20
-4.74372179946045
30
0
41
1
10
19.9070218172182
20
-4.72752737376956
30
0
41
1
10
19.4548281826724
20
-4.6838205868319
30
0
41
1
10
19.2290121165904
20
-4.6563023676712
30
0
41
1
10
18.5517118140242
20
-4.55708485751174
30
0
41
1
10
18.1005764780007
20
-4.46863002392411
30
0
41
1
10
17.421621324272
20
-4.30374978081036
30
0
41
1
10
17.1950962412281
20
-4.24347227844532
30
0
41
1
10
16.7430394291634
20
-4.11307730904468
30
0
41
1
10
16.5172567202467
20
-4.04289902333369
30
0
41
1
10
15.8399091751784
20
-3.81812771739942
30
0
41
1
10
15.3885383454846
20
-3.64911772822561
30
0
41
1
10
14.0295318311214
20
-3.08970216845282
30
0
41
1
10
13.1356889338371
20
-2.65524471924462
30
0
41
1
10
11.7951339020526
20
-1.9418887942127
30
0
41
1
10
11.3481330506558
20
-1.69392069317755
30
0
41
1
10
10.6749461499387
20
-1.31044200363525
30
0
41
1
10
10.450121892322
20
-1.18066449958894
30
0
41
1
10
9.99931326031432
20
-0.917624744890389
30
0
41
1
10
9.77296342867871
20
-0.784174568436583
30
0
41
1
10
9.09371218272136
20
-0.381693703681833
30
0
41
1
10
8.64228828626514
20
-0.111542170462428
30
0
41
1
10
7.73904391886129
20
0.427016022475158
30
0
41
1
10
7.28718705512966
20
0.695962077971387
30
0
41
1
10
5.9277463362171
20
1.49094547143938
30
0
41
1
10
5.02821061309976
20
1.99739810906976
30
0
41
1
10
4.12192644320538
20
2.45927547232282
30
0
0
SPLINE
5
DA
100
AcDbEntity
8
1
62
256
6
ByLayer
370
18
48
1
60
0
100
AcDbSpline
70
4
71
3
72
12
73
8
40
0
40
0
40
0
40
0
40
0.299180716498408
40
0.299180716498408
40
0.649590358249204
40
0.649590358249204
40
1
40
1
40
1
40
1
41
1
10
5.56760719297617
20
4.557314225813
30
0
41
1
10
5.90283961740741
20
4.56289108334337
30
0
41
1
10
6.24341630898576
20
4.55090000423363
30
0
41
1
10
6.99297200232829
20
4.49249280941766
30
0
41
1
10
7.39829022085553
20
4.43985343855402
30
0
41
1
10
8.21197130138432
20
4.30135309818763
30
0
41
1
10
8.6203774604858
20
4.21437747215899
30
0
41
1
10
9.03153421442047
20
4.11220534294969
30
0
0
SPLINE
5
DB
100
AcDbEntity
8
1
62
256
6
ByLayer
370
18
48
1
60
0
100
AcDbSpline
70
4
71
3
72
52
73
48
40
0
40
0
40
0
40
0
40
0.051103797433482
40
0.051103797433482
40
0.0766556961502236
40
0.0766556961502236
40
0.102207594866965
40
0.102207594866965
40
0.204415189733932
40
0.204415189733932
40
0.255518987167415
40
0.255518987167415
40
0.281070885884157
40
0.281070885884157
40
0.306622784600898
40
0.306622784600898
40
0.357726582034381
40
0.357726582034381
40
0.408830379467863
40
0.408830379467863
40
0.459934176901346
40
0.459934176901346
40
0.511037974334828
40
0.511037974334828
40
0.536589873051569
40
0.536589873051569
40
0.56214177176831
40
0.56214177176831
40
0.61324556920179
40
0.61324556920179
40
0.71545316406875
40
0.71545316406875
40
0.74100506278549
40
0.74100506278549
40
0.766556961502231
40
0.766556961502231
40
0.817660758935713
40
0.817660758935713
40
0.843212657652454
40
0.843212657652454
40
0.868764556369195
40
0.868764556369195
40
0.919868353802678
40
0.919868353802678
40
0.970972151236161
40
0.970972151236161
40
1
40
1
40
1
40
1
41
1
10
47.4130410885864
20
-4.71954479738798
30
0
41
1
10
46.9612537606595
20
-4.76875148783338
30
0
41
1
10
46.5101022724931
20
-4.79491258904801
30
0
41
1
10
45.831993646838
20
-4.79937126352087
30
0
41
1
10
45.6054271894913
20
-4.79502804289723
30
0
41
1
10
45.1543039508575
20
-4.77484836677408
30
0
41
1
10
44.9294625504333
20
-4.75902865479998
30
0
41
1
10
43.8077859341947
20
-4.65193900246231
30
0
41
1
10
42.9182920792045
20
-4.47684593788347
30
0
41
1
10
41.5761056831348
20
-4.09194349407514
30
0
41
1
10
41.1273915237934
20
-3.94323586107831
30
0
41
1
10
40.4496076572188
20
-3.69122576971063
30
0
41
1
10
40.2230366613072
20
-3.60242546661925
30
0
41
1
10
39.771209729633
20
-3.41687690411879
30
0
41
1
10
39.545548513037
20
-3.31998176931913
30
0
41
1
10
38.8686852891547
20
-3.01773837489742
30
0
41
1
10
38.4175695640288
20
-2.80087689923695
30
0
41
1
10
37.5121672419319
20
-2.34071800055381
30
0
41
1
10
37.0605838673382
20
-2.09872154712607
30
0
41
1
10
36.1579063379009
20
-1.59747754192992
30
0
41
1
10
35.7062155748143
20
-1.33785019700292
30
0
41
1
10
34.8007121735563
20
-0.806913563427031
30
0
41
1
10
34.3494777860185
20
-0.537271244151867
30
0
41
1
10
33.6723547709673
20
-0.1307951938808
30
0
41
1
10
33.4466105869152
20
0.0050470338999276
30
0
41
1
10
32.9945472744356
20
0.276594819019465
30
0
41
1
10
32.7678216214415
20
0.4125515888081
30
0
41
1
10
32.0898047321692
20
0.817285390386729
30
0
41
1
10
31.6407754058757
20
1.08251766070342
30
0
41
1
10
30.2975173995077
20
1.85659015118554
30
0
41
1
10
29.4071379559861
20
2.34385582650643
30
0
41
1
10
28.284080011841
20
2.89138030416197
30
0
41
1
10
28.0589367366941
20
2.99776674021075
30
0
41
1
10
27.6071581935324
20
3.20364125486009
30
0
41
1
10
27.3802891740538
20
3.30321470148871
30
0
41
1
10
26.7016232958312
20
3.58862446739596
30
0
41
1
10
26.2504393353596
20
3.76200245010011
30
0
41
1
10
25.5727698435321
20
3.99383229675004
30
0
41
1
10
25.3467293688383
20
4.06640289833126
30
0
41
1
10
24.8939068967616
20
4.20168370778509
30
0
41
1
10
24.6672376349129
20
4.26434487166239
30
0
41
1
10
23.9887705731833
20
4.43616541724558
30
0
41
1
10
23.5375316877691
20
4.52954386349538
30
0
41
1
10
22.6335667786835
20
4.67191560299685
30
0
41
1
10
22.1798459014076
20
4.72087529402262
30
0
41
1
10
21.4707427275874
20
4.76122271736764
30
0
41
1
10
21.2141796876004
20
4.76841197641801
30
0
41
1
10
20.9575777076109
20
4.76816072227558
30
0
0
SPLINE
5
DC
100
AcDbEntity
8
1
62
256
6
ByLayer
370
18
48
1
60
0
100
AcDbSpline
70
4
71
3
72
18
73
14
40
0
40
0
40
0
40
0
40
0.249999999999997
40
0.249999999999997
40
0.374999999999998
40
0.374999999999998
40
0.499999999999999
40
0.499999999999999
40
0.75
40
0.75
40
0.875
40
0.875
40
1
40
1
40
1
40
1
41
1
10
47.3048687983751
20
-4.6059704605704
30
0
41
1
10
47.2044396039926
20
-4.59890514288176
30
0
41
1
10
47.110969423101
20
-4.57119834775798
30
0
41
1
10
46.9821663722399
20
-4.4958174595119
30
0
41
1
10
46.9410822125651
20
-4.46487920584724
30
0
41
1
10
46.8645699775021
20
-4.39251516695902
30
0
41
1
10
46.8289169456493
20
-4.35099402690517
30
0
41
1
10
46.7298208214469
20
-4.21030307288248
30
0
41
1
10
46.6741713871241
20
-4.09514789180184
30
0
41
1
10
46.6076555243067
20
-3.88763242006689
30
0
41
1
10
46.5883155929149
20
-3.81237089191333
30
0
41
1
10
46.5563033773242
20
-3.65264456882431
30
0
41
1
10
46.543513050391
20
-3.56789386010803
30
0
41
1
10
46.5339784531861
20
-3.47819488740615
30
0
0
SPLINE
5
DD
100
AcDbEntity
8
1
62
256
6
ByLayer
370
18
48
1
60
0
100
AcDbSpline
70
4
71
3
72
16
73
12
40
0
40
0
40
0
40
0
40
0.250000000000001
40
0.250000000000001
40
0.500000000000001
40
0.500000000000001
40
0.750000000000002
40
0.750000000000002
40
0.875000000000001
40
0.875000000000001
40
1
40
1
40
1
40
1
41
1
10
9.03153421443716
20
-4.11220534294549
30
0
41
1
10
8.61919384838723
20
-4.21467159883269
30
0
41
1
10
8.21098881898951
20
-4.30150385942147
30
0
41
1
10
7.40050623016586
20
-4.43949268806875
30
0
41
1
10
6.99814398027232
20
-4.49176266472182
30
0
41
1
10
6.19832607801447
20
-4.55473291702285
30
0
41
1
10
5.80076571467475
20
-4.56661234152892
30
0
41
1
10
5.20867669747542
20
-4.54655521132653
30
0
41
1
10
5.01278108323913
20
-4.53342099210684
30
0
41
1
10
4.62726911685527
20
-4.49261822911157
30
0
41
1
10
4.43725784250125
20
-4.46496289864402
30
0
41
1
10
4.25074681405138
20
-4.42863584569136
30
0
0
SPLINE
5
DE
100
AcDbEntity
8
1
62
256
6
ByLayer
370
18
48
1
60
0
100
AcDbSpline
70
4
71
3
72
8
73
4
40
0
40
0
40
0
40
0
40
1
40
1
40
1
40
1
41
1
10
47.4481360846448
20
-4.62458042410483
30
0
41
1
10
47.4364555575117
20
-4.65624861087974
30
0
41
1
10
47.4247572341629
20
-4.68790340849759
30
0
41
1
10
47.4130410885865
20
-4.71954479738798
30
0
0
SPLINE
5
DF
100
AcDbEntity
8
1
62
256
6
ByLayer
370
18
48
1
60
0
100
AcDbSpline
70
4
71
3
72
8
73
4
40
0
40
0
40
0
40
0
40
1
40
1
40
1
40
1
41
1
10
4.018978669615
20
2.56036301395659
30
0
41
1
10
4.01111715272603
20
2.57637065882489
30
0
41
1
10
4.00693192814873
20
2.59315465314597
30
0
41
1
10
4.00693251419432
20
2.61035643484172
30
0
0
SPLINE
5
E0
100
AcDbEntity
8
1
62
256
6
ByLayer
370
18
48
1
60
0
100
AcDbSpline
70
4
71
3
72
68
73
64
40
0
40
0
40
0
40
0
40
0.0625000000000009
40
0.0625000000000009
40
0.125000000000002
40
0.125000000000002
40
0.187500000000003
40
0.187500000000003
40
0.250000000000004
40
0.250000000000004
40
0.375000000000006
40
0.375000000000006
40
0.437500000000007
40
0.437500000000007
40
0.500000000000008
40
0.500000000000008
40
0.625000000000011
40
0.625000000000011
40
0.687500000000013
40
0.687500000000013
40
0.718750000000014
40
0.718750000000014
40
0.726562500000014
40
0.726562500000014
40
0.730468750000014
40
0.730468750000014
40
0.732421875000014
40
0.732421875000014
40
0.734375000000013
40
0.734375000000013
40
0.750000000000012
40
0.750000000000012
40
0.781250000000008
40
0.781250000000008
40
0.796875000000007
40
0.796875000000007
40
0.804687500000006
40
0.804687500000006
40
0.812500000000006
40
0.812500000000006
40
0.828125000000005
40
0.828125000000005
40
0.835937500000005
40
0.835937500000005
40
0.843750000000004
40
0.843750000000004
40
0.859375000000003
40
0.859375000000003
40
0.867187500000003
40
0.867187500000003
40
0.875000000000002
40
0.875000000000002
40
0.890625000000002
40
0.890625000000002
40
0.906250000000002
40
0.906250000000002
40
0.937500000000001
40
0.937500000000001
40
0.96875
40
0.96875
40
0.984375
40
0.984375
40
1
40
1
40
1
40
1
41
1
10
18.0634978337029
20
-4.55350712581262
30
0
41
1
10
17.6768096572464
20
-4.48449616895786
30
0
41
1
10
17.2855183577531
20
-4.40253331424037
30
0
41
1
10
16.4941501776625
20
-4.21963108172997
30
0
41
1
10
16.0940499713449
20
-4.11863958099423
30
0
41
1
10
15.2845648097088
20
-3.90329702175029
30
0
41
1
10
14.8749338320731
20
-3.78884563354791
30
0
41
1
10
14.0535001975369
20
-3.55440341062896
30
0
41
1
10
13.6406879707313
20
-3.43415044343783
30
0
41
1
10
12.3944459993045
20
-3.07248489756219
30
0
41
1
10
11.5531202822988
20
-2.83035034427246
30
0
41
1
10
10.2704398438381
20
-2.49565724849686
30
0
41
1
10
9.839451955512
20
-2.38880155172114
30
0
41
1
10
8.97006596043485
20
-2.18883137566732
30
0
41
1
10
8.53097348484803
20
-2.09559080361495
30
0
41
1
10
7.20716740666197
20
-1.84304996769723
30
0
41
1
10
6.3185976721764
20
-1.71163491354628
30
0
41
1
10
4.97583455746272
20
-1.58274338675079
30
0
41
1
10
4.52659069774893
20
-1.55106686267467
30
0
41
1
10
3.85019298691884
20
-1.5216093848222
30
0
41
1
10
3.6246002330717
20
-1.51481138224986
30
0
41
1
10
3.34251936119386
20
-1.51017201984635
30
0
41
1
10
3.28609475489938
20
-1.50943700397767
30
0
41
1
10
3.20147132751038
20
-1.50862543378358
30
0
41
1
10
3.17290145097434
20
-1.51187752865758
30
0
41
1
10
3.13281641030852
20
-1.52500572511525
30
0
41
1
10
3.11984942255037
20
-1.53079280640878
30
0
41
1
10
3.0967948093076
20
-1.54680685362874
30
0
41
1
10
3.08561956156117
20
-1.55522484348299
30
0
41
1
10
2.98403923086039
20
-1.62971799126029
30
0
41
1
10
2.89612041013857
20
-1.69854492098659
30
0
41
1
10
2.64386770659218
20
-1.91198485805336
30
0
41
1
10
2.48996684690744
20
-2.06367862716911
30
0
41
1
10
2.29293632751199
20
-2.31236220640327
30
0
41
1
10
2.23408246958232
20
-2.39762947557406
30
0
41
1
10
2.15907970935194
20
-2.52790189747759
30
0
41
1
10
2.13623750319624
20
-2.57179798029381
30
0
41
1
10
2.09528734743049
20
-2.66059015676885
30
0
41
1
10
2.07709283468262
20
-2.70575853753255
30
0
41
1
10
2.03107070072303
20
-2.84070515717838
30
0
41
1
10
2.01183647248857
20
-2.92936586704275
30
0
41
1
10
2.00010272623956
20
-3.06014683175397
30
0
41
1
10
1.99904727755157
20
-3.10337182629684
30
0
41
1
10
2.00267438178491
20
-3.18903723718984
30
0
41
1
10
2.00740073417748
20
-3.23146139941994
30
0
41
1
10
2.02945873084579
20
-3.35456396087784
30
0
41
1
10
2.05463127044845
20
-3.43216201769502
30
0
41
1
10
2.10559487451116
20
-3.54267416456253
30
0
41
1
10
2.12486365034542
20
-3.57861361495318
30
0
41
1
10
2.16679038320973
20
-3.64756882655161
30
0
41
1
10
2.18949938892285
20
-3.68072561988984
30
0
41
1
10
2.26220021752164
20
-3.77667758938674
30
0
41
1
10
2.31673532946158
20
-3.83597492850876
30
0
41
1
10
2.43542278582447
20
-3.94691371460209
30
0
41
1
10
2.49988255358039
20
-3.99874334539865
30
0
41
1
10
2.70298502310786
20
-4.14288656151055
30
0
41
1
10
2.85018936853717
20
-4.22369890641974
30
0
41
1
10
3.15978674675654
20
-4.36420213586285
30
0
41
1
10
3.32231178139071
20
-4.42374545699411
30
0
41
1
10
3.57456432780901
20
-4.50049434613845
30
0
41
1
10
3.66016943833392
20
-4.5239724408286
30
0
41
1
10
3.83253067481834
20
-4.56675453491076
30
0
41
1
10
3.91945356062587
20
-4.58611334254587
30
0
41
1
10
4.00701527100608
20
-4.60364887205657
30
0
0
SPLINE
5
E1
100
AcDbEntity
8
1
62
256
6
ByLayer
370
18
48
1
60
0
100
AcDbSpline
70
4
71
3
72
22
73
18
40
0
40
0
40
0
40
0
40
0.125
40
0.125
40
0.25
40
0.25
40
0.375
40
0.375
40
0.5
40
0.5
40
0.625
40
0.625
40
0.75
40
0.75
40
0.875
40
0.875
40
1
40
1
40
1
40
1
41
1
10
47.4877912799238
20
-4.64768642650813
30
0
41
1
10
47.5292795328976
20
-4.55440299509348
30
0
41
1
10
47.5708102792304
20
-4.45986450702398
30
0
41
1
10
47.654003421418
20
-4.26689921486556
30
0
41
1
10
47.6956551481411
20
-4.16878752741883
30
0
41
1
10
47.7790433342409
20
-3.97006154309952
30
0
41
1
10
47.82078927303
20
-3.8697366287617
30
0
41
1
10
47.9037103965572
20
-3.66684536919516
30
0
41
1
10
47.9449600227482
20
-3.56423166509481
30
0
41
1
10
48.0271649405116
20
-3.35737435301229
30
0
41
1
10
48.0681785834312
20
-3.25337309885484
30
0
41
1
10
48.1497733667012
20
-3.04330377580124
30
0
41
1
10
48.1901600998991
20
-2.93782826705495
30
0
41
1
10
48.2701513626624
20
-2.72603754370181
30
0
41
1
10
48.3096955146546
20
-2.61965751297802
30
0
41
1
10
48.3885749778145
20
-2.40667325816568
30
0
41
1
10
48.4276244352774
20
-2.29947524248777
30
0
41
1
10
48.4660072654307
20
-2.1924116848395
30
0
0
SPLINE
5
E2
100
AcDbEntity
8
1
62
256
6
ByLayer
370
18
48
1
60
0
100
AcDbSpline
70
4
71
3
72
14
73
10
40
0
40
0
40
0
40
0
40
0.25
40
0.25
40
0.5
40
0.5
40
0.75
40
0.75
40
1
40
1
40
1
40
1
41
1
10
47.4580605340173
20
-4.54598269398593
30
0
41
1
10
47.4609945388398
20
-4.5436683824731
30
0
41
1
10
47.4633438185265
20
-4.54300320565645
30
0
41
1
10
47.4665097351574
20
-4.5459954542342
30
0
41
1
10
47.4672839648898
20
-4.5497211246863
30
0
41
1
10
47.4662289482667
20
-4.56316226322517
30
0
41
1
10
47.4643242343694
20
-4.57296769741296
30
0
41
1
10
47.4577786949772
20
-4.5969235694003
30
0
41
1
10
47.4531785134238
20
-4.61090941640592
30
0
41
1
10
47.4481360846452
20
-4.62458042410387
30
0
0
SPLINE
5
E3
100
AcDbEntity
8
1
62
256
6
ByLayer
370
18
48
1
60
0
100
AcDbSpline
70
4
71
3
72
14
73
10
40
0
40
0
40
0
40
0
40
0.128484101867852
40
0.128484101867852
40
0.637098516016962
40
0.637098516016962
40
0.891405723091516
40
0.891405723091516
40
1
40
1
40
1
40
1
41
1
10
11.2853777993196
20
-2.7717187345423
30
0
41
1
10
11.1902662875028
20
-2.83631176446659
30
0
41
1
10
11.0951527771862
20
-2.90030807906649
30
0
41
1
10
10.6230220098008
20
-3.21395345056192
30
0
41
1
10
10.2443575428085
20
-3.45240480056736
30
0
41
1
10
9.66669876538987
20
-3.78275943426132
30
0
41
1
10
9.4720153337847
20
-3.88863638332703
30
0
41
1
10
9.19628121051736
20
-4.03051556090432
30
0
41
1
10
9.11389581935549
20
-4.07188316829513
30
0
41
1
10
9.03160634559109
20
-4.11220146985011
30
0
0
SPLINE
5
E4
100
AcDbEntity
8
1
62
256
6
ByLayer
370
13
48
1
60
0
100
AcDbSpline
70
4
71
3
72
8
73
4
40
0
40
0
40
0
40
0
40
1
40
1
40
1
40
1
41
1
10
4.25044586198936
20
2.3940700688876
30
0
41
1
10
4.24265363175115
20
2.39633938358568
30
0
41
1
10
4.2349162553939
20
2.39877629437359
30
0
41
1
10
4.22723392621145
20
2.40138107661753
30
0
0
SPLINE
5
E5
100
AcDbEntity
8
1
62
256
6
ByLayer
370
18
48
1
60
0
100
AcDbSpline
70
4
71
3
72
16
73
12
40
0
40
0
40
0
40
0
40
0.0307376835154139
40
0.0307376835154139
40
0.167349781907988
40
0.167349781907988
40
0.303961880300562
40
0.303961880300562
40
0.850410273870839
40
0.850410273870839
40
1
40
1
40
1
40
1
41
1
10
46.25512371347
20
-4.60628930018282
30
0
41
1
10
46.2043056406797
20
-4.60660946781644
30
0
41
1
10
46.1534833045771
20
-4.60664734459417
30
0
41
1
10
45.8767489275492
20
-4.60531691490831
30
0
41
1
10
45.6507151239155
20
-4.59865069879675
30
0
41
1
10
45.1979933617922
20
-4.57417988184366
30
0
41
1
10
44.9716186964488
20
-4.5563747446177
30
0
41
1
10
43.8447603595197
20
-4.44049252533179
30
0
41
1
10
42.9534508294903
20
-4.26172729655929
30
0
41
1
10
41.8152573666272
20
-3.93676523791126
30
0
41
1
10
41.5704695962795
20
-3.86120082368512
30
0
41
1
10
41.3252371542612
20
-3.78013079358581
30
0
0
SPLINE
5
E6
100
AcDbEntity
8
1
62
256
6
ByLayer
370
13
48
1
60
0
100
AcDbSpline
70
4
71
3
72
28
73
24
40
0
40
0
40
0
40
0
40
0.050038845150352
40
0.050038845150352
40
0.105330153479374
40
0.105330153479374
40
0.160621461808396
40
0.160621461808396
40
0.381786695124482
40
0.381786695124482
40
0.492369311782527
40
0.492369311782527
40
0.547660620111549
40
0.547660620111549
40
0.602951928440572
40
0.602951928440572
40
0.824117161756661
40
0.824117161756661
40
0.934699778414705
40
0.934699778414705
40
0.989991086743726
40
0.989991086743726
40
1
40
1
40
1
40
1
41
1
10
41.3252371542607
20
-3.78013079358564
30
0
41
1
10
41.1225548983256
20
-3.713127193026
30
0
41
1
10
40.9195688932376
20
-3.64236278136008
30
0
41
1
10
40.4913262318949
20
-3.48575015235954
30
0
41
1
10
40.2659801927853
20
-3.39906979609151
30
0
41
1
10
39.8137876540636
20
-3.21710962420983
30
0
41
1
10
39.5870200472666
20
-3.12184032921391
30
0
41
1
10
38.4592072753701
20
-2.6298388201208
30
0
41
1
10
37.56742088111
20
-2.18304621463565
30
0
41
1
10
36.2265708328491
20
-1.46335488976405
30
0
41
1
10
35.7790822724165
20
-1.21522180254468
30
0
41
1
10
35.1047441463394
20
-0.834376944234776
30
0
41
1
10
34.8794629761135
20
-0.705953166032799
30
0
41
1
10
34.4273807049438
20
-0.447012342789634
30
0
41
1
10
34.2003788764869
20
-0.316397166964606
30
0
41
1
10
33.0714418023785
20
0.334639512267415
30
0
41
1
10
32.1788344775789
20
0.852376641334615
30
0
41
1
10
30.8367173398429
20
1.5918108368009
30
0
41
1
10
30.3888563601037
20
1.83218797843784
30
0
41
1
10
29.7138932247845
20
2.1793716898996
30
0
41
1
10
29.4883802152968
20
2.29286748783235
30
0
41
1
10
29.2211531736466
20
2.42382824625756
30
0
41
1
10
29.1801705908231
20
2.44381487307356
30
0
41
1
10
29.1391737747146
20
2.46370941791454
30
0
0
SPLINE
5
E7
100
AcDbEntity
8
1
62
256
6
ByLayer
370
18
48
1
60
0
100
AcDbSpline
70
4
71
3
72
14
73
10
40
0
40
0
40
0
40
0
40
0.348611352722656
40
0.348611352722656
40
0.522917029083984
40
0.522917029083984
40
0.697222705445312
40
0.697222705445312
40
1
40
1
40
1
40
1
41
1
10
9.03167348594988
20
-4.11216857374069
30
0
41
1
10
9.39996009381508
20
-4.02028779429278
30
0
41
1
10
9.76774088063556
20
-3.91599566478879
30
0
41
1
10
10.3184427898844
20
-3.74248200985113
30
0
41
1
10
10.5017747859239
20
-3.68175813273748
30
0
41
1
10
10.868722121296
20
-3.5542935760661
30
0
41
1
10
11.0524186645089
20
-3.48758503093646
30
0
41
1
10
11.5556464742487
20
-3.2966481687491
30
0
41
1
10
11.8757008928138
20
-3.16625574637931
30
0
41
1
10
12.1950716506922
20
-3.02887967261537
30
0
0
SPLINE
5
E8
100
AcDbEntity
8
1
62
256
6
ByLayer
370
18
48
1
60
0
100
AcDbSpline
70
4
71
3
72
40
73
36
40
0
40
0
40
0
40
0
40
0.0384615063408427
40
0.0384615063408427
40
0.118589714145769
40
0.118589714145769
40
0.158653818048233
40
0.158653818048233
40
0.198717921950697
40
0.198717921950697
40
0.278846129755626
40
0.278846129755626
40
0.358974337560554
40
0.358974337560554
40
0.399038441463019
40
0.399038441463019
40
0.439102545365485
40
0.439102545365485
40
0.47916664926795
40
0.47916664926795
40
0.519230753170416
40
0.519230753170416
40
0.599358960975347
40
0.599358960975347
40
0.679487168780277
40
0.679487168780277
40
0.719551272682743
40
0.719551272682743
40
0.759615376585208
40
0.759615376585208
40
0.839743584390139
40
0.839743584390139
40
0.919871792195069
40
0.919871792195069
40
1
40
1
40
1
40
1
41
1
10
30.5543122808037
20
4.58717471142432
30
0
41
1
10
30.7309749747375
20
4.58612209812986
30
0
41
1
10
30.9075040261662
20
4.58162207254602
30
0
41
1
10
31.4513766152273
20
4.5574203095953
30
0
41
1
10
31.8180637250599
20
4.52790891269601
30
0
41
1
10
32.369074740252
20
4.46016316588302
30
0
41
1
10
32.5530001772044
20
4.43386663352419
30
0
41
1
10
32.9212046300885
20
4.37460065623796
30
0
41
1
10
33.1054853417817
20
4.34173262840312
30
0
41
1
10
33.6568625654827
20
4.23158260732839
30
0
41
1
10
34.0238597335168
20
4.14393728506116
30
0
41
1
10
34.7580991931668
20
3.94513775482886
30
0
41
1
10
35.1250176715971
20
3.83121485012478
30
0
41
1
10
35.6771089521282
20
3.64388810925328
30
0
41
1
10
35.861269822682
20
3.57880596287671
30
0
41
1
10
36.2288563893611
20
3.4421811773226
30
0
41
1
10
36.4124213700397
20
3.37084870628988
30
0
41
1
10
36.7792243894748
20
3.22319642281045
30
0
41
1
10
36.9625183702032
20
3.14687357149072
30
0
41
1
10
37.3295384216295
20
2.98949887540192
30
0
41
1
10
37.5131627451015
20
2.90826261424516
30
0
41
1
10
38.0643065904737
20
2.65770930308833
30
0
41
1
10
38.432373674052
20
2.48144691519937
30
0
41
1
10
39.1666440108228
20
2.11408363175167
30
0
41
1
10
39.533594206521
20
1.92365495497299
30
0
41
1
10
40.0835849516502
20
1.62861606561307
30
0
41
1
10
40.2669782969463
20
1.52889445470353
30
0
41
1
10
40.6343695217936
20
1.32761303081054
30
0
41
1
10
40.8184222363011
20
1.22582085116551
30
0
41
1
10
41.3699105810518
20
0.917445695055761
30
0
41
1
10
41.7361735124474
20
0.70781591712452
30
0
41
1
10
42.4693032910455
20
0.286667560763647
30
0
41
1
10
42.8361632859542
20
0.0750978441437553
30
0
41
1
10
43.5703096384158
20
-0.350268889546726
30
0
41
1
10
43.9382359690887
20
-0.562098402832873
30
0
41
1
10
44.3051563966486
20
-0.7712873484559
30
0
0
SPLINE
5
E9
100
AcDbEntity
8
1
62
256
6
ByLayer
370
18
48
1
60
0
100
AcDbSpline
70
4
71
3
72
18
73
14
40
0
40
0
40
0
40
0
40
0.183152626188553
40
0.183152626188553
40
0.452967351750571
40
0.452967351750571
40
0.58787471453158
40
0.58787471453158
40
0.722782077312589
40
0.722782077312589
40
0.992596802874608
40
0.992596802874608
40
1
40
1
40
1
40
1
41
1
10
18.0634501980599
20
4.55350873332389
30
0
41
1
10
17.7899095515354
20
4.4251585280258
30
0
41
1
10
17.515806330445
20
4.29495671204796
30
0
41
1
10
16.8356082195148
20
3.96949689781684
30
0
41
1
10
16.4284260066665
20
3.77260138758632
30
0
41
1
10
15.8121363942856
20
3.47681532133419
30
0
41
1
10
15.6053148309498
20
3.37794766402308
30
0
41
1
10
15.1917522450605
20
3.18217805420056
30
0
41
1
10
14.9852740612777
20
3.08540024475227
30
0
41
1
10
14.3661028056994
20
2.79985001523889
30
0
41
1
10
13.9536790903977
20
2.61586236059503
30
0
41
1
10
13.5283989634307
20
2.43748019662365
30
0
41
1
10
13.5170405821126
20
2.43272425507848
30
0
41
1
10
13.5056810275797
20
2.4279762080977
30
0
0
SPLINE
5
EA
100
AcDbEntity
8
1
62
256
6
ByLayer
370
18
48
1
60
0
100
AcDbSpline
70
4
71
3
72
30
73
26
40
0
40
0
40
0
40
0
40
0.0624999999999987
40
0.0624999999999987
40
0.124999999999997
40
0.124999999999997
40
0.187499999999996
40
0.187499999999996
40
0.249999999999995
40
0.249999999999995
40
0.312499999999993
40
0.312499999999993
40
0.374999999999992
40
0.374999999999992
40
0.49999999999999
40
0.49999999999999
40
0.624999999999986
40
0.624999999999986
40
0.749999999999983
40
0.749999999999983
40
0.812499999999985
40
0.812499999999985
40
0.874999999999988
40
0.874999999999988
40
1
40
1
40
1
40
1
41
1
10
48.3994808085642
20
-1.59854867951162
30
0
41
1
10
48.4023687022432
20
-1.60589440670341
30
0
41
1
10
48.4040406025759
20
-1.61615848280232
30
0
41
1
10
48.4048876281389
20
-1.64267882311407
30
0
41
1
10
48.4040409246607
20
-1.65912074313985
30
0
41
1
10
48.3996720626034
20
-1.69777850676414
30
0
41
1
10
48.3962003639012
20
-1.71972538522843
30
0
41
1
10
48.3866795461327
20
-1.76886100290048
30
0
41
1
10
48.3805352103159
20
-1.7964076109231
30
0
41
1
10
48.3660527218087
20
-1.8548321016047
30
0
41
1
10
48.3577262953573
20
-1.88575115435367
30
0
41
1
10
48.3389643390626
20
-1.95090652150802
30
0
41
1
10
48.3285105548536
20
-1.9851538626765
30
0
41
1
10
48.2953267422269
20
-2.08867430450161
30
0
41
1
10
48.2700325196409
20
-2.16103492050456
30
0
41
1
10
48.2174365072151
20
-2.30148309946063
30
0
41
1
10
48.1896077026146
20
-2.37101217608344
30
0
41
1
10
48.1346228331844
20
-2.50038003481217
30
0
41
1
10
48.1068202864936
20
-2.56174961662057
30
0
41
1
10
48.067081985515
20
-2.64389016366502
30
0
41
1
10
48.0540973005768
20
-2.66977717406491
30
0
41
1
10
48.0286504607153
20
-2.71856656887817
30
0
41
1
10
48.0161415944157
20
-2.74153807651973
30
0
41
1
10
47.9803979099762
20
-2.80409686366065
30
0
41
1
10
47.9585878124485
20
-2.83811661394879
30
0
41
1
10
47.9389690155779
20
-2.86379443213261
30
0
0
SPLINE
5
EB
100
AcDbEntity
8
1
62
256
6
ByLayer
370
18
48
1
60
0
100
AcDbSpline
70
4
71
3
72
14
73
10
40
0
40
0
40
0
40
0
40
0.38642075388759
40
0.38642075388759
40
0.579631130831381
40
0.579631130831381
40
0.772841507775173
40
0.772841507775173
40
1
40
1
40
1
40
1
41
1
10
18.0634030983106
20
-4.55348663325631
30
0
41
1
10
18.3702591584123
20
-4.60830534079042
30
0
41
1
10
18.6774112700056
20
-4.65224867657986
30
0
41
1
10
19.1375817077977
20
-4.70279772861196
30
0
41
1
10
19.2908833980991
20
-4.71706936297056
30
0
41
1
10
19.5971831212787
20
-4.74043628344367
30
0
41
1
10
19.7500401810791
20
-4.7495393064174
30
0
41
1
10
20.0833160063235
20
-4.76348449925158
30
0
41
1
10
20.2639447005402
20
-4.76735037347547
30
0
41
1
10
20.4446809406541
20
-4.76755684750245
30
0
0
SPLINE
5
EC
100
AcDbEntity
8
1
62
256
6
ByLayer
370
18
48
1
60
0
100
AcDbSpline
70
4
71
3
72
34
73
30
40
0
40
0
40
0
40
0
40
0.0468930798797789
40
0.0468930798797789
40
0.142203771891803
40
0.142203771891803
40
0.189859117897814
40
0.189859117897814
40
0.237514463903826
40
0.237514463903826
40
0.332825155915847
40
0.332825155915847
40
0.428135847927867
40
0.428135847927867
40
0.475791193933876
40
0.475791193933876
40
0.523446539939885
40
0.523446539939885
40
0.618757231951905
40
0.618757231951905
40
0.666412577957917
40
0.666412577957917
40
0.714067923963929
40
0.714067923963929
40
0.809378615975953
40
0.809378615975953
40
0.904689307987976
40
0.904689307987976
40
1
40
1
40
1
40
1
41
1
10
37.8454301821838
20
2.75594884933102
30
0
41
1
10
37.9958884733923
20
2.8303174857605
30
0
41
1
10
38.1464139282481
20
2.90323113475415
30
0
41
1
10
38.6039560546017
20
3.11873350640227
30
0
41
1
10
38.9117942953321
20
3.25650079003608
30
0
41
1
10
39.3711935414224
20
3.45251398797512
30
0
41
1
10
39.523907972894
20
3.51626908333856
30
0
41
1
10
39.82975448223
20
3.63917640496527
30
0
41
1
10
39.9828380476318
20
3.69840054949674
30
0
41
1
10
40.4422741344957
20
3.86978791792021
30
0
41
1
10
40.7487265443853
20
3.97578392283415
30
0
41
1
10
41.3612276372655
20
4.17150569247508
30
0
41
1
10
41.6683499595512
20
4.25987528003571
30
0
41
1
10
42.1280518351143
20
4.37757980783942
30
0
41
1
10
42.2811814248625
20
4.41442015510441
30
0
41
1
10
42.5871106148794
20
4.48335949117637
30
0
41
1
10
42.7397781707065
20
4.51552539900399
30
0
41
1
10
43.1982224946513
20
4.60426851571046
30
0
41
1
10
43.5049684756295
20
4.65293331561065
30
0
41
1
10
43.9656559194757
20
4.71077522483859
30
0
41
1
10
44.1190965156817
20
4.7274802038925
30
0
41
1
10
44.425163212661
20
4.75567959403512
30
0
41
1
10
44.5779601071959
20
4.76713805513302
30
0
41
1
10
45.0370314644725
20
4.79340580911281
30
0
41
1
10
45.3434596654695
20
4.80030990502615
30
0
41
1
10
45.955955879623
20
4.79298241506532
30
0
41
1
10
46.2621470237353
20
4.778500080843
30
0
41
1
10
46.8755968610982
20
4.72869877793036
30
0
41
1
10
47.1821164171211
20
4.69348345063685
30
0
41
1
10
47.4877912799104
20
4.64768642651012
30
0
0
SPLINE
5
ED
100
AcDbEntity
8
1
62
256
6
ByLayer
370
18
48
1
60
0
100
AcDbSpline
70
4
71
3
72
56
73
52
40
0
40
0
40
0
40
0
40
0.124999999999998
40
0.124999999999998
40
0.249999999999996
40
0.249999999999996
40
0.374999999999994
40
0.374999999999994
40
0.437499999999993
40
0.437499999999993
40
0.468749999999992
40
0.468749999999992
40
0.499999999999992
40
0.499999999999992
40
0.531249999999991
40
0.531249999999991
40
0.562499999999991
40
0.562499999999991
40
0.59374999999999
40
0.59374999999999
40
0.62499999999999
40
0.62499999999999
40
0.65624999999999
40
0.65624999999999
40
0.67187499999999
40
0.67187499999999
40
0.687499999999989
40
0.687499999999989
40
0.718749999999989
40
0.718749999999989
40
0.73437499999999
40
0.73437499999999
40
0.74999999999999
40
0.74999999999999
40
0.781249999999991
40
0.781249999999991
40
0.812499999999992
40
0.812499999999992
40
0.843749999999992
40
0.843749999999992
40
0.859374999999993
40
0.859374999999993
40
0.874999999999993
40
0.874999999999993
40
0.906249999999994
40
0.906249999999994
40
0.921874999999995
40
0.921874999999995
40
0.937499999999996
40
0.937499999999996
40
1
40
1
40
1
40
1
41
1
10
44.3051563966487
20
-0.7712873484559
30
0
41
1
10
44.5194747976493
20
-0.860453135758974
30
0
41
1
10
44.734886438382
20
-0.944368595913431
30
0
41
1
10
45.1661861399465
20
-1.0889765205101
30
0
41
1
10
45.3821534284402
20
-1.14900968431175
30
0
41
1
10
45.8147719674948
20
-1.2426369330143
30
0
41
1
10
46.031433853792
20
-1.27581988535042
30
0
41
1
10
46.3570376913538
20
-1.30197532595341
30
0
41
1
10
46.4658329793867
20
-1.3067500706328
30
0
41
1
10
46.6283708809658
20
-1.30759681062813
30
0
41
1
10
46.6824608031552
20
-1.30683531716713
30
0
41
1
10
46.7903886393991
20
-1.30317305005232
30
0
41
1
10
46.8443512893915
20
-1.3010411531657
30
0
41
1
10
46.9513337070061
20
-1.29046659876477
30
0
41
1
10
47.0044085646979
20
-1.28274399539336
30
0
41
1
10
47.1093735534959
20
-1.26158841611792
30
0
41
1
10
47.1614290373339
20
-1.24808252243275
30
0
41
1
10
47.2627798401788
20
-1.21433640270956
30
0
41
1
10
47.3112546210609
20
-1.19156696998726
30
0
41
1
10
47.4055307703427
20
-1.13886492646765
30
0
41
1
10
47.4511812997008
20
-1.10852815547338
30
0
41
1
10
47.5388708828536
20
-1.03817797632388
30
0
41
1
10
47.5806812262005
20
-0.998555942876123
30
0
41
1
10
47.6369695304533
20
-0.930754307925554
30
0
41
1
10
47.6547053880755
20
-0.906667270036877
30
0
41
1
10
47.6878141197639
20
-0.855072683492722
30
0
41
1
10
47.7032208742405
20
-0.827443638917202
30
0
41
1
10
47.7447072315631
20
-0.741751021718471
30
0
41
1
10
47.7663629538286
20
-0.68011356433118
30
0
41
1
10
47.7892140637332
20
-0.580420731131596
30
0
41
1
10
47.7952738770456
20
-0.545815063090657
30
0
41
1
10
47.8041650745397
20
-0.476100645905518
30
0
41
1
10
47.8070690068786
20
-0.440835592591697
30
0
41
1
10
47.8114771092064
20
-0.333901898949563
30
0
41
1
10
47.8084945746846
20
-0.260387152255134
30
0
41
1
10
47.7921923970559
20
-0.115097409030312
30
0
41
1
10
47.779438873226
20
-0.0430329502301561
30
0
41
1
10
47.7427024199052
20
0.0996798276751463
30
0
41
1
10
47.7204520778076
20
0.170111478899571
30
0
41
1
10
47.6833305513153
20
0.273733193129345
30
0
41
1
10
47.6702948127589
20
0.307942413463223
30
0
41
1
10
47.6431092723997
20
0.375727010585052
30
0
41
1
10
47.6287853763965
20
0.409181620133268
30
0
41
1
10
47.5855765080733
20
0.509375850186672
30
0
41
1
10
47.5584212338031
20
0.577172033162327
30
0
41
1
10
47.5192935666453
20
0.679759782157447
30
0
41
1
10
47.5058601062921
20
0.713780419306403
30
0
41
1
10
47.479780168544
20
0.782169748574574
30
0
41
1
10
47.4670128678405
20
0.816483538685929
30
0
41
1
10
47.4046787370314
20
0.988708857991867
30
0
41
1
10
47.3603674642022
20
1.12891647758738
30
0
41
1
10
47.3200867568652
20
1.27088500325814
30
0
0
SPLINE
5
EE
100
AcDbEntity
8
1
62
256
6
ByLayer
370
18
48
1
60
0
100
AcDbSpline
70
4
71
3
72
94
73
90
40
0
40
0
40
0
40
0
40
0.0051845044236451
40
0.0051845044236451
40
0.0243155716462678
40
0.0243155716462678
40
0.0434466388688905
40
0.0434466388688905
40
0.0625777060915132
40
0.0625777060915132
40
0.0817087733141359
40
0.0817087733141359
40
0.119970907759381
40
0.119970907759381
40
0.139101974982004
40
0.139101974982004
40
0.158233042204627
40
0.158233042204627
40
0.177364109427249
40
0.177364109427249
40
0.196495176649872
40
0.196495176649872
40
0.234757311095117
40
0.234757311095117
40
0.25388837831774
40
0.25388837831774
40
0.273019445540363
40
0.273019445540363
40
0.292150512762985
40
0.292150512762985
40
0.311281579985608
40
0.311281579985608
40
0.349543714430854
40
0.349543714430854
40
0.368674781653476
40
0.368674781653476
40
0.387805848876099
40
0.387805848876099
40
0.406936916098722
40
0.406936916098722
40
0.426067983321344
40
0.426067983321344
40
0.464330117766589
40
0.464330117766589
40
0.483461184989211
40
0.483461184989211
40
0.502592252211833
40
0.502592252211833
40
0.540854386657076
40
0.540854386657076
40
0.57911652110232
40
0.57911652110232
40
0.598247588324941
40
0.598247588324941
40
0.617378655547563
40
0.617378655547563
40
0.655640789992806
40
0.655640789992806
40
0.674771857215428
40
0.674771857215428
40
0.69390292443805
40
0.69390292443805
40
0.713033991660672
40
0.713033991660672
40
0.732165058883294
40
0.732165058883294
40
0.751296126105916
40
0.751296126105916
40
0.770427193328537
40
0.770427193328537
40
0.789558260551159
40
0.789558260551159
40
0.808689327773781
40
0.808689327773781
40
0.827820394996403
40
0.827820394996403
40
0.846951462219025
40
0.846951462219025
40
0.885213596664269
40
0.885213596664269
40
0.904344663886891
40
0.904344663886891
40
0.923475731109512
40
0.923475731109512
40
0.942606798332134
40
0.942606798332134
40
0.961737865554756
40
0.961737865554756
40
1
40
1
40
1
40
1
41
1
10
37.84103988105
20
-2.75875380263
30
0
41
1
10
37.7912913921067
20
-2.78168237515266
30
0
41
1
10
37.7415443817446
20
-2.8044495330995
30
0
41
1
10
37.5082214773878
20
-2.91046720915637
30
0
41
1
10
37.3246405987899
20
-2.99164262270995
30
0
41
1
10
36.9574896299686
20
-3.14898504434078
30
0
41
1
10
36.7740257863834
20
-3.22534072988208
30
0
41
1
10
36.40667674228
20
-3.37310790661402
30
0
41
1
10
36.222652491231
20
-3.4445603873796
30
0
41
1
10
35.8543215555032
20
-3.58131249172908
30
0
41
1
10
35.6704075338218
20
-3.64622064943794
30
0
41
1
10
35.1194098944877
20
-3.83299705492269
30
0
41
1
10
34.7528407780479
20
-3.9466912448882
30
0
41
1
10
34.2020158917781
20
-4.0956341846684
30
0
41
1
10
34.0182682710738
20
-4.14218657164608
30
0
41
1
10
33.6505567301579
20
-4.22923200374288
30
0
41
1
10
33.4665292324026
20
-4.26969572434498
30
0
41
1
10
33.0987049387226
20
-4.34299411085931
30
0
41
1
10
32.9149373509525
20
-4.37567884253241
30
0
41
1
10
32.5474779520493
20
-4.43468381632931
30
0
41
1
10
32.3638347521976
20
-4.46087458165314
30
0
41
1
10
31.813350344109
20
-4.52835125616764
30
0
41
1
10
31.4465710849287
20
-4.55777235779814
30
0
41
1
10
30.8946718142209
20
-4.58212249746447
30
0
41
1
10
30.7103211010291
20
-4.58659500230743
30
0
41
1
10
30.3424643758598
20
-4.58802968558683
30
0
41
1
10
30.1589552569918
20
-4.58497001376239
30
0
41
1
10
29.7918783888094
20
-4.57161990106798
30
0
41
1
10
29.6083301293235
20
-4.56145525338974
30
0
41
1
10
29.2411281484954
20
-4.53337537450494
30
0
41
1
10
29.0575147617303
20
-4.51507321541837
30
0
41
1
10
28.5065892677364
20
-4.4492134192318
30
0
41
1
10
28.1382978439782
20
-4.3928439495206
30
0
41
1
10
27.5865927588025
20
-4.28788883003992
30
0
41
1
10
27.4028408167391
20
-4.24960175970719
30
0
41
1
10
27.0356763600299
20
-4.16629562612735
30
0
41
1
10
26.8523969098428
20
-4.12128172792384
30
0
41
1
10
26.4854784178943
20
-4.02293867609805
30
0
41
1
10
26.3018510859532
20
-3.96995569718999
30
0
41
1
10
25.9342060656704
20
-3.85897242290579
30
0
41
1
10
25.7502759391165
20
-3.80088549809568
30
0
41
1
10
25.198061984726
20
-3.61715965161426
30
0
41
1
10
24.8307442098319
20
-3.48309159000866
30
0
41
1
10
24.2799721010128
20
-3.26650861249362
30
0
41
1
10
24.0964213152295
20
-3.19172546691624
30
0
41
1
10
23.7293637854728
20
-3.03520683786024
30
0
41
1
10
23.5459500130021
20
-2.95392002795776
30
0
41
1
10
22.9946903286392
20
-2.70592861699498
30
0
41
1
10
22.6257280967049
20
-2.53266073015567
30
0
41
1
10
21.8911125094656
20
-2.1702162291219
30
0
41
1
10
21.5245662502567
20
-1.98167683106357
30
0
41
1
10
20.9737069210247
20
-1.68880522324946
30
0
41
1
10
20.7899572234669
20
-1.59005421933483
30
0
41
1
10
20.4223162149
20
-1.38996565240703
30
0
41
1
10
20.2383398750576
20
-1.28827327503936
30
0
41
1
10
19.6864063896976
20
-0.981631433901782
30
0
41
1
10
19.3189289919471
20
-0.774723994847136
30
0
41
1
10
18.7684932515629
20
-0.460522334732247
30
0
41
1
10
18.5850848481169
20
-0.355164915139284
30
0
41
1
10
18.2179252594905
20
-0.144109998849643
30
0
41
1
10
18.0341551573524
20
-0.0385580947916537
30
0
41
1
10
17.6661594561343
20
0.172568048523544
30
0
41
1
10
17.4818077572587
20
0.278229318388782
30
0
41
1
10
17.1140079193812
20
0.488896782255239
30
0
41
1
10
16.9304844895935
20
0.59411009449974
30
0
41
1
10
16.5632120258292
20
0.802638625767315
30
0
41
1
10
16.3795652374247
20
0.906127655825856
30
0
41
1
10
16.0122665411469
20
1.11148710393911
30
0
41
1
10
15.8286972682527
20
1.21337407132384
30
0
41
1
10
15.4613748615896
20
1.41531831962203
30
0
41
1
10
15.2776372495727
20
1.51549126652912
30
0
41
1
10
14.9095962544287
20
1.71328469818454
30
0
41
1
10
14.7253286241821
20
1.81077185384839
30
0
41
1
10
14.3575243491648
20
2.00218627009968
30
0
41
1
10
14.1737992630916
20
2.09628777578638
30
0
41
1
10
13.8068156624816
20
2.2813492243649
30
0
41
1
10
13.6235730586132
20
2.37223822874196
30
0
41
1
10
13.0732050425605
20
2.63757694615455
30
0
41
1
10
12.7058852584052
20
2.80621030199228
30
0
41
1
10
12.1542397963937
20
3.04719344311081
30
0
41
1
10
11.9700102539654
20
3.12539400079945
30
0
41
1
10
11.602156427861
20
3.27613116596049
30
0
41
1
10
11.4184065543111
20
3.34873587443735
30
0
41
1
10
11.0511814718106
20
3.4880387815154
30
0
41
1
10
10.8676971047969
20
3.55465777729356
30
0
41
1
10
10.501110585265
20
3.68198066831488
30
0
41
1
10
10.3179252239472
20
3.74264926586608
30
0
41
1
10
9.76758719277041
20
3.91603570927111
30
0
41
1
10
9.39994287343359
20
4.02029209046339
30
0
41
1
10
9.0316734859496
20
4.1121685737408
30
0
0
SPLINE
5
EF
100
AcDbEntity
8
SK1
62
256
6
ByLayer
370
18
48
1
60
0
100
AcDbSpline
70
4
71
3
72
14
73
10
40
0
40
0
40
0
40
0
40
0.499999999999995
40
0.499999999999995
40
0.749999999999998
40
0.749999999999998
40
0.874999999999999
40
0.874999999999999
40
1
40
1
40
1
40
1
41
1
10
-38.9500000000001
20
0.865916894995678
30
0
41
1
10
-38.9287234691649
20
0.862801794096924
30
0
41
1
10
-38.9083432483059
20
0.853610136790451
30
0
41
1
10
-38.880223151313
20
0.827813245998158
30
0
41
1
10
-38.8713218079587
20
0.817157697530547
30
0
41
1
10
-38.8602667834558
20
0.796558051630285
30
0
41
1
10
-38.8569157654531
20
0.788832116716463
30
0
41
1
10
-38.851744720606
20
0.770802961275081
30
0
41
1
10
-38.8499999999999
20
0.760539769456472
30
0
41
1
10
-38.8499999999999
20
0.749606071052909
30
0
0
SPLINE
5
F0
100
AcDbEntity
8
SK1
62
256
6
ByLayer
370
18
48
1
60
0
100
AcDbSpline
70
4
71
3
72
14
73
10
40
0
40
0
40
0
40
0
40
0.125000000000004
40
0.125000000000004
40
0.250000000000007
40
0.250000000000007
40
0.500000000000008
40
0.500000000000008
40
1
40
1
40
1
40
1
41
1
10
-38.85
20
1.54271695767932
30
0
41
1
10
-38.85
20
1.55320976012121
30
0
41
1
10
-38.8517453396944
20
1.56259277693127
30
0
41
1
10
-38.8568901241517
20
1.57838632507475
30
0
41
1
10
-38.860211966304
20
1.58483421824857
30
0
41
1
10
-38.8714485682308
20
1.60172067851519
30
0
41
1
10
-38.8802054040538
20
1.60919160765187
30
0
41
1
10
-38.9082792076556
20
1.62586883809212
30
0
41
1
10
-38.9286347141248
20
1.62886666655859
30
0
41
1
10
-38.95
20
1.62573857101768
30
0
0
SPLINE
5
F1
100
AcDbEntity
8
SK1
62
256
6
ByLayer
370
18
48
1
60
0
100
AcDbSpline
70
4
71
3
72
14
73
10
40
0
40
0
40
0
40
0
40
0.500000000000008
40
0.500000000000008
40
0.750000000000007
40
0.750000000000007
40
0.875000000000004
40
0.875000000000004
40
1
40
1
40
1
40
1
41
1
10
-38.9500000000001
20
-0.86591689499565
30
0
41
1
10
-38.9287234691649
20
-0.862801794096896
30
0
41
1
10
-38.9083432483059
20
-0.853610136790451
30
0
41
1
10
-38.880223151313
20
-0.827813245998158
30
0
41
1
10
-38.8713218079587
20
-0.817157697530547
30
0
41
1
10
-38.8602667834558
20
-0.796558051630285
30
0
41
1
10
-38.8569157654531
20
-0.788832116716435
30
0
41
1
10
-38.851744720606
20
-0.770802961275081
30
0
41
1
10
-38.8499999999999
20
-0.760539769456472
30
0
41
1
10
-38.8499999999999
20
-0.749606071052909
30
0
0
SPLINE
5
F2
100
AcDbEntity
8
SK1
62
256
6
ByLayer
370
18
48
1
60
0
100
AcDbSpline
70
4
71
3
72
10
73
6
40
0
40
0
40
0
40
0
40
0.5
40
0.5
40
1
40
1
40
1
40
1
41
1
10
-38.95
20
1.62573857101768
30
0
41
1
10
-39.1280984095141
20
1.59966314923753
30
0
41
1
10
-39.3053213595353
20
1.57354565857293
30
0
41
1
10
-39.6562549479949
20
1.52115958278554
30
0
41
1
10
-39.8300721728764
20
1.49489562916813
30
0
41
1
10
-39.9999999999998
20
1.46846446860241
30
0
0
SPLINE
5
F3
100
AcDbEntity
8
SK1
62
256
6
ByLayer
370
18
48
1
60
0
100
AcDbSpline
70
4
71
3
72
10
73
6
40
0
40
0
40
0
40
0
40
0.5
40
0.5
40
1
40
1
40
1
40
1
41
1
10
-40
20
-1.02319099741087
30
0
41
1
10
-39.8300124419111
20
-0.996750546084655
30
0
41
1
10
-39.6561823233062
20
-0.970484957952579
30
0
41
1
10
-39.3052676864457
20
-0.918101879477746
30
0
41
1
10
-39.1280771996716
20
-0.89198921143867
30
0
41
1
10
-38.95
20
-0.865916894995564
30
0
0
SPLINE
5
F4
100
AcDbEntity
8
SK1
62
256
6
ByLayer
370
18
48
1
60
0
100
AcDbSpline
70
4
71
3
72
10
73
6
40
0
40
0
40
0
40
0
40
0.5
40
0.5
40
1
40
1
40
1
40
1
41
1
10
-40
20
1.02319099741087
30
0
41
1
10
-39.8300124419111
20
0.996750546084655
30
0
41
1
10
-39.6561823233062
20
0.970484957952579
30
0
41
1
10
-39.3052676864457
20
0.918101879477746
30
0
41
1
10
-39.1280771996716
20
0.89198921143867
30
0
41
1
10
-38.95
20
0.865916894995564
30
0
0
LINE
5
76
100
AcDbEntity
8
81
62
256
6
ByLayer
370
18
48
1
60
0
100
AcDbLine
10
49
20
0
30
0
11
54
21
0
31
0
39
0
210
0
220
0
230
1
0
LINE
5
77
100
AcDbEntity
8
1
62
256
6
ByLayer
370
18
48
1
60
0
100
AcDbLine
10
4.006964
20
4.747823
30
0
11
0.86901
21
4.744057
31
0
39
0
210
0
220
0
230
1
0
LINE
5
79
100
AcDbEntity
8
1
62
256
6
ByLayer
370
18
48
1
60
0
100
AcDbLine
10
20.954726
20
4.76816
30
0
11
20.445178
21
4.767549
31
0
39
0
210
0
220
0
230
1
0
LINE
5
7A
100
AcDbEntity
8
1
62
256
6
ByLayer
370
18
48
1
60
0
100
AcDbLine
10
45.955133
20
4.798161
30
0
11
45.473325
21
4.797583
31
0
39
0
210
0
220
0
230
1
0
LINE
5
7B
100
AcDbEntity
8
1
62
256
6
ByLayer
370
18
48
1
60
0
100
AcDbLine
10
45.473325
20
-4.797583
30
0
11
45.954549
21
-4.79816
31
0
39
0
210
0
220
0
230
1
0
LINE
5
7C
100
AcDbEntity
8
1
62
256
6
ByLayer
370
18
48
1
60
0
100
AcDbLine
10
20.445178
20
-4.767549
30
0
11
20.954781
21
-4.76816
31
0
39
0
210
0
220
0
230
1
0
LINE
5
7D
100
AcDbEntity
8
1
62
256
6
ByLayer
370
18
48
1
60
0
100
AcDbLine
10
0.86901
20
-4.744057
30
0
11
4.006964
21
-4.747823
31
0
39
0
210
0
220
0
230
1
0
LINE
5
7E
100
AcDbEntity
8
SK1
62
256
6
ByLayer
370
18
48
1
60
0
100
AcDbLine
10
0
20
5
30
0
11
-38.845299
21
5
31
0
39
0
210
0
220
0
230
1
0
LINE
5
80
100
AcDbEntity
8
SK1
62
256
6
ByLayer
370
18
48
1
60
0
100
AcDbLine
10
-38.845299
20
-5
30
0
11
0
21
-5
31
0
39
0
210
0
220
0
230
1
0
LINE
5
81
100
AcDbEntity
8
SK1
62
256
6
ByLayer
370
18
48
1
60
0
100
AcDbLine
10
-38.845299
20
5
30
0
11
-40
21
3
31
0
39
0
210
0
220
0
230
1
0
LINE
5
82
100
AcDbEntity
8
SK1
62
256
6
ByLayer
370
18
48
1
60
0
100
AcDbLine
10
-40
20
-3
30
0
11
-38.845299
21
-5
31
0
39
0
210
0
220
0
230
1
0
LINE
5
83
100
AcDbEntity
8
4
62
256
6
ByLayer
370
18
48
0.05
60
0
100
AcDbLine
10
49
20
0
30
0
11
0
21
0
31
0
39
0
210
0
220
0
230
1
0
LINE
5
85
100
AcDbEntity
8
SK4
62
256
6
ByLayer
370
18
48
0.05
60
0
100
AcDbLine
10
54
20
0
30
0
11
-45
21
0
31
0
39
0
210
0
220
0
230
1
0
LINE
5
87
100
AcDbEntity
8
80
62
256
6
ByLayer
370
18
48
1
60
0
100
AcDbLine
10
0
20
0
30
0
11
-5
21
0
31
0
39
0
210
0
220
0
230
1
0
LINE
5
88
100
AcDbEntity
8
1
62
256
6
ByLayer
370
18
48
1
60
0
100
AcDbLine
10
47.938969
20
-2.863794
30
0
11
47.304869
21
-4.60597
31
0
39
0
210
0
220
0
230
1
0
LINE
5
89
100
AcDbEntity
8
1
62
256
6
ByLayer
370
18
48
1
60
0
100
AcDbLine
10
48.999063
20
-0.056911
30
0
11
49
21
-0.051364
31
0
39
0
210
0
220
0
230
1
0
LINE
5
8A
100
AcDbEntity
8
1
62
256
6
ByLayer
370
13
48
1
60
0
100
AcDbLine
10
48.784885
20
0.014331
30
0
11
48.947954
21
-0.084181
31
0
39
0
210
0
220
0
230
1
0
LINE
5
8B
100
AcDbEntity
8
1
62
256
6
ByLayer
370
13
48
1
60
0
100
AcDbLine
10
0.86901
20
4.744057
30
0
11
0.86901
21
-4.744057
31
0
39
0
210
0
220
0
230
1
0
LINE
5
8C
100
AcDbEntity
8
1
62
256
6
ByLayer
370
18
48
1
60
0
100
AcDbLine
10
48.918909
20
-0.455493
30
0
11
48.97939
21
-0.143852
31
0
39
0
210
0
220
0
230
1
0
LINE
5
8D
100
AcDbEntity
8
1
62
256
6
ByLayer
370
13
48
1
60
0
100
AcDbLine
10
48.909755
20
0.185919
30
0
11
48.97939
21
0.143852
31
0
39
0
210
0
220
0
230
1
0
LINE
5
8E
100
AcDbEntity
8
1
62
256
6
ByLayer
370
13
48
1
60
0
100
AcDbLine
10
4.248505
20
2.391284
30
0
11
4.250446
21
2.39407
31
0
39
0
210
0
220
0
230
1
0
LINE
5
8F
100
AcDbEntity
8
1
62
256
6
ByLayer
370
18
48
1
60
0
100
AcDbLine
10
48.953829
20
-0.075489
30
0
11
48.399481
21
-1.598549
31
0
39
0
210
0
220
0
230
1
0
LINE
5
90
100
AcDbEntity
8
1
62
256
6
ByLayer
370
18
48
1
60
0
100
AcDbLine
10
49
20
0.051364
30
0
11
48.999063
21
0.056911
31
0
39
0
210
0
220
0
230
1
0
LINE
5
91
100
AcDbEntity
8
1
62
256
6
ByLayer
370
18
48
1
60
0
100
AcDbLine
10
0
20
-5
30
0
11
0
21
5
31
0
39
0
210
0
220
0
230
1
0
LINE
5
92
100
AcDbEntity
8
1
62
256
6
ByLayer
370
18
48
1
60
0
100
AcDbLine
10
49
20
0.051364
30
0
11
49
21
-0.051364
31
0
39
0
210
0
220
0
230
1
0
LINE
5
93
100
AcDbEntity
8
1
62
256
6
ByLayer
370
13
48
1
60
0
100
AcDbLine
10
48.823325
20
0.929121
30
0
11
47.947716
21
0.98605
31
0
39
0
210
0
220
0
230
1
0
LINE
5
94
100
AcDbEntity
8
1
62
256
6
ByLayer
370
18
48
1
60
0
100
AcDbLine
10
48.918909
20
0.455493
30
0
11
48.97939
21
0.143852
31
0
39
0
210
0
220
0
230
1
0
LINE
5
95
100
AcDbEntity
8
1
62
256
6
ByLayer
370
18
48
1
60
0
100
AcDbLine
10
48.823325
20
0.929121
30
0
11
48.918909
21
0.455493
31
0
39
0
210
0
220
0
230
1
0
LINE
5
96
100
AcDbEntity
8
1
62
256
6
ByLayer
370
18
48
1
60
0
100
AcDbLine
10
48.823325
20
-0.929121
30
0
11
48.918909
21
-0.455493
31
0
39
0
210
0
220
0
230
1
0
LINE
5
97
100
AcDbEntity
8
1
62
256
6
ByLayer
370
18
48
1
60
0
100
AcDbLine
10
49
20
0.051364
30
0
11
48.997202
21
0.043676
31
0
39
0
210
0
220
0
230
1
0
LINE
5
98
100
AcDbEntity
8
1
62
256
6
ByLayer
370
13
48
1
60
0
100
AcDbLine
10
0.434025
20
4.872028
30
0
11
0.434025
21
-4.872028
31
0
39
0
210
0
220
0
230
1
0
LINE
5
99
100
AcDbEntity
8
1
62
256
6
ByLayer
370
18
48
1
60
0
100
AcDbLine
10
46.533978
20
-3.478195
30
0
11
48.947954
21
-0.084181
31
0
39
0
210
0
220
0
230
1
0
LINE
5
9A
100
AcDbEntity
8
1
62
256
6
ByLayer
370
13
48
1
60
0
100
AcDbLine
10
47.796261
20
0.809462
30
0
11
48.784885
21
0.014331
31
0
39
0
210
0
220
0
230
1
0
LINE
5
9B
100
AcDbEntity
8
1
62
256
6
ByLayer
370
18
48
1
60
0
100
AcDbLine
10
48.918909
20
0.455493
30
0
11
48.918909
21
0.204939
31
0
39
0
210
0
220
0
230
1
0
LINE
5
9C
100
AcDbEntity
8
1
62
256
6
ByLayer
370
13
48
1
60
0
100
AcDbLine
10
48.918909
20
0.204939
30
0
11
47.947716
21
0.98605
31
0
39
0
210
0
220
0
230
1
0
LINE
5
9D
100
AcDbEntity
8
SK1
62
256
6
ByLayer
370
18
48
1
60
0
100
AcDbLine
10
-40
20
3
30
0
11
-40
21
1.468464
31
0
39
0
210
0
220
0
230
1
0
LINE
5
9E
100
AcDbEntity
8
SK1
62
256
6
ByLayer
370
18
48
1
60
0
100
AcDbLine
10
-40
20
1.468464
30
0
11
-40
21
1.023191
31
0
39
0
210
0
220
0
230
1
0
LINE
5
9F
100
AcDbEntity
8
SK1
62
256
6
ByLayer
370
18
48
1
60
0
100
AcDbLine
10
-38.85
20
-0.749606
30
0
11
-38.85
21
1.542717
31
0
39
0
210
0
220
0
230
1
0
LINE
5
A0
100
AcDbEntity
8
SK1
62
256
6
ByLayer
370
18
48
1
60
0
100
AcDbLine
10
0
20
-5
30
0
11
0
21
5
31
0
39
0
210
0
220
0
230
1
0
LINE
5
A1
100
AcDbEntity
8
SK1
62
256
6
ByLayer
370
13
48
1
60
0
100
AcDbLine
10
-38.95
20
1.625739
30
0
11
-38.95
21
0.865917
31
0
39
0
210
0
220
0
230
1
0
LINE
5
A2
100
AcDbEntity
8
SK1
62
256
6
ByLayer
370
18
48
1
60
0
100
AcDbLine
10
-40
20
-1.023191
30
0
11
-40
21
-3
31
0
39
0
210
0
220
0
230
1
0
LINE
5
A3
100
AcDbEntity
8
SK1
62
256
6
ByLayer
370
18
48
1
60
0
100
AcDbLine
10
-38.845299
20
5
30
0
11
-38.845299
21
-5
31
0
39
0
210
0
220
0
230
1
0
MTEXT
5
F5
100
AcDbEntity
8
SK6
62
256
6
ByLayer
370
13
48
1
60
0
100
AcDbMText
10
6.629169
20
37.182694
30
0
210
0
220
0
230
1
1
\W0.7542;R846-0960-30-A1A1220
40
3.5
41
0
44
1.084337
50
0
71
8
72
5
7
iso_b_vert
0
DIMENSION
5
102
100
AcDbEntity
8
SK2
62
256
6
ByLayer
370
13
48
1
60
0
100
AcDbDimension
2
DimnDraft3D1
10
47.38
20
-15.013398
30
0
11
22.130059
21
-15.013398
31
0
70
32
71
5
72
1
41
1
210
0
220
0
230
1
3
Standard
100
AcDbAlignedDimension
13
0
23
-1.5875
33
0
14
47.38
24
-6.3875
34
0
50
0
100
AcDbRotatedDimension
1001
ACAD
1000
DSTYLE
1002
{
1070
   279
1070
     0
1070
   172
1070
     1
1070
   173
1070
     1
1070
   340
1005
F6
1070
   271
1070
     2
1070
   272
1070
     2
1070
    77
1070
     1
1070
    73
1070
     0
1070
   171
1070
     3
1070
   274
1070
     4
1070
   177
1070
    35
1070
   176
1070
    35
1070
   178
1070
    35
1070
    48
1040
-0.005
1070
    41
1041
3.5
1070
   147
1041
1.75
1070
    42
1041
1.5875
1070
    44
1041
2.0
1070
   140
1041
3.5
1070
   343
1005
0
1070
   344
1005
0
1002
}
0
DIMENSION
5
10C
100
AcDbEntity
8
SK2
62
256
6
ByLayer
370
13
48
1
60
0
100
AcDbDimension
2
DimnDraft3D2
10
49
20
-33.692985
30
0
11
4.2213
21
-33.692985
31
0
70
32
71
5
72
1
41
1
210
0
220
0
230
1
3
Standard
100
AcDbAlignedDimension
13
-40
23
-6.5875
33
0
14
49
24
-1.5875
34
0
50
0
100
AcDbRotatedDimension
1001
ACAD
1000
DSTYLE
1002
{
1070
   279
1070
     0
1070
   172
1070
     1
1070
   173
1070
     1
1070
   340
1005
F6
1070
   271
1070
     2
1070
   272
1070
     2
1070
    77
1070
     1
1070
    73
1070
     0
1070
   171
1070
     3
1070
   274
1070
     4
1070
   177
1070
    35
1070
   176
1070
    35
1070
   178
1070
    35
1070
    48
1040
-0.005
1070
    41
1041
3.5
1070
   147
1041
1.75
1070
    42
1041
1.5875
1070
    44
1041
2.0
1070
   140
1041
3.5
1070
   343
1005
0
1070
   344
1005
0
1002
}
0
DIMENSION
5
116
100
AcDbEntity
8
SK2
62
256
6
ByLayer
370
13
48
1
60
0
100
AcDbDimension
2
DimnDraft3D3
10
49
20
16.409119
30
0
11
33.79
21
16.409119
31
0
70
32
71
5
72
1
41
1
210
0
220
0
230
1
3
Standard
100
AcDbAlignedDimension
13
18.58
23
6.3875
33
0
14
49
24
1.5875
34
0
50
0
100
AcDbRotatedDimension
1001
ACAD
1000
DSTYLE
1002
{
1070
   279
1070
     0
1070
   172
1070
     1
1070
   173
1070
     1
1070
   340
1005
F6
1070
   271
1070
     2
1070
   272
1070
     2
1070
    77
1070
     1
1070
    73
1070
     0
1070
   171
1070
     3
1070
   274
1070
     4
1070
   177
1070
    35
1070
   176
1070
    35
1070
   178
1070
    35
1070
    48
1040
-0.005
1070
    41
1041
3.5
1070
   147
1041
1.75
1070
    42
1041
1.5875
1070
    44
1041
2.0
1070
   140
1041
3.5
1070
   343
1005
0
1070
   344
1005
0
1002
}
0
DIMENSION
5
120
100
AcDbEntity
8
SK2
62
256
6
ByLayer
370
13
48
1
60
0
100
AcDbDimension
2
DimnDraft3D4
10
47.38
20
-17.602503
30
0
11
58.981425
21
-17.602503
31
0
70
32
71
5
72
1
41
1
210
0
220
0
230
1
3
Standard
100
AcDbAlignedDimension
13
49
23
-1.5875
33
0
14
47.38
24
-6.3875
34
0
50
0
100
AcDbRotatedDimension
1001
ACAD
1000
DSTYLE
1002
{
1070
   279
1070
     0
1070
   172
1070
     1
1070
   173
1070
     1
1070
   340
1005
F6
1070
   271
1070
     2
1070
   272
1070
     2
1070
    77
1070
     1
1070
    73
1070
     0
1070
   171
1070
     3
1070
   274
1070
     4
1070
   177
1070
    35
1070
   176
1070
    35
1070
   178
1070
    35
1070
    48
1040
-0.005
1070
    41
1041
3.5
1070
   147
1041
1.75
1070
    42
1041
1.5875
1070
    44
1041
2.0
1070
   140
1041
3.5
1070
   343
1005
0
1070
   344
1005
0
1002
}
0
DIMENSION
5
12A
100
AcDbEntity
8
SK2
62
256
6
ByLayer
370
13
48
1
60
0
100
AcDbDimension
2
DimnDraft3D5
10
47.38
20
-23.343428
30
0
11
1.140676
21
-23.343428
31
0
70
32
71
5
72
1
41
1
210
0
220
0
230
1
3
Standard
100
AcDbAlignedDimension
13
-40
23
-6.5875
33
0
14
47.38
24
-6.3875
34
0
50
0
100
AcDbRotatedDimension
1001
ACAD
1000
DSTYLE
1002
{
1070
   279
1070
     0
1070
   172
1070
     1
1070
   173
1070
     1
1070
   340
1005
F6
1070
   271
1070
     2
1070
   272
1070
     2
1070
    77
1070
     1
1070
    73
1070
     0
1070
   171
1070
     3
1070
   274
1070
     4
1070
   177
1070
    35
1070
   176
1070
    35
1070
   178
1070
    35
1070
    48
1040
-0.005
1070
    41
1041
3.5
1070
   147
1041
1.75
1070
    42
1041
1.5875
1070
    44
1041
2.0
1070
   140
1041
3.5
1070
   343
1005
0
1070
   344
1005
0
1002
}
0
DIMENSION
5
135
100
AcDbEntity
8
SK2
62
256
6
ByLayer
370
13
48
1
60
0
100
AcDbDimension
2
DimnDraft3D6
10
-50.625163
20
5
30
0
11
-51.250163
21
23.47418
31
0
70
33
71
5
72
1
41
1
210
0
220
0
230
1
3
Standard
100
AcDbAlignedDimension
13
-41.5875
23
-5
33
0
14
-41.5875
24
5
34
0
1001
ACAD
1000
DSTYLE
1002
{
1070
   279
1070
     0
1070
    74
1070
     0
1070
   173
1070
     1
1070
   340
1005
F6
1070
   271
1070
     3
1070
   272
1070
     2
1070
    77
1070
     1
1070
    73
1070
     0
1070
   171
1070
     3
1070
   274
1070
     4
1070
   177
1070
    35
1070
   176
1070
    35
1070
   178
1070
    35
1070
    48
1040
-0.005
1070
    41
1041
3.5
1070
   147
1041
1.75
1070
    42
1041
1.5875
1070
    44
1041
2.0
1070
   140
1041
3.5
1070
   343
1005
0
1070
   344
1005
0
1002
}
0
DIMENSION
5
140
100
AcDbEntity
8
2
62
256
6
ByLayer
370
13
48
1
60
0
100
AcDbDimension
2
DimnDraft3D7
10
63.083343
20
4.8
30
0
11
58.458343
21
21.867266
31
0
70
33
71
5
72
1
41
1
210
0
220
0
230
1
3
Standard
100
AcDbAlignedDimension
13
48.9675
23
-4.8
33
0
14
48.9675
24
4.8
34
0
1001
ACAD
1000
DSTYLE
1002
{
1070
   279
1070
     0
1070
    74
1070
     0
1070
   173
1070
     1
1070
   340
1005
F6
1070
   271
1070
     3
1070
   272
1070
     2
1070
    77
1070
     1
1070
    73
1070
     0
1070
   171
1070
     3
1070
   274
1070
     4
1070
   177
1070
    35
1070
   176
1070
    35
1070
   178
1070
    35
1070
    48
1040
-0.005
1070
    41
1041
3.5
1070
   147
1041
1.75
1070
    42
1041
1.5875
1070
    44
1041
2.0
1070
   140
1041
3.5
1070
   343
1005
0
1070
   344
1005
0
1002
}
0
ENDSEC
0
SECTION
2
OBJECTS
0
DICTIONARY
5
1ab
330
0
100
AcDbDictionary
280
0
281
1
3
ACAD_GROUP
350
1ac
3
ACAD_MLINESTYLE
350
1ad
0
DICTIONARY
5
1ac
330
0
100
AcDbDictionary
280
0
281
1
0
DICTIONARY
5
1ad
330
0
100
AcDbDictionary
280
0
281
1
3
Standard
350
18
0
MLINESTYLE
5
18
330
1ad
100
AcDbMlineStyle
2
Standard
70
0
3

62
256
51
90
52
90
71
2
49
-0.5
62
256
6
ByLayer
49
0.5
62
256
6
ByLayer
0
RASTERVARIABLES
5
199
330

100
AcDbRasterVariables
90
0
70
1
71
1
72
1
0
ENDSEC
0
EOF
