0
SECTION
2
HEADER
9
$ACADVER
1
AC1015
9
$DWGCODEPAGE
3
ANSI_1252
9
$HANDSEED
5
1ad
9
$ANGBASE
50
0
9
$ANGDIR
70
0
9
$ATTMODE
70
1
9
$AUNITS
70
0
9
$AUPREC
70
0
9
$CECOLOR
62
256
9
$CELTSCALE
40
1
9
$CELTYPE
6
ByLayer
9
$CELWEIGHT
370
18
9
$CLAYER
8
0
9
$CMLJUST
70
0
9
$CMLSCALE
40
1
9
$CMLSTYLE
2
Standard
9
$DIMSTYLE
2
Standard
9
$TEXTSIZE
40
0.2
9
$TEXTSTYLE
7
Standard
9
$LUNITS
70
2
9
$LUPREC
70
4
9
$EXTNAMES
290
1
9
$INSUNITS
70
4
9
$LTSCALE
40
1
9
$LWDISPLAY
290
1
9
$PDMODE
70
0
9
$PDSIZE
40
0
9
$PLINEGEN
70
0
0
ENDSEC
0
SECTION
2
CLASSES
0
CLASS
1
RASTERVARIABLES
2
AcDbRasterVariables
3
ISM
90
0
280
0
281
0
0
ENDSEC
0
SECTION
2
TABLES
0
TABLE
2
VPORT
5
1a3
100
AcDbSymbolTable
0
VPORT
5
1
100
AcDbSymbolTableRecord
100
AcDbViewportTableRecord
2
*Active
70
0
10
0
20
0
11
1
21
1
12
-1
22
1
13
0
23
0
14
0.5
24
0.5
15
10
25
10
16
0
26
0
36
1
17
0
27
0
37
0
0
ENDTAB
0
TABLE
2
LTYPE
5
1a4
100
AcDbSymbolTable
0
LTYPE
5
14
100
AcDbSymbolTableRecord
100
AcDbLinetypeTableRecord
70
0
2
ByBlock
3

72
65
73
0
40
0
0
LTYPE
5
15
100
AcDbSymbolTableRecord
100
AcDbLinetypeTableRecord
70
0
2
ByLayer
3

72
65
73
0
40
0
0
LTYPE
5
16
100
AcDbSymbolTableRecord
100
AcDbLinetypeTableRecord
70
0
2
CONTINUOUS
3
Solid line
72
65
73
0
40
0
0
LTYPE
5
6A
100
AcDbSymbolTableRecord
100
AcDbLinetypeTableRecord
70
0
2
CENTER
3
____ _ ____ _ ____ _ ____
72
65
73
4
40
47.5
49
22
74
0
49
-8.5
74
0
49
8.5
74
0
49
-8.5
74
0
0
LTYPE
5
6B
100
AcDbSymbolTableRecord
100
AcDbLinetypeTableRecord
70
0
2
DASHED
3
__ __ __ __ __ __ __ __ __
72
65
73
2
40
25.72
49
12.86
74
0
49
-12.86
74
0
0
ENDTAB
0
TABLE
2
LAYER
5
1a5
100
AcDbSymbolTable
0
LAYER
5
10
100
AcDbSymbolTableRecord
100
AcDbLayerTableRecord
2
0
70
0
62
7
6
CONTINUOUS
290
1
370
-3
390
0
0
LAYER
5
6D
100
AcDbSymbolTableRecord
100
AcDbLayerTableRecord
2
81
70
0
62
-3
6
CONTINUOUS
290
1
370
-3
390
0
0
LAYER
5
6F
100
AcDbSymbolTableRecord
100
AcDbLayerTableRecord
2
80
70
0
62
-6
6
CONTINUOUS
290
1
370
-3
390
0
0
LAYER
5
74
100
AcDbSymbolTableRecord
100
AcDbLayerTableRecord
2
2
70
0
62
7
6
CONTINUOUS
290
1
370
-3
390
0
0
LAYER
5
78
100
AcDbSymbolTableRecord
100
AcDbLayerTableRecord
2
1
70
0
62
4
6
CONTINUOUS
290
1
370
-3
390
0
0
LAYER
5
88
100
AcDbSymbolTableRecord
100
AcDbLayerTableRecord
2
4
70
0
62
-2
6
CENTER
290
1
370
-3
390
0
0
LAYER
5
18f
100
AcDbSymbolTableRecord
100
AcDbLayerTableRecord
2
SK2
70
0
62
7
6
CONTINUOUS
290
1
370
-3
390
0
0
LAYER
5
190
100
AcDbSymbolTableRecord
100
AcDbLayerTableRecord
2
SK1
70
0
62
4
6
CONTINUOUS
290
1
370
-3
390
0
0
LAYER
5
191
100
AcDbSymbolTableRecord
100
AcDbLayerTableRecord
2
SK4
70
0
62
2
6
CENTER
290
1
370
-3
390
0
0
LAYER
5
192
100
AcDbSymbolTableRecord
100
AcDbLayerTableRecord
2
SK6
70
0
62
5
6
CONTINUOUS
290
1
370
-3
390
0
0
ENDTAB
0
TABLE
2
STYLE
5
1a6
100
AcDbSymbolTable
0
STYLE
5
11
100
AcDbSymbolTableRecord
100
AcDbTextStyleTableRecord
2
Standard
3
txt
70
0
71
0
40
0
41
1
42
0
50
0
0
STYLE
5
EB
100
AcDbSymbolTableRecord
100
AcDbTextStyleTableRecord
2
iso_b_vert
3
simplex.shx
70
0
71
0
40
0
41
1
42
0
50
0
0
STYLE
5
EC
100
AcDbSymbolTableRecord
100
AcDbTextStyleTableRecord
2
DWGDirectTextStyle
3
simplex
70
0
71
0
40
0
41
1
42
0
50
0
0
ENDTAB
0
TABLE
2
DIMSTYLE
5
1a7
100
AcDbSymbolTable
100
AcDbDimStyleTable
0
DIMSTYLE
105
27
100
AcDbSymbolTableRecord
100
AcDbDimStyleTableRecord
2
Standard
70
0
3
<>
41
0.18
42
0.0625
44
0.18
140
0.18
147
0.09
73
0
74
0
77
1
271
2
275
0
278
52
280
0
340
11
0
ENDTAB
0
TABLE
2
VIEW
5
1a8
100
AcDbSymbolTable
0
ENDTAB
0
TABLE
2
UCS
5
1a9
100
AcDbSymbolTable
0
ENDTAB
0
TABLE
2
APPID
5
1aa
100
AcDbSymbolTable
0
APPID
5
12
100
AcDbSymbolTableRecord
100
AcDbRegAppTableRecord
2
ACAD
70
0
0
ENDTAB
0
TABLE
2
BLOCK_RECORD
5
1ab
100
AcDbSymbolTable
0
BLOCK_RECORD
5
1F
100
AcDbSymbolTableRecord
100
AcDbBlockTableRecord
2
*Model_Space
340
0
70
0
0
BLOCK_RECORD
5
1B
100
AcDbSymbolTableRecord
100
AcDbBlockTableRecord
2
*Paper_Space
340
0
70
0
0
BLOCK_RECORD
5
23
100
AcDbSymbolTableRecord
100
AcDbBlockTableRecord
2
*Paper_Space0
340
0
70
0
0
BLOCK_RECORD
5
EE
100
AcDbSymbolTableRecord
100
AcDbBlockTableRecord
2
DimnDraft3D1
340
0
70
0
0
BLOCK_RECORD
5
F8
100
AcDbSymbolTableRecord
100
AcDbBlockTableRecord
2
DimnDraft3D2
340
0
70
0
0
BLOCK_RECORD
5
102
100
AcDbSymbolTableRecord
100
AcDbBlockTableRecord
2
DimnDraft3D3
340
0
70
0
0
BLOCK_RECORD
5
10C
100
AcDbSymbolTableRecord
100
AcDbBlockTableRecord
2
DimnDraft3D4
340
0
70
0
0
BLOCK_RECORD
5
116
100
AcDbSymbolTableRecord
100
AcDbBlockTableRecord
2
DimnDraft3D5
340
0
70
0
0
BLOCK_RECORD
5
120
100
AcDbSymbolTableRecord
100
AcDbBlockTableRecord
2
DimnDraft3D6
340
0
70
0
0
BLOCK_RECORD
5
12B
100
AcDbSymbolTableRecord
100
AcDbBlockTableRecord
2
DimnDraft3D7
340
0
70
0
0
ENDTAB
0
ENDSEC
0
SECTION
2
BLOCKS
0
BLOCK
5
20
100
AcDbEntity
8
0
100
AcDbBlockBegin
2
*Model_Space
70
0
10
0
20
0
30
0
3
*Model_Space
0
ENDBLK
5
21
100
AcDbEntity
8
0
100
AcDbBlockEnd
0
BLOCK
5
1C
100
AcDbEntity
8
0
100
AcDbBlockBegin
2
*Paper_Space
70
0
10
0
20
0
30
0
3
*Paper_Space
0
ENDBLK
5
1D
100
AcDbEntity
8
0
100
AcDbBlockEnd
0
BLOCK
5
24
100
AcDbEntity
8
0
100
AcDbBlockBegin
2
*Paper_Space0
70
0
10
0
20
0
30
0
3
*Paper_Space0
0
ENDBLK
5
25
100
AcDbEntity
8
0
100
AcDbBlockEnd
0
BLOCK
5
F5
100
AcDbEntity
8
0
100
AcDbBlockBegin
2
DimnDraft3D1
70
0
10
0
20
0
30
0
3
DimnDraft3D1
0
MTEXT
5
EF
100
AcDbEntity
8
SK2
62
256
6
ByLayer
370
13
48
1
60
0
100
AcDbMText
10
8.791375
20
-12.338398
30
0
210
0
220
0
230
1
1
\W0.7402;28,99
40
3.5
41
0
44
1.084337
50
0
71
7
72
5
7
iso_b_vert
0
LINE
5
F0
100
AcDbEntity
8
SK2
62
256
6
ByLayer
370
13
48
1
60
0
100
AcDbLine
10
0
20
-1.5875
30
0
11
0
21
-15.213398
31
0
39
0
210
0
220
0
230
1
0
LINE
5
F1
100
AcDbEntity
8
SK2
62
256
6
ByLayer
370
13
48
1
60
0
100
AcDbLine
10
28.99
20
-4.5875
30
0
11
28.99
21
-15.213398
31
0
39
0
210
0
220
0
230
1
0
LINE
5
F2
100
AcDbEntity
8
SK2
62
256
6
ByLayer
370
13
48
1
60
0
100
AcDbLine
10
0
20
-13.213398
30
0
11
28.99
21
-13.213398
31
0
39
0
210
0
220
0
230
1
0
SOLID
5
F3
100
AcDbEntity
8
SK2
62
256
6
ByLayer
370
13
48
1
60
0
100
AcDbTrace
10
0
20
-13.213398
30
0
11
3.499998
21
-12.752615
31
0
12
3.500002
22
-13.674182
32
0
13
0
23
-13.213398
33
0
39
0
210
0
220
0
230
1
0
SOLID
5
F4
100
AcDbEntity
8
SK2
62
256
6
ByLayer
370
13
48
1
60
0
100
AcDbTrace
10
28.99
20
-13.213398
30
0
11
25.490002
21
-13.674182
31
0
12
25.489998
22
-12.752615
32
0
13
28.99
23
-13.213398
33
0
39
0
210
0
220
0
230
1
0
ENDBLK
5
F6
100
AcDbEntity
8
0
100
AcDbBlockEnd
0
BLOCK
5
FF
100
AcDbEntity
8
0
100
AcDbBlockBegin
2
DimnDraft3D2
70
0
10
0
20
0
30
0
3
DimnDraft3D2
0
MTEXT
5
F9
100
AcDbEntity
8
SK2
62
256
6
ByLayer
370
13
48
1
60
0
100
AcDbMText
10
-7.117384
20
-30.817985
30
0
210
0
220
0
230
1
1
\W0.7317;66,00
40
3.5
41
0
44
1.084337
50
0
71
7
72
5
7
iso_b_vert
0
LINE
5
FA
100
AcDbEntity
8
SK2
62
256
6
ByLayer
370
13
48
1
60
0
100
AcDbLine
10
-36
20
-4.5875
30
0
11
-36
21
-33.692985
31
0
39
0
210
0
220
0
230
1
0
LINE
5
FB
100
AcDbEntity
8
SK2
62
256
6
ByLayer
370
13
48
1
60
0
100
AcDbLine
10
30
20
-1.5875
30
0
11
30
21
-33.692985
31
0
39
0
210
0
220
0
230
1
0
LINE
5
FC
100
AcDbEntity
8
SK2
62
256
6
ByLayer
370
13
48
1
60
0
100
AcDbLine
10
-36
20
-31.692985
30
0
11
30
21
-31.692985
31
0
39
0
210
0
220
0
230
1
0
SOLID
5
FD
100
AcDbEntity
8
SK2
62
256
6
ByLayer
370
13
48
1
60
0
100
AcDbTrace
10
-36
20
-31.692985
30
0
11
-32.500002
21
-31.232202
31
0
12
-32.499998
22
-32.153769
32
0
13
-36
23
-31.692985
33
0
39
0
210
0
220
0
230
1
0
SOLID
5
FE
100
AcDbEntity
8
SK2
62
256
6
ByLayer
370
13
48
1
60
0
100
AcDbTrace
10
30
20
-31.692985
30
0
11
26.500002
21
-32.153769
31
0
12
26.499998
22
-31.232202
32
0
13
30
23
-31.692985
33
0
39
0
210
0
220
0
230
1
0
ENDBLK
5
100
100
AcDbEntity
8
0
100
AcDbBlockEnd
0
BLOCK
5
109
100
AcDbEntity
8
0
100
AcDbBlockBegin
2
DimnDraft3D3
70
0
10
0
20
0
30
0
3
DimnDraft3D3
0
MTEXT
5
103
100
AcDbEntity
8
SK2
62
256
6
ByLayer
370
13
48
1
60
0
100
AcDbMText
10
16.921316
20
15.484119
30
0
210
0
220
0
230
1
1
\W0.6563;19,01
40
3.5
41
0
44
1.084337
50
0
71
7
72
5
7
iso_b_vert
0
LINE
5
104
100
AcDbEntity
8
SK2
62
256
6
ByLayer
370
13
48
1
60
0
100
AcDbLine
10
10.99
20
4.5875
30
0
11
10.99
21
16.609119
31
0
39
0
210
0
220
0
230
1
0
LINE
5
105
100
AcDbEntity
8
SK2
62
256
6
ByLayer
370
13
48
1
60
0
100
AcDbLine
10
30
20
1.5875
30
0
11
30
21
16.609119
31
0
39
0
210
0
220
0
230
1
0
LINE
5
106
100
AcDbEntity
8
SK2
62
256
6
ByLayer
370
13
48
1
60
0
100
AcDbLine
10
10.99
20
14.609119
30
0
11
30
21
14.609119
31
0
39
0
210
0
220
0
230
1
0
SOLID
5
107
100
AcDbEntity
8
SK2
62
256
6
ByLayer
370
13
48
1
60
0
100
AcDbTrace
10
10.99
20
14.609119
30
0
11
14.489998
21
15.069903
31
0
12
14.490002
22
14.148335
32
0
13
10.99
23
14.609119
33
0
39
0
210
0
220
0
230
1
0
SOLID
5
108
100
AcDbEntity
8
SK2
62
256
6
ByLayer
370
13
48
1
60
0
100
AcDbTrace
10
30
20
14.609119
30
0
11
26.500002
21
14.148335
31
0
12
26.499998
22
15.069903
32
0
13
30
23
14.609119
33
0
39
0
210
0
220
0
230
1
0
ENDBLK
5
10A
100
AcDbEntity
8
0
100
AcDbBlockEnd
0
BLOCK
5
113
100
AcDbEntity
8
0
100
AcDbBlockBegin
2
DimnDraft3D4
70
0
10
0
20
0
30
0
3
DimnDraft3D4
0
MTEXT
5
10D
100
AcDbEntity
8
SK2
62
256
6
ByLayer
370
13
48
1
60
0
100
AcDbMText
10
37.715636
20
-14.927503
30
0
210
0
220
0
230
1
1
\W0.6132;1,01
40
3.5
41
0
44
1.084337
50
0
71
7
72
5
7
iso_b_vert
0
LINE
5
10E
100
AcDbEntity
8
SK2
62
256
6
ByLayer
370
13
48
1
60
0
100
AcDbLine
10
30
20
-1.5875
30
0
11
30
21
-17.802503
31
0
39
0
210
0
220
0
230
1
0
LINE
5
10F
100
AcDbEntity
8
SK2
62
256
6
ByLayer
370
13
48
1
60
0
100
AcDbLine
10
28.99
20
-4.5875
30
0
11
28.99
21
-17.802503
31
0
39
0
210
0
220
0
230
1
0
LINE
5
110
100
AcDbEntity
8
SK2
62
256
6
ByLayer
370
13
48
1
60
0
100
AcDbLine
10
20.24
20
-15.802503
30
0
11
43.122215
21
-15.802503
31
0
39
0
210
0
220
0
230
1
0
SOLID
5
111
100
AcDbEntity
8
SK2
62
256
6
ByLayer
370
13
48
1
60
0
100
AcDbTrace
10
30
20
-15.802503
30
0
11
33.499998
21
-15.341719
31
0
12
33.500002
22
-16.263287
32
0
13
30
23
-15.802503
33
0
39
0
210
0
220
0
230
1
0
SOLID
5
112
100
AcDbEntity
8
SK2
62
256
6
ByLayer
370
13
48
1
60
0
100
AcDbTrace
10
28.99
20
-15.802503
30
0
11
25.490002
21
-16.263287
31
0
12
25.489998
22
-15.341719
32
0
13
28.99
23
-15.802503
33
0
39
0
210
0
220
0
230
1
0
ENDBLK
5
114
100
AcDbEntity
8
0
100
AcDbBlockEnd
0
BLOCK
5
11D
100
AcDbEntity
8
0
100
AcDbBlockBegin
2
DimnDraft3D5
70
0
10
0
20
0
30
0
3
DimnDraft3D5
0
MTEXT
5
117
100
AcDbEntity
8
SK2
62
256
6
ByLayer
370
13
48
1
60
0
100
AcDbMText
10
-10.382218
20
-20.468428
30
0
210
0
220
0
230
1
1
\W0.7669;64,99
40
3.5
41
0
44
1.084337
50
0
71
7
72
5
7
iso_b_vert
0
LINE
5
118
100
AcDbEntity
8
SK2
62
256
6
ByLayer
370
13
48
1
60
0
100
AcDbLine
10
-36
20
-4.5875
30
0
11
-36
21
-23.343428
31
0
39
0
210
0
220
0
230
1
0
LINE
5
119
100
AcDbEntity
8
SK2
62
256
6
ByLayer
370
13
48
1
60
0
100
AcDbLine
10
28.99
20
-4.5875
30
0
11
28.99
21
-23.343428
31
0
39
0
210
0
220
0
230
1
0
LINE
5
11A
100
AcDbEntity
8
SK2
62
256
6
ByLayer
370
13
48
1
60
0
100
AcDbLine
10
-36
20
-21.343428
30
0
11
28.99
21
-21.343428
31
0
39
0
210
0
220
0
230
1
0
SOLID
5
11B
100
AcDbEntity
8
SK2
62
256
6
ByLayer
370
13
48
1
60
0
100
AcDbTrace
10
-36
20
-21.343428
30
0
11
-32.500002
21
-20.882645
31
0
12
-32.499998
22
-21.804212
32
0
13
-36
23
-21.343428
33
0
39
0
210
0
220
0
230
1
0
SOLID
5
11C
100
AcDbEntity
8
SK2
62
256
6
ByLayer
370
13
48
1
60
0
100
AcDbTrace
10
28.99
20
-21.343428
30
0
11
25.490002
21
-21.804212
31
0
12
25.489998
22
-20.882645
32
0
13
28.99
23
-21.343428
33
0
39
0
210
0
220
0
230
1
0
ENDBLK
5
11E
100
AcDbEntity
8
0
100
AcDbBlockEnd
0
BLOCK
5
128
100
AcDbEntity
8
0
100
AcDbBlockBegin
2
DimnDraft3D6
70
0
10
0
20
0
30
0
3
DimnDraft3D6
0
MTEXT
5
121
100
AcDbEntity
8
SK2
62
256
6
ByLayer
370
13
48
1
60
0
100
AcDbMText
10
-46.375163
20
22.34918
30
0
210
0
220
0
230
1
1
\W0.7317;6,000
40
3.5
41
0
44
1.084337
50
90
71
7
72
5
7
iso_b_vert
0
MTEXT
5
122
100
AcDbEntity
8
SK2
62
256
6
ByLayer
370
13
48
1
60
0
100
AcDbMText
10
-46.375163
20
17.126524
30
0
210
0
220
0
230
1
1
%%c
40
3.5
41
0
44
1.084337
50
90
71
7
72
5
7
iso_b_vert
0
LINE
5
123
100
AcDbEntity
8
SK2
62
256
6
ByLayer
370
13
48
1
60
0
100
AcDbLine
10
-37.5875
20
-3
30
0
11
-46.625163
21
-3
31
0
39
0
210
0
220
0
230
1
0
LINE
5
124
100
AcDbEntity
8
SK2
62
256
6
ByLayer
370
13
48
1
60
0
100
AcDbLine
10
-37.5875
20
3
30
0
11
-46.625163
21
3
31
0
39
0
210
0
220
0
230
1
0
LINE
5
125
100
AcDbEntity
8
SK2
62
256
6
ByLayer
370
13
48
1
60
0
100
AcDbLine
10
-44.625163
20
32.121549
30
0
11
-44.625163
21
-11.75
31
0
39
0
210
0
220
0
230
1
0
SOLID
5
126
100
AcDbEntity
8
SK2
62
256
6
ByLayer
370
13
48
1
60
0
100
AcDbTrace
10
-44.625163
20
-3
30
0
11
-44.164379
21
-6.499998
31
0
12
-45.085946
22
-6.500002
32
0
13
-44.625163
23
-3
33
0
39
0
210
0
220
0
230
1
0
SOLID
5
127
100
AcDbEntity
8
SK2
62
256
6
ByLayer
370
13
48
1
60
0
100
AcDbTrace
10
-44.625163
20
3
30
0
11
-45.085946
21
6.499998
31
0
12
-44.164379
22
6.500002
32
0
13
-44.625163
23
3
33
0
39
0
210
0
220
0
230
1
0
ENDBLK
5
129
100
AcDbEntity
8
0
100
AcDbBlockEnd
0
BLOCK
5
133
100
AcDbEntity
8
0
100
AcDbBlockBegin
2
DimnDraft3D7
70
0
10
0
20
0
30
0
3
DimnDraft3D7
0
MTEXT
5
12C
100
AcDbEntity
8
2
62
256
6
ByLayer
370
13
48
1
60
0
100
AcDbMText
10
40.333343
20
20.942266
30
0
210
0
220
0
230
1
1
\W0.7317;6,000
40
3.5
41
0
44
1.084337
50
90
71
7
72
5
7
iso_b_vert
0
MTEXT
5
12D
100
AcDbEntity
8
2
62
256
6
ByLayer
370
13
48
1
60
0
100
AcDbMText
10
40.333343
20
15.71961
30
0
210
0
220
0
230
1
1
%%c
40
3.5
41
0
44
1.084337
50
90
71
7
72
5
7
iso_b_vert
0
LINE
5
12E
100
AcDbEntity
8
2
62
256
6
ByLayer
370
13
48
1
60
0
100
AcDbLine
10
30.5775
20
-3
30
0
11
44.083343
21
-3
31
0
39
0
210
0
220
0
230
1
0
LINE
5
12F
100
AcDbEntity
8
2
62
256
6
ByLayer
370
13
48
1
60
0
100
AcDbLine
10
30.5775
20
3
30
0
11
44.083343
21
3
31
0
39
0
210
0
220
0
230
1
0
LINE
5
130
100
AcDbEntity
8
2
62
256
6
ByLayer
370
13
48
1
60
0
100
AcDbLine
10
42.083343
20
30.714635
30
0
11
42.083343
21
-11.75
31
0
39
0
210
0
220
0
230
1
0
SOLID
5
131
100
AcDbEntity
8
2
62
256
6
ByLayer
370
13
48
1
60
0
100
AcDbTrace
10
42.083343
20
-3
30
0
11
42.544126
21
-6.499998
31
0
12
41.622559
22
-6.500002
32
0
13
42.083343
23
-3
33
0
39
0
210
0
220
0
230
1
0
SOLID
5
132
100
AcDbEntity
8
2
62
256
6
ByLayer
370
13
48
1
60
0
100
AcDbTrace
10
42.083343
20
3
30
0
11
41.622559
21
6.499998
31
0
12
42.544126
22
6.500002
32
0
13
42.083343
23
3
33
0
39
0
210
0
220
0
230
1
0
ENDBLK
5
134
100
AcDbEntity
8
0
100
AcDbBlockEnd
0
ENDSEC
0
SECTION
2
ENTITIES
0
ELLIPSE
5
A3
100
AcDbEntity
8
1
62
256
6
ByLayer
370
18
48
1
60
0
100
AcDbEllipse
10
4.25
20
3.10087
30
0
11
-0.25
21
3.06151588455594E-17
31
0
210
0
220
0
230
1
40
1
41
0.565497747076911
42
1.57654779591662
0
ELLIPSE
5
A4
100
AcDbEntity
8
1
62
256
6
ByLayer
370
13
48
1
60
0
100
AcDbEllipse
10
30.045466
20
1.45797
30
0
11
1.61159674395066
21
-0.586560121988339
31
0
210
0
220
0
230
-1
40
0.706937
41
1.92585417536992
42
2.0483331197927
0
ELLIPSE
5
A5
100
AcDbEntity
8
1
62
256
6
ByLayer
370
18
48
1
60
0
100
AcDbEllipse
10
30.000558
20
-0.001311
30
0
11
1.11295012998494
21
-2.99754999753339
31
0
210
0
220
0
230
-1
40
0.131755
41
-2.91021533463978
42
-2.84017279214685
0
ELLIPSE
5
A6
100
AcDbEntity
8
1
62
256
6
ByLayer
370
18
48
1
60
0
100
AcDbEllipse
10
30.000558
20
0.001311
30
0
11
1.11295021100287
21
2.99755024147839
31
0
210
0
220
0
230
-1
40
0.131755
41
2.84017280455423
42
2.91021534413481
0
ELLIPSE
5
A7
100
AcDbEntity
8
1
62
256
6
ByLayer
370
18
48
1
60
0
100
AcDbEllipse
10
30.023306
20
-0.027195
30
0
11
0.0409878375309357
21
0.131356221387564
31
0
210
0
220
0
230
-1
40
0.112168
41
-2.35198746479746
42
-1.79030675320446
0
ELLIPSE
5
A8
100
AcDbEntity
8
1
62
256
6
ByLayer
370
18
48
1
60
0
100
AcDbEllipse
10
29.94541
20
0.065866
30
0
11
0.0509214948177619
21
0.0862938759121228
31
0
210
0
220
0
230
-1
40
0.493461
41
-2.04924112062817
42
-0.932230399358709
0
ELLIPSE
5
A9
100
AcDbEntity
8
1
62
256
6
ByLayer
370
18
48
1
60
0
100
AcDbEllipse
10
29.371724
20
0.462913
30
0
11
0.572341884360765
21
-0.322502954693365
31
0
210
0
220
0
230
-1
40
0.121682
41
-0.0684581772371241
42
0.0473141368390981
0
ELLIPSE
5
AA
100
AcDbEntity
8
1
62
256
6
ByLayer
370
13
48
1
60
0
100
AcDbEllipse
10
4.170643
20
1.043334
30
0
11
-0.0617946446848094
21
-0.0786220191058343
31
0
210
0
220
0
230
1
40
0.280302
41
-0.97533724209564
42
-0.246670018244361
0
ELLIPSE
5
AB
100
AcDbEntity
8
1
62
256
6
ByLayer
370
13
48
1
60
0
100
AcDbEllipse
10
29.157651
20
0.611073
30
0
11
0.0569094017391093
21
0.0822272460544354
31
0
210
0
220
0
230
1
40
0.464508
41
0.852182322381441
42
2.08496535696418
0
ELLIPSE
5
AC
100
AcDbEntity
8
1
62
256
6
ByLayer
370
18
48
1
60
0
100
AcDbEllipse
10
29.943786
20
0.066672
30
0
11
0.0243399197155751
21
0.0986627948888896
31
0
210
0
220
0
230
-1
40
0.57374
41
1.93313637142109
42
2.14048840797814
0
ELLIPSE
5
AD
100
AcDbEntity
8
1
62
256
6
ByLayer
370
18
48
1
60
0
100
AcDbEllipse
10
29.980094
20
0.048647
30
0
11
0.0330892488288117
21
0.0951892545531794
31
0
210
0
220
0
230
-1
40
0.178619
41
1.4808551073486
42
1.82883308265499
0
ELLIPSE
5
AE
100
AcDbEntity
8
1
62
256
6
ByLayer
370
18
48
1
60
0
100
AcDbEllipse
10
29.462255
20
-1.47142
30
0
11
0.420010667139927
21
1.13105676304588
31
0
210
0
220
0
230
-1
40
0.131695
41
0.695742456789367
42
1.17371893433223
0
ELLIPSE
5
AF
100
AcDbEntity
8
1
62
256
6
ByLayer
370
13
48
1
60
0
100
AcDbEllipse
10
4.250328
20
0.989668
30
0
11
0.0503132367999787
21
0.0864209361365015
31
0
210
0
220
0
230
1
40
0.178101
41
2.87254717818151
42
-1.86352089216465
0
ELLIPSE
5
B0
100
AcDbEntity
8
1
62
256
6
ByLayer
370
18
48
1
60
0
100
AcDbEllipse
10
29.462255
20
1.47142
30
0
11
0.420010667004003
21
-1.13105676276608
31
0
210
0
220
0
230
-1
40
0.131695
41
-1.17371893448372
42
-0.695742456841291
0
ELLIPSE
5
B1
100
AcDbEntity
8
1
62
256
6
ByLayer
370
18
48
1
60
0
100
AcDbEllipse
10
30.023306
20
0.027195
30
0
11
0.0409878375470268
21
-0.131356221426736
31
0
210
0
220
0
230
-1
40
0.112168
41
1.79030675343615
42
2.3519874649062
0
POINT
5
6C
100
AcDbEntity
8
81
62
256
6
ByLayer
370
18
48
1
60
0
100
AcDbPoint
10
30
20
0
30
0
39
0
210
0
220
0
230
1
50
360
0
POINT
5
6E
100
AcDbEntity
8
80
62
256
6
ByLayer
370
18
48
1
60
0
100
AcDbPoint
10
0
20
0
30
0
39
0
210
0
220
0
230
1
50
360
0
POINT
5
70
100
AcDbEntity
8
SK2
62
256
6
ByLayer
370
18
48
1
60
1
100
AcDbPoint
10
-36
20
-3
30
0
39
0
210
0
220
0
230
1
50
360
0
POINT
5
72
100
AcDbEntity
8
SK2
62
256
6
ByLayer
370
18
48
1
60
1
100
AcDbPoint
10
-36
20
3
30
0
39
0
210
0
220
0
230
1
50
360
0
POINT
5
73
100
AcDbEntity
8
2
62
256
6
ByLayer
370
18
48
1
60
1
100
AcDbPoint
10
28.99
20
-3
30
0
39
0
210
0
220
0
230
1
50
360
0
POINT
5
75
100
AcDbEntity
8
2
62
256
6
ByLayer
370
18
48
1
60
1
100
AcDbPoint
10
28.99
20
3
30
0
39
0
210
0
220
0
230
1
50
360
0
SPLINE
5
B2
100
AcDbEntity
8
1
62
256
6
ByLayer
370
18
48
1
60
0
100
AcDbSpline
70
4
71
2
72
6
73
3
40
0
40
0
40
0
40
1
40
1
40
1
41
1
10
4.29506832746068
20
-2.8471251761041
30
0
41
1
10
4.42064812106844
20
-2.84744779591679
30
0
41
1
10
4.54623386912039
20
-2.84759408230988
30
0
0
SPLINE
5
B3
100
AcDbEntity
8
1
62
256
6
ByLayer
370
18
48
1
60
0
100
AcDbSpline
70
4
71
3
72
20
73
16
40
0
40
0
40
0
40
0
40
0.111153657901081
40
0.192186712925855
40
0.244766776310396
40
0.291117632358269
40
0.338345031522592
40
0.386446155945721
40
0.435414593079378
40
0.48525343543003
40
0.689972351921341
40
0.741797295827766
40
0.803270697346955
40
0.900480625324514
40
1
40
1
40
1
40
1
41
1
10
13.3334768968836
20
-2.86119934535114
30
0
41
1
10
13.5481951065236
20
-2.86142680073613
30
0
41
1
10
13.9194668439666
20
-2.861787937884
30
0
41
1
10
14.3923807962488
20
-2.86282160951188
30
0
41
1
10
14.7400845100015
20
-2.86276409404798
30
0
41
1
10
15.022478285819
20
-2.86276566989739
30
0
41
1
10
15.2962165556724
20
-2.86302398742555
30
0
41
1
10
15.5750113767321
20
-2.86367106357315
30
0
41
1
10
15.8588521526384
20
-2.86427012212818
30
0
41
1
10
16.4452954342928
20
-2.86403677522458
30
0
41
1
10
17.0372558524585
20
-2.86629348550846
30
0
41
1
10
17.6516954462012
20
-2.86526131986099
30
0
41
1
10
18.0584175149066
20
-2.8645455791474
30
0
41
1
10
18.5572849914357
20
-2.86661460254615
30
0
41
1
10
18.9373849512669
20
-2.86734232161467
30
0
41
1
10
19.129666240059
20
-2.86780067601512
30
0
0
SPLINE
5
B4
100
AcDbEntity
8
1
62
256
6
ByLayer
370
18
48
1
60
0
100
AcDbSpline
70
4
71
2
72
6
73
3
40
0
40
0
40
0
40
1
40
1
40
1
41
1
10
28.3219895348229
20
-2.87925471831309
30
0
41
1
10
28.6403826021808
20
-2.87861277941576
30
0
41
1
10
28.9588891191846
20
-2.88032062135588
30
0
0
SPLINE
5
B5
100
AcDbEntity
8
1
62
256
6
ByLayer
370
18
48
1
60
0
100
AcDbSpline
70
4
71
3
72
18
73
14
40
0
40
0
40
0
40
0
40
0.124483854030824
40
0.246251212067841
40
0.323254187466387
40
0.388171286277178
40
0.644606838900443
40
0.707036101908185
40
0.76837507562244
40
0.828627633786875
40
0.887785743898219
40
0.945845876244141
40
1
40
1
40
1
40
1
41
1
10
19.1288501236728
20
2.86779867859522
30
0
41
1
10
18.9368408747637
20
2.86734096411874
30
0
41
1
10
18.5570129542701
20
2.86661361989187
30
0
41
1
10
18.0584175150768
20
2.86454555585041
30
0
41
1
10
17.6516954462181
20
2.86526132382059
30
0
41
1
10
17.0372558525167
20
2.86629348097981
30
0
41
1
10
16.4452954343185
20
2.86403677562058
30
0
41
1
10
15.8588521526611
20
2.86427012208321
30
0
41
1
10
15.5750113767518
20
2.86367106358494
30
0
41
1
10
15.2962165556895
20
2.86302398742254
30
0
41
1
10
15.0224782858335
20
2.86276566989821
30
0
41
1
10
14.7581448424962
20
2.86276419483036
30
0
41
1
10
14.5850626986274
20
2.86279002879635
30
0
41
1
10
14.501533805349
20
2.86275135701538
30
0
0
SPLINE
5
B6
100
AcDbEntity
8
1
62
256
6
ByLayer
370
18
48
1
60
0
100
AcDbSpline
70
4
71
2
72
6
73
3
40
0
40
0
40
0
40
1
40
1
40
1
41
1
10
4.54110565703564
20
2.84758538277401
30
0
41
1
10
4.39593030622419
20
2.84741552299963
30
0
41
1
10
4.25076305289832
20
2.84700586631379
30
0
0
SPLINE
5
B7
100
AcDbEntity
8
1
62
256
6
ByLayer
370
18
48
1
60
0
100
AcDbSpline
70
4
71
3
72
26
73
22
40
0
40
0
40
0
40
0
40
1.03228321291E-05
40
0.0003016960999264
40
0.000527984051241
40
0.0009325896249407
40
0.0016567585028982
40
0.002955212294782
40
0.0052907947230385
40
0.0095155836381137
40
0.017233161886279
40
0.0315752079208949
40
0.0673299185615938
40
0.111448914450702
40
0.300152874154568
40
0.481983037526263
40
0.66558739560425
40
0.710690967794735
40
0.758269747378125
40
0.850772858704499
40
1
40
1
40
1
40
1
41
1
10
20.7510376585328
20
-0.685841532051683
30
0
41
1
10
20.7510339716435
20
-0.685841346372911
30
0
41
1
10
20.7509310940152
20
-0.68583651286994
30
0
41
1
10
20.7510488961835
20
-0.685863978589396
30
0
41
1
10
20.7510250697675
20
-0.685883932297202
30
0
41
1
10
20.7510698056681
20
-0.685922658600646
30
0
41
1
10
20.7511050102717
20
-0.685985709544241
30
0
41
1
10
20.7512078790006
20
-0.686100984513018
30
0
41
1
10
20.7514094839717
20
-0.686302104024946
30
0
41
1
10
20.7518763425739
20
-0.686651875107202
30
0
41
1
10
20.7532075786109
20
-0.687268575239699
30
0
41
1
10
20.7556085696773
20
-0.688223816012169
30
0
41
1
10
20.7864897883893
20
-0.692503356336061
30
0
41
1
10
20.9470144070049
20
-0.717550175809578
30
0
41
1
10
21.2329059091654
20
-0.782216587466792
30
0
41
1
10
21.6160389729987
20
-0.905198346618278
30
0
41
1
10
21.9179502991361
20
-1.02934344437801
30
0
41
1
10
22.1345031754634
20
-1.12748949010603
30
0
41
1
10
22.2827988567334
20
-1.19769304508648
30
0
41
1
10
22.5335310398432
20
-1.32304968818309
30
0
41
1
10
22.7421692977283
20
-1.43381556604649
30
0
41
1
10
22.8736286887876
20
-1.50623972740868
30
0
0
SPLINE
5
B8
100
AcDbEntity
8
1
62
256
6
ByLayer
370
18
48
1
60
0
100
AcDbSpline
70
4
71
3
72
10
73
6
40
0
40
0
40
0
40
0
40
0.234902838367689
40
0.633737538440895
40
1
40
1
40
1
40
1
41
1
10
11.8340630082306
20
-0.109537920938976
30
0
41
1
10
11.8353453030223
20
-0.110034995164853
30
0
41
1
10
11.8323967550144
20
-0.108135303825236
30
0
41
1
10
11.7643152475466
20
-0.0702482566535707
30
0
41
1
10
11.6932298327723
20
-0.0274522791203253
30
0
41
1
10
11.6517379057737
20
-0.0023544488449261
30
0
0
SPLINE
5
B9
100
AcDbEntity
8
1
62
256
6
ByLayer
370
18
48
1
60
0
100
AcDbSpline
70
4
71
3
72
14
73
10
40
0
40
0
40
0
40
0
40
0.210394216211648
40
0.210394216211648
40
0.420788432423297
40
0.420788432423297
40
0.841576864846593
40
0.841576864846593
40
1
40
1
40
1
40
1
41
1
10
11.8650658762057
20
2.91366347987568
30
0
41
1
10
11.6089977296571
20
2.87974535347939
30
0
41
1
10
11.3497559669942
20
2.83462585510961
30
0
41
1
10
10.8249851143171
20
2.72714946718409
30
0
41
1
10
10.5590642311308
20
2.66464823096416
30
0
41
1
10
9.75320691354719
20
2.45818979175846
30
0
41
1
10
9.21141816134843
20
2.29701790685428
30
0
41
1
10
8.45336007370346
20
2.06795113276465
30
0
41
1
10
8.24474031568346
20
2.00456503454853
30
0
41
1
10
8.03466015801592
20
1.94138014142169
30
0
0
SPLINE
5
BA
100
AcDbEntity
8
1
62
256
6
ByLayer
370
18
48
1
60
0
100
AcDbSpline
70
4
71
3
72
22
73
18
40
0
40
0
40
0
40
0
40
0.125
40
0.125
40
0.25
40
0.25
40
0.375
40
0.375
40
0.5
40
0.5
40
0.625
40
0.625
40
0.75
40
0.75
40
0.875
40
0.875
40
1
40
1
40
1
40
1
41
1
10
29.0550331034066
20
2.90463072932013
30
0
41
1
10
29.0855275059963
20
2.83554622866194
30
0
41
1
10
29.1160780292049
20
2.76515922199394
30
0
41
1
10
29.1772786135053
20
2.62207502937392
30
0
41
1
10
29.2080058692234
20
2.54874368486301
30
0
41
1
10
29.2690991295975
20
2.40044106866196
30
0
41
1
10
29.2995477299295
20
2.3256621393875
30
0
41
1
10
29.3601514469468
20
2.17422529661769
30
0
41
1
10
29.3903320417913
20
2.09717999249935
30
0
41
1
10
29.4501615581222
20
1.9427867711392
30
0
41
1
10
29.4797955772414
20
1.86544955198343
30
0
41
1
10
29.5381523408668
20
1.71031870072909
30
0
41
1
10
29.5668990821113
20
1.63253708742465
30
0
41
1
10
29.6237899251042
20
1.47667202812784
30
0
41
1
10
29.6520819122728
20
1.39866265071902
30
0
41
1
10
29.7075915636142
20
1.24210581998773
30
0
41
1
10
29.7349288195394
20
1.16361826433257
30
0
41
1
10
29.7620484580459
20
1.08502171474186
30
0
0
SPLINE
5
BB
100
AcDbEntity
8
1
62
256
6
ByLayer
370
13
48
1
60
0
100
AcDbSpline
70
4
71
3
72
26
73
22
40
0
40
0
40
0
40
0
40
0.125
40
0.125
40
0.25
40
0.25
40
0.375000000000001
40
0.375000000000001
40
0.437500000000001
40
0.437500000000001
40
0.500000000000001
40
0.500000000000001
40
0.562500000000001
40
0.562500000000001
40
0.625000000000001
40
0.625000000000001
40
0.75
40
0.75
40
0.875
40
0.875
40
1
40
1
40
1
40
1
41
1
10
4.25054642243384
20
0.956150849802555
30
0
41
1
10
4.25057426776982
20
1.09646703957381
30
0
41
1
10
4.25059343594214
20
1.2315438037644
30
0
41
1
10
4.25062010076593
20
1.49143808060757
30
0
41
1
10
4.25062757859035
20
1.61703445332265
30
0
41
1
10
4.25063599873445
20
1.85130864882771
30
0
41
1
10
4.25063705636467
20
1.96058933099999
30
0
41
1
10
4.25063793992223
20
2.11286206672236
30
0
41
1
10
4.2506381100475
20
2.16166961957347
30
0
41
1
10
4.2506388102841
20
2.25530068901153
30
0
41
1
10
4.25063934468199
20
2.30021413485426
30
0
41
1
10
4.2506413266556
20
2.38487067433076
30
0
41
1
10
4.2506427736956
20
2.42474605109723
30
0
41
1
10
4.25064705842013
20
2.49959618080544
30
0
41
1
10
4.25064991030885
20
2.53466776943799
30
0
41
1
10
4.25066104689625
20
2.63139577597539
30
0
41
1
10
4.25067193445867
20
2.68483868193587
30
0
41
1
10
4.25070229895675
20
2.77026328367427
30
0
41
1
10
4.25072179174526
20
2.80226348686983
30
0
41
1
10
4.25076985661249
20
2.84377608467958
30
0
41
1
10
4.25079791934368
20
2.85287254670811
30
0
41
1
10
4.25082916642015
20
2.85050767229021
30
0
0
SPLINE
5
BC
100
AcDbEntity
8
1
62
256
6
ByLayer
370
18
48
1
60
0
100
AcDbSpline
70
4
71
3
72
8
73
4
40
0
40
0
40
0
40
0
40
1
40
1
40
1
40
1
41
1
10
4.12088209461936
20
0.960576925743453
30
0
41
1
10
4.14481474610744
20
0.941934237365786
30
0
41
1
10
4.17094217276917
20
0.924484806350193
30
0
41
1
10
4.19773348583851
20
0.908738250472055
30
0
0
SPLINE
5
BD
100
AcDbEntity
8
1
62
256
6
ByLayer
370
18
48
1
60
0
100
AcDbSpline
70
4
71
3
72
66
73
62
40
0
40
0
40
0
40
0
40
0.0336089499845612
40
0.0336089499845612
40
0.0672178999691225
40
0.0672178999691225
40
0.100826849953684
40
0.100826849953684
40
0.134435799938245
40
0.134435799938245
40
0.168044749922806
40
0.168044749922806
40
0.201653699907367
40
0.201653699907367
40
0.235262649891929
40
0.235262649891929
40
0.26887159987649
40
0.26887159987649
40
0.302480549861051
40
0.302480549861051
40
0.336089499845612
40
0.336089499845612
40
0.369698449830174
40
0.369698449830174
40
0.403307399814735
40
0.403307399814735
40
0.436916349799296
40
0.436916349799296
40
0.470525299783857
40
0.470525299783857
40
0.504134249768419
40
0.504134249768419
40
0.53774319975298
40
0.53774319975298
40
0.571352149737541
40
0.571352149737541
40
0.604961099722102
40
0.604961099722102
40
0.638570049706664
40
0.638570049706664
40
0.672178999691225
40
0.672178999691225
40
0.705787949675786
40
0.705787949675786
40
0.739396899660347
40
0.739396899660347
40
0.773005849644909
40
0.773005849644909
40
0.80661479962947
40
0.80661479962947
40
0.840223749614031
40
0.840223749614031
40
0.873832699598592
40
0.873832699598592
40
0.907441649583154
40
0.907441649583154
40
0.941050599567716
40
0.941050599567716
40
0.974659549552278
40
0.974659549552278
40
1
40
1
40
1
40
1
41
1
10
11.8648874954944
20
2.91363619618022
30
0
41
1
10
12.0441358253433
20
2.93743249634093
30
0
41
1
10
12.2235691242329
20
2.95472491530782
30
0
41
1
10
12.5820618542739
20
2.97691852282631
30
0
41
1
10
12.7608809111182
20
2.98180177025026
30
0
41
1
10
13.1187249314343
20
2.97884405054549
30
0
41
1
10
13.2986546207057
20
2.97105682447275
30
0
41
1
10
13.6577883083255
20
2.94294039468417
30
0
41
1
10
13.8365133600557
20
2.92251316550207
30
0
41
1
10
14.1943524842295
20
2.86950931987508
30
0
41
1
10
14.3736554854772
20
2.83709071065471
30
0
41
1
10
14.7321701160744
20
2.76004332106461
30
0
41
1
10
14.9114051331339
20
2.71508026030267
30
0
41
1
10
15.2700754433606
20
2.61475551183284
30
0
41
1
10
15.44938633597
20
2.55927902718665
30
0
41
1
10
15.8071165202392
20
2.4369924150935
30
0
41
1
10
15.9857568301326
20
2.37030368946665
30
0
41
1
10
16.3446183949757
20
2.22781522372569
30
0
41
1
10
16.5245692220868
20
2.15172800336808
30
0
41
1
10
16.8824533551951
20
1.99011686914582
30
0
41
1
10
17.0611334087267
20
1.90496542643504
30
0
41
1
10
17.419394491502
20
1.72784411373001
30
0
41
1
10
17.5984626420485
20
1.63523986473336
30
0
41
1
10
17.9569163194286
20
1.44233482041281
30
0
41
1
10
18.1363347640209
20
1.34294718001513
30
0
41
1
10
18.4946825301029
20
1.1396863249449
30
0
41
1
10
18.6734054867341
20
1.03511462218393
30
0
41
1
10
19.0308646132787
20
0.821373676562359
30
0
41
1
10
19.2104332311159
20
0.713232733344256
30
0
41
1
10
19.5695644922018
20
0.493477131427852
30
0
41
1
10
19.748253954701
20
0.381842618578986
30
0
41
1
10
20.1058666079121
20
0.158217285518759
30
0
41
1
10
20.2850188471886
20
0.0465967326432519
30
0
41
1
10
20.6431890910437
20
-0.177578798048899
30
0
41
1
10
20.8222197239032
20
-0.290773263995504
30
0
41
1
10
21.1807951026291
20
-0.513398663728395
30
0
41
1
10
21.3600426385461
20
-0.623173244559041
30
0
41
1
10
21.717572428092
20
-0.841041097090539
30
0
41
1
10
21.8960307545605
20
-0.94883799983063
30
0
41
1
10
22.2544643206903
20
-1.15891157232784
30
0
41
1
10
22.434358145616
20
-1.26176294715529
30
0
41
1
10
22.7921856912413
20
-1.46246539807055
30
0
41
1
10
22.9707218340547
20
-1.55989850413135
30
0
41
1
10
23.3287058828137
20
-1.74674682201552
30
0
41
1
10
23.5076329001823
20
-1.83687838046723
30
0
41
1
10
23.86565026405
20
-2.01002199165205
30
0
41
1
10
24.0450912587476
20
-2.09234970065219
30
0
41
1
10
24.4033050236426
20
-2.24709201367216
30
0
41
1
10
24.5819725871103
20
-2.32007858029843
30
0
41
1
10
24.9390820294313
20
-2.4564342390446
30
0
41
1
10
25.1183112651905
20
-2.51907792627088
30
0
41
1
10
25.4772804827367
20
-2.63412336543726
30
0
41
1
10
25.6560246692253
20
-2.68643667628359
30
0
41
1
10
26.0134207830229
20
-2.77909529761675
30
0
41
1
10
26.1924275295898
20
-2.81935786553805
30
0
41
1
10
26.5502904514144
20
-2.88827662660108
30
0
41
1
10
26.7290578671624
20
-2.91701556391854
30
0
41
1
10
27.0875266779859
20
-2.96156864298746
30
0
41
1
10
27.2667082506919
20
-2.97751870061077
30
0
41
1
10
27.5800883600563
20
-2.99461967205377
30
0
41
1
10
27.7145735884047
20
-2.99838350870991
30
0
41
1
10
27.8493120106568
20
-2.99854838100023
30
0
0
SPLINE
5
BE
100
AcDbEntity
8
1
62
256
6
ByLayer
370
18
48
1
60
0
100
AcDbSpline
70
4
71
3
72
10
73
6
40
0
40
0
40
0
40
0
40
0.535605906301634
40
0.535605906301634
40
1
40
1
40
1
40
1
41
1
10
11.8648874954944
20
-2.91363619618022
30
0
41
1
10
12.0441358253435
20
-2.93743249634096
30
0
41
1
10
12.2235691242332
20
-2.95472491530785
30
0
41
1
10
12.5582300435989
20
-2.97544314045936
30
0
41
1
10
12.7133233622003
20
-2.98039342167235
30
0
41
1
10
12.8684410771644
20
-2.98057573505466
30
0
0
SPLINE
5
BF
100
AcDbEntity
8
1
62
256
6
ByLayer
370
18
48
1
60
0
100
AcDbSpline
70
4
71
3
72
28
73
24
40
0
40
0
40
0
40
0
40
0.0496984924621579
40
0.0496984924621579
40
0.144728643215942
40
0.144728643215942
40
0.239758793969726
40
0.239758793969726
40
0.334788944723511
40
0.334788944723511
40
0.429819095477295
40
0.429819095477295
40
0.524849246231079
40
0.524849246231079
40
0.619879396984863
40
0.619879396984863
40
0.714909547738647
40
0.714909547738647
40
0.809939698492432
40
0.809939698492432
40
0.904969849246216
40
0.904969849246216
40
1
40
1
40
1
40
1
41
1
10
23.405835851686
20
1.78474263745954
30
0
41
1
10
23.4994294124631
20
1.83192661850279
30
0
41
1
10
23.5930243295037
20
1.87817520550738
30
0
41
1
10
23.865650264059
20
2.01002199165629
30
0
41
1
10
24.0450912587568
20
2.09234970065634
30
0
41
1
10
24.4033050236521
20
2.24709201367611
30
0
41
1
10
24.5819725871199
20
2.32007858030227
30
0
41
1
10
24.9390820294412
20
2.45643423904821
30
0
41
1
10
25.1183112652005
20
2.51907792627429
30
0
41
1
10
25.477280482747
20
2.63412336544036
30
0
41
1
10
25.6560246692357
20
2.68643667628652
30
0
41
1
10
26.0134207830336
20
2.77909529761928
30
0
41
1
10
26.1924275296006
20
2.81935786554038
30
0
41
1
10
26.5502904514255
20
2.88827662660299
30
0
41
1
10
26.7290578671737
20
2.91701556392022
30
0
41
1
10
27.0875266779975
20
2.96156864298862
30
0
41
1
10
27.2667082507035
20
2.97751870061168
30
0
41
1
10
27.6240444184866
20
2.99701832875667
30
0
41
1
10
27.8023135521005
20
3.00045782210563
30
0
41
1
10
28.1602935935393
20
2.99466183718917
30
0
41
1
10
28.3400448172382
20
2.98546782957965
30
0
41
1
10
28.6978517119181
20
2.95436431166252
30
0
41
1
10
28.8762225059758
20
2.93246339367929
30
0
41
1
10
29.0550331034066
20
2.9046307293201
30
0
0
SPLINE
5
C0
100
AcDbEntity
8
1
62
256
6
ByLayer
370
18
48
1
60
0
100
AcDbSpline
70
4
71
3
72
12
73
8
40
0
40
0
40
0
40
0
40
0.25
40
0.25
40
0.500000000000001
40
0.500000000000001
40
1
40
1
40
1
40
1
41
1
10
4.25082916642427
20
-2.85050767228907
30
0
41
1
10
4.23175151816861
20
-2.85022974830457
30
0
41
1
10
4.21251888350446
20
-2.85201738965213
30
0
41
1
10
4.17369885077369
20
-2.86040541820168
30
0
41
1
10
4.15389026779263
20
-2.86714682689572
30
0
41
1
10
4.09706532690478
20
-2.8955088869638
30
0
41
1
10
4.06135883307866
20
-2.92671792217598
30
0
41
1
10
4.03702413294928
20
-2.96627498330056
30
0
0
SPLINE
5
C1
100
AcDbEntity
8
1
62
256
6
ByLayer
370
13
48
1
60
0
100
AcDbSpline
70
4
71
3
72
10
73
6
40
0
40
0
40
0
40
0
40
0.5
40
0.5
40
1
40
1
40
1
40
1
41
1
10
4.03678813023618
20
1.08587059630938
30
0
41
1
10
4.04659389826787
20
1.07160756287948
30
0
41
1
10
4.05850415676838
20
1.05802268170839
30
0
41
1
10
4.08549837461317
20
1.03378784837102
30
0
41
1
10
4.10066142201421
20
1.02295665628333
30
0
41
1
10
4.1177380695442
20
1.01357627490739
30
0
0
SPLINE
5
C2
100
AcDbEntity
8
1
62
256
6
ByLayer
370
18
48
1
60
0
100
AcDbSpline
70
4
71
3
72
70
73
66
40
0
40
0
40
0
40
0
40
0.0008326679723125
40
0.0008326679723125
40
0.0378388654548196
40
0.0378388654548196
40
0.0563419641960731
40
0.0563419641960731
40
0.0748450629373266
40
0.0748450629373266
40
0.111851260419833
40
0.111851260419833
40
0.148857457902339
40
0.148857457902339
40
0.167360556643592
40
0.167360556643592
40
0.185863655384846
40
0.185863655384846
40
0.222869852867353
40
0.222869852867353
40
0.25987605034986
40
0.25987605034986
40
0.296882247832367
40
0.296882247832367
40
0.333888445314874
40
0.333888445314874
40
0.370894642797381
40
0.370894642797381
40
0.407900840279888
40
0.407900840279888
40
0.444907037762395
40
0.444907037762395
40
0.481913235244902
40
0.481913235244902
40
0.518919432727409
40
0.518919432727409
40
0.555925630209916
40
0.555925630209916
40
0.574428728951169
40
0.574428728951169
40
0.592931827692422
40
0.592931827692422
40
0.62993802517493
40
0.62993802517493
40
0.648441123916183
40
0.648441123916183
40
0.666944222657436
40
0.666944222657436
40
0.703950420139944
40
0.703950420139944
40
0.740956617622451
40
0.740956617622451
40
0.777962815104958
40
0.777962815104958
40
0.814969012587465
40
0.814969012587465
40
0.851975210069972
40
0.851975210069972
40
0.888981407552479
40
0.888981407552479
40
0.925987605034986
40
0.925987605034986
40
0.962993802517493
40
0.962993802517493
40
1
40
1
40
1
40
1
41
1
10
23.4080106032403
20
-1.78912620300605
30
0
41
1
10
23.403330162795
20
-1.79132978091553
30
0
41
1
10
23.3986496142391
20
-1.7935312284184
30
0
41
1
10
23.1859468280987
20
-1.89347520882456
30
0
41
1
10
22.97796554954
20
-1.98663741325245
30
0
41
1
10
22.6662157754158
20
-2.11653120512563
30
0
41
1
10
22.5623011340716
20
-2.15834761320866
30
0
41
1
10
22.354527929339
20
-2.23856542493115
30
0
41
1
10
22.2506587164148
20
-2.27680042652631
30
0
41
1
10
21.9387391441411
20
-2.38702299900032
30
0
41
1
10
21.7304374037614
20
-2.45453988323664
30
0
41
1
10
21.3146329434242
20
-2.57544785464029
30
0
41
1
10
21.1071822480595
20
-2.62946777271483
30
0
41
1
10
20.7950134152238
20
-2.69698042690848
30
0
41
1
10
20.6907424832688
20
-2.71686182575297
30
0
41
1
10
20.4825085732732
20
-2.75345656579765
30
0
41
1
10
20.3785063756303
20
-2.7701684026209
30
0
41
1
10
20.0666196655088
20
-2.8145235326428
30
0
41
1
10
19.8587123089577
20
-2.83654418582154
30
0
41
1
10
19.4420461648318
20
-2.86472362449041
30
0
41
1
10
19.2339966253992
20
-2.87042874301241
30
0
41
1
10
18.8182450734407
20
-2.86335944190702
30
0
41
1
10
18.6102062564493
20
-2.85235641047191
30
0
41
1
10
18.1937740980643
20
-2.81276094607927
30
0
41
1
10
17.9855888897274
20
-2.78497121073875
30
0
41
1
10
17.5694081206644
20
-2.71554738403944
30
0
41
1
10
17.3615196970082
20
-2.67317989982956
30
0
41
1
10
16.944947216151
20
-2.57172239298942
30
0
41
1
10
16.7365463527593
20
-2.51280674781552
30
0
41
1
10
16.3204952489536
20
-2.38223789463677
30
0
41
1
10
16.1126502079871
20
-2.31045933508955
30
0
41
1
10
15.6956880414749
20
-2.15349873938408
30
0
41
1
10
15.4874492661187
20
-2.06815896696537
30
0
41
1
10
15.0716531531665
20
-1.88614248248317
30
0
41
1
10
14.8634408646453
20
-1.79027102559707
30
0
41
1
10
14.4464464052681
20
-1.58857645226254
30
0
41
1
10
14.2386310243621
20
-1.48312243302325
30
0
41
1
10
13.9266678730568
20
-1.31805806486429
30
0
41
1
10
13.8226116161561
20
-1.26168903822261
30
0
41
1
10
13.6143862298561
20
-1.14795506525451
30
0
41
1
10
13.5102091652668
20
-1.0903839159474
30
0
41
1
10
13.1977440275266
20
-0.91512214070562
30
0
41
1
10
12.9897399712825
20
-0.795987708731758
30
0
41
1
10
12.6776699959805
20
-0.614352391408602
30
0
41
1
10
12.5737007253684
20
-0.553253024158693
30
0
41
1
10
12.36566251177
20
-0.429905488625565
30
0
41
1
10
12.261509367566
20
-0.367660583478596
30
0
41
1
10
11.9488575394398
20
-0.180803021068925
30
0
41
1
10
11.7406045617573
20
-0.0560613424534324
30
0
41
1
10
11.3244050640431
20
0.193666516492584
30
0
41
1
10
11.116232926188
20
0.318643802365898
30
0
41
1
10
10.6991888033246
20
0.565629300784678
30
0
41
1
10
10.4912902177494
20
0.688029457467394
30
0
41
1
10
10.0753701982238
20
0.927574149272658
30
0
41
1
10
9.86687658812926
20
1.04439344421161
30
0
41
1
10
9.44995979098712
20
1.27235938521773
30
0
41
1
10
9.24212529977746
20
1.38303907568078
30
0
41
1
10
8.8256850596722
20
1.59558187618626
30
0
41
1
10
8.61712693257411
20
1.69808794805869
30
0
41
1
10
8.20068184751935
20
1.89264100128591
30
0
41
1
10
7.99300744434913
20
1.98401999941453
30
0
41
1
10
7.57801536964425
20
2.15430799678242
30
0
41
1
10
7.37097508676524
20
2.23398435861239
30
0
41
1
10
6.95588942284149
20
2.38025606815464
30
0
41
1
10
6.74788476268833
20
2.44684945729293
30
0
41
1
10
6.5393688692738
20
2.50631276479251
30
0
0
SPLINE
5
C3
100
AcDbEntity
8
1
62
256
6
ByLayer
370
18
48
1
60
0
100
AcDbSpline
70
4
71
3
72
12
73
8
40
0
40
0
40
0
40
0
40
0.414004579367124
40
0.414004579367124
40
0.828009158734248
40
0.828009158734248
40
1
40
1
40
1
40
1
41
1
10
6.53936886927366
20
-2.50631276479257
30
0
41
1
10
6.74797509362321
20
-2.44682369726064
30
0
41
1
10
6.95637185281822
20
-2.38011077426779
30
0
41
1
10
7.37279400492343
20
-2.23331854530809
30
0
41
1
10
7.58084850638696
20
-2.15321942626844
30
0
41
1
10
7.87617773307133
20
-2.03192820182124
30
0
41
1
10
7.96277294926708
20
-1.99524408541922
30
0
41
1
10
8.04931759791265
20
-1.95755225339357
30
0
0
SPLINE
5
C4
100
AcDbEntity
8
1
62
256
6
ByLayer
370
18
48
1
60
0
100
AcDbSpline
70
4
71
3
72
34
73
30
40
0
40
0
40
0
40
0
40
0.0707899130269829
40
0.0707899130269829
40
0.155263557297258
40
0.155263557297258
40
0.197500379432396
40
0.197500379432396
40
0.239737201567534
40
0.239737201567534
40
0.324210845837809
40
0.324210845837809
40
0.408684490108085
40
0.408684490108085
40
0.450921312243222
40
0.450921312243222
40
0.49315813437836
40
0.49315813437836
40
0.577631778648634
40
0.577631778648634
40
0.662105422918907
40
0.662105422918907
40
0.74657906718918
40
0.74657906718918
40
0.831052711459454
40
0.831052711459454
40
0.915526355729727
40
0.915526355729727
40
1
40
1
40
1
40
1
41
1
10
19.1287939023327
20
2.86789539133793
30
0
41
1
10
19.30295104755
20
2.86833283233059
30
0
41
1
10
19.4768855800042
20
2.8623838067887
30
0
41
1
10
19.8591114616792
20
2.83649754325032
30
0
41
1
10
20.06745979594
20
2.81442329137332
30
0
41
1
10
20.3792934288449
20
2.77004679631881
30
0
41
1
10
20.4831939712706
20
2.75334113367839
30
0
41
1
10
20.6910822424935
20
2.71679707334417
30
0
41
1
10
20.7950231880274
20
2.69697684042651
30
0
41
1
10
21.1068710132483
20
2.62953802714446
30
0
41
1
10
21.3150460817054
20
2.57534003788541
30
0
41
1
10
21.7311468594966
20
2.45432123788501
30
0
41
1
10
21.939001031609
20
2.38693403168642
30
0
41
1
10
22.2508109386738
20
2.27674484578537
30
0
41
1
10
22.3547829304623
20
2.23847258447168
30
0
41
1
10
22.5630729268576
20
2.15804399772199
30
0
41
1
10
22.6671430198012
20
2.11615437944411
30
0
41
1
10
22.9790969092953
20
1.98614684237319
30
0
41
1
10
23.186553307338
20
1.89319826472215
30
0
41
1
10
23.6025030282428
20
1.69773730983198
30
0
41
1
10
23.8109647200344
20
1.59547384934746
30
0
41
1
10
24.2264302454447
20
1.3809495834935
30
0
41
1
10
24.4339693105609
20
1.26926777625621
30
0
41
1
10
24.8499061084135
20
1.0399680371508
30
0
41
1
10
25.0580019252434
20
0.921655358403541
30
0
41
1
10
25.4734718385943
20
0.68141820394527
30
0
41
1
10
25.6811705633138
20
0.559062721382105
30
0
41
1
10
26.0968348714534
20
0.310934659134375
30
0
41
1
10
26.3049165457593
20
0.185291657428337
30
0
41
1
10
26.5127837977747
20
0.0601206535962717
30
0
0
SPLINE
5
C5
100
AcDbEntity
8
1
62
256
6
ByLayer
370
18
48
1
60
0
100
AcDbSpline
70
4
71
3
72
12
73
8
40
0
40
0
40
0
40
0
40
0.500000000000003
40
0.500000000000003
40
0.750000000000002
40
0.750000000000002
40
1
40
1
40
1
40
1
41
1
10
4.25082916677178
20
2.8505076722914
30
0
41
1
10
4.62260572278214
20
2.85592372881311
30
0
41
1
10
5.00011782148943
20
2.82472597805875
30
0
41
1
10
5.57477493718724
20
2.73448919932631
30
0
41
1
10
5.76794898614236
20
2.69691732399514
30
0
41
1
10
6.15331510997135
20
2.61023497431248
30
0
41
1
10
6.34608781361783
20
2.561244069492
30
0
41
1
10
6.53931136506176
20
2.50634407343662
30
0
0
SPLINE
5
C6
100
AcDbEntity
8
1
62
256
6
ByLayer
370
18
48
1
60
0
100
AcDbSpline
70
4
71
3
72
8
73
4
40
0
40
0
40
0
40
0
40
1
40
1
40
1
40
1
41
1
10
4.12088209461936
20
0.960576925743425
30
0
41
1
10
4.11955777566996
20
0.961357160238492
30
0
41
1
10
4.11823733667956
20
0.96214321742238
30
0
41
1
10
4.11692141072609
20
0.962935830971873
30
0
0
SPLINE
5
C7
100
AcDbEntity
8
1
62
256
6
ByLayer
370
18
48
1
60
0
100
AcDbSpline
70
4
71
3
72
24
73
20
40
0
40
0
40
0
40
0
40
0.125000000000004
40
0.125000000000004
40
0.250000000000007
40
0.250000000000007
40
0.375000000000011
40
0.375000000000011
40
0.500000000000015
40
0.500000000000015
40
0.562500000000011
40
0.562500000000011
40
0.625000000000008
40
0.625000000000008
40
0.750000000000006
40
0.750000000000006
40
0.875000000000003
40
0.875000000000003
40
1
40
1
40
1
40
1
41
1
10
29.6199530799772
20
-0.992806092222168
30
0
41
1
10
29.6003311747622
20
-0.981371468812114
30
0
41
1
10
29.5758342886785
20
-0.982377421228676
30
0
41
1
10
29.5226701638682
20
-1.00373611901676
30
0
41
1
10
29.4935990652062
20
-1.02425816846292
30
0
41
1
10
29.4345162067068
20
-1.08150755801555
30
0
41
1
10
29.4038492578343
20
-1.11888163293133
30
0
41
1
10
29.3450139068452
20
-1.2084567283265
30
0
41
1
10
29.3162410898274
20
-1.26167615859487
30
0
41
1
10
29.2805921727332
20
-1.348627014345
30
0
41
1
10
29.2701311384658
20
-1.3783709723597
30
0
41
1
10
29.2531298933842
20
-1.43814004865626
30
0
41
1
10
29.2469310589694
20
-1.46687332976745
30
0
41
1
10
29.2357224436136
20
-1.54937806414426
30
0
41
1
10
29.2393203641848
20
-1.5935117666636
30
0
41
1
10
29.2627766969086
20
-1.65227736015885
30
0
41
1
10
29.2819077310912
20
-1.666796165665
30
0
41
1
10
29.3271155880625
20
-1.67298836526447
30
0
41
1
10
29.3536748171296
20
-1.66469363194309
30
0
41
1
10
29.3817883963676
20
-1.64715818255036
30
0
0
SPLINE
5
C8
100
AcDbEntity
8
1
62
256
6
ByLayer
370
18
48
1
60
0
100
AcDbSpline
70
4
71
3
72
22
73
18
40
0
40
0
40
0
40
0
40
0.141432661822054
40
0.141432661822054
40
0.212148992733081
40
0.212148992733081
40
0.282865323644108
40
0.282865323644108
40
0.565730647288216
40
0.565730647288216
40
0.707163309110272
40
0.707163309110272
40
0.777879640021301
40
0.777879640021301
40
0.84859597093233
40
0.84859597093233
40
1
40
1
40
1
40
1
41
1
10
4.19773348583794
20
0.908738250472368
30
0
41
1
10
4.4584304204908
20
0.755514000576483
30
0
41
1
10
4.71845601580679
20
0.598692817450882
30
0
41
1
10
5.10860391022277
20
0.35987307869982
30
0
41
1
10
5.23868025574674
20
0.279683128798979
30
0
41
1
10
5.49914640340984
20
0.118553205590302
30
0
41
1
10
5.62973835499304
20
0.0374790156136555
30
0
41
1
10
6.27993439791391
20
-0.365927308224371
30
0
41
1
10
6.7940903065444
20
-0.68284486132012
30
0
41
1
10
7.56577392610075
20
-1.13468212918733
30
0
41
1
10
7.82337780322609
20
-1.28095585031826
30
0
41
1
10
8.21148690556555
20
-1.49193538572663
30
0
41
1
10
8.34112845592216
20
-1.56087898247785
30
0
41
1
10
8.60120703489252
20
-1.69561323920416
30
0
41
1
10
8.73185639815699
20
-1.76150013151377
30
0
41
1
10
9.14013578621896
20
-1.9610492924169
30
0
41
1
10
9.41654113551147
20
-2.08688111242682
30
0
41
1
10
9.69227461954489
20
-2.20135302896745
30
0
0
SPLINE
5
C9
100
AcDbEntity
8
1
62
256
6
ByLayer
370
13
48
1
60
0
100
AcDbSpline
70
4
71
3
72
20
73
16
40
0
40
0
40
0
40
0
40
0.154838924875104
40
0.154838924875104
40
0.32142239698394
40
0.32142239698394
40
0.404714133038358
40
0.404714133038358
40
0.488005869092777
40
0.488005869092777
40
0.821172813310456
40
0.821172813310456
40
0.987756285419296
40
0.987756285419296
40
1
40
1
40
1
40
1
41
1
10
9.69227454082142
20
-2.20135299628507
30
0
41
1
10
9.9316888086064
20
-2.30074683915311
30
0
41
1
10
10.1705965485753
20
-2.3915763069954
30
0
41
1
10
10.6671375095453
20
-2.56075247165518
30
0
41
1
10
10.9246836288195
20
-2.63776201286205
30
0
41
1
10
11.312719734107
20
-2.73596779558832
30
0
41
1
10
11.4423613130192
20
-2.76581419207079
30
0
41
1
10
11.7025134800274
20
-2.8194177599687
30
0
41
1
10
11.8331046284106
20
-2.84316345821611
30
0
41
1
10
12.4823428519437
20
-2.94520545548582
30
0
41
1
10
12.9959684223116
20
-2.97486797377297
30
0
41
1
10
13.7673666206234
20
-2.9417005635635
30
0
41
1
10
14.0248739958543
20
-2.91789967300724
30
0
41
1
10
14.3027615103705
20
-2.87835679852142
30
0
41
1
10
14.3217939421018
20
-2.87557886777893
30
0
41
1
10
14.3408331392194
20
-2.8727304334208
30
0
0
SPLINE
5
CA
100
AcDbEntity
8
1
62
256
6
ByLayer
370
18
48
1
60
0
100
AcDbSpline
70
4
71
3
72
8
73
4
40
0
40
0
40
0
40
0
40
1
40
1
40
1
40
1
41
1
10
29.0078336829498
20
2.94998568581559
30
0
41
1
10
28.7164910367414
20
2.98308636192718
30
0
41
1
10
28.4259548861938
20
2.99941292225341
30
0
41
1
10
28.1349862771729
20
2.99893364034941
30
0
0
SPLINE
5
CB
100
AcDbEntity
8
1
62
256
6
ByLayer
370
18
48
1
60
0
100
AcDbSpline
70
4
71
3
72
28
73
24
40
0
40
0
40
0
40
0
40
0.101662929454253
40
0.101662929454253
40
0.176524351999735
40
0.176524351999735
40
0.213955063272475
40
0.213955063272475
40
0.251385774545215
40
0.251385774545215
40
0.401108619636172
40
0.401108619636172
40
0.475970042181651
40
0.475970042181651
40
0.55083146472713
40
0.55083146472713
40
0.700554309818087
40
0.700554309818087
40
0.775415732363565
40
0.775415732363565
40
0.850277154909043
40
0.850277154909043
40
1
40
1
40
1
40
1
41
1
10
14.5173488284404
20
-2.86453753880369
30
0
41
1
10
14.1656742569491
20
-2.92545657163239
30
0
41
1
10
13.8157830455396
20
-2.96259143753844
30
0
41
1
10
13.207610082793
20
-2.98528137283719
30
0
41
1
10
12.9492430733644
20
-2.98179084738698
30
0
41
1
10
12.5597195284112
20
-2.95670420157018
30
0
41
1
10
12.4295589374635
20
-2.94503289061223
30
0
41
1
10
12.1685017752983
20
-2.91494900660871
30
0
41
1
10
12.037629228783
20
-2.89652727999652
30
0
41
1
10
11.386637220217
20
-2.78883600753366
30
0
41
1
10
10.8718565864514
20
-2.6522818659468
30
0
41
1
10
10.0972152303332
20
-2.38185596856394
30
0
41
1
10
9.83874464733179
20
-2.28062624758937
30
0
41
1
10
9.31917270369911
20
-2.05762894138729
30
0
41
1
10
9.05679922094339
20
-1.93533379373255
30
0
41
1
10
8.27593772801021
20
-1.54688602918813
30
0
41
1
10
7.76088570090513
20
-1.2592177941718
30
0
41
1
10
6.98626714963856
20
-0.800296536496262
30
0
41
1
10
6.72753417840062
20
-0.643025691580959
30
0
41
1
10
6.2071097657269
20
-0.322775612649622
30
0
41
1
10
5.94469297145804
20
-0.159092666446668
30
0
41
1
10
5.16265886651848
20
0.329632662461279
30
0
41
1
10
4.64400820346401
20
0.652372444063161
30
0
41
1
10
4.12088209461936
20
0.960576925743425
30
0
0
SPLINE
5
CC
100
AcDbEntity
8
1
62
256
6
ByLayer
370
18
48
1
60
0
100
AcDbSpline
70
4
71
3
72
8
73
4
40
0
40
0
40
0
40
0
40
1
40
1
40
1
40
1
41
1
10
28.9341591386349
20
-2.87700946045672
30
0
41
1
10
28.9407878718343
20
-2.87919889955506
30
0
41
1
10
28.9478616315312
20
-2.88010380286568
30
0
41
1
10
28.9553761163139
20
-2.87973658609207
30
0
0
SPLINE
5
CD
100
AcDbEntity
8
1
62
256
6
ByLayer
370
18
48
1
60
0
100
AcDbSpline
70
4
71
3
72
8
73
4
40
0
40
0
40
0
40
0
40
1
40
1
40
1
40
1
41
1
10
29.0158991761158
20
-2.92829265329596
30
0
41
1
10
29.0132122197585
20
-2.93552492482513
30
0
41
1
10
29.0105237139771
20
-2.94275595797691
30
0
41
1
10
29.0078336829498
20
-2.94998568581559
30
0
0
SPLINE
5
CE
100
AcDbEntity
8
1
62
256
6
ByLayer
370
18
48
1
60
0
100
AcDbSpline
70
4
71
3
72
44
73
40
40
0
40
0
40
0
40
0
40
0.125000000000015
40
0.125000000000015
40
0.250000000000031
40
0.250000000000031
40
0.375000000000046
40
0.375000000000046
40
0.500000000000061
40
0.500000000000061
40
0.531250000000062
40
0.531250000000062
40
0.562500000000062
40
0.562500000000062
40
0.625000000000056
40
0.625000000000056
40
0.656250000000052
40
0.656250000000052
40
0.687500000000049
40
0.687500000000049
40
0.718750000000046
40
0.718750000000046
40
0.750000000000043
40
0.750000000000043
40
0.78125000000004
40
0.78125000000004
40
0.812500000000037
40
0.812500000000037
40
0.843750000000033
40
0.843750000000033
40
0.87500000000003
40
0.87500000000003
40
0.906250000000027
40
0.906250000000027
40
0.921875000000024
40
0.921875000000024
40
0.93750000000002
40
0.93750000000002
40
1
40
1
40
1
40
1
41
1
10
26.5127837977744
20
0.060120653596357
30
0
41
1
10
26.6578396717868
20
-0.0296053221480577
30
0
41
1
10
26.8044818048397
20
-0.11477838626999
30
0
41
1
10
27.1011435007863
20
-0.269562418280913
30
0
41
1
10
27.2513868349408
20
-0.339427555921787
30
0
41
1
10
27.5548356445785
20
-0.460541146348646
30
0
41
1
10
27.7076018428494
20
-0.511679866410446
30
0
41
1
10
28.0154850893693
20
-0.592705030743247
30
0
41
1
10
28.1698238126452
20
-0.622313056336139
30
0
41
1
10
28.3624635851319
20
-0.643816805303743
30
0
41
1
10
28.4010052549866
20
-0.647342649954624
30
0
41
1
10
28.4780049191668
20
-0.652777268855317
30
0
41
1
10
28.5164855725224
20
-0.65477578273746
30
0
41
1
10
28.6311846426512
20
-0.654537886523116
30
0
41
1
10
28.7069661052981
20
-0.647205059343179
30
0
41
1
10
28.8160218350167
20
-0.621433509053901
30
0
41
1
10
28.8517301481206
20
-0.610536073870151
30
0
41
1
10
28.9215753326746
20
-0.583108503520066
30
0
41
1
10
28.9561227585543
20
-0.566668414978096
30
0
41
1
10
29.0204236749888
20
-0.525629796159478
30
0
41
1
10
29.0497082495175
20
-0.50004314918462
30
0
41
1
10
29.1040825149145
20
-0.441452634626302
30
0
41
1
10
29.1282156910087
20
-0.408453541802373
30
0
41
1
10
29.1680145127148
20
-0.334874796975015
30
0
41
1
10
29.183724924051
20
-0.292930506000403
30
0
41
1
10
29.2031487139002
20
-0.204568005564255
30
0
41
1
10
29.2074231637364
20
-0.158035994087157
30
0
41
1
10
29.2063539591763
20
-0.0620784906711265
30
0
41
1
10
29.2010725438368
20
-0.0143087355551756
30
0
41
1
10
29.1838502653114
20
0.0809375670261261
30
0
41
1
10
29.1717970743973
20
0.128644512529036
30
0
41
1
10
29.142880860482
20
0.221867366879337
30
0
41
1
10
29.1259916115065
20
0.267641281406156
30
0
41
1
10
29.0979117897998
20
0.335121137083263
30
0
41
1
10
29.0881431633612
20
0.357409029056328
30
0
41
1
10
29.0677746251795
20
0.401492927151082
30
0
41
1
10
29.0571169892066
20
0.423247281337723
30
0
41
1
10
29.006435712116
20
0.533574168140092
30
0
41
1
10
28.9697052318737
20
0.624130687729377
30
0
41
1
10
28.9365147130763
20
0.715705419593775
30
0
0
SPLINE
5
CF
100
AcDbEntity
8
1
62
256
6
ByLayer
370
18
48
1
60
0
100
AcDbSpline
70
4
71
3
72
62
73
58
40
0
40
0
40
0
40
0
40
0.0625000000000027
40
0.0625000000000027
40
0.125000000000005
40
0.125000000000005
40
0.250000000000012
40
0.250000000000012
40
0.375000000000019
40
0.375000000000019
40
0.437500000000022
40
0.437500000000022
40
0.500000000000026
40
0.500000000000026
40
0.562500000000029
40
0.562500000000029
40
0.625000000000032
40
0.625000000000032
40
0.656250000000034
40
0.656250000000034
40
0.660156250000033
40
0.660156250000033
40
0.664062500000033
40
0.664062500000033
40
0.666015625000032
40
0.666015625000032
40
0.667968750000032
40
0.667968750000032
40
0.671875000000031
40
0.671875000000031
40
0.68750000000003
40
0.68750000000003
40
0.718750000000027
40
0.718750000000027
40
0.734375000000025
40
0.734375000000025
40
0.750000000000024
40
0.750000000000024
40
0.765625000000022
40
0.765625000000022
40
0.781250000000021
40
0.781250000000021
40
0.796875000000019
40
0.796875000000019
40
0.812500000000017
40
0.812500000000017
40
0.828125000000016
40
0.828125000000016
40
0.843750000000014
40
0.843750000000014
40
0.875000000000011
40
0.875000000000011
40
0.906250000000008
40
0.906250000000008
40
0.937500000000005
40
0.937500000000005
40
1
40
1
40
1
40
1
41
1
10
11.8650658762057
20
-2.91366347987568
30
0
41
1
10
11.608997729657
20
-2.87974535347937
30
0
41
1
10
11.349755966994
20
-2.83462585510955
30
0
41
1
10
10.8249851143168
20
-2.72714946718401
30
0
41
1
10
10.5590642311304
20
-2.66464823096405
30
0
41
1
10
9.75320691354648
20
-2.45818979175826
30
0
41
1
10
9.21141816134755
20
-2.29701790685402
30
0
41
1
10
8.10998271964678
20
-1.96419082195052
30
0
41
1
10
7.55023903171124
20
-1.79260698484492
30
0
41
1
10
6.69199680099217
20
-1.55373048505936
30
0
41
1
10
6.4023319801253
20
-1.47705483469312
30
0
41
1
10
5.82015749734998
20
-1.3345758126944
30
0
41
1
10
5.52738871109511
20
-1.26868483878144
30
0
41
1
10
4.93816639210738
20
-1.15039239061608
30
0
41
1
10
4.6417147155054
20
-1.09798646133032
30
0
41
1
10
4.04491694054155
20
-1.00876493001374
30
0
41
1
10
3.74458059777521
20
-0.971965930673804
30
0
41
1
10
3.29288790117542
20
-0.929762213646484
30
0
41
1
10
3.1421028971485
20
-0.917849536627529
30
0
41
1
10
2.97228555347166
20
-0.906946556786863
30
0
41
1
10
2.95341447603198
20
-0.905769809446952
30
0
41
1
10
2.91566734385026
20
-0.903485923033628
30
0
41
1
10
2.89676390120084
20
-0.903397649609218
30
0
41
1
10
2.86922732547012
20
-0.90944595516396
30
0
41
1
10
2.86020205639272
20
-0.912382717054157
30
0
41
1
10
2.84380999835361
20
-0.920771083327054
30
0
41
1
10
2.83612245256575
20
-0.925883566665533
30
0
41
1
10
2.81249846302458
20
-0.940190792276837
30
0
41
1
10
2.79683566128543
20
-0.949831881938621
30
0
41
1
10
2.71897839368862
20
-0.998572275979086
30
0
41
1
10
2.65797525190757
20
-1.03938962489073
30
0
41
1
10
2.48159897894169
20
-1.16711872501799
30
0
41
1
10
2.37307446703733
20
-1.25870719287175
30
0
41
1
10
2.23168602308803
20
-1.41038447575718
30
0
41
1
10
2.18787704846562
20
-1.46379391361623
30
0
41
1
10
2.11151999946222
20
-1.57505153778456
30
0
41
1
10
2.07960987660886
20
-1.63188470334762
30
0
41
1
10
2.03055426446898
20
-1.74811264074665
30
0
41
1
10
2.01366711687444
20
-1.80768398844219
30
0
41
1
10
1.99769103945096
20
-1.9227912726403
30
0
41
1
10
1.99824905268139
20
-1.97952943130443
30
0
41
1
10
2.01546896595465
20
-2.08852625837605
30
0
41
1
10
2.03178223713644
20
-2.13971696954741
30
0
41
1
10
2.07678058530854
20
-2.23648682529543
30
0
41
1
10
2.1054892688241
20
-2.28184345186386
30
0
41
1
10
2.17074241108293
20
-2.36523964383682
30
0
41
1
10
2.20749640476277
20
-2.40371495127775
30
0
41
1
10
2.28735990418144
20
-2.47548103610674
30
0
41
1
10
2.33069554531562
20
-2.50889833797658
30
0
41
1
10
2.46667261680631
20
-2.60141705405272
30
0
41
1
10
2.56487956665691
20
-2.65297805786204
30
0
41
1
10
2.77074725368181
20
-2.7421984404325
30
0
41
1
10
2.87850335832948
20
-2.7797515897183
30
0
41
1
10
3.10095686359958
20
-2.84375506827564
30
0
41
1
10
3.21507182136625
20
-2.86997176351164
30
0
41
1
10
3.56076784581941
20
-2.93387852618412
30
0
41
1
10
3.79700559376414
20
-2.95743373898904
30
0
41
1
10
4.0370241329496
20
-2.96627498330054
30
0
0
SPLINE
5
D0
100
AcDbEntity
8
1
62
256
6
ByLayer
370
18
48
1
60
0
100
AcDbSpline
70
4
71
3
72
10
73
6
40
0
40
0
40
0
40
0
40
0.5
40
0.5
40
1
40
1
40
1
40
1
41
1
10
4.11692141072598
20
0.962935830971929
30
0
41
1
10
4.09426075999107
20
0.976584880726762
30
0
41
1
10
4.07467911347644
20
0.994231341486426
30
0
41
1
10
4.04589194774431
20
1.03635413661306
30
0
41
1
10
4.03678421430109
20
1.06072787468767
30
0
41
1
10
4.036788130236
20
1.08587059630872
30
0
0
SPLINE
5
D1
100
AcDbEntity
8
1
62
256
6
ByLayer
370
18
48
1
60
0
100
AcDbSpline
70
4
71
3
72
20
73
16
40
0
40
0
40
0
40
0
40
0.124999999999995
40
0.124999999999995
40
0.187499999999993
40
0.187499999999993
40
0.249999999999991
40
0.249999999999991
40
0.499999999999994
40
0.499999999999994
40
0.624999999999995
40
0.624999999999995
40
0.749999999999997
40
0.749999999999997
40
1
40
1
40
1
40
1
41
1
10
26.5127837977745
20
0.0601206535963854
30
0
41
1
10
26.5475128983098
20
-0.0749186045186434
30
0
41
1
10
26.5928176675225
20
-0.205151728313552
30
0
41
1
10
26.673661567652
20
-0.394130741708437
30
0
41
1
10
26.7027829166733
20
-0.456082181762127
30
0
41
1
10
26.765095337489
20
-0.578034701649074
30
0
41
1
10
26.7983065404065
20
-0.638022016148142
30
0
41
1
10
26.9709612652194
20
-0.928513947322557
30
0
41
1
10
27.1320020203667
20
-1.13549253504027
30
0
41
1
10
27.3981261601475
20
-1.41872000789871
30
0
41
1
10
27.489916116516
20
-1.50740208639891
30
0
41
1
10
27.6772931375459
20
-1.67416547206187
30
0
41
1
10
27.7731130029279
20
-1.75245499972098
30
0
41
1
10
28.0660714138822
20
-1.97418598947564
30
0
41
1
10
28.268755304728
20
-2.10476644938015
30
0
41
1
10
28.4772301606952
20
-2.2207171654197
30
0
0
SPLINE
5
D2
100
AcDbEntity
8
1
62
256
6
ByLayer
370
13
48
1
60
0
100
AcDbSpline
70
4
71
3
72
10
73
6
40
0
40
0
40
0
40
0
40
0.5
40
0.5
40
1
40
1
40
1
40
1
41
1
10
4.25054642243384
20
0.956150849802526
30
0
41
1
10
4.22723363070537
20
0.964010901745951
30
0
41
1
10
4.20439958347004
20
0.97272002072333
30
0
41
1
10
4.15972761621566
20
0.991948817227382
30
0
41
1
10
4.13787581944882
20
1.0025143979303
30
0
41
1
10
4.1177380695442
20
1.01357627490739
30
0
0
SPLINE
5
D3
100
AcDbEntity
8
1
62
256
6
ByLayer
370
18
48
1
60
0
100
AcDbSpline
70
4
71
3
72
42
73
38
40
0
40
0
40
0
40
0
40
0.0981739683417483
40
0.0981739683417483
40
0.122717460427187
40
0.122717460427187
40
0.147260952512625
40
0.147260952512625
40
0.196347936683504
40
0.196347936683504
40
0.294521905025263
40
0.294521905025263
40
0.319065397110702
40
0.319065397110702
40
0.343608889196142
40
0.343608889196142
40
0.392695873367019
40
0.392695873367019
40
0.490869841708775
40
0.490869841708775
40
0.589043810050531
40
0.589043810050531
40
0.638130794221409
40
0.638130794221409
40
0.687217778392287
40
0.687217778392287
40
0.785391746734044
40
0.785391746734044
40
0.834478730904922
40
0.834478730904922
40
0.859022222990362
40
0.859022222990362
40
0.883565715075802
40
0.883565715075802
40
0.98173968341756
40
0.98173968341756
40
1
40
1
40
1
40
1
41
1
10
29.0078336829498
20
-2.94998568581559
30
0
41
1
10
28.4871709269374
20
-3.00914039410986
30
0
41
1
10
27.9695552345058
20
-3.01466809644373
30
0
41
1
10
27.3175308740693
20
-2.95468592307557
30
0
41
1
10
27.1868314472713
20
-2.93930966743994
30
0
41
1
10
26.926749140891
20
-2.9021747431338
30
0
41
1
10
26.7971073214461
20
-2.88039698358341
30
0
41
1
10
26.4089567678832
20
-2.80576159681834
30
0
41
1
10
26.151221207402
20
-2.74361336458304
30
0
41
1
10
25.3784302854341
20
-2.52217115861507
30
0
41
1
10
24.8637431899515
20
-2.32792095338638
30
0
41
1
10
24.2112683735782
20
-2.03405749899869
30
0
41
1
10
24.0807330001274
20
-1.97290460308304
30
0
41
1
10
23.820845076629
20
-1.84695068273425
30
0
41
1
10
23.6912548315122
20
-1.78205187085192
30
0
41
1
10
23.3032547408566
20
-1.58203704436937
30
0
41
1
10
23.0456105811307
20
-1.44160526624051
30
0
41
1
10
22.272625804367
20
-1.00363527623799
30
0
41
1
10
21.7577026149331
20
-0.688724530218906
30
0
41
1
10
20.7120167304976
20
-0.0373519444405019
30
0
41
1
10
20.1969810246283
20
0.29029132068095
30
0
41
1
10
19.423697923414
20
0.764930307234323
30
0
41
1
10
19.1658840856167
20
0.920454940806991
30
0
41
1
10
18.6483784698606
20
1.22329250148644
30
0
41
1
10
18.3881294744871
20
1.37082763448461
30
0
41
1
10
17.6046809091797
20
1.7941959878365
30
0
41
1
10
17.0892953754918
20
2.04461245767141
30
0
41
1
10
16.3159236856281
20
2.36144742072068
30
0
41
1
10
16.0579809388258
20
2.45712464040093
30
0
41
1
10
15.6694417151023
20
2.58421950202518
30
0
41
1
10
15.5396627041442
20
2.62385143152804
30
0
41
1
10
15.2793521107311
20
2.69738858964561
30
0
41
1
10
15.1485068472123
20
2.73136502069573
30
0
41
1
10
14.4961092264719
20
2.88507022263278
30
0
41
1
10
13.9807472715376
20
2.95646947926397
30
0
41
1
10
13.3691272693908
20
2.97924935259525
30
0
41
1
10
13.2731609448412
20
2.98100763146215
30
0
41
1
10
13.1771039144668
20
2.98094724144701
30
0
0
SPLINE
5
D4
100
AcDbEntity
8
1
62
256
6
ByLayer
370
18
48
1
60
0
100
AcDbSpline
70
4
71
3
72
22
73
18
40
0
40
0
40
0
40
0
40
0.125
40
0.125
40
0.25
40
0.25
40
0.375
40
0.375
40
0.5
40
0.5
40
0.625
40
0.625
40
0.75
40
0.75
40
0.875
40
0.875
40
1
40
1
40
1
40
1
41
1
10
29.0550331034066
20
-2.90463072932013
30
0
41
1
10
29.0855275059964
20
-2.83554622866168
30
0
41
1
10
29.1160780292051
20
-2.7651592219934
30
0
41
1
10
29.1772786135058
20
-2.62207502937287
30
0
41
1
10
29.2080058692239
20
-2.54874368486165
30
0
41
1
10
29.2690991295983
20
-2.40044106866
30
0
41
1
10
29.2995477299304
20
-2.32566213938529
30
0
41
1
10
29.3601514469478
20
-2.17422529661485
30
0
41
1
10
29.3903320417925
20
-2.09717999249622
30
0
41
1
10
29.4501615581237
20
-1.94278677113547
30
0
41
1
10
29.479795577243
20
-1.86544955197942
30
0
41
1
10
29.5381523408685
20
-1.71031870072451
30
0
41
1
10
29.5668990821131
20
-1.63253708741976
30
0
41
1
10
29.6237899251063
20
-1.47667202812238
30
0
41
1
10
29.6520819122749
20
-1.39866265071322
30
0
41
1
10
29.7075915636165
20
-1.24210581998136
30
0
41
1
10
29.7349288195417
20
-1.16361826432589
30
0
41
1
10
29.7620484580483
20
-1.08502171473486
30
0
0
SPLINE
5
D5
100
AcDbEntity
8
1
62
256
6
ByLayer
370
18
48
1
60
0
100
AcDbSpline
70
4
71
3
72
14
73
10
40
0
40
0
40
0
40
0
40
0.500000000000021
40
0.500000000000021
40
0.750000000000031
40
0.750000000000031
40
0.875000000000015
40
0.875000000000015
40
1
40
1
40
1
40
1
41
1
10
28.9727750235566
20
0.824567304278617
30
0
41
1
10
29.1149033820662
20
0.841504521036399
30
0
41
1
10
29.2556714167396
20
0.863416264797166
30
0
41
1
10
29.4602494142427
20
0.917736761433218
30
0
41
1
10
29.5277320362265
20
0.939658824744157
30
0
41
1
10
29.6225854632788
20
0.983044027653023
30
0
41
1
10
29.6532068249553
20
0.999297369062674
30
0
41
1
10
29.7113461614225
20
1.03756736152374
30
0
41
1
10
29.7385920252888
20
1.05943581873407
30
0
41
1
10
29.7620484580459
20
1.08502171474186
30
0
0
SPLINE
5
D6
100
AcDbEntity
8
1
62
256
6
ByLayer
370
13
48
1
60
0
100
AcDbSpline
70
4
71
3
72
8
73
4
40
0
40
0
40
0
40
0
40
1
40
1
40
1
40
1
41
1
10
29.166366842784
20
0.685104656521474
30
0
41
1
10
29.1001423461558
20
0.72750888337734
30
0
41
1
10
29.0351865477655
20
0.773960049536868
30
0
41
1
10
28.9727750235589
20
0.824567304263098
30
0
0
SPLINE
5
D7
100
AcDbEntity
8
1
62
256
6
ByLayer
370
18
48
1
60
0
100
AcDbSpline
70
4
71
3
72
14
73
10
40
0
40
0
40
0
40
0
40
0.476204899315509
40
0.476204899315509
40
0.61141280037142
40
0.61141280037142
40
0.746620701427331
40
0.746620701427331
40
1
40
1
40
1
40
1
41
1
10
13.3625490015918
20
-2.86121408587743
30
0
41
1
10
12.9104545738908
20
-2.86078151049944
30
0
41
1
10
12.4582640003323
20
-2.82160810399824
30
0
41
1
10
11.8720871530618
20
-2.72176286498271
30
0
41
1
10
11.7417648976081
20
-2.69648159609773
30
0
41
1
10
11.4821781398763
20
-2.64015543641474
30
0
41
1
10
11.3527923509431
20
-2.60910832379815
30
0
41
1
10
10.9817518116421
20
-2.51200843919156
30
0
41
1
10
10.7407723581787
20
-2.43909116125593
30
0
41
1
10
10.4999947653166
20
-2.35725475498757
30
0
0
SPLINE
5
D8
100
AcDbEntity
8
1
62
256
6
ByLayer
370
13
48
1
60
0
100
AcDbSpline
70
4
71
3
72
24
73
20
40
0
40
0
40
0
40
0
40
0.0078134579761566
40
0.0078134579761566
40
0.255860093482114
40
0.255860093482114
40
0.317871752358603
40
0.317871752358603
40
0.379883411235093
40
0.379883411235093
40
0.503906728988073
40
0.503906728988073
40
0.751953364494035
40
0.751953364494035
40
0.813965023370526
40
0.813965023370526
40
0.875976682247016
40
0.875976682247016
40
1
40
1
40
1
40
1
41
1
10
10.4999938186176
20
-2.35725443321985
30
0
41
1
10
10.4838049335388
20
-2.35175209165229
30
0
41
1
10
10.4676169609984
20
-2.34620942975133
30
0
41
1
10
9.9375467231086
20
-2.16339547293003
30
0
41
1
10
9.42477991393207
20
-1.94541474284372
30
0
41
1
10
8.77605809786274
20
-1.63173324292691
30
0
41
1
10
8.64570053651218
20
-1.56681967955697
30
0
41
1
10
8.38617941559625
20
-1.43430425562192
30
0
41
1
10
8.25679426566538
20
-1.36660116417681
30
0
41
1
10
7.86940487167428
20
-1.15972725192944
30
0
41
1
10
7.61219135685099
20
-1.01674026254849
30
0
41
1
10
6.84163199884722
20
-0.576241579273784
30
0
41
1
10
6.32818899104535
20
-0.268812979555406
30
0
41
1
10
5.67925010385258
20
0.120326672165021
30
0
41
1
10
5.54894971223123
20
0.198429841386798
30
0
41
1
10
5.28905484728884
20
0.35347242957684
30
0
41
1
10
5.15926388498022
20
0.430540836565712
30
0
41
1
10
4.76999188690547
20
0.659773227374728
30
0
41
1
10
4.51057846643056
20
0.809904666875781
30
0
41
1
10
4.25054642243384
20
0.956150849802526
30
0
0
SPLINE
5
D9
100
AcDbEntity
8
1
62
256
6
ByLayer
370
18
48
1
60
0
100
AcDbSpline
70
4
71
3
72
27
73
23
40
0
40
0
40
0
40
0
40
0.0651534699779394
40
0.0651534699779394
40
0.130306939955879
40
0.130306939955879
40
0.260613879911757
40
0.260613879911757
40
0.390920819867636
40
0.390920819867636
40
0.521227759823515
40
0.651534699779394
40
0.651534699779394
40
0.716688169757333
40
0.716688169757333
40
0.781841639735273
40
0.781841639735273
40
0.912148579691152
40
0.912148579691152
40
0.977302049669092
40
0.977302049669092
40
1
40
1
40
1
40
1
41
1
10
4.0367881302362
20
1.08587059630941
30
0
41
1
10
4.0367993763349
20
1.1580774946116
30
0
41
1
10
4.03680915127129
20
1.22906253481381
30
0
41
1
10
4.03682619167367
20
1.36858921683873
30
0
41
1
10
4.03683347250765
20
1.43733584454318
30
0
41
1
10
4.03685199529281
20
1.63757801251097
30
0
41
1
10
4.03686002024691
20
1.76355787237182
30
0
41
1
10
4.03687138083117
20
2.00089366614864
30
0
41
1
10
4.03687470769896
20
2.11245803094917
30
0
41
1
10
4.03688018640338
20
2.31943040097121
30
0
41
1
10
4.03688444685034
20
2.5056651143646
30
0
41
1
10
4.03689260390081
20
2.65203442368684
30
0
41
1
10
4.03690206915502
20
2.74635660065681
30
0
41
1
10
4.03690577747511
20
2.77510772864218
30
0
41
1
10
4.03691438299381
20
2.82645126198551
30
0
41
1
10
4.03691929230246
20
2.84918106263797
30
0
41
1
10
4.03693601629556
20
2.90869082597001
30
0
41
1
10
4.03694985036671
20
2.93684362544587
30
0
41
1
10
4.03697489493388
20
2.96142591289004
30
0
41
1
10
4.03698399665879
20
2.96666140114715
30
0
41
1
10
4.03699699937931
20
2.96957433009197
30
0
41
1
10
4.0370004257139
20
2.96995894242437
30
0
41
1
10
4.03700391513078
20
2.9699784599965
30
0
0
SPLINE
5
DA
100
AcDbEntity
8
1
62
256
6
ByLayer
370
18
48
1
60
0
100
AcDbSpline
70
4
71
3
72
14
73
10
40
0
40
0
40
0
40
0
40
0.25
40
0.25
40
0.5
40
0.5
40
0.75
40
0.75
40
1
40
1
40
1
40
1
41
1
10
28.9365147130763
20
0.715705419593775
30
0
41
1
10
28.9326505503267
20
0.726366888004037
30
0
41
1
10
28.9296366081028
20
0.73719251789808
30
0
41
1
10
28.9261732699932
20
0.759332066329705
30
0
41
1
10
28.9256939767208
20
0.770837608097025
30
0
41
1
10
28.9297399603201
20
0.79303788620922
30
0
41
1
10
28.9345673916526
20
0.803735568543459
30
0
41
1
10
28.950664935442
20
0.819018504396354
30
0
41
1
10
28.9616057635885
20
0.823236280837392
30
0
41
1
10
28.9727750235525
20
0.824567304278276
30
0
0
SPLINE
5
DB
100
AcDbEntity
8
1
62
256
6
ByLayer
370
18
48
1
60
0
100
AcDbSpline
70
4
71
3
72
14
73
10
40
0
40
0
40
0
40
0
40
0.203738755440529
40
0.203738755440529
40
0.535351211390033
40
0.535351211390033
40
0.866963667339537
40
0.866963667339537
40
1
40
1
40
1
40
1
41
1
10
7.62827459350621
20
-1.82623109797629
30
0
41
1
10
7.55607413379246
20
-1.87823808655062
30
0
41
1
10
7.48354641772329
20
-1.92949318753722
30
0
41
1
10
7.29163990586736
20
-2.0615440465275
30
0
41
1
10
7.17104785792591
20
-2.14096544365734
30
0
41
1
10
6.92782096857218
20
-2.2920000780945
30
0
41
1
10
6.80660217549217
20
-2.36276051987619
30
0
41
1
10
6.63668523793368
20
-2.45545503869931
30
0
41
1
10
6.58802246824601
20
-2.48124975062595
30
0
41
1
10
6.53933493518514
20
-2.50633024543717
30
0
0
SPLINE
5
DC
100
AcDbEntity
8
1
62
256
6
ByLayer
370
18
48
1
60
0
100
AcDbSpline
70
4
71
3
72
20
73
16
40
0
40
0
40
0
40
0
40
0.124999999999998
40
0.124999999999998
40
0.249999999999996
40
0.249999999999996
40
0.374999999999994
40
0.374999999999994
40
0.499999999999992
40
0.499999999999992
40
0.750000000000003
40
0.750000000000003
40
0.875000000000002
40
0.875000000000002
40
1
40
1
40
1
40
1
41
1
10
29.6199530799771
20
-0.99280609222177
30
0
41
1
10
29.6228980794019
20
-1.00051519105523
30
0
41
1
10
29.6233678370434
20
-1.01431671608142
30
0
41
1
10
29.6188166958451
20
-1.05438680188416
30
0
41
1
10
29.6137990548978
20
-1.08027220709062
30
0
41
1
10
29.5988328735665
20
-1.14069930205892
30
0
41
1
10
29.5889029489543
20
-1.17510951163024
30
0
41
1
10
29.5660396535283
20
-1.24649342179745
30
0
41
1
10
29.5529663775152
20
-1.28391857466747
30
0
41
1
10
29.512170322616
20
-1.39290653296962
30
0
41
1
10
29.4822525222245
20
-1.46290038349491
30
0
41
1
10
29.4411443801553
20
-1.54782855552116
30
0
41
1
10
29.4278254539506
20
-1.57333650549543
30
0
41
1
10
29.4031834165875
20
-1.61640836584033
30
0
41
1
10
29.3919160660889
20
-1.63394575065325
30
0
41
1
10
29.3817883963673
20
-1.64715818255087
30
0
0
SPLINE
5
DD
100
AcDbEntity
8
1
62
256
6
ByLayer
370
18
48
1
60
0
100
AcDbSpline
70
4
71
3
72
14
73
10
40
0
40
0
40
0
40
0
40
0.25
40
0.25
40
0.5
40
0.5
40
0.75
40
0.75
40
1
40
1
40
1
40
1
41
1
10
29.0261566752195
20
-2.84892454982372
30
0
41
1
10
29.0290130554571
20
-2.84684847933633
30
0
41
1
10
29.0313044086007
20
-2.84635777224833
30
0
41
1
10
29.0343915516979
20
-2.84957263652049
30
0
41
1
10
29.0351494929368
20
-2.85333582400904
30
0
41
1
10
29.0340940017064
20
-2.8667838323573
30
0
41
1
10
29.0322000236973
20
-2.87657442121372
30
0
41
1
10
29.0256212799763
20
-2.90058346733176
30
0
41
1
10
29.0209741594061
20
-2.91463271532973
30
0
41
1
10
29.0158991761159
20
-2.92829265329624
30
0
0
SPLINE
5
DE
100
AcDbEntity
8
1
62
256
6
ByLayer
370
18
48
1
60
0
100
AcDbSpline
70
4
71
3
72
28
73
24
40
0
40
0
40
0
40
0
40
0.0661187101725469
40
0.0661187101725469
40
0.160583600299868
40
0.160583600299868
40
0.349513380554511
40
0.349513380554511
40
0.396745825618173
40
0.396745825618173
40
0.443978270681834
40
0.443978270681834
40
0.538443160809156
40
0.538443160809156
40
0.727372941063799
40
0.727372941063799
40
0.77460538612746
40
0.77460538612746
40
0.82183783119112
40
0.82183783119112
40
0.916302721318441
40
0.916302721318441
40
1
40
1
40
1
40
1
41
1
10
16.8551849710765
20
2.12161619241996
30
0
41
1
10
17.0376219577565
20
2.0425289176338
30
0
41
1
10
17.2202135687252
20
1.95875551404791
30
0
41
1
10
17.662874015303
20
1.74546780650724
30
0
41
1
10
17.9214230046869
20
1.61240434368491
30
0
41
1
10
18.6944289052701
20
1.19491353010517
30
0
41
1
10
19.2064798260677
20
0.892512456886436
30
0
41
1
10
19.8517377618294
20
0.498495809801483
30
0
41
1
10
19.9810324534382
20
0.418866969764139
30
0
41
1
10
20.2403444888512
20
0.258312388252222
30
0
41
1
10
20.3706595914815
20
0.177187009036231
30
0
41
1
10
20.760675613583
20
-0.0660127391262222
30
0
41
1
10
21.0191081623798
20
-0.227174034159248
30
0
41
1
10
21.7917497273618
20
-0.704600131593281
30
0
41
1
10
22.3033627085378
20
-1.01477081195847
30
0
41
1
10
22.9484645121331
20
-1.3765737413986
30
0
41
1
10
23.0777465218148
20
-1.44766826682195
30
0
41
1
10
23.337067995848
20
-1.58695196742403
30
0
41
1
10
23.4674296186694
20
-1.65529324199372
30
0
41
1
10
23.8573149695463
20
-1.85383576527846
30
0
41
1
10
24.1154820599161
20
-1.97767393108117
30
0
41
1
10
24.6008931073258
20
-2.19339481059615
30
0
41
1
10
24.8283128344186
20
-2.28729215683418
30
0
41
1
10
25.0557679734422
20
-2.37310646496925
30
0
0
SPLINE
5
DF
100
AcDbEntity
8
1
62
256
6
ByLayer
370
13
48
1
60
0
100
AcDbSpline
70
4
71
3
72
18
73
14
40
0
40
0
40
0
40
0
40
0.217831154412103
40
0.217831154412103
40
0.31560226011059
40
0.31560226011059
40
0.413373365809077
40
0.413373365809077
40
0.608915577206051
40
0.608915577206051
40
0.804457788603025
40
0.804457788603025
40
1
40
1
40
1
40
1
41
1
10
25.0557679734668
20
-2.37310646497855
30
0
41
1
10
25.3417470835582
20
-2.48100070548136
30
0
41
1
10
25.6277821728538
20
-2.57611727386515
30
0
41
1
10
26.0441618201925
20
-2.69357379783813
30
0
41
1
10
26.1734301936505
20
-2.72712148573811
30
0
41
1
10
26.4327551975159
20
-2.78827847925786
30
0
41
1
10
26.5631081696306
20
-2.81593547633491
30
0
41
1
10
26.9527706477387
20
-2.88906128503555
30
0
41
1
10
27.2110122612966
20
-2.92485787519323
30
0
41
1
10
27.726514601626
20
-2.97058574719256
30
0
41
1
10
27.9837591900447
20
-2.98051138080319
30
0
41
1
10
28.4988995517006
20
-2.9741618020737
30
0
41
1
10
28.7568408772148
20
-2.95742958931109
30
0
41
1
10
29.0158991761019
20
-2.9282926532905
30
0
0
SPLINE
5
E0
100
AcDbEntity
8
1
62
256
6
ByLayer
370
18
48
1
60
0
100
AcDbSpline
70
4
71
3
72
18
73
14
40
0
40
0
40
0
40
0
40
0.136524205865712
40
0.136524205865712
40
0.401965080653955
40
0.401965080653955
40
0.534685518048077
40
0.534685518048077
40
0.667405955442198
40
0.667405955442198
40
0.93284683023044
40
0.93284683023044
40
1
40
1
40
1
40
1
41
1
10
11.8649770025533
20
2.9136749524682
30
0
41
1
10
11.7330069069569
20
2.85653258817547
30
0
41
1
10
11.600768276042
20
2.7979857243073
30
0
41
1
10
11.2102712667398
20
2.62158576664808
30
0
41
1
10
10.9509311899642
20
2.49990941290614
30
0
41
1
10
10.557629163434
20
2.31173068693673
30
0
41
1
10
10.4258859479726
20
2.24811875335971
30
0
41
1
10
10.1630802257984
20
2.1209129952266
30
0
41
1
10
10.0317129664642
20
2.05717494447865
30
0
41
1
10
9.63715219968032
20
1.86675879439696
30
0
41
1
10
9.37351233625691
20
1.74085093415999
30
0
41
1
10
9.04027072172968
20
1.58898298759581
30
0
41
1
10
8.97277296305995
20
1.55859987240794
30
0
41
1
10
8.90511807947664
20
1.52859342581851
30
0
0
SPLINE
5
E1
100
AcDbEntity
8
1
62
256
6
ByLayer
370
18
48
1
60
0
100
AcDbSpline
70
4
71
3
72
16
73
12
40
0
40
0
40
0
40
0
40
0.284759597646793
40
0.284759597646793
40
0.537316866809008
40
0.537316866809008
40
0.663595501390116
40
0.663595501390116
40
0.789874135971224
40
0.789874135971224
40
1
40
1
40
1
40
1
41
1
10
28.3510528082966
20
-2.87927622023216
30
0
41
1
10
28.0608974955346
20
-2.87984017549127
30
0
41
1
10
27.7712804565627
20
-2.86431439559769
30
0
41
1
10
27.223590289318
20
-2.8052221675936
30
0
41
1
10
26.9656479135788
20
-2.76502313081463
30
0
41
1
10
26.5764954924825
20
-2.68620195207055
30
0
41
1
10
26.4465156606696
20
-2.65683729951061
30
0
41
1
10
26.1878374003341
20
-2.59258921794739
30
0
41
1
10
26.0588644158965
20
-2.5576538173089
30
0
41
1
10
25.7159582385579
20
-2.45742880782603
30
0
41
1
10
25.5024433716898
20
-2.38743417679339
30
0
41
1
10
25.2890996158104
20
-2.31057245748053
30
0
0
SPLINE
5
E2
100
AcDbEntity
8
1
62
256
6
ByLayer
370
13
48
1
60
0
100
AcDbSpline
70
4
71
3
72
28
73
24
40
0
40
0
40
0
40
0
40
0.109165367946795
40
0.109165367946795
40
0.202628204828603
40
0.202628204828603
40
0.249359623269507
40
0.249359623269507
40
0.296091041710411
40
0.296091041710411
40
0.483016715474029
40
0.483016715474029
40
0.576479552355838
40
0.576479552355838
40
0.623210970796744
40
0.623210970796744
40
0.669942389237649
40
0.669942389237649
40
0.856868063001267
40
0.856868063001267
40
0.950330899883075
40
0.950330899883075
40
1
40
1
40
1
40
1
41
1
10
25.2891005566169
20
-2.31057279642636
30
0
41
1
10
24.9895940772441
20
-2.20266911415445
30
0
41
1
10
24.6904248326366
20
-2.08123146066538
30
0
41
1
10
24.133172456082
20
-1.83339759502528
30
0
41
1
10
23.8753222369636
20
-1.71028228616342
30
0
41
1
10
23.4859889188691
20
-1.51387299307979
30
0
41
1
10
23.3560135466175
20
-1.44650897295207
30
0
41
1
10
23.0973158956531
20
-1.30942161695964
30
0
41
1
10
22.9683154197509
20
-1.23956838936178
30
0
41
1
10
22.324508378963
20
-0.884657068850203
30
0
41
1
10
21.8135084914443
20
-0.582281149789168
30
0
41
1
10
21.0419274542805
20
-0.119462827606526
30
0
41
1
10
20.7838467968727
20
0.0363199991247996
30
0
41
1
10
20.3943980326425
20
0.270605670165935
30
0
41
1
10
20.2644616401775
20
0.34854544254577
30
0
41
1
10
20.0057428542578
20
0.502695135648423
30
0
41
1
10
19.8767208643445
20
0.579060631152231
30
0
41
1
10
19.2327394367152
20
0.956451729241195
30
0
41
1
10
18.7213423853413
20
1.24443854120591
30
0
41
1
10
17.9493658550292
20
1.63936280048773
30
0
41
1
10
17.6912108182867
20
1.7648056357979
30
0
41
1
10
17.2931162112435
20
1.94505941252618
30
0
41
1
10
17.1548289170757
20
2.00522089790226
30
0
41
1
10
17.0165804557667
20
2.0627703441256
30
0
0
SPLINE
5
E3
100
AcDbEntity
8
1
62
256
6
ByLayer
370
18
48
1
60
0
100
AcDbSpline
70
4
71
3
72
18
73
14
40
0
40
0
40
0
40
0
40
0.250000000000003
40
0.250000000000003
40
0.375000000000004
40
0.375000000000004
40
0.500000000000005
40
0.500000000000005
40
0.750000000000003
40
0.750000000000003
40
0.875000000000001
40
0.875000000000001
40
1
40
1
40
1
40
1
41
1
10
28.9341591386348
20
-2.87700946045672
30
0
41
1
10
28.8760422699054
20
-2.87039896659258
30
0
41
1
10
28.8218481592629
20
-2.85232704032379
30
0
41
1
10
28.7469473629779
20
-2.8065479026539
30
0
41
1
10
28.7229741028778
20
-2.7880561268199
30
0
41
1
10
28.6781352453102
20
-2.74524897298826
30
0
41
1
10
28.6571688135252
20
-2.72090057948893
30
0
41
1
10
28.598640737625
20
-2.63899616559232
30
0
41
1
10
28.5654178756739
20
-2.57264665306875
30
0
41
1
10
28.5248640079716
20
-2.45431357041494
30
0
41
1
10
28.5128611575067
20
-2.41152730330819
30
0
41
1
10
28.4923796618671
20
-2.32021918489093
30
0
41
1
10
28.4839111973201
20
-2.2718415831383
30
0
41
1
10
28.4772301606952
20
-2.2207171654197
30
0
0
SPLINE
5
E4
100
AcDbEntity
8
1
62
256
6
ByLayer
370
18
48
1
60
0
100
AcDbSpline
70
4
71
3
72
12
73
8
40
0
40
0
40
0
40
0
40
0.25
40
0.25
40
0.5
40
0.5
40
1
40
1
40
1
40
1
41
1
10
6.53931136482623
20
-2.50634407350356
30
0
41
1
10
6.34433955705603
20
-2.56174079609056
30
0
41
1
10
6.15095390321193
20
-2.61080583803306
30
0
41
1
10
5.76629826497293
20
-2.69724846685475
30
0
41
1
10
5.5750547015123
20
-2.73441054624362
30
0
41
1
10
5.00378004809531
20
-2.82421997044844
30
0
41
1
10
4.62594940280184
20
-2.85597243968183
30
0
41
1
10
4.25082916681441
20
-2.8505076722924
30
0
0
SPLINE
5
E5
100
AcDbEntity
8
SK1
62
256
6
ByLayer
370
18
48
1
60
0
100
AcDbSpline
70
4
71
3
72
14
73
10
40
0
40
0
40
0
40
0
40
0.5
40
0.5
40
0.75
40
0.75
40
0.875
40
0.875
40
1
40
1
40
1
40
1
41
1
10
-35.4
20
-1.65777331453023
30
0
41
1
10
-35.3787677796885
20
-1.6713740872365
30
0
41
1
10
-35.3584290958895
20
-1.67931896731926
30
0
41
1
10
-35.3303626450498
20
-1.67936852981651
30
0
41
1
10
-35.3215171954455
20
-1.67738127872499
30
0
41
1
10
-35.3102812516991
20
-1.66850234475743
30
0
41
1
10
-35.3068890218585
20
-1.66451010822149
30
0
41
1
10
-35.3017585680987
20
-1.65341342571844
30
0
41
1
10
-35.3
20
-1.64614147358768
30
0
41
1
10
-35.3
20
-1.63690853545617
30
0
0
SPLINE
5
E6
100
AcDbEntity
8
SK1
62
256
6
ByLayer
370
18
48
1
60
0
100
AcDbSpline
70
4
71
3
72
8
73
4
40
0
40
0
40
0
40
0
40
1
40
1
40
1
40
1
41
1
10
-35.7941871913124
20
0.0005340667414941
30
0
41
1
10
-35.8636232972408
20
-0.0453484189353333
30
0
41
1
10
-35.9323275633196
20
-0.0913682960371602
30
0
41
1
10
-35.9999999999999
20
-0.137579917472152
30
0
0
SPLINE
5
E7
100
AcDbEntity
8
SK1
62
256
6
ByLayer
370
18
48
1
60
0
100
AcDbSpline
70
4
71
3
72
14
73
10
40
0
40
0
40
0
40
0
40
0.124999999999999
40
0.124999999999999
40
0.249999999999998
40
0.249999999999998
40
0.499999999999997
40
0.499999999999997
40
1
40
1
40
1
40
1
41
1
10
-35.3
20
-0.422182705994686
30
0
41
1
10
-35.3
20
-0.411264258766806
30
0
41
1
10
-35.3017593723636
20
-0.400069700579337
30
0
41
1
10
-35.306935341198
20
-0.379497905151084
30
0
41
1
10
-35.3102739075535
20
-0.370125391877195
30
0
41
1
10
-35.3215583577555
20
-0.343551861029596
30
0
41
1
10
-35.3303095934912
20
-0.328827882589536
30
0
41
1
10
-35.358391202053
20
-0.289101838827918
30
0
41
1
10
-35.378655954467
20
-0.269838993076092
30
0
41
1
10
-35.4
20
-0.256166588227785
30
0
0
SPLINE
5
E8
100
AcDbEntity
8
SK1
62
256
6
ByLayer
370
18
48
1
60
0
100
AcDbSpline
70
4
71
3
72
8
73
4
40
0
40
0
40
0
40
0
40
1
40
1
40
1
40
1
41
1
10
-36
20
-1.26402680882947
30
0
41
1
10
-35.8061147369123
20
-1.39642565271856
30
0
41
1
10
-35.6037825297197
20
-1.5272358658988
30
0
41
1
10
-35.4
20
-1.65777331452946
30
0
0
SPLINE
5
E9
100
AcDbEntity
8
SK1
62
256
6
ByLayer
370
18
48
1
60
0
100
AcDbSpline
70
4
71
3
72
8
73
4
40
0
40
0
40
0
40
0
40
1
40
1
40
1
40
1
41
1
10
-35.4
20
-0.256166588227785
30
0
41
1
10
-35.603766346503
20
-0.125639506117864
30
0
41
1
10
-35.8061179402766
20
0.005183261071295
30
0
41
1
10
-35.9999999999999
20
0.137579917472152
30
0
0
LINE
5
76
100
AcDbEntity
8
81
62
256
6
ByLayer
370
18
48
1
60
0
100
AcDbLine
10
30
20
0
30
0
11
35
21
0
31
0
39
0
210
0
220
0
230
1
0
LINE
5
77
100
AcDbEntity
8
1
62
256
6
ByLayer
370
18
48
1
60
0
100
AcDbLine
10
4.037
20
2.969978
30
0
11
0.8
21
2.966094
31
0
39
0
210
0
220
0
230
1
0
LINE
5
79
100
AcDbEntity
8
1
62
256
6
ByLayer
370
18
48
1
60
0
100
AcDbLine
10
13.172364
20
2.980941
30
0
11
12.868622
21
2.980576
31
0
39
0
210
0
220
0
230
1
0
LINE
5
7A
100
AcDbEntity
8
1
62
256
6
ByLayer
370
18
48
1
60
0
100
AcDbLine
10
28.138291
20
2.9989
30
0
11
27.849909
21
2.998554
31
0
39
0
210
0
220
0
230
1
0
LINE
5
7B
100
AcDbEntity
8
1
62
256
6
ByLayer
370
18
48
1
60
0
100
AcDbLine
10
27.849909
20
-2.998554
30
0
11
28.13825
21
-2.9989
31
0
39
0
210
0
220
0
230
1
0
LINE
5
7C
100
AcDbEntity
8
1
62
256
6
ByLayer
370
18
48
1
60
0
100
AcDbLine
10
12.868622
20
-2.980576
30
0
11
13.172359
21
-2.980941
31
0
39
0
210
0
220
0
230
1
0
LINE
5
7D
100
AcDbEntity
8
1
62
256
6
ByLayer
370
18
48
1
60
0
100
AcDbLine
10
0.8
20
-2.966094
30
0
11
4.037
21
-2.969978
31
0
39
0
210
0
220
0
230
1
0
LINE
5
7E
100
AcDbEntity
8
1
62
256
6
ByLayer
370
18
48
1
60
0
100
AcDbLine
10
0
20
-3
30
0
11
0.8
21
-2.966094
31
0
39
0
210
0
220
0
230
1
0
LINE
5
7F
100
AcDbEntity
8
1
62
256
6
ByLayer
370
18
48
1
60
0
100
AcDbLine
10
0.8
20
2.966094
30
0
11
0
21
3
31
0
39
0
210
0
220
0
230
1
0
LINE
5
80
100
AcDbEntity
8
SK1
62
256
6
ByLayer
370
18
48
1
60
0
100
AcDbLine
10
-35.278312
20
3
30
0
11
-36
21
1.75
31
0
39
0
210
0
220
0
230
1
0
LINE
5
82
100
AcDbEntity
8
SK1
62
256
6
ByLayer
370
18
48
1
60
0
100
AcDbLine
10
-36
20
-1.75
30
0
11
-35.278312
21
-3
31
0
39
0
210
0
220
0
230
1
0
LINE
5
83
100
AcDbEntity
8
SK1
62
256
6
ByLayer
370
18
48
1
60
0
100
AcDbLine
10
0
20
3
30
0
11
-35.278312
21
3
31
0
39
0
210
0
220
0
230
1
0
LINE
5
84
100
AcDbEntity
8
SK1
62
256
6
ByLayer
370
18
48
1
60
0
100
AcDbLine
10
-35.278312
20
-3
30
0
11
0
21
-3
31
0
39
0
210
0
220
0
230
1
0
LINE
5
85
100
AcDbEntity
8
SK4
62
256
6
ByLayer
370
18
48
0.05
60
0
100
AcDbLine
10
35
20
0
30
0
11
-41
21
0
31
0
39
0
210
0
220
0
230
1
0
LINE
5
87
100
AcDbEntity
8
4
62
256
6
ByLayer
370
18
48
0.05
60
0
100
AcDbLine
10
30
20
0
30
0
11
0
21
0
31
0
39
0
210
0
220
0
230
1
0
LINE
5
89
100
AcDbEntity
8
80
62
256
6
ByLayer
370
18
48
1
60
0
100
AcDbLine
10
0
20
0
30
0
11
-5
21
0
31
0
39
0
210
0
220
0
230
1
0
LINE
5
8A
100
AcDbEntity
8
1
62
256
6
ByLayer
370
18
48
1
60
0
100
AcDbLine
10
29.880119
20
0.638699
30
0
11
29.94541
21
0.315177
31
0
39
0
210
0
220
0
230
1
0
LINE
5
8B
100
AcDbEntity
8
1
62
256
6
ByLayer
370
18
48
1
60
0
100
AcDbLine
10
29.98809
20
0.018642
30
0
11
29.619953
21
-0.992806
31
0
39
0
210
0
220
0
230
1
0
LINE
5
8C
100
AcDbEntity
8
1
62
256
6
ByLayer
370
18
48
1
60
0
100
AcDbLine
10
0
20
-3
30
0
11
0
21
3
31
0
39
0
210
0
220
0
230
1
0
LINE
5
8D
100
AcDbEntity
8
1
62
256
6
ByLayer
370
18
48
1
60
0
100
AcDbLine
10
29.94541
20
0.315177
30
0
11
29.983983
21
0.116421
31
0
39
0
210
0
220
0
230
1
0
LINE
5
8E
100
AcDbEntity
8
1
62
256
6
ByLayer
370
13
48
1
60
0
100
AcDbLine
10
4.250819
20
-2.850872
30
0
11
4.250829
21
-2.850508
31
0
39
0
210
0
220
0
230
1
0
LINE
5
8F
100
AcDbEntity
8
1
62
256
6
ByLayer
370
18
48
1
60
0
100
AcDbLine
10
0.8
20
2.966094
30
0
11
0.8
21
-2.966094
31
0
39
0
210
0
220
0
230
1
0
LINE
5
90
100
AcDbEntity
8
1
62
256
6
ByLayer
370
18
48
1
60
0
100
AcDbLine
10
29.94541
20
-0.315177
30
0
11
29.983983
21
-0.116421
31
0
39
0
210
0
220
0
230
1
0
LINE
5
91
100
AcDbEntity
8
1
62
256
6
ByLayer
370
18
48
1
60
0
100
AcDbLine
10
4.037004
20
-2.969979
30
0
11
4.037024
21
-2.966275
31
0
39
0
210
0
220
0
230
1
0
LINE
5
92
100
AcDbEntity
8
1
62
256
6
ByLayer
370
18
48
1
60
0
100
AcDbLine
10
30
20
0.05131
30
0
11
30
21
-0.05131
31
0
39
0
210
0
220
0
230
1
0
LINE
5
93
100
AcDbEntity
8
1
62
256
6
ByLayer
370
18
48
1
60
0
100
AcDbLine
10
29.880119
20
-0.638699
30
0
11
29.94541
21
-0.315177
31
0
39
0
210
0
220
0
230
1
0
LINE
5
94
100
AcDbEntity
8
1
62
256
6
ByLayer
370
18
48
1
60
0
100
AcDbLine
10
28.47723
20
-2.220717
30
0
11
29.978325
21
0.001697
31
0
39
0
210
0
220
0
230
1
0
LINE
5
95
100
AcDbEntity
8
1
62
256
6
ByLayer
370
18
48
1
60
0
100
AcDbLine
10
29.94541
20
0.315177
30
0
11
29.94541
21
0.14593
31
0
39
0
210
0
220
0
230
1
0
LINE
5
96
100
AcDbEntity
8
1
62
256
6
ByLayer
370
13
48
1
60
0
100
AcDbLine
10
29.94157
20
0.137477
30
0
11
29.983983
21
0.116421
31
0
39
0
210
0
220
0
230
1
0
LINE
5
97
100
AcDbEntity
8
1
62
256
6
ByLayer
370
13
48
1
60
0
100
AcDbLine
10
29.096406
20
0.59365
30
0
11
29.884165
21
0.048442
31
0
39
0
210
0
220
0
230
1
0
LINE
5
98
100
AcDbEntity
8
1
62
256
6
ByLayer
370
13
48
1
60
0
100
AcDbLine
10
29.880119
20
0.638699
30
0
11
29.166367
21
0.685105
31
0
39
0
210
0
220
0
230
1
0
LINE
5
99
100
AcDbEntity
8
1
62
256
6
ByLayer
370
13
48
1
60
0
100
AcDbLine
10
29.884165
20
0.048442
30
0
11
29.978325
21
0.001697
31
0
39
0
210
0
220
0
230
1
0
LINE
5
9A
100
AcDbEntity
8
1
62
256
6
ByLayer
370
13
48
1
60
0
100
AcDbLine
10
29.94541
20
0.14593
30
0
11
29.166367
21
0.685105
31
0
39
0
210
0
220
0
230
1
0
LINE
5
9B
100
AcDbEntity
8
1
62
256
6
ByLayer
370
18
48
1
60
0
100
AcDbLine
10
29.381788
20
-1.647158
30
0
11
28.934159
21
-2.877009
31
0
39
0
210
0
220
0
230
1
0
LINE
5
9C
100
AcDbEntity
8
SK1
62
256
6
ByLayer
370
18
48
1
60
0
100
AcDbLine
10
-36
20
-1.75
30
0
11
-36
21
-1.264027
31
0
39
0
210
0
220
0
230
1
0
LINE
5
9D
100
AcDbEntity
8
SK1
62
256
6
ByLayer
370
18
48
1
60
0
100
AcDbLine
10
-36
20
1.75
30
0
11
-36
21
0.13758
31
0
39
0
210
0
220
0
230
1
0
LINE
5
9E
100
AcDbEntity
8
SK1
62
256
6
ByLayer
370
18
48
1
60
0
100
AcDbLine
10
0
20
-3
30
0
11
0
21
3
31
0
39
0
210
0
220
0
230
1
0
LINE
5
9F
100
AcDbEntity
8
SK1
62
256
6
ByLayer
370
18
48
1
60
0
100
AcDbLine
10
-35.3
20
-1.636909
30
0
11
-35.3
21
-0.422183
31
0
39
0
210
0
220
0
230
1
0
LINE
5
A0
100
AcDbEntity
8
SK1
62
256
6
ByLayer
370
18
48
1
60
0
100
AcDbLine
10
-35.278312
20
3
30
0
11
-35.278312
21
-3
31
0
39
0
210
0
220
0
230
1
0
LINE
5
A1
100
AcDbEntity
8
SK1
62
256
6
ByLayer
370
18
48
1
60
0
100
AcDbLine
10
-36
20
-0.13758
30
0
11
-36
21
-1.264027
31
0
39
0
210
0
220
0
230
1
0
LINE
5
A2
100
AcDbEntity
8
SK1
62
256
6
ByLayer
370
13
48
1
60
0
100
AcDbLine
10
-35.4
20
-0.256171
30
0
11
-35.4
21
-1.657773
31
0
39
0
210
0
220
0
230
1
0
MTEXT
5
EA
100
AcDbEntity
8
SK6
62
256
6
ByLayer
370
13
48
1
60
0
100
AcDbMText
10
-0.870831
20
35.382694
30
0
210
0
220
0
230
1
1
\W0.7542;R846-0600-30-A1A1220
40
3.5
41
0
44
1.084337
50
0
71
8
72
5
7
iso_b_vert
0
DIMENSION
5
F7
100
AcDbEntity
8
SK2
62
256
6
ByLayer
370
13
48
1
60
0
100
AcDbDimension
2
DimnDraft3D1
10
28.99
20
-13.213398
30
0
11
13.240059
21
-13.213398
31
0
70
32
71
5
72
1
41
1
210
0
220
0
230
1
3
Standard
100
AcDbAlignedDimension
13
0
23
-1.5875
33
0
14
28.99
24
-4.5875
34
0
50
0
100
AcDbRotatedDimension
1001
ACAD
1000
DSTYLE
1002
{
1070
   279
1070
     0
1070
   172
1070
     1
1070
   173
1070
     1
1070
   340
1005
EB
1070
   271
1070
     2
1070
   272
1070
     2
1070
    77
1070
     1
1070
    73
1070
     0
1070
   171
1070
     3
1070
   274
1070
     4
1070
   177
1070
    35
1070
   176
1070
    35
1070
   178
1070
    35
1070
    48
1040
-0.005
1070
    41
1041
3.5
1070
   147
1041
1.75
1070
    42
1041
1.5875
1070
    44
1041
2.0
1070
   140
1041
3.5
1070
   343
1005
0
1070
   344
1005
0
1002
}
0
DIMENSION
5
101
100
AcDbEntity
8
SK2
62
256
6
ByLayer
370
13
48
1
60
0
100
AcDbDimension
2
DimnDraft3D2
10
30
20
-31.692985
30
0
11
-2.6687
21
-31.692985
31
0
70
32
71
5
72
1
41
1
210
0
220
0
230
1
3
Standard
100
AcDbAlignedDimension
13
-36
23
-4.5875
33
0
14
30
24
-1.5875
34
0
50
0
100
AcDbRotatedDimension
1001
ACAD
1000
DSTYLE
1002
{
1070
   279
1070
     0
1070
   172
1070
     1
1070
   173
1070
     1
1070
   340
1005
EB
1070
   271
1070
     2
1070
   272
1070
     2
1070
    77
1070
     1
1070
    73
1070
     0
1070
   171
1070
     3
1070
   274
1070
     4
1070
   177
1070
    35
1070
   176
1070
    35
1070
   178
1070
    35
1070
    48
1040
-0.005
1070
    41
1041
3.5
1070
   147
1041
1.75
1070
    42
1041
1.5875
1070
    44
1041
2.0
1070
   140
1041
3.5
1070
   343
1005
0
1070
   344
1005
0
1002
}
0
DIMENSION
5
10B
100
AcDbEntity
8
SK2
62
256
6
ByLayer
370
13
48
1
60
0
100
AcDbDimension
2
DimnDraft3D3
10
30
20
14.609119
30
0
11
20.495
21
14.609119
31
0
70
32
71
5
72
1
41
1
210
0
220
0
230
1
3
Standard
100
AcDbAlignedDimension
13
10.99
23
4.5875
33
0
14
30
24
1.5875
34
0
50
0
100
AcDbRotatedDimension
1001
ACAD
1000
DSTYLE
1002
{
1070
   279
1070
     0
1070
   172
1070
     1
1070
   173
1070
     1
1070
   340
1005
EB
1070
   271
1070
     2
1070
   272
1070
     2
1070
    77
1070
     1
1070
    73
1070
     0
1070
   171
1070
     3
1070
   274
1070
     4
1070
   177
1070
    35
1070
   176
1070
    35
1070
   178
1070
    35
1070
    48
1040
-0.005
1070
    41
1041
3.5
1070
   147
1041
1.75
1070
    42
1041
1.5875
1070
    44
1041
2.0
1070
   140
1041
3.5
1070
   343
1005
0
1070
   344
1005
0
1002
}
0
DIMENSION
5
115
100
AcDbEntity
8
SK2
62
256
6
ByLayer
370
13
48
1
60
0
100
AcDbDimension
2
DimnDraft3D4
10
28.99
20
-15.802503
30
0
11
39.981425
21
-15.802503
31
0
70
32
71
5
72
1
41
1
210
0
220
0
230
1
3
Standard
100
AcDbAlignedDimension
13
30
23
-1.5875
33
0
14
28.99
24
-4.5875
34
0
50
0
100
AcDbRotatedDimension
1001
ACAD
1000
DSTYLE
1002
{
1070
   279
1070
     0
1070
   172
1070
     1
1070
   173
1070
     1
1070
   340
1005
EB
1070
   271
1070
     2
1070
   272
1070
     2
1070
    77
1070
     1
1070
    73
1070
     0
1070
   171
1070
     3
1070
   274
1070
     4
1070
   177
1070
    35
1070
   176
1070
    35
1070
   178
1070
    35
1070
    48
1040
-0.005
1070
    41
1041
3.5
1070
   147
1041
1.75
1070
    42
1041
1.5875
1070
    44
1041
2.0
1070
   140
1041
3.5
1070
   343
1005
0
1070
   344
1005
0
1002
}
0
DIMENSION
5
11F
100
AcDbEntity
8
SK2
62
256
6
ByLayer
370
13
48
1
60
0
100
AcDbDimension
2
DimnDraft3D5
10
28.99
20
-21.343428
30
0
11
-5.749324
21
-21.343428
31
0
70
32
71
5
72
1
41
1
210
0
220
0
230
1
3
Standard
100
AcDbAlignedDimension
13
-36
23
-4.5875
33
0
14
28.99
24
-4.5875
34
0
50
0
100
AcDbRotatedDimension
1001
ACAD
1000
DSTYLE
1002
{
1070
   279
1070
     0
1070
   172
1070
     1
1070
   173
1070
     1
1070
   340
1005
EB
1070
   271
1070
     2
1070
   272
1070
     2
1070
    77
1070
     1
1070
    73
1070
     0
1070
   171
1070
     3
1070
   274
1070
     4
1070
   177
1070
    35
1070
   176
1070
    35
1070
   178
1070
    35
1070
    48
1040
-0.005
1070
    41
1041
3.5
1070
   147
1041
1.75
1070
    42
1041
1.5875
1070
    44
1041
2.0
1070
   140
1041
3.5
1070
   343
1005
0
1070
   344
1005
0
1002
}
0
DIMENSION
5
12A
100
AcDbEntity
8
SK2
62
256
6
ByLayer
370
13
48
1
60
0
100
AcDbDimension
2
DimnDraft3D6
10
-46.625163
20
3
30
0
11
-47.250163
21
21.47418
31
0
70
33
71
5
72
1
41
1
210
0
220
0
230
1
3
Standard
100
AcDbAlignedDimension
13
-37.5875
23
-3
33
0
14
-37.5875
24
3
34
0
1001
ACAD
1000
DSTYLE
1002
{
1070
   279
1070
     0
1070
    74
1070
     0
1070
   173
1070
     1
1070
   340
1005
EB
1070
   271
1070
     3
1070
   272
1070
     2
1070
    77
1070
     1
1070
    73
1070
     0
1070
   171
1070
     3
1070
   274
1070
     4
1070
   177
1070
    35
1070
   176
1070
    35
1070
   178
1070
    35
1070
    48
1040
-0.005
1070
    41
1041
3.5
1070
   147
1041
1.75
1070
    42
1041
1.5875
1070
    44
1041
2.0
1070
   140
1041
3.5
1070
   343
1005
0
1070
   344
1005
0
1002
}
0
DIMENSION
5
135
100
AcDbEntity
8
2
62
256
6
ByLayer
370
13
48
1
60
0
100
AcDbDimension
2
DimnDraft3D7
10
44.083343
20
3
30
0
11
39.458343
21
20.067266
31
0
70
33
71
5
72
1
41
1
210
0
220
0
230
1
3
Standard
100
AcDbAlignedDimension
13
30.5775
23
-3
33
0
14
30.5775
24
3
34
0
1001
ACAD
1000
DSTYLE
1002
{
1070
   279
1070
     0
1070
    74
1070
     0
1070
   173
1070
     1
1070
   340
1005
EB
1070
   271
1070
     3
1070
   272
1070
     2
1070
    77
1070
     1
1070
    73
1070
     0
1070
   171
1070
     3
1070
   274
1070
     4
1070
   177
1070
    35
1070
   176
1070
    35
1070
   178
1070
    35
1070
    48
1040
-0.005
1070
    41
1041
3.5
1070
   147
1041
1.75
1070
    42
1041
1.5875
1070
    44
1041
2.0
1070
   140
1041
3.5
1070
   343
1005
0
1070
   344
1005
0
1002
}
0
ENDSEC
0
SECTION
2
OBJECTS
0
DICTIONARY
5
1a0
330
0
100
AcDbDictionary
280
0
281
1
3
ACAD_GROUP
350
1a1
3
ACAD_MLINESTYLE
350
1a2
0
DICTIONARY
5
1a1
330
0
100
AcDbDictionary
280
0
281
1
0
DICTIONARY
5
1a2
330
0
100
AcDbDictionary
280
0
281
1
3
Standard
350
18
0
MLINESTYLE
5
18
330
1a2
100
AcDbMlineStyle
2
Standard
70
0
3

62
256
51
90
52
90
71
2
49
-0.5
62
256
6
ByLayer
49
0.5
62
256
6
ByLayer
0
RASTERVARIABLES
5
18e
330

100
AcDbRasterVariables
90
0
70
1
71
1
72
1
0
ENDSEC
0
EOF
