0
SECTION
2
HEADER
9
$ACADVER
1
AC1015
9
$DWGCODEPAGE
3
ANSI_1252
9
$HANDSEED
5
1b7
9
$ANGBASE
50
0
9
$ANGDIR
70
0
9
$ATTMODE
70
1
9
$AUNITS
70
0
9
$AUPREC
70
0
9
$CECOLOR
62
256
9
$CELTSCALE
40
1
9
$CELTYPE
6
ByLayer
9
$CELWEIGHT
370
18
9
$CLAYER
8
0
9
$CMLJUST
70
0
9
$CMLSCALE
40
1
9
$CMLSTYLE
2
Standard
9
$DIMSTYLE
2
Standard
9
$TEXTSIZE
40
0.2
9
$TEXTSTYLE
7
Standard
9
$LUNITS
70
2
9
$LUPREC
70
4
9
$EXTNAMES
290
1
9
$INSUNITS
70
4
9
$LTSCALE
40
1
9
$LWDISPLAY
290
1
9
$PDMODE
70
0
9
$PDSIZE
40
0
9
$PLINEGEN
70
0
0
ENDSEC
0
SECTION
2
CLASSES
0
CLASS
1
RASTERVARIABLES
2
AcDbRasterVariables
3
ISM
90
0
280
0
281
0
0
ENDSEC
0
SECTION
2
TABLES
0
TABLE
2
VPORT
5
1ad
100
AcDbSymbolTable
0
VPORT
5
1
100
AcDbSymbolTableRecord
100
AcDbViewportTableRecord
2
*Active
70
0
10
0
20
0
11
1
21
1
12
-1
22
1
13
0
23
0
14
0.5
24
0.5
15
10
25
10
16
0
26
0
36
1
17
0
27
0
37
0
0
ENDTAB
0
TABLE
2
LTYPE
5
1ae
100
AcDbSymbolTable
0
LTYPE
5
14
100
AcDbSymbolTableRecord
100
AcDbLinetypeTableRecord
70
0
2
ByBlock
3

72
65
73
0
40
0
0
LTYPE
5
15
100
AcDbSymbolTableRecord
100
AcDbLinetypeTableRecord
70
0
2
ByLayer
3

72
65
73
0
40
0
0
LTYPE
5
16
100
AcDbSymbolTableRecord
100
AcDbLinetypeTableRecord
70
0
2
CONTINUOUS
3
Solid line
72
65
73
0
40
0
0
LTYPE
5
6A
100
AcDbSymbolTableRecord
100
AcDbLinetypeTableRecord
70
0
2
CENTER
3
____ _ ____ _ ____ _ ____
72
65
73
4
40
47.5
49
22
74
0
49
-8.5
74
0
49
8.5
74
0
49
-8.5
74
0
0
LTYPE
5
6B
100
AcDbSymbolTableRecord
100
AcDbLinetypeTableRecord
70
0
2
DASHED
3
__ __ __ __ __ __ __ __ __
72
65
73
2
40
25.72
49
12.86
74
0
49
-12.86
74
0
0
ENDTAB
0
TABLE
2
LAYER
5
1af
100
AcDbSymbolTable
0
LAYER
5
10
100
AcDbSymbolTableRecord
100
AcDbLayerTableRecord
2
0
70
0
62
7
6
CONTINUOUS
290
1
370
-3
390
0
0
LAYER
5
6D
100
AcDbSymbolTableRecord
100
AcDbLayerTableRecord
2
81
70
0
62
-3
6
CONTINUOUS
290
1
370
-3
390
0
0
LAYER
5
6F
100
AcDbSymbolTableRecord
100
AcDbLayerTableRecord
2
80
70
0
62
-6
6
CONTINUOUS
290
1
370
-3
390
0
0
LAYER
5
74
100
AcDbSymbolTableRecord
100
AcDbLayerTableRecord
2
2
70
0
62
7
6
CONTINUOUS
290
1
370
-3
390
0
0
LAYER
5
78
100
AcDbSymbolTableRecord
100
AcDbLayerTableRecord
2
1
70
0
62
4
6
CONTINUOUS
290
1
370
-3
390
0
0
LAYER
5
86
100
AcDbSymbolTableRecord
100
AcDbLayerTableRecord
2
4
70
0
62
-2
6
CENTER
290
1
370
-3
390
0
0
LAYER
5
199
100
AcDbSymbolTableRecord
100
AcDbLayerTableRecord
2
SK2
70
0
62
7
6
CONTINUOUS
290
1
370
-3
390
0
0
LAYER
5
19a
100
AcDbSymbolTableRecord
100
AcDbLayerTableRecord
2
SK1
70
0
62
4
6
CONTINUOUS
290
1
370
-3
390
0
0
LAYER
5
19b
100
AcDbSymbolTableRecord
100
AcDbLayerTableRecord
2
SK4
70
0
62
2
6
CENTER
290
1
370
-3
390
0
0
LAYER
5
19c
100
AcDbSymbolTableRecord
100
AcDbLayerTableRecord
2
SK6
70
0
62
5
6
CONTINUOUS
290
1
370
-3
390
0
0
ENDTAB
0
TABLE
2
STYLE
5
1b0
100
AcDbSymbolTable
0
STYLE
5
11
100
AcDbSymbolTableRecord
100
AcDbTextStyleTableRecord
2
Standard
3
txt
70
0
71
0
40
0
41
1
42
0
50
0
0
STYLE
5
F5
100
AcDbSymbolTableRecord
100
AcDbTextStyleTableRecord
2
iso_b_vert
3
simplex.shx
70
0
71
0
40
0
41
1
42
0
50
0
0
STYLE
5
F6
100
AcDbSymbolTableRecord
100
AcDbTextStyleTableRecord
2
DWGDirectTextStyle
3
simplex
70
0
71
0
40
0
41
1
42
0
50
0
0
ENDTAB
0
TABLE
2
DIMSTYLE
5
1b1
100
AcDbSymbolTable
100
AcDbDimStyleTable
0
DIMSTYLE
105
27
100
AcDbSymbolTableRecord
100
AcDbDimStyleTableRecord
2
Standard
70
0
3
<>
41
0.18
42
0.0625
44
0.18
140
0.18
147
0.09
73
0
74
0
77
1
271
2
275
0
278
52
280
0
340
11
0
ENDTAB
0
TABLE
2
VIEW
5
1b2
100
AcDbSymbolTable
0
ENDTAB
0
TABLE
2
UCS
5
1b3
100
AcDbSymbolTable
0
ENDTAB
0
TABLE
2
APPID
5
1b4
100
AcDbSymbolTable
0
APPID
5
12
100
AcDbSymbolTableRecord
100
AcDbRegAppTableRecord
2
ACAD
70
0
0
ENDTAB
0
TABLE
2
BLOCK_RECORD
5
1b5
100
AcDbSymbolTable
0
BLOCK_RECORD
5
1F
100
AcDbSymbolTableRecord
100
AcDbBlockTableRecord
2
*Model_Space
340
0
70
0
0
BLOCK_RECORD
5
1B
100
AcDbSymbolTableRecord
100
AcDbBlockTableRecord
2
*Paper_Space
340
0
70
0
0
BLOCK_RECORD
5
23
100
AcDbSymbolTableRecord
100
AcDbBlockTableRecord
2
*Paper_Space0
340
0
70
0
0
BLOCK_RECORD
5
F8
100
AcDbSymbolTableRecord
100
AcDbBlockTableRecord
2
DimnDraft3D1
340
0
70
0
0
BLOCK_RECORD
5
102
100
AcDbSymbolTableRecord
100
AcDbBlockTableRecord
2
DimnDraft3D2
340
0
70
0
0
BLOCK_RECORD
5
10C
100
AcDbSymbolTableRecord
100
AcDbBlockTableRecord
2
DimnDraft3D3
340
0
70
0
0
BLOCK_RECORD
5
116
100
AcDbSymbolTableRecord
100
AcDbBlockTableRecord
2
DimnDraft3D4
340
0
70
0
0
BLOCK_RECORD
5
120
100
AcDbSymbolTableRecord
100
AcDbBlockTableRecord
2
DimnDraft3D5
340
0
70
0
0
BLOCK_RECORD
5
12A
100
AcDbSymbolTableRecord
100
AcDbBlockTableRecord
2
DimnDraft3D6
340
0
70
0
0
BLOCK_RECORD
5
135
100
AcDbSymbolTableRecord
100
AcDbBlockTableRecord
2
DimnDraft3D7
340
0
70
0
0
ENDTAB
0
ENDSEC
0
SECTION
2
BLOCKS
0
BLOCK
5
20
100
AcDbEntity
8
0
100
AcDbBlockBegin
2
*Model_Space
70
0
10
0
20
0
30
0
3
*Model_Space
0
ENDBLK
5
21
100
AcDbEntity
8
0
100
AcDbBlockEnd
0
BLOCK
5
1C
100
AcDbEntity
8
0
100
AcDbBlockBegin
2
*Paper_Space
70
0
10
0
20
0
30
0
3
*Paper_Space
0
ENDBLK
5
1D
100
AcDbEntity
8
0
100
AcDbBlockEnd
0
BLOCK
5
24
100
AcDbEntity
8
0
100
AcDbBlockBegin
2
*Paper_Space0
70
0
10
0
20
0
30
0
3
*Paper_Space0
0
ENDBLK
5
25
100
AcDbEntity
8
0
100
AcDbBlockEnd
0
BLOCK
5
FF
100
AcDbEntity
8
0
100
AcDbBlockBegin
2
DimnDraft3D1
70
0
10
0
20
0
30
0
3
DimnDraft3D1
0
MTEXT
5
F9
100
AcDbEntity
8
SK2
62
256
6
ByLayer
370
13
48
1
60
0
100
AcDbMText
10
9.368875
20
-11.918398
30
0
210
0
220
0
230
1
1
\W0.6713;29,13
40
3.5
41
0
44
1.084337
50
0
71
7
72
5
7
iso_b_vert
0
LINE
5
FA
100
AcDbEntity
8
SK2
62
256
6
ByLayer
370
13
48
1
60
0
100
AcDbLine
10
0
20
-1.5875
30
0
11
0
21
-14.793398
31
0
39
0
210
0
220
0
230
1
0
LINE
5
FB
100
AcDbEntity
8
SK2
62
256
6
ByLayer
370
13
48
1
60
0
100
AcDbLine
10
29.13
20
-4.1675
30
0
11
29.13
21
-14.793398
31
0
39
0
210
0
220
0
230
1
0
LINE
5
FC
100
AcDbEntity
8
SK2
62
256
6
ByLayer
370
13
48
1
60
0
100
AcDbLine
10
0
20
-12.793398
30
0
11
29.13
21
-12.793398
31
0
39
0
210
0
220
0
230
1
0
SOLID
5
FD
100
AcDbEntity
8
SK2
62
256
6
ByLayer
370
13
48
1
60
0
100
AcDbTrace
10
0
20
-12.793398
30
0
11
3.499998
21
-12.332615
31
0
12
3.500002
22
-13.254182
32
0
13
0
23
-12.793398
33
0
39
0
210
0
220
0
230
1
0
SOLID
5
FE
100
AcDbEntity
8
SK2
62
256
6
ByLayer
370
13
48
1
60
0
100
AcDbTrace
10
29.13
20
-12.793398
30
0
11
25.630002
21
-13.254182
31
0
12
25.629998
22
-12.332615
32
0
13
29.13
23
-12.793398
33
0
39
0
210
0
220
0
230
1
0
ENDBLK
5
100
100
AcDbEntity
8
0
100
AcDbBlockEnd
0
BLOCK
5
109
100
AcDbEntity
8
0
100
AcDbBlockBegin
2
DimnDraft3D2
70
0
10
0
20
0
30
0
3
DimnDraft3D2
0
MTEXT
5
103
100
AcDbEntity
8
SK2
62
256
6
ByLayer
370
13
48
1
60
0
100
AcDbMText
10
-6.977384
20
-30.817985
30
0
210
0
220
0
230
1
1
\W0.7317;66,00
40
3.5
41
0
44
1.084337
50
0
71
7
72
5
7
iso_b_vert
0
LINE
5
104
100
AcDbEntity
8
SK2
62
256
6
ByLayer
370
13
48
1
60
0
100
AcDbLine
10
-36
20
-4.5875
30
0
11
-36
21
-33.692985
31
0
39
0
210
0
220
0
230
1
0
LINE
5
105
100
AcDbEntity
8
SK2
62
256
6
ByLayer
370
13
48
1
60
0
100
AcDbLine
10
30
20
-1.5875
30
0
11
30
21
-33.692985
31
0
39
0
210
0
220
0
230
1
0
LINE
5
106
100
AcDbEntity
8
SK2
62
256
6
ByLayer
370
13
48
1
60
0
100
AcDbLine
10
-36
20
-31.692985
30
0
11
30
21
-31.692985
31
0
39
0
210
0
220
0
230
1
0
SOLID
5
107
100
AcDbEntity
8
SK2
62
256
6
ByLayer
370
13
48
1
60
0
100
AcDbTrace
10
-36
20
-31.692985
30
0
11
-32.500002
21
-31.232202
31
0
12
-32.499998
22
-32.153769
32
0
13
-36
23
-31.692985
33
0
39
0
210
0
220
0
230
1
0
SOLID
5
108
100
AcDbEntity
8
SK2
62
256
6
ByLayer
370
13
48
1
60
0
100
AcDbTrace
10
30
20
-31.692985
30
0
11
26.500002
21
-32.153769
31
0
12
26.499998
22
-31.232202
32
0
13
30
23
-31.692985
33
0
39
0
210
0
220
0
230
1
0
ENDBLK
5
10A
100
AcDbEntity
8
0
100
AcDbBlockEnd
0
BLOCK
5
113
100
AcDbEntity
8
0
100
AcDbBlockBegin
2
DimnDraft3D3
70
0
10
0
20
0
30
0
3
DimnDraft3D3
0
MTEXT
5
10D
100
AcDbEntity
8
SK2
62
256
6
ByLayer
370
13
48
1
60
0
100
AcDbMText
10
17.813816
20
15.064119
30
0
210
0
220
0
230
1
1
\W0.6713;16,35
40
3.5
41
0
44
1.084337
50
0
71
7
72
5
7
iso_b_vert
0
LINE
5
10E
100
AcDbEntity
8
SK2
62
256
6
ByLayer
370
13
48
1
60
0
100
AcDbLine
10
13.65
20
4.1675
30
0
11
13.65
21
16.189119
31
0
39
0
210
0
220
0
230
1
0
LINE
5
10F
100
AcDbEntity
8
SK2
62
256
6
ByLayer
370
13
48
1
60
0
100
AcDbLine
10
30
20
1.5875
30
0
11
30
21
16.189119
31
0
39
0
210
0
220
0
230
1
0
LINE
5
110
100
AcDbEntity
8
SK2
62
256
6
ByLayer
370
13
48
1
60
0
100
AcDbLine
10
13.65
20
14.189119
30
0
11
30
21
14.189119
31
0
39
0
210
0
220
0
230
1
0
SOLID
5
111
100
AcDbEntity
8
SK2
62
256
6
ByLayer
370
13
48
1
60
0
100
AcDbTrace
10
13.65
20
14.189119
30
0
11
17.149998
21
14.649903
31
0
12
17.150002
22
13.728335
32
0
13
13.65
23
14.189119
33
0
39
0
210
0
220
0
230
1
0
SOLID
5
112
100
AcDbEntity
8
SK2
62
256
6
ByLayer
370
13
48
1
60
0
100
AcDbTrace
10
30
20
14.189119
30
0
11
26.500002
21
13.728335
31
0
12
26.499998
22
14.649903
32
0
13
30
23
14.189119
33
0
39
0
210
0
220
0
230
1
0
ENDBLK
5
114
100
AcDbEntity
8
0
100
AcDbBlockEnd
0
BLOCK
5
11D
100
AcDbEntity
8
0
100
AcDbBlockBegin
2
DimnDraft3D4
70
0
10
0
20
0
30
0
3
DimnDraft3D4
0
MTEXT
5
117
100
AcDbEntity
8
SK2
62
256
6
ByLayer
370
13
48
1
60
0
100
AcDbMText
10
36.840636
20
-14.507503
30
0
210
0
220
0
230
1
1
\W0.7150;0,87
40
3.5
41
0
44
1.084337
50
0
71
7
72
5
7
iso_b_vert
0
LINE
5
118
100
AcDbEntity
8
SK2
62
256
6
ByLayer
370
13
48
1
60
0
100
AcDbLine
10
30
20
-1.5875
30
0
11
30
21
-17.382503
31
0
39
0
210
0
220
0
230
1
0
LINE
5
119
100
AcDbEntity
8
SK2
62
256
6
ByLayer
370
13
48
1
60
0
100
AcDbLine
10
29.13
20
-4.1675
30
0
11
29.13
21
-17.382503
31
0
39
0
210
0
220
0
230
1
0
LINE
5
11A
100
AcDbEntity
8
SK2
62
256
6
ByLayer
370
13
48
1
60
0
100
AcDbLine
10
20.38
20
-15.382503
30
0
11
43.997215
21
-15.382503
31
0
39
0
210
0
220
0
230
1
0
SOLID
5
11B
100
AcDbEntity
8
SK2
62
256
6
ByLayer
370
13
48
1
60
0
100
AcDbTrace
10
30
20
-15.382503
30
0
11
33.499998
21
-14.921719
31
0
12
33.500002
22
-15.843287
32
0
13
30
23
-15.382503
33
0
39
0
210
0
220
0
230
1
0
SOLID
5
11C
100
AcDbEntity
8
SK2
62
256
6
ByLayer
370
13
48
1
60
0
100
AcDbTrace
10
29.13
20
-15.382503
30
0
11
25.630002
21
-15.843287
31
0
12
25.629998
22
-14.921719
32
0
13
29.13
23
-15.382503
33
0
39
0
210
0
220
0
230
1
0
ENDBLK
5
11E
100
AcDbEntity
8
0
100
AcDbBlockEnd
0
BLOCK
5
127
100
AcDbEntity
8
0
100
AcDbBlockBegin
2
DimnDraft3D5
70
0
10
0
20
0
30
0
3
DimnDraft3D5
0
MTEXT
5
121
100
AcDbEntity
8
SK2
62
256
6
ByLayer
370
13
48
1
60
0
100
AcDbMText
10
-9.620508
20
-20.468428
30
0
210
0
220
0
230
1
1
\W0.6713;65,13
40
3.5
41
0
44
1.084337
50
0
71
7
72
5
7
iso_b_vert
0
LINE
5
122
100
AcDbEntity
8
SK2
62
256
6
ByLayer
370
13
48
1
60
0
100
AcDbLine
10
-36
20
-4.5875
30
0
11
-36
21
-23.343428
31
0
39
0
210
0
220
0
230
1
0
LINE
5
123
100
AcDbEntity
8
SK2
62
256
6
ByLayer
370
13
48
1
60
0
100
AcDbLine
10
29.13
20
-4.1675
30
0
11
29.13
21
-23.343428
31
0
39
0
210
0
220
0
230
1
0
LINE
5
124
100
AcDbEntity
8
SK2
62
256
6
ByLayer
370
13
48
1
60
0
100
AcDbLine
10
-36
20
-21.343428
30
0
11
29.13
21
-21.343428
31
0
39
0
210
0
220
0
230
1
0
SOLID
5
125
100
AcDbEntity
8
SK2
62
256
6
ByLayer
370
13
48
1
60
0
100
AcDbTrace
10
-36
20
-21.343428
30
0
11
-32.500002
21
-20.882645
31
0
12
-32.499998
22
-21.804212
32
0
13
-36
23
-21.343428
33
0
39
0
210
0
220
0
230
1
0
SOLID
5
126
100
AcDbEntity
8
SK2
62
256
6
ByLayer
370
13
48
1
60
0
100
AcDbTrace
10
29.13
20
-21.343428
30
0
11
25.630002
21
-21.804212
31
0
12
25.629998
22
-20.882645
32
0
13
29.13
23
-21.343428
33
0
39
0
210
0
220
0
230
1
0
ENDBLK
5
128
100
AcDbEntity
8
0
100
AcDbBlockEnd
0
BLOCK
5
132
100
AcDbEntity
8
0
100
AcDbBlockBegin
2
DimnDraft3D6
70
0
10
0
20
0
30
0
3
DimnDraft3D6
0
MTEXT
5
12B
100
AcDbEntity
8
SK2
62
256
6
ByLayer
370
13
48
1
60
0
100
AcDbMText
10
-46.375163
20
22.34918
30
0
210
0
220
0
230
1
1
\W0.7317;6,000
40
3.5
41
0
44
1.084337
50
90
71
7
72
5
7
iso_b_vert
0
MTEXT
5
12C
100
AcDbEntity
8
SK2
62
256
6
ByLayer
370
13
48
1
60
0
100
AcDbMText
10
-46.375163
20
17.126524
30
0
210
0
220
0
230
1
1
%%c
40
3.5
41
0
44
1.084337
50
90
71
7
72
5
7
iso_b_vert
0
LINE
5
12D
100
AcDbEntity
8
SK2
62
256
6
ByLayer
370
13
48
1
60
0
100
AcDbLine
10
-37.5875
20
-3
30
0
11
-46.625163
21
-3
31
0
39
0
210
0
220
0
230
1
0
LINE
5
12E
100
AcDbEntity
8
SK2
62
256
6
ByLayer
370
13
48
1
60
0
100
AcDbLine
10
-37.5875
20
3
30
0
11
-46.625163
21
3
31
0
39
0
210
0
220
0
230
1
0
LINE
5
12F
100
AcDbEntity
8
SK2
62
256
6
ByLayer
370
13
48
1
60
0
100
AcDbLine
10
-44.625163
20
32.121549
30
0
11
-44.625163
21
-11.75
31
0
39
0
210
0
220
0
230
1
0
SOLID
5
130
100
AcDbEntity
8
SK2
62
256
6
ByLayer
370
13
48
1
60
0
100
AcDbTrace
10
-44.625163
20
-3
30
0
11
-44.164379
21
-6.499998
31
0
12
-45.085946
22
-6.500002
32
0
13
-44.625163
23
-3
33
0
39
0
210
0
220
0
230
1
0
SOLID
5
131
100
AcDbEntity
8
SK2
62
256
6
ByLayer
370
13
48
1
60
0
100
AcDbTrace
10
-44.625163
20
3
30
0
11
-45.085946
21
6.499998
31
0
12
-44.164379
22
6.500002
32
0
13
-44.625163
23
3
33
0
39
0
210
0
220
0
230
1
0
ENDBLK
5
133
100
AcDbEntity
8
0
100
AcDbBlockEnd
0
BLOCK
5
13D
100
AcDbEntity
8
0
100
AcDbBlockBegin
2
DimnDraft3D7
70
0
10
0
20
0
30
0
3
DimnDraft3D7
0
MTEXT
5
136
100
AcDbEntity
8
2
62
256
6
ByLayer
370
13
48
1
60
0
100
AcDbMText
10
40.333343
20
20.522266
30
0
210
0
220
0
230
1
1
\W0.6713;5,160
40
3.5
41
0
44
1.084337
50
90
71
7
72
5
7
iso_b_vert
0
MTEXT
5
137
100
AcDbEntity
8
2
62
256
6
ByLayer
370
13
48
1
60
0
100
AcDbMText
10
40.333343
20
15.29961
30
0
210
0
220
0
230
1
1
%%c
40
3.5
41
0
44
1.084337
50
90
71
7
72
5
7
iso_b_vert
0
LINE
5
138
100
AcDbEntity
8
2
62
256
6
ByLayer
370
13
48
1
60
0
100
AcDbLine
10
30.7175
20
-2.58
30
0
11
44.083343
21
-2.58
31
0
39
0
210
0
220
0
230
1
0
LINE
5
139
100
AcDbEntity
8
2
62
256
6
ByLayer
370
13
48
1
60
0
100
AcDbLine
10
30.7175
20
2.58
30
0
11
44.083343
21
2.58
31
0
39
0
210
0
220
0
230
1
0
LINE
5
13A
100
AcDbEntity
8
2
62
256
6
ByLayer
370
13
48
1
60
0
100
AcDbLine
10
42.083343
20
29.419635
30
0
11
42.083343
21
-11.33
31
0
39
0
210
0
220
0
230
1
0
SOLID
5
13B
100
AcDbEntity
8
2
62
256
6
ByLayer
370
13
48
1
60
0
100
AcDbTrace
10
42.083343
20
-2.58
30
0
11
42.544126
21
-6.079998
31
0
12
41.622559
22
-6.080002
32
0
13
42.083343
23
-2.58
33
0
39
0
210
0
220
0
230
1
0
SOLID
5
13C
100
AcDbEntity
8
2
62
256
6
ByLayer
370
13
48
1
60
0
100
AcDbTrace
10
42.083343
20
2.58
30
0
11
41.622559
21
6.079998
31
0
12
42.544126
22
6.080002
32
0
13
42.083343
23
2.58
33
0
39
0
210
0
220
0
230
1
0
ENDBLK
5
13E
100
AcDbEntity
8
0
100
AcDbBlockEnd
0
ENDSEC
0
SECTION
2
ENTITIES
0
ARC
5
A5
100
AcDbEntity
8
1
62
256
6
ByLayer
370
18
48
1
60
0
100
AcDbCircle
39
0
10
0
20
2.2
30
0
40
0.8
210
0
220
0
230
1
100
AcDbArc
50
45.76192
51
90
0
ARC
5
A6
100
AcDbEntity
8
1
62
256
6
ByLayer
370
18
48
1
60
0
100
AcDbCircle
39
0
10
0
20
-2.2
30
0
40
0.8
210
0
220
0
230
1
100
AcDbArc
50
270
51
314.23808
0
ARC
5
A7
100
AcDbEntity
8
1
62
256
6
ByLayer
370
18
48
1
60
0
100
AcDbCircle
39
0
10
-1.116226
20
3.346315
30
0
40
0.799999999999999
210
0
220
0
230
-1
100
AcDbArc
50
269.931245
51
314.23808
0
ARC
5
A8
100
AcDbEntity
8
1
62
256
6
ByLayer
370
18
48
1
60
0
100
AcDbCircle
39
0
10
-1.116226
20
-3.346315
30
0
40
0.799999999999999
210
0
220
0
230
-1
100
AcDbArc
50
45.76192
51
90.068755
0
ELLIPSE
5
A9
100
AcDbEntity
8
1
62
256
6
ByLayer
370
18
48
1
60
0
100
AcDbEllipse
10
4.25
20
2.69828
30
0
11
0.25
21
0
31
0
210
0
220
0
230
1
40
0.999999
41
-2.50473031912738
42
-1.68709281525074
0
ELLIPSE
5
AA
100
AcDbEntity
8
1
62
256
6
ByLayer
370
18
48
1
60
0
100
AcDbEllipse
10
29.94024
20
0.043267
30
0
11
0.0243399131318137
21
0.0986628169799065
31
0
210
0
220
0
230
-1
40
0.57374
41
2.02259059002647
42
2.14048853097402
0
ELLIPSE
5
AB
100
AcDbEntity
8
1
62
256
6
ByLayer
370
13
48
1
60
0
100
AcDbEllipse
10
4.250352
20
0.931683
30
0
11
0.0444800183689038
21
0.0895629832347158
31
0
210
0
220
0
230
1
40
0.174057
41
2.83913733828804
42
-1.90290586796352
0
ELLIPSE
5
AC
100
AcDbEntity
8
1
62
256
6
ByLayer
370
18
48
1
60
0
100
AcDbEllipse
10
30.028306
20
-0.000453
30
0
11
0.0409878374438101
21
-0.131356221171302
31
0
210
0
220
0
230
-1
40
0.112168
41
1.94324268626516
42
2.35198746447544
0
ELLIPSE
5
AD
100
AcDbEntity
8
1
62
256
6
ByLayer
370
18
48
1
60
0
100
AcDbEllipse
10
29.975823
20
0.025602
30
0
11
0.0330892487937419
21
0.0951892544451259
31
0
210
0
220
0
230
-1
40
0.178619
41
1.38550767359791
42
1.91828715862305
0
ELLIPSE
5
AE
100
AcDbEntity
8
1
62
256
6
ByLayer
370
18
48
1
60
0
100
AcDbEllipse
10
30.028306
20
0.000453
30
0
11
0.0409878372981803
21
0.131356220810449
31
0
210
0
220
0
230
-1
40
0.112168
41
-2.35198746402717
42
-1.94324268488937
0
ELLIPSE
5
AF
100
AcDbEntity
8
1
62
256
6
ByLayer
370
18
48
1
60
0
100
AcDbEllipse
10
29.957182
20
0.034856
30
0
11
0.0509214948161384
21
0.0862938759082753
31
0
210
0
220
0
230
-1
40
0.493461
41
-2.04924112066149
42
-0.932230399340635
0
ELLIPSE
5
B0
100
AcDbEntity
8
1
62
256
6
ByLayer
370
13
48
1
60
0
100
AcDbEllipse
10
29.318408
20
0.476951
30
0
11
0.0569094017391086
21
0.0822272460544359
31
0
210
0
220
0
230
1
40
0.464508
41
0.852182322381293
42
2.08496535696418
0
ELLIPSE
5
B1
100
AcDbEntity
8
1
62
256
6
ByLayer
370
18
48
1
60
0
100
AcDbEllipse
10
30.00048
20
0.001127
30
0
11
0.957137143304751
21
2.57789309348175
31
0
210
0
220
0
230
-1
40
0.131755
41
2.84070038688064
42
2.90864355509168
0
ELLIPSE
5
B2
100
AcDbEntity
8
1
62
256
6
ByLayer
370
18
48
1
60
0
100
AcDbEllipse
10
29.94024
20
0.043267
30
0
11
0.0243399215424699
21
0.0986627990397698
31
0
210
0
220
0
230
-1
40
0.57374
41
1.43222244799077
42
1.48981094713208
0
ELLIPSE
5
B3
100
AcDbEntity
8
1
62
256
6
ByLayer
370
18
48
1
60
0
100
AcDbEllipse
10
29.486657
20
-1.346217
30
0
11
0.420038490619844
21
1.13113168961646
31
0
210
0
220
0
230
-1
40
0.131695
41
0.695742456820012
42
1.22657755689418
0
ELLIPSE
5
B4
100
AcDbEntity
8
1
62
256
6
ByLayer
370
13
48
1
60
0
100
AcDbEllipse
10
30.215668
20
1.33245
30
0
11
1.62763546557213
21
-0.592397602144752
31
0
210
0
220
0
230
-1
40
0.706937
41
1.92585417930524
42
2.11357863322429
0
ELLIPSE
5
B5
100
AcDbEntity
8
1
62
256
6
ByLayer
370
18
48
1
60
0
100
AcDbEllipse
10
29.383496
20
0.431904
30
0
11
0.572341917825524
21
-0.32250297349823
31
0
210
0
220
0
230
-1
40
0.121682
41
-0.0684581752282567
42
0.0473141354653131
0
ELLIPSE
5
B6
100
AcDbEntity
8
1
62
256
6
ByLayer
370
18
48
1
60
0
100
AcDbEllipse
10
30.00048
20
-0.001127
30
0
11
0.957137096445356
21
-2.5778929513525
31
0
210
0
220
0
230
-1
40
0.131755
41
-2.90864354864264
42
-2.84070037851077
0
ELLIPSE
5
B7
100
AcDbEntity
8
1
62
256
6
ByLayer
370
18
48
1
60
0
100
AcDbEllipse
10
29.486657
20
1.346217
30
0
11
0.420038490625881
21
-1.13113168962885
31
0
210
0
220
0
230
-1
40
0.131695
41
-1.22657755688744
42
-0.695742456817813
0
ELLIPSE
5
B8
100
AcDbEntity
8
1
62
256
6
ByLayer
370
13
48
1
60
0
100
AcDbEllipse
10
4.178933
20
0.973321
30
0
11
-0.0565085095999633
21
-0.0825032626190677
31
0
210
0
220
0
230
1
40
0.240949
41
-0.996773391965385
42
0.17008697145667
0
POINT
5
6C
100
AcDbEntity
8
81
62
256
6
ByLayer
370
18
48
1
60
0
100
AcDbPoint
10
30
20
0
30
0
39
0
210
0
220
0
230
1
50
360
0
POINT
5
6E
100
AcDbEntity
8
80
62
256
6
ByLayer
370
18
48
1
60
0
100
AcDbPoint
10
0
20
0
30
0
39
0
210
0
220
0
230
1
50
360
0
POINT
5
70
100
AcDbEntity
8
SK2
62
256
6
ByLayer
370
18
48
1
60
1
100
AcDbPoint
10
-36
20
-3
30
0
39
0
210
0
220
0
230
1
50
360
0
POINT
5
72
100
AcDbEntity
8
SK2
62
256
6
ByLayer
370
18
48
1
60
1
100
AcDbPoint
10
-36
20
3
30
0
39
0
210
0
220
0
230
1
50
360
0
POINT
5
73
100
AcDbEntity
8
2
62
256
6
ByLayer
370
18
48
1
60
1
100
AcDbPoint
10
29.13
20
-2.58
30
0
39
0
210
0
220
0
230
1
50
360
0
POINT
5
75
100
AcDbEntity
8
2
62
256
6
ByLayer
370
18
48
1
60
1
100
AcDbPoint
10
29.13
20
2.58
30
0
39
0
210
0
220
0
230
1
50
360
0
SPLINE
5
B9
100
AcDbEntity
8
1
62
256
6
ByLayer
370
18
48
1
60
0
100
AcDbSpline
70
4
71
2
72
6
73
3
40
0
40
0
40
0
40
1
40
1
40
1
41
1
10
4.30768165781714
20
-2.44349454363442
30
0
41
1
10
4.40439670202278
20
-2.44384480409761
30
0
41
1
10
4.50112215932921
20
-2.44389907940732
30
0
0
SPLINE
5
BA
100
AcDbEntity
8
1
62
256
6
ByLayer
370
18
48
1
60
0
100
AcDbSpline
70
4
71
3
72
22
73
18
40
0
40
0
40
0
40
0
40
0.007971815276141
40
0.0188448924610107
40
0.0336618372752778
40
0.0958441762992224
40
0.17531412978513
40
0.238446880500967
40
0.337038583351917
40
0.450995843231468
40
0.523169180356622
40
0.578461457702847
40
0.641677607267463
40
0.702047643459684
40
0.749001058139672
40
0.853685841777986
40
1
40
1
40
1
40
1
41
1
10
20.6582728116553
20
-0.588803859420437
30
0
41
1
10
20.6583001752886
20
-0.588940400661414
30
0
41
1
10
20.6606041876854
20
-0.589411915515996
30
0
41
1
10
20.6730709653514
20
-0.59091396609071
30
0
41
1
10
20.7301163021027
20
-0.597411524753966
30
0
41
1
10
20.8590787087125
20
-0.614069773092211
30
0
41
1
10
21.0249488145537
20
-0.641182995732521
30
0
41
1
10
21.21966858727
20
-0.679673502308447
30
0
41
1
10
21.4463192368423
20
-0.733484176302994
30
0
41
1
10
21.6794081284373
20
-0.796720111994574
30
0
41
1
10
21.8778267898218
20
-0.859000080268743
30
0
41
1
10
22.0422147276858
20
-0.914213843696615
30
0
41
1
10
22.2003751632808
20
-0.97048773714684
30
0
41
1
10
22.3522716912732
20
-1.0272753821634
30
0
41
1
10
22.5480274956488
20
-1.10343147493785
30
0
41
1
10
22.8262782494931
20
-1.21710146661547
30
0
41
1
10
23.0598325056256
20
-1.32049668638106
30
0
41
1
10
23.1962121697668
20
-1.38352638460731
30
0
0
SPLINE
5
BB
100
AcDbEntity
8
1
62
256
6
ByLayer
370
18
48
1
60
0
100
AcDbSpline
70
4
71
2
72
6
73
3
40
0
40
0
40
0
40
1
40
1
40
1
41
1
10
28.4709706828855
20
-2.47603763000021
30
0
41
1
10
28.787415834532
20
-2.47554817027557
30
0
41
1
10
29.1039572665802
20
-2.47712175386434
30
0
0
SPLINE
5
BC
100
AcDbEntity
8
1
62
256
6
ByLayer
370
18
48
1
60
0
100
AcDbSpline
70
4
71
3
72
14
73
10
40
0
40
0
40
0
40
0
40
0.146466205117289
40
0.349728160594132
40
0.480069903201969
40
0.606311718739872
40
0.658867037924602
40
0.74990738969451
40
1
40
1
40
1
40
1
41
1
10
11.8351383809592
20
-0.114083711022147
30
0
41
1
10
11.8350953869224
20
-0.113702182544301
30
0
41
1
10
11.8192312536366
20
-0.107598024449402
30
0
41
1
10
11.7706285587302
20
-0.0895659705249727
30
0
41
1
10
11.6812525527279
20
-0.0519229928211757
30
0
41
1
10
11.6057021753241
20
-0.0175557607933285
30
0
41
1
10
11.5240558916793
20
0.0207347107911744
30
0
41
1
10
11.3924533142479
20
0.083931239979222
30
0
41
1
10
11.2752932147182
20
0.143113099551471
30
0
41
1
10
11.1851651076663
20
0.190085344647286
30
0
0
SPLINE
5
BD
100
AcDbEntity
8
1
62
256
6
ByLayer
370
18
48
1
60
0
100
AcDbSpline
70
4
71
3
72
20
73
16
40
0
40
0
40
0
40
0
40
0.111203163423959
40
0.192155191247145
40
0.244539792450627
40
0.290667044365598
40
0.337585894379443
40
0.385312261372492
40
0.433897672799939
40
0.483346209944985
40
0.686784379136055
40
0.738542509879416
40
0.799625928184117
40
0.89712165755819
40
1
40
1
40
1
40
1
41
1
10
13.4872693669571
20
-2.45798218708094
30
0
41
1
10
13.6928266025716
20
-2.45833700276546
30
0
41
1
10
14.0480347808449
20
-2.45885390821547
30
0
41
1
10
14.5001190806461
20
-2.45965355064922
30
0
41
1
10
14.8318944447966
20
-2.45970550715702
30
0
41
1
10
15.1007552485644
20
-2.45979259128379
30
0
41
1
10
15.3610034038703
20
-2.46006808622909
30
0
41
1
10
15.6257950872746
20
-2.46067815517051
30
0
41
1
10
15.8952637668808
20
-2.46129878858267
30
0
41
1
10
16.4526007642405
20
-2.46128512478188
30
0
41
1
10
17.0158007388388
20
-2.46298195482322
30
0
41
1
10
17.6005125151396
20
-2.46285505796624
30
0
41
1
10
17.989366023203
20
-2.46207829007582
30
0
41
1
10
18.4727235836631
20
-2.46339113582459
30
0
41
1
10
18.8431578201173
20
-2.46410536137705
30
0
41
1
10
19.0333505027052
20
-2.46461067014383
30
0
0
SPLINE
5
BE
100
AcDbEntity
8
1
62
256
6
ByLayer
370
18
48
1
60
0
100
AcDbSpline
70
4
71
2
72
6
73
3
40
0
40
0
40
0
40
1
40
1
40
1
41
1
10
4.49537767621027
20
2.44388811001304
30
0
41
1
10
4.37335223452374
20
2.4438178362212
30
0
41
1
10
4.25134375589667
20
2.44326539925734
30
0
0
SPLINE
5
BF
100
AcDbEntity
8
1
62
256
6
ByLayer
370
18
48
1
60
0
100
AcDbSpline
70
4
71
3
72
18
73
14
40
0
40
0
40
0
40
0
40
0.130160843303358
40
0.253479620691014
40
0.330741799376763
40
0.396208763356821
40
0.653530252817876
40
0.716075896442329
40
0.777529803957838
40
0.83789713763005
40
0.897243072649872
40
0.955587744226023
40
1
40
1
40
1
40
1
41
1
10
19.0334986894886
20
2.46461101184136
30
0
41
1
10
18.8432566112208
20
2.46410556340254
30
0
41
1
10
18.472772979124
20
2.46339126482468
30
0
41
1
10
17.989366023207
20
2.46207829088141
30
0
41
1
10
17.600512515155
20
2.46285505782907
30
0
41
1
10
17.0158007388484
20
2.46298195497957
30
0
41
1
10
16.4526007642504
20
2.46128512476815
30
0
41
1
10
15.8952637668887
20
2.46129878858417
30
0
41
1
10
15.6257950872816
20
2.46067815517012
30
0
41
1
10
15.3610034038763
20
2.4600680862292
30
0
41
1
10
15.1007552485694
20
2.45979259128376
30
0
41
1
10
14.8638261213603
20
2.45971584984042
30
0
41
1
10
14.7136380893311
20
2.45968792468744
30
0
41
1
10
14.6487257832318
20
2.45965865965937
30
0
0
SPLINE
5
C0
100
AcDbEntity
8
1
62
256
6
ByLayer
370
18
48
1
60
0
100
AcDbSpline
70
4
71
3
72
16
73
12
40
0
40
0
40
0
40
0
40
0.0170097651077438
40
0.108474575304902
40
0.208310433311075
40
0.342412050608121
40
0.441637009991165
40
0.512506656138222
40
0.604713757025933
40
0.766007930169991
40
1
40
1
40
1
40
1
41
1
10
26.8217038585495
20
-0.120521151285601
30
0
41
1
10
26.8218210838004
20
-0.120565272900762
30
0
41
1
10
26.8205916669114
20
-0.120222643996556
30
0
41
1
10
26.7954140753757
20
-0.111947426445482
30
0
41
1
10
26.7600059521434
20
-0.099112986441213
30
0
41
1
10
26.7141499686223
20
-0.0805493404149047
30
0
41
1
10
26.6469318233796
20
-0.0517969498623359
30
0
41
1
10
26.5793997774241
20
-0.0214867332929316
30
0
41
1
10
26.4886800764857
20
0.0204522237155231
30
0
41
1
10
26.3258007214903
20
0.0993034517234435
30
0
41
1
10
26.1906236832775
20
0.168056725872617
30
0
41
1
10
26.1064246756619
20
0.211985670118651
30
0
0
SPLINE
5
C1
100
AcDbEntity
8
1
62
256
6
ByLayer
370
18
48
1
60
0
100
AcDbSpline
70
4
71
3
72
20
73
16
40
0
40
0
40
0
40
0
40
0.125
40
0.125
40
0.25
40
0.25
40
0.375
40
0.375
40
0.5
40
0.5
40
0.75
40
0.75
40
0.875
40
0.875
40
1
40
1
40
1
40
1
41
1
10
29.6224624051188
20
-0.996184625831859
30
0
41
1
10
29.6254277719077
20
-1.0038634934148
30
0
41
1
10
29.6259060332932
20
-1.01767077637146
30
0
41
1
10
29.6213468844382
20
-1.05779685355606
30
0
41
1
10
29.6163097225832
20
-1.08375110770896
30
0
41
1
10
29.6013001334716
20
-1.1442950659154
30
0
41
1
10
29.5913395306222
20
-1.17878331633932
30
0
41
1
10
29.5684268122632
20
-1.25028061606457
30
0
41
1
10
29.5553286973005
20
-1.28776183958092
30
0
41
1
10
29.5144679647706
20
-1.39689933234555
30
0
41
1
10
29.4845118775438
20
-1.46699256173201
30
0
41
1
10
29.4433379793321
20
-1.55210001968689
30
0
41
1
10
29.429990236991
20
-1.57768277031033
30
0
41
1
10
29.4052984850435
20
-1.62088740692659
30
0
41
1
10
29.3940031949095
20
-1.6384960905782
30
0
41
1
10
29.3838466412481
20
-1.65177604899208
30
0
0
SPLINE
5
C2
100
AcDbEntity
8
1
62
256
6
ByLayer
370
18
48
1
60
0
100
AcDbSpline
70
4
71
3
72
12
73
8
40
0
40
0
40
0
40
0
40
0.354547760328512
40
0.354547760328512
40
0.709095520657023
40
0.709095520657023
40
1
40
1
40
1
40
1
41
1
10
6.19782929725221
20
-2.20999153670908
30
0
41
1
10
6.41591880983083
20
-2.1621989059642
30
0
41
1
10
6.63368482467726
20
-2.10743429103974
30
0
41
1
10
7.06859655191187
20
-1.98455630776201
30
0
41
1
10
7.2857010765461
20
-1.91642584929417
30
0
41
1
10
7.68197004636428
20
-1.78184620874339
30
0
41
1
10
7.86099491717738
20
-1.7170414699977
30
0
41
1
10
8.03980354662792
20
-1.64887910110616
30
0
0
SPLINE
5
C3
100
AcDbEntity
8
1
62
256
6
ByLayer
370
18
48
1
60
0
100
AcDbSpline
70
4
71
3
72
34
73
30
40
0
40
0
40
0
40
0
40
0.0286590728662305
40
0.0286590728662305
40
0.109604150127378
40
0.109604150127378
40
0.190549227388526
40
0.190549227388526
40
0.2310217660191
40
0.2310217660191
40
0.271494304649675
40
0.271494304649675
40
0.352439381910823
40
0.352439381910823
40
0.43338445917197
40
0.43338445917197
40
0.514329536433117
40
0.514329536433117
40
0.595274613694265
40
0.595274613694265
40
0.676219690955412
40
0.676219690955412
40
0.75716476821656
40
0.75716476821656
40
0.838109845477707
40
0.838109845477707
40
0.919054922738855
40
0.919054922738855
40
1
40
1
40
1
40
1
41
1
10
19.0282693248253
20
2.46460297719139
30
0
41
1
10
19.1052366628672
20
2.46482616315311
30
0
41
1
10
19.1822079731708
20
2.4640816324472
30
0
41
1
10
19.4766955785057
20
2.45751118972797
30
0
41
1
10
19.6941749749961
20
2.44388947983399
30
0
41
1
10
20.1303973249194
20
2.40207819557512
30
0
41
1
10
20.3483065181322
20
2.37384926058005
30
0
41
1
10
20.6744669402508
20
2.32123730432977
30
0
41
1
10
20.7830723366561
20
2.30232112514938
30
0
41
1
10
21.0004715894438
20
2.26054959771289
30
0
41
1
10
21.1092517873581
20
2.23745252839845
30
0
41
1
10
21.4358095350321
20
2.16255323794081
30
0
41
1
10
21.654014532364
20
2.105018885676
30
0
41
1
10
22.0897063945597
20
1.97822085147851
30
0
41
1
10
22.3073612813341
20
1.9097813788124
30
0
41
1
10
22.7421347224863
20
1.75943927937669
30
0
41
1
10
22.9596444230435
20
1.67813657133783
30
0
41
1
10
23.3957459390956
20
1.50560689110449
30
0
41
1
10
23.6138047185858
20
1.41391770762607
30
0
41
1
10
24.0490136412095
20
1.22381780340217
30
0
41
1
10
24.2665631789834
20
1.12465233451962
30
0
41
1
10
24.7015965373212
20
0.918762444322766
30
0
41
1
10
24.9197176579977
20
0.812653593910227
30
0
41
1
10
25.3558625985489
20
0.596435249811719
30
0
41
1
10
25.5731760651407
20
0.485914642116342
30
0
41
1
10
26.0080794573307
20
0.262871549334534
30
0
41
1
10
26.2256859585633
20
0.150557538139651
30
0
41
1
10
26.6610347031794
20
-0.0757505444574633
30
0
41
1
10
26.8793253831738
20
-0.18912153076991
30
0
41
1
10
27.0970584951976
20
-0.301346553375993
30
0
0
SPLINE
5
C4
100
AcDbEntity
8
1
62
256
6
ByLayer
370
18
48
1
60
0
100
AcDbSpline
70
4
71
3
72
12
73
8
40
0
40
0
40
0
40
0
40
0.249999999999982
40
0.249999999999982
40
0.499999999999964
40
0.499999999999964
40
1
40
1
40
1
40
1
41
1
10
4.25139308486268
20
-2.44819762001617
30
0
41
1
10
4.23347221610598
20
-2.44819005275895
30
0
41
1
10
4.21541391290336
20
-2.45000255303415
30
0
41
1
10
4.178987726353
20
-2.45780353689136
30
0
41
1
10
4.16042924924349
20
-2.46391466958778
30
0
41
1
10
4.1071385501848
20
-2.48897653949717
30
0
41
1
10
4.07380404382883
20
-2.51542865344069
30
0
41
1
10
4.04885581457427
20
-2.54924698044468
30
0
0
SPLINE
5
C5
100
AcDbEntity
8
1
62
256
6
ByLayer
370
18
48
1
60
0
100
AcDbSpline
70
4
71
3
72
18
73
14
40
0
40
0
40
0
40
0
40
0.125
40
0.125
40
0.25
40
0.25
40
0.375
40
0.375
40
0.5
40
0.5
40
0.75
40
0.75
40
1
40
1
40
1
40
1
41
1
10
27.0970584951975
20
-0.301346553376021
30
0
41
1
10
27.1386342473332
20
-0.396485188962288
30
0
41
1
10
27.1865126478876
20
-0.489549154607687
30
0
41
1
10
27.2899281220104
20
-0.665975606878646
30
0
41
1
10
27.3456590362807
20
-0.749965400887305
30
0
41
1
10
27.463828386186
20
-0.910903598542802
30
0
41
1
10
27.52627463461
20
-0.987843800516686
30
0
41
1
10
27.6570133357497
20
-1.13558700350509
30
0
41
1
10
27.7249460814197
20
-1.20592828921855
30
0
41
1
10
27.9327017329582
20
-1.40533445316532
30
0
41
1
10
28.0775168641569
20
-1.52416261536934
30
0
41
1
10
28.3769547012859
20
-1.73989375323842
30
0
41
1
10
28.5321617149336
20
-1.83703258635009
30
0
41
1
10
28.6901687750411
20
-1.92361077486211
30
0
0
SPLINE
5
C6
100
AcDbEntity
8
1
62
256
6
ByLayer
370
18
48
1
60
0
100
AcDbSpline
70
4
71
3
72
20
73
16
40
0
40
0
40
0
40
0
40
0.142419672295274
40
0.142419672295274
40
0.284839344590549
40
0.284839344590549
40
0.569678689181095
40
0.569678689181095
40
0.640888525328731
40
0.640888525328731
40
0.712098361476367
40
0.712098361476367
40
0.85451803377164
40
0.85451803377164
40
1
40
1
40
1
40
1
41
1
10
4.20324791962
20
0.848491239309794
30
0
41
1
10
4.46576625059694
20
0.716472170710006
30
0
41
1
10
4.72851033243614
20
0.580489804527502
30
0
41
1
10
5.25009261809566
20
0.306076419473754
30
0
41
1
10
5.50958506711183
20
0.167351144706259
30
0
41
1
10
6.28665590418854
20
-0.248639251424976
30
0
41
1
10
6.80304874329914
20
-0.525270402318029
30
0
41
1
10
7.45374014143607
20
-0.85635020180527
30
0
41
1
10
7.58413826687431
20
-0.921831757332114
30
0
41
1
10
7.8456246638566
20
-1.05100060518288
30
0
41
1
10
7.97698731355555
20
-1.11482411706831
30
0
41
1
10
8.36965389084389
20
-1.30174637119907
30
0
41
1
10
8.63000388787307
20
-1.42019163017582
30
0
41
1
10
9.15469261557604
20
-1.64513292482738
30
0
41
1
10
9.41898448765139
20
-1.75145932138531
30
0
41
1
10
9.68326932949395
20
-1.84928775132514
30
0
0
SPLINE
5
C7
100
AcDbEntity
8
1
62
256
6
ByLayer
370
13
48
1
60
0
100
AcDbSpline
70
4
71
3
72
20
73
16
40
0
40
0
40
0
40
0
40
0.155977049156412
40
0.155977049156412
40
0.315381643741335
40
0.315381643741335
40
0.395083941033796
40
0.395083941033796
40
0.474786238326258
40
0.474786238326258
40
0.793595427496111
40
0.793595427496111
40
0.953000022081038
40
0.953000022081038
40
1
40
1
40
1
40
1
41
1
10
9.68326954056869
20
-1.84928782945713
30
0
41
1
10
9.93642828882108
20
-1.94299778856524
30
0
41
1
10
10.1895805865148
20
-2.02891022930771
30
0
41
1
10
10.7029206688907
20
-2.18479966690563
30
0
41
1
10
10.9631421279117
20
-2.254458537663
30
0
41
1
10
11.3556704349574
20
-2.34392696244527
30
0
41
1
10
11.4870255100047
20
-2.37125497334489
30
0
41
1
10
11.748501333708
20
-2.42021408073637
30
0
41
1
10
11.8788657323434
20
-2.44190526120556
30
0
41
1
10
12.529198289075
20
-2.53638234595701
30
0
41
1
10
13.0454968808893
20
-2.56729113990863
30
0
41
1
10
13.82215897383
20
-2.54558860821578
30
0
41
1
10
14.0815235904922
20
-2.52714243774011
30
0
41
1
10
14.4190380430162
20
-2.48843661955164
30
0
41
1
10
14.4960667756349
20
-2.478610244105
30
0
41
1
10
14.5731893999228
20
-2.46779665245572
30
0
0
SPLINE
5
C8
100
AcDbEntity
8
1
62
256
6
ByLayer
370
18
48
1
60
0
100
AcDbSpline
70
4
71
3
72
8
73
4
40
0
40
0
40
0
40
0
40
1
40
1
40
1
40
1
41
1
10
4.16679648238264
20
0.868321022182812
30
0
41
1
10
4.17872649878663
20
0.861316735173347
30
0
41
1
10
4.19087953375012
20
0.854711234601353
30
0
41
1
10
4.20324791961261
20
0.848491239313518
30
0
0
SPLINE
5
C9
100
AcDbEntity
8
1
62
256
6
ByLayer
370
18
48
1
60
0
100
AcDbSpline
70
4
71
3
72
12
73
8
40
0
40
0
40
0
40
0
40
0.254043236857913
40
0.254043236857913
40
0.809462318746197
40
0.809462318746197
40
1
40
1
40
1
40
1
41
1
10
7.58409488203716
20
-1.53614506344002
30
0
41
1
10
7.46787179916484
20
-1.60116329215231
30
0
41
1
10
7.35137946939227
20
-1.66471407433639
30
0
41
1
10
6.97840826291829
20
-1.86103716766934
30
0
41
1
10
6.71843317513034
20
-1.98694525947937
30
0
41
1
10
6.3733880826515
20
-2.13752865860673
30
0
41
1
10
6.28542040710187
20
-2.17450665076231
30
0
41
1
10
6.19756906540835
20
-2.21009696569357
30
0
0
SPLINE
5
CA
100
AcDbEntity
8
1
62
256
6
ByLayer
370
18
48
1
60
0
100
AcDbSpline
70
4
71
3
72
14
73
10
40
0
40
0
40
0
40
0
40
0.396138346237542
40
0.396138346237542
40
0.66381326573443
40
0.66381326573443
40
0.931488185231317
40
0.931488185231317
40
1
40
1
40
1
40
1
41
1
10
11.9040569621197
20
2.49237550468374
30
0
41
1
10
11.5100529204534
20
2.34110278963473
30
0
41
1
10
11.1139348619384
20
2.18302933964409
30
0
41
1
10
10.4425145270898
20
1.91173416869094
30
0
41
1
10
10.1714703817341
20
1.80155646363531
30
0
41
1
10
9.6305741803439
20
1.58551530917484
30
0
41
1
10
9.36018461120088
20
1.47945253138434
30
0
41
1
10
9.01940445065844
20
1.35208580491076
30
0
41
1
10
8.94989442178351
20
1.32643533476085
30
0
41
1
10
8.88030348616542
20
1.30113929212712
30
0
0
SPLINE
5
CB
100
AcDbEntity
8
1
62
256
6
ByLayer
370
18
48
1
60
0
100
AcDbSpline
70
4
71
3
72
28
73
24
40
0
40
0
40
0
40
0
40
0.125
40
0.125
40
0.25
40
0.25
40
0.375
40
0.375
40
0.5
40
0.5
40
0.5625
40
0.5625
40
0.625
40
0.625
40
0.6875
40
0.6875
40
0.75
40
0.75
40
0.8125
40
0.8125
40
0.875
40
0.875
40
1
40
1
40
1
40
1
41
1
10
29.6224624051189
20
-0.996184625832257
30
0
41
1
10
29.6027209883109
20
-0.984856488477163
30
0
41
1
10
29.5781631372139
20
-0.986061572445408
30
0
41
1
10
29.5248407363435
20
-1.00778108964349
30
0
41
1
10
29.4956600328798
20
-1.02852426076035
30
0
41
1
10
29.4365142317523
20
-1.0860540580916
30
0
41
1
10
29.4057499000734
20
-1.12364091115336
30
0
41
1
10
29.3469066817381
20
-1.21333371546945
30
0
41
1
10
29.3181966505573
20
-1.26637731142193
30
0
41
1
10
29.2823254466521
20
-1.35379940979203
30
0
41
1
10
29.2719181622542
20
-1.38334882488198
30
0
41
1
10
29.2547987644843
20
-1.44342216156377
30
0
41
1
10
29.2485750690917
20
-1.47227930964996
30
0
41
1
10
29.2411058473675
20
-1.52713455867331
30
0
41
1
10
29.2400475849078
20
-1.55205254694405
30
0
41
1
10
29.2429649712599
20
-1.59561166737885
30
0
41
1
10
29.2468673635991
20
-1.61368729852745
30
0
41
1
10
29.2586579113691
20
-1.64299248774299
30
0
41
1
10
29.2663613048069
20
-1.65381008502894
30
0
41
1
10
29.2845189995518
20
-1.66907376368545
30
0
41
1
10
29.2950904147231
20
-1.67348594382813
30
0
41
1
10
29.3291409831024
20
-1.67789854956519
30
0
41
1
10
29.3557628301258
20
-1.66940282237928
30
0
41
1
10
29.3838466412485
20
-1.65177604899151
30
0
0
SPLINE
5
CC
100
AcDbEntity
8
1
62
256
6
ByLayer
370
18
48
1
60
0
100
AcDbSpline
70
4
71
3
72
8
73
4
40
0
40
0
40
0
40
0
40
1
40
1
40
1
40
1
41
1
10
29.1493344706244
20
-2.53152050006673
30
0
41
1
10
29.1487572741033
20
-2.53309647687641
30
0
41
1
10
29.1481799980854
20
-2.53467241517978
30
0
41
1
10
29.1476026428055
20
-2.53624831430247
30
0
0
SPLINE
5
CD
100
AcDbEntity
8
1
62
256
6
ByLayer
370
18
48
1
60
0
100
AcDbSpline
70
4
71
3
72
14
73
10
40
0
40
0
40
0
40
0
40
0.5
40
0.5
40
0.75
40
0.75
40
0.875
40
0.875
40
1
40
1
40
1
40
1
41
1
10
29.0444858320042
20
0.766960798079111
30
0
41
1
10
29.1736670785506
20
0.783830591912448
30
0
41
1
10
29.3016723215263
20
0.805257329325968
30
0
41
1
10
29.4890363451439
20
0.85754266886957
30
0
41
1
10
29.5514496200008
20
0.878697369274647
30
0
41
1
10
29.6393692803994
20
0.920316346789519
30
0
41
1
10
29.6676810113335
20
0.935830119084784
30
0
41
1
10
29.7213069137641
20
0.971940811395541
30
0
41
1
10
29.7467580796558
20
0.99271770140885
30
0
41
1
10
29.768629102965
20
1.01657565626724
30
0
0
SPLINE
5
CE
100
AcDbEntity
8
1
62
256
6
ByLayer
370
18
48
1
60
0
100
AcDbSpline
70
4
71
3
72
16
73
12
40
0
40
0
40
0
40
0
40
0.250000000000003
40
0.250000000000003
40
0.375000000000005
40
0.375000000000005
40
0.500000000000006
40
0.500000000000006
40
0.750000000000003
40
0.750000000000003
40
1
40
1
40
1
40
1
41
1
10
29.0843791477704
20
-2.47455622518257
30
0
41
1
10
29.0346680572196
20
-2.46931144463994
30
0
41
1
10
28.9882655718643
20
-2.45438098398725
30
0
41
1
10
28.9240427941841
20
-2.41623298630196
30
0
41
1
10
28.903459946617
20
-2.4007857453455
30
0
41
1
10
28.8648939956819
20
-2.36493648346291
30
0
41
1
10
28.8468385883169
20
-2.34451926351889
30
0
41
1
10
28.7963626458954
20
-2.27577445484107
30
0
41
1
10
28.7676057238533
20
-2.22000786416521
30
0
41
1
10
28.7205118443551
20
-2.0873168431298
30
0
41
1
10
28.702218546305
20
-2.00989099839921
30
0
41
1
10
28.6901687750427
20
-1.92361077486279
30
0
0
SPLINE
5
CF
100
AcDbEntity
8
1
62
256
6
ByLayer
370
18
48
1
60
0
100
AcDbSpline
70
4
71
3
72
22
73
18
40
0
40
0
40
0
40
0
40
0.125
40
0.125
40
0.25
40
0.25
40
0.375
40
0.375
40
0.499999999999999
40
0.499999999999999
40
0.624999999999999
40
0.624999999999999
40
0.75
40
0.75
40
0.875
40
0.875
40
1
40
1
40
1
40
1
41
1
10
29.1870075495586
20
2.49832231788832
30
0
41
1
10
29.2118942708785
20
2.44234588694817
30
0
41
1
10
29.2368253529696
20
2.38560091686932
30
0
41
1
10
29.2868424315255
20
2.26942712438827
30
0
41
1
10
29.3119673801399
20
2.20989181571468
30
0
41
1
10
29.3619944985931
20
2.08982256724866
30
0
41
1
10
29.386950762335
20
2.02931739861683
30
0
41
1
10
29.4366184326192
20
1.90629614924714
30
0
41
1
10
29.4613717190059
20
1.84384174528407
30
0
41
1
10
29.5106423699058
20
1.71828483413913
30
0
41
1
10
29.5350670383778
20
1.65518382674341
30
0
41
1
10
29.5833610666443
20
1.52813153949486
30
0
41
1
10
29.6072422676249
20
1.46419839052072
30
0
41
1
10
29.6546772781339
20
1.33583080032571
30
0
41
1
10
29.6781794295832
20
1.27164878018829
30
0
41
1
10
29.723952524659
20
1.14388170793328
30
0
41
1
10
29.7464288635595
20
1.08017064032867
30
0
41
1
10
29.7686291029649
20
1.01657565626729
30
0
0
SPLINE
5
D0
100
AcDbEntity
8
1
62
256
6
ByLayer
370
18
48
1
60
0
100
AcDbSpline
70
4
71
3
72
26
73
22
40
0
40
0
40
0
40
0
40
0.127222181264694
40
0.127222181264694
40
0.254444362529388
40
0.254444362529388
40
0.381666543794082
40
0.381666543794082
40
0.445277634426429
40
0.445277634426429
40
0.508888725058776
40
0.508888725058776
40
0.636110906323471
40
0.636110906323471
40
0.763333087588165
40
0.763333087588165
40
0.890555268852859
40
0.890555268852859
40
0.954166359485207
40
0.954166359485207
40
1
40
1
40
1
40
1
41
1
10
4.0480569487973
20
1.00559237825547
30
0
41
1
10
4.04811174660611
20
1.12208321448787
30
0
41
1
10
4.04816155335237
20
1.23438985125239
30
0
41
1
10
4.04825362369107
20
1.45056163296206
30
0
41
1
10
4.04829508613346
20
1.5525160705636
30
0
41
1
10
4.04837158254378
20
1.74391477365296
30
0
41
1
10
4.04840666222589
20
1.83348920575514
30
0
41
1
10
4.04845644409528
20
1.95846159054028
30
0
41
1
10
4.04847262573867
20
1.99869981244311
30
0
41
1
10
4.04850389760446
20
2.0748779995877
30
0
41
1
10
4.04851901335084
20
2.11088661941363
30
0
41
1
10
4.04856326634095
20
2.21281289596962
30
0
41
1
10
4.04859132969273
20
2.27266350263903
30
0
41
1
10
4.04864648723066
20
2.37610643785629
30
0
41
1
10
4.04867379224942
20
2.41990223540026
30
0
41
1
10
4.04872713994672
20
2.48835205374846
30
0
41
1
10
4.04875329525339
20
2.51335224849947
30
0
41
1
10
4.04879212527379
20
2.53721572202693
30
0
41
1
10
4.04880499471392
20
2.54288811909294
30
0
41
1
10
4.04882699376805
20
2.54865242972554
30
0
41
1
10
4.04883619025517
20
2.54985565322042
30
0
41
1
10
4.04884528416585
20
2.54983093984495
30
0
0
SPLINE
5
D1
100
AcDbEntity
8
1
62
256
6
ByLayer
370
18
48
1
60
0
100
AcDbSpline
70
4
71
3
72
64
73
60
40
0
40
0
40
0
40
0
40
0.0624999999999946
40
0.0624999999999946
40
0.124999999999989
40
0.124999999999989
40
0.249999999999978
40
0.249999999999978
40
0.374999999999968
40
0.374999999999968
40
0.499999999999957
40
0.499999999999957
40
0.562499999999952
40
0.562499999999952
40
0.624999999999948
40
0.624999999999948
40
0.656249999999945
40
0.656249999999945
40
0.671874999999944
40
0.671874999999944
40
0.675781249999944
40
0.675781249999944
40
0.679687499999943
40
0.679687499999943
40
0.681640624999943
40
0.681640624999943
40
0.683593749999944
40
0.683593749999944
40
0.687499999999944
40
0.687499999999944
40
0.718749999999948
40
0.718749999999948
40
0.734374999999949
40
0.734374999999949
40
0.74218749999995
40
0.74218749999995
40
0.749999999999951
40
0.749999999999951
40
0.765624999999954
40
0.765624999999954
40
0.781249999999957
40
0.781249999999957
40
0.789062499999959
40
0.789062499999959
40
0.79687499999996
40
0.79687499999996
40
0.812499999999963
40
0.812499999999963
40
0.828124999999966
40
0.828124999999966
40
0.843749999999969
40
0.843749999999969
40
0.874999999999975
40
0.874999999999975
40
0.906249999999981
40
0.906249999999981
40
0.937499999999987
40
0.937499999999987
40
1
40
1
40
1
40
1
41
1
10
11.9039279958451
20
-2.49240800406449
30
0
41
1
10
11.6457390752984
20
-2.46043834016018
30
0
41
1
10
11.3845768448049
20
-2.4191115838903
30
0
41
1
10
10.8567445112481
20
-2.3228053375471
30
0
41
1
10
10.5895588256214
20
-2.26766652918991
30
0
41
1
10
9.78279358277049
20
-2.08833254927029
30
0
41
1
10
9.24196646670163
20
-1.95130429383408
30
0
41
1
10
8.14933686758218
20
-1.67237606317144
30
0
41
1
10
7.59748612995441
20
-1.53049601272656
30
0
41
1
10
6.4789393792864
20
-1.26845675185336
30
0
41
1
10
5.91224304079822
20
-1.1484013573735
30
0
41
1
10
5.04974510267346
20
-1.00016952808701
30
0
41
1
10
4.76009566379909
20
-0.956017035704633
30
0
41
1
10
4.17978335111403
20
-0.880405295588048
30
0
41
1
10
3.88872507075487
20
-0.848865751608827
30
0
41
1
10
3.45073030788615
20
-0.811794182158167
30
0
41
1
10
3.30454266083302
20
-0.801144855935235
30
0
41
1
10
3.08509290330298
20
-0.787817773845774
30
0
41
1
10
3.01191108014066
20
-0.783816107154706
30
0
41
1
10
2.92040549905042
20
-0.7793724459207
30
0
41
1
10
2.90210279989228
20
-0.778511623238529
30
0
41
1
10
2.86549422929457
20
-0.776845963931919
30
0
41
1
10
2.84718703850888
20
-0.775997740902795
30
0
41
1
10
2.8200739414655
20
-0.780382696040732
30
0
41
1
10
2.81112928220779
20
-0.782628385853968
30
0
41
1
10
2.79454312873045
20
-0.789329786147675
30
0
41
1
10
2.78696562320658
20
-0.794144330714886
30
0
41
1
10
2.76369569621607
20
-0.807472867615246
30
0
41
1
10
2.7482552245163
20
-0.816461569228295
30
0
41
1
10
2.61008043372971
20
-0.898278043424739
30
0
41
1
10
2.49218751622939
20
-0.977766268731671
30
0
41
1
10
2.33328797182099
20
-1.10866247486098
30
0
41
1
10
2.283175746604
20
-1.15435132716095
30
0
41
1
10
2.21384049441707
20
-1.22697362795978
30
0
41
1
10
2.19170861730612
20
-1.25186753256276
30
0
41
1
10
2.1498128239833
20
-1.30329177607374
30
0
41
1
10
2.1300253078906
20
-1.32989932591175
30
0
41
1
10
2.07645726210026
20
-1.41039339718387
30
0
41
1
10
2.04778785270312
20
-1.46577105723532
30
0
41
1
10
2.00889392089803
20
-1.57920137165777
30
0
41
1
10
1.99948465129614
20
-1.63487904316338
30
0
41
1
10
2.00029051593572
20
-1.7165837017549
30
0
41
1
10
2.00310694822224
20
-1.7436461977376
30
0
41
1
10
2.01331136922886
20
-1.79558869181275
30
0
41
1
10
2.02067466873922
20
-1.82065772601081
30
0
41
1
10
2.04876572229071
20
-1.89340579819705
30
0
41
1
10
2.07569099491781
20
-1.93869469091285
30
0
41
1
10
2.13939334056482
20
-2.02063569544433
30
0
41
1
10
2.17637112578913
20
-2.05787356220242
30
0
41
1
10
2.25787172078643
20
-2.1266305563615
30
0
41
1
10
2.30241664125606
20
-2.15806703589664
30
0
41
1
10
2.44168669626595
20
-2.24368109538463
30
0
41
1
10
2.54294713712361
20
-2.29025733766127
30
0
41
1
10
2.75561834674588
20
-2.36969202310078
30
0
41
1
10
2.86752314769092
20
-2.40244945991759
30
0
41
1
10
3.09468648132895
20
-2.4564686841307
30
0
41
1
10
3.21046034804533
20
-2.4779009131129
30
0
41
1
10
3.56255571610072
20
-2.52902597080652
30
0
41
1
10
3.80355331233375
20
-2.54571714911188
30
0
41
1
10
4.04885581452294
20
-2.5492469804372
30
0
0
SPLINE
5
D2
100
AcDbEntity
8
1
62
256
6
ByLayer
370
13
48
1
60
0
100
AcDbSpline
70
4
71
3
72
8
73
4
40
0
40
0
40
0
40
0
40
1
40
1
40
1
40
1
41
1
10
4.25058734084621
20
0.895162771016402
30
0
41
1
10
4.2090858517488
20
0.907028458137603
30
0
41
1
10
4.16852944403126
20
0.922111276349625
30
0
41
1
10
4.13155505614498
20
0.939954174313954
30
0
0
SPLINE
5
D3
100
AcDbEntity
8
1
62
256
6
ByLayer
370
13
48
1
60
0
100
AcDbSpline
70
4
71
3
72
10
73
6
40
0
40
0
40
0
40
0
40
0.5
40
0.5
40
1
40
1
40
1
40
1
41
1
10
4.04805694879599
20
1.00559237825235
30
0
41
1
10
4.05866859106095
20
0.992411413260783
30
0
41
1
10
4.07122705060786
20
0.979922624804829
30
0
41
1
10
4.09909517356434
20
0.957895511312216
30
0
41
1
10
4.11448957841793
20
0.948189539257243
30
0
41
1
10
4.13155505614498
20
0.939954174313954
30
0
0
SPLINE
5
D4
100
AcDbEntity
8
1
62
256
6
ByLayer
370
18
48
1
60
0
100
AcDbSpline
70
4
71
3
72
16
73
12
40
0
40
0
40
0
40
0
40
0.458414300999788
40
0.458414300999788
40
0.579303994570524
40
0.579303994570524
40
0.700193688141258
40
0.700193688141258
40
0.941973075282725
40
0.941973075282725
40
1
40
1
40
1
40
1
41
1
10
13.5158029002448
20
-2.45801098118142
30
0
41
1
10
13.0257177236561
20
-2.45741322270516
30
0
41
1
10
12.5366282063509
20
-2.41775391003915
30
0
41
1
10
11.9142206046148
20
-2.31937383651331
30
0
41
1
10
11.7840533857086
20
-2.29618350399713
30
0
41
1
10
11.5230107040745
20
-2.2445443123072
30
0
41
1
10
11.391926979193
20
-2.21604029391222
30
0
41
1
10
11.0002090081645
20
-2.1235268645832
30
0
41
1
10
10.7404381757996
20
-2.05245107066278
30
0
41
1
10
10.4191835647177
20
-1.95370484127073
30
0
41
1
10
10.3570455745483
20
-1.93409749161023
30
0
41
1
10
10.2949377110952
20
-1.91400997236141
30
0
0
SPLINE
5
D5
100
AcDbEntity
8
1
62
256
6
ByLayer
370
13
48
1
60
0
100
AcDbSpline
70
4
71
3
72
20
73
16
40
0
40
0
40
0
40
0
40
0.226804054413418
40
0.226804054413418
40
0.355670045344514
40
0.355670045344514
40
0.420103040810063
40
0.420103040810063
40
0.484536036275611
40
0.484536036275611
40
0.742268018137807
40
0.742268018137807
40
0.871134009068903
40
0.871134009068903
40
1
40
1
40
1
40
1
41
1
10
10.2949367595121
20
-1.91400966459128
30
0
41
1
10
9.83947827020205
20
-1.76670088690133
30
0
41
1
10
9.38563993184863
20
-1.59356956623839
30
0
41
1
10
8.67024296579424
20
-1.29087557486565
30
0
41
1
10
8.41024922416798
20
-1.17468804499274
30
0
41
1
10
8.01829716889
20
-0.992086588308723
30
0
41
1
10
7.88722994847163
20
-0.929866667731204
30
0
41
1
10
7.62625720919667
20
-0.804128722968329
30
0
41
1
10
7.4960936707779
20
-0.740482341361144
30
0
41
1
10
6.84648385134267
20
-0.419169087893863
30
0
41
1
10
6.33062385229894
20
-0.152322171026782
30
0
41
1
10
5.55455257843968
20
0.246694934263473
30
0
41
1
10
5.29543658902401
20
0.37939896585732
30
0
41
1
10
4.77474886940098
20
0.641022657520836
30
0
41
1
10
4.51255643240017
20
0.770207938561811
30
0
41
1
10
4.25058734084621
20
0.895162771016402
30
0
0
SPLINE
5
D6
100
AcDbEntity
8
1
62
256
6
ByLayer
370
18
48
1
60
0
100
AcDbSpline
70
4
71
3
72
64
73
60
40
0
40
0
40
0
40
0
40
0.0145929573115754
40
0.0145929573115754
40
0.052493228184207
40
0.052493228184207
40
0.0903934990568388
40
0.0903934990568388
40
0.12829376992947
40
0.12829376992947
40
0.147243905365786
40
0.147243905365786
40
0.166194040802102
40
0.166194040802102
40
0.204094311674734
40
0.204094311674734
40
0.241994582547366
40
0.241994582547366
40
0.279894853419997
40
0.279894853419997
40
0.317795124292629
40
0.317795124292629
40
0.355695395165261
40
0.355695395165261
40
0.393595666037892
40
0.393595666037892
40
0.431495936910524
40
0.431495936910524
40
0.469396207783156
40
0.469396207783156
40
0.507296478655788
40
0.507296478655788
40
0.545196749528419
40
0.545196749528419
40
0.564146884964735
40
0.564146884964735
40
0.583097020401051
40
0.583097020401051
40
0.620997291273683
40
0.620997291273683
40
0.658897562146315
40
0.658897562146315
40
0.696797833018946
40
0.696797833018946
40
0.734698103891578
40
0.734698103891578
40
0.77259837476421
40
0.77259837476421
40
0.810498645636841
40
0.810498645636841
40
0.848398916509473
40
0.848398916509473
40
0.886299187382105
40
0.886299187382105
40
0.924199458254736
40
0.924199458254736
40
0.962099729127368
40
0.962099729127368
40
1
40
1
40
1
40
1
41
1
10
23.437997779222
20
-1.48644025853909
30
0
41
1
10
23.3544371731203
20
-1.52103725700445
30
0
41
1
10
23.2708824281711
20
-1.55494303925278
30
0
41
1
10
22.9702023732705
20
-1.67410886903264
30
0
41
1
10
22.7531475642552
20
-1.75539749658566
30
0
41
1
10
22.3182653830237
20
-1.9062329122763
30
0
41
1
10
22.1003495067107
20
-1.97492220438431
30
0
41
1
10
21.6658523028824
20
-2.10176483096106
30
0
41
1
10
21.4489397975174
20
-2.15922623626372
30
0
41
1
10
21.1229947361575
20
-2.23444385557596
30
0
41
1
10
21.014282977236
20
-2.2577001692768
30
0
41
1
10
20.7966999033478
20
-2.29987517857279
30
0
41
1
10
20.6877855790655
20
-2.31894695681598
30
0
41
1
10
20.3612308532775
20
-2.37202402297032
30
0
41
1
10
20.1436517592686
20
-2.40048256688593
30
0
41
1
10
19.7090319419423
20
-2.44277028749443
30
0
41
1
10
19.4918786079016
20
-2.4567728747349
30
0
41
1
10
19.0563748186141
20
-2.46726227954704
30
0
41
1
10
18.8382213007795
20
-2.46461303583129
30
0
41
1
10
18.4031883077217
20
-2.44421179731967
30
0
41
1
10
18.1856985688002
20
-2.42581925109738
30
0
41
1
10
17.7508063930534
20
-2.37609952207421
30
0
41
1
10
17.5331831075933
20
-2.34412887105725
30
0
41
1
10
17.0969268782795
20
-2.2644924520647
30
0
41
1
10
16.8795546863275
20
-2.21654909530722
30
0
41
1
10
16.4447858034567
20
-2.10833530888971
30
0
41
1
10
16.2272439288483
20
-2.04842917457077
30
0
41
1
10
15.7920134529643
20
-1.91496271652497
30
0
41
1
10
15.5738013836737
20
-1.84096352662206
30
0
41
1
10
15.1381471508302
20
-1.68332336137473
30
0
41
1
10
14.9207867267908
20
-1.59929273894409
30
0
41
1
10
14.4857709369778
20
-1.4223232558505
30
0
41
1
10
14.2680365420719
20
-1.32988179878052
30
0
41
1
10
13.9409033600846
20
-1.18254739421195
30
0
41
1
10
13.831827353188
20
-1.13210653002361
30
0
41
1
10
13.6138166709079
20
-1.03068631129304
30
0
41
1
10
13.5048185366255
20
-0.979457236860128
30
0
41
1
10
13.1779575084408
20
-0.823722220278285
30
0
41
1
10
12.9604329129521
20
-0.716867058727246
30
0
41
1
10
12.5246981449359
20
-0.498936408971616
30
0
41
1
10
12.305998229954
20
-0.387712952867446
30
0
41
1
10
11.8696808387362
20
-0.163593221030141
30
0
41
1
10
11.651905638188
20
-0.050957172127795
30
0
41
1
10
11.215990264404
20
0.173319834414627
30
0
41
1
10
10.9982342544935
20
0.285707399671082
30
0
41
1
10
10.5615909821343
20
0.507951036539538
30
0
41
1
10
10.3429420716569
20
0.617613079592928
30
0
41
1
10
9.90727351622226
20
0.83197809313819
30
0
41
1
10
9.6895111955875
20
0.936648748153146
30
0
41
1
10
9.25345686319838
20
1.14016140650585
30
0
41
1
10
9.03522636076187
20
1.23947284435383
30
0
41
1
10
8.5984287857768
20
1.42770965537926
30
0
41
1
10
8.38027480029947
20
1.51668247948274
30
0
41
1
10
7.9441143390244
20
1.68670201164733
30
0
41
1
10
7.72571542182314
20
1.76692201652693
30
0
41
1
10
7.28861271627471
20
1.91550336894184
30
0
41
1
10
7.0707570281219
20
1.98391490281799
30
0
41
1
10
6.63458458384758
20
2.10721085429458
30
0
41
1
10
6.4163066313275
20
2.16211391788127
30
0
41
1
10
6.19782929725221
20
2.20999153670908
30
0
0
SPLINE
5
D7
100
AcDbEntity
8
1
62
256
6
ByLayer
370
18
48
1
60
0
100
AcDbSpline
70
4
71
3
72
12
73
8
40
0
40
0
40
0
40
0
40
0.85642219814008
40
0.85642219814008
40
0.992386062099903
40
0.992386062099903
40
1
40
1
40
1
40
1
41
1
10
28.4990092295687
20
-2.47604150555938
30
0
41
1
10
27.6852317762557
20
-2.47670869292128
30
0
41
1
10
26.8792069641961
20
-2.36866191819243
30
0
41
1
10
25.9290168436431
20
-2.12747859676523
30
0
41
1
10
25.7981972654678
20
-2.09183367562238
30
0
41
1
10
25.6604463907999
20
-2.05188224057085
30
0
41
1
10
25.6531426402028
20
-2.04975682116631
30
0
41
1
10
25.6458400612153
20
-2.04762462923347
30
0
0
SPLINE
5
D8
100
AcDbEntity
8
1
62
256
6
ByLayer
370
13
48
1
60
0
100
AcDbSpline
70
4
71
3
72
28
73
24
40
0
40
0
40
0
40
0
40
0.0417610127974068
40
0.0417610127974068
40
0.130237708302895
40
0.130237708302895
40
0.307191099313871
40
0.307191099313871
40
0.395667794819359
40
0.395667794819359
40
0.484144490324848
40
0.484144490324848
40
0.661097881335822
40
0.661097881335822
40
0.749574576841309
40
0.749574576841309
40
0.793812924594053
40
0.793812924594053
40
0.838051272346797
40
0.838051272346797
40
0.926527967852284
40
0.926527967852284
40
1
40
1
40
1
40
1
41
1
10
25.6458400611986
20
-2.04762462922861
30
0
41
1
10
25.522738784914
20
-2.01168177278461
30
0
41
1
10
25.3999704405844
20
-1.9738143919638
30
0
41
1
10
25.0179370002567
20
-1.85002102366138
30
0
41
1
10
24.7596218413361
20
-1.75769977214216
30
0
41
1
10
23.9861704470888
20
-1.45944703872399
30
0
41
1
10
23.4723946527169
20
-1.23237587537551
30
0
41
1
10
22.6961800585708
20
-0.863154314439612
30
0
41
1
10
22.4364957782986
20
-0.735315280610905
30
0
41
1
10
21.9138389563983
20
-0.472441520824987
30
0
41
1
10
21.6534617805561
20
-0.338811867362949
30
0
41
1
10
20.876369935378
20
0.0624151938362161
30
0
41
1
10
20.3623801461741
20
0.331370758631863
30
0
41
1
10
19.5887490101124
20
0.719956915400388
30
0
41
1
10
19.3304344317486
20
0.847007964286604
30
0
41
1
10
18.9413029399374
20
1.03192091911927
30
0
41
1
10
18.8113069296394
20
1.09259439829941
30
0
41
1
10
18.5505764080041
20
1.21169482363933
30
0
41
1
10
18.4196600433267
20
1.2702110612488
30
0
41
1
10
18.0276587755386
20
1.44089573712134
30
0
41
1
10
17.7669011224856
20
1.54839263932814
30
0
41
1
10
17.2892788079699
20
1.73145126529886
30
0
41
1
10
17.0721799062582
20
1.80938431649588
30
0
41
1
10
16.8550860728373
20
1.88152453007771
30
0
0
SPLINE
5
D9
100
AcDbEntity
8
1
62
256
6
ByLayer
370
18
48
1
60
0
100
AcDbSpline
70
4
71
3
72
8
73
4
40
0
40
0
40
0
40
0
40
1
40
1
40
1
40
1
41
1
10
16.8550860728221
20
1.8815245300828
30
0
41
1
10
16.839124960835
20
1.88682840265073
30
0
41
1
10
16.8231638762443
20
1.89210096236351
30
0
41
1
10
16.8072029855019
20
1.89734194023669
30
0
0
SPLINE
5
DA
100
AcDbEntity
8
1
62
256
6
ByLayer
370
18
48
1
60
0
100
AcDbSpline
70
4
71
3
72
28
73
24
40
0
40
0
40
0
40
0
40
0.0508599369328472
40
0.0508599369328472
40
0.151505715337028
40
0.151505715337028
40
0.20182860453912
40
0.20182860453912
40
0.252151493741211
40
0.252151493741211
40
0.352797272145394
40
0.352797272145394
40
0.554088828953758
40
0.554088828953758
40
0.604411718155849
40
0.604411718155849
40
0.654734607357939
40
0.654734607357939
40
0.755380385762118
40
0.755380385762118
40
0.956671942570479
40
0.956671942570479
40
1
40
1
40
1
40
1
41
1
10
17.0831585511538
20
1.79664044368522
30
0
41
1
10
17.2154714092678
20
1.74610131335942
30
0
41
1
10
17.3477176366014
20
1.69351372745288
30
0
41
1
10
17.7412531445565
20
1.53129280851485
30
0
41
1
10
18.0025151606959
20
1.41609874446615
30
0
41
1
10
18.3953226469756
20
1.23388093512599
30
0
41
1
10
18.526468109631
20
1.17155463796877
30
0
41
1
10
18.7875665808033
20
1.04501338183366
30
0
41
1
10
18.9177280460411
20
0.980685022895926
30
0
41
1
10
19.307311455299
20
0.785018104839395
30
0
41
1
10
19.5658966920699
20
0.651123938401639
30
0
41
1
10
20.34033086705
20
0.243042753027055
30
0
41
1
10
20.8547718378182
20
-0.0377058890834689
30
0
41
1
10
21.5034592708883
20
-0.384506331092126
30
0
41
1
10
21.6334655704505
20
-0.45368164892767
30
0
41
1
10
21.8942032411849
20
-0.59130590581438
30
0
41
1
10
22.0251830358777
20
-0.659885730264989
30
0
41
1
10
22.4177329893225
20
-0.862997204083996
30
0
41
1
10
22.6777238152648
20
-0.994115538279999
30
0
41
1
10
23.4547701864121
20
-1.37137624852815
30
0
41
1
10
23.9689423074996
20
-1.60133714719217
30
0
41
1
10
24.5963978002254
20
-1.84341815168298
30
0
41
1
10
24.7076384651849
20
-1.88486987327499
30
0
41
1
10
24.819042604899
20
-1.92480330601936
30
0
0
SPLINE
5
DB
100
AcDbEntity
8
1
62
256
6
ByLayer
370
13
48
1
60
0
100
AcDbSpline
70
4
71
3
72
16
73
12
40
0
40
0
40
0
40
0
40
0.102253459768127
40
0.102253459768127
40
0.192028113791317
40
0.192028113791317
40
0.281802767814508
40
0.281802767814508
40
0.640901383907254
40
0.640901383907254
40
1
40
1
40
1
40
1
41
1
10
24.8190416635012
20
-1.92480296857008
30
0
41
1
10
24.966416028241
20
-1.97763014004565
30
0
41
1
10
25.1140764756065
20
-2.02780028696014
30
0
41
1
10
25.3921769131016
20
-2.11662987696209
30
0
41
1
10
25.5225181614523
20
-2.15595034394286
30
0
41
1
10
25.7840425983105
20
-2.22992142349199
30
0
41
1
10
25.9150423923223
20
-2.26450162647217
30
0
41
1
10
26.5667573093097
20
-2.42363893430522
30
0
41
1
10
27.0820172407346
20
-2.50810472115205
30
0
41
1
10
28.1127241401442
20
-2.58769650249403
30
0
41
1
10
28.6282561782747
20
-2.58240079788345
30
0
41
1
10
29.1493344706241
20
-2.53152050006696
30
0
0
SPLINE
5
DC
100
AcDbEntity
8
1
62
256
6
ByLayer
370
13
48
1
60
0
100
AcDbSpline
70
4
71
3
72
24
73
20
40
0
40
0
40
0
40
0
40
0.125
40
0.125
40
0.25
40
0.25
40
0.375
40
0.375
40
0.5
40
0.5
40
0.625
40
0.625
40
0.75
40
0.75
40
0.875
40
0.875
40
0.9375
40
0.9375
40
1
40
1
40
1
40
1
41
1
10
4.25058734084621
20
0.895162771016402
30
0
41
1
10
4.25064485925662
20
1.00881499547799
30
0
41
1
10
4.25069589019751
20
1.11810982892914
30
0
41
1
10
4.25078848131028
20
1.32816966018447
30
0
41
1
10
4.2508302851287
20
1.42959661230415
30
0
41
1
10
4.25090588015439
20
1.61922124373075
30
0
41
1
10
4.25093981271644
20
1.70765712631353
30
0
41
1
10
4.25100338416439
20
1.87200674516126
30
0
41
1
10
4.25103309584898
20
1.94812114143374
30
0
41
1
10
4.25109070472652
20
2.08636072263082
30
0
41
1
10
4.25111825865989
20
2.14765056517291
30
0
41
1
10
4.25117325342498
20
2.2545402653258
30
0
41
1
10
4.25120023649367
20
2.29921952384535
30
0
41
1
10
4.25125453326928
20
2.37150361544261
30
0
41
1
10
4.25128186806182
20
2.39915717583517
30
0
41
1
10
4.25132355237031
20
2.42762100238994
30
0
41
1
10
4.25133761416163
20
2.43494310116384
30
0
41
1
10
4.25136551029667
20
2.44495790630703
30
0
41
1
10
4.25137936557746
20
2.4476870350239
30
0
41
1
10
4.25139308486257
20
2.44819762001217
30
0
0
SPLINE
5
DD
100
AcDbEntity
8
1
62
256
6
ByLayer
370
18
48
1
60
0
100
AcDbSpline
70
4
71
3
72
8
73
4
40
0
40
0
40
0
40
0
40
1
40
1
40
1
40
1
41
1
10
29.1476026428058
20
2.53624831430341
30
0
41
1
10
28.8534287217857
20
2.56518539623946
30
0
41
1
10
28.559953337145
20
2.57940853034549
30
0
41
1
10
28.2661571217173
20
2.5789108838747
30
0
0
SPLINE
5
DE
100
AcDbEntity
8
1
62
256
6
ByLayer
370
18
48
1
60
0
100
AcDbSpline
70
4
71
3
72
26
73
22
40
0
40
0
40
0
40
0
40
0.030176449101832
40
0.030176449101832
40
0.0674773549056083
40
0.0674773549056083
40
0.104778260709384
40
0.104778260709384
40
0.253981883924487
40
0.253981883924487
40
0.403185507139589
40
0.403185507139589
40
0.552389130354692
40
0.552389130354692
40
0.701592753569794
40
0.701592753569794
40
0.776194565177346
40
0.776194565177346
40
0.850796376784898
40
0.850796376784898
40
1
40
1
40
1
40
1
41
1
10
14.6409775145833
20
-2.46241470047025
30
0
41
1
10
14.5358310104492
20
-2.47794328940103
30
0
41
1
10
14.4305276472454
20
-2.49168888796058
30
0
41
1
10
14.194592064138
20
-2.51835177397791
30
0
41
1
10
14.0638499377012
20
-2.53031232946577
30
0
41
1
10
13.8016806447413
20
-2.54855407505349
30
0
41
1
10
13.6703787614599
20
-2.55479346445583
30
0
41
1
10
13.0168881580561
20
-2.57135451250645
30
0
41
1
10
12.4993618278524
20
-2.53821313762506
30
0
41
1
10
11.463675320107
20
-2.38432014134699
30
0
41
1
10
10.9450966681692
20
-2.26372148783665
30
0
41
1
10
9.89456403519085
20
-1.94164573049912
30
0
41
1
10
9.37565456541742
20
-1.74418520651022
30
0
41
1
10
8.33927222103245
20
-1.29678225439554
30
0
41
1
10
7.82196134057617
20
-1.04606473524953
30
0
41
1
10
7.03737666410944
20
-0.645448569856626
30
0
41
1
10
6.77401275901559
20
-0.507425319983213
30
0
41
1
10
6.25130729012969
20
-0.230181992966976
30
0
41
1
10
5.99095549678205
20
-0.0904946845824099
30
0
41
1
10
5.21083441365974
20
0.327840965552895
30
0
41
1
10
4.69140593219655
20
0.604635331133892
30
0
41
1
10
4.16679648238301
20
0.868321022183721
30
0
0
SPLINE
5
DF
100
AcDbEntity
8
1
62
256
6
ByLayer
370
18
48
1
60
0
100
AcDbSpline
70
4
71
3
72
12
73
8
40
0
40
0
40
0
40
0
40
0.494559975316511
40
0.494559975316511
40
0.989119950633021
40
0.989119950633021
40
1
40
1
40
1
40
1
41
1
10
11.9041508617432
20
-2.49241155610659
30
0
41
1
10
12.0843824480331
20
-2.51477873950074
30
0
41
1
10
12.2647595911181
20
-2.53146956340243
30
0
41
1
10
12.6251466146913
20
-2.55413577641036
30
0
41
1
10
12.804919763463
20
-2.56010290830136
30
0
41
1
10
12.9887204998542
20
-2.56055958330879
30
0
41
1
10
12.9926772594743
20
-2.56056677331506
30
0
41
1
10
12.9966342984166
20
-2.56057132283129
30
0
0
SPLINE
5
E0
100
AcDbEntity
8
1
62
256
6
ByLayer
370
18
48
1
60
0
100
AcDbSpline
70
4
71
3
72
28
73
24
40
0
40
0
40
0
40
0
40
0.061612880047613
40
0.061612880047613
40
0.155451592042853
40
0.155451592042853
40
0.249290304038093
40
0.249290304038093
40
0.343129016033334
40
0.343129016033334
40
0.436967728028574
40
0.436967728028574
40
0.530806440023814
40
0.530806440023814
40
0.624645152019051
40
0.624645152019051
40
0.718483864014289
40
0.718483864014289
40
0.812322576009526
40
0.812322576009526
40
0.906161288004763
40
0.906161288004763
40
1
40
1
40
1
40
1
41
1
10
23.4339615640882
20
1.48896801578803
30
0
41
1
10
23.5522125145288
20
1.54116992989375
30
0
41
1
10
23.6704786388687
20
1.59217499561262
30
0
41
1
10
23.9687942430507
20
1.71660277876106
30
0
41
1
10
24.1489292222104
20
1.78754175295859
30
0
41
1
10
24.5085517492904
20
1.92222810459302
30
0
41
1
10
24.6878219719148
20
1.98617397533741
30
0
41
1
10
25.0476792436543
20
2.104340537268
30
0
41
1
10
25.2282545677305
20
2.15896422734085
30
0
41
1
10
25.5884657872095
20
2.25952040076007
30
0
41
1
10
25.7680476710757
20
2.3050868718193
30
0
41
1
10
26.1277892107996
20
2.38558911125784
30
0
41
1
10
26.3076577994484
20
2.42081697221317
30
0
41
1
10
26.666905283192
20
2.48135423822174
30
0
41
1
10
26.8469090299647
20
2.50634098303203
30
0
41
1
10
27.2077270694517
20
2.54540212555628
30
0
41
1
10
27.3876029695006
20
2.5595938771776
30
0
41
1
10
27.7469795538522
20
2.57698073144886
30
0
41
1
10
27.9268931167878
20
2.58013690633939
30
0
41
1
10
28.2870859333755
20
2.57553475736756
30
0
41
1
10
28.4672186376747
20
2.56767691429016
30
0
41
1
10
28.8270708257342
20
2.54099969857884
30
0
41
1
10
29.0071780520984
20
2.52236037345338
30
0
41
1
10
29.1870075495414
20
2.49832231790134
30
0
0
SPLINE
5
E1
100
AcDbEntity
8
1
62
256
6
ByLayer
370
18
48
1
60
0
100
AcDbSpline
70
4
71
3
72
44
73
40
40
0
40
0
40
0
40
0
40
0.0984955034445954
40
0.0984955034445954
40
0.123119379305743
40
0.123119379305743
40
0.14774325516689
40
0.14774325516689
40
0.196991006889185
40
0.196991006889185
40
0.295486510333774
40
0.295486510333774
40
0.344734262056069
40
0.344734262056069
40
0.393982013778363
40
0.393982013778363
40
0.492477517222952
40
0.492477517222952
40
0.541725268945245
40
0.541725268945245
40
0.590973020667539
40
0.590973020667539
40
0.689468524112127
40
0.689468524112127
40
0.73871627583442
40
0.73871627583442
40
0.763340151695567
40
0.763340151695567
40
0.787964027556714
40
0.787964027556714
40
0.886459531001302
40
0.886459531001302
40
0.935707282723596
40
0.935707282723596
40
0.960331158584743
40
0.960331158584743
40
0.984955034445889
40
0.984955034445889
40
1
40
1
40
1
40
1
41
1
10
29.1476026428057
20
-2.53624831430343
30
0
41
1
10
28.6245347188332
20
-2.58770107164375
30
0
41
1
10
28.1040597882721
20
-2.59259606614535
30
0
41
1
10
27.4495592236845
20
-2.54072781691107
30
0
41
1
10
27.3183125961
20
-2.52742179886766
30
0
41
1
10
27.0569333799275
20
-2.49524678237893
30
0
41
1
10
26.926615164174
20
-2.4763699841028
30
0
41
1
10
26.5364497817996
20
-2.41166098082496
30
0
41
1
10
26.2773920879856
20
-2.35775485045181
30
0
41
1
10
25.5012064002331
20
-2.16581660958661
30
0
41
1
10
24.9849493543526
20
-1.99762445532224
30
0
41
1
10
24.2032024803306
20
-1.69416821745759
30
0
41
1
10
23.9402948359776
20
-1.58402257469476
30
0
41
1
10
23.4181649855333
20
-1.35209088380336
30
0
41
1
10
23.1585015797287
20
-1.23010369602048
30
0
41
1
10
22.3811489366757
20
-0.850630380598204
30
0
41
1
10
21.8653428517658
20
-0.579196291347927
30
0
41
1
10
21.0858297949657
20
-0.161422319917364
30
0
41
1
10
20.8248200949159
20
-0.0202914291923264
30
0
41
1
10
20.3003348743669
20
0.262582718838132
30
0
41
1
10
20.0397274287742
20
0.402422953207406
30
0
41
1
10
19.2604169090822
20
0.812953562480772
30
0
41
1
10
18.7444110465358
20
1.07499404718516
30
0
41
1
10
17.9666129114198
20
1.43467665872166
30
0
41
1
10
17.7066499813045
20
1.54890384785926
30
0
41
1
10
17.3145246235827
20
1.70981193916489
30
0
41
1
10
17.1831713402182
20
1.76181155353834
30
0
41
1
10
16.9211179601668
20
1.86146335668644
30
0
41
1
10
16.7905051145452
20
1.90910145856526
30
0
41
1
10
16.1389637340049
20
2.13580836106649
30
0
41
1
10
15.6223447453474
20
2.28011083374477
30
0
41
1
10
14.8454457337954
20
2.43351710919092
30
0
41
1
10
14.5860835053298
20
2.47409453910402
30
0
41
1
10
14.1952679081662
20
2.51828292930605
30
0
41
1
10
14.0647008738066
20
2.53023769814831
30
0
41
1
10
13.8029319511191
20
2.54848230892122
30
0
41
1
10
13.6714833854539
20
2.55475159186122
30
0
41
1
10
13.4606569437157
20
2.56011672773749
30
0
41
1
10
13.3808299775138
20
2.56106616063082
30
0
41
1
10
13.3011149648143
20
2.56094014463207
30
0
0
SPLINE
5
E2
100
AcDbEntity
8
1
62
256
6
ByLayer
370
18
48
1
60
0
100
AcDbSpline
70
4
71
3
72
8
73
4
40
0
40
0
40
0
40
0
40
1
40
1
40
1
40
1
41
1
10
29.0843791477703
20
-2.47455622518251
30
0
41
1
10
29.0896740709815
20
-2.47616850042778
30
0
41
1
10
29.0952935951973
20
-2.47684407328006
30
0
41
1
10
29.1012348301306
20
-2.47659128425201
30
0
0
SPLINE
5
E3
100
AcDbEntity
8
1
62
256
6
ByLayer
370
18
48
1
60
0
100
AcDbSpline
70
4
71
3
72
8
73
4
40
0
40
0
40
0
40
0
40
1
40
1
40
1
40
1
41
1
10
4.22082299444537
20
2.44998453683797
30
0
41
1
10
4.23109116951099
20
2.4487729792655
30
0
41
1
10
4.24130556935347
20
2.44819336046683
30
0
41
1
10
4.25139308486268
20
2.44819762001615
30
0
0
SPLINE
5
E4
100
AcDbEntity
8
1
62
256
6
ByLayer
370
18
48
1
60
0
100
AcDbSpline
70
4
71
3
72
10
73
6
40
0
40
0
40
0
40
0
40
0.5
40
0.5
40
1
40
1
40
1
40
1
41
1
10
4.25139308563323
20
2.44819762001652
30
0
41
1
10
4.56849436010759
20
2.44833151900625
30
0
41
1
10
4.88963594469632
20
2.42471440063417
30
0
41
1
10
5.53906793091443
20
2.34179031755846
30
0
41
1
10
5.86776783364246
20
2.28193860832909
30
0
41
1
10
6.1973070480322
20
2.21012037377221
30
0
0
SPLINE
5
E5
100
AcDbEntity
8
1
62
256
6
ByLayer
370
18
48
1
60
0
100
AcDbSpline
70
4
71
3
72
12
73
8
40
0
40
0
40
0
40
0
40
0.500000000000011
40
0.500000000000011
40
0.750000000000006
40
0.750000000000006
40
1
40
1
40
1
40
1
41
1
10
29.0163634029565
20
0.653175508730925
30
0
41
1
10
29.0082552266728
20
0.674567907854424
30
0
41
1
10
29.0023463670354
20
0.696805062427103
30
0
41
1
10
29.0049515884244
20
0.731057232849935
30
0
41
1
10
29.0081092455654
20
0.742555653838508
30
0
41
1
10
29.0222608218102
20
0.760285287257943
30
0
41
1
10
29.0331413629036
20
0.76547932255653
30
0
41
1
10
29.0444858320029
20
0.766960798079054
30
0
0
SPLINE
5
E6
100
AcDbEntity
8
1
62
256
6
ByLayer
370
18
48
1
60
0
100
AcDbSpline
70
4
71
3
72
10
73
6
40
0
40
0
40
0
40
0
40
0.5
40
0.5
40
1
40
1
40
1
40
1
41
1
10
4.12660476074365
20
0.889703787988879
30
0
41
1
10
4.10468057072751
20
0.902483720490352
30
0
41
1
10
4.08560140196866
20
0.918988679544725
30
0
41
1
10
4.05723120060907
20
0.958658919867105
30
0
41
1
10
4.04804571593914
20
0.981713231288381
30
0
41
1
10
4.04805694879616
20
1.00559237825507
30
0
0
SPLINE
5
E7
100
AcDbEntity
8
1
62
256
6
ByLayer
370
18
48
1
60
0
100
AcDbSpline
70
4
71
3
72
14
73
10
40
0
40
0
40
0
40
0
40
0.206846902784822
40
0.206846902784822
40
0.413693805569644
40
0.413693805569644
40
0.827387611139288
40
0.827387611139288
40
1
40
1
40
1
40
1
41
1
10
11.9039279958451
20
2.49240800406449
30
0
41
1
10
11.6457390752984
20
2.46043834016018
30
0
41
1
10
11.3845768448048
20
2.41911158389027
30
0
41
1
10
10.8567445112479
20
2.32280533754707
30
0
41
1
10
10.5895588256211
20
2.26766652918983
30
0
41
1
10
9.78279358276995
20
2.08833254927018
30
0
41
1
10
9.24196646670094
20
1.95130429383391
30
0
41
1
10
8.4677036018029
20
1.75364923200155
30
0
41
1
10
8.23879175823328
20
1.69503768367258
30
0
41
1
10
8.00877908562401
20
1.63696993461201
30
0
0
SPLINE
5
E8
100
AcDbEntity
8
1
62
256
6
ByLayer
370
18
48
1
60
0
100
AcDbSpline
70
4
71
3
72
40
73
36
40
0
40
0
40
0
40
0
40
0.125000000000004
40
0.125000000000004
40
0.250000000000008
40
0.250000000000008
40
0.375000000000012
40
0.375000000000012
40
0.500000000000016
40
0.500000000000016
40
0.562500000000014
40
0.562500000000014
40
0.625000000000012
40
0.625000000000012
40
0.656250000000011
40
0.656250000000011
40
0.68750000000001
40
0.68750000000001
40
0.718750000000009
40
0.718750000000009
40
0.750000000000008
40
0.750000000000008
40
0.812500000000006
40
0.812500000000006
40
0.843750000000005
40
0.843750000000005
40
0.875000000000004
40
0.875000000000004
40
0.906250000000003
40
0.906250000000003
40
0.937500000000002
40
0.937500000000002
40
0.968750000000001
40
0.968750000000001
40
1
40
1
40
1
40
1
41
1
10
27.0970584951975
20
-0.301346553376049
30
0
41
1
10
27.2262387365689
20
-0.350728011049455
30
0
41
1
10
27.3555999604466
20
-0.398609441343211
30
0
41
1
10
27.615557260123
20
-0.484137546503064
30
0
41
1
10
27.7463023499542
20
-0.522413593915957
30
0
41
1
10
28.0079808083358
20
-0.585599173843946
30
0
41
1
10
28.1389120560583
20
-0.610692026932156
30
0
41
1
10
28.4009934092163
20
-0.645418224086086
30
0
41
1
10
28.5321662378392
20
-0.655044162706247
30
0
41
1
10
28.7274080688467
20
-0.656210144699827
30
0
41
1
10
28.7921530238687
20
-0.651707941854909
30
0
41
1
10
28.917720630289
20
-0.629856768423139
30
0
41
1
10
28.9788784908768
20
-0.61334437892009
30
0
41
1
10
29.0656462737477
20
-0.571502087744562
30
0
41
1
10
29.094025256366
20
-0.554949106295766
30
0
41
1
10
29.1473548320854
20
-0.516566720817934
30
0
41
1
10
29.1724909731649
20
-0.494772032523997
30
0
41
1
10
29.2184818569435
20
-0.443890846081331
30
0
41
1
10
29.2386129652642
20
-0.415226319506303
30
0
41
1
10
29.2715572801116
20
-0.351508128603172
30
0
41
1
10
29.2846653063255
20
-0.315652060025712
30
0
41
1
10
29.3101519511052
20
-0.20248319631213
30
0
41
1
10
29.3093316866967
20
-0.118789774009912
30
0
41
1
10
29.2888289169476
20
0.0032434731939475
30
0
41
1
10
29.2788133141894
20
0.0440998651648385
30
0
41
1
10
29.2533332704957
20
0.123509750948159
30
0
41
1
10
29.238184227822
20
0.162342109703729
30
0
41
1
10
29.2050590041102
20
0.238586039215392
30
0
41
1
10
29.1867344426928
20
0.275707292241748
30
0
41
1
10
29.1490998256683
20
0.349226313398873
30
0
41
1
10
29.1313896258603
20
0.386704308101002
30
0
41
1
10
29.0965931555605
20
0.462000025348601
30
0
41
1
10
29.0792927872457
20
0.499747790222926
30
0
41
1
10
29.0466018717969
20
0.575988698476692
30
0
41
1
10
29.0310538162776
20
0.614416708469776
30
0
41
1
10
29.0163634029561
20
0.653175508730811
30
0
0
SPLINE
5
E9
100
AcDbEntity
8
1
62
256
6
ByLayer
370
18
48
1
60
0
100
AcDbSpline
70
4
71
3
72
22
73
18
40
0
40
0
40
0
40
0
40
0.125
40
0.125
40
0.25
40
0.25
40
0.375
40
0.375
40
0.5
40
0.5
40
0.625
40
0.625
40
0.75
40
0.75
40
0.875
40
0.875
40
1
40
1
40
1
40
1
41
1
10
29.1870075495586
20
-2.49832231788841
30
0
41
1
10
29.2118942708784
20
-2.44234588694826
30
0
41
1
10
29.2368253529696
20
-2.38560091686941
30
0
41
1
10
29.2868424315255
20
-2.26942712438836
30
0
41
1
10
29.3119673801399
20
-2.20989181571477
30
0
41
1
10
29.361994498593
20
-2.08982256724872
30
0
41
1
10
29.386950762335
20
-2.02931739861691
30
0
41
1
10
29.4366184326192
20
-1.9062961492472
30
0
41
1
10
29.4613717190058
20
-1.84384174528412
30
0
41
1
10
29.5106423699058
20
-1.71828483413918
30
0
41
1
10
29.5350670383777
20
-1.65518382674347
30
0
41
1
10
29.5833610666443
20
-1.52813153949492
30
0
41
1
10
29.6072422676248
20
-1.46419839052078
30
0
41
1
10
29.6546772781339
20
-1.33583080032571
30
0
41
1
10
29.6781794295832
20
-1.27164878018831
30
0
41
1
10
29.723952524659
20
-1.14388170793328
30
0
41
1
10
29.7464288635596
20
-1.08017064032867
30
0
41
1
10
29.768629102965
20
-1.01657565626729
30
0
0
SPLINE
5
EA
100
AcDbEntity
8
1
62
256
6
ByLayer
370
18
48
1
60
0
100
AcDbSpline
70
4
71
3
72
12
73
8
40
0
40
0
40
0
40
0
40
0.250000000000002
40
0.250000000000002
40
0.500000000000004
40
0.500000000000004
40
1
40
1
40
1
40
1
41
1
10
6.19730704796291
20
-2.21012037378731
30
0
41
1
10
6.03254269384882
20
-2.246028346233
30
0
41
1
10
5.86829991838806
20
-2.27882987672439
30
0
41
1
10
5.54057900869853
20
-2.33714722253433
30
0
41
1
10
5.37696814301032
20
-2.36248555717538
30
0
41
1
10
4.88958422552182
20
-2.42472662296768
30
0
41
1
10
4.56838121250615
20
-2.44833147123333
30
0
41
1
10
4.25139308554006
20
-2.44819762001649
30
0
0
SPLINE
5
EB
100
AcDbEntity
8
1
62
256
6
ByLayer
370
18
48
1
60
0
100
AcDbSpline
70
4
71
3
72
64
73
60
40
0
40
0
40
0
40
0
40
0.0345095322259632
40
0.0345095322259632
40
0.0690190644519264
40
0.0690190644519264
40
0.10352859667789
40
0.10352859667789
40
0.138038128903853
40
0.138038128903853
40
0.172547661129816
40
0.172547661129816
40
0.207057193355779
40
0.207057193355779
40
0.241566725581742
40
0.241566725581742
40
0.276076257807706
40
0.276076257807706
40
0.310585790033669
40
0.310585790033669
40
0.345095322259632
40
0.345095322259632
40
0.379604854485595
40
0.379604854485595
40
0.414114386711558
40
0.414114386711558
40
0.448623918937522
40
0.448623918937522
40
0.483133451163485
40
0.483133451163485
40
0.517642983389448
40
0.517642983389448
40
0.552152515615411
40
0.552152515615411
40
0.586662047841374
40
0.586662047841374
40
0.621171580067338
40
0.621171580067338
40
0.655681112293301
40
0.655681112293301
40
0.690190644519264
40
0.690190644519264
40
0.724700176745227
40
0.724700176745227
40
0.759209708971191
40
0.759209708971191
40
0.793719241197154
40
0.793719241197154
40
0.828228773423117
40
0.828228773423117
40
0.86273830564908
40
0.86273830564908
40
0.897247837875043
40
0.897247837875043
40
0.931757370101006
40
0.931757370101006
40
0.966266902326969
40
0.966266902326969
40
1
40
1
40
1
40
1
41
1
10
11.9041508617432
20
2.49241155610659
30
0
41
1
10
12.0843824480333
20
2.51477873950077
30
0
41
1
10
12.2647595911184
20
2.53146956340245
30
0
41
1
10
12.6251466146919
20
2.55413577641039
30
0
41
1
10
12.8049197634636
20
2.56010290830136
30
0
41
1
10
13.1646082852018
20
2.56099659763885
30
0
41
1
10
13.3450395542035
20
2.55598793925239
30
0
41
1
10
13.7061790366321
20
2.53502999790939
30
0
41
1
10
13.8862122321874
20
2.5189649610999
30
0
41
1
10
14.2462264920123
20
2.47633441999997
30
0
41
1
10
14.4264195778576
20
2.44988486656115
30
0
41
1
10
14.7863537684265
20
2.38632594050847
30
0
41
1
10
14.9659936117363
20
2.349046875364
30
0
41
1
10
15.3269520480503
20
2.26514526906991
30
0
41
1
10
15.5076761157572
20
2.21837482916206
30
0
41
1
10
15.8675190936452
20
2.11502233715183
30
0
41
1
10
16.0471931265288
20
2.05866898174324
30
0
41
1
10
16.4073091708039
20
1.93813789686513
30
0
41
1
10
16.5874250481029
20
1.87361920810923
30
0
41
1
10
16.9475677870018
20
1.73557267589044
30
0
41
1
10
17.128178972877
20
1.6628886097227
30
0
41
1
10
17.4886081225633
20
1.51142028763815
30
0
41
1
10
17.6683083311396
20
1.43195004599221
30
0
41
1
10
18.027768594764
20
1.26712151351842
30
0
41
1
10
18.2078855775555
20
1.18235976912956
30
0
41
1
10
18.5684863239315
20
1.00752020432191
30
0
41
1
10
18.7487280297206
20
0.916747672029317
30
0
41
1
10
19.10880994749
20
0.733181621239311
30
0
41
1
10
19.2889738371787
20
0.640415828961437
30
0
41
1
10
19.6486278145633
20
0.451274650481309
30
0
41
1
10
19.8281198047986
20
0.354880050496263
30
0
41
1
10
20.188450821937
20
0.162166181221295
30
0
41
1
10
20.3693191807386
20
0.0654178586413252
30
0
41
1
10
20.7293531856546
20
-0.128910114520693
30
0
41
1
10
20.9088933300486
20
-0.226243333366682
30
0
41
1
10
21.2687847041794
20
-0.417984732628611
30
0
41
1
10
21.4486768039237
20
-0.513249999175258
30
0
41
1
10
21.8083905518147
20
-0.702470829658495
30
0
41
1
10
21.9888933821771
20
-0.795783285708268
30
0
41
1
10
22.3494614710087
20
-0.977675535559143
30
0
41
1
10
22.5292581337675
20
-1.06692957522941
30
0
41
1
10
22.8883889269576
20
-1.24109288515444
30
0
41
1
10
23.0683735922239
20
-1.3249379694673
30
0
41
1
10
23.4284892862791
20
-1.48735293789497
30
0
41
1
10
23.6086364383476
20
-1.56638054232909
30
0
41
1
10
23.9687942430592
20
-1.7166027787645
30
0
41
1
10
24.1489292222191
20
-1.78754175296194
30
0
41
1
10
24.5085517492993
20
-1.92222810459623
30
0
41
1
10
24.6878219719239
20
-1.98617397534053
30
0
41
1
10
25.0476792436636
20
-2.1043405372709
30
0
41
1
10
25.22825456774
20
-2.15896422734363
30
0
41
1
10
25.5884657872192
20
-2.25952040076263
30
0
41
1
10
25.7680476710855
20
-2.30508687182169
30
0
41
1
10
26.1277892108097
20
-2.38558911125992
30
0
41
1
10
26.3076577994586
20
-2.42081697221508
30
0
41
1
10
26.6669052832025
20
-2.4813542382233
30
0
41
1
10
26.8469090299753
20
-2.5063409830334
30
0
41
1
10
27.2036680229454
20
-2.54496270463821
30
0
41
1
10
27.379508596068
20
-2.55895257039671
30
0
41
1
10
27.5551624805296
20
-2.56769217247546
30
0
0
SPLINE
5
EC
100
AcDbEntity
8
1
62
256
6
ByLayer
370
18
48
1
60
0
100
AcDbSpline
70
4
71
3
72
14
73
10
40
0
40
0
40
0
40
0
40
0.25
40
0.25
40
0.5
40
0.5
40
0.75
40
0.75
40
1
40
1
40
1
40
1
41
1
10
29.1604493761066
20
-2.45154414624133
30
0
41
1
10
29.1632086289053
20
-2.44958120611233
30
0
41
1
10
29.165357843788
20
-2.44931198093869
30
0
41
1
10
29.1680922228006
20
-2.45311597550935
30
0
41
1
10
29.1686334537571
20
-2.45726294645675
30
0
41
1
10
29.1671864209218
20
-2.47130603631808
30
0
41
1
10
29.1651457414391
20
-2.48119763809186
30
0
41
1
10
29.158649058755
20
-2.50467991250315
30
0
41
1
10
29.154210216767
20
-2.51820776762656
30
0
41
1
10
29.1493344706215
20
-2.53152050007492
30
0
0
SPLINE
5
ED
100
AcDbEntity
8
1
62
256
6
ByLayer
370
18
48
1
60
0
100
AcDbSpline
70
4
71
3
72
8
73
4
40
0
40
0
40
0
40
0
40
1
40
1
40
1
40
1
41
1
10
4.16679648235276
20
0.868321022200377
30
0
41
1
10
4.1532157555543
20
0.875147135096512
30
0
41
1
10
4.13968080119469
20
0.882081571878359
30
0
41
1
10
4.12660476074271
20
0.889703787989419
30
0
0
SPLINE
5
EE
100
AcDbEntity
8
1
62
256
6
ByLayer
370
13
48
1
60
0
100
AcDbSpline
70
4
71
3
72
8
73
4
40
0
40
0
40
0
40
0
40
1
40
1
40
1
40
1
41
1
10
29.3271235622687
20
0.55098306324706
30
0
41
1
10
29.2287425599313
20
0.614027638139731
30
0
41
1
10
29.1331561100176
20
0.685883150038478
30
0
41
1
10
29.0444858320062
20
0.766960798070812
30
0
0
SPLINE
5
EF
100
AcDbEntity
8
SK1
62
256
6
ByLayer
370
18
48
1
60
0
100
AcDbSpline
70
4
71
3
72
14
73
10
40
0
40
0
40
0
40
0
40
0.124999999999999
40
0.124999999999999
40
0.249999999999997
40
0.249999999999997
40
0.499999999999997
40
0.499999999999997
40
1
40
1
40
1
40
1
41
1
10
-35.3
20
-0.475872582529945
30
0
41
1
10
-35.3
20
-0.464984793730338
30
0
41
1
10
-35.3017593723636
20
-0.453764020804215
30
0
41
1
10
-35.306935341198
20
-0.433080055700941
30
0
41
1
10
-35.3102739075535
20
-0.423624166303114
30
0
41
1
10
-35.3215583577555
20
-0.396754372472884
30
0
41
1
10
-35.3303095934912
20
-0.381784002520163
30
0
41
1
10
-35.358391202053
20
-0.34124742125644
30
0
41
1
10
-35.378655954467
20
-0.321374650342932
30
0
41
1
10
-35.4
20
-0.307046973956602
30
0
0
SPLINE
5
F0
100
AcDbEntity
8
SK1
62
256
6
ByLayer
370
18
48
1
60
0
100
AcDbSpline
70
4
71
3
72
8
73
4
40
0
40
0
40
0
40
0
40
1
40
1
40
1
40
1
41
1
10
-36
20
-1.28600408614028
30
0
41
1
10
-35.8061172035845
20
-1.42474658801646
30
0
41
1
10
-35.6037841335082
20
-1.56182677527573
30
0
41
1
10
-35.4
20
-1.69862151332359
30
0
0
SPLINE
5
F1
100
AcDbEntity
8
SK1
62
256
6
ByLayer
370
18
48
1
60
0
100
AcDbSpline
70
4
71
3
72
8
73
4
40
0
40
0
40
0
40
0
40
1
40
1
40
1
40
1
41
1
10
-35.4
20
-0.307046973956602
30
0
41
1
10
-35.6037666603171
20
-0.170263965185967
30
0
41
1
10
-35.8061168885294
20
-0.0331722741028386
30
0
41
1
10
-35.9999999999999
20
0.105570453226676
30
0
0
SPLINE
5
F2
100
AcDbEntity
8
SK1
62
256
6
ByLayer
370
18
48
1
60
0
100
AcDbSpline
70
4
71
3
72
14
73
10
40
0
40
0
40
0
40
0
40
0.500000000000002
40
0.500000000000002
40
0.750000000000003
40
0.750000000000003
40
0.875000000000002
40
0.875000000000002
40
1
40
1
40
1
40
1
41
1
10
-35.4
20
-1.69862151332435
30
0
41
1
10
-35.3787677796885
20
-1.71287412448541
30
0
41
1
10
-35.3584290958895
20
-1.72151248894585
30
0
41
1
10
-35.3303626450498
20
-1.72265586628097
30
0
41
1
10
-35.3215171954455
20
-1.72103848105812
30
0
41
1
10
-35.3102812516991
20
-1.7127075074161
30
0
41
1
10
-35.3068890218585
20
-1.70889682720676
30
0
41
1
10
-35.3017585680987
20
-1.6981369194462
30
0
41
1
10
-35.3
20
-1.69102300976152
30
0
41
1
10
-35.3
20
-1.68190384998135
30
0
0
SPLINE
5
F3
100
AcDbEntity
8
SK1
62
256
6
ByLayer
370
18
48
1
60
0
100
AcDbSpline
70
4
71
3
72
8
73
4
40
0
40
0
40
0
40
0
40
1
40
1
40
1
40
1
41
1
10
-35.8497914240068
20
0.0005143654703943
30
0
41
1
10
-35.9003356102398
20
-0.0347543231372356
30
0
41
1
10
-35.9504443791724
20
-0.0701084579245332
30
0
41
1
10
-35.9999999999999
20
-0.105570453226676
30
0
0
LINE
5
76
100
AcDbEntity
8
81
62
256
6
ByLayer
370
18
48
1
60
0
100
AcDbLine
10
30
20
0
30
0
11
35
21
0
31
0
39
0
210
0
220
0
230
1
0
LINE
5
77
100
AcDbEntity
8
1
62
256
6
ByLayer
370
18
48
1
60
0
100
AcDbLine
10
4.048845
20
2.549834
30
0
11
1.117186
21
2.546316
31
0
39
0
210
0
220
0
230
1
0
LINE
5
79
100
AcDbEntity
8
1
62
256
6
ByLayer
370
18
48
1
60
0
100
AcDbLine
10
13.304418
20
2.560941
30
0
11
12.996991
21
2.560572
31
0
39
0
210
0
220
0
230
1
0
LINE
5
7A
100
AcDbEntity
8
1
62
256
6
ByLayer
370
18
48
1
60
0
100
AcDbLine
10
28.270494
20
2.5789
30
0
11
27.983774
21
2.578556
31
0
39
0
210
0
220
0
230
1
0
LINE
5
7B
100
AcDbEntity
8
1
62
256
6
ByLayer
370
18
48
1
60
0
100
AcDbLine
10
27.983774
20
-2.578556
30
0
11
28.270424
21
-2.5789
31
0
39
0
210
0
220
0
230
1
0
LINE
5
7C
100
AcDbEntity
8
1
62
256
6
ByLayer
370
18
48
1
60
0
100
AcDbLine
10
12.996991
20
-2.560572
30
0
11
13.30434
21
-2.560941
31
0
39
0
210
0
220
0
230
1
0
LINE
5
7D
100
AcDbEntity
8
1
62
256
6
ByLayer
370
18
48
1
60
0
100
AcDbLine
10
1.117186
20
-2.546316
30
0
11
4.048845
21
-2.549834
31
0
39
0
210
0
220
0
230
1
0
LINE
5
7E
100
AcDbEntity
8
SK1
62
256
6
ByLayer
370
18
48
1
60
0
100
AcDbLine
10
0
20
3
30
0
11
-35.278312
21
3
31
0
39
0
210
0
220
0
230
1
0
LINE
5
80
100
AcDbEntity
8
SK1
62
256
6
ByLayer
370
18
48
1
60
0
100
AcDbLine
10
-35.278312
20
-3
30
0
11
0
21
-3
31
0
39
0
210
0
220
0
230
1
0
LINE
5
81
100
AcDbEntity
8
SK1
62
256
6
ByLayer
370
18
48
1
60
0
100
AcDbLine
10
-35.278312
20
3
30
0
11
-36
21
1.75
31
0
39
0
210
0
220
0
230
1
0
LINE
5
82
100
AcDbEntity
8
SK1
62
256
6
ByLayer
370
18
48
1
60
0
100
AcDbLine
10
-36
20
-1.75
30
0
11
-35.278312
21
-3
31
0
39
0
210
0
220
0
230
1
0
LINE
5
83
100
AcDbEntity
8
SK4
62
256
6
ByLayer
370
18
48
0.05
60
0
100
AcDbLine
10
35
20
0
30
0
11
-41
21
0
31
0
39
0
210
0
220
0
230
1
0
LINE
5
85
100
AcDbEntity
8
4
62
256
6
ByLayer
370
18
48
0.05
60
0
100
AcDbLine
10
30
20
0
30
0
11
0
21
0
31
0
39
0
210
0
220
0
230
1
0
LINE
5
87
100
AcDbEntity
8
80
62
256
6
ByLayer
370
18
48
1
60
0
100
AcDbLine
10
0
20
0
30
0
11
-5
21
0
31
0
39
0
210
0
220
0
230
1
0
LINE
5
88
100
AcDbEntity
8
1
62
256
6
ByLayer
370
13
48
1
60
0
100
AcDbLine
10
29.257163
20
0.459528
30
0
11
29.895937
21
0.017433
31
0
39
0
210
0
220
0
230
1
0
LINE
5
89
100
AcDbEntity
8
1
62
256
6
ByLayer
370
13
48
1
60
0
100
AcDbLine
10
29.895937
20
0.017433
30
0
11
29.974779
21
-0.021708
31
0
39
0
210
0
220
0
230
1
0
LINE
5
8A
100
AcDbEntity
8
1
62
256
6
ByLayer
370
18
48
1
60
0
100
AcDbLine
10
29.999667
20
-0.043065
30
0
11
30
21
-0.041091
31
0
39
0
210
0
220
0
230
1
0
LINE
5
8B
100
AcDbEntity
8
1
62
256
6
ByLayer
370
18
48
1
60
0
100
AcDbLine
10
29.904548
20
0.513441
30
0
11
29.957182
21
0.252636
31
0
39
0
210
0
220
0
230
1
0
LINE
5
8C
100
AcDbEntity
8
1
62
256
6
ByLayer
370
18
48
1
60
0
100
AcDbLine
10
29.957182
20
0.252636
30
0
11
29.957182
21
0.11492
31
0
39
0
210
0
220
0
230
1
0
LINE
5
8D
100
AcDbEntity
8
1
62
256
6
ByLayer
370
13
48
1
60
0
100
AcDbLine
10
4.251362
20
-2.443346
30
0
11
4.251393
21
-2.448198
31
0
39
0
210
0
220
0
230
1
0
LINE
5
8E
100
AcDbEntity
8
1
62
256
6
ByLayer
370
13
48
1
60
0
100
AcDbLine
10
29.904548
20
0.513441
30
0
11
29.327124
21
0.550983
31
0
39
0
210
0
220
0
230
1
0
LINE
5
8F
100
AcDbEntity
8
1
62
256
6
ByLayer
370
18
48
1
60
0
100
AcDbLine
10
29.957182
20
-0.252636
30
0
11
29.988983
21
-0.088774
31
0
39
0
210
0
220
0
230
1
0
LINE
5
90
100
AcDbEntity
8
1
62
256
6
ByLayer
370
18
48
1
60
0
100
AcDbLine
10
30
20
0.041091
30
0
11
30
21
-0.041091
31
0
39
0
210
0
220
0
230
1
0
LINE
5
91
100
AcDbEntity
8
1
62
256
6
ByLayer
370
18
48
1
60
0
100
AcDbLine
10
0
20
-3
30
0
11
0
21
3
31
0
39
0
210
0
220
0
230
1
0
LINE
5
92
100
AcDbEntity
8
1
62
256
6
ByLayer
370
18
48
1
60
0
100
AcDbLine
10
29.383847
20
-1.651776
30
0
11
29.084379
21
-2.474556
31
0
39
0
210
0
220
0
230
1
0
LINE
5
93
100
AcDbEntity
8
1
62
256
6
ByLayer
370
18
48
1
60
0
100
AcDbLine
10
30
20
0.041091
30
0
11
29.998631
21
0.03733
31
0
39
0
210
0
220
0
230
1
0
LINE
5
94
100
AcDbEntity
8
1
62
256
6
ByLayer
370
13
48
1
60
0
100
AcDbLine
10
0.558113
20
2.773158
30
0
11
0.558113
21
-2.773158
31
0
39
0
210
0
220
0
230
1
0
LINE
5
95
100
AcDbEntity
8
1
62
256
6
ByLayer
370
18
48
1
60
0
100
AcDbLine
10
4.048845
20
-2.549831
30
0
11
4.048856
21
-2.549247
31
0
39
0
210
0
220
0
230
1
0
LINE
5
96
100
AcDbEntity
8
1
62
256
6
ByLayer
370
18
48
1
60
0
100
AcDbLine
10
28.690169
20
-1.923611
30
0
11
29.974779
21
-0.021708
31
0
39
0
210
0
220
0
230
1
0
LINE
5
97
100
AcDbEntity
8
1
62
256
6
ByLayer
370
13
48
1
60
0
100
AcDbLine
10
1.117186
20
2.546316
30
0
11
1.117186
21
-2.546316
31
0
39
0
210
0
220
0
230
1
0
LINE
5
98
100
AcDbEntity
8
1
62
256
6
ByLayer
370
13
48
1
60
0
100
AcDbLine
10
29.953342
20
0.106468
30
0
11
29.988983
21
0.088774
31
0
39
0
210
0
220
0
230
1
0
LINE
5
99
100
AcDbEntity
8
1
62
256
6
ByLayer
370
18
48
1
60
0
100
AcDbLine
10
30
20
0.041091
30
0
11
29.999667
21
0.043065
31
0
39
0
210
0
220
0
230
1
0
LINE
5
9A
100
AcDbEntity
8
1
62
256
6
ByLayer
370
18
48
1
60
0
100
AcDbLine
10
29.980541
20
-0.012371
30
0
11
29.622462
21
-0.996185
31
0
39
0
210
0
220
0
230
1
0
LINE
5
9B
100
AcDbEntity
8
1
62
256
6
ByLayer
370
13
48
1
60
0
100
AcDbLine
10
29.957182
20
0.11492
30
0
11
29.327124
21
0.550983
31
0
39
0
210
0
220
0
230
1
0
LINE
5
9C
100
AcDbEntity
8
1
62
256
6
ByLayer
370
18
48
1
60
0
100
AcDbLine
10
29.957182
20
0.252636
30
0
11
29.988983
21
0.088774
31
0
39
0
210
0
220
0
230
1
0
LINE
5
9D
100
AcDbEntity
8
1
62
256
6
ByLayer
370
18
48
1
60
0
100
AcDbLine
10
29.904548
20
-0.513441
30
0
11
29.957182
21
-0.252636
31
0
39
0
210
0
220
0
230
1
0
LINE
5
9E
100
AcDbEntity
8
SK1
62
256
6
ByLayer
370
18
48
1
60
0
100
AcDbLine
10
0
20
-3
30
0
11
0
21
3
31
0
39
0
210
0
220
0
230
1
0
LINE
5
9F
100
AcDbEntity
8
SK1
62
256
6
ByLayer
370
13
48
1
60
0
100
AcDbLine
10
-35.4
20
-0.307064
30
0
11
-35.4
21
-1.698622
31
0
39
0
210
0
220
0
230
1
0
LINE
5
A0
100
AcDbEntity
8
SK1
62
256
6
ByLayer
370
18
48
1
60
0
100
AcDbLine
10
-36
20
-0.10557
30
0
11
-36
21
-1.286004
31
0
39
0
210
0
220
0
230
1
0
LINE
5
A1
100
AcDbEntity
8
SK1
62
256
6
ByLayer
370
18
48
1
60
0
100
AcDbLine
10
-35.3
20
-1.681904
30
0
11
-35.3
21
-0.475873
31
0
39
0
210
0
220
0
230
1
0
LINE
5
A2
100
AcDbEntity
8
SK1
62
256
6
ByLayer
370
18
48
1
60
0
100
AcDbLine
10
-35.278312
20
3
30
0
11
-35.278312
21
-3
31
0
39
0
210
0
220
0
230
1
0
LINE
5
A3
100
AcDbEntity
8
SK1
62
256
6
ByLayer
370
18
48
1
60
0
100
AcDbLine
10
-36
20
1.75
30
0
11
-36
21
0.10557
31
0
39
0
210
0
220
0
230
1
0
LINE
5
A4
100
AcDbEntity
8
SK1
62
256
6
ByLayer
370
18
48
1
60
0
100
AcDbLine
10
-36
20
-1.75
30
0
11
-36
21
-1.286004
31
0
39
0
210
0
220
0
230
1
0
MTEXT
5
F4
100
AcDbEntity
8
SK6
62
256
6
ByLayer
370
13
48
1
60
0
100
AcDbMText
10
-0.870831
20
34.962694
30
0
210
0
220
0
230
1
1
\W0.7415;R846-0516-30-A1A1220
40
3.5
41
0
44
1.084337
50
0
71
8
72
5
7
iso_b_vert
0
DIMENSION
5
101
100
AcDbEntity
8
SK2
62
256
6
ByLayer
370
13
48
1
60
0
100
AcDbDimension
2
DimnDraft3D1
10
29.13
20
-12.793398
30
0
11
13.380059
21
-12.793398
31
0
70
32
71
5
72
1
41
1
210
0
220
0
230
1
3
Standard
100
AcDbAlignedDimension
13
0
23
-1.5875
33
0
14
29.13
24
-4.1675
34
0
50
0
100
AcDbRotatedDimension
1001
ACAD
1000
DSTYLE
1002
{
1070
   279
1070
     0
1070
   172
1070
     1
1070
   173
1070
     1
1070
   340
1005
F5
1070
   271
1070
     2
1070
   272
1070
     2
1070
    77
1070
     1
1070
    73
1070
     0
1070
   171
1070
     3
1070
   274
1070
     4
1070
   177
1070
    35
1070
   176
1070
    35
1070
   178
1070
    35
1070
    48
1040
-0.005
1070
    41
1041
3.5
1070
   147
1041
1.75
1070
    42
1041
1.5875
1070
    44
1041
2.0
1070
   140
1041
3.5
1070
   343
1005
0
1070
   344
1005
0
1002
}
0
DIMENSION
5
10B
100
AcDbEntity
8
SK2
62
256
6
ByLayer
370
13
48
1
60
0
100
AcDbDimension
2
DimnDraft3D2
10
30
20
-31.692985
30
0
11
-2.5287
21
-31.692985
31
0
70
32
71
5
72
1
41
1
210
0
220
0
230
1
3
Standard
100
AcDbAlignedDimension
13
-36
23
-4.5875
33
0
14
30
24
-1.5875
34
0
50
0
100
AcDbRotatedDimension
1001
ACAD
1000
DSTYLE
1002
{
1070
   279
1070
     0
1070
   172
1070
     1
1070
   173
1070
     1
1070
   340
1005
F5
1070
   271
1070
     2
1070
   272
1070
     2
1070
    77
1070
     1
1070
    73
1070
     0
1070
   171
1070
     3
1070
   274
1070
     4
1070
   177
1070
    35
1070
   176
1070
    35
1070
   178
1070
    35
1070
    48
1040
-0.005
1070
    41
1041
3.5
1070
   147
1041
1.75
1070
    42
1041
1.5875
1070
    44
1041
2.0
1070
   140
1041
3.5
1070
   343
1005
0
1070
   344
1005
0
1002
}
0
DIMENSION
5
115
100
AcDbEntity
8
SK2
62
256
6
ByLayer
370
13
48
1
60
0
100
AcDbDimension
2
DimnDraft3D3
10
30
20
14.189119
30
0
11
21.825
21
14.189119
31
0
70
32
71
5
72
1
41
1
210
0
220
0
230
1
3
Standard
100
AcDbAlignedDimension
13
13.65
23
4.1675
33
0
14
30
24
1.5875
34
0
50
0
100
AcDbRotatedDimension
1001
ACAD
1000
DSTYLE
1002
{
1070
   279
1070
     0
1070
   172
1070
     1
1070
   173
1070
     1
1070
   340
1005
F5
1070
   271
1070
     2
1070
   272
1070
     2
1070
    77
1070
     1
1070
    73
1070
     0
1070
   171
1070
     3
1070
   274
1070
     4
1070
   177
1070
    35
1070
   176
1070
    35
1070
   178
1070
    35
1070
    48
1040
-0.005
1070
    41
1041
3.5
1070
   147
1041
1.75
1070
    42
1041
1.5875
1070
    44
1041
2.0
1070
   140
1041
3.5
1070
   343
1005
0
1070
   344
1005
0
1002
}
0
DIMENSION
5
11F
100
AcDbEntity
8
SK2
62
256
6
ByLayer
370
13
48
1
60
0
100
AcDbDimension
2
DimnDraft3D4
10
29.13
20
-15.382503
30
0
11
39.981425
21
-15.382503
31
0
70
32
71
5
72
1
41
1
210
0
220
0
230
1
3
Standard
100
AcDbAlignedDimension
13
30
23
-1.5875
33
0
14
29.13
24
-4.1675
34
0
50
0
100
AcDbRotatedDimension
1001
ACAD
1000
DSTYLE
1002
{
1070
   279
1070
     0
1070
   172
1070
     1
1070
   173
1070
     1
1070
   340
1005
F5
1070
   271
1070
     2
1070
   272
1070
     2
1070
    77
1070
     1
1070
    73
1070
     0
1070
   171
1070
     3
1070
   274
1070
     4
1070
   177
1070
    35
1070
   176
1070
    35
1070
   178
1070
    35
1070
    48
1040
-0.005
1070
    41
1041
3.5
1070
   147
1041
1.75
1070
    42
1041
1.5875
1070
    44
1041
2.0
1070
   140
1041
3.5
1070
   343
1005
0
1070
   344
1005
0
1002
}
0
DIMENSION
5
129
100
AcDbEntity
8
SK2
62
256
6
ByLayer
370
13
48
1
60
0
100
AcDbDimension
2
DimnDraft3D5
10
29.13
20
-21.343428
30
0
11
-5.609324
21
-21.343428
31
0
70
32
71
5
72
1
41
1
210
0
220
0
230
1
3
Standard
100
AcDbAlignedDimension
13
-36
23
-4.5875
33
0
14
29.13
24
-4.1675
34
0
50
0
100
AcDbRotatedDimension
1001
ACAD
1000
DSTYLE
1002
{
1070
   279
1070
     0
1070
   172
1070
     1
1070
   173
1070
     1
1070
   340
1005
F5
1070
   271
1070
     2
1070
   272
1070
     2
1070
    77
1070
     1
1070
    73
1070
     0
1070
   171
1070
     3
1070
   274
1070
     4
1070
   177
1070
    35
1070
   176
1070
    35
1070
   178
1070
    35
1070
    48
1040
-0.005
1070
    41
1041
3.5
1070
   147
1041
1.75
1070
    42
1041
1.5875
1070
    44
1041
2.0
1070
   140
1041
3.5
1070
   343
1005
0
1070
   344
1005
0
1002
}
0
DIMENSION
5
134
100
AcDbEntity
8
SK2
62
256
6
ByLayer
370
13
48
1
60
0
100
AcDbDimension
2
DimnDraft3D6
10
-46.625163
20
3
30
0
11
-47.250163
21
21.47418
31
0
70
33
71
5
72
1
41
1
210
0
220
0
230
1
3
Standard
100
AcDbAlignedDimension
13
-37.5875
23
-3
33
0
14
-37.5875
24
3
34
0
1001
ACAD
1000
DSTYLE
1002
{
1070
   279
1070
     0
1070
    74
1070
     0
1070
   173
1070
     1
1070
   340
1005
F5
1070
   271
1070
     3
1070
   272
1070
     2
1070
    77
1070
     1
1070
    73
1070
     0
1070
   171
1070
     3
1070
   274
1070
     4
1070
   177
1070
    35
1070
   176
1070
    35
1070
   178
1070
    35
1070
    48
1040
-0.005
1070
    41
1041
3.5
1070
   147
1041
1.75
1070
    42
1041
1.5875
1070
    44
1041
2.0
1070
   140
1041
3.5
1070
   343
1005
0
1070
   344
1005
0
1002
}
0
DIMENSION
5
13F
100
AcDbEntity
8
2
62
256
6
ByLayer
370
13
48
1
60
0
100
AcDbDimension
2
DimnDraft3D7
10
44.083343
20
2.58
30
0
11
39.458343
21
19.647266
31
0
70
33
71
5
72
1
41
1
210
0
220
0
230
1
3
Standard
100
AcDbAlignedDimension
13
30.7175
23
-2.58
33
0
14
30.7175
24
2.58
34
0
1001
ACAD
1000
DSTYLE
1002
{
1070
   279
1070
     0
1070
    74
1070
     0
1070
   173
1070
     1
1070
   340
1005
F5
1070
   271
1070
     3
1070
   272
1070
     2
1070
    77
1070
     1
1070
    73
1070
     0
1070
   171
1070
     3
1070
   274
1070
     4
1070
   177
1070
    35
1070
   176
1070
    35
1070
   178
1070
    35
1070
    48
1040
-0.005
1070
    41
1041
3.5
1070
   147
1041
1.75
1070
    42
1041
1.5875
1070
    44
1041
2.0
1070
   140
1041
3.5
1070
   343
1005
0
1070
   344
1005
0
1002
}
0
ENDSEC
0
SECTION
2
OBJECTS
0
DICTIONARY
5
1aa
330
0
100
AcDbDictionary
280
0
281
1
3
ACAD_GROUP
350
1ab
3
ACAD_MLINESTYLE
350
1ac
0
DICTIONARY
5
1ab
330
0
100
AcDbDictionary
280
0
281
1
0
DICTIONARY
5
1ac
330
0
100
AcDbDictionary
280
0
281
1
3
Standard
350
18
0
MLINESTYLE
5
18
330
1ac
100
AcDbMlineStyle
2
Standard
70
0
3

62
256
51
90
52
90
71
2
49
-0.5
62
256
6
ByLayer
49
0.5
62
256
6
ByLayer
0
RASTERVARIABLES
5
198
330

100
AcDbRasterVariables
90
0
70
1
71
1
72
1
0
ENDSEC
0
EOF
