0
SECTION
2
HEADER
9
$ACADVER
1
AC1015
9
$DWGCODEPAGE
3
ANSI_1252
9
$HANDSEED
5
1a5
9
$ANGBASE
50
0
9
$ANGDIR
70
0
9
$ATTMODE
70
1
9
$AUNITS
70
0
9
$AUPREC
70
0
9
$CECOLOR
62
256
9
$CELTSCALE
40
1
9
$CELTYPE
6
ByLayer
9
$CELWEIGHT
370
18
9
$CLAYER
8
0
9
$CMLJUST
70
0
9
$CMLSCALE
40
1
9
$CMLSTYLE
2
Standard
9
$DIMSTYLE
2
Standard
9
$TEXTSIZE
40
0.2
9
$TEXTSTYLE
7
Standard
9
$LUNITS
70
2
9
$LUPREC
70
4
9
$EXTNAMES
290
1
9
$INSUNITS
70
4
9
$LTSCALE
40
1
9
$LWDISPLAY
290
1
9
$PDMODE
70
0
9
$PDSIZE
40
0
9
$PLINEGEN
70
0
0
ENDSEC
0
SECTION
2
CLASSES
0
CLASS
1
RASTERVARIABLES
2
AcDbRasterVariables
3
ISM
90
0
280
0
281
0
0
ENDSEC
0
SECTION
2
TABLES
0
TABLE
2
VPORT
5
19b
100
AcDbSymbolTable
0
VPORT
5
1
100
AcDbSymbolTableRecord
100
AcDbViewportTableRecord
2
*Active
70
0
10
0
20
0
11
1
21
1
12
-1
22
1
13
0
23
0
14
0.5
24
0.5
15
10
25
10
16
0
26
0
36
1
17
0
27
0
37
0
0
ENDTAB
0
TABLE
2
LTYPE
5
19c
100
AcDbSymbolTable
0
LTYPE
5
14
100
AcDbSymbolTableRecord
100
AcDbLinetypeTableRecord
70
0
2
ByBlock
3

72
65
73
0
40
0
0
LTYPE
5
15
100
AcDbSymbolTableRecord
100
AcDbLinetypeTableRecord
70
0
2
ByLayer
3

72
65
73
0
40
0
0
LTYPE
5
16
100
AcDbSymbolTableRecord
100
AcDbLinetypeTableRecord
70
0
2
CONTINUOUS
3
Solid line
72
65
73
0
40
0
0
LTYPE
5
6A
100
AcDbSymbolTableRecord
100
AcDbLinetypeTableRecord
70
0
2
CENTER
3
____ _ ____ _ ____ _ ____
72
65
73
4
40
47.5
49
22
74
0
49
-8.5
74
0
49
8.5
74
0
49
-8.5
74
0
0
LTYPE
5
6B
100
AcDbSymbolTableRecord
100
AcDbLinetypeTableRecord
70
0
2
DASHED
3
__ __ __ __ __ __ __ __ __
72
65
73
2
40
25.72
49
12.86
74
0
49
-12.86
74
0
0
ENDTAB
0
TABLE
2
LAYER
5
19d
100
AcDbSymbolTable
0
LAYER
5
10
100
AcDbSymbolTableRecord
100
AcDbLayerTableRecord
2
0
70
0
62
7
6
CONTINUOUS
290
1
370
-3
390
0
0
LAYER
5
6D
100
AcDbSymbolTableRecord
100
AcDbLayerTableRecord
2
81
70
0
62
-3
6
CONTINUOUS
290
1
370
-3
390
0
0
LAYER
5
6F
100
AcDbSymbolTableRecord
100
AcDbLayerTableRecord
2
80
70
0
62
-6
6
CONTINUOUS
290
1
370
-3
390
0
0
LAYER
5
74
100
AcDbSymbolTableRecord
100
AcDbLayerTableRecord
2
2
70
0
62
7
6
CONTINUOUS
290
1
370
-3
390
0
0
LAYER
5
78
100
AcDbSymbolTableRecord
100
AcDbLayerTableRecord
2
1
70
0
62
4
6
CONTINUOUS
290
1
370
-3
390
0
0
LAYER
5
86
100
AcDbSymbolTableRecord
100
AcDbLayerTableRecord
2
4
70
0
62
-2
6
CENTER
290
1
370
-3
390
0
0
LAYER
5
187
100
AcDbSymbolTableRecord
100
AcDbLayerTableRecord
2
SK2
70
0
62
7
6
CONTINUOUS
290
1
370
-3
390
0
0
LAYER
5
188
100
AcDbSymbolTableRecord
100
AcDbLayerTableRecord
2
SK1
70
0
62
4
6
CONTINUOUS
290
1
370
-3
390
0
0
LAYER
5
189
100
AcDbSymbolTableRecord
100
AcDbLayerTableRecord
2
SK4
70
0
62
2
6
CENTER
290
1
370
-3
390
0
0
LAYER
5
18a
100
AcDbSymbolTableRecord
100
AcDbLayerTableRecord
2
SK6
70
0
62
5
6
CONTINUOUS
290
1
370
-3
390
0
0
ENDTAB
0
TABLE
2
STYLE
5
19e
100
AcDbSymbolTable
0
STYLE
5
11
100
AcDbSymbolTableRecord
100
AcDbTextStyleTableRecord
2
Standard
3
txt
70
0
71
0
40
0
41
1
42
0
50
0
0
STYLE
5
E3
100
AcDbSymbolTableRecord
100
AcDbTextStyleTableRecord
2
iso_b_vert
3
simplex.shx
70
0
71
0
40
0
41
1
42
0
50
0
0
STYLE
5
E4
100
AcDbSymbolTableRecord
100
AcDbTextStyleTableRecord
2
DWGDirectTextStyle
3
simplex
70
0
71
0
40
0
41
1
42
0
50
0
0
ENDTAB
0
TABLE
2
DIMSTYLE
5
19f
100
AcDbSymbolTable
100
AcDbDimStyleTable
0
DIMSTYLE
105
27
100
AcDbSymbolTableRecord
100
AcDbDimStyleTableRecord
2
Standard
70
0
3
<>
41
0.18
42
0.0625
44
0.18
140
0.18
147
0.09
73
0
74
0
77
1
271
2
275
0
278
52
280
0
340
11
0
ENDTAB
0
TABLE
2
VIEW
5
1a0
100
AcDbSymbolTable
0
ENDTAB
0
TABLE
2
UCS
5
1a1
100
AcDbSymbolTable
0
ENDTAB
0
TABLE
2
APPID
5
1a2
100
AcDbSymbolTable
0
APPID
5
12
100
AcDbSymbolTableRecord
100
AcDbRegAppTableRecord
2
ACAD
70
0
0
ENDTAB
0
TABLE
2
BLOCK_RECORD
5
1a3
100
AcDbSymbolTable
0
BLOCK_RECORD
5
1F
100
AcDbSymbolTableRecord
100
AcDbBlockTableRecord
2
*Model_Space
340
0
70
0
0
BLOCK_RECORD
5
1B
100
AcDbSymbolTableRecord
100
AcDbBlockTableRecord
2
*Paper_Space
340
0
70
0
0
BLOCK_RECORD
5
23
100
AcDbSymbolTableRecord
100
AcDbBlockTableRecord
2
*Paper_Space0
340
0
70
0
0
BLOCK_RECORD
5
E6
100
AcDbSymbolTableRecord
100
AcDbBlockTableRecord
2
DimnDraft3D1
340
0
70
0
0
BLOCK_RECORD
5
F0
100
AcDbSymbolTableRecord
100
AcDbBlockTableRecord
2
DimnDraft3D2
340
0
70
0
0
BLOCK_RECORD
5
FA
100
AcDbSymbolTableRecord
100
AcDbBlockTableRecord
2
DimnDraft3D3
340
0
70
0
0
BLOCK_RECORD
5
104
100
AcDbSymbolTableRecord
100
AcDbBlockTableRecord
2
DimnDraft3D4
340
0
70
0
0
BLOCK_RECORD
5
10E
100
AcDbSymbolTableRecord
100
AcDbBlockTableRecord
2
DimnDraft3D5
340
0
70
0
0
BLOCK_RECORD
5
118
100
AcDbSymbolTableRecord
100
AcDbBlockTableRecord
2
DimnDraft3D6
340
0
70
0
0
BLOCK_RECORD
5
123
100
AcDbSymbolTableRecord
100
AcDbBlockTableRecord
2
DimnDraft3D7
340
0
70
0
0
ENDTAB
0
ENDSEC
0
SECTION
2
BLOCKS
0
BLOCK
5
20
100
AcDbEntity
8
0
100
AcDbBlockBegin
2
*Model_Space
70
0
10
0
20
0
30
0
3
*Model_Space
0
ENDBLK
5
21
100
AcDbEntity
8
0
100
AcDbBlockEnd
0
BLOCK
5
1C
100
AcDbEntity
8
0
100
AcDbBlockBegin
2
*Paper_Space
70
0
10
0
20
0
30
0
3
*Paper_Space
0
ENDBLK
5
1D
100
AcDbEntity
8
0
100
AcDbBlockEnd
0
BLOCK
5
24
100
AcDbEntity
8
0
100
AcDbBlockBegin
2
*Paper_Space0
70
0
10
0
20
0
30
0
3
*Paper_Space0
0
ENDBLK
5
25
100
AcDbEntity
8
0
100
AcDbBlockEnd
0
BLOCK
5
ED
100
AcDbEntity
8
0
100
AcDbBlockBegin
2
DimnDraft3D1
70
0
10
0
20
0
30
0
3
DimnDraft3D1
0
MTEXT
5
E7
100
AcDbEntity
8
SK2
62
256
6
ByLayer
370
13
48
1
60
0
100
AcDbMText
10
7.017164
20
-11.123398
30
0
210
0
220
0
230
1
1
\W0.7581;25,40
40
3.5
41
0
44
1.084337
50
0
71
7
72
5
7
iso_b_vert
0
LINE
5
E8
100
AcDbEntity
8
SK2
62
256
6
ByLayer
370
13
48
1
60
0
100
AcDbLine
10
0
20
-1.5875
30
0
11
0
21
-13.998398
31
0
39
0
210
0
220
0
230
1
0
LINE
5
E9
100
AcDbEntity
8
SK2
62
256
6
ByLayer
370
13
48
1
60
0
100
AcDbLine
10
25.4
20
-3.3725
30
0
11
25.4
21
-13.998398
31
0
39
0
210
0
220
0
230
1
0
LINE
5
EA
100
AcDbEntity
8
SK2
62
256
6
ByLayer
370
13
48
1
60
0
100
AcDbLine
10
0
20
-11.998398
30
0
11
25.4
21
-11.998398
31
0
39
0
210
0
220
0
230
1
0
SOLID
5
EB
100
AcDbEntity
8
SK2
62
256
6
ByLayer
370
13
48
1
60
0
100
AcDbTrace
10
0
20
-11.998398
30
0
11
3.499998
21
-11.537615
31
0
12
3.500002
22
-12.459182
32
0
13
0
23
-11.998398
33
0
39
0
210
0
220
0
230
1
0
SOLID
5
EC
100
AcDbEntity
8
SK2
62
256
6
ByLayer
370
13
48
1
60
0
100
AcDbTrace
10
25.4
20
-11.998398
30
0
11
21.900002
21
-12.459182
31
0
12
21.899998
22
-11.537615
32
0
13
25.4
23
-11.998398
33
0
39
0
210
0
220
0
230
1
0
ENDBLK
5
EE
100
AcDbEntity
8
0
100
AcDbBlockEnd
0
BLOCK
5
F7
100
AcDbEntity
8
0
100
AcDbBlockBegin
2
DimnDraft3D2
70
0
10
0
20
0
30
0
3
DimnDraft3D2
0
MTEXT
5
F1
100
AcDbEntity
8
SK2
62
256
6
ByLayer
370
13
48
1
60
0
100
AcDbMText
10
-8.707384
20
-30.817985
30
0
210
0
220
0
230
1
1
\W0.7317;62,00
40
3.5
41
0
44
1.084337
50
0
71
7
72
5
7
iso_b_vert
0
LINE
5
F2
100
AcDbEntity
8
SK2
62
256
6
ByLayer
370
13
48
1
60
0
100
AcDbLine
10
-36
20
-4.5875
30
0
11
-36
21
-33.692985
31
0
39
0
210
0
220
0
230
1
0
LINE
5
F3
100
AcDbEntity
8
SK2
62
256
6
ByLayer
370
13
48
1
60
0
100
AcDbLine
10
26
20
-1.5875
30
0
11
26
21
-33.692985
31
0
39
0
210
0
220
0
230
1
0
LINE
5
F4
100
AcDbEntity
8
SK2
62
256
6
ByLayer
370
13
48
1
60
0
100
AcDbLine
10
-36
20
-31.692985
30
0
11
26
21
-31.692985
31
0
39
0
210
0
220
0
230
1
0
SOLID
5
F5
100
AcDbEntity
8
SK2
62
256
6
ByLayer
370
13
48
1
60
0
100
AcDbTrace
10
-36
20
-31.692985
30
0
11
-32.500002
21
-31.232202
31
0
12
-32.499998
22
-32.153769
32
0
13
-36
23
-31.692985
33
0
39
0
210
0
220
0
230
1
0
SOLID
5
F6
100
AcDbEntity
8
SK2
62
256
6
ByLayer
370
13
48
1
60
0
100
AcDbTrace
10
26
20
-31.692985
30
0
11
22.500002
21
-32.153769
31
0
12
22.499998
22
-31.232202
32
0
13
26
23
-31.692985
33
0
39
0
210
0
220
0
230
1
0
ENDBLK
5
F8
100
AcDbEntity
8
0
100
AcDbBlockEnd
0
BLOCK
5
101
100
AcDbEntity
8
0
100
AcDbBlockBegin
2
DimnDraft3D3
70
0
10
0
20
0
30
0
3
DimnDraft3D3
0
MTEXT
5
FB
100
AcDbEntity
8
SK2
62
256
6
ByLayer
370
13
48
1
60
0
100
AcDbMText
10
17.208816
20
14.269119
30
0
210
0
220
0
230
1
1
\W0.5914;11,31
40
3.5
41
0
44
1.084337
50
0
71
7
72
5
7
iso_b_vert
0
LINE
5
FC
100
AcDbEntity
8
SK2
62
256
6
ByLayer
370
13
48
1
60
0
100
AcDbLine
10
14.69
20
3.3725
30
0
11
14.69
21
15.394119
31
0
39
0
210
0
220
0
230
1
0
LINE
5
FD
100
AcDbEntity
8
SK2
62
256
6
ByLayer
370
13
48
1
60
0
100
AcDbLine
10
26
20
1.5875
30
0
11
26
21
15.394119
31
0
39
0
210
0
220
0
230
1
0
LINE
5
FE
100
AcDbEntity
8
SK2
62
256
6
ByLayer
370
13
48
1
60
0
100
AcDbLine
10
14.69
20
13.394119
30
0
11
26
21
13.394119
31
0
39
0
210
0
220
0
230
1
0
SOLID
5
FF
100
AcDbEntity
8
SK2
62
256
6
ByLayer
370
13
48
1
60
0
100
AcDbTrace
10
14.69
20
13.394119
30
0
11
18.189998
21
13.854903
31
0
12
18.190002
22
12.933335
32
0
13
14.69
23
13.394119
33
0
39
0
210
0
220
0
230
1
0
SOLID
5
100
100
AcDbEntity
8
SK2
62
256
6
ByLayer
370
13
48
1
60
0
100
AcDbTrace
10
26
20
13.394119
30
0
11
22.500002
21
12.933335
31
0
12
22.499998
22
13.854903
32
0
13
26
23
13.394119
33
0
39
0
210
0
220
0
230
1
0
ENDBLK
5
102
100
AcDbEntity
8
0
100
AcDbBlockEnd
0
BLOCK
5
10B
100
AcDbEntity
8
0
100
AcDbBlockBegin
2
DimnDraft3D4
70
0
10
0
20
0
30
0
3
DimnDraft3D4
0
MTEXT
5
105
100
AcDbEntity
8
SK2
62
256
6
ByLayer
370
13
48
1
60
0
100
AcDbMText
10
32.840636
20
-13.712503
30
0
210
0
220
0
230
1
1
\W0.7150;0,60
40
3.5
41
0
44
1.084337
50
0
71
7
72
5
7
iso_b_vert
0
LINE
5
106
100
AcDbEntity
8
SK2
62
256
6
ByLayer
370
13
48
1
60
0
100
AcDbLine
10
26
20
-1.5875
30
0
11
26
21
-16.587503
31
0
39
0
210
0
220
0
230
1
0
LINE
5
107
100
AcDbEntity
8
SK2
62
256
6
ByLayer
370
13
48
1
60
0
100
AcDbLine
10
25.4
20
-3.3725
30
0
11
25.4
21
-16.587503
31
0
39
0
210
0
220
0
230
1
0
LINE
5
108
100
AcDbEntity
8
SK2
62
256
6
ByLayer
370
13
48
1
60
0
100
AcDbLine
10
16.65
20
-14.587503
30
0
11
39.997215
21
-14.587503
31
0
39
0
210
0
220
0
230
1
0
SOLID
5
109
100
AcDbEntity
8
SK2
62
256
6
ByLayer
370
13
48
1
60
0
100
AcDbTrace
10
26
20
-14.587503
30
0
11
29.499998
21
-14.126719
31
0
12
29.500002
22
-15.048287
32
0
13
26
23
-14.587503
33
0
39
0
210
0
220
0
230
1
0
SOLID
5
10A
100
AcDbEntity
8
SK2
62
256
6
ByLayer
370
13
48
1
60
0
100
AcDbTrace
10
25.4
20
-14.587503
30
0
11
21.900002
21
-15.048287
31
0
12
21.899998
22
-14.126719
32
0
13
25.4
23
-14.587503
33
0
39
0
210
0
220
0
230
1
0
ENDBLK
5
10C
100
AcDbEntity
8
0
100
AcDbBlockEnd
0
BLOCK
5
115
100
AcDbEntity
8
0
100
AcDbBlockBegin
2
DimnDraft3D5
70
0
10
0
20
0
30
0
3
DimnDraft3D5
0
MTEXT
5
10F
100
AcDbEntity
8
SK2
62
256
6
ByLayer
370
13
48
1
60
0
100
AcDbMText
10
-11.534718
20
-20.468428
30
0
210
0
220
0
230
1
1
\W0.6977;61,40
40
3.5
41
0
44
1.084337
50
0
71
7
72
5
7
iso_b_vert
0
LINE
5
110
100
AcDbEntity
8
SK2
62
256
6
ByLayer
370
13
48
1
60
0
100
AcDbLine
10
-36
20
-4.5875
30
0
11
-36
21
-23.343428
31
0
39
0
210
0
220
0
230
1
0
LINE
5
111
100
AcDbEntity
8
SK2
62
256
6
ByLayer
370
13
48
1
60
0
100
AcDbLine
10
25.4
20
-3.3725
30
0
11
25.4
21
-23.343428
31
0
39
0
210
0
220
0
230
1
0
LINE
5
112
100
AcDbEntity
8
SK2
62
256
6
ByLayer
370
13
48
1
60
0
100
AcDbLine
10
-36
20
-21.343428
30
0
11
25.4
21
-21.343428
31
0
39
0
210
0
220
0
230
1
0
SOLID
5
113
100
AcDbEntity
8
SK2
62
256
6
ByLayer
370
13
48
1
60
0
100
AcDbTrace
10
-36
20
-21.343428
30
0
11
-32.500002
21
-20.882645
31
0
12
-32.499998
22
-21.804212
32
0
13
-36
23
-21.343428
33
0
39
0
210
0
220
0
230
1
0
SOLID
5
114
100
AcDbEntity
8
SK2
62
256
6
ByLayer
370
13
48
1
60
0
100
AcDbTrace
10
25.4
20
-21.343428
30
0
11
21.900002
21
-21.804212
31
0
12
21.899998
22
-20.882645
32
0
13
25.4
23
-21.343428
33
0
39
0
210
0
220
0
230
1
0
ENDBLK
5
116
100
AcDbEntity
8
0
100
AcDbBlockEnd
0
BLOCK
5
120
100
AcDbEntity
8
0
100
AcDbBlockBegin
2
DimnDraft3D6
70
0
10
0
20
0
30
0
3
DimnDraft3D6
0
MTEXT
5
119
100
AcDbEntity
8
SK2
62
256
6
ByLayer
370
13
48
1
60
0
100
AcDbMText
10
-46.375163
20
22.34918
30
0
210
0
220
0
230
1
1
\W0.7317;6,000
40
3.5
41
0
44
1.084337
50
90
71
7
72
5
7
iso_b_vert
0
MTEXT
5
11A
100
AcDbEntity
8
SK2
62
256
6
ByLayer
370
13
48
1
60
0
100
AcDbMText
10
-46.375163
20
17.126524
30
0
210
0
220
0
230
1
1
%%c
40
3.5
41
0
44
1.084337
50
90
71
7
72
5
7
iso_b_vert
0
LINE
5
11B
100
AcDbEntity
8
SK2
62
256
6
ByLayer
370
13
48
1
60
0
100
AcDbLine
10
-37.5875
20
-3
30
0
11
-46.625163
21
-3
31
0
39
0
210
0
220
0
230
1
0
LINE
5
11C
100
AcDbEntity
8
SK2
62
256
6
ByLayer
370
13
48
1
60
0
100
AcDbLine
10
-37.5875
20
3
30
0
11
-46.625163
21
3
31
0
39
0
210
0
220
0
230
1
0
LINE
5
11D
100
AcDbEntity
8
SK2
62
256
6
ByLayer
370
13
48
1
60
0
100
AcDbLine
10
-44.625163
20
32.121549
30
0
11
-44.625163
21
-11.75
31
0
39
0
210
0
220
0
230
1
0
SOLID
5
11E
100
AcDbEntity
8
SK2
62
256
6
ByLayer
370
13
48
1
60
0
100
AcDbTrace
10
-44.625163
20
-3
30
0
11
-44.164379
21
-6.499998
31
0
12
-45.085946
22
-6.500002
32
0
13
-44.625163
23
-3
33
0
39
0
210
0
220
0
230
1
0
SOLID
5
11F
100
AcDbEntity
8
SK2
62
256
6
ByLayer
370
13
48
1
60
0
100
AcDbTrace
10
-44.625163
20
3
30
0
11
-45.085946
21
6.499998
31
0
12
-44.164379
22
6.500002
32
0
13
-44.625163
23
3
33
0
39
0
210
0
220
0
230
1
0
ENDBLK
5
121
100
AcDbEntity
8
0
100
AcDbBlockEnd
0
BLOCK
5
12B
100
AcDbEntity
8
0
100
AcDbBlockBegin
2
DimnDraft3D7
70
0
10
0
20
0
30
0
3
DimnDraft3D7
0
MTEXT
5
124
100
AcDbEntity
8
2
62
256
6
ByLayer
370
13
48
1
60
0
100
AcDbMText
10
36.333343
20
19.727266
30
0
210
0
220
0
230
1
1
\W0.7317;3,570
40
3.5
41
0
44
1.084337
50
90
71
7
72
5
7
iso_b_vert
0
MTEXT
5
125
100
AcDbEntity
8
2
62
256
6
ByLayer
370
13
48
1
60
0
100
AcDbMText
10
36.333343
20
14.50461
30
0
210
0
220
0
230
1
1
%%c
40
3.5
41
0
44
1.084337
50
90
71
7
72
5
7
iso_b_vert
0
LINE
5
126
100
AcDbEntity
8
2
62
256
6
ByLayer
370
13
48
1
60
0
100
AcDbLine
10
26.9875
20
-1.785
30
0
11
40.083343
21
-1.785
31
0
39
0
210
0
220
0
230
1
0
LINE
5
127
100
AcDbEntity
8
2
62
256
6
ByLayer
370
13
48
1
60
0
100
AcDbLine
10
26.9875
20
1.785
30
0
11
40.083343
21
1.785
31
0
39
0
210
0
220
0
230
1
0
LINE
5
128
100
AcDbEntity
8
2
62
256
6
ByLayer
370
13
48
1
60
0
100
AcDbLine
10
38.083343
20
29.499635
30
0
11
38.083343
21
-10.535
31
0
39
0
210
0
220
0
230
1
0
SOLID
5
129
100
AcDbEntity
8
2
62
256
6
ByLayer
370
13
48
1
60
0
100
AcDbTrace
10
38.083343
20
-1.785
30
0
11
38.544126
21
-5.284998
31
0
12
37.622559
22
-5.285002
32
0
13
38.083343
23
-1.785
33
0
39
0
210
0
220
0
230
1
0
SOLID
5
12A
100
AcDbEntity
8
2
62
256
6
ByLayer
370
13
48
1
60
0
100
AcDbTrace
10
38.083343
20
1.785
30
0
11
37.622559
21
5.284998
31
0
12
38.544126
22
5.285002
32
0
13
38.083343
23
1.785
33
0
39
0
210
0
220
0
230
1
0
ENDBLK
5
12C
100
AcDbEntity
8
0
100
AcDbBlockEnd
0
ENDSEC
0
SECTION
2
ENTITIES
0
ARC
5
A1
100
AcDbEntity
8
1
62
256
6
ByLayer
370
18
48
1
60
0
100
AcDbCircle
39
0
10
0
20
2.2
30
0
40
0.799999999999995
210
0
220
0
230
1
100
AcDbArc
50
12.868663
51
90
0
ARC
5
A2
100
AcDbEntity
8
1
62
256
6
ByLayer
370
18
48
1
60
0
100
AcDbCircle
39
0
10
0
20
-2.2
30
0
40
0.799999999999995
210
0
220
0
230
1
100
AcDbArc
50
270
51
347.131337
0
ARC
5
A3
100
AcDbEntity
8
1
62
256
6
ByLayer
370
18
48
1
60
0
100
AcDbCircle
39
0
10
-1.559813
20
2.556347
30
0
40
0.800000000000002
210
0
220
0
230
-1
100
AcDbArc
50
269.931245
51
347.131337
0
ARC
5
A4
100
AcDbEntity
8
1
62
256
6
ByLayer
370
18
48
1
60
0
100
AcDbCircle
39
0
10
-1.559813
20
-2.556347
30
0
40
0.800000000000002
210
0
220
0
230
-1
100
AcDbArc
50
12.868663
51
90.068755
0
ELLIPSE
5
A5
100
AcDbEntity
8
1
62
256
6
ByLayer
370
18
48
1
60
0
100
AcDbEllipse
10
8.25
20
-1.94337
30
0
11
0.25
21
0
31
0
210
0
220
0
230
1
40
1
41
1.58484954746037
42
2.29968036030385
0
ELLIPSE
5
A6
100
AcDbEntity
8
1
62
256
6
ByLayer
370
18
48
1
60
0
100
AcDbEllipse
10
8.25
20
1.94337
30
0
11
0.25
21
0
31
0
210
0
220
0
230
1
40
1
41
-2.30308384950612
42
-1.55216301142585
0
ELLIPSE
5
A7
100
AcDbEntity
8
1
62
256
6
ByLayer
370
13
48
1
60
0
100
AcDbEllipse
10
25.592302
20
0.294646
30
0
11
0.0569094017391153
21
0.0822272460544313
31
0
210
0
220
0
230
1
40
0.464508
41
0.852182322381302
42
2.0849653569643
0
ELLIPSE
5
A8
100
AcDbEntity
8
1
62
256
6
ByLayer
370
18
48
1
60
0
100
AcDbEllipse
10
26.025757
20
-0.005152
30
0
11
0.0409878375479157
21
0.131356221429176
31
0
210
0
220
0
230
-1
40
0.112168
41
-2.35198746493168
42
-1.85843912045179
0
ELLIPSE
5
A9
100
AcDbEntity
8
1
62
256
6
ByLayer
370
13
48
1
60
0
100
AcDbEllipse
10
26.168041
20
0.857333
30
0
11
1.08166260587733
21
-0.39368418582225
31
0
210
0
220
0
230
-1
40
0.706937
41
1.92585417419458
42
2.05551090321365
0
ELLIPSE
5
AA
100
AcDbEntity
8
1
62
256
6
ByLayer
370
18
48
1
60
0
100
AcDbEllipse
10
25.972093
20
0.031793
30
0
11
0.0509214948183114
21
0.0862938759135887
31
0
210
0
220
0
230
-1
40
0.493461
41
-2.04924112061451
42
-0.932230399363862
0
ELLIPSE
5
AB
100
AcDbEntity
8
1
62
256
6
ByLayer
370
18
48
1
60
0
100
AcDbEllipse
10
26.000332
20
0.00078
30
0
11
0.662205365018152
21
1.78354236237297
31
0
210
0
220
0
230
-1
40
0.131755
41
2.84052524245322
42
2.91289133619205
0
ELLIPSE
5
AC
100
AcDbEntity
8
1
62
256
6
ByLayer
370
18
48
1
60
0
100
AcDbEllipse
10
25.398407
20
0.42884
30
0
11
0.572341872249397
21
-0.322502947879751
31
0
210
0
220
0
230
-1
40
0.121682
41
-0.0684581779633575
42
0.0473141373377862
0
ELLIPSE
5
AD
100
AcDbEntity
8
1
62
256
6
ByLayer
370
18
48
1
60
0
100
AcDbEllipse
10
25.978001
20
0.02886
30
0
11
0.0330892488201465
21
0.0951892545226192
31
0
210
0
220
0
230
-1
40
0.178619
41
1.41272274014255
42
2.0361851164218
0
ELLIPSE
5
AE
100
AcDbEntity
8
1
62
256
6
ByLayer
370
18
48
1
60
0
100
AcDbEllipse
10
25.671797
20
-0.873488
30
0
11
0.265604639204467
21
0.715253080464747
31
0
210
0
220
0
230
-1
40
0.131695
41
0.695742456850545
42
1.11892737001585
0
ELLIPSE
5
AF
100
AcDbEntity
8
1
62
256
6
ByLayer
370
18
48
1
60
0
100
AcDbEllipse
10
26.025757
20
0.005152
30
0
11
0.0409878374961204
21
-0.131356221301268
31
0
210
0
220
0
230
-1
40
0.112168
41
1.85843911986803
42
2.35198746473926
0
ELLIPSE
5
B0
100
AcDbEntity
8
1
62
256
6
ByLayer
370
18
48
1
60
0
100
AcDbEllipse
10
25.671797
20
0.873488
30
0
11
0.265604639368043
21
-0.715253080801637
31
0
210
0
220
0
230
-1
40
0.131695
41
-1.11892736976112
42
-0.695742456747761
0
ELLIPSE
5
B1
100
AcDbEntity
8
1
62
256
6
ByLayer
370
18
48
1
60
0
100
AcDbEllipse
10
26.000332
20
-0.00078
30
0
11
0.662205392854398
21
-1.78354244617168
31
0
210
0
220
0
230
-1
40
0.131755
41
-2.91289134160945
42
-2.84052524960783
0
POINT
5
6C
100
AcDbEntity
8
81
62
256
6
ByLayer
370
18
48
1
60
0
100
AcDbPoint
10
26
20
0
30
0
39
0
210
0
220
0
230
1
50
360
0
POINT
5
6E
100
AcDbEntity
8
80
62
256
6
ByLayer
370
18
48
1
60
0
100
AcDbPoint
10
0
20
0
30
0
39
0
210
0
220
0
230
1
50
360
0
POINT
5
70
100
AcDbEntity
8
SK2
62
256
6
ByLayer
370
18
48
1
60
1
100
AcDbPoint
10
-36
20
-3
30
0
39
0
210
0
220
0
230
1
50
360
0
POINT
5
72
100
AcDbEntity
8
SK2
62
256
6
ByLayer
370
18
48
1
60
1
100
AcDbPoint
10
-36
20
3
30
0
39
0
210
0
220
0
230
1
50
360
0
POINT
5
73
100
AcDbEntity
8
2
62
256
6
ByLayer
370
18
48
1
60
1
100
AcDbPoint
10
25.4
20
-1.785
30
0
39
0
210
0
220
0
230
1
50
360
0
POINT
5
75
100
AcDbEntity
8
2
62
256
6
ByLayer
370
18
48
1
60
1
100
AcDbPoint
10
25.4
20
1.785
30
0
39
0
210
0
220
0
230
1
50
360
0
SPLINE
5
B2
100
AcDbEntity
8
1
62
256
6
ByLayer
370
18
48
1
60
0
100
AcDbSpline
70
4
71
3
72
14
73
10
40
0
40
0
40
0
40
0
40
0.191192941312082
40
0.357715696855753
40
0.461199971484983
40
0.544987406511846
40
0.655047592274051
40
0.811192677047192
40
1
40
1
40
1
40
1
41
1
10
8.25052573470293
20
-1.69325526614847
30
0
41
1
10
8.40488117062546
20
-1.69356632766795
30
0
41
1
10
8.6936796587479
20
-1.69395945901638
30
0
41
1
10
9.06603331646826
20
-1.69426557131249
30
0
41
1
10
9.35168218807601
20
-1.69391967188218
30
0
41
1
10
9.59175016845506
20
-1.69459740339335
30
0
41
1
10
9.87433715265541
20
-1.69545053784464
30
0
41
1
10
10.2417145408445
20
-1.69446942454826
30
0
41
1
10
10.5202322508782
20
-1.6953700292018
30
0
41
1
10
10.6726772898136
20
-1.69601040718678
30
0
0
SPLINE
5
B3
100
AcDbEntity
8
1
62
256
6
ByLayer
370
18
48
1
60
0
100
AcDbSpline
70
4
71
3
72
25
73
21
40
0
40
0
40
0
40
0
40
2.00511937868E-05
40
0.0001021971391033
40
0.0004751557311085
40
0.0008039641714879
40
0.001392998787253
40
0.0024508660270097
40
0.0043593074068168
40
0.0078301555005268
40
0.0142344604721298
40
0.026357686790906
40
0.0503280575892529
40
0.100978156431718
40
0.26327765505137
40
0.454212256574116
40
0.672204974878923
40
0.736225772723195
40
0.839715777506506
40
1
40
1
40
1
40
1
41
1
10
20.5660702070092
20
-0.407728452084285
30
0
41
1
10
20.5660692135884
20
-0.407728621008886
30
0
41
1
10
20.5660662676351
20
-0.407729733836646
30
0
41
1
10
20.5661100151071
20
-0.407741697354027
30
0
41
1
10
20.5662740859204
20
-0.407771974092128
30
0
41
1
10
20.5662199327436
20
-0.407784402018365
30
0
41
1
10
20.5662662027218
20
-0.40781803133163
30
0
41
1
10
20.566286944876
20
-0.407870574346816
30
0
41
1
10
20.5664171592072
20
-0.40797391346544
30
0
41
1
10
20.5667698678783
20
-0.408168683888078
30
0
41
1
10
20.5679060581861
20
-0.40856504299623
30
0
41
1
10
20.5715474980764
20
-0.409436895037288
30
0
41
1
10
20.5834988697838
20
-0.411645887271817
30
0
41
1
10
20.6331636849338
20
-0.419930422184621
30
0
41
1
10
20.7485117596386
20
-0.446454923969583
30
0
41
1
10
20.9130874039261
20
-0.497134188525962
30
0
41
1
10
21.0848485094382
20
-0.568275649951801
30
0
41
1
10
21.2520087999454
20
-0.646864602780397
30
0
41
1
10
21.4097840979044
20
-0.726828987915809
30
0
41
1
10
21.5371029117327
20
-0.795050219160402
30
0
41
1
10
21.6166258549179
20
-0.83926522758739
30
0
0
SPLINE
5
B4
100
AcDbEntity
8
1
62
256
6
ByLayer
370
18
48
1
60
0
100
AcDbSpline
70
4
71
3
72
23
73
19
40
0
40
0
40
0
40
0
40
7.95715900295E-05
40
0.0004729763253169
40
0.0008199238283771
40
0.0014414926482412
40
0.0025579119382803
40
0.0045723576900291
40
0.0082370876473284
40
0.0150020934658757
40
0.0278148063202538
40
0.0531566825265483
40
0.106671499956023
40
0.277488437473636
40
0.474296533428535
40
0.694235360645623
40
0.820156901524484
40
1
40
1
40
1
40
1
41
1
10
11.5650717319455
20
-0.407635160317454
30
0
41
1
10
11.565070019442
20
-0.407635970420529
30
0
41
1
10
11.5650926101761
20
-0.407644677179348
30
0
41
1
10
11.5652937028032
20
-0.407678162009148
30
0
41
1
10
11.5652354143505
20
-0.407689007171911
30
0
41
1
10
11.5653011575176
20
-0.407723030996436
30
0
41
1
10
11.5653404214944
20
-0.407774566340635
30
0
41
1
10
11.5655123707532
20
-0.407877191321887
30
0
41
1
10
11.5659298084653
20
-0.408070091883047
30
0
41
1
10
11.5671732000966
20
-0.408463667457596
30
0
41
1
10
11.5709626983804
20
-0.409330361882922
30
0
41
1
10
11.5830185058014
20
-0.411526284517265
30
0
41
1
10
11.6323006760425
20
-0.41972394163966
30
0
41
1
10
11.7424202389727
20
-0.445089132516699
30
0
41
1
10
11.9012400042392
20
-0.49315238804482
30
0
41
1
10
12.08953673958
20
-0.569535970090215
30
0
41
1
10
12.3132081827819
20
-0.676478520999098
30
0
41
1
10
12.4489209549038
20
-0.747892162455457
30
0
41
1
10
12.5322616563159
20
-0.793862922423017
30
0
0
SPLINE
5
B5
100
AcDbEntity
8
1
62
256
6
ByLayer
370
18
48
1
60
0
100
AcDbSpline
70
4
71
3
72
18
73
14
40
0
40
0
40
0
40
0
40
0.138832326209911
40
0.226023169160329
40
0.287577545637309
40
0.352092179168612
40
0.41718082528256
40
0.479944416273351
40
0.652934114483723
40
0.707019715162111
40
0.784675988707432
40
0.885946934768988
40
1
40
1
40
1
40
1
41
1
10
16.0554624342561
20
-1.70254722826292
30
0
41
1
10
16.2231169935674
20
-1.70271297552529
30
0
41
1
10
16.4960726414744
20
-1.70305904602651
30
0
41
1
10
16.8433818675517
20
-1.70310357738168
30
0
41
1
10
17.100947430276
20
-1.70391413325012
30
0
41
1
10
17.3318176385981
20
-1.70421131977605
30
0
41
1
10
17.5641488407445
20
-1.70381240463922
30
0
41
1
10
17.927486372319
20
-1.70345448522863
30
0
41
1
10
18.2775383315988
20
-1.70465821812741
30
0
41
1
10
18.6455762921911
20
-1.70587264486025
30
0
41
1
10
18.9269942633902
20
-1.70526740033429
30
0
41
1
10
19.2808380568227
20
-1.70436220852986
30
0
41
1
10
19.5408870932865
20
-1.7057815525389
30
0
41
1
10
19.6786290481398
20
-1.70691968702468
30
0
0
SPLINE
5
B6
100
AcDbEntity
8
1
62
256
6
ByLayer
370
18
48
1
60
0
100
AcDbSpline
70
4
71
3
72
13
73
9
40
0
40
0
40
0
40
0
40
0.19179737310751
40
0.351533385515521
40
0.475295161881488
40
0.597443597902223
40
0.781252509831707
40
1
40
1
40
1
40
1
41
1
10
10.671343762809
20
1.69600658054381
30
0
41
1
10
10.5165969253762
20
1.69535433268555
30
0
41
1
10
10.2329687796544
20
1.69440596819968
30
0
41
1
10
9.8493348934673
20
1.69553516168528
30
0
41
1
10
9.52213366081793
20
1.69419522359271
30
0
41
1
10
9.17530688309316
20
1.69408883864295
30
0
41
1
10
8.75190452176454
20
1.69404465025295
30
0
41
1
10
8.42704598148231
20
1.69357579552923
30
0
41
1
10
8.25052291454122
20
1.69324085769196
30
0
0
SPLINE
5
B7
100
AcDbEntity
8
1
62
256
6
ByLayer
370
18
48
1
60
0
100
AcDbSpline
70
4
71
3
72
10
73
6
40
0
40
0
40
0
40
0
40
0.182337036030292
40
0.575644601030073
40
1
40
1
40
1
40
1
41
1
10
15.4393271278321
20
-0.158038661714954
30
0
41
1
10
15.4392503828329
20
-0.157909949166083
30
0
41
1
10
15.4361601125466
20
-0.155936317802258
30
0
41
1
10
15.4113982719782
20
-0.141211823590624
30
0
41
1
10
15.3770979863368
20
-0.120738640390812
30
0
41
1
10
15.3547703610857
20
-0.107431888328449
30
0
0
SPLINE
5
B8
100
AcDbEntity
8
1
62
256
6
ByLayer
370
18
48
1
60
0
100
AcDbSpline
70
4
71
2
72
6
73
3
40
0
40
0
40
0
40
1
40
1
40
1
41
1
10
25.0129884229833
20
-1.71307068399946
30
0
41
1
10
25.1956585854603
20
-1.71298958341254
30
0
41
1
10
25.3786869788931
20
-1.71385858421772
30
0
0
SPLINE
5
B9
100
AcDbEntity
8
1
62
256
6
ByLayer
370
18
48
1
60
0
100
AcDbSpline
70
4
71
3
72
15
73
11
40
0
40
0
40
0
40
0
40
0.170404104706554
40
0.285709294821918
40
0.356415719580797
40
0.554317416375858
40
0.745020534786861
40
0.793350964263668
40
0.877991442910738
40
1
40
1
40
1
40
1
41
1
10
19.7184764491687
20
1.70711802940852
30
0
41
1
10
19.5427547797773
20
1.70576288028738
30
0
41
1
10
19.24812884544
20
1.70433266018406
30
0
41
1
10
18.8805918948057
20
1.70543784398262
30
0
41
1
10
18.4846911287611
20
1.7059023326203
30
0
41
1
10
18.0110415926474
20
1.70356689719012
30
0
41
1
10
17.5604747490789
20
1.70394385623308
30
0
41
1
10
17.2266782314215
20
1.70417169629451
30
0
41
1
10
16.9638489492874
20
1.70340871419512
30
0
41
1
10
16.7507211772803
20
1.70314670242473
30
0
41
1
10
16.6249122833284
20
1.7030107575369
30
0
0
SPLINE
5
BA
100
AcDbEntity
8
1
62
256
6
ByLayer
370
18
48
1
60
0
100
AcDbSpline
70
4
71
3
72
16
73
12
40
0
40
0
40
0
40
0
40
0.165455309453336
40
0.165455309453336
40
0.451454335258277
40
0.451454335258277
40
0.594453848160748
40
0.594453848160748
40
0.737453361063219
40
0.737453361063219
40
1
40
1
40
1
40
1
41
1
10
16.0760491214545
20
-1.70250245127116
30
0
41
1
10
15.973085686187
20
-1.70243324251888
30
0
41
1
10
15.8701578499905
20
-1.69906192926081
30
0
41
1
10
15.5889903613361
20
-1.68086142151915
30
0
41
1
10
15.4104717527169
20
-1.65955997216764
30
0
41
1
10
15.1408323931791
20
-1.61283481499242
30
0
41
1
10
15.0504641492136
20
-1.59472828956689
30
0
41
1
10
14.8707159727209
20
-1.55402266460507
30
0
41
1
10
14.7811464205382
20
-1.53141641105819
30
0
41
1
10
14.5277245635623
20
-1.46122799326025
30
0
41
1
10
14.3642614810694
20
-1.4086129517851
30
0
41
1
10
14.2007950941307
20
-1.34944615511651
30
0
0
SPLINE
5
BB
100
AcDbEntity
8
1
62
256
6
ByLayer
370
13
48
1
60
0
100
AcDbSpline
70
4
71
3
72
24
73
20
40
0
40
0
40
0
40
0
40
0.100966066793159
40
0.100966066793159
40
0.194280220672192
40
0.194280220672192
40
0.287594374551225
40
0.287594374551225
40
0.474222682309292
40
0.474222682309292
40
0.567536836188325
40
0.567536836188325
40
0.660850990067357
40
0.660850990067357
40
0.75416514394639
40
0.75416514394639
40
0.847479297825423
40
0.847479297825423
40
1
40
1
40
1
40
1
41
1
10
14.2007950941695
20
-1.34944615513058
30
0
41
1
10
14.0081249287048
20
-1.27970902618657
30
0
41
1
10
13.8154501726276
20
-1.20087004721901
30
0
41
1
10
13.4427939529205
20
-1.03361917153751
30
0
41
1
10
13.2620458237034
20
-0.94580521545123
30
0
41
1
10
12.9029638121522
20
-0.761408573359432
30
0
41
1
10
12.7244766600837
20
-0.664840960263746
30
0
41
1
10
12.1898757333867
20
-0.365774856295559
30
0
41
1
10
11.8344744347227
20
-0.154037676303375
30
0
41
1
10
11.293588609159
20
0.166516271388247
30
0
41
1
10
11.1141262659194
20
0.272418432163846
30
0
41
1
10
10.7568627906562
20
0.478562215194273
30
0
41
1
10
10.5787942524979
20
0.578936131433153
30
0
41
1
10
10.2224449720204
20
0.772390381147886
30
0
41
1
10
10.0440846394254
20
0.865314345847054
30
0
41
1
10
9.68523150957921
20
1.04065890724885
30
0
41
1
10
9.50413921022539
20
1.1232029623786
30
0
41
1
10
9.03127416466802
20
1.32057889176704
30
0
41
1
10
8.74005524257501
20
1.42350216041592
30
0
41
1
10
8.4472230063775
20
1.50292479625889
30
0
0
SPLINE
5
BC
100
AcDbEntity
8
1
62
256
6
ByLayer
370
18
48
1
60
0
100
AcDbSpline
70
4
71
3
72
32
73
28
40
0
40
0
40
0
40
0
40
0.124999999999998
40
0.124999999999998
40
0.249999999999995
40
0.249999999999995
40
0.499999999999996
40
0.499999999999996
40
0.562499999999994
40
0.562499999999994
40
0.624999999999993
40
0.624999999999993
40
0.687499999999992
40
0.687499999999992
40
0.74999999999999
40
0.74999999999999
40
0.781249999999992
40
0.781249999999992
40
0.812499999999993
40
0.812499999999993
40
0.874999999999996
40
0.874999999999996
40
0.937499999999999
40
0.937499999999999
40
0.96875
40
0.96875
40
1
40
1
40
1
40
1
41
1
10
23.9061601598892
20
0.16015143057848
30
0
41
1
10
23.9881141251397
20
0.102014419460858
30
0
41
1
10
24.0710418517569
20
0.0465460627086429
30
0
41
1
10
24.2397756997261
20
-0.0560878675631784
30
0
41
1
10
24.3251651364419
20
-0.103020368566888
30
0
41
1
10
24.584794211269
20
-0.228978351103962
30
0
41
1
10
24.7628741298079
20
-0.293497041159043
30
0
41
1
10
24.9866110545653
20
-0.341755173349355
30
0
41
1
10
25.0315340617021
20
-0.349388776249015
30
0
41
1
10
25.1204380428145
20
-0.355806430858053
30
0
41
1
10
25.1645058888597
20
-0.35566143362135
30
0
41
1
10
25.2516289241121
20
-0.346530304471258
30
0
41
1
10
25.2945088368967
20
-0.337132777490382
30
0
41
1
10
25.37504152164
20
-0.304639975306628
30
0
41
1
10
25.4134444446612
20
-0.28093694561835
30
0
41
1
10
25.4619550281453
20
-0.232201649940464
30
0
41
1
10
25.4767969636339
20
-0.213431413952378
30
0
41
1
10
25.5013220161085
20
-0.171681545355824
30
0
41
1
10
25.5106575379845
20
-0.147689811420491
30
0
41
1
10
25.5300965256406
20
-0.0713972416565412
30
0
41
1
10
25.5318365968494
20
-0.0149648462192431
30
0
41
1
10
25.517414009837
20
0.096860564447951
30
0
41
1
10
25.5013665432499
20
0.152432674120092
30
0
41
1
10
25.4711478476639
20
0.232365705513558
30
0
41
1
10
25.4597085891452
20
0.258367377201722
30
0
41
1
10
25.4382157966605
20
0.311028220043738
30
0
41
1
10
25.4278784874597
20
0.337551258659687
30
0
41
1
10
25.4177833928554
20
0.364188343167143
30
0
0
SPLINE
5
BD
100
AcDbEntity
8
1
62
256
6
ByLayer
370
18
48
1
60
0
100
AcDbSpline
70
4
71
3
72
8
73
4
40
0
40
0
40
0
40
0
40
1
40
1
40
1
40
1
41
1
10
9.02698815333406
20
-1.42219143606147
30
0
41
1
10
8.76570863548699
20
-1.33825925185451
30
0
41
1
10
8.50790515731296
20
-1.23539245650025
30
0
41
1
10
8.25067271536167
20
-1.11377681310657
30
0
0
SPLINE
5
BE
100
AcDbEntity
8
1
62
256
6
ByLayer
370
18
48
1
60
0
100
AcDbSpline
70
4
71
3
72
22
73
18
40
0
40
0
40
0
40
0
40
0.0624999999999982
40
0.0624999999999982
40
0.124999999999996
40
0.124999999999996
40
0.249999999999996
40
0.249999999999996
40
0.374999999999995
40
0.374999999999995
40
0.499999999999995
40
0.499999999999995
40
0.624999999999994
40
0.624999999999994
40
0.749999999999994
40
0.749999999999994
40
1
40
1
40
1
40
1
41
1
10
23.9061601598892
20
0.160151430578509
30
0
41
1
10
23.91319340885
20
0.117540614537631
30
0
41
1
10
23.9222142733281
20
0.075082014614992
30
0
41
1
10
23.9441107972776
20
-0.0095399762591057
30
0
41
1
10
23.9570814091648
20
-0.0519319951348507
30
0
41
1
10
24.0006486078521
20
-0.175893083309631
30
0
41
1
10
24.0359498207139
20
-0.254929546984584
30
0
41
1
10
24.1169491225912
20
-0.407012930663967
30
0
41
1
10
24.1628007154665
20
-0.480071005542243
30
0
41
1
10
24.260162950616
20
-0.616703550971181
30
0
41
1
10
24.3120288403217
20
-0.680994764215541
30
0
41
1
10
24.4209658275408
20
-0.802998612985306
30
0
41
1
10
24.4782880688907
20
-0.860905843159571
30
0
41
1
10
24.5963987413154
20
-0.969942961672984
30
0
41
1
10
24.6568030212876
20
-1.02076724446229
30
0
41
1
10
24.8414080875956
20
-1.16394999304731
30
0
41
1
10
24.9689379741296
20
-1.24719123921832
30
0
41
1
10
25.1001487884336
20
-1.32035173536582
30
0
0
SPLINE
5
BF
100
AcDbEntity
8
1
62
256
6
ByLayer
370
18
48
1
60
0
100
AcDbSpline
70
4
71
3
72
12
73
8
40
0
40
0
40
0
40
0
40
0.5
40
0.5
40
0.75
40
0.75
40
1
40
1
40
1
40
1
41
1
10
25.4107630945464
20
-1.7016967791709
30
0
41
1
10
25.4152362011352
20
-1.69895137196934
30
0
41
1
10
25.4183200938211
20
-1.70037413676806
30
0
41
1
10
25.4186642376577
20
-1.71305169192951
30
0
41
1
10
25.418015515155
20
-1.71913630664605
30
0
41
1
10
25.4147060099678
20
-1.73530749074405
30
0
41
1
10
25.4120444757251
20
-1.74529089170588
30
0
41
1
10
25.4086447144007
20
-1.75610241728543
30
0
0
SPLINE
5
C0
100
AcDbEntity
8
1
62
256
6
ByLayer
370
18
48
1
60
0
100
AcDbSpline
70
4
71
3
72
10
73
6
40
0
40
0
40
0
40
0
40
0.5
40
0.5
40
1
40
1
40
1
40
1
41
1
10
8.19989504899274
20
1.58390935646992
30
0
41
1
10
8.18243000090541
20
1.58861995877734
30
0
41
1
10
8.1653670450369
20
1.59346976730706
30
0
41
1
10
8.13285151214308
20
1.60380887466036
30
0
41
1
10
8.11735882544986
20
1.60928753092972
30
0
41
1
10
8.10402494069908
20
1.61568602399638
30
0
0
SPLINE
5
C1
100
AcDbEntity
8
1
62
256
6
ByLayer
370
18
48
1
60
0
100
AcDbSpline
70
4
71
3
72
10
73
6
40
0
40
0
40
0
40
0
40
0.5
40
0.5
40
1
40
1
40
1
40
1
41
1
10
8.25067271481777
20
-1.11377681284935
30
0
41
1
10
8.21945519806553
20
-1.0990176387848
30
0
41
1
10
8.18881014467334
20
-1.0884293198788
30
0
41
1
10
8.12900345989817
20
-1.07623705299153
30
0
41
1
10
8.1005563353601
20
-1.07491543110587
30
0
41
1
10
8.07580224122202
20
-1.07940608171981
30
0
0
SPLINE
5
C2
100
AcDbEntity
8
1
62
256
6
ByLayer
370
13
48
1
60
0
100
AcDbSpline
70
4
71
3
72
12
73
8
40
0
40
0
40
0
40
0
40
0.388343257213011
40
0.388343257213011
40
0.776686514426022
40
0.776686514426022
40
1
40
1
40
1
40
1
41
1
10
8.25048404920932
20
1.55263763424938
30
0
41
1
10
8.25050767273606
20
1.58852003634979
30
0
41
1
10
8.2505258477899
20
1.61751035859655
30
0
41
1
10
8.25055422446377
20
1.66203305807511
30
0
41
1
10
8.25056445497543
20
1.67758593450006
30
0
41
1
10
8.25057613051865
20
1.69073104825702
30
0
41
1
10
8.25057949164921
20
1.69320373077866
30
0
41
1
10
8.25058223309554
20
1.69336959451556
30
0
0
SPLINE
5
C3
100
AcDbEntity
8
1
62
256
6
ByLayer
370
18
48
1
60
0
100
AcDbSpline
70
4
71
3
72
14
73
10
40
0
40
0
40
0
40
0
40
0.25
40
0.25
40
0.5
40
0.5
40
0.75
40
0.75
40
1
40
1
40
1
40
1
41
1
10
25.3624464557557
20
-1.71057257542418
30
0
41
1
10
25.3290425236433
20
-1.70546228442345
30
0
41
1
10
25.297922155499
20
-1.6938035018855
30
0
41
1
10
25.2406324927772
20
-1.6562879271126
30
0
41
1
10
25.2146168552788
20
-1.63032067301907
30
0
41
1
10
25.1698459055046
20
-1.56532456962759
30
0
41
1
10
25.1508030864642
20
-1.5261537098942
30
0
41
1
10
25.119807290742
20
-1.43365882621259
30
0
41
1
10
25.1078728142534
20
-1.37995792311034
30
0
41
1
10
25.1001487884335
20
-1.32035173536585
30
0
0
SPLINE
5
C4
100
AcDbEntity
8
1
62
256
6
ByLayer
370
13
48
1
60
0
100
AcDbSpline
70
4
71
3
72
8
73
4
40
0
40
0
40
0
40
0
40
1
40
1
40
1
40
1
41
1
10
25.6010172727607
20
0.368677682474782
30
0
41
1
10
25.5495613727884
20
0.400319852250078
30
0
41
1
10
25.4994635226679
20
0.435214698440831
30
0
41
1
10
25.4511232996183
20
0.474284192877292
30
0
0
SPLINE
5
C5
100
AcDbEntity
8
1
62
256
6
ByLayer
370
18
48
1
60
0
100
AcDbSpline
70
4
71
3
72
18
73
14
40
0
40
0
40
0
40
0
40
0.125000000000001
40
0.125000000000001
40
0.250000000000003
40
0.250000000000003
40
0.500000000000005
40
0.500000000000005
40
0.750000000000008
40
0.750000000000008
40
0.875000000000004
40
0.875000000000004
40
1
40
1
40
1
40
1
41
1
10
25.788204852626
20
-0.540810993880058
30
0
41
1
10
25.7902493147176
20
-0.54642344151469
30
0
41
1
10
25.790545022159
20
-0.556323479556511
30
0
41
1
10
25.7872646530726
20
-0.584928410957815
30
0
41
1
10
25.7836975810244
20
-0.603322574029846
30
0
41
1
10
25.767749203013
20
-0.667782777080419
30
0
41
1
10
25.7501743354911
20
-0.722246375274096
30
0
41
1
10
25.7115086109328
20
-0.825639363052943
30
0
41
1
10
25.6902230245036
20
-0.875454027866567
30
0
41
1
10
25.6609852443307
20
-0.935809147364409
30
0
41
1
10
25.6515320502826
20
-0.953885527546902
30
0
41
1
10
25.6340221086721
20
-0.98441223632841
30
0
41
1
10
25.6260299915073
20
-0.996797038473744
30
0
41
1
10
25.6188575424835
20
-1.00608890452961
30
0
0
SPLINE
5
C6
100
AcDbEntity
8
1
62
256
6
ByLayer
370
18
48
1
60
0
100
AcDbSpline
70
4
71
3
72
12
73
8
40
0
40
0
40
0
40
0
40
0.5
40
0.5
40
0.75
40
0.75
40
1
40
1
40
1
40
1
41
1
10
25.4511232996193
20
0.474284192880361
30
0
41
1
10
25.5253357056987
20
0.482921136040403
30
0
41
1
10
25.5988992857072
20
0.493843220075235
30
0
41
1
10
25.7066062450482
20
0.519423985673541
30
0
41
1
10
25.7422152572824
20
0.529564786987748
30
0
41
1
10
25.8105966121724
20
0.555522090371909
30
0
41
1
10
25.8437634679733
20
0.571385812716102
30
0
41
1
10
25.8725140837716
20
0.592642450605325
30
0
0
SPLINE
5
C7
100
AcDbEntity
8
1
62
256
6
ByLayer
370
18
48
1
60
0
100
AcDbSpline
70
4
71
3
72
64
73
60
40
0
40
0
40
0
40
0
40
0.0007506143549798
40
0.0007506143549798
40
0.0373668428629174
40
0.0373668428629174
40
0.0739830713708549
40
0.0739830713708549
40
0.110599299878792
40
0.110599299878792
40
0.14721552838673
40
0.14721552838673
40
0.183831756894668
40
0.183831756894668
40
0.220447985402605
40
0.220447985402605
40
0.257064213910543
40
0.257064213910543
40
0.29368044241848
40
0.29368044241848
40
0.330296670926418
40
0.330296670926418
40
0.366912899434355
40
0.366912899434355
40
0.403529127942293
40
0.403529127942293
40
0.440145356450231
40
0.440145356450231
40
0.476761584958168
40
0.476761584958168
40
0.513377813466106
40
0.513377813466106
40
0.549994041974043
40
0.549994041974043
40
0.586610270481981
40
0.586610270481981
40
0.623226498989918
40
0.623226498989918
40
0.659842727497856
40
0.659842727497856
40
0.696458956005793
40
0.696458956005793
40
0.733075184513731
40
0.733075184513731
40
0.769691413021669
40
0.769691413021669
40
0.806307641529606
40
0.806307641529606
40
0.842923870037544
40
0.842923870037544
40
0.879540098545481
40
0.879540098545481
40
0.916156327053419
40
0.916156327053419
40
0.952772555561356
40
0.952772555561356
40
0.989388784069294
40
0.989388784069294
40
1
40
1
40
1
40
1
41
1
10
13.1374073618986
20
1.10689945317972
30
0
41
1
10
13.1402950313143
20
1.10829838184262
30
0
41
1
10
13.1431826940662
20
1.10969588653333
30
0
41
1
10
13.2869350540615
20
1.17919510802767
30
0
41
1
10
13.4284489012582
20
1.24304366724599
30
0
41
1
10
13.7129632185032
20
1.36194652963673
30
0
41
1
10
13.8554967492363
20
1.41746697955588
30
0
41
1
10
14.1390421698927
20
1.51572950448073
30
0
41
1
10
14.2803077991003
20
1.55921322773509
30
0
41
1
10
14.5616187195741
20
1.63509039185109
30
0
41
1
10
14.7023256129725
20
1.66699064598072
30
0
41
1
10
14.9841853787101
20
1.71870670257863
30
0
41
1
10
15.1247743892127
20
1.7387025287014
30
0
41
1
10
15.4081306798046
20
1.76563718272283
30
0
41
1
10
15.5512471947499
20
1.7727614281236
30
0
41
1
10
15.8351817037315
20
1.77382226727315
30
0
41
1
10
15.9765696326542
20
1.7677883745252
30
0
41
1
10
16.2587641957533
20
1.74318538876963
30
0
41
1
10
16.3989629504396
20
1.72438299208898
30
0
41
1
10
16.6803174741136
20
1.67476502580473
30
0
41
1
10
16.8213042942292
20
1.6440009105086
30
0
41
1
10
17.103288873069
20
1.56991823436718
30
0
41
1
10
17.244909588062
20
1.52698477410161
30
0
41
1
10
17.5302260098585
20
1.42985462310816
30
0
41
1
10
17.6718533463116
20
1.37546201816545
30
0
41
1
10
17.9543769385888
20
1.25839815067707
30
0
41
1
10
18.0954269108438
20
1.19567880361799
30
0
41
1
10
18.3763439254486
20
1.0609836853445
30
0
41
1
10
18.5167978071441
20
0.989709506772243
30
0
41
1
10
18.7987126066359
20
0.840767716013204
30
0
41
1
10
18.9395044516225
20
0.762118052711827
30
0
41
1
10
19.223158465622
20
0.599784008688147
30
0
41
1
10
19.3664388707997
20
0.516077766402333
30
0
41
1
10
19.649493612971
20
0.345312316071329
30
0
41
1
10
19.7903693495877
20
0.258820397055388
30
0
41
1
10
20.0720838764494
20
0.0856962373548811
30
0
41
1
10
20.212238758421
20
-0.0020574746757802
30
0
41
1
10
20.4932930009736
20
-0.17642376608805
30
0
41
1
10
20.6344124890363
20
-0.262674315794129
30
0
41
1
10
20.916779360012
20
-0.435046837766834
30
0
41
1
10
21.0589938323819
20
-0.52067409704253
30
0
41
1
10
21.3437228667545
20
-0.686335695289785
30
0
41
1
10
21.4848464188502
20
-0.767064039998331
30
0
41
1
10
21.7665085643451
20
-0.921508073234037
30
0
41
1
10
21.9074063315283
20
-0.994775111738363
30
0
41
1
10
22.1881732272345
20
-1.1350686212148
30
0
41
1
10
22.3284391565733
20
-1.20150335855234
30
0
41
1
10
22.6105200165712
20
-1.32477623473852
30
0
41
1
10
22.7516631828087
20
-1.38240664188862
30
0
41
1
10
23.0356674429425
20
-1.48765200159912
30
0
41
1
10
23.1784512267708
20
-1.53453554561341
30
0
41
1
10
23.4608159752983
20
-1.61701412066304
30
0
41
1
10
23.601231412616
20
-1.65243484770733
30
0
41
1
10
23.8825522125749
20
-1.71065635819724
30
0
41
1
10
24.0228210827275
20
-1.73383950517822
30
0
41
1
10
24.3036431142606
20
-1.76762747857609
30
0
41
1
10
24.4449026444257
20
-1.77810305863559
30
0
41
1
10
24.6273791235946
20
-1.78339030838109
30
0
41
1
10
24.6684527283914
20
-1.78402473117322
30
0
41
1
10
24.7095743117814
20
-1.78410789010746
30
0
0
SPLINE
5
C8
100
AcDbEntity
8
1
62
256
6
ByLayer
370
18
48
1
60
0
100
AcDbSpline
70
4
71
3
72
12
73
8
40
0
40
0
40
0
40
0
40
0.427872618544595
40
0.427872618544595
40
0.855745237089189
40
0.855745237089189
40
1
40
1
40
1
40
1
41
1
10
8.07556504260646
20
1.64291194934745
30
0
41
1
10
8.07560076735257
20
1.67741723948979
30
0
41
1
10
8.07562651593511
20
1.70460675525769
30
0
41
1
10
8.07566330656149
20
1.74444809148537
30
0
41
1
10
8.0756742990468
20
1.75703226530607
30
0
41
1
10
8.075682453046
20
1.76348759977159
30
0
41
1
10
8.07568397229443
20
1.76425699690316
30
0
41
1
10
8.07568506462297
20
1.76416519606704
30
0
0
SPLINE
5
C9
100
AcDbEntity
8
1
62
256
6
ByLayer
370
18
48
1
60
0
100
AcDbSpline
70
4
71
3
72
8
73
4
40
0
40
0
40
0
40
0
40
1
40
1
40
1
40
1
41
1
10
25.362446455756
20
-1.71057257542421
30
0
41
1
10
25.366821845622
20
-1.7125822299457
30
0
41
1
10
25.371555789749
20
-1.71356712569283
30
0
41
1
10
25.3766442051809
20
-1.7135389318756
30
0
0
SPLINE
5
CA
100
AcDbEntity
8
1
62
256
6
ByLayer
370
18
48
1
60
0
100
AcDbSpline
70
4
71
3
72
68
73
64
40
0
40
0
40
0
40
0
40
0.0163134574761503
40
0.0163134574761503
40
0.0963946112371741
40
0.0963946112371741
40
0.176475764998198
40
0.176475764998198
40
0.21651634187871
40
0.21651634187871
40
0.256556918759222
40
0.256556918759222
40
0.416719226281269
40
0.416719226281269
40
0.456759803161781
40
0.456759803161781
40
0.476780091602037
40
0.476780091602037
40
0.486790235822165
40
0.489292771877197
40
0.490544039904713
40
0.490544039904713
40
0.490856856911592
40
0.490856856911592
40
0.491169673918471
40
0.491169673918471
40
0.491795307932229
40
0.491795307932229
40
0.496800380042293
40
0.496800380042293
40
0.51682066848255
40
0.51682066848255
40
0.536840956922807
40
0.536840956922807
40
0.576881533803321
40
0.576881533803321
40
0.656962687564349
40
0.656962687564349
40
0.737043841325377
40
0.737043841325377
40
0.757064129765635
40
0.757064129765635
40
0.767074273985763
40
0.767074273985763
40
0.769576810040795
40
0.769576810040795
40
0.770202444054553
40
0.770202444054553
40
0.770515261061432
40
0.770515261061432
40
0.770828078068311
40
0.770828078068311
40
0.772079346095827
40
0.777084418205892
40
0.817124995086408
40
0.817124995086408
40
0.89720614884744
40
0.89720614884744
40
0.937246725727956
40
0.937246725727956
40
0.977287302608472
40
0.977287302608472
40
1
40
1
40
1
40
1
41
1
10
11.8748635210574
20
-0.412150965431437
30
0
41
1
10
11.840958481773
20
-0.394753881636945
30
0
41
1
10
11.8070139511172
20
-0.377566468054283
30
0
41
1
10
11.6061721115188
20
-0.277340874704265
30
0
41
1
10
11.4375833250495
20
-0.199248037834309
30
0
41
1
10
11.0990118004849
20
-0.0604544771707936
30
0
41
1
10
10.9300276666058
20
-0.0001635141926499
30
0
41
1
10
10.675177688384
20
0.0731560534366622
30
0
41
1
10
10.5899905922975
20
0.0947458368623302
30
0
41
1
10
10.4187510768868
20
0.13171232228953
30
0
41
1
10
10.332396305344
20
0.147125936261574
30
0
41
1
10
9.90125792192379
20
0.207049245411099
30
0
41
1
10
9.56147820397723
20
0.199449098160045
30
0
41
1
10
9.12682132318002
20
0.128825703887259
30
0
41
1
10
9.03923535537402
20
0.111640587730562
30
0
41
1
10
8.90741680631771
20
0.0817104500283676
30
0
41
1
10
8.86344670451572
20
0.071054362630008
30
0
41
1
10
8.79744599997036
20
0.0541128123803105
30
0
41
1
10
8.76993728868473
20
0.0468546972150534
30
0
41
1
10
8.73966684076754
20
0.0386064534596926
30
0
41
1
10
8.73141040021733
20
0.0363355102483069
30
0
41
1
10
8.7279700939946
20
0.0353863212725969
30
0
41
1
10
8.726841252122
20
0.0354863702951604
30
0
41
1
10
8.72662233312914
20
0.0342415919354835
30
0
41
1
10
8.72730679028135
20
0.0336978826143195
30
0
41
1
10
8.7287302397651
20
0.0321758219903359
30
0
41
1
10
8.72980640399379
20
0.0312473486972067
30
0
41
1
10
8.73956394769434
20
0.0230176964487896
30
0
41
1
10
8.74916423977947
20
0.0165171530915131
30
0
41
1
10
8.79647029998301
20
-0.0164584759851607
30
0
41
1
10
8.83532315441389
20
-0.0417686993245638
30
0
41
1
10
8.91297783173667
20
-0.0924734245218417
30
0
41
1
10
8.95196319153047
20
-0.117663913762868
30
0
41
1
10
9.06911817847413
20
-0.193064278784362
30
0
41
1
10
9.14749582444989
20
-0.243092635902656
30
0
41
1
10
9.38295713191005
20
-0.39302737280255
30
0
41
1
10
9.5400963249285
20
-0.49325123795046
30
0
41
1
10
9.85458723240191
20
-0.694203507588185
30
0
41
1
10
10.0117583599828
20
-0.795127404975375
30
0
41
1
10
10.2069541175548
20
-0.923902371805326
30
0
41
1
10
10.2459355558215
20
-0.949774000074569
30
0
41
1
10
10.3039868981492
20
-0.989339426807732
30
0
41
1
10
10.3233454373446
20
-1.00254529486614
30
0
41
1
10
10.3469532003284
20
-1.01999774771412
30
0
41
1
10
10.3516763623997
20
-1.02350000369279
30
0
41
1
10
10.3572791060267
20
-1.02829964651556
30
0
41
1
10
10.3583922197989
20
-1.02927072893425
30
0
41
1
10
10.3599070848676
20
-1.03090870241601
30
0
41
1
10
10.3608326513576
20
-1.03161543409979
30
0
41
1
10
10.3601017663652
20
-1.03284799998085
30
0
41
1
10
10.3593121254344
20
-1.03305105827437
30
0
41
1
10
10.3563789543617
20
-1.03504705877052
30
0
41
1
10
10.3446458792516
20
-1.04301546718369
30
0
41
1
10
10.2577999852774
20
-1.10140257677432
30
0
41
1
10
10.1731923177274
20
-1.15392150084983
30
0
41
1
10
9.94710327952993
20
-1.28019756391959
30
0
41
1
10
9.79383030302222
20
-1.34638430674775
30
0
41
1
10
9.56196796165386
20
-1.40703452432953
30
0
41
1
10
9.48405558577659
20
-1.42109142325211
30
0
41
1
10
9.32579853651606
20
-1.43684284611788
30
0
41
1
10
9.24489495257626
20
-1.43847146321969
30
0
41
1
10
9.11851670061841
20
-1.43206426480265
30
0
41
1
10
9.07278981285313
20
-1.42795809477298
30
0
41
1
10
9.02703995353733
20
-1.42225207309852
30
0
0
SPLINE
5
CB
100
AcDbEntity
8
1
62
256
6
ByLayer
370
18
48
1
60
0
100
AcDbSpline
70
4
71
3
72
20
73
16
40
0
40
0
40
0
40
0
40
0.124999999999999
40
0.124999999999999
40
0.249999999999997
40
0.249999999999997
40
0.374999999999996
40
0.374999999999996
40
0.499999999999994
40
0.499999999999994
40
0.749999999999997
40
0.749999999999997
40
0.874999999999999
40
0.874999999999999
40
1
40
1
40
1
40
1
41
1
10
25.4375963575084
20
1.72841242707906
30
0
41
1
10
25.4565432004513
20
1.68510882530984
30
0
41
1
10
25.475392567091
20
1.64075573496555
30
0
41
1
10
25.5130039310098
20
1.55110888313152
30
0
41
1
10
25.5317714560706
20
1.50587463706947
30
0
41
1
10
25.5691423364841
20
1.41363859501237
30
0
41
1
10
25.5877574382104
20
1.366763267549
30
0
41
1
10
25.6249175153367
20
1.27225759036813
30
0
41
1
10
25.6434579877897
20
1.22457875921157
30
0
41
1
10
25.6988425213663
20
1.07899183230313
30
0
41
1
10
25.7349898972672
20
0.981774504083688
30
0
41
1
10
25.787508421852
20
0.835913702138953
30
0
41
1
10
25.8047161815131
20
0.787273355243315
30
0
41
1
10
25.8390327225857
20
0.689986001463751
30
0
41
1
10
25.8559229485817
20
0.641324288555751
30
0
41
1
10
25.8725140837705
20
0.592642450607258
30
0
0
SPLINE
5
CC
100
AcDbEntity
8
1
62
256
6
ByLayer
370
18
48
1
60
0
100
AcDbSpline
70
4
71
3
72
14
73
10
40
0
40
0
40
0
40
0
40
0.25
40
0.25
40
0.5
40
0.5
40
0.75
40
0.75
40
1
40
1
40
1
40
1
41
1
10
25.4177833928549
20
0.364188343167172
30
0
41
1
10
25.4137537559857
20
0.374821010024306
30
0
41
1
10
25.4105347756976
20
0.385629703852032
30
0
41
1
10
25.4065420679579
20
0.407772214213082
30
0
41
1
10
25.4057269132823
20
0.419273248209322
30
0
41
1
10
25.4089551878078
20
0.441700501425885
30
0
41
1
10
25.413273851965
20
0.452666768086345
30
0
41
1
10
25.42892101339
20
0.468597792538077
30
0
41
1
10
25.4398989968014
20
0.472977892888451
30
0
41
1
10
25.451123299619
20
0.474284192880134
30
0
0
SPLINE
5
CD
100
AcDbEntity
8
1
62
256
6
ByLayer
370
18
48
1
60
0
100
AcDbSpline
70
4
71
3
72
18
73
14
40
0
40
0
40
0
40
0
40
0.117028206814037
40
0.117028206814037
40
0.293622565451229
40
0.293622565451229
40
0.470216924088422
40
0.470216924088422
40
0.646811282725615
40
0.646811282725615
40
0.823405641362807
40
0.823405641362807
40
1
40
1
40
1
40
1
41
1
10
8.07568506618537
20
-1.76416506414876
30
0
41
1
10
8.07568721248052
20
-1.76398300474429
30
0
41
1
10
8.07568770951519
20
-1.76047358507765
30
0
41
1
10
8.07568691000429
20
-1.74326371182784
30
0
41
1
10
8.07568457844212
20
-1.72518076840981
30
0
41
1
10
8.07568154046851
20
-1.674940230831
30
0
41
1
10
8.07568081338775
20
-1.64272017457026
30
0
41
1
10
8.07568502329724
20
-1.56387421304166
30
0
41
1
10
8.07569005834918
20
-1.51701144815317
30
0
41
1
10
8.07570804102744
20
-1.41205034464878
30
0
41
1
10
8.07572097659326
20
-1.35363295920817
30
0
41
1
10
8.07575551450051
20
-1.22484669866495
30
0
41
1
10
8.07577732962775
20
-1.15395154633811
30
0
41
1
10
8.07580224122202
20
-1.07940608171981
30
0
0
SPLINE
5
CE
100
AcDbEntity
8
1
62
256
6
ByLayer
370
18
48
1
60
0
100
AcDbSpline
70
4
71
3
72
8
73
4
40
0
40
0
40
0
40
0
40
1
40
1
40
1
40
1
41
1
10
8.0755650426064
20
1.64291194934717
30
0
41
1
10
8.08779268632537
20
1.6294556413944
30
0
41
1
10
8.10133772845228
20
1.61725889966641
30
0
41
1
10
8.11637685860825
20
1.60649645580136
30
0
0
SPLINE
5
CF
100
AcDbEntity
8
1
62
256
6
ByLayer
370
18
48
1
60
0
100
AcDbSpline
70
4
71
3
72
62
73
58
40
0
40
0
40
0
40
0
40
0.0076456918903256
40
0.0076456918903256
40
0.0482034624120051
40
0.0482034624120051
40
0.0887612329336846
40
0.0887612329336846
40
0.129319003455364
40
0.129319003455364
40
0.169876773977044
40
0.169876773977044
40
0.210434544498723
40
0.210434544498723
40
0.230713429759563
40
0.230713429759563
40
0.250992315020403
40
0.250992315020403
40
0.291550085542082
40
0.291550085542082
40
0.332107856063762
40
0.332107856063762
40
0.372665626585441
40
0.372665626585441
40
0.413223397107121
40
0.413223397107121
40
0.4537811676288
40
0.4537811676288
40
0.49433893815048
40
0.49433893815048
40
0.534896708672159
40
0.534896708672159
40
0.575454479193839
40
0.575454479193839
40
0.616012249715518
40
0.616012249715518
40
0.656570020237198
40
0.656570020237198
40
0.697127790758877
40
0.697127790758877
40
0.737685561280557
40
0.737685561280557
40
0.757964446541397
40
0.757964446541397
40
0.778243331802238
40
0.778243331802238
40
0.818801102323918
40
0.818801102323918
40
0.859358872845599
40
0.859358872845599
40
0.89991664336728
40
0.89991664336728
40
0.940474413888961
40
0.940474413888961
40
0.981032184410642
40
0.981032184410642
40
1
40
1
40
1
40
1
41
1
10
22.1340878932001
20
-1.11674543543256
30
0
41
1
10
22.1048833251457
20
-1.12996142355021
30
0
41
1
10
22.0756717910604
20
-1.14300263963833
30
0
41
1
10
21.8914285806552
20
-1.2240637291946
30
0
41
1
10
21.7360543607302
20
-1.28683377237951
30
0
41
1
10
21.4256743408447
20
-1.40050134608651
30
0
41
1
10
21.2706826208641
20
-1.45196025343253
30
0
41
1
10
20.96076805908
20
-1.54126080363201
30
0
41
1
10
20.8050054335578
20
-1.57908306913464
30
0
41
1
10
20.4945687719095
20
-1.63868314362125
30
0
41
1
10
20.3397231834066
20
-1.66280058851802
30
0
41
1
10
20.0293201459416
20
-1.696297102345
30
0
41
1
10
19.8737774029369
20
-1.70630016174135
30
0
41
1
10
19.6411180544314
20
-1.70722052759726
30
0
41
1
10
19.5635597291147
20
-1.7049928245556
30
0
41
1
10
19.4084564235801
20
-1.69822009738644
30
0
41
1
10
19.3309571308589
20
-1.69325313073523
30
0
41
1
10
19.0983873092479
20
-1.67296694679953
30
0
41
1
10
18.9427481718316
20
-1.65239879178449
30
0
41
1
10
18.6324828638952
20
-1.59680737798664
30
0
41
1
10
18.4778715660714
20
-1.560844753731
30
0
41
1
10
18.1675395968236
20
-1.47625298130166
30
0
41
1
10
18.0119293790474
20
-1.42701292840624
30
0
41
1
10
17.7017245681913
20
-1.31684494791628
30
0
41
1
10
17.5466374481457
20
-1.25692400577188
30
0
41
1
10
17.2364018480402
20
-1.12534628085197
30
0
41
1
10
17.0808260822035
20
-1.05364922712582
30
0
41
1
10
16.7704081175816
20
-0.901986965047712
30
0
41
1
10
16.6156164169552
20
-0.822029934141312
30
0
41
1
10
16.3051555455513
20
-0.656154212487735
30
0
41
1
10
16.1494469181731
20
-0.569689590013411
30
0
41
1
10
15.8394574291781
20
-0.392223579511665
30
0
41
1
10
15.6842928562406
20
-0.302094144742853
30
0
41
1
10
15.3738804864531
20
-0.11915914534643
30
0
41
1
10
15.2184542267364
20
-0.0263453960036486
30
0
41
1
10
14.9097922601119
20
0.156546557217354
30
0
41
1
10
14.7563466996239
20
0.247305658616511
30
0
41
1
10
14.4494783417164
20
0.425824846879095
30
0
41
1
10
14.2960361753056
20
0.513103726530716
30
0
41
1
10
13.9889712715542
20
0.684042496953168
30
0
41
1
10
13.834964871221
20
0.766810932558116
30
0
41
1
10
13.6026991905208
20
0.886219719974179
30
0
41
1
10
13.5249836095613
20
0.925383702991951
30
0
41
1
10
13.3698482844677
20
1.00136679633937
30
0
41
1
10
13.2923515429441
20
1.03774025027636
30
0
41
1
10
13.0598051572704
20
1.14323097939072
30
0
41
1
10
12.9050106125303
20
1.21000273064092
30
0
41
1
10
12.5949137557405
20
1.33271936446295
30
0
41
1
10
12.4393400665372
20
1.38840335198199
30
0
41
1
10
12.1296380029788
20
1.48531273924667
30
0
41
1
10
11.9749406763954
20
1.52746835485124
30
0
41
1
10
11.664539861879
20
1.59806190068497
30
0
41
1
10
11.5092702791547
20
1.62688801887026
30
0
41
1
10
11.19933372083
20
1.67041578476196
30
0
41
1
10
11.0444708119215
20
1.68506962883555
30
0
41
1
10
10.8168599376392
20
1.69491305486039
30
0
41
1
10
10.7442019701349
20
1.69624579252107
30
0
41
1
10
10.6715385485003
20
1.69592882052092
30
0
0
SPLINE
5
D0
100
AcDbEntity
8
1
62
256
6
ByLayer
370
18
48
1
60
0
100
AcDbSpline
70
4
71
3
72
24
73
20
40
0
40
0
40
0
40
0
40
0.113154153694062
40
0.113154153694062
40
0.226308307388124
40
0.226308307388124
40
0.339462461082186
40
0.339462461082186
40
0.452616614776248
40
0.452616614776248
40
0.56577076847031
40
0.56577076847031
40
0.678924922164372
40
0.678924922164372
40
0.792079075858434
40
0.792079075858434
40
0.905233229552496
40
0.905233229552496
40
1
40
1
40
1
40
1
41
1
10
9.02710938602473
20
-1.42226073164281
30
0
41
1
10
9.18240896179361
20
-1.47235642672226
30
0
41
1
10
9.33742612409952
20
-1.51533417088191
30
0
41
1
10
9.64710491463751
20
-1.58958814672269
30
0
41
1
10
9.80178749790056
20
-1.62001875107819
30
0
41
1
10
10.112609302151
20
-1.66512613270677
30
0
41
1
10
10.2674787255145
20
-1.68028775803134
30
0
41
1
10
10.577196656109
20
-1.69690321520116
30
0
41
1
10
10.7322138405235
20
-1.69850568489642
30
0
41
1
10
11.042642666588
20
-1.68521587338992
30
0
41
1
10
11.1977456164556
20
-1.67058665174605
30
0
41
1
10
11.5074790751402
20
-1.62719117891197
30
0
41
1
10
11.6621247738341
20
-1.59854346078848
30
0
41
1
10
11.9727666573426
20
-1.52802948897218
30
0
41
1
10
12.1277949491157
20
-1.48583600348439
30
0
41
1
10
12.4373247060912
20
-1.38908676839347
30
0
41
1
10
12.5922103600045
20
-1.33372701331155
30
0
41
1
10
12.8773987806209
20
-1.22098088836466
30
0
41
1
10
13.0072469732981
20
-1.16575563132022
30
0
41
1
10
13.1370520247435
20
-1.10788861932684
30
0
0
SPLINE
5
D1
100
AcDbEntity
8
1
62
256
6
ByLayer
370
18
48
1
60
0
100
AcDbSpline
70
4
71
3
72
28
73
24
40
0
40
0
40
0
40
0
40
0.0120200838783631
40
0.0120200838783631
40
0.121795630114103
40
0.121795630114103
40
0.231571176349842
40
0.231571176349842
40
0.286458949467713
40
0.286458949467713
40
0.341346722585582
40
0.341346722585582
40
0.451122268821318
40
0.451122268821318
40
0.560897815057054
40
0.560897815057054
40
0.670673361292791
40
0.670673361292791
40
0.780448907528527
40
0.780448907528527
40
0.890224453764264
40
0.890224453764264
40
1
40
1
40
1
40
1
41
1
10
19.6635988170435
20
1.70672649349802
30
0
41
1
10
19.6805750790978
20
1.7069041862984
30
0
41
1
10
19.6975482038455
20
1.70697600142597
30
0
41
1
10
19.8694939114045
20
1.70648808548412
30
0
41
1
10
20.0246681075686
20
1.69666245668156
30
0
41
1
10
20.335675025537
20
1.66337032860517
30
0
41
1
10
20.4905928309412
20
1.63934364620232
30
0
41
1
10
20.7232355863813
20
1.59483128614997
30
0
41
1
10
20.8008447409374
20
1.57833544053597
30
0
41
1
10
20.9561553463608
20
1.54084973707776
30
0
41
1
10
21.0339408307385
20
1.52011659860341
30
0
41
1
10
21.2670153955328
20
1.45313191734863
30
0
41
1
10
21.42215154011
20
1.40171138442525
30
0
41
1
10
21.7323923808943
20
1.28825311401334
30
0
41
1
10
21.8875876239557
20
1.22567998584785
30
0
41
1
10
22.1986958444901
20
1.08894810342196
30
0
41
1
10
22.3536644691056
20
1.01548325569425
30
0
41
1
10
22.6639062415943
20
0.861125488627948
30
0
41
1
10
22.8195324375418
20
0.780567420063221
30
0
41
1
10
23.1302615967898
20
0.610765662058355
30
0
41
1
10
23.285217916064
20
0.522870318854928
30
0
41
1
10
23.5954992056483
20
0.343998588790953
30
0
41
1
10
23.7507470199769
20
0.252280320785587
30
0
41
1
10
23.9061601598752
20
0.160151430586808
30
0
0
SPLINE
5
D2
100
AcDbEntity
8
1
62
256
6
ByLayer
370
18
48
1
60
0
100
AcDbSpline
70
4
71
3
72
38
73
34
40
0
40
0
40
0
40
0
40
0.0564731774173122
40
0.0564731774173122
40
0.112946354834624
40
0.112946354834624
40
0.225892709669249
40
0.225892709669249
40
0.254129298377906
40
0.254129298377906
40
0.282365887086563
40
0.282365887086563
40
0.338839064503878
40
0.338839064503878
40
0.451785419338509
40
0.451785419338509
40
0.480022008047167
40
0.480022008047167
40
0.508258596755825
40
0.508258596755825
40
0.564731774173141
40
0.564731774173141
40
0.621204951590457
40
0.621204951590457
40
0.677678129007773
40
0.677678129007773
40
0.790624483842407
40
0.790624483842407
40
0.847097661259724
40
0.847097661259724
40
0.903570838677041
40
0.903570838677041
40
1
40
1
40
1
40
1
41
1
10
25.408644714401
20
-1.75610241728555
30
0
41
1
10
25.2281860191356
20
-1.77608278605243
30
0
41
1
10
25.048373347481
20
-1.78548142321358
30
0
41
1
10
24.6875821392595
20
-1.78300346196639
30
0
41
1
10
24.5070820652841
20
-1.77109249659432
30
0
41
1
10
23.970268575156
20
-1.70498706331856
30
0
41
1
10
23.6159067201285
20
-1.62036283465997
30
0
41
1
10
23.1681853676311
20
-1.46947745256423
30
0
41
1
10
23.0784018586123
20
-1.43705044836727
30
0
41
1
10
22.8982098288355
20
-1.36774345565234
30
0
41
1
10
22.8077813691033
20
-1.33081377745208
30
0
41
1
10
22.5381537338877
20
-1.21496849759745
30
0
41
1
10
22.3595434289501
20
-1.13071700206325
30
0
41
1
10
21.8245597711933
20
-0.860641463751193
30
0
41
1
10
21.4693414844564
20
-0.657081050293812
30
0
41
1
10
21.0182561067864
20
-0.385536632137757
30
0
41
1
10
20.9278620340637
20
-0.330474422364318
30
0
41
1
10
20.7481021511297
20
-0.220190945129133
30
0
41
1
10
20.658495895703
20
-0.164852167822289
30
0
41
1
10
20.3904231849569
20
0.0016388478176736
30
0
41
1
10
20.212383444417
20
0.112734823196376
30
0
41
1
10
19.8558173015648
20
0.332146732231564
30
0
41
1
10
19.6772614749496
20
0.440419091319086
30
0
41
1
10
19.3186161297646
20
0.652456151017844
30
0
41
1
10
19.1373663708548
20
0.75624396634484
30
0
41
1
10
18.598347743834
20
1.04908719886401
30
0
41
1
10
18.2433120096821
20
1.22163382219196
30
0
41
1
10
17.7072242445992
20
1.43432293769436
30
0
41
1
10
17.52780906106
20
1.49743910846718
30
0
41
1
10
17.1660035364633
20
1.60587678730138
30
0
41
1
10
16.986509793882
20
1.65032822180589
30
0
41
1
10
16.5025719663744
20
1.74395361451903
30
0
41
1
10
16.1990674188765
20
1.77393911145128
30
0
41
1
10
15.8931297073782
20
1.77355132226762
30
0
0
SPLINE
5
D3
100
AcDbEntity
8
1
62
256
6
ByLayer
370
18
48
1
60
0
100
AcDbSpline
70
4
71
3
72
8
73
4
40
0
40
0
40
0
40
0
40
1
40
1
40
1
40
1
41
1
10
25.4107630945586
20
-1.70169677917008
30
0
41
1
10
25.3156313472768
20
-1.70834414849168
30
0
41
1
10
25.2208064848084
20
-1.71212553688429
30
0
41
1
10
25.1261840543803
20
-1.71308374566678
30
0
0
SPLINE
5
D4
100
AcDbEntity
8
1
62
256
6
ByLayer
370
13
48
1
60
0
100
AcDbSpline
70
4
71
3
72
34
73
30
40
0
40
0
40
0
40
0
40
0.104086890863813
40
0.104086890863813
40
0.174940868836618
40
0.174940868836618
40
0.210367857823021
40
0.210367857823021
40
0.245794846809425
40
0.245794846809425
40
0.387502802755042
40
0.387502802755042
40
0.458356780727851
40
0.458356780727851
40
0.52921075870066
40
0.52921075870066
40
0.670918714646278
40
0.670918714646278
40
0.706345703632683
40
0.706345703632683
40
0.741772692619088
40
0.741772692619088
40
0.812626670591897
40
0.812626670591897
40
0.883480648564706
40
0.883480648564706
40
0.954334626537515
40
0.954334626537515
40
1
40
1
40
1
40
1
41
1
10
25.1261834482723
20
-1.71308375180459
30
0
41
1
10
24.8643892777151
20
-1.71573481792501
30
0
41
1
10
24.6041446747587
20
-1.69677511369537
30
0
41
1
10
24.1656328504994
20
-1.63011105183944
30
0
41
1
10
23.9877212604765
20
-1.59352271394249
30
0
41
1
10
23.71898304822
20
-1.52463314134462
30
0
41
1
10
23.6288604727747
20
-1.49924537108941
30
0
41
1
10
23.4492683961546
20
-1.44430549627924
30
0
41
1
10
23.3598019838511
20
-1.41477256315403
30
0
41
1
10
22.9135765590254
20
-1.25747663534884
30
0
41
1
10
22.5603279935571
20
-1.10075460477665
30
0
41
1
10
22.026004073446
20
-0.83183186779803
30
0
41
1
10
21.8468008324998
20
-0.736313966233325
30
0
41
1
10
21.4869667860812
20
-0.536931758392143
30
0
41
1
10
21.3084014713378
20
-0.434206590188296
30
0
41
1
10
20.7740581845738
20
-0.121510087168701
30
0
41
1
10
20.4200098597055
20
0.0936320085564546
30
0
41
1
10
19.9716682399172
20
0.356383679623292
30
0
41
1
10
19.8814719817824
20
0.408755913695813
30
0
41
1
10
19.7017036907926
20
0.511750917069179
30
0
41
1
10
19.6121335009043
20
0.562350111747548
30
0
41
1
10
19.3441857478016
20
0.711398473326312
30
0
41
1
10
19.1663722693605
20
0.806737658380968
30
0
41
1
10
18.8106703812068
20
0.986749597941326
30
0
41
1
10
18.6328174220714
20
1.07146362197636
30
0
41
1
10
18.2756187557798
20
1.22820966296246
30
0
41
1
10
18.0955565550765
20
1.3004168664888
30
0
41
1
10
17.7998576777854
20
1.40572231959561
30
0
41
1
10
17.684233259939
20
1.44355822109654
30
0
41
1
10
17.5686460912255
20
1.47774369345868
30
0
0
SPLINE
5
D5
100
AcDbEntity
8
1
62
256
6
ByLayer
370
18
48
1
60
0
100
AcDbSpline
70
4
71
3
72
58
73
54
40
0
40
0
40
0
40
0
40
0.0624999999999991
40
0.0624999999999991
40
0.124999999999998
40
0.124999999999998
40
0.249999999999996
40
0.249999999999996
40
0.374999999999995
40
0.374999999999995
40
0.437499999999993
40
0.437499999999993
40
0.499999999999991
40
0.499999999999991
40
0.562499999999989
40
0.562499999999989
40
0.593749999999987
40
0.593749999999987
40
0.597656249999986
40
0.597656249999986
40
0.599609374999986
40
0.599609374999986
40
0.601562499999985
40
0.601562499999985
40
0.609374999999986
40
0.609374999999986
40
0.624999999999986
40
0.624999999999986
40
0.640624999999987
40
0.640624999999987
40
0.656249999999987
40
0.656249999999987
40
0.671874999999988
40
0.671874999999988
40
0.687499999999988
40
0.687499999999988
40
0.703124999999989
40
0.703124999999989
40
0.718749999999989
40
0.718749999999989
40
0.73437499999999
40
0.73437499999999
40
0.749999999999991
40
0.749999999999991
40
0.781249999999992
40
0.781249999999992
40
0.812499999999993
40
0.812499999999993
40
0.874999999999995
40
0.874999999999995
40
0.937499999999998
40
0.937499999999998
40
1
40
1
40
1
40
1
41
1
10
11.8750441549866
20
-0.412283046614988
30
0
41
1
10
11.7042125756182
20
-0.309227994408587
30
0
41
1
10
11.5311731881006
20
-0.208144462382705
30
0
41
1
10
11.1804997356712
20
-0.0108536716311107
30
0
41
1
10
11.0028378412284
20
0.0852975304001404
30
0
41
1
10
10.4694823667921
20
0.359998118827008
30
0
41
1
10
10.1107271180603
20
0.526179226559776
30
0
41
1
10
9.37891377478533
20
0.814175776423156
30
0
41
1
10
9.00575302435402
20
0.93576290492922
30
0
41
1
10
8.43103586041636
20
1.08194385604943
30
0
41
1
10
8.23759540056375
20
1.12454784730235
30
0
41
1
10
7.84864646320364
20
1.19790641681621
30
0
41
1
10
7.65283308314812
20
1.22875320421582
30
0
41
1
10
7.2583108756715
20
1.27988926610794
30
0
41
1
10
7.05938873718921
20
1.30020335305502
30
0
41
1
10
6.75982803566023
20
1.32338920663494
30
0
41
1
10
6.65975089178289
20
1.32990607124549
30
0
41
1
10
6.54702267592322
20
1.3359185060304
30
0
41
1
10
6.53453399664221
20
1.33700991090021
30
0
41
1
10
6.51558744370288
20
1.33617693378557
30
0
41
1
10
6.50928022608852
20
1.33552602092718
30
0
41
1
10
6.4971679437204
20
1.33319974711631
30
0
41
1
10
6.49144472963459
20
1.33127372004782
30
0
41
1
10
6.46474481404394
20
1.3201923807064
30
0
41
1
10
6.44364173372617
20
1.31095245475595
30
0
41
1
10
6.38119961399877
20
1.28194218558585
30
0
41
1
10
6.34099018987047
20
1.26101876495773
30
0
41
1
10
6.26429560975549
20
1.21509669462767
30
0
41
1
10
6.22777871996919
20
1.19010321219059
30
0
41
1
10
6.15966164020176
20
1.13446089277645
30
0
41
1
10
6.12788949093232
20
1.10353052152487
30
0
41
1
10
6.0735282648173
20
1.03616706724378
30
0
41
1
10
6.05046502588783
20
0.999152012111267
30
0
41
1
10
6.01644644912014
20
0.919151413176138
30
0
41
1
10
6.00579642151882
20
0.877113819922158
30
0
41
1
10
5.99778691776442
20
0.78854080578148
30
0
41
1
10
6.00069037724094
20
0.742359279210547
30
0
41
1
10
6.01816562900981
20
0.651212882866275
30
0
41
1
10
6.03285663544187
20
0.605235664798045
30
0
41
1
10
6.0699434275175
20
0.516669922423603
30
0
41
1
10
6.09238640477781
20
0.473576852271435
30
0
41
1
10
6.14304423402331
20
0.389072387952979
30
0
41
1
10
6.17127957329191
20
0.347726904039035
30
0
41
1
10
6.26050190769496
20
0.228363962121477
30
0
41
1
10
6.3265898240511
20
0.15370750565009
30
0
41
1
10
6.46666265100902
20
0.0101369865258505
30
0
41
1
10
6.54074572995307
20
-0.0586263014852761
30
0
41
1
10
6.76678810044933
20
-0.254971502271928
30
0
41
1
10
6.92416393643964
20
-0.37467196701644
30
0
41
1
10
7.24644435962807
20
-0.600603790163774
30
0
41
1
10
7.41219788093167
20
-0.706930907957997
30
0
41
1
10
7.7431173482874
20
-0.903919094163513
30
0
41
1
10
7.90908978920785
20
-0.995106616418781
30
0
41
1
10
8.07580224101912
20
-1.07940608161721
30
0
0
SPLINE
5
D6
100
AcDbEntity
8
1
62
256
6
ByLayer
370
18
48
1
60
0
100
AcDbSpline
70
4
71
3
72
8
73
4
40
0
40
0
40
0
40
0
40
1
40
1
40
1
40
1
41
1
10
25.4086447144007
20
1.75610241728546
30
0
41
1
10
25.2357250513132
20
1.77524806516038
30
0
41
1
10
25.0626239214918
20
1.78470658930883
30
0
41
1
10
24.8896531904693
20
1.78433984492759
30
0
0
SPLINE
5
D7
100
AcDbEntity
8
1
62
256
6
ByLayer
370
18
48
1
60
0
100
AcDbSpline
70
4
71
3
72
30
73
26
40
0
40
0
40
0
40
0
40
0.112661112753298
40
0.112661112753298
40
0.239423810931401
40
0.239423810931401
40
0.302805160020452
40
0.302805160020452
40
0.366186509109503
40
0.366186509109503
40
0.492949207287602
40
0.492949207287602
40
0.556330556376652
40
0.556330556376652
40
0.619711905465702
40
0.619711905465702
40
0.746474603643804
40
0.746474603643804
40
0.778165278188328
40
0.778165278188328
40
0.809855952732852
40
0.809855952732852
40
0.873237301821902
40
0.873237301821902
40
1
40
1
40
1
40
1
41
1
10
16.6882934740376
20
-1.70654900238227
30
0
41
1
10
16.3712146055634
20
-1.76005258505023
30
0
41
1
10
16.0542857266956
20
-1.78211759254049
30
0
41
1
10
15.3710342369243
20
-1.75757415070055
30
0
41
1
10
15.0143118097319
20
-1.7026260837165
30
0
41
1
10
14.478913617315
20
-1.5634546410636
30
0
41
1
10
14.3002022176582
20
-1.50763690270517
30
0
41
1
10
13.9404798944967
20
-1.3783050181471
30
0
41
1
10
13.7588967678706
20
-1.30438796289289
30
0
41
1
10
13.2197379248795
20
-1.0632181460997
30
0
41
1
10
12.8644122083984
20
-0.875417363499736
30
0
41
1
10
12.3271014109232
20
-0.56803479303079
30
0
41
1
10
12.1468288278206
20
-0.460923603188974
30
0
41
1
10
11.7851556740059
20
-0.241983028173308
30
0
41
1
10
11.6057278897357
20
-0.131314648814026
30
0
41
1
10
11.0691985375171
20
0.200241609507856
30
0
41
1
10
10.7133068309998
20
0.419791289518571
30
0
41
1
10
10.2628774506239
20
0.679555392017988
30
0
41
1
10
10.1722382708176
20
0.730882062023113
30
0
41
1
10
9.99153609152825
20
0.830786230935047
30
0
41
1
10
9.90153437810937
20
0.879344277832502
30
0
41
1
10
9.63223263487043
20
1.02045042221459
30
0
41
1
10
9.45362245385633
20
1.10842580260885
30
0
41
1
10
8.91851864078382
20
1.3517365437194
30
0
41
1
10
8.56254828933419
20
1.48609598760783
30
0
41
1
10
8.19989504899237
20
1.58390935647
30
0
0
SPLINE
5
D8
100
AcDbEntity
8
1
62
256
6
ByLayer
370
13
48
1
60
0
100
AcDbSpline
70
4
71
3
72
18
73
14
40
0
40
0
40
0
40
0
40
0.0781916716864865
40
0.0781916716864865
40
0.262553337349189
40
0.262553337349189
40
0.446915003011892
40
0.446915003011892
40
0.631276668674595
40
0.631276668674595
40
0.815638334337297
40
0.815638334337297
40
1
40
1
40
1
40
1
41
1
10
8.25058224506844
20
-1.69337030446465
30
0
41
1
10
8.25058426568785
20
-1.6934876817196
30
0
41
1
10
8.25058594943596
20
-1.69235021578575
30
0
41
1
10
8.25059085174871
20
-1.68434385698433
30
0
41
1
10
8.25059305771276
20
-1.67160893440851
30
0
41
1
10
8.25059746666423
20
-1.63233713798709
30
0
41
1
10
8.25059967626206
20
-1.60605040050479
30
0
41
1
10
8.25060615218644
20
-1.54050534561719
30
0
41
1
10
8.25061043324197
20
-1.50108829774982
30
0
41
1
10
8.2506224262757
20
-1.40932042865177
30
0
41
1
10
8.25063005481471
20
-1.35761865861775
30
0
41
1
10
8.2506490406758
20
-1.24255391418225
30
0
41
1
10
8.25066021862699
20
-1.18027672708334
30
0
41
1
10
8.25067271481777
20
-1.11377681291364
30
0
0
SPLINE
5
D9
100
AcDbEntity
8
1
62
256
6
ByLayer
370
18
48
1
60
0
100
AcDbSpline
70
4
71
3
72
20
73
16
40
0
40
0
40
0
40
0
40
0.124999999999999
40
0.124999999999999
40
0.249999999999998
40
0.249999999999998
40
0.374999999999998
40
0.374999999999998
40
0.499999999999997
40
0.499999999999997
40
0.749999999999996
40
0.749999999999996
40
0.874999999999998
40
0.874999999999998
40
1
40
1
40
1
40
1
41
1
10
25.4375963575084
20
-1.72841242707906
30
0
41
1
10
25.4565432232079
20
-1.68510877329882
30
0
41
1
10
25.4753926033832
20
-1.64075564934564
30
0
41
1
10
25.5130039864225
20
-1.55110875017252
30
0
41
1
10
25.5317715174343
20
-1.50587448764767
30
0
41
1
10
25.5691423947353
20
-1.41363844920988
30
0
41
1
10
25.5877574885594
20
-1.36676314015116
30
0
41
1
10
25.6249175436771
20
-1.27225751764266
30
0
41
1
10
25.6434580015293
20
-1.22457872286742
30
0
41
1
10
25.6988424704525
20
-1.07899196659295
30
0
41
1
10
25.7349898987986
20
-0.981774499985363
30
0
41
1
10
25.7875084251921
20
-0.835913692784885
30
0
41
1
10
25.8047161846867
20
-0.787273346276692
30
0
41
1
10
25.8390327252132
20
-0.689985993984322
30
0
41
1
10
25.8559229502229
20
-0.641324283740062
30
0
41
1
10
25.8725140837705
20
-0.592642450607258
30
0
0
SPLINE
5
DA
100
AcDbEntity
8
1
62
256
6
ByLayer
370
18
48
1
60
0
100
AcDbSpline
70
4
71
3
72
28
73
24
40
0
40
0
40
0
40
0
40
0.125000000000001
40
0.125000000000001
40
0.250000000000002
40
0.250000000000002
40
0.375000000000002
40
0.375000000000002
40
0.437500000000003
40
0.437500000000003
40
0.500000000000003
40
0.500000000000003
40
0.562500000000004
40
0.562500000000004
40
0.625000000000004
40
0.625000000000004
40
0.750000000000005
40
0.750000000000005
40
0.812500000000006
40
0.812500000000006
40
0.875000000000006
40
0.875000000000006
40
1
40
1
40
1
40
1
41
1
10
25.788204852626
20
-0.540810993879944
30
0
41
1
10
25.7743012045827
20
-0.532316276212015
30
0
41
1
10
25.7572238602212
20
-0.532666833111591
30
0
41
1
10
25.7192249143255
20
-0.547386856020779
30
0
41
1
10
25.6988334205017
20
-0.561573130984414
30
0
41
1
10
25.6565704062994
20
-0.602208406574903
30
0
41
1
10
25.6351909891784
20
-0.628129037604197
30
0
41
1
10
25.6035546541478
20
-0.676218830375717
30
0
41
1
10
25.5933451584785
20
-0.69341556579991
30
0
41
1
10
25.5737108910054
20
-0.73053450512387
30
0
41
1
10
25.5642999278326
20
-0.750504441678203
30
0
41
1
10
25.5475527136484
20
-0.791480239377307
30
0
41
1
10
25.5400104529848
20
-0.813060601965873
30
0
41
1
10
25.5281609584095
20
-0.854943073536987
30
0
41
1
10
25.523654465973
20
-0.875973333009426
30
0
41
1
10
25.5158385725863
20
-0.933909782727369
30
0
41
1
10
25.5183309094941
20
-0.965944548326917
30
0
41
1
10
25.5305495728564
20
-0.997408845385991
30
0
41
1
10
25.535997514024
20
-1.00543273160636
30
0
41
1
10
25.5487567266559
20
-1.01672288220499
30
0
41
1
10
25.5560174024121
20
-1.02003013526391
30
0
41
1
10
25.5800718617443
20
-1.02392224232017
30
0
41
1
10
25.5987941533922
20
-1.0183889602705
30
0
41
1
10
25.6188575424815
20
-1.0060889045356
30
0
0
SPLINE
5
DB
100
AcDbEntity
8
1
62
256
6
ByLayer
370
18
48
1
60
0
100
AcDbSpline
70
4
71
3
72
26
73
22
40
0
40
0
40
0
40
0
40
0.11077266503265
40
0.11077266503265
40
0.2215453300653
40
0.2215453300653
40
0.332317995097951
40
0.332317995097951
40
0.443090660130601
40
0.443090660130601
40
0.553863325163251
40
0.553863325163251
40
0.664635990195901
40
0.664635990195901
40
0.775408655228551
40
0.775408655228551
40
0.886181320261201
40
0.886181320261201
40
0.996953985293851
40
0.996953985293851
40
1
40
1
40
1
40
1
41
1
10
11.8746876925392
20
-0.412060747763547
30
0
41
1
10
12.017071776116
20
-0.498390261613281
30
0
41
1
10
12.1592207740634
20
-0.581457935515346
30
0
41
1
10
12.4421474279908
20
-0.742945181860364
30
0
41
1
10
12.582569463808
20
-0.821828101455253
30
0
41
1
10
12.8643246823301
20
-0.971496137553629
30
0
41
1
10
13.0052056459094
20
-1.04298882564541
30
0
41
1
10
13.2869350540615
20
-1.17919510802773
30
0
41
1
10
13.4284489012583
20
-1.24304366724604
30
0
41
1
10
13.7129632185032
20
-1.36194652963675
30
0
41
1
10
13.8554967492365
20
-1.41746697955594
30
0
41
1
10
14.1390421698928
20
-1.51572950448079
30
0
41
1
10
14.2803077991004
20
-1.55921322773514
30
0
41
1
10
14.5616187195742
20
-1.63509039185112
30
0
41
1
10
14.7023256129727
20
-1.66699064598075
30
0
41
1
10
14.9841853787103
20
-1.71870670257866
30
0
41
1
10
15.1247743892129
20
-1.73870252870142
30
0
41
1
10
15.4081306798048
20
-1.76563718272285
30
0
41
1
10
15.5512471947501
20
-1.7727614281236
30
0
41
1
10
15.6971182493783
20
-1.77330643311819
30
0
41
1
10
15.7010216114678
20
-1.77331605503809
30
0
41
1
10
15.7049245415119
20
-1.77332071962738
30
0
0
SPLINE
5
DC
100
AcDbEntity
8
1
62
256
6
ByLayer
370
18
48
1
60
0
100
AcDbSpline
70
4
71
3
72
22
73
18
40
0
40
0
40
0
40
0
40
0.100489897814779
40
0.100489897814779
40
0.228991340984096
40
0.228991340984096
40
0.357492784153414
40
0.357492784153414
40
0.485994227322731
40
0.485994227322731
40
0.614495670492048
40
0.614495670492048
40
0.742997113661365
40
0.742997113661365
40
0.871498556830683
40
0.871498556830683
40
1
40
1
40
1
40
1
41
1
10
22.1395872427624
20
1.11025453175787
30
0
41
1
10
22.2493621126785
20
1.16380433172719
30
0
41
1
10
22.3591840284158
20
1.21493925342315
30
0
41
1
10
22.6105200165718
20
1.32477623473881
30
0
41
1
10
22.7516631828093
20
1.38240664188888
30
0
41
1
10
23.0356674429431
20
1.48765200159934
30
0
41
1
10
23.1784512267714
20
1.53453554561364
30
0
41
1
10
23.4608159752989
20
1.61701412066321
30
0
41
1
10
23.6012314126166
20
1.65243484770747
30
0
41
1
10
23.8825522125756
20
1.71065635819736
30
0
41
1
10
24.0228210827282
20
1.73383950517834
30
0
41
1
10
24.3036431142613
20
1.76762747857617
30
0
41
1
10
24.4449026444264
20
1.77810305863562
30
0
41
1
10
24.7278567842488
20
1.78630164516346
30
0
41
1
10
24.8702173300651
20
1.78380979179798
30
0
41
1
10
25.1545509183198
20
1.7658303219427
30
0
41
1
10
25.2961588140373
20
1.75035117616758
30
0
41
1
10
25.4375963574963
20
1.72841242708097
30
0
0
SPLINE
5
DD
100
AcDbEntity
8
1
62
256
6
ByLayer
370
18
48
1
60
0
100
AcDbSpline
70
4
71
3
72
8
73
4
40
0
40
0
40
0
40
0
40
1
40
1
40
1
40
1
41
1
10
8.10402494069882
20
1.61568602399652
30
0
41
1
10
8.08719157692843
20
1.62376380203227
30
0
41
1
10
8.07555507812384
20
1.63328760184794
30
0
41
1
10
8.07556504260646
20
1.64291194934725
30
0
0
SPLINE
5
DE
100
AcDbEntity
8
SK1
62
256
6
ByLayer
370
18
48
1
60
0
100
AcDbSpline
70
4
71
3
72
8
73
4
40
0
40
0
40
0
40
0
40
1
40
1
40
1
40
1
41
1
10
-36
20
1.05860481062322
30
0
41
1
10
-35.8061328765614
20
1.38855983098841
30
0
41
1
10
-35.603794325356
20
1.71459832189305
30
0
41
1
10
-35.4
20
2.03996377603158
30
0
0
SPLINE
5
DF
100
AcDbEntity
8
SK1
62
256
6
ByLayer
370
18
48
1
60
0
100
AcDbSpline
70
4
71
3
72
14
73
10
40
0
40
0
40
0
40
0
40
0.500000000000002
40
0.500000000000002
40
0.750000000000001
40
0.750000000000001
40
0.875
40
0.875
40
1
40
1
40
1
40
1
41
1
10
-35.4
20
2.0399637760313
30
0
41
1
10
-35.3787677796885
20
2.0738618298262
30
0
41
1
10
-35.3584290958895
20
2.11060848908875
30
0
41
1
10
-35.3303626450498
20
2.16987431417675
30
0
41
1
10
-35.3215171954455
20
2.1901243707465
30
0
41
1
10
-35.3102812516991
20
2.22074616000367
30
0
41
1
10
-35.3068890218585
20
2.23100203961545
30
0
41
1
10
-35.3017585680987
20
2.25041232492484
30
0
41
1
10
-35.3
20
2.25973728798687
30
0
41
1
10
-35.3
20
2.26686892152477
30
0
0
SPLINE
5
E0
100
AcDbEntity
8
SK1
62
256
6
ByLayer
370
18
48
1
60
0
100
AcDbSpline
70
4
71
3
72
8
73
4
40
0
40
0
40
0
40
0
40
1
40
1
40
1
40
1
41
1
10
-35.4
20
2.73026797366856
30
0
41
1
10
-35.6037685473433
20
2.40494367511573
30
0
41
1
10
-35.8061095349286
20
2.0789037552629
30
0
41
1
10
-36
20
1.74890900826023
30
0
0
SPLINE
5
E1
100
AcDbEntity
8
SK1
62
256
6
ByLayer
370
18
48
1
60
0
100
AcDbSpline
70
4
71
3
72
14
73
10
40
0
40
0
40
0
40
0
40
0.125000000000001
40
0.125000000000001
40
0.250000000000002
40
0.250000000000002
40
0.500000000000002
40
0.500000000000002
40
1
40
1
40
1
40
1
41
1
10
-35.3
20
2.86513255947682
30
0
41
1
10
-35.3
20
2.86793653595049
30
0
41
1
10
-35.3017593723636
20
2.86768759834061
30
0
41
1
10
-35.306935341198
20
2.86376236293896
30
0
41
1
10
-35.3102739075535
20
2.86022530996914
30
0
41
1
10
-35.3215583577555
20
2.84695264621558
30
0
41
1
10
-35.3303095934912
20
2.8351422687588
30
0
41
1
10
-35.358391202053
20
2.79537887412633
30
0
41
1
10
-35.378655954467
20
2.76434456071721
30
0
41
1
10
-35.4
20
2.73026797366856
30
0
0
LINE
5
76
100
AcDbEntity
8
81
62
256
6
ByLayer
370
18
48
1
60
0
100
AcDbLine
10
26
20
0
30
0
11
31
21
0
31
0
39
0
210
0
220
0
230
1
0
LINE
5
77
100
AcDbEntity
8
1
62
256
6
ByLayer
370
18
48
1
60
0
100
AcDbLine
10
8.075654
20
1.764166
30
0
11
1.560773
21
1.756348
31
0
39
0
210
0
220
0
230
1
0
LINE
5
79
100
AcDbEntity
8
1
62
256
6
ByLayer
370
18
48
1
60
0
100
AcDbLine
10
15.892809
20
1.773546
30
0
11
15.704313
21
1.77332
31
0
39
0
210
0
220
0
230
1
0
LINE
5
7A
100
AcDbEntity
8
1
62
256
6
ByLayer
370
18
48
1
60
0
100
AcDbLine
10
24.894336
20
1.784348
30
0
11
24.714214
21
1.784132
31
0
39
0
210
0
220
0
230
1
0
LINE
5
7B
100
AcDbEntity
8
1
62
256
6
ByLayer
370
18
48
1
60
0
100
AcDbLine
10
24.714214
20
-1.784132
30
0
11
24.8933
21
-1.784347
31
0
39
0
210
0
220
0
230
1
0
LINE
5
7C
100
AcDbEntity
8
1
62
256
6
ByLayer
370
18
48
1
60
0
100
AcDbLine
10
15.704313
20
-1.77332
30
0
11
15.892405
21
-1.773546
31
0
39
0
210
0
220
0
230
1
0
LINE
5
7D
100
AcDbEntity
8
1
62
256
6
ByLayer
370
18
48
1
60
0
100
AcDbLine
10
1.560773
20
-1.756348
30
0
11
8.075654
21
-1.764166
31
0
39
0
210
0
220
0
230
1
0
LINE
5
7E
100
AcDbEntity
8
SK1
62
256
6
ByLayer
370
18
48
1
60
0
100
AcDbLine
10
-35.278312
20
3
30
0
11
-36
21
1.75
31
0
39
0
210
0
220
0
230
1
0
LINE
5
80
100
AcDbEntity
8
SK1
62
256
6
ByLayer
370
18
48
1
60
0
100
AcDbLine
10
-36
20
-1.75
30
0
11
-35.278312
21
-3
31
0
39
0
210
0
220
0
230
1
0
LINE
5
81
100
AcDbEntity
8
SK1
62
256
6
ByLayer
370
18
48
1
60
0
100
AcDbLine
10
0
20
3
30
0
11
-35.278312
21
3
31
0
39
0
210
0
220
0
230
1
0
LINE
5
82
100
AcDbEntity
8
SK1
62
256
6
ByLayer
370
18
48
1
60
0
100
AcDbLine
10
-35.278312
20
-3
30
0
11
0
21
-3
31
0
39
0
210
0
220
0
230
1
0
LINE
5
83
100
AcDbEntity
8
SK4
62
256
6
ByLayer
370
18
48
0.05
60
0
100
AcDbLine
10
31
20
0
30
0
11
-41
21
0
31
0
39
0
210
0
220
0
230
1
0
LINE
5
85
100
AcDbEntity
8
4
62
256
6
ByLayer
370
18
48
0.05
60
0
100
AcDbLine
10
26
20
0
30
0
11
0
21
0
31
0
39
0
210
0
220
0
230
1
0
LINE
5
87
100
AcDbEntity
8
80
62
256
6
ByLayer
370
18
48
1
60
0
100
AcDbLine
10
0
20
0
30
0
11
-5
21
0
31
0
39
0
210
0
220
0
230
1
0
LINE
5
88
100
AcDbEntity
8
1
62
256
6
ByLayer
370
18
48
1
60
0
100
AcDbLine
10
25.972092
20
0.168275
30
0
11
25.986434
21
0.094378
31
0
39
0
210
0
220
0
230
1
0
LINE
5
89
100
AcDbEntity
8
1
62
256
6
ByLayer
370
18
48
1
60
0
100
AcDbLine
10
25.936045
20
0.346895
30
0
11
25.972092
21
0.168275
31
0
39
0
210
0
220
0
230
1
0
LINE
5
8A
100
AcDbEntity
8
1
62
256
6
ByLayer
370
18
48
1
60
0
100
AcDbLine
10
25.618858
20
-1.006089
30
0
11
25.362446
21
-1.710573
31
0
39
0
210
0
220
0
230
1
0
LINE
5
8B
100
AcDbEntity
8
1
62
256
6
ByLayer
370
18
48
1
60
0
100
AcDbLine
10
25.972092
20
-0.168275
30
0
11
25.986434
21
-0.094378
31
0
39
0
210
0
220
0
230
1
0
LINE
5
8C
100
AcDbEntity
8
1
62
256
6
ByLayer
370
18
48
1
60
0
100
AcDbLine
10
25.976962
20
-0.022204
30
0
11
25.788205
21
-0.540811
31
0
39
0
210
0
220
0
230
1
0
LINE
5
8D
100
AcDbEntity
8
1
62
256
6
ByLayer
370
13
48
1
60
0
100
AcDbLine
10
25.968252
20
0.103404
30
0
11
25.986434
21
0.094378
31
0
39
0
210
0
220
0
230
1
0
LINE
5
8E
100
AcDbEntity
8
1
62
256
6
ByLayer
370
13
48
1
60
0
100
AcDbLine
10
0.779907
20
2.378174
30
0
11
0.779907
21
-2.378174
31
0
39
0
210
0
220
0
230
1
0
LINE
5
8F
100
AcDbEntity
8
1
62
256
6
ByLayer
370
13
48
1
60
0
100
AcDbLine
10
25.910847
20
0.01437
30
0
11
25.978345
21
-0.01914
31
0
39
0
210
0
220
0
230
1
0
LINE
5
90
100
AcDbEntity
8
1
62
256
6
ByLayer
370
13
48
1
60
0
100
AcDbLine
10
25.936045
20
0.346895
30
0
11
25.601017
21
0.368678
31
0
39
0
210
0
220
0
230
1
0
LINE
5
91
100
AcDbEntity
8
1
62
256
6
ByLayer
370
13
48
1
60
0
100
AcDbLine
10
1.560773
20
1.756348
30
0
11
1.560773
21
-1.756348
31
0
39
0
210
0
220
0
230
1
0
LINE
5
92
100
AcDbEntity
8
1
62
256
6
ByLayer
370
18
48
1
60
0
100
AcDbLine
10
0
20
-3
30
0
11
0
21
3
31
0
39
0
210
0
220
0
230
1
0
LINE
5
93
100
AcDbEntity
8
1
62
256
6
ByLayer
370
18
48
1
60
0
100
AcDbLine
10
26
20
0.038008
30
0
11
26
21
-0.038008
31
0
39
0
210
0
220
0
230
1
0
LINE
5
94
100
AcDbEntity
8
1
62
256
6
ByLayer
370
18
48
1
60
0
100
AcDbLine
10
25.100149
20
-1.320352
30
0
11
25.976962
21
-0.022204
31
0
39
0
210
0
220
0
230
1
0
LINE
5
95
100
AcDbEntity
8
1
62
256
6
ByLayer
370
18
48
1
60
0
100
AcDbLine
10
25.936045
20
-0.346895
30
0
11
25.972092
21
-0.168275
31
0
39
0
210
0
220
0
230
1
0
LINE
5
96
100
AcDbEntity
8
1
62
256
6
ByLayer
370
18
48
1
60
0
100
AcDbLine
10
25.978345
20
-0.01914
30
0
11
25.976962
21
-0.022204
31
0
39
0
210
0
220
0
230
1
0
LINE
5
97
100
AcDbEntity
8
1
62
256
6
ByLayer
370
13
48
1
60
0
100
AcDbLine
10
25.531056
20
0.277223
30
0
11
25.910847
21
0.01437
31
0
39
0
210
0
220
0
230
1
0
LINE
5
98
100
AcDbEntity
8
1
62
256
6
ByLayer
370
13
48
1
60
0
100
AcDbLine
10
25.972092
20
0.111857
30
0
11
25.601017
21
0.368678
31
0
39
0
210
0
220
0
230
1
0
LINE
5
99
100
AcDbEntity
8
1
62
256
6
ByLayer
370
18
48
1
60
0
100
AcDbLine
10
25.972092
20
0.168275
30
0
11
25.972092
21
0.111857
31
0
39
0
210
0
220
0
230
1
0
LINE
5
9A
100
AcDbEntity
8
SK1
62
256
6
ByLayer
370
18
48
1
60
0
100
AcDbLine
10
-35.3
20
2.266869
30
0
11
-35.3
21
2.865133
31
0
39
0
210
0
220
0
230
1
0
LINE
5
9B
100
AcDbEntity
8
SK1
62
256
6
ByLayer
370
18
48
1
60
0
100
AcDbLine
10
0
20
-3
30
0
11
0
21
3
31
0
39
0
210
0
220
0
230
1
0
LINE
5
9C
100
AcDbEntity
8
SK1
62
256
6
ByLayer
370
18
48
1
60
0
100
AcDbLine
10
-36
20
1.75
30
0
11
-36
21
1.748909
31
0
39
0
210
0
220
0
230
1
0
LINE
5
9D
100
AcDbEntity
8
SK1
62
256
6
ByLayer
370
18
48
1
60
0
100
AcDbLine
10
-36
20
1.058605
30
0
11
-36
21
-1.75
31
0
39
0
210
0
220
0
230
1
0
LINE
5
9E
100
AcDbEntity
8
SK1
62
256
6
ByLayer
370
18
48
1
60
0
100
AcDbLine
10
-36
20
1.748909
30
0
11
-36
21
1.058568
31
0
39
0
210
0
220
0
230
1
0
LINE
5
9F
100
AcDbEntity
8
SK1
62
256
6
ByLayer
370
18
48
1
60
0
100
AcDbLine
10
-35.278312
20
3
30
0
11
-35.278312
21
-3
31
0
39
0
210
0
220
0
230
1
0
LINE
5
A0
100
AcDbEntity
8
SK1
62
256
6
ByLayer
370
13
48
1
60
0
100
AcDbLine
10
-35.4
20
2.730268
30
0
11
-35.4
21
2.039926
31
0
39
0
210
0
220
0
230
1
0
MTEXT
5
E2
100
AcDbEntity
8
SK6
62
256
6
ByLayer
370
13
48
1
60
0
100
AcDbMText
10
-2.870831
20
34.167694
30
0
210
0
220
0
230
1
1
\W0.7542;R846-0357-30-A1A1220
40
3.5
41
0
44
1.084337
50
0
71
8
72
5
7
iso_b_vert
0
DIMENSION
5
EF
100
AcDbEntity
8
SK2
62
256
6
ByLayer
370
13
48
1
60
0
100
AcDbDimension
2
DimnDraft3D1
10
25.4
20
-11.998398
30
0
11
11.650059
21
-11.998398
31
0
70
32
71
5
72
1
41
1
210
0
220
0
230
1
3
Standard
100
AcDbAlignedDimension
13
0
23
-1.5875
33
0
14
25.4
24
-3.3725
34
0
50
0
100
AcDbRotatedDimension
1001
ACAD
1000
DSTYLE
1002
{
1070
   279
1070
     0
1070
   172
1070
     1
1070
   173
1070
     1
1070
   340
1005
E3
1070
   271
1070
     2
1070
   272
1070
     2
1070
    77
1070
     1
1070
    73
1070
     0
1070
   171
1070
     3
1070
   274
1070
     4
1070
   177
1070
    35
1070
   176
1070
    35
1070
   178
1070
    35
1070
    48
1040
-0.005
1070
    41
1041
3.5
1070
   147
1041
1.75
1070
    42
1041
1.5875
1070
    44
1041
2.0
1070
   140
1041
3.5
1070
   343
1005
0
1070
   344
1005
0
1002
}
0
DIMENSION
5
F9
100
AcDbEntity
8
SK2
62
256
6
ByLayer
370
13
48
1
60
0
100
AcDbDimension
2
DimnDraft3D2
10
26
20
-31.692985
30
0
11
-4.2587
21
-31.692985
31
0
70
32
71
5
72
1
41
1
210
0
220
0
230
1
3
Standard
100
AcDbAlignedDimension
13
-36
23
-4.5875
33
0
14
26
24
-1.5875
34
0
50
0
100
AcDbRotatedDimension
1001
ACAD
1000
DSTYLE
1002
{
1070
   279
1070
     0
1070
   172
1070
     1
1070
   173
1070
     1
1070
   340
1005
E3
1070
   271
1070
     2
1070
   272
1070
     2
1070
    77
1070
     1
1070
    73
1070
     0
1070
   171
1070
     3
1070
   274
1070
     4
1070
   177
1070
    35
1070
   176
1070
    35
1070
   178
1070
    35
1070
    48
1040
-0.005
1070
    41
1041
3.5
1070
   147
1041
1.75
1070
    42
1041
1.5875
1070
    44
1041
2.0
1070
   140
1041
3.5
1070
   343
1005
0
1070
   344
1005
0
1002
}
0
DIMENSION
5
103
100
AcDbEntity
8
SK2
62
256
6
ByLayer
370
13
48
1
60
0
100
AcDbDimension
2
DimnDraft3D3
10
26
20
13.394119
30
0
11
20.345
21
13.394119
31
0
70
32
71
5
72
1
41
1
210
0
220
0
230
1
3
Standard
100
AcDbAlignedDimension
13
14.69
23
3.3725
33
0
14
26
24
1.5875
34
0
50
0
100
AcDbRotatedDimension
1001
ACAD
1000
DSTYLE
1002
{
1070
   279
1070
     0
1070
   172
1070
     1
1070
   173
1070
     1
1070
   340
1005
E3
1070
   271
1070
     2
1070
   272
1070
     2
1070
    77
1070
     1
1070
    73
1070
     0
1070
   171
1070
     3
1070
   274
1070
     4
1070
   177
1070
    35
1070
   176
1070
    35
1070
   178
1070
    35
1070
    48
1040
-0.005
1070
    41
1041
3.5
1070
   147
1041
1.75
1070
    42
1041
1.5875
1070
    44
1041
2.0
1070
   140
1041
3.5
1070
   343
1005
0
1070
   344
1005
0
1002
}
0
DIMENSION
5
10D
100
AcDbEntity
8
SK2
62
256
6
ByLayer
370
13
48
1
60
0
100
AcDbDimension
2
DimnDraft3D4
10
25.4
20
-14.587503
30
0
11
35.981425
21
-14.587503
31
0
70
32
71
5
72
1
41
1
210
0
220
0
230
1
3
Standard
100
AcDbAlignedDimension
13
26
23
-1.5875
33
0
14
25.4
24
-3.3725
34
0
50
0
100
AcDbRotatedDimension
1001
ACAD
1000
DSTYLE
1002
{
1070
   279
1070
     0
1070
   172
1070
     1
1070
   173
1070
     1
1070
   340
1005
E3
1070
   271
1070
     2
1070
   272
1070
     2
1070
    77
1070
     1
1070
    73
1070
     0
1070
   171
1070
     3
1070
   274
1070
     4
1070
   177
1070
    35
1070
   176
1070
    35
1070
   178
1070
    35
1070
    48
1040
-0.005
1070
    41
1041
3.5
1070
   147
1041
1.75
1070
    42
1041
1.5875
1070
    44
1041
2.0
1070
   140
1041
3.5
1070
   343
1005
0
1070
   344
1005
0
1002
}
0
DIMENSION
5
117
100
AcDbEntity
8
SK2
62
256
6
ByLayer
370
13
48
1
60
0
100
AcDbDimension
2
DimnDraft3D5
10
25.4
20
-21.343428
30
0
11
-7.339324
21
-21.343428
31
0
70
32
71
5
72
1
41
1
210
0
220
0
230
1
3
Standard
100
AcDbAlignedDimension
13
-36
23
-4.5875
33
0
14
25.4
24
-3.3725
34
0
50
0
100
AcDbRotatedDimension
1001
ACAD
1000
DSTYLE
1002
{
1070
   279
1070
     0
1070
   172
1070
     1
1070
   173
1070
     1
1070
   340
1005
E3
1070
   271
1070
     2
1070
   272
1070
     2
1070
    77
1070
     1
1070
    73
1070
     0
1070
   171
1070
     3
1070
   274
1070
     4
1070
   177
1070
    35
1070
   176
1070
    35
1070
   178
1070
    35
1070
    48
1040
-0.005
1070
    41
1041
3.5
1070
   147
1041
1.75
1070
    42
1041
1.5875
1070
    44
1041
2.0
1070
   140
1041
3.5
1070
   343
1005
0
1070
   344
1005
0
1002
}
0
DIMENSION
5
122
100
AcDbEntity
8
SK2
62
256
6
ByLayer
370
13
48
1
60
0
100
AcDbDimension
2
DimnDraft3D6
10
-46.625163
20
3
30
0
11
-47.250163
21
21.47418
31
0
70
33
71
5
72
1
41
1
210
0
220
0
230
1
3
Standard
100
AcDbAlignedDimension
13
-37.5875
23
-3
33
0
14
-37.5875
24
3
34
0
1001
ACAD
1000
DSTYLE
1002
{
1070
   279
1070
     0
1070
    74
1070
     0
1070
   173
1070
     1
1070
   340
1005
E3
1070
   271
1070
     3
1070
   272
1070
     2
1070
    77
1070
     1
1070
    73
1070
     0
1070
   171
1070
     3
1070
   274
1070
     4
1070
   177
1070
    35
1070
   176
1070
    35
1070
   178
1070
    35
1070
    48
1040
-0.005
1070
    41
1041
3.5
1070
   147
1041
1.75
1070
    42
1041
1.5875
1070
    44
1041
2.0
1070
   140
1041
3.5
1070
   343
1005
0
1070
   344
1005
0
1002
}
0
DIMENSION
5
12D
100
AcDbEntity
8
2
62
256
6
ByLayer
370
13
48
1
60
0
100
AcDbDimension
2
DimnDraft3D7
10
40.083343
20
1.785
30
0
11
35.458343
21
18.852266
31
0
70
33
71
5
72
1
41
1
210
0
220
0
230
1
3
Standard
100
AcDbAlignedDimension
13
26.9875
23
-1.785
33
0
14
26.9875
24
1.785
34
0
1001
ACAD
1000
DSTYLE
1002
{
1070
   279
1070
     0
1070
    74
1070
     0
1070
   173
1070
     1
1070
   340
1005
E3
1070
   271
1070
     3
1070
   272
1070
     2
1070
    77
1070
     1
1070
    73
1070
     0
1070
   171
1070
     3
1070
   274
1070
     4
1070
   177
1070
    35
1070
   176
1070
    35
1070
   178
1070
    35
1070
    48
1040
-0.005
1070
    41
1041
3.5
1070
   147
1041
1.75
1070
    42
1041
1.5875
1070
    44
1041
2.0
1070
   140
1041
3.5
1070
   343
1005
0
1070
   344
1005
0
1002
}
0
ENDSEC
0
SECTION
2
OBJECTS
0
DICTIONARY
5
198
330
0
100
AcDbDictionary
280
0
281
1
3
ACAD_GROUP
350
199
3
ACAD_MLINESTYLE
350
19a
0
DICTIONARY
5
199
330
0
100
AcDbDictionary
280
0
281
1
0
DICTIONARY
5
19a
330
0
100
AcDbDictionary
280
0
281
1
3
Standard
350
18
0
MLINESTYLE
5
18
330
19a
100
AcDbMlineStyle
2
Standard
70
0
3

62
256
51
90
52
90
71
2
49
-0.5
62
256
6
ByLayer
49
0.5
62
256
6
ByLayer
0
RASTERVARIABLES
5
186
330

100
AcDbRasterVariables
90
0
70
1
71
1
72
1
0
ENDSEC
0
EOF
